  0
SECTION
  2
HEADER
  9
$ACADVER
  1
AC1018
  9
$ACADMAINTVER
 70
     2
  9
$DWGCODEPAGE
  3
ANSI_1252
  9
$INSBASE
 10
0.0
 20
0.0
 30
0.0
  9
$EXTMIN
 10
-0.080096417720597
 20
-0.1132792193470777
 30
-0.000000000000013
  9
$EXTMAX
 10
1050.000004890039
 20
1485.000006915915
 30
0.0000000000000023
  9
$LIMMIN
 10
0.0
 20
0.0
  9
$LIMMAX
 10
1050.0
 20
1485.0
  9
$ORTHOMODE
 70
     1
  9
$REGENMODE
 70
     1
  9
$FILLMODE
 70
     1
  9
$QTEXTMODE
 70
     0
  9
$MIRRTEXT
 70
     1
  9
$LTSCALE
 40
50.0
  9
$ATTMODE
 70
     1
  9
$TEXTSIZE
 40
2.5
  9
$TRACEWID
 40
0.5
  9
$TEXTSTYLE
  7
GREEKS
  9
$CLAYER
  8
VOLL
  9
$CELTYPE
  6
ByLayer
  9
$CECOLOR
 62
   256
  9
$CELTSCALE
 40
1.0
  9
$DISPSILH
 70
     0
  9
$DIMSCALE
 40
5.0
  9
$DIMASZ
 40
3.5
  9
$DIMEXO
 40
1.0
  9
$DIMDLI
 40
7.0
  9
$DIMRND
 40
0.0
  9
$DIMDLE
 40
0.0
  9
$DIMEXE
 40
1.0
  9
$DIMTP
 40
3.0
  9
$DIMTM
 40
3.0
  9
$DIMTXT
 40
3.5
  9
$DIMCEN
 40
1.5
  9
$DIMTSZ
 40
0.0
  9
$DIMTOL
 70
     0
  9
$DIMLIM
 70
     0
  9
$DIMTIH
 70
     0
  9
$DIMTOH
 70
     0
  9
$DIMSE1
 70
     0
  9
$DIMSE2
 70
     0
  9
$DIMTAD
 70
     1
  9
$DIMZIN
 70
     8
  9
$DIMBLK
  1

  9
$DIMASO
 70
     1
  9
$DIMSHO
 70
     0
  9
$DIMPOST
  1

  9
$DIMAPOST
  1

  9
$DIMALT
 70
     0
  9
$DIMALTD
 70
     2
  9
$DIMALTF
 40
25.4
  9
$DIMLFAC
 40
1.0
  9
$DIMTOFL
 70
     1
  9
$DIMTVP
 40
0.0
  9
$DIMTIX
 70
     0
  9
$DIMSOXD
 70
     0
  9
$DIMSAH
 70
     0
  9
$DIMBLK1
  1

  9
$DIMBLK2
  1

  9
$DIMSTYLE
  2
Standard
  9
$DIMCLRD
 70
     0
  9
$DIMCLRE
 70
     0
  9
$DIMCLRT
 70
     1
  9
$DIMTFAC
 40
0.5
  9
$DIMGAP
 40
1.5
  9
$DIMJUST
 70
     0
  9
$DIMSD1
 70
     0
  9
$DIMSD2
 70
     0
  9
$DIMTOLJ
 70
     1
  9
$DIMTZIN
 70
     8
  9
$DIMALTZ
 70
     8
  9
$DIMALTTZ
 70
     8
  9
$DIMUPT
 70
     0
  9
$DIMDEC
 70
     2
  9
$DIMTDEC
 70
     2
  9
$DIMALTU
 70
     2
  9
$DIMALTTD
 70
     2
  9
$DIMTXSTY
  7
GREEKS
  9
$DIMAUNIT
 70
     0
  9
$DIMADEC
 70
     2
  9
$DIMALTRND
 40
0.0
  9
$DIMAZIN
 70
     2
  9
$DIMDSEP
 70
    46
  9
$DIMATFIT
 70
     3
  9
$DIMFRAC
 70
     0
  9
$DIMLDRBLK
  1

  9
$DIMLUNIT
 70
     2
  9
$DIMLWD
 70
    -2
  9
$DIMLWE
 70
    -2
  9
$DIMTMOVE
 70
     0
  9
$LUNITS
 70
     2
  9
$LUPREC
 70
     2
  9
$SKETCHINC
 40
1.0
  9
$FILLETRAD
 40
0.0
  9
$AUNITS
 70
     0
  9
$AUPREC
 70
     2
  9
$MENU
  1
ACAD
  9
$ELEVATION
 40
0.0
  9
$PELEVATION
 40
0.0
  9
$THICKNESS
 40
0.0
  9
$LIMCHECK
 70
     0
  9
$CHAMFERA
 40
0.0
  9
$CHAMFERB
 40
0.0
  9
$CHAMFERC
 40
0.0
  9
$CHAMFERD
 40
0.0
  9
$SKPOLY
 70
     0
  9
$TDCREATE
 40
2452283.551993519
  9
$TDUCREATE
 40
2452283.468660185
  9
$TDUPDATE
 40
2455658.315881551
  9
$TDUUPDATE
 40
2455658.232548218
  9
$TDINDWG
 40
0.0374157639
  9
$TDUSRTIMER
 40
0.0374157639
  9
$USRTIMER
 70
     1
  9
$ANGBASE
 50
0.0
  9
$ANGDIR
 70
     0
  9
$PDMODE
 70
     0
  9
$PDSIZE
 40
0.0
  9
$PLINEWID
 40
0.0
  9
$SPLFRAME
 70
     0
  9
$SPLINETYPE
 70
     6
  9
$SPLINESEGS
 70
     8
  9
$HANDSEED
  5
1A646
  9
$SURFTAB1
 70
     6
  9
$SURFTAB2
 70
     6
  9
$SURFTYPE
 70
     6
  9
$SURFU
 70
     6
  9
$SURFV
 70
     6
  9
$UCSBASE
  2

  9
$UCSNAME
  2

  9
$UCSORG
 10
0.0
 20
0.0
 30
0.0
  9
$UCSXDIR
 10
1.0
 20
0.0
 30
0.0
  9
$UCSYDIR
 10
0.0
 20
1.0
 30
0.0
  9
$UCSORTHOREF
  2

  9
$UCSORTHOVIEW
 70
     0
  9
$UCSORGTOP
 10
0.0
 20
0.0
 30
0.0
  9
$UCSORGBOTTOM
 10
0.0
 20
0.0
 30
0.0
  9
$UCSORGLEFT
 10
0.0
 20
0.0
 30
0.0
  9
$UCSORGRIGHT
 10
0.0
 20
0.0
 30
0.0
  9
$UCSORGFRONT
 10
0.0
 20
0.0
 30
0.0
  9
$UCSORGBACK
 10
0.0
 20
0.0
 30
0.0
  9
$PUCSBASE
  2

  9
$PUCSNAME
  2

  9
$PUCSORG
 10
0.0
 20
0.0
 30
0.0
  9
$PUCSXDIR
 10
1.0
 20
0.0
 30
0.0
  9
$PUCSYDIR
 10
0.0
 20
1.0
 30
0.0
  9
$PUCSORTHOREF
  2

  9
$PUCSORTHOVIEW
 70
     0
  9
$PUCSORGTOP
 10
0.0
 20
0.0
 30
0.0
  9
$PUCSORGBOTTOM
 10
0.0
 20
0.0
 30
0.0
  9
$PUCSORGLEFT
 10
0.0
 20
0.0
 30
0.0
  9
$PUCSORGRIGHT
 10
0.0
 20
0.0
 30
0.0
  9
$PUCSORGFRONT
 10
0.0
 20
0.0
 30
0.0
  9
$PUCSORGBACK
 10
0.0
 20
0.0
 30
0.0
  9
$USERI1
 70
     0
  9
$USERI2
 70
     0
  9
$USERI3
 70
     0
  9
$USERI4
 70
     0
  9
$USERI5
 70
     0
  9
$USERR1
 40
0.0
  9
$USERR2
 40
0.0
  9
$USERR3
 40
0.0
  9
$USERR4
 40
0.0
  9
$USERR5
 40
0.0
  9
$WORLDVIEW
 70
     1
  9
$SHADEDGE
 70
     3
  9
$SHADEDIF
 70
    70
  9
$TILEMODE
 70
     1
  9
$MAXACTVP
 70
    16
  9
$PINSBASE
 10
611.8007560200033
 20
50.00000000000001
 30
-2.58105543498411
  9
$PLIMCHECK
 70
     0
  9
$PEXTMIN
 10
1.000000000000000E+20
 20
1.000000000000000E+20
 30
1.000000000000000E+20
  9
$PEXTMAX
 10
-1.000000000000000E+20
 20
-1.000000000000000E+20
 30
-1.000000000000000E+20
  9
$PLIMMIN
 10
0.0
 20
0.0
  9
$PLIMMAX
 10
12.0
 20
9.0
  9
$UNITMODE
 70
     0
  9
$VISRETAIN
 70
     0
  9
$PLINEGEN
 70
     0
  9
$PSLTSCALE
 70
     0
  9
$TREEDEPTH
 70
  3020
  9
$CMLSTYLE
  2
Standard
  9
$CMLJUST
 70
     0
  9
$CMLSCALE
 40
1.0
  9
$PROXYGRAPHICS
 70
     1
  9
$MEASUREMENT
 70
     0
  9
$CELWEIGHT
370
    -1
  9
$ENDCAPS
280
     0
  9
$JOINSTYLE
280
     0
  9
$LWDISPLAY
290
     0
  9
$INSUNITS
 70
     0
  9
$HYPERLINKBASE
  1

  9
$STYLESHEET
  1
monochrome 1.ctb
  9
$XEDIT
290
     1
  9
$CEPSNTYPE
380
     0
  9
$PSTYLEMODE
290
     1
  9
$FINGERPRINTGUID
  2
{A4E837A4-7790-4C98-999C-3FBA854BB9DF}
  9
$VERSIONGUID
  2
{2601535A-96B8-48A2-8AE2-2C85DF8AC666}
  9
$EXTNAMES
290
     1
  9
$PSVPSCALE
 40
0.0
  9
$OLESTARTUP
290
     0
  9
$SORTENTS
280
   127
  9
$INDEXCTL
280
     0
  9
$HIDETEXT
280
     1
  9
$XCLIPFRAME
290
     0
  9
$HALOGAP
280
     0
  9
$OBSCOLOR
 70
   257
  9
$OBSLTYPE
280
     0
  9
$INTERSECTIONDISPLAY
280
     0
  9
$INTERSECTIONCOLOR
 70
   257
  9
$DIMASSOC
280
     2
  9
$PROJECTNAME
  1

  0
ENDSEC
  0
SECTION
  2
CLASSES
  0
CLASS
  1
ACDBDICTIONARYWDFLT
  2
AcDbDictionaryWithDefault
  3
ObjectDBX Classes
 90
        0
 91
        1
280
     0
281
     0
  0
CLASS
  1
DIMASSOC
  2
AcDbDimAssoc
  3
"AcDbDimAssoc|Product Desc:     AcDim ARX App For Dimension|Company:          Autodesk, Inc.|WEB Address:      www.autodesk.com"
 90
        0
 91
        1
280
     0
281
     0
  0
CLASS
  1
DICTIONARYVAR
  2
AcDbDictionaryVar
  3
ObjectDBX Classes
 90
        0
 91
        3
280
     0
281
     0
  0
ENDSEC
  0
SECTION
  2
TABLES
  0
TABLE
  2
VPORT
  5
1A49A
330
0
100
AcDbSymbolTable
 70
     3
  0
VPORT
  5
1A645
330
1A49A
100
AcDbSymbolTableRecord
100
AcDbViewportTableRecord
  2
*Active
 70
     0
 10
0.0
 20
0.0
 11
1.0
 21
1.0
 12
524.9999999999998
 22
742.4999999999999
 13
0.0
 23
0.0
 14
1.0
 24
1.0
 15
10.0
 25
10.0
 16
0.0
 26
0.0
 36
1.0
 17
0.0
 27
0.0
 37
0.0
 40
1485.0
 41
1.334231805929919
 42
50.0
 43
0.0
 44
0.0
 50
0.0
 51
0.0
 71
     0
 72
  1500
 73
     1
 74
     0
 75
     0
 76
     0
 77
     0
 78
     0
281
     0
 65
     1
110
0.0
120
0.0
130
0.0
111
1.0
121
0.0
131
0.0
112
0.0
122
1.0
132
0.0
 79
     0
146
0.0
  0
ENDTAB
  0
TABLE
  2
LTYPE
  5
1A497
330
0
100
AcDbSymbolTable
 70
     2
  0
LTYPE
  5
1A4A5
330
1A497
100
AcDbSymbolTableRecord
100
AcDbLinetypeTableRecord
  2
ByBlock
 70
     0
  3

 72
    65
 73
     0
 40
0.0
  0
LTYPE
  5
1A4A6
330
1A497
100
AcDbSymbolTableRecord
100
AcDbLinetypeTableRecord
  2
ByLayer
 70
     0
  3

 72
    65
 73
     0
 40
0.0
  0
LTYPE
  5
1A4A7
330
1A497
100
AcDbSymbolTableRecord
100
AcDbLinetypeTableRecord
  2
Continuous
 70
     0
  3
Solid line
 72
    65
 73
     0
 40
0.0
  0
LTYPE
  5
1A4C3
330
1A497
100
AcDbSymbolTableRecord
100
AcDbLinetypeTableRecord
  2
STRICHPUNKT
 70
     0
  3
__ . __ . __ . __ . __ . __ . __ . __ . __ . __
 72
    65
 73
     4
 40
1.0
 49
0.5
 74
     0
 49
-0.25
 74
     0
 49
0.0
 74
     0
 49
-0.25
 74
     0
  0
ENDTAB
  0
TABLE
  2
LAYER
  5
1A494
330
0
100
AcDbSymbolTable
 70
     9
  0
LAYER
  5
1A4A2
330
1A494
100
AcDbSymbolTableRecord
100
AcDbLayerTableRecord
  2
0
 70
     0
 62
     7
  6
Continuous
370
    -3
390
1A4A1
  0
LAYER
  5
1A4C6
330
1A494
100
AcDbSymbolTableRecord
100
AcDbLayerTableRecord
  2
VOLL
 70
     0
 62
     1
  6
Continuous
370
    -3
390
1A4A1
  0
LAYER
  5
1A4C7
330
1A494
100
AcDbSymbolTableRecord
100
AcDbLayerTableRecord
  2
HILF
 70
     0
 62
     2
  6
Continuous
370
    -3
390
1A4A1
  0
LAYER
  5
1A4C8
330
1A494
100
AcDbSymbolTableRecord
100
AcDbLayerTableRecord
  2
MITTEL
 70
     0
 62
     2
  6
STRICHPUNKT
370
    -3
390
1A4A1
  0
LAYER
  5
1A4C9
330
1A494
100
AcDbSymbolTableRecord
100
AcDbLayerTableRecord
  2
BEM
 70
     0
 62
     7
  6
Continuous
370
    -3
390
1A4A1
  0
LAYER
  5
1A4CA
330
1A494
100
AcDbSymbolTableRecord
100
AcDbLayerTableRecord
  2
STEMPEL
 70
     0
 62
     3
  6
Continuous
370
    -3
390
1A4A1
  0
LAYER
  5
1A4CB
330
1A494
100
AcDbSymbolTableRecord
100
AcDbLayerTableRecord
  2
TEXT
 70
     0
 62
     7
  6
Continuous
370
    -3
390
1A4A1
  0
LAYER
  5
1A4CC
330
1A494
100
AcDbSymbolTableRecord
100
AcDbLayerTableRecord
  2
DEFPOINTS
 70
     0
 62
     7
  6
Continuous
290
     0
370
    -3
390
1A4A1
  0
LAYER
  5
1A4CD
330
1A494
100
AcDbSymbolTableRecord
100
AcDbLayerTableRecord
  2
SCHRAFF
 70
     0
 62
     7
  6
Continuous
370
    -3
390
1A4A1
  0
ENDTAB
  0
TABLE
  2
STYLE
  5
1A495
330
0
100
AcDbSymbolTable
 70
     2
  0
STYLE
  5
1A4A3
330
1A495
100
AcDbSymbolTableRecord
100
AcDbTextStyleTableRecord
  2
STANDARD
 70
     0
 40
0.0
 41
1.0
 50
0.0
 71
     0
 42
3.5
  3
txt
  4

  0
STYLE
  5
1A4C2
330
1A495
100
AcDbSymbolTableRecord
100
AcDbTextStyleTableRecord
  2
GREEKS
 70
     0
 40
0.0
 41
0.8
 50
0.0
 71
     0
 42
2.5
  3
SIMPLEX.shx
  4

  0
ENDTAB
  0
TABLE
  2
VIEW
  5
1A498
330
0
100
AcDbSymbolTable
 70
     0
  0
ENDTAB
  0
TABLE
  2
UCS
  5
1A499
330
0
100
AcDbSymbolTable
 70
     0
  0
ENDTAB
  0
TABLE
  2
APPID
  5
1A49B
330
0
100
AcDbSymbolTable
 70
     1
  0
APPID
  5
1A4A4
330
1A49B
100
AcDbSymbolTableRecord
100
AcDbRegAppTableRecord
  2
ACAD
 70
     0
  0
ENDTAB
  0
TABLE
  2
DIMSTYLE
  5
1A49C
330
0
100
AcDbSymbolTable
 70
     1
100
AcDbDimStyleTable
 71
     1
340
1A4D4
  0
DIMSTYLE
105
1A4D4
102
{ACAD_REACTORS
330
1A408
330
1A409
330
1A40A
330
1A5F9
102
}
330
1A49C
100
AcDbSymbolTableRecord
100
AcDbDimStyleTableRecord
  2
Standard
 70
     0
340
1A4A3
  0
ENDTAB
  0
TABLE
  2
BLOCK_RECORD
  5
1A493
330
0
100
AcDbSymbolTable
 70
    13
  0
BLOCK_RECORD
  5
1A4B2
330
1A493
100
AcDbSymbolTableRecord
100
AcDbBlockTableRecord
  2
*Model_Space
340
1A4B5
  0
BLOCK_RECORD
  5
1A4AE
330
1A493
100
AcDbSymbolTableRecord
100
AcDbBlockTableRecord
  2
*Paper_Space
340
1A4B1
  0
BLOCK_RECORD
  5
1A4B6
330
1A493
100
AcDbSymbolTableRecord
100
AcDbBlockTableRecord
  2
LOGO
340
0
102
{BLKREFS
331
1A419
102
}
  0
BLOCK_RECORD
  5
1A4BA
330
1A493
100
AcDbSymbolTableRecord
100
AcDbBlockTableRecord
  2
*X3
340
0
102
{BLKREFS
331
1A448
102
}
  0
BLOCK_RECORD
  5
1A4BB
330
1A493
100
AcDbSymbolTableRecord
100
AcDbBlockTableRecord
  2
*X4
340
0
102
{BLKREFS
331
1A48A
102
}
  0
BLOCK_RECORD
  5
1A4D7
330
1A493
100
AcDbSymbolTableRecord
100
AcDbBlockTableRecord
  2
*D9
340
0
  0
BLOCK_RECORD
  5
1A4F6
330
1A493
100
AcDbSymbolTableRecord
100
AcDbBlockTableRecord
  2
*D10
340
0
  0
BLOCK_RECORD
  5
1A5E4
330
1A493
100
AcDbSymbolTableRecord
100
AcDbBlockTableRecord
  2
*D11
340
0
  0
BLOCK_RECORD
  5
1A5FA
330
1A493
100
AcDbSymbolTableRecord
100
AcDbBlockTableRecord
  2
*D12
340
0
  0
ENDTAB
  0
ENDSEC
  0
SECTION
  2
BLOCKS
  0
BLOCK
  5
1A4D1
330
1A4B2
100
AcDbEntity
  8
0
100
AcDbBlockBegin
  2
*Model_Space
 70
     0
 10
0.0
 20
0.0
 30
0.0
  3
*Model_Space
  1

  0
ENDBLK
  5
1A4D2
330
1A4B2
100
AcDbEntity
  8
0
100
AcDbBlockEnd
  0
BLOCK
  5
1A4CF
330
1A4AE
100
AcDbEntity
 67
     1
  8
0
100
AcDbBlockBegin
  2
*Paper_Space
 70
     0
 10
0.0
 20
0.0
 30
0.0
  3
*Paper_Space
  1

  0
ENDBLK
  5
1A4D0
330
1A4AE
100
AcDbEntity
 67
     1
  8
0
100
AcDbBlockEnd
  0
BLOCK
  5
44
330
1A4B6
100
AcDbEntity
  8
0
100
AcDbBlockBegin
  2
LOGO
 70
     0
 10
0.0
 20
0.0
 30
0.0
  3
LOGO
  1

  0
ARC
  5
45
330
1A4B6
100
AcDbEntity
  8
0
100
AcDbCircle
 10
11.59973089678112
 20
-9.271599258481501
 30
0.0
 40
4.5
100
AcDbArc
 50
270.0
 51
231.0575587310159
  0
LINE
  5
46
330
1A4B6
100
AcDbEntity
  8
0
100
AcDbLine
 10
3.599730896781125
 20
-4.771599258481529
 30
0.0
 11
3.599730896781153
 21
-11.77159925848133
 31
0.0
  0
LINE
  5
47
330
1A4B6
100
AcDbEntity
  8
0
100
AcDbLine
 10
2.599730896781125
 20
-4.771599258481529
 30
0.0
 11
2.599730896781153
 21
-11.77159925848133
 31
0.0
  0
CIRCLE
  5
48
330
1A4B6
100
AcDbEntity
  8
0
100
AcDbCircle
 10
11.59973089678112
 20
-9.271599258481501
 30
0.0
 40
3.5
  0
ARC
  5
49
330
1A4B6
100
AcDbEntity
  8
0
100
AcDbCircle
 10
31.59973089678115
 20
-9.271599258481472
 30
0.0
 40
4.5
100
AcDbArc
 50
270.0
 51
231.0575587310182
  0
LINE
  5
4A
330
1A4B6
100
AcDbEntity
  8
0
100
AcDbLine
 10
17.59973089678112
 20
-4.771599258481472
 30
0.0
 11
17.59973089678115
 21
-13.77159925848147
 31
0.0
  0
ARC
  5
4B
330
1A4B6
100
AcDbEntity
  8
0
100
AcDbCircle
 10
22.59973089678116
 20
-7.271599258481472
 30
0.0
 40
2.5
100
AcDbArc
 50
293.1161887722295
 51
90.0
  0
CIRCLE
  5
4C
330
1A4B6
100
AcDbEntity
  8
0
100
AcDbCircle
 10
31.59973089678115
 20
-9.271599258481472
 30
0.0
 40
3.5
  0
ARC
  5
4D
330
1A4B6
100
AcDbEntity
  8
0
100
AcDbCircle
 10
4.599730896781153
 20
-11.77159925848133
 30
0.0
 40
1.0
100
AcDbArc
 50
180.0
 51
270.0
  0
ARC
  5
4E
330
1A4B6
100
AcDbEntity
  8
0
100
AcDbCircle
 10
4.599730896781153
 20
-11.77159925848133
 30
0.0
 40
2.0
100
AcDbArc
 50
179.9999999999992
 51
270.0
  0
LINE
  5
4F
330
1A4B6
100
AcDbEntity
  8
0
100
AcDbLine
 10
11.59973089678115
 20
-13.77159925848144
 30
0.0
 11
4.599730896781153
 21
-13.77159925848147
 31
0.0
  0
LINE
  5
50
330
1A4B6
100
AcDbEntity
  8
0
100
AcDbLine
 10
8.771303772034769
 20
-12.77159925848136
 30
0.0
 11
4.599730896781153
 21
-12.77159925848133
 31
0.0
  0
LINE
  5
51
330
1A4B6
100
AcDbEntity
  8
0
100
AcDbLine
 10
31.59973089678115
 20
-13.77159925848147
 30
0.0
 11
23.6715276665056
 21
-13.77159925848144
 31
0.0
  0
LINE
  5
52
330
1A4B6
100
AcDbEntity
  8
0
100
AcDbLine
 10
23.56565672307022
 20
-9.51278021337896
 30
0.0
 11
24.4388546544846
 21
-12.77159925848144
 31
0.0
  0
LINE
  5
53
330
1A4B6
100
AcDbEntity
  8
0
100
AcDbLine
 10
22.59973089678116
 20
-9.771599258481472
 30
0.0
 11
18.59973089678112
 21
-9.771599258481472
 31
0.0
  0
LINE
  5
54
330
1A4B6
100
AcDbEntity
  8
0
100
AcDbLine
 10
18.59973089678115
 20
-13.77159925848144
 30
0.0
 11
17.59973089678115
 21
-13.77159925848144
 31
0.0
  0
LINE
  5
55
330
1A4B6
100
AcDbEntity
  8
0
100
AcDbLine
 10
18.59973089678115
 20
-9.771599258481472
 30
0.0
 11
18.59973089678115
 21
-13.77159925848144
 31
0.0
  0
LINE
  5
56
330
1A4B6
100
AcDbEntity
  8
0
100
AcDbLine
 10
22.59973089678116
 20
-9.771599258481472
 30
0.0
 11
23.67152766650562
 21
-13.77159925848147
 31
0.0
  0
ARC
  5
57
330
1A4B6
100
AcDbEntity
  8
0
100
AcDbCircle
 10
22.59973089678116
 20
-7.271599258481472
 30
0.0
 40
2.5
100
AcDbArc
 50
270.0
 51
270.0000000000007
  0
LINE
  5
58
330
1A4B6
100
AcDbEntity
  8
0
100
AcDbLine
 10
28.77130377203494
 20
-12.77159925848147
 30
0.0
 11
24.43885465448463
 21
-12.77159925848144
 31
0.0
  0
LINE
  5
59
330
1A4B6
100
AcDbEntity
  8
0
100
AcDbLine
 10
3.599730896781125
 20
-4.771599258481472
 30
0.0
 11
2.599730896781125
 21
-4.771599258481472
 31
0.0
  0
LINE
  5
5A
330
1A4B6
100
AcDbEntity
  8
0
100
AcDbLine
 10
22.59973089678116
 20
-8.771599258481472
 30
0.0
 11
18.59973089678115
 21
-8.771599258481472
 31
0.0
  0
LINE
  5
5B
330
1A4B6
100
AcDbEntity
  8
0
100
AcDbLine
 10
22.59973089678116
 20
-5.771599258481472
 30
0.0
 11
18.59973089678115
 21
-5.771599258481472
 31
0.0
  0
LINE
  5
5C
330
1A4B6
100
AcDbEntity
  8
0
100
AcDbLine
 10
22.59973089678116
 20
-4.771599258481472
 30
0.0
 11
17.59973089678115
 21
-4.771599258481472
 31
0.0
  0
LINE
  5
5D
330
1A4B6
100
AcDbEntity
  8
0
100
AcDbLine
 10
18.59973089678115
 20
-5.771599258481472
 30
0.0
 11
18.59973089678115
 21
-8.771599258481472
 31
0.0
  0
ARC
  5
5E
330
1A4B6
100
AcDbEntity
  8
0
100
AcDbCircle
 10
22.59973089678116
 20
-7.271599258481472
 30
0.0
 40
1.5
100
AcDbArc
 50
270.0
 51
90.0
  0
ENDBLK
  5
5F
330
1A4B6
100
AcDbEntity
  8
0
100
AcDbBlockEnd
  0
BLOCK
  5
16A99
330
1A4BA
100
AcDbEntity
  8
0
100
AcDbBlockBegin
  2
*X3
 70
     1
 10
0.0
 20
0.0
 30
0.0
  3
*X3
  1

  0
LINE
  5
16A9B
330
1A4BA
100
AcDbEntity
  8
0
 62
     0
100
AcDbLine
 10
1340.719710571818
 20
984.1000000000001
 30
0.0
 11
1342.196031728193
 21
984.1000000000001
 31
0.0
  0
LINE
  5
16A9C
330
1A4BA
100
AcDbEntity
  8
0
 62
     0
100
AcDbLine
 10
1340.715777004946
 20
984.2
 30
0.0
 11
1342.196031728193
 21
984.2
 31
0.0
  0
LINE
  5
16A9D
330
1A4BA
100
AcDbEntity
  8
0
 62
     0
100
AcDbLine
 10
1340.715170073041
 20
984.3000000000001
 30
0.0
 11
1342.196031728193
 21
984.3000000000001
 31
0.0
  0
LINE
  5
16A9E
330
1A4BA
100
AcDbEntity
  8
0
 62
     0
100
AcDbLine
 10
1340.7178877613
 20
984.4000000000001
 30
0.0
 11
1342.196031728193
 21
984.4000000000001
 31
0.0
  0
LINE
  5
16A9F
330
1A4BA
100
AcDbEntity
  8
0
 62
     0
100
AcDbLine
 10
1340.723939104208
 20
984.5
 30
0.0
 11
1342.196031728193
 21
984.5
 31
0.0
  0
LINE
  5
16AA0
330
1A4BA
100
AcDbEntity
  8
0
 62
     0
100
AcDbLine
 10
1340.733344336471
 20
984.6
 30
0.0
 11
1342.196031728193
 21
984.6
 31
0.0
  0
LINE
  5
16AA1
330
1A4BA
100
AcDbEntity
  8
0
 62
     0
100
AcDbLine
 10
1340.746135234385
 20
984.7000000000001
 30
0.0
 11
1342.196031728193
 21
984.7000000000001
 31
0.0
  0
LINE
  5
16AA2
330
1A4BA
100
AcDbEntity
  8
0
 62
     0
100
AcDbLine
 10
1340.762355661228
 20
984.8
 30
0.0
 11
1342.196031728193
 21
984.8
 31
0.0
  0
LINE
  5
16AA3
330
1A4BA
100
AcDbEntity
  8
0
 62
     0
100
AcDbLine
 10
1340.782062338936
 20
984.9000000000001
 30
0.0
 11
1342.196031728193
 21
984.9000000000001
 31
0.0
  0
LINE
  5
16AA4
330
1A4BA
100
AcDbEntity
  8
0
 62
     0
100
AcDbLine
 10
1340.805325878592
 20
985.0
 30
0.0
 11
1342.196031728193
 21
985.0
 31
0.0
  0
LINE
  5
16AA5
330
1A4BA
100
AcDbEntity
  8
0
 62
     0
100
AcDbLine
 10
1340.832232115185
 20
985.1
 30
0.0
 11
1342.196031728193
 21
985.1
 31
0.0
  0
LINE
  5
16AA6
330
1A4BA
100
AcDbEntity
  8
0
 62
     0
100
AcDbLine
 10
1340.862883808645
 20
985.2
 30
0.0
 11
1342.196031728193
 21
985.2
 31
0.0
  0
LINE
  5
16AA7
330
1A4BA
100
AcDbEntity
  8
0
 62
     0
100
AcDbLine
 10
1340.89740279528
 20
985.3000000000001
 30
0.0
 11
1342.196031728193
 21
985.3000000000001
 31
0.0
  0
LINE
  5
16AA8
330
1A4BA
100
AcDbEntity
  8
0
 62
     0
100
AcDbLine
 10
1340.935932703715
 20
985.4
 30
0.0
 11
1342.365565056599
 21
985.4
 31
0.0
  0
LINE
  5
16AA9
330
1A4BA
100
AcDbEntity
  8
0
 62
     0
100
AcDbLine
 10
1340.978642391205
 20
985.5
 30
0.0
 11
1342.640312798544
 21
985.5
 31
0.0
  0
LINE
  5
16AAA
330
1A4BA
100
AcDbEntity
  8
0
 62
     0
100
AcDbLine
 10
1341.025730315324
 20
985.5999999999999
 30
0.0
 11
1342.91506054049
 21
985.5999999999999
 31
0.0
  0
LINE
  5
16AAB
330
1A4BA
100
AcDbEntity
  8
0
 62
     0
100
AcDbLine
 10
1341.077430141735
 20
985.7000000000001
 30
0.0
 11
1343.189808282435
 21
985.7000000000001
 31
0.0
  0
LINE
  5
16AAC
330
1A4BA
100
AcDbEntity
  8
0
 62
     0
100
AcDbLine
 10
1341.134018015471
 20
985.8
 30
0.0
 11
1343.464556024381
 21
985.8
 31
0.0
  0
LINE
  5
16AAD
330
1A4BA
100
AcDbEntity
  8
0
 62
     0
100
AcDbLine
 10
1341.195822115009
 20
985.9000000000001
 30
0.0
 11
1343.739303766326
 21
985.9000000000001
 31
0.0
  0
LINE
  5
16AAE
330
1A4BA
100
AcDbEntity
  8
0
 62
     0
100
AcDbLine
 10
1341.26323540648
 20
986.0
 30
0.0
 11
1344.014051508271
 21
986.0
 31
0.0
  0
LINE
  5
16AAF
330
1A4BA
100
AcDbEntity
  8
0
 62
     0
100
AcDbLine
 10
1341.336732991759
 20
986.1
 30
0.0
 11
1344.288799250217
 21
986.1
 31
0.0
  0
LINE
  5
16AB0
330
1A4BA
100
AcDbEntity
  8
0
 62
     0
100
AcDbLine
 10
1341.416896231009
 20
986.2
 30
0.0
 11
1344.563546992162
 21
986.2
 31
0.0
  0
LINE
  5
16AB1
330
1A4BA
100
AcDbEntity
  8
0
 62
     0
100
AcDbLine
 10
1341.504447169279
 20
986.3000000000001
 30
0.0
 11
1344.838294734108
 21
986.3000000000001
 31
0.0
  0
LINE
  5
16AB2
330
1A4BA
100
AcDbEntity
  8
0
 62
     0
100
AcDbLine
 10
1341.600299212708
 20
986.4
 30
0.0
 11
1345.113042476053
 21
986.4
 31
0.0
  0
LINE
  5
16AB3
330
1A4BA
100
AcDbEntity
  8
0
 62
     0
100
AcDbLine
 10
1341.70563455555
 20
986.5
 30
0.0
 11
1345.387790217999
 21
986.5
 31
0.0
  0
LINE
  5
16AB4
330
1A4BA
100
AcDbEntity
  8
0
 62
     0
100
AcDbLine
 10
1341.822027998561
 20
986.5999999999999
 30
0.0
 11
1345.626369312241
 21
986.5999999999999
 31
0.0
  0
LINE
  5
16AB5
330
1A4BA
100
AcDbEntity
  8
0
 62
     0
100
AcDbLine
 10
1341.9516565853
 20
986.7
 30
0.0
 11
1345.496740725502
 21
986.7
 31
0.0
  0
LINE
  5
16AB6
330
1A4BA
100
AcDbEntity
  8
0
 62
     0
100
AcDbLine
 10
1342.097681648785
 20
986.8
 30
0.0
 11
1345.350715662017
 21
986.8
 31
0.0
  0
LINE
  5
16AB7
330
1A4BA
100
AcDbEntity
  8
0
 62
     0
100
AcDbLine
 10
1342.265017461942
 20
986.9000000000001
 30
0.0
 11
1345.183379848861
 21
986.9000000000001
 31
0.0
  0
LINE
  5
16AB8
330
1A4BA
100
AcDbEntity
  8
0
 62
     0
100
AcDbLine
 10
1342.462112312127
 20
987.0
 30
0.0
 11
1344.986284998676
 21
987.0
 31
0.0
  0
LINE
  5
16AB9
330
1A4BA
100
AcDbEntity
  8
0
 62
     0
100
AcDbLine
 10
1342.706105280306
 20
987.1
 30
0.0
 11
1344.742292030497
 21
987.1
 31
0.0
  0
LINE
  5
16ABA
330
1A4BA
100
AcDbEntity
  8
0
 62
     0
100
AcDbLine
 10
1343.045843068008
 20
987.1999999999999
 30
0.0
 11
1344.402554242794
 21
987.1999999999999
 31
0.0
  0
LINE
  5
16ABB
330
1A4BA
100
AcDbEntity
  8
0
 62
     0
100
AcDbLine
 10
1340.72698387133
 20
984.0
 30
0.0
 11
1342.196031728193
 21
984.0
 31
0.0
  0
LINE
  5
16ABC
330
1A4BA
100
AcDbEntity
  8
0
 62
     0
100
AcDbLine
 10
1340.737621303427
 20
983.9
 30
0.0
 11
1342.196031728193
 21
983.9
 31
0.0
  0
LINE
  5
16ABD
330
1A4BA
100
AcDbEntity
  8
0
 62
     0
100
AcDbLine
 10
1340.751658984213
 20
983.8
 30
0.0
 11
1342.196031728193
 21
983.8
 31
0.0
  0
LINE
  5
16ABE
330
1A4BA
100
AcDbEntity
  8
0
 62
     0
100
AcDbLine
 10
1340.769145370898
 20
983.7000000000001
 30
0.0
 11
1342.196031728193
 21
983.7000000000001
 31
0.0
  0
LINE
  5
16ABF
330
1A4BA
100
AcDbEntity
  8
0
 62
     0
100
AcDbLine
 10
1340.790142123614
 20
983.6
 30
0.0
 11
1342.196031728193
 21
983.6
 31
0.0
  0
LINE
  5
16AC0
330
1A4BA
100
AcDbEntity
  8
0
 62
     0
100
AcDbLine
 10
1340.814725240986
 20
983.5
 30
0.0
 11
1342.196031728193
 21
983.5
 31
0.0
  0
LINE
  5
16AC1
330
1A4BA
100
AcDbEntity
  8
0
 62
     0
100
AcDbLine
 10
1340.842986520439
 20
983.4000000000001
 30
0.0
 11
1342.196031728193
 21
983.4000000000001
 31
0.0
  0
LINE
  5
16AC2
330
1A4BA
100
AcDbEntity
  8
0
 62
     0
100
AcDbLine
 10
1340.875035412602
 20
983.3
 30
0.0
 11
1342.196031728193
 21
983.3
 31
0.0
  0
LINE
  5
16AC3
330
1A4BA
100
AcDbEntity
  8
0
 62
     0
100
AcDbLine
 10
1340.91100136378
 20
983.2
 30
0.0
 11
1342.196031728193
 21
983.2
 31
0.0
  0
LINE
  5
16AC4
330
1A4BA
100
AcDbEntity
  8
0
 62
     0
100
AcDbLine
 10
1340.951036774253
 20
983.1000000000001
 30
0.0
 11
1342.196031728193
 21
983.1000000000001
 31
0.0
  0
LINE
  5
16AC5
330
1A4BA
100
AcDbEntity
  8
0
 62
     0
100
AcDbLine
 10
1340.995320747448
 20
983.0
 30
0.0
 11
1342.196031728193
 21
983.0
 31
0.0
  0
LINE
  5
16AC6
330
1A4BA
100
AcDbEntity
  8
0
 62
     0
100
AcDbLine
 10
1341.0440638726
 20
982.9
 30
0.0
 11
1342.196031728193
 21
982.9
 31
0.0
  0
LINE
  5
16AC7
330
1A4BA
100
AcDbEntity
  8
0
 62
     0
100
AcDbLine
 10
1341.09751438213
 20
982.8000000000001
 30
0.0
 11
1342.196031728193
 21
982.8000000000001
 31
0.0
  0
LINE
  5
16AC8
330
1A4BA
100
AcDbEntity
  8
0
 62
     0
100
AcDbLine
 10
1341.155966171977
 20
982.6999999999999
 30
0.0
 11
1342.196031728193
 21
982.6999999999999
 31
0.0
  0
LINE
  5
16AC9
330
1A4BA
100
AcDbEntity
  8
0
 62
     0
100
AcDbLine
 10
1341.219769397789
 20
982.6
 30
0.0
 11
1342.196031728193
 21
982.6
 31
0.0
  0
LINE
  5
16ACA
330
1A4BA
100
AcDbEntity
  8
0
 62
     0
100
AcDbLine
 10
1341.28934471238
 20
982.5000000000001
 30
0.0
 11
1342.196031728193
 21
982.5000000000001
 31
0.0
  0
LINE
  5
16ACB
330
1A4BA
100
AcDbEntity
  8
0
 62
     0
100
AcDbLine
 10
1341.365202779756
 20
982.4000000000001
 30
0.0
 11
1342.196031728193
 21
982.4000000000001
 31
0.0
  0
LINE
  5
16ACC
330
1A4BA
100
AcDbEntity
  8
0
 62
     0
100
AcDbLine
 10
1341.447971654687
 20
982.3
 30
0.0
 11
1342.196031728193
 21
982.3
 31
0.0
  0
LINE
  5
16ACD
330
1A4BA
100
AcDbEntity
  8
0
 62
     0
100
AcDbLine
 10
1341.538436276677
 20
982.2
 30
0.0
 11
1342.196031728193
 21
982.2
 31
0.0
  0
LINE
  5
16ACE
330
1A4BA
100
AcDbEntity
  8
0
 62
     0
100
AcDbLine
 10
1341.637597353353
 20
982.0999999999999
 30
0.0
 11
1342.196031728193
 21
982.0999999999999
 31
0.0
  0
LINE
  5
16ACF
330
1A4BA
100
AcDbEntity
  8
0
 62
     0
100
AcDbLine
 10
1341.746762737052
 20
982.0
 30
0.0
 11
1342.196031728193
 21
982.0
 31
0.0
  0
LINE
  5
16AD0
330
1A4BA
100
AcDbEntity
  8
0
 62
     0
100
AcDbLine
 10
1341.867696398833
 20
981.9
 30
0.0
 11
1342.196031728193
 21
981.9
 31
0.0
  0
LINE
  5
16AD1
330
1A4BA
100
AcDbEntity
  8
0
 62
     0
100
AcDbLine
 10
1342.002876940523
 20
981.8000000000001
 30
0.0
 11
1342.196031728193
 21
981.8000000000001
 31
0.0
  0
LINE
  5
16AD2
330
1A4BA
100
AcDbEntity
  8
0
 62
     0
100
AcDbLine
 10
1342.155984300291
 20
981.7
 30
0.0
 11
1342.196031728193
 21
981.7
 31
0.0
  0
ENDBLK
  5
16AD3
330
1A4BA
100
AcDbEntity
  8
0
100
AcDbBlockEnd
  0
BLOCK
  5
16ADF
330
1A4BB
100
AcDbEntity
  8
0
100
AcDbBlockBegin
  2
*X4
 70
     1
 10
0.0
 20
0.0
 30
0.0
  3
*X4
  1

  0
LINE
  5
16AE1
330
1A4BB
100
AcDbEntity
  8
0
 62
     0
100
AcDbLine
 10
1615.196031728191
 20
792.9000000000001
 30
0.0
 11
1617.931314510191
 21
792.9000000000001
 31
0.0
  0
LINE
  5
16AE2
330
1A4BB
100
AcDbEntity
  8
0
 62
     0
100
AcDbLine
 10
1615.196031728191
 20
793.0
 30
0.0
 11
1617.986597521623
 21
793.0
 31
0.0
  0
LINE
  5
16AE3
330
1A4BB
100
AcDbEntity
  8
0
 62
     0
100
AcDbLine
 10
1615.196031728191
 20
793.1
 30
0.0
 11
1618.039189380922
 21
793.1
 31
0.0
  0
LINE
  5
16AE4
330
1A4BB
100
AcDbEntity
  8
0
 62
     0
100
AcDbLine
 10
1615.196031728191
 20
793.2
 30
0.0
 11
1618.089176738448
 21
793.2
 31
0.0
  0
LINE
  5
16AE5
330
1A4BB
100
AcDbEntity
  8
0
 62
     0
100
AcDbLine
 10
1615.196031728191
 20
793.3
 30
0.0
 11
1618.136638536873
 21
793.3
 31
0.0
  0
LINE
  5
16AE6
330
1A4BB
100
AcDbEntity
  8
0
 62
     0
100
AcDbLine
 10
1615.196031728191
 20
793.4000000000001
 30
0.0
 11
1618.181646803227
 21
793.4000000000001
 31
0.0
  0
LINE
  5
16AE7
330
1A4BB
100
AcDbEntity
  8
0
 62
     0
100
AcDbLine
 10
1615.196031728191
 20
793.5
 30
0.0
 11
1618.224267331439
 21
793.5
 31
0.0
  0
LINE
  5
16AE8
330
1A4BB
100
AcDbEntity
  8
0
 62
     0
100
AcDbLine
 10
1615.196031728191
 20
793.6
 30
0.0
 11
1618.264560272888
 21
793.6
 31
0.0
  0
LINE
  5
16AE9
330
1A4BB
100
AcDbEntity
  8
0
 62
     0
100
AcDbLine
 10
1615.196031728191
 20
793.7
 30
0.0
 11
1618.302580649219
 21
793.7
 31
0.0
  0
LINE
  5
16AEA
330
1A4BB
100
AcDbEntity
  8
0
 62
     0
100
AcDbLine
 10
1615.196031728191
 20
793.8
 30
0.0
 11
1618.338378799076
 21
793.8
 31
0.0
  0
LINE
  5
16AEB
330
1A4BB
100
AcDbEntity
  8
0
 62
     0
100
AcDbLine
 10
1615.196031728191
 20
793.9
 30
0.0
 11
1618.372000768366
 21
793.9
 31
0.0
  0
LINE
  5
16AEC
330
1A4BB
100
AcDbEntity
  8
0
 62
     0
100
AcDbLine
 10
1615.196031728191
 20
794.0
 30
0.0
 11
1618.403488651998
 21
794.0
 31
0.0
  0
LINE
  5
16AED
330
1A4BB
100
AcDbEntity
  8
0
 62
     0
100
AcDbLine
 10
1615.196031728191
 20
794.1
 30
0.0
 11
1618.432880893709
 21
794.1
 31
0.0
  0
LINE
  5
16AEE
330
1A4BB
100
AcDbEntity
  8
0
 62
     0
100
AcDbLine
 10
1615.246483701394
 20
794.2000000000001
 30
0.0
 11
1618.460212549482
 21
794.2000000000001
 31
0.0
  0
LINE
  5
16AEF
330
1A4BB
100
AcDbEntity
  8
0
 62
     0
100
AcDbLine
 10
1615.521231443339
 20
794.3
 30
0.0
 11
1618.48551551921
 21
794.3
 31
0.0
  0
LINE
  5
16AF0
330
1A4BB
100
AcDbEntity
  8
0
 62
     0
100
AcDbLine
 10
1615.795979185285
 20
794.4
 30
0.0
 11
1618.508818750466
 21
794.4
 31
0.0
  0
LINE
  5
16AF1
330
1A4BB
100
AcDbEntity
  8
0
 62
     0
100
AcDbLine
 10
1616.07072692723
 20
794.5
 30
0.0
 11
1618.53014841768
 21
794.5
 31
0.0
  0
LINE
  5
16AF2
330
1A4BB
100
AcDbEntity
  8
0
 62
     0
100
AcDbLine
 10
1616.345474669176
 20
794.6
 30
0.0
 11
1618.549528079489
 21
794.6
 31
0.0
  0
LINE
  5
16AF3
330
1A4BB
100
AcDbEntity
  8
0
 62
     0
100
AcDbLine
 10
1616.620222411121
 20
794.7
 30
0.0
 11
1618.566978816604
 21
794.7
 31
0.0
  0
LINE
  5
16AF4
330
1A4BB
100
AcDbEntity
  8
0
 62
     0
100
AcDbLine
 10
1616.894970153067
 20
794.8000000000001
 30
0.0
 11
1618.582519352181
 21
794.8000000000001
 31
0.0
  0
LINE
  5
16AF5
330
1A4BB
100
AcDbEntity
  8
0
 62
     0
100
AcDbLine
 10
1617.169717895012
 20
794.9
 30
0.0
 11
1618.596166156369
 21
794.9
 31
0.0
  0
LINE
  5
16AF6
330
1A4BB
100
AcDbEntity
  8
0
 62
     0
100
AcDbLine
 10
1617.444465636958
 20
795.0
 30
0.0
 11
1618.607933536466
 21
795.0
 31
0.0
  0
LINE
  5
16AF7
330
1A4BB
100
AcDbEntity
  8
0
 62
     0
100
AcDbLine
 10
1617.719213378903
 20
795.1
 30
0.0
 11
1618.617833713843
 21
795.1
 31
0.0
  0
LINE
  5
16AF8
330
1A4BB
100
AcDbEntity
  8
0
 62
     0
100
AcDbLine
 10
1617.993961120849
 20
795.2
 30
0.0
 11
1618.625876888658
 21
795.2
 31
0.0
  0
LINE
  5
16AF9
330
1A4BB
100
AcDbEntity
  8
0
 62
     0
100
AcDbLine
 10
1618.268708862794
 20
795.3000000000001
 30
0.0
 11
1618.632071293145
 21
795.3000000000001
 31
0.0
  0
LINE
  5
16AFA
330
1A4BB
100
AcDbEntity
  8
0
 62
     0
100
AcDbLine
 10
1618.54345660474
 20
795.4000000000001
 30
0.0
 11
1618.636423234165
 21
795.4000000000001
 31
0.0
  0
LINE
  5
16AFB
330
1A4BB
100
AcDbEntity
  8
0
 62
     0
100
AcDbLine
 10
1615.196031728191
 20
792.8
 30
0.0
 11
1617.873245065381
 21
792.8
 31
0.0
  0
LINE
  5
16AFC
330
1A4BB
100
AcDbEntity
  8
0
 62
     0
100
AcDbLine
 10
1615.196031728191
 20
792.7
 30
0.0
 11
1617.812284193715
 21
792.7
 31
0.0
  0
LINE
  5
16AFD
330
1A4BB
100
AcDbEntity
  8
0
 62
     0
100
AcDbLine
 10
1615.196031728191
 20
792.6
 30
0.0
 11
1617.748315916107
 21
792.6
 31
0.0
  0
LINE
  5
16AFE
330
1A4BB
100
AcDbEntity
  8
0
 62
     0
100
AcDbLine
 10
1615.196031728191
 20
792.4999999999999
 30
0.0
 11
1617.681211759576
 21
792.4999999999999
 31
0.0
  0
LINE
  5
16AFF
330
1A4BB
100
AcDbEntity
  8
0
 62
     0
100
AcDbLine
 10
1615.196031728191
 20
792.4000000000001
 30
0.0
 11
1617.610828959278
 21
792.4000000000001
 31
0.0
  0
LINE
  5
16B00
330
1A4BB
100
AcDbEntity
  8
0
 62
     0
100
AcDbLine
 10
1615.196031728191
 20
792.3
 30
0.0
 11
1617.537008300212
 21
792.3
 31
0.0
  0
LINE
  5
16B01
330
1A4BB
100
AcDbEntity
  8
0
 62
     0
100
AcDbLine
 10
1615.196031728191
 20
792.2
 30
0.0
 11
1617.459571506568
 21
792.2
 31
0.0
  0
LINE
  5
16B02
330
1A4BB
100
AcDbEntity
  8
0
 62
     0
100
AcDbLine
 10
1615.196031728191
 20
792.1
 30
0.0
 11
1617.378318057397
 21
792.1
 31
0.0
  0
LINE
  5
16B03
330
1A4BB
100
AcDbEntity
  8
0
 62
     0
100
AcDbLine
 10
1615.196031728191
 20
792.0
 30
0.0
 11
1617.293021266688
 21
792.0
 31
0.0
  0
LINE
  5
16B04
330
1A4BB
100
AcDbEntity
  8
0
 62
     0
100
AcDbLine
 10
1615.196031728191
 20
791.9000000000001
 30
0.0
 11
1617.203423408849
 21
791.9000000000001
 31
0.0
  0
LINE
  5
16B05
330
1A4BB
100
AcDbEntity
  8
0
 62
     0
100
AcDbLine
 10
1615.196031728191
 20
791.8000000000001
 30
0.0
 11
1617.109229588773
 21
791.8000000000001
 31
0.0
  0
LINE
  5
16B06
330
1A4BB
100
AcDbEntity
  8
0
 62
     0
100
AcDbLine
 10
1615.196031728191
 20
791.7
 30
0.0
 11
1617.010099936551
 21
791.7
 31
0.0
  0
LINE
  5
16B07
330
1A4BB
100
AcDbEntity
  8
0
 62
     0
100
AcDbLine
 10
1615.196031728191
 20
791.6
 30
0.0
 11
1616.905639529553
 21
791.6
 31
0.0
  0
LINE
  5
16B08
330
1A4BB
100
AcDbEntity
  8
0
 62
     0
100
AcDbLine
 10
1615.196031728191
 20
791.5
 30
0.0
 11
1616.795385174764
 21
791.5
 31
0.0
  0
LINE
  5
16B09
330
1A4BB
100
AcDbEntity
  8
0
 62
     0
100
AcDbLine
 10
1615.196031728191
 20
791.4000000000001
 30
0.0
 11
1616.678787762959
 21
791.4000000000001
 31
0.0
  0
LINE
  5
16B0A
330
1A4BB
100
AcDbEntity
  8
0
 62
     0
100
AcDbLine
 10
1615.196031728191
 20
791.3000000000001
 30
0.0
 11
1616.555188229182
 21
791.3000000000001
 31
0.0
  0
LINE
  5
16B0B
330
1A4BB
100
AcDbEntity
  8
0
 62
     0
100
AcDbLine
 10
1615.196031728191
 20
791.2
 30
0.0
 11
1616.423784029231
 21
791.2
 31
0.0
  0
LINE
  5
16B0C
330
1A4BB
100
AcDbEntity
  8
0
 62
     0
100
AcDbLine
 10
1615.196031728191
 20
791.1
 30
0.0
 11
1616.283581100821
 21
791.1
 31
0.0
  0
LINE
  5
16B0D
330
1A4BB
100
AcDbEntity
  8
0
 62
     0
100
AcDbLine
 10
1615.196031728191
 20
791.0
 30
0.0
 11
1616.133322775927
 21
791.0
 31
0.0
  0
LINE
  5
16B0E
330
1A4BB
100
AcDbEntity
  8
0
 62
     0
100
AcDbLine
 10
1615.196031728191
 20
790.9
 30
0.0
 11
1615.971380449328
 21
790.9
 31
0.0
  0
LINE
  5
16B0F
330
1A4BB
100
AcDbEntity
  8
0
 62
     0
100
AcDbLine
 10
1615.196031728191
 20
790.8000000000001
 30
0.0
 11
1615.795577304748
 21
790.8000000000001
 31
0.0
  0
LINE
  5
16B10
330
1A4BB
100
AcDbEntity
  8
0
 62
     0
100
AcDbLine
 10
1615.196031728191
 20
790.7
 30
0.0
 11
1615.602886789997
 21
790.7
 31
0.0
  0
LINE
  5
16B11
330
1A4BB
100
AcDbEntity
  8
0
 62
     0
100
AcDbLine
 10
1615.196031728191
 20
790.6
 30
0.0
 11
1615.388875793914
 21
790.6
 31
0.0
  0
ENDBLK
  5
16B12
330
1A4BB
100
AcDbEntity
  8
0
100
AcDbBlockEnd
  0
BLOCK
  5
1A4E1
330
1A4D7
100
AcDbEntity
  8
0
100
AcDbBlockBegin
  2
*D9
 70
     1
 10
0.0
 20
0.0
 30
0.0
  3
*D9
  1

  0
LINE
  5
1A582
330
1A4D7
100
AcDbEntity
  8
BEM
 62
     0
370
    -2
100
AcDbLine
 10
433.8264597125064
 20
742.6460862056494
 30
0.0
 11
373.386651721724
 21
742.6460862056494
 31
0.0
  0
LINE
  5
1A583
330
1A4D7
100
AcDbEntity
  8
BEM
 62
     0
370
    -2
100
AcDbLine
 10
570.3264597125064
 20
926.6444151712743
 30
0.0
 11
373.3866517217241
 21
926.6444151712743
 31
0.0
  0
LINE
  5
1A584
330
1A4D7
100
AcDbEntity
  8
BEM
 62
     0
370
    -2
100
AcDbLine
 10
378.386651721724
 20
760.1460862056494
 30
0.0
 11
378.3866517217241
 21
909.1444151712742
 31
0.0
  0
SOLID
  5
1A585
330
1A4D7
100
AcDbEntity
  8
BEM
 62
     0
100
AcDbTrace
 10
375.4699850550573
 20
760.1460862056494
 30
0.0
 11
381.3033183883907
 21
760.1460862056494
 31
0.0
 12
378.386651721724
 22
742.6460862056494
 32
0.0
 13
378.386651721724
 23
742.6460862056494
 33
0.0
  0
SOLID
  5
1A586
330
1A4D7
100
AcDbEntity
  8
BEM
 62
     0
100
AcDbTrace
 10
375.4699850550574
 20
909.1444151712742
 30
0.0
 11
381.3033183883908
 21
909.1444151712742
 31
0.0
 12
378.3866517217241
 22
926.6444151712743
 32
0.0
 13
378.3866517217241
 23
926.6444151712743
 33
0.0
  0
MTEXT
  5
1A587
330
1A4D7
100
AcDbEntity
  8
BEM
 62
     1
100
AcDbMText
 10
362.1366517217239
 20
834.645250688462
 30
0.0
 40
17.5
 41
0.0
 71
     5
 72
     1
  1
\A1;184
  7
GREEKS
 11
0.0000000000000001
 21
1.0
 31
0.0
 73
     1
 44
1.0
  0
POINT
  5
1A588
330
1A4D7
100
AcDbEntity
  8
DEFPOINTS
 62
     0
100
AcDbPoint
 10
438.8264597125064
 20
742.6460862056494
 30
0.0
  0
POINT
  5
1A589
330
1A4D7
100
AcDbEntity
  8
DEFPOINTS
 62
     0
100
AcDbPoint
 10
575.3264597125064
 20
926.6444151712743
 30
0.0
  0
POINT
  5
1A58A
330
1A4D7
100
AcDbEntity
  8
DEFPOINTS
 62
     0
100
AcDbPoint
 10
378.3866517217241
 20
926.6444151712743
 30
0.0
  0
ENDBLK
  5
1A4E2
330
1A4D7
100
AcDbEntity
  8
0
100
AcDbBlockEnd
  0
BLOCK
  5
1A500
330
1A4F6
100
AcDbEntity
  8
0
100
AcDbBlockBegin
  2
*D10
 70
     1
 10
0.0
 20
0.0
 30
0.0
  3
*D10
  1

  0
LINE
  5
1A579
330
1A4F6
100
AcDbEntity
  8
BEM
 62
     0
370
    -2
100
AcDbLine
 10
573.6163589958778
 20
931.3428782752039
 30
0.0
 11
506.2843526158257
 21
1116.336045410971
 31
0.0
  0
LINE
  5
1A57A
330
1A4F6
100
AcDbEntity
  8
BEM
 62
     0
370
    -2
100
AcDbLine
 10
699.8324813978599
 20
1122.542055856986
 30
0.0
 11
679.1862245817617
 21
1179.267180255478
 31
0.0
  0
LINE
  5
1A57B
330
1A4F6
100
AcDbEntity
  8
BEM
 62
     0
370
    -2
100
AcDbLine
 10
524.4390741962075
 20
1117.622934815241
 30
0.0
 11
664.4517044346365
 21
1168.583364643349
 31
0.0
  0
SOLID
  5
1A57C
330
1A4F6
100
AcDbEntity
  8
BEM
 62
     0
100
AcDbTrace
 10
523.4415154448411
 20
1120.3637049592
 30
0.0
 11
525.436632947574
 21
1114.882164671282
 31
0.0
 12
507.9944533324541
 22
1111.637582307042
 32
0.0
 13
507.9944533324541
 23
1111.637582307042
 33
0.0
  0
SOLID
  5
1A57D
330
1A4F6
100
AcDbEntity
  8
BEM
 62
     0
100
AcDbTrace
 10
663.4541456832701
 20
1171.324134787308
 30
0.0
 11
665.449263186003
 21
1165.84259449939
 31
0.0
 12
680.89632529839
 22
1174.568717151548
 32
0.0
 13
680.89632529839
 23
1174.568717151548
 33
0.0
  0
MTEXT
  5
1A57E
330
1A4F6
100
AcDbEntity
  8
BEM
 62
     1
100
AcDbMText
 10
588.8875619863797
 20
1158.373154817066
 30
0.0
 40
17.5
 41
0.0
 71
     5
 72
     1
  1
\A1;184
  7
GREEKS
 11
0.9396926207859085
 21
0.3420201433256688
 31
0.0
 73
     1
 44
1.0
  0
POINT
  5
1A57F
330
1A4F6
100
AcDbEntity
  8
DEFPOINTS
 62
     0
100
AcDbPoint
 10
575.3264597125061
 20
926.6444151712743
 30
0.0
  0
POINT
  5
1A580
330
1A4F6
100
AcDbEntity
  8
DEFPOINTS
 62
     0
100
AcDbPoint
 10
701.5425821144884
 20
1117.843592753057
 30
0.0
  0
POINT
  5
1A581
330
1A4F6
100
AcDbEntity
  8
DEFPOINTS
 62
     0
100
AcDbPoint
 10
680.89632529839
 20
1174.568717151548
 30
0.0
  0
ENDBLK
  5
1A501
330
1A4F6
100
AcDbEntity
  8
0
100
AcDbBlockEnd
  0
BLOCK
  5
1A5EE
330
1A5E4
100
AcDbEntity
  8
0
100
AcDbBlockBegin
  2
*D11
 70
     1
 10
0.0
 20
0.0
 30
0.0
  3
*D11
  1

  0
LINE
  5
1A5F0
330
1A5E4
100
AcDbEntity
  8
BEM
 62
     0
370
    -2
100
AcDbLine
 10
711.8264597125064
 20
737.6460862056494
 30
0.0
 11
711.8264597125064
 21
688.3388370743046
 31
0.0
  0
LINE
  5
1A5F1
330
1A5E4
100
AcDbEntity
  8
BEM
 62
     0
370
    -2
100
AcDbLine
 10
438.8264597125067
 20
737.6460862056494
 30
0.0
 11
438.8264597125067
 21
688.3388370743046
 31
0.0
  0
LINE
  5
1A5F2
330
1A5E4
100
AcDbEntity
  8
BEM
 62
     0
370
    -2
100
AcDbLine
 10
694.3264597125065
 20
693.3388370743045
 30
0.0
 11
456.3264597125066
 21
693.3388370743045
 31
0.0
  0
SOLID
  5
1A5F3
330
1A5E4
100
AcDbEntity
  8
BEM
 62
     0
100
AcDbTrace
 10
694.3264597125065
 20
696.2555037409712
 30
0.0
 11
694.3264597125065
 21
690.422170407638
 31
0.0
 12
711.8264597125064
 22
693.3388370743045
 32
0.0
 13
711.8264597125064
 23
693.3388370743045
 33
0.0
  0
SOLID
  5
1A5F4
330
1A5E4
100
AcDbEntity
  8
BEM
 62
     0
100
AcDbTrace
 10
456.3264597125066
 20
696.2555037409712
 30
0.0
 11
456.3264597125066
 21
690.422170407638
 31
0.0
 12
438.8264597125067
 22
693.3388370743045
 32
0.0
 13
438.8264597125067
 23
693.3388370743045
 33
0.0
  0
MTEXT
  5
1A5F5
330
1A5E4
100
AcDbEntity
  8
BEM
 62
     1
100
AcDbMText
 10
575.3264597125065
 20
709.5888370743046
 30
0.0
 40
17.5
 41
0.0
 71
     5
 72
     1
  1
\A1;%%c273
  7
GREEKS
 73
     1
 44
1.0
  0
POINT
  5
1A5F6
330
1A5E4
100
AcDbEntity
  8
DEFPOINTS
 62
     0
100
AcDbPoint
 10
711.8264597125064
 20
742.6460862056494
 30
0.0
  0
POINT
  5
1A5F7
330
1A5E4
100
AcDbEntity
  8
DEFPOINTS
 62
     0
100
AcDbPoint
 10
438.8264597125067
 20
742.6460862056494
 30
0.0
  0
POINT
  5
1A5F8
330
1A5E4
100
AcDbEntity
  8
DEFPOINTS
 62
     0
100
AcDbPoint
 10
438.8264597125067
 20
693.3388370743045
 30
0.0
  0
ENDBLK
  5
1A5EF
330
1A5E4
100
AcDbEntity
  8
0
100
AcDbBlockEnd
  0
BLOCK
  5
1A605
330
1A5FA
100
AcDbEntity
  8
0
100
AcDbBlockBegin
  2
*D12
 70
     1
 10
0.0
 20
0.0
 30
0.0
  3
*D12
  1

  0
LINE
  5
1A613
330
1A5FA
100
AcDbEntity
  8
BEM
 62
     0
370
    -2
100
AcDbLine
 10
575.3264597125064
 20
931.6444151712742
 30
0.0
 11
575.3264597125065
 21
1049.730684050216
 31
0.0
  0
ARC
  5
1A614
330
1A5FA
100
AcDbEntity
  8
BEM
 62
     0
370
    -2
100
AcDbCircle
 10
575.3264597125064
 20
926.6444151712741
 30
0.0
 40
118.0862688789423
100
AcDbArc
 50
28.49883707160147
 51
81.50116292839857
  0
SOLID
  5
1A615
330
1A5FA
100
AcDbEntity
  8
BEM
 62
     0
100
AcDbTrace
 10
681.7631553185068
 20
984.1861094815772
 30
0.0
 11
676.4445190836138
 21
981.7903034838677
 31
0.0
 12
686.2912551941891
 22
967.0322977780436
 32
0.0
 13
686.2912551941891
 23
967.0322977780436
 33
0.0
  0
SOLID
  5
1A616
330
1A5FA
100
AcDbEntity
  8
BEM
 62
     0
100
AcDbTrace
 10
592.5622308676147
 20
1040.52531401499
 30
0.0
 11
592.9944713571418
 21
1046.34261114828
 31
0.0
 12
575.3264597125064
 22
1044.730684050216
 32
0.0
 13
575.3264597125064
 23
1044.730684050216
 33
0.0
  0
MTEXT
  5
1A617
330
1A5FA
100
AcDbEntity
  8
BEM
 62
     1
100
AcDbMText
 10
652.3785780887861
 20
1036.686244445615
 30
0.0
 40
17.5
 41
0.0
 71
     5
 72
     1
  1
\A1;70°
  7
GREEKS
 11
0.8191520442889917
 21
-0.5735764363510463
 31
0.0
 73
     1
 44
1.0
  0
POINT
  5
1A618
330
1A5FA
100
AcDbEntity
  8
DEFPOINTS
 62
     0
100
AcDbPoint
 10
661.2192991267568
 20
1007.680129736567
 30
0.0
  0
POINT
  5
1A619
330
1A5FA
100
AcDbEntity
  8
DEFPOINTS
 62
     0
100
AcDbPoint
 10
575.3264597125064
 20
926.6444151712741
 30
0.0
  0
POINT
  5
1A61A
330
1A5FA
100
AcDbEntity
  8
DEFPOINTS
 62
     0
100
AcDbPoint
 10
575.3264597125064
 20
926.6444151712741
 30
0.0
  0
POINT
  5
1A61B
330
1A5FA
100
AcDbEntity
  8
DEFPOINTS
 62
     0
100
AcDbPoint
 10
752.9267947823718
 20
991.2856507324093
 30
0.0
  0
POINT
  5
1A61C
330
1A5FA
100
AcDbEntity
  8
DEFPOINTS
 62
     0
100
AcDbPoint
 10
575.3264597125065
 20
737.6460862056496
 30
0.0
  0
ENDBLK
  5
1A606
330
1A5FA
100
AcDbEntity
  8
0
100
AcDbBlockEnd
  0
ENDSEC
  0
SECTION
  2
ENTITIES
  0
DIMENSION
  5
1A408
330
1A4B2
100
AcDbEntity
  8
BEM
100
AcDbDimension
  2
*D10
 10
680.89632529839
 20
1174.568717151548
 30
0.0
 11
588.8875619863797
 21
1158.373154817066
 31
0.0
 70
    32
 71
     5
 42
183.998328965625
  3
Standard
100
AcDbAlignedDimension
 13
575.3264597125061
 23
926.6444151712741
 33
0.0
 14
701.5425821144884
 24
1117.843592753057
 34
0.0
 50
20.0
100
AcDbRotatedDimension
1001
ACAD
1000
DSTYLE
1002
{
1070
    40
1040
5.0
1070
    41
1040
3.5
1070
    42
1040
1.0
1070
    43
1040
7.0
1070
    44
1040
1.0
1070
    47
1040
3.0
1070
    48
1040
3.0
1070
    73
1070
     0
1070
    74
1070
     0
1070
    77
1070
     1
1070
    78
1070
     8
1070
    79
1070
     2
1070
   140
1040
3.5
1070
   141
1040
1.5
1070
   146
1040
0.5
1070
   147
1040
1.5
1070
   172
1070
     1
1070
   178
1070
     1
1070
   179
1070
     2
1070
   271
1070
     2
1070
   272
1070
     2
1070
   284
1070
     8
1070
   285
1070
     8
1070
   286
1070
     8
1070
   340
1005
1A4C2
1002
}
  0
DIMENSION
  5
1A409
330
1A4B2
100
AcDbEntity
  8
BEM
100
AcDbDimension
  2
*D9
 10
378.3866517217241
 20
926.6444151712743
 30
0.0
 11
362.1366517217239
 21
834.645250688462
 31
0.0
 70
    32
 71
     5
 42
183.9983289656248
  3
Standard
100
AcDbAlignedDimension
 13
438.8264597125064
 23
742.6460862056494
 33
0.0
 14
575.3264597125064
 24
926.6444151712743
 34
0.0
 50
90.0
100
AcDbRotatedDimension
1001
ACAD
1000
DSTYLE
1002
{
1070
    40
1040
5.0
1070
    41
1040
3.5
1070
    42
1040
1.0
1070
    43
1040
7.0
1070
    44
1040
1.0
1070
    47
1040
3.0
1070
    48
1040
3.0
1070
    73
1070
     0
1070
    74
1070
     0
1070
    77
1070
     1
1070
    78
1070
     8
1070
    79
1070
     2
1070
   140
1040
3.5
1070
   141
1040
1.5
1070
   146
1040
0.5
1070
   147
1040
1.5
1070
   172
1070
     1
1070
   178
1070
     1
1070
   179
1070
     2
1070
   271
1070
     2
1070
   272
1070
     2
1070
   284
1070
     8
1070
   285
1070
     8
1070
   286
1070
     8
1070
   340
1005
1A4C2
1002
}
  0
DIMENSION
  5
1A40A
330
1A4B2
100
AcDbEntity
  8
BEM
100
AcDbDimension
  2
*D11
 10
438.8264597125067
 20
693.3388370743045
 30
0.0
 11
575.3264597125065
 21
709.5888370743046
 31
0.0
 70
    32
  1
%%c<>
 71
     5
 42
272.9999999999998
  3
Standard
100
AcDbAlignedDimension
 13
711.8264597125064
 23
742.6460862056494
 33
0.0
 14
438.8264597125067
 24
742.6460862056494
 34
0.0
100
AcDbRotatedDimension
1001
ACAD
1000
DSTYLE
1002
{
1070
    40
1040
5.0
1070
    41
1040
3.5
1070
    42
1040
1.0
1070
    43
1040
7.0
1070
    44
1040
1.0
1070
    47
1040
3.0
1070
    48
1040
3.0
1070
    73
1070
     0
1070
    74
1070
     0
1070
    77
1070
     1
1070
    78
1070
     8
1070
    79
1070
     2
1070
   140
1040
3.5
1070
   141
1040
1.5
1070
   146
1040
0.5
1070
   147
1040
1.5
1070
   172
1070
     1
1070
   178
1070
     1
1070
   179
1070
     2
1070
   271
1070
     2
1070
   272
1070
     2
1070
   284
1070
     8
1070
   285
1070
     8
1070
   286
1070
     8
1070
   340
1005
1A4C2
1002
}
  0
LINE
  5
1A40B
330
1A4B2
100
AcDbEntity
  8
STEMPEL
100
AcDbLine
 10
438.8264597125071
 20
1022.222744136899
 30
0.0
 11
701.5425821144885
 21
1117.843592753057
 31
0.0
  0
ARC
  5
1A40C
330
1A4B2
100
AcDbEntity
  8
SCHRAFF
100
AcDbCircle
 10
524.024485933676
 20
962.5533453700716
 30
0.0
 40
3.811488253428933
100
AcDbArc
 50
273.0852241088059
 51
16.91477589119083
  0
LINE
  5
1A40D
330
1A4B2
100
AcDbEntity
  8
STEMPEL
100
AcDbLine
 10
711.8264597125055
 20
831.0660862056492
 30
0.0
 11
438.8264597125071
 21
1022.222744136899
 31
0.0
  0
LINE
  5
1A40E
330
1A4B2
100
AcDbEntity
  8
STEMPEL
100
AcDbLine
 10
711.8264597125064
 20
742.6460862056494
 30
0.0
 11
438.8264597125064
 21
742.6460862056494
 31
0.0
  0
TEXT
  5
1A40F
330
1A4B2
100
AcDbEntity
  8
TEXT
 62
     1
100
AcDbText
 10
273.9036994186759
 20
439.8504167589382
 30
0.0
 40
17.5
  1
Rohrenden leicht entgratet
 41
0.8
  7
GREEKS
100
AcDbText
  0
LINE
  5
1A410
330
1A4B2
100
AcDbEntity
  8
STEMPEL
100
AcDbLine
 10
1025.0
 20
275.0000000000001
 30
0.0
 11
99.99999999999992
 21
275.0
 31
0.0
  0
LINE
  5
1A411
330
1A4B2
100
AcDbEntity
  8
STEMPEL
100
AcDbLine
 10
1025.0
 20
100.0
 30
0.0
 11
365.0000000000003
 21
99.99999999999992
 31
0.0
  0
LINE
  5
1A412
330
1A4B2
100
AcDbEntity
  8
STEMPEL
100
AcDbLine
 10
1025.0
 20
200.0
 30
0.0
 11
365.0000000000003
 21
199.9999999999998
 31
0.0
  0
LINE
  5
1A413
330
1A4B2
100
AcDbEntity
  8
HILF
100
AcDbLine
 10
365.0000000000003
 20
174.9999999999998
 30
0.0
 11
575.0
 21
174.9999999999998
 31
0.0
  0
LINE
  5
1A414
330
1A4B2
100
AcDbEntity
  8
HILF
100
AcDbLine
 10
365.0000000000003
 20
149.9999999999999
 30
0.0
 11
575.0
 21
149.9999999999999
 31
0.0
  0
LINE
  5
1A415
330
1A4B2
100
AcDbEntity
  8
HILF
100
AcDbLine
 10
365.0000000000003
 20
124.9999999999999
 30
0.0
 11
575.0
 21
124.9999999999999
 31
0.0
  0
LINE
  5
1A416
330
1A4B2
100
AcDbEntity
  8
STEMPEL
100
AcDbLine
 10
124.9999999999997
 20
25.0
 30
0.0
 11
1025.0
 21
25.0
 31
0.0
  0
LINE
  5
1A417
330
1A4B2
100
AcDbEntity
  8
STEMPEL
100
AcDbLine
 10
1025.0
 20
25.0
 30
0.0
 11
99.99999999999971
 21
25.0
 31
0.0
  0
LINE
  5
1A418
330
1A4B2
100
AcDbEntity
  8
HILF
100
AcDbLine
 10
1050.0
 20
0.0
 30
0.0
 11
0.0
 21
0.0
 31
0.0
  0
INSERT
  5
1A419
330
1A4B2
100
AcDbEntity
  8
STEMPEL
100
AcDbBlockReference
  2
LOGO
 10
377.4888713644485
 20
112.552631911208
 30
0.0
 41
5.0
 42
5.0
 43
5.0
  0
TEXT
  5
1A41A
330
1A4B2
100
AcDbEntity
  8
TEXT
100
AcDbText
 10
511.0540121453142
 20
157.7240979930877
 30
0.0
 40
10.0
  1
Koeh
 41
0.8
  7
GREEKS
 72
     1
 11
524.1968692881714
 21
157.7240979930877
 31
0.0
100
AcDbText
  0
TEXT
  5
1A41B
330
1A4B2
100
AcDbEntity
  8
TEXT
100
AcDbText
 10
506.1566460565737
 20
183.2740272978806
 30
0.0
 40
10.0
  1
Name
 41
0.8
  7
GREEKS
100
AcDbText
  0
TEXT
  5
1A41C
330
1A4B2
100
AcDbEntity
  8
TEXT
100
AcDbText
 10
485.7147386835128
 20
256.0460421087048
 30
0.0
 40
12.5
  1
Zul. Abw.
 41
0.8
  7
GREEKS
100
AcDbText
  0
TEXT
  5
1A41D
330
1A4B2
100
AcDbEntity
  8
TEXT
 62
     1
100
AcDbText
 10
471.7846544748148
 20
351.64847138984
 30
0.0
 40
17.5
  1
Werkstoff: EN 10219 S235
 41
0.8
  7
GREEKS
100
AcDbText
  0
LINE
  5
1A41F
330
1A4B2
100
AcDbEntity
  8
STEMPEL
100
AcDbLine
 10
1025.0
 20
1460.0
 30
0.0
 11
99.99999999999971
 21
1460.0
 31
0.0
  0
LINE
  5
1A420
330
1A4B2
100
AcDbEntity
  8
HILF
100
AcDbLine
 10
1050.0
 20
1485.0
 30
0.0
 11
0.0
 21
1485.0
 31
0.0
  0
LINE
  5
1A421
330
1A4B2
100
AcDbEntity
  8
STEMPEL
100
AcDbLine
 10
100.0
 20
25.0
 30
0.0
 11
99.99999999999971
 21
1460.0
 31
0.0
  0
LINE
  5
1A422
330
1A4B2
100
AcDbEntity
  8
HILF
100
AcDbLine
 10
0.0
 20
0.0
 30
0.0
 11
-0.0000000000002842
 21
1485.0
 31
0.0
  0
TEXT
  5
1A423
330
1A4B2
100
AcDbEntity
  8
TEXT
100
AcDbText
 10
104.6377487744418
 20
279.1799999999999
 30
0.0
 40
12.5
  1
Erstellt mit AUTOCAD 2004
 41
0.8
  7
GREEKS
100
AcDbText
  0
TEXT
  5
1A424
330
1A4B2
100
AcDbEntity
  8
TEXT
100
AcDbText
 10
164.5864391002692
 20
46.68454737460329
 30
0.0
 40
10.0
  1
Änderung
 41
0.8
  7
GREEKS
 72
     1
 11
191.4435819574121
 21
46.68454737460329
 31
0.0
100
AcDbText
  0
LINE
  5
1A425
330
1A4B2
100
AcDbEntity
  8
STEMPEL
100
AcDbLine
 10
364.9999999999997
 20
74.99999999999992
 30
0.0
 11
99.99999999999992
 21
74.99999999999992
 31
0.0
  0
LINE
  5
1A426
330
1A4B2
100
AcDbEntity
  8
HILF
100
AcDbLine
 10
100.0000000000002
 20
250.0000000000001
 30
0.0
 11
365.0000000000003
 21
250.0000000000001
 31
0.0
  0
LINE
  5
1A427
330
1A4B2
100
AcDbEntity
  8
HILF
100
AcDbLine
 10
100.0000000000002
 20
225.0000000000001
 30
0.0
 11
365.0000000000003
 21
225.0000000000001
 31
0.0
  0
LINE
  5
1A428
330
1A4B2
100
AcDbEntity
  8
HILF
100
AcDbLine
 10
100.0000000000002
 20
199.9999999999998
 30
0.0
 11
365.0000000000003
 21
199.9999999999998
 31
0.0
  0
LINE
  5
1A429
330
1A4B2
100
AcDbEntity
  8
HILF
100
AcDbLine
 10
100.0000000000002
 20
174.9999999999998
 30
0.0
 11
365.0000000000003
 21
174.9999999999998
 31
0.0
  0
LINE
  5
1A42A
330
1A4B2
100
AcDbEntity
  8
HILF
100
AcDbLine
 10
100.0000000000002
 20
149.9999999999999
 30
0.0
 11
365.0000000000003
 21
149.9999999999999
 31
0.0
  0
LINE
  5
1A42B
330
1A4B2
100
AcDbEntity
  8
HILF
100
AcDbLine
 10
100.0000000000002
 20
124.9999999999999
 30
0.0
 11
365.0000000000003
 21
124.9999999999999
 31
0.0
  0
LINE
  5
1A42C
330
1A4B2
100
AcDbEntity
  8
HILF
100
AcDbLine
 10
100.0000000000002
 20
99.99999999999992
 30
0.0
 11
365.0000000000003
 21
99.99999999999992
 31
0.0
  0
LINE
  5
1A42D
330
1A4B2
100
AcDbEntity
  8
VOLL
100
AcDbLine
 10
135.0000000000002
 20
275.0000000000001
 30
0.0
 11
134.9999999999999
 21
24.99999999999993
 31
0.0
  0
TEXT
  5
1A42E
330
1A4B2
100
AcDbEntity
  8
TEXT
100
AcDbText
 10
120.6660276761439
 20
34.13664615067979
 30
0.0
 40
10.0
  1
Index
 50
90.0
 41
0.8
  7
GREEKS
100
AcDbText
  0
LINE
  5
1A42F
330
1A4B2
100
AcDbEntity
  8
HILF
100
AcDbLine
 10
77.7191783928464
 20
742.5000000000001
 30
0.0
 11
0.0000000000002842
 21
742.5000000000001
 31
0.0
  0
LINE
  5
1A430
330
1A4B2
100
AcDbEntity
  8
VOLL
100
AcDbLine
 10
260.0000000000003
 20
274.9999999999999
 30
0.0
 11
260.0
 21
24.99999999999993
 31
0.0
  0
LINE
  5
1A431
330
1A4B2
100
AcDbEntity
  8
VOLL
100
AcDbLine
 10
310.0000000000003
 20
274.9999999999999
 30
0.0
 11
310.0
 21
24.99999999999993
 31
0.0
  0
TEXT
  5
1A432
330
1A4B2
100
AcDbEntity
  8
TEXT
100
AcDbText
 10
274.2609029640008
 20
46.67890673349525
 30
0.0
 40
10.0
  1
Tag
 41
0.8
  7
GREEKS
 72
     1
 11
283.5942362973341
 21
46.67890673349525
 31
0.0
100
AcDbText
  0
TEXT
  5
1A433
330
1A4B2
100
AcDbEntity
  8
TEXT
100
AcDbText
 10
321.2631057832852
 20
46.4831054241602
 30
0.0
 40
10.0
  1
Name
 41
0.8
  7
GREEKS
 72
     1
 11
337.072629592809
 21
46.4831054241602
 31
0.0
100
AcDbText
  0
LINE
  5
1A434
330
1A4B2
100
AcDbEntity
  8
STEMPEL
100
AcDbLine
 10
365.0000000000003
 20
274.9999999999999
 30
0.0
 11
365.0
 21
24.99999999999993
 31
0.0
  0
TEXT
  5
1A435
330
1A4B2
100
AcDbEntity
  8
TEXT
100
AcDbText
 10
425.9974927705902
 20
157.7691260206433
 30
0.0
 40
10.0
  1
06.04.
 41
0.8
  7
GREEKS
 72
     1
 11
443.5213022943996
 21
157.7691260206433
 31
0.0
100
AcDbText
  0
TEXT
  5
1A436
330
1A4B2
100
AcDbEntity
  8
TEXT
100
AcDbText
 10
430.8279182884127
 20
183.2970125307481
 30
0.0
 40
10.0
  1
Tag
 41
0.8
  7
GREEKS
100
AcDbText
  0
TEXT
  5
1A437
330
1A4B2
100
AcDbEntity
  8
TEXT
100
AcDbText
 10
368.9590317919039
 20
159.0747592404491
 30
0.0
 40
10.0
  1
Gez.
 41
0.8
  7
GREEKS
100
AcDbText
  0
LINE
  5
1A438
330
1A4B2
100
AcDbEntity
  8
VOLL
100
AcDbLine
 10
410.0000000000003
 20
199.9999999999998
 30
0.0
 11
410.0000000000003
 21
99.99999999999992
 31
0.0
  0
TEXT
  5
1A439
330
1A4B2
100
AcDbEntity
  8
TEXT
100
AcDbText
 10
369.0016943468259
 20
108.8236597412452
 30
0.0
 40
10.0
  1
Norm.
 41
0.8
  7
GREEKS
100
AcDbText
  0
TEXT
  5
1A43A
330
1A4B2
100
AcDbEntity
  8
TEXT
100
AcDbText
 10
368.8787716429181
 20
134.2231572857094
 30
0.0
 40
10.0
  1
Gepr.
 41
0.8
  7
GREEKS
100
AcDbText
  0
TEXT
  5
1A43B
330
1A4B2
100
AcDbEntity
  8
TEXT
100
AcDbText
 10
383.7908930375943
 20
256.1552237717722
 30
0.0
 40
12.5
  1
Maßstab
 41
0.8
  7
GREEKS
100
AcDbText
  0
TEXT
  5
1A43C
330
1A4B2
100
AcDbEntity
  8
TEXT
 62
     1
100
AcDbText
 10
401.2515766204717
 20
220.372535722849
 30
0.0
 40
17.5
  1
1:5
 41
0.8
  7
GREEKS
100
AcDbText
  0
TEXT
  5
1A43D
330
1A4B2
100
AcDbEntity
  8
TEXT
100
AcDbText
 10
371.55527455526
 20
182.8506367787916
 30
0.0
 40
10.0
  1
2011
 41
0.8
  7
GREEKS
100
AcDbText
  0
LINE
  5
1A43E
330
1A4B2
100
AcDbEntity
  8
VOLL
100
AcDbLine
 10
475.0000000000002
 20
274.9999999999996
 30
0.0
 11
475.0
 21
99.99999999999992
 31
0.0
  0
ARC
  5
1A43F
330
1A4B2
100
AcDbEntity
  8
SCHRAFF
100
AcDbCircle
 10
507.6414450478965
 20
974.0248740970924
 30
0.0
 40
3.811488253428933
100
AcDbArc
 50
273.0852241088059
 51
16.91477589119083
  0
ARC
  5
1A440
330
1A4B2
100
AcDbEntity
  8
SCHRAFF
100
AcDbCircle
 10
503.5456848264514
 20
976.892756278848
 30
0.0
 40
3.811488253428933
100
AcDbArc
 50
273.0852241088059
 51
16.91477589119083
  0
LINE
  5
1A441
330
1A4B2
100
AcDbEntity
  8
STEMPEL
100
AcDbLine
 10
438.8264597125071
 20
1022.222744136899
 30
0.0
 11
438.8264597125064
 21
742.6460862056494
 31
0.0
  0
ARC
  5
1A442
330
1A4B2
100
AcDbEntity
  8
SCHRAFF
100
AcDbCircle
 10
511.7372052693412
 20
971.1569919153376
 30
0.0
 40
3.811488253428933
100
AcDbArc
 50
273.0852241088059
 51
16.91477589119083
  0
ARC
  5
1A443
330
1A4B2
100
AcDbEntity
  8
SCHRAFF
100
AcDbCircle
 10
515.8329654907864
 20
968.2891097335822
 30
0.0
 40
3.811488253428933
100
AcDbArc
 50
273.0852241088059
 51
16.91477589119083
  0
ARC
  5
1A444
330
1A4B2
100
AcDbEntity
  8
SCHRAFF
100
AcDbCircle
 10
519.928725712231
 20
965.421227551827
 30
0.0
 40
3.811488253428933
100
AcDbArc
 50
273.0852241088059
 51
16.91477589119083
  0
ARC
  5
1A445
330
1A4B2
100
AcDbEntity
  8
SCHRAFF
100
AcDbCircle
 10
440.3546266397156
 20
1021.152710134825
 30
0.0
 40
3.009195968866521
100
AcDbArc
 50
50.51954828443829
 51
239.4804517155609
  0
ARC
  5
1A446
330
1A4B2
100
AcDbEntity
  8
SCHRAFF
100
AcDbCircle
 10
439.0813859552013
 20
1022.094399593276
 30
0.0
 40
3.811488253428933
100
AcDbArc
 50
273.0852241088059
 51
16.91477589119083
  0
ARC
  5
1A447
330
1A4B2
100
AcDbEntity
  8
SCHRAFF
100
AcDbCircle
 10
442.6581584901287
 20
1019.589916501859
 30
0.0
 40
3.811488253428933
100
AcDbArc
 50
273.0852241088059
 51
16.91477589119083
  0
INSERT
  5
1A448
330
1A4B2
100
AcDbEntity
  8
SCHRAFF
100
AcDbBlockReference
  2
*X3
 10
-903.3695720156858
 20
36.88444922215501
 30
0.0
1001
ACAD
1000
HATCH
1002
{
1070
    16
1000
_U,I
1040
0.1
1040
0.0
1070
     0
1002
}
  0
ARC
  5
1A449
330
1A4B2
100
AcDbEntity
  8
SCHRAFF
100
AcDbCircle
 10
483.0668837192265
 20
991.2321671876243
 30
0.0
 40
3.811488253428933
100
AcDbArc
 50
273.0852241088059
 51
16.91477589119083
  0
ARC
  5
1A44A
330
1A4B2
100
AcDbEntity
  8
SCHRAFF
100
AcDbCircle
 10
462.5880826120019
 20
1005.5715780964
 30
0.0
 40
3.811488253428933
100
AcDbArc
 50
273.0852241088059
 51
16.91477589119083
  0
ARC
  5
1A44B
330
1A4B2
100
AcDbEntity
  8
SCHRAFF
100
AcDbCircle
 10
450.3008019476667
 20
1014.175224641665
 30
0.0
 40
3.811488253428933
100
AcDbArc
 50
273.0852241088059
 51
16.91477589119083
  0
ARC
  5
1A44C
330
1A4B2
100
AcDbEntity
  8
SCHRAFF
100
AcDbCircle
 10
446.2050417262217
 20
1017.043106823421
 30
0.0
 40
3.811488253428933
100
AcDbArc
 50
273.0852241088059
 51
16.91477589119083
  0
ARC
  5
1A44D
330
1A4B2
100
AcDbEntity
  8
SCHRAFF
100
AcDbCircle
 10
458.4923223905568
 20
1008.439460278155
 30
0.0
 40
3.811488253428933
100
AcDbArc
 50
273.0852241088059
 51
16.91477589119083
  0
ARC
  5
1A44E
330
1A4B2
100
AcDbEntity
  8
SCHRAFF
100
AcDbCircle
 10
454.396562169112
 20
1011.307342459911
 30
0.0
 40
3.811488253428933
100
AcDbArc
 50
273.0852241088059
 51
16.91477589119083
  0
ARC
  5
1A44F
330
1A4B2
100
AcDbEntity
  8
SCHRAFF
100
AcDbCircle
 10
466.6838428334467
 20
1002.703695914645
 30
0.0
 40
3.811488253428933
100
AcDbArc
 50
273.0852241088059
 51
16.91477589119083
  0
ARC
  5
1A450
330
1A4B2
100
AcDbEntity
  8
SCHRAFF
100
AcDbCircle
 10
470.7796030548913
 20
999.8358137328899
 30
0.0
 40
3.811488253428933
100
AcDbArc
 50
273.0852241088059
 51
16.91477589119083
  0
ARC
  5
1A451
330
1A4B2
100
AcDbEntity
  8
SCHRAFF
100
AcDbCircle
 10
478.9711234977817
 20
994.1000493693797
 30
0.0
 40
3.811488253428933
100
AcDbArc
 50
273.0852241088059
 51
16.91477589119083
  0
ARC
  5
1A452
330
1A4B2
100
AcDbEntity
  8
SCHRAFF
100
AcDbCircle
 10
474.8753632763364
 20
996.9679315511344
 30
0.0
 40
3.811488253428933
100
AcDbArc
 50
273.0852241088059
 51
16.91477589119083
  0
ARC
  5
1A453
330
1A4B2
100
AcDbEntity
  8
SCHRAFF
100
AcDbCircle
 10
491.2584041621166
 20
985.4964028241139
 30
0.0
 40
3.811488253428933
100
AcDbArc
 50
273.0852241088059
 51
16.91477589119083
  0
ARC
  5
1A454
330
1A4B2
100
AcDbEntity
  8
SCHRAFF
100
AcDbCircle
 10
487.1626439406713
 20
988.3642850058688
 30
0.0
 40
3.811488253428933
100
AcDbArc
 50
273.0852241088059
 51
16.91477589119083
  0
ARC
  5
1A455
330
1A4B2
100
AcDbEntity
  8
SCHRAFF
100
AcDbCircle
 10
495.3541643835612
 20
982.6285206423582
 30
0.0
 40
3.811488253428933
100
AcDbArc
 50
273.0852241088059
 51
16.91477589119083
  0
ARC
  5
1A456
330
1A4B2
100
AcDbEntity
  8
SCHRAFF
100
AcDbCircle
 10
499.4499246050063
 20
979.7606384606034
 30
0.0
 40
3.811488253428933
100
AcDbArc
 50
273.0852241088059
 51
16.91477589119083
  0
LINE
  5
1A458
102
{ACAD_REACTORS
330
1A612
102
}
330
1A4B2
100
AcDbEntity
  8
MITTEL
100
AcDbLine
 10
575.3264597125064
 20
926.6444151712743
 30
0.0
 11
575.3264597125064
 21
737.6460862056494
 31
0.0
  0
LINE
  5
1A459
330
1A4B2
100
AcDbEntity
  8
STEMPEL
100
AcDbLine
 10
1025.0
 20
25.0
 30
0.0
 11
1025.0
 21
1460.0
 31
0.0
  0
LINE
  5
1A45A
330
1A4B2
100
AcDbEntity
  8
HILF
100
AcDbLine
 10
1050.0
 20
-0.0000000000002842
 30
0.0
 11
1050.0
 21
1485.0
 31
0.0
  0
LINE
  5
1A45C
330
1A4B2
100
AcDbEntity
  8
HILF
100
AcDbLine
 10
583.7274248224712
 20
37.23495645070784
 30
0.0
 11
1012.147209831682
 21
37.23495645070784
 31
0.0
  0
LINE
  5
1A45D
330
1A4B2
100
AcDbEntity
  8
VOLL
100
AcDbLine
 10
830.0
 20
150.0
 30
0.0
 11
1025.0
 21
150.0
 31
0.0
  0
LINE
  5
1A45E
330
1A4B2
100
AcDbEntity
  8
HILF
100
AcDbLine
 10
841.8096540742482
 20
209.4495909238957
 30
0.0
 11
1012.147209831682
 21
209.4495909238957
 31
0.0
  0
TEXT
  5
1A45F
330
1A4B2
100
AcDbEntity
  8
TEXT
100
AcDbText
 10
840.4468873940851
 20
255.7830086342841
 30
0.0
 40
12.5
  1
Zeichnungs Nr.
 41
0.8
  7
GREEKS
100
AcDbText
  0
TEXT
  5
1A460
330
1A4B2
100
AcDbEntity
  8
TEXT
100
AcDbText
 10
841.8096540742482
 20
182.9529559274992
 30
0.0
 40
12.5
  1
Ersatz für:
 41
0.8
  7
GREEKS
100
AcDbText
  0
TEXT
  5
1A461
330
1A4B2
100
AcDbEntity
  8
TEXT
100
AcDbText
 10
843.1002153742515
 20
130.185404446965
 30
0.0
 40
12.5
  1
ersetzt durch:
 41
0.8
  7
GREEKS
100
AcDbText
  0
TEXT
  5
1A462
330
1A4B2
100
AcDbEntity
  8
TEXT
 62
     1
100
AcDbText
 10
591.7846544748149
 20
321.64847138984
 30
0.0
 40
17.5
  1
feuerverzinkt und innen beschichtet
 41
0.8
  7
GREEKS
100
AcDbText
  0
LINE
  5
1A463
330
1A4B2
100
AcDbEntity
  8
HILF
100
AcDbLine
 10
586.9342002742369
 20
210.0939561891034
 30
0.0
 11
812.0884791390777
 21
210.0939561891034
 31
0.0
  0
LINE
  5
1A464
330
1A4B2
100
AcDbEntity
  8
HILF
100
AcDbLine
 10
586.9342002742369
 20
174.9999999999998
 30
0.0
 11
812.0884791390775
 21
174.9999999999998
 31
0.0
  0
LINE
  5
1A465
330
1A4B2
100
AcDbEntity
  8
HILF
100
AcDbLine
 10
586.9342002742369
 20
149.9999999999999
 30
0.0
 11
812.0884791390775
 21
149.9999999999999
 31
0.0
  0
LINE
  5
1A466
330
1A4B2
100
AcDbEntity
  8
HILF
100
AcDbLine
 10
586.9342002742369
 20
124.9999999999999
 30
0.0
 11
812.0884791390775
 21
124.9999999999999
 31
0.0
  0
TEXT
  5
1A467
330
1A4B2
100
AcDbEntity
  8
TEXT
 62
     1
100
AcDbText
 10
587.207320850568
 20
218.5437197313445
 30
0.0
 40
17.5
  1
Bogen 70%%d DN250
 41
0.8
  7
GREEKS
100
AcDbText
  0
LINE
  5
1A468
330
1A4B2
100
AcDbEntity
  8
STEMPEL
100
AcDbLine
 10
575.0
 20
275.0000000000001
 30
0.0
 11
575.0
 21
24.99999999999993
 31
0.0
  0
TEXT
  5
1A469
330
1A4B2
100
AcDbEntity
  8
TEXT
100
AcDbText
 10
586.8555959778399
 20
77.11401425482641
 30
0.0
 40
12.5
  1
Bauvorhaben
 41
0.8
  7
GREEKS
100
AcDbText
  0
TEXT
  5
1A46A
330
1A4B2
100
AcDbEntity
  8
TEXT
100
AcDbText
 10
587.4593753944567
 20
106.5743538255658
 30
0.0
 40
10.0
  1
03005250W.DWG
 41
0.8
  7
GREEKS
100
AcDbText
  0
TEXT
  5
1A46B
330
1A4B2
100
AcDbEntity
  8
TEXT
100
AcDbText
 10
587.1948509522525
 20
256.3723320029449
 30
0.0
 40
12.5
  1
Benennung
 41
0.8
  7
GREEKS
100
AcDbText
  0
TEXT
  5
1A46C
330
1A4B2
100
AcDbEntity
  8
TEXT
100
AcDbText
 10
587.8240977813288
 20
181.1007260038562
 30
0.0
 40
12.5
  1
Muffenlos
 41
0.8
  7
GREEKS
100
AcDbText
  0
TEXT
  5
1A46D
330
1A4B2
100
AcDbEntity
  8
TEXT
100
AcDbText
 10
587.8240977813288
 20
129.100298576054
 30
0.0
 40
12.5
  1
EDV-Art.Nr. 03005.250X
 41
0.8
  7
GREEKS
100
AcDbText
  0
LINE
  5
1A46E
330
1A4B2
100
AcDbEntity
  8
STEMPEL
100
AcDbLine
 10
830.0
 20
274.9999999999994
 30
0.0
 11
830.0
 21
100.0
 31
0.0
  0
POINT
  5
1A46F
330
1A4B2
100
AcDbEntity
  8
DEFPOINTS
  6
ByBlock
 62
     0
100
AcDbPoint
 10
575.3264597125064
 20
737.6460862056494
 30
0.0
  0
TEXT
  5
1A470
330
1A4B2
100
AcDbEntity
  8
TEXT
 62
     1
100
AcDbText
 10
868.4300967529216
 20
220.372535722849
 30
0.0
 40
17.5
  1
03005250W
 41
0.8
  7
GREEKS
 72
     1
 11
928.4300967529215
 21
220.372535722849
 31
0.0
100
AcDbText
  0
LINE
  5
1A473
102
{ACAD_REACTORS
330
1A612
102
}
330
1A4B2
100
AcDbEntity
  8
MITTEL
100
AcDbLine
 10
575.3264597125064
 20
926.6444151712743
 30
0.0
 11
752.9267947823718
 21
991.2856507324091
 31
0.0
  0
TEXT
  5
1A475
330
1A4B2
100
AcDbEntity
  8
TEXT
 62
     1
100
AcDbText
 10
566.9932858726443
 20
802.5325069332875
 30
0.0
 40
17.5
  1
DN250
 50
90.0
 41
0.8
  7
GREEKS
100
AcDbText
  0
ARC
  5
1A476
330
1A4B2
100
AcDbEntity
  8
SCHRAFF
100
AcDbCircle
 10
564.9820881481259
 20
933.8745235525195
 30
0.0
 40
3.811488253428933
100
AcDbArc
 50
273.0852241088059
 51
16.91477589119083
  0
ARC
  5
1A477
330
1A4B2
100
AcDbEntity
  8
SCHRAFF
100
AcDbCircle
 10
544.5032870409009
 20
948.2139344612958
 30
0.0
 40
3.811488253428933
100
AcDbArc
 50
273.0852241088059
 51
16.91477589119083
  0
ARC
  5
1A478
330
1A4B2
100
AcDbEntity
  8
SCHRAFF
100
AcDbCircle
 10
532.2160063765659
 20
956.8175810065612
 30
0.0
 40
3.811488253428933
100
AcDbArc
 50
273.0852241088059
 51
16.91477589119083
  0
ARC
  5
1A479
330
1A4B2
100
AcDbEntity
  8
SCHRAFF
100
AcDbCircle
 10
528.1202461551213
 20
959.6854631883166
 30
0.0
 40
3.811488253428933
100
AcDbArc
 50
273.0852241088059
 51
16.91477589119083
  0
ARC
  5
1A47A
330
1A4B2
100
AcDbEntity
  8
SCHRAFF
100
AcDbCircle
 10
540.4075268194558
 20
951.0818166430507
 30
0.0
 40
3.811488253428933
100
AcDbArc
 50
273.0852241088059
 51
16.91477589119083
  0
ARC
  5
1A47B
330
1A4B2
100
AcDbEntity
  8
SCHRAFF
100
AcDbCircle
 10
536.311766598011
 20
953.9496988248062
 30
0.0
 40
3.811488253428933
100
AcDbArc
 50
273.0852241088059
 51
16.91477589119083
  0
ARC
  5
1A47C
330
1A4B2
100
AcDbEntity
  8
SCHRAFF
100
AcDbCircle
 10
548.5990472623462
 20
945.3460522795403
 30
0.0
 40
3.811488253428933
100
AcDbArc
 50
273.0852241088059
 51
16.91477589119083
  0
ARC
  5
1A47D
330
1A4B2
100
AcDbEntity
  8
SCHRAFF
100
AcDbCircle
 10
552.694807483791
 20
942.4781700977849
 30
0.0
 40
3.811488253428933
100
AcDbArc
 50
273.0852241088059
 51
16.91477589119083
  0
ARC
  5
1A47E
330
1A4B2
100
AcDbEntity
  8
SCHRAFF
100
AcDbCircle
 10
560.8863279266809
 20
936.7424057342743
 30
0.0
 40
3.811488253428933
100
AcDbArc
 50
273.0852241088059
 51
16.91477589119083
  0
ARC
  5
1A47F
330
1A4B2
100
AcDbEntity
  8
SCHRAFF
100
AcDbCircle
 10
556.790567705236
 20
939.6102879160299
 30
0.0
 40
3.811488253428933
100
AcDbArc
 50
273.0852241088059
 51
16.91477589119083
  0
POINT
  5
1A480
330
1A4B2
100
AcDbEntity
  8
BEM
100
AcDbPoint
 10
575.3264597125064
 20
926.6444151712743
 30
0.0
  0
POINT
  5
1A481
330
1A4B2
100
AcDbEntity
  8
BEM
100
AcDbPoint
 10
575.3264597125064
 20
926.6444151712743
 30
0.0
  0
ARC
  5
1A482
330
1A4B2
100
AcDbEntity
  8
SCHRAFF
100
AcDbCircle
 10
569.0778483695712
 20
931.0066413707639
 30
0.0
 40
3.811488253428933
100
AcDbArc
 50
273.0852241088059
 51
16.91477589119083
  0
LINE
  5
1A483
330
1A4B2
100
AcDbEntity
  8
STEMPEL
100
AcDbLine
 10
794.9140812423959
 20
861.3075072785042
 30
0.0
 11
701.5425821144885
 21
1117.843592753057
 31
0.0
  0
LINE
  5
1A486
330
1A4B2
100
AcDbEntity
  8
STEMPEL
100
AcDbLine
 10
711.8264597125057
 20
831.0660862056494
 30
0.0
 11
794.9140812423959
 21
861.3075072785042
 31
0.0
  0
LINE
  5
1A489
330
1A4B2
100
AcDbEntity
  8
STEMPEL
100
AcDbLine
 10
711.8264597125057
 20
831.0660862056494
 30
0.0
 11
711.8264597125064
 21
742.6460862056494
 31
0.0
  0
INSERT
  5
1A48A
330
1A4B2
100
AcDbEntity
  8
SCHRAFF
100
AcDbBlockReference
  2
*X4
 10
-903.3695720156858
 20
36.88444922215501
 30
0.0
1001
ACAD
1000
HATCH
1002
{
1070
    16
1000
_U,I
1040
0.1
1040
0.0
1070
     0
1002
}
  0
ARC
  5
1A48B
330
1A4B2
100
AcDbEntity
  8
SCHRAFF
100
AcDbCircle
 10
709.8194306944699
 20
832.4714230534834
 30
0.0
 40
5.450628365530656
100
AcDbArc
 50
291.6058665242994
 51
358.3941334757043
  0
POINT
  5
1A48D
330
1A4B2
100
AcDbEntity
  8
BEM
100
AcDbPoint
 10
752.9267947823718
 20
991.2856507324091
 30
0.0
  0
TEXT
  5
1A549
330
1A4B2
100
AcDbEntity
  8
BEM
100
AcDbText
 10
1043.255730964291
 20
25.41975269997152
 30
0.0
 40
10.0
  1
Diese Zeichnung ist urheberrechtlich geschützt und bleibt unser Eigentum. Sie darf weder ganz noch teilweise verfielfältigt und nicht an Dritte weitergegeben werden.
 50
90.0
 41
0.8
  7
GREEKS
100
AcDbText
  0
TEXT
  5
1A54B
330
1A4B2
100
AcDbEntity
  8
TEXT
100
AcDbText
 10
481.7206788119809
 20
220.8305058474273
 30
0.0
 40
10.0
  1
DIN EN1123-2
 41
0.8
  7
GREEKS
 72
     1
 11
524.1968692881714
 21
220.8305058474273
 31
0.0
100
AcDbText
  0
DIMENSION
  5
1A5F9
102
{ACAD_XDICTIONARY
360
1A607
102
}
102
{ACAD_REACTORS
330
1A612
102
}
330
1A4B2
100
AcDbEntity
  8
BEM
100
AcDbDimension
  2
*D12
 10
575.3264597125064
 20
737.6460862056494
 30
0.0
 11
652.3785780887861
 21
1036.686244445616
 31
0.0
 70
    34
 71
     5
 42
1.22173047639603
  3
Standard
100
AcDb2LineAngularDimension
 13
575.3264597125064
 23
926.6444151712743
 33
0.0
 14
752.9267947823718
 24
991.2856507324091
 34
0.0
 15
575.3264597125064
 25
926.6444151712743
 35
0.0
 16
661.2192991267568
 26
1007.680129736567
 36
0.0
1001
ACAD
1000
DSTYLE
1002
{
1070
    40
1040
5.0
1070
    41
1040
3.5
1070
    42
1040
1.0
1070
    43
1040
7.0
1070
    44
1040
1.0
1070
    47
1040
3.0
1070
    48
1040
3.0
1070
    73
1070
     0
1070
    74
1070
     0
1070
    77
1070
     1
1070
    78
1070
     8
1070
    79
1070
     2
1070
   140
1040
3.5
1070
   141
1040
1.5
1070
   146
1040
0.5
1070
   147
1040
1.5
1070
   172
1070
     1
1070
   178
1070
     1
1070
   179
1070
     2
1070
   271
1070
     2
1070
   272
1070
     2
1070
   284
1070
     8
1070
   285
1070
     8
1070
   286
1070
     8
1070
   340
1005
1A4C2
1002
}
  0
ARC
  5
1A61D
330
1A4B2
100
AcDbEntity
  8
SCHRAFF
100
AcDbCircle
 10
691.9506550129206
 20
844.9701759181065
 30
0.0
 40
3.811488253428933
100
AcDbArc
 50
273.0852241088059
 51
16.91477589119083
  0
POINT
  5
1A61E
330
1A4B2
100
AcDbEntity
  8
BEM
100
AcDbPoint
 10
698.1992663558558
 20
840.6079497186169
 30
0.0
  0
POINT
  5
1A61F
330
1A4B2
100
AcDbEntity
  8
BEM
100
AcDbPoint
 10
698.1992663558558
 20
840.6079497186169
 30
0.0
  0
ARC
  5
1A620
330
1A4B2
100
AcDbEntity
  8
SCHRAFF
100
AcDbCircle
 10
679.6633743485854
 20
853.5738224633725
 30
0.0
 40
3.811488253428933
100
AcDbArc
 50
273.0852241088059
 51
16.91477589119083
  0
ARC
  5
1A621
330
1A4B2
100
AcDbEntity
  8
SCHRAFF
100
AcDbCircle
 10
683.7591345700302
 20
850.7059402816169
 30
0.0
 40
3.811488253428933
100
AcDbArc
 50
273.0852241088059
 51
16.91477589119083
  0
ARC
  5
1A622
330
1A4B2
100
AcDbEntity
  8
SCHRAFF
100
AcDbCircle
 10
675.5676141271403
 20
856.4417046451275
 30
0.0
 40
3.811488253428933
100
AcDbArc
 50
273.0852241088059
 51
16.91477589119083
  0
ARC
  5
1A623
330
1A4B2
100
AcDbEntity
  8
SCHRAFF
100
AcDbCircle
 10
671.4718539056955
 20
859.3095868268829
 30
0.0
 40
3.811488253428933
100
AcDbArc
 50
273.0852241088059
 51
16.91477589119083
  0
ARC
  5
1A624
330
1A4B2
100
AcDbEntity
  8
SCHRAFF
100
AcDbCircle
 10
659.1845732413603
 20
867.9132333721488
 30
0.0
 40
3.811488253428933
100
AcDbArc
 50
273.0852241088059
 51
16.91477589119083
  0
ARC
  5
1A625
330
1A4B2
100
AcDbEntity
  8
SCHRAFF
100
AcDbCircle
 10
663.2803334628051
 20
865.0453511903933
 30
0.0
 40
3.811488253428933
100
AcDbArc
 50
273.0852241088059
 51
16.91477589119083
  0
ARC
  5
1A626
330
1A4B2
100
AcDbEntity
  8
SCHRAFF
100
AcDbCircle
 10
650.9930527984707
 20
873.6489977356594
 30
0.0
 40
3.811488253428933
100
AcDbArc
 50
273.0852241088059
 51
16.91477589119083
  0
ARC
  5
1A627
330
1A4B2
100
AcDbEntity
  8
SCHRAFF
100
AcDbCircle
 10
655.0888130199153
 20
870.7811155539038
 30
0.0
 40
3.811488253428933
100
AcDbArc
 50
273.0852241088059
 51
16.91477589119083
  0
ARC
  5
1A628
330
1A4B2
100
AcDbEntity
  8
SCHRAFF
100
AcDbCircle
 10
667.3760936842502
 20
862.1774690086386
 30
0.0
 40
3.811488253428933
100
AcDbArc
 50
273.0852241088059
 51
16.91477589119083
  0
ARC
  5
1A629
330
1A4B2
100
AcDbEntity
  8
SCHRAFF
100
AcDbCircle
 10
687.8548947914753
 20
847.8380580998623
 30
0.0
 40
3.811488253428933
100
AcDbArc
 50
273.0852241088059
 51
16.91477589119083
  0
ARC
  5
1A62A
330
1A4B2
100
AcDbEntity
  8
SCHRAFF
100
AcDbCircle
 10
622.3227312483556
 20
893.7241730079461
 30
0.0
 40
3.811488253428933
100
AcDbArc
 50
273.0852241088059
 51
16.91477589119083
  0
ARC
  5
1A62B
330
1A4B2
100
AcDbEntity
  8
SCHRAFF
100
AcDbCircle
 10
618.2269710269106
 20
896.5920551897008
 30
0.0
 40
3.811488253428933
100
AcDbArc
 50
273.0852241088059
 51
16.91477589119083
  0
ARC
  5
1A62C
330
1A4B2
100
AcDbEntity
  8
SCHRAFF
100
AcDbCircle
 10
610.0354505840207
 20
902.3278195532114
 30
0.0
 40
3.811488253428933
100
AcDbArc
 50
273.0852241088059
 51
16.91477589119083
  0
ARC
  5
1A62D
330
1A4B2
100
AcDbEntity
  8
SCHRAFF
100
AcDbCircle
 10
614.131210805466
 20
899.4599373714565
 30
0.0
 40
3.811488253428933
100
AcDbArc
 50
273.0852241088059
 51
16.91477589119083
  0
ARC
  5
1A62E
330
1A4B2
100
AcDbEntity
  8
SCHRAFF
100
AcDbCircle
 10
597.7481699196857
 20
910.9314660984772
 30
0.0
 40
3.811488253428933
100
AcDbArc
 50
273.0852241088059
 51
16.91477589119083
  0
ARC
  5
1A62F
330
1A4B2
100
AcDbEntity
  8
SCHRAFF
100
AcDbCircle
 10
601.843930141131
 20
908.0635839167223
 30
0.0
 40
3.811488253428933
100
AcDbArc
 50
273.0852241088059
 51
16.91477589119083
  0
ARC
  5
1A630
330
1A4B2
100
AcDbEntity
  8
SCHRAFF
100
AcDbCircle
 10
593.6524096982407
 20
913.7993482802325
 30
0.0
 40
3.811488253428933
100
AcDbArc
 50
273.0852241088059
 51
16.91477589119083
  0
ARC
  5
1A631
330
1A4B2
100
AcDbEntity
  8
SCHRAFF
100
AcDbCircle
 10
589.5566494767961
 20
916.6672304619874
 30
0.0
 40
3.811488253428933
100
AcDbArc
 50
273.0852241088059
 51
16.91477589119083
  0
ARC
  5
1A632
330
1A4B2
100
AcDbEntity
  8
SCHRAFF
100
AcDbCircle
 10
577.2693688124613
 20
925.2708770072533
 30
0.0
 40
3.811488253428933
100
AcDbArc
 50
273.0852241088059
 51
16.91477589119083
  0
ARC
  5
1A633
330
1A4B2
100
AcDbEntity
  8
SCHRAFF
100
AcDbCircle
 10
581.3651290339062
 20
922.4029948254981
 30
0.0
 40
3.811488253428933
100
AcDbArc
 50
273.0852241088059
 51
16.91477589119083
  0
ARC
  5
1A634
330
1A4B2
100
AcDbEntity
  8
SCHRAFF
100
AcDbCircle
 10
573.1736085910161
 20
928.1387591890084
 30
0.0
 40
3.811488253428933
100
AcDbArc
 50
273.0852241088059
 51
16.91477589119083
  0
ARC
  5
1A635
330
1A4B2
100
AcDbEntity
  8
SCHRAFF
100
AcDbCircle
 10
585.4608892553512
 20
919.5351126437426
 30
0.0
 40
3.811488253428933
100
AcDbArc
 50
273.0852241088059
 51
16.91477589119083
  0
ARC
  5
1A636
330
1A4B2
100
AcDbEntity
  8
SCHRAFF
100
AcDbCircle
 10
605.9396903625759
 20
905.1957017349671
 30
0.0
 40
3.811488253428933
100
AcDbArc
 50
273.0852241088059
 51
16.91477589119083
  0
ARC
  5
1A637
330
1A4B2
100
AcDbEntity
  8
SCHRAFF
100
AcDbCircle
 10
642.8015323555803
 20
879.3847620991696
 30
0.0
 40
3.811488253428933
100
AcDbArc
 50
273.0852241088059
 51
16.91477589119083
  0
ARC
  5
1A638
330
1A4B2
100
AcDbEntity
  8
SCHRAFF
100
AcDbCircle
 10
638.7057721341356
 20
882.2526442809248
 30
0.0
 40
3.811488253428933
100
AcDbArc
 50
273.0852241088059
 51
16.91477589119083
  0
ARC
  5
1A639
330
1A4B2
100
AcDbEntity
  8
SCHRAFF
100
AcDbCircle
 10
634.6100119126906
 20
885.1205264626804
 30
0.0
 40
3.811488253428933
100
AcDbArc
 50
273.0852241088059
 51
16.91477589119083
  0
ARC
  5
1A63A
330
1A4B2
100
AcDbEntity
  8
SCHRAFF
100
AcDbCircle
 10
626.4184914698007
 20
890.8562908261906
 30
0.0
 40
3.811488253428933
100
AcDbArc
 50
273.0852241088059
 51
16.91477589119083
  0
ARC
  5
1A63B
330
1A4B2
100
AcDbEntity
  8
SCHRAFF
100
AcDbCircle
 10
630.5142516912458
 20
887.988408644435
 30
0.0
 40
3.811488253428933
100
AcDbArc
 50
273.0852241088059
 51
16.91477589119083
  0
ARC
  5
1A63C
330
1A4B2
100
AcDbEntity
  8
SCHRAFF
100
AcDbCircle
 10
646.8972925770254
 20
876.5168799174144
 30
0.0
 40
3.811488253428933
100
AcDbArc
 50
273.0852241088059
 51
16.91477589119083
  0
ARC
  5
1A63D
330
1A4B2
100
AcDbEntity
  8
SCHRAFF
100
AcDbCircle
 10
708.3336958987004
 20
833.4986471910859
 30
0.0
 40
3.811488253428933
100
AcDbArc
 50
273.0852241088059
 51
16.91477589119083
  0
ARC
  5
1A63E
330
1A4B2
100
AcDbEntity
  8
SCHRAFF
100
AcDbCircle
 10
696.0464152343654
 20
842.1022937363511
 30
0.0
 40
3.811488253428933
100
AcDbArc
 50
273.0852241088059
 51
16.91477589119083
  0
ARC
  5
1A63F
330
1A4B2
100
AcDbEntity
  8
SCHRAFF
100
AcDbCircle
 10
704.2379356772553
 20
836.3665293728406
 30
0.0
 40
3.811488253428933
100
AcDbArc
 50
273.0852241088059
 51
16.91477589119083
  0
ARC
  5
1A640
330
1A4B2
100
AcDbEntity
  8
SCHRAFF
100
AcDbCircle
 10
700.1421754558105
 20
839.2344115545961
 30
0.0
 40
3.811488253428933
100
AcDbArc
 50
273.0852241088059
 51
16.91477589119083
  0
POINT
  5
1A641
330
1A4B2
100
AcDbEntity
  8
BEM
100
AcDbPoint
 10
718.6780674630808
 20
826.2685388098406
 30
0.0
  0
POINT
  5
1A642
330
1A4B2
100
AcDbEntity
  8
BEM
100
AcDbPoint
 10
718.6780674630808
 20
826.2685388098406
 30
0.0
  0
ENDSEC
  0
SECTION
  2
OBJECTS
  0
DICTIONARY
  5
1A49E
330
0
100
AcDbDictionary
281
     1
  3
ACAD_COLOR
350
1A4AD
  3
ACAD_GROUP
350
1A49F
  3
ACAD_LAYOUT
350
1A4AB
  3
ACAD_MATERIAL
350
1A4AC
  3
ACAD_MLINESTYLE
350
1A4A8
  3
ACAD_PLOTSETTINGS
350
1A4AA
  3
ACAD_PLOTSTYLENAME
350
1A4A0
  3
AcDbVariableDictionary
350
1A560
  0
DICTIONARY
  5
1A607
330
1A5F9
100
AcDbDictionary
280
     1
281
     1
  3
ACAD_DIMASSOC
360
1A612
  0
DICTIONARY
  5
1A4AD
102
{ACAD_REACTORS
330
1A49E
102
}
330
1A49E
100
AcDbDictionary
281
     1
  0
DICTIONARY
  5
1A49F
102
{ACAD_REACTORS
330
1A49E
102
}
330
1A49E
100
AcDbDictionary
281
     1
  0
DICTIONARY
  5
1A4AB
102
{ACAD_REACTORS
330
1A49E
102
}
330
1A49E
100
AcDbDictionary
281
     1
  3
Layout1
350
1A4B1
  3
Model
350
1A4B5
  0
DICTIONARY
  5
1A4AC
102
{ACAD_REACTORS
330
1A49E
102
}
330
1A49E
100
AcDbDictionary
281
     1
  0
DICTIONARY
  5
1A4A8
102
{ACAD_REACTORS
330
1A49E
102
}
330
1A49E
100
AcDbDictionary
281
     1
  3
Standard
350
1A4A9
  0
DICTIONARY
  5
1A4AA
102
{ACAD_REACTORS
330
1A49E
102
}
330
1A49E
100
AcDbDictionary
281
     1
  0
ACDBDICTIONARYWDFLT
  5
1A4A0
102
{ACAD_REACTORS
330
1A49E
102
}
330
1A49E
100
AcDbDictionary
281
     1
  3
Normal
350
1A4A1
100
AcDbDictionaryWithDefault
340
1A4A1
  0
DICTIONARY
  5
1A560
102
{ACAD_REACTORS
330
1A49E
102
}
330
1A49E
100
AcDbDictionary
281
     1
  3
DIMASSOC
350
1A562
  3
HIDETEXT
350
1A561
  3
PROJECTNAME
350
1A563
  0
DIMASSOC
  5
1A612
102
{ACAD_REACTORS
330
1A607
102
}
330
1A607
100
AcDbDimAssoc
330
1A5F9
 90
       15
 70
     0
 71
     0
  1
AcDbOsnapPointRef
 72
    13
331
1A473
 73
     2
 91
        0
 40
0.0
 10
0.0
 20
0.0
 30
2.000000000000000E+50
 75
     0
  1
AcDbOsnapPointRef
 72
     1
331
1A473
 73
     2
 91
        0
 40
1.0
 10
0.0
 20
0.0
 30
2.000000000000000E+50
 75
     0
  1
AcDbOsnapPointRef
 72
    13
331
1A458
 73
     2
 91
        0
 40
0.0
 10
0.0
 20
0.0
 30
2.000000000000000E+50
 75
     0
  1
AcDbOsnapPointRef
 72
     1
331
1A458
 73
     2
 91
        0
 40
1.0
 10
0.0
 20
0.0
 30
2.000000000000000E+50
 75
     0
  0
LAYOUT
  5
1A4B1
102
{ACAD_REACTORS
330
1A4AB
102
}
330
1A4AB
100
AcDbPlotSettings
  1

  2
RICOH Aficio 2027 PCL 6
  4

  6

 40
0.0
 41
0.0
 42
0.0
 43
0.0
 44
0.0
 45
0.0
 46
0.0
 47
0.0
 48
0.0
 49
0.0
140
0.0
141
0.0
142
1.0
143
1.0
 70
   688
 72
     0
 73
     0
 74
     5
  7
monochrome1.ctb
 75
    16
147
1.0
 76
     0
 77
     2
 78
   300
148
0.0
149
0.0
100
AcDbLayout
  1
Layout1
 70
     0
 71
     1
 10
0.0
 20
0.0
 11
12.0
 21
9.0
 12
611.8007560200033
 22
50.00000000000001
 32
-2.58105543498411
 14
1.000000000000000E+20
 24
1.000000000000000E+20
 34
1.000000000000000E+20
 15
-1.000000000000000E+20
 25
-1.000000000000000E+20
 35
-1.000000000000000E+20
146
0.0
 13
0.0
 23
0.0
 33
0.0
 16
1.0
 26
0.0
 36
0.0
 17
0.0
 27
1.0
 37
0.0
 76
     0
330
1A4AE
  0
LAYOUT
  5
1A4B5
102
{ACAD_REACTORS
330
1A4AB
102
}
330
1A4AB
100
AcDbPlotSettings
  1

  2
RICOH Aficio 2027 PCL 6
  4
A4
  6

 40
5.027083396911621
 41
5.027085304260253
 42
5.027084350585937
 43
5.027069091796875
 44
209.9733276367187
 45
296.9259948730469
 46
0.0
 47
0.0
 48
0.0
 49
0.0
140
0.0
141
0.0
142
1.0
143
1.0
 70
 11952
 72
     0
 73
     1
 74
     0
  7
monochrome1.ctb
 75
     0
147
1.0
 76
     0
 77
     2
 78
   300
148
5756.851871210684
149
232.3518454851996
100
AcDbLayout
  1
Model
 70
     1
 71
     0
 10
0.0
 20
0.0
 11
12.0
 21
9.0
 12
0.0
 22
0.0
 32
0.0
 14
0.0
 24
0.0
 34
0.0
 15
0.0
 25
0.0
 35
0.0
146
0.0
 13
0.0
 23
0.0
 33
0.0
 16
1.0
 26
0.0
 36
0.0
 17
0.0
 27
1.0
 37
0.0
 76
     0
330
1A4B2
  0
MLINESTYLE
  5
1A4A9
102
{ACAD_REACTORS
330
1A4A8
102
}
330
1A4A8
100
AcDbMlineStyle
  2
STANDARD
 70
     0
  3

 62
   256
 51
90.0
 52
90.0
 71
     2
 49
0.5
 62
   256
  6
BYLAYER
 49
-0.5
 62
   256
  6
BYLAYER
  0
ACDBPLACEHOLDER
  5
1A4A1
102
{ACAD_REACTORS
330
1A4A0
102
}
330
1A4A0
  0
DICTIONARYVAR
  5
1A562
102
{ACAD_REACTORS
330
1A560
102
}
330
1A560
100
DictionaryVariables
280
     0
  1
2
  0
DICTIONARYVAR
  5
1A561
102
{ACAD_REACTORS
330
1A560
102
}
330
1A560
100
DictionaryVariables
280
     0
  1
1
  0
DICTIONARYVAR
  5
1A563
102
{ACAD_REACTORS
330
1A560
102
}
330
1A560
100
DictionaryVariables
280
     0
  1

  0
ENDSEC
  0
EOF
