  0
SECTION
  2
HEADER
  9
$ACADVER
  1
AC1018
  9
$ACADMAINTVER
 70
     2
  9
$DWGCODEPAGE
  3
ANSI_1252
  9
$INSBASE
 10
0.0
 20
0.0
 30
0.0
  9
$EXTMIN
 10
-0.032025120463004
 20
-0.0452926703683261
 30
-0.0000000000000053
  9
$EXTMAX
 10
1050.032053236514
 20
1485.0453324345
 30
0.0000000000000099
  9
$LIMMIN
 10
0.0
 20
0.0
  9
$LIMMAX
 10
1050.0
 20
1485.0
  9
$ORTHOMODE
 70
     0
  9
$REGENMODE
 70
     1
  9
$FILLMODE
 70
     1
  9
$QTEXTMODE
 70
     0
  9
$MIRRTEXT
 70
     1
  9
$LTSCALE
 40
50.0
  9
$ATTMODE
 70
     1
  9
$TEXTSIZE
 40
2.5
  9
$TRACEWID
 40
0.5
  9
$TEXTSTYLE
  7
GREEKS
  9
$CLAYER
  8
BEM
  9
$CELTYPE
  6
ByLayer
  9
$CECOLOR
 62
   256
  9
$CELTSCALE
 40
1.0
  9
$DISPSILH
 70
     0
  9
$DIMSCALE
 40
5.0
  9
$DIMASZ
 40
3.5
  9
$DIMEXO
 40
1.0
  9
$DIMDLI
 40
7.0
  9
$DIMRND
 40
0.0
  9
$DIMDLE
 40
0.0
  9
$DIMEXE
 40
1.0
  9
$DIMTP
 40
2.399999999999999
  9
$DIMTM
 40
2.399999999999999
  9
$DIMTXT
 40
3.5
  9
$DIMCEN
 40
1.5
  9
$DIMTSZ
 40
0.0
  9
$DIMTOL
 70
     0
  9
$DIMLIM
 70
     0
  9
$DIMTIH
 70
     0
  9
$DIMTOH
 70
     0
  9
$DIMSE1
 70
     0
  9
$DIMSE2
 70
     0
  9
$DIMTAD
 70
     1
  9
$DIMZIN
 70
     8
  9
$DIMBLK
  1

  9
$DIMASO
 70
     1
  9
$DIMSHO
 70
     0
  9
$DIMPOST
  1

  9
$DIMAPOST
  1

  9
$DIMALT
 70
     0
  9
$DIMALTD
 70
     2
  9
$DIMALTF
 40
25.4
  9
$DIMLFAC
 40
1.0
  9
$DIMTOFL
 70
     1
  9
$DIMTVP
 40
0.0
  9
$DIMTIX
 70
     0
  9
$DIMSOXD
 70
     0
  9
$DIMSAH
 70
     0
  9
$DIMBLK1
  1

  9
$DIMBLK2
  1

  9
$DIMSTYLE
  2
STANDARD
  9
$DIMCLRD
 70
     0
  9
$DIMCLRE
 70
     0
  9
$DIMCLRT
 70
     1
  9
$DIMTFAC
 40
0.5
  9
$DIMGAP
 40
1.5
  9
$DIMJUST
 70
     0
  9
$DIMSD1
 70
     0
  9
$DIMSD2
 70
     0
  9
$DIMTOLJ
 70
     1
  9
$DIMTZIN
 70
     8
  9
$DIMALTZ
 70
     8
  9
$DIMALTTZ
 70
     8
  9
$DIMUPT
 70
     0
  9
$DIMDEC
 70
     2
  9
$DIMTDEC
 70
     2
  9
$DIMALTU
 70
     2
  9
$DIMALTTD
 70
     2
  9
$DIMTXSTY
  7
GREEKS
  9
$DIMAUNIT
 70
     0
  9
$DIMADEC
 70
     2
  9
$DIMALTRND
 40
0.0
  9
$DIMAZIN
 70
     2
  9
$DIMDSEP
 70
    46
  9
$DIMATFIT
 70
     3
  9
$DIMFRAC
 70
     0
  9
$DIMLDRBLK
  1

  9
$DIMLUNIT
 70
     2
  9
$DIMLWD
 70
    -2
  9
$DIMLWE
 70
    -2
  9
$DIMTMOVE
 70
     0
  9
$LUNITS
 70
     2
  9
$LUPREC
 70
     2
  9
$SKETCHINC
 40
1.0
  9
$FILLETRAD
 40
0.0
  9
$AUNITS
 70
     0
  9
$AUPREC
 70
     0
  9
$MENU
  1
ACAD
  9
$ELEVATION
 40
0.0
  9
$PELEVATION
 40
0.0
  9
$THICKNESS
 40
0.0
  9
$LIMCHECK
 70
     0
  9
$CHAMFERA
 40
0.0
  9
$CHAMFERB
 40
0.0
  9
$CHAMFERC
 40
0.0
  9
$CHAMFERD
 40
0.0
  9
$SKPOLY
 70
     0
  9
$TDCREATE
 40
2452283.549705556
  9
$TDUCREATE
 40
2452283.466372222
  9
$TDUPDATE
 40
2455658.308197929
  9
$TDUUPDATE
 40
2455658.224864595
  9
$TDINDWG
 40
0.0724097454
  9
$TDUSRTIMER
 40
0.0724097454
  9
$USRTIMER
 70
     1
  9
$ANGBASE
 50
0.0
  9
$ANGDIR
 70
     0
  9
$PDMODE
 70
     0
  9
$PDSIZE
 40
0.0
  9
$PLINEWID
 40
0.0
  9
$SPLFRAME
 70
     0
  9
$SPLINETYPE
 70
     6
  9
$SPLINESEGS
 70
     8
  9
$HANDSEED
  5
AD4C
  9
$SURFTAB1
 70
     6
  9
$SURFTAB2
 70
     6
  9
$SURFTYPE
 70
     6
  9
$SURFU
 70
     6
  9
$SURFV
 70
     6
  9
$UCSBASE
  2

  9
$UCSNAME
  2

  9
$UCSORG
 10
0.0
 20
0.0
 30
0.0
  9
$UCSXDIR
 10
1.0
 20
0.0
 30
0.0
  9
$UCSYDIR
 10
0.0
 20
1.0
 30
0.0
  9
$UCSORTHOREF
  2

  9
$UCSORTHOVIEW
 70
     0
  9
$UCSORGTOP
 10
0.0
 20
0.0
 30
0.0
  9
$UCSORGBOTTOM
 10
0.0
 20
0.0
 30
0.0
  9
$UCSORGLEFT
 10
0.0
 20
0.0
 30
0.0
  9
$UCSORGRIGHT
 10
0.0
 20
0.0
 30
0.0
  9
$UCSORGFRONT
 10
0.0
 20
0.0
 30
0.0
  9
$UCSORGBACK
 10
0.0
 20
0.0
 30
0.0
  9
$PUCSBASE
  2

  9
$PUCSNAME
  2

  9
$PUCSORG
 10
0.0
 20
0.0
 30
0.0
  9
$PUCSXDIR
 10
1.0
 20
0.0
 30
0.0
  9
$PUCSYDIR
 10
0.0
 20
1.0
 30
0.0
  9
$PUCSORTHOREF
  2

  9
$PUCSORTHOVIEW
 70
     0
  9
$PUCSORGTOP
 10
0.0
 20
0.0
 30
0.0
  9
$PUCSORGBOTTOM
 10
0.0
 20
0.0
 30
0.0
  9
$PUCSORGLEFT
 10
0.0
 20
0.0
 30
0.0
  9
$PUCSORGRIGHT
 10
0.0
 20
0.0
 30
0.0
  9
$PUCSORGFRONT
 10
0.0
 20
0.0
 30
0.0
  9
$PUCSORGBACK
 10
0.0
 20
0.0
 30
0.0
  9
$USERI1
 70
     0
  9
$USERI2
 70
     0
  9
$USERI3
 70
     0
  9
$USERI4
 70
     0
  9
$USERI5
 70
     0
  9
$USERR1
 40
0.0
  9
$USERR2
 40
0.0
  9
$USERR3
 40
0.0
  9
$USERR4
 40
0.0
  9
$USERR5
 40
0.0
  9
$WORLDVIEW
 70
     1
  9
$SHADEDGE
 70
     3
  9
$SHADEDIF
 70
    70
  9
$TILEMODE
 70
     1
  9
$MAXACTVP
 70
    16
  9
$PINSBASE
 10
0.0
 20
0.0
 30
0.0
  9
$PLIMCHECK
 70
     0
  9
$PEXTMIN
 10
1.000000000000000E+20
 20
1.000000000000000E+20
 30
1.000000000000000E+20
  9
$PEXTMAX
 10
-1.000000000000000E+20
 20
-1.000000000000000E+20
 30
-1.000000000000000E+20
  9
$PLIMMIN
 10
0.0
 20
0.0
  9
$PLIMMAX
 10
12.0
 20
9.0
  9
$UNITMODE
 70
     0
  9
$VISRETAIN
 70
     0
  9
$PLINEGEN
 70
     0
  9
$PSLTSCALE
 70
     0
  9
$TREEDEPTH
 70
  3020
  9
$CMLSTYLE
  2
Standard
  9
$CMLJUST
 70
     0
  9
$CMLSCALE
 40
1.0
  9
$PROXYGRAPHICS
 70
     1
  9
$MEASUREMENT
 70
     0
  9
$CELWEIGHT
370
    -1
  9
$ENDCAPS
280
     0
  9
$JOINSTYLE
280
     0
  9
$LWDISPLAY
290
     0
  9
$INSUNITS
 70
     0
  9
$HYPERLINKBASE
  1

  9
$STYLESHEET
  1
monochrome 1.ctb
  9
$XEDIT
290
     1
  9
$CEPSNTYPE
380
     0
  9
$PSTYLEMODE
290
     1
  9
$FINGERPRINTGUID
  2
{535C8868-CEF9-4A98-9807-D00982E0575D}
  9
$VERSIONGUID
  2
{FB8952EF-173E-46A2-9A4B-A9D7F68D7F6A}
  9
$EXTNAMES
290
     1
  9
$PSVPSCALE
 40
0.0
  9
$OLESTARTUP
290
     0
  9
$SORTENTS
280
   127
  9
$INDEXCTL
280
     0
  9
$HIDETEXT
280
     1
  9
$XCLIPFRAME
290
     0
  9
$HALOGAP
280
     0
  9
$OBSCOLOR
 70
   257
  9
$OBSLTYPE
280
     0
  9
$INTERSECTIONDISPLAY
280
     0
  9
$INTERSECTIONCOLOR
 70
   257
  9
$DIMASSOC
280
     2
  9
$PROJECTNAME
  1

  0
ENDSEC
  0
SECTION
  2
CLASSES
  0
CLASS
  1
ACDBDICTIONARYWDFLT
  2
AcDbDictionaryWithDefault
  3
ObjectDBX Classes
 90
        0
 91
        1
280
     0
281
     0
  0
CLASS
  1
DICTIONARYVAR
  2
AcDbDictionaryVar
  3
ObjectDBX Classes
 90
        0
 91
        3
280
     0
281
     0
  0
CLASS
  1
DIMASSOC
  2
AcDbDimAssoc
  3
"AcDbDimAssoc|Product Desc:     AcDim ARX App For Dimension|Company:          Autodesk, Inc.|WEB Address:      www.autodesk.com"
 90
        0
 91
        4
280
     0
281
     0
  0
ENDSEC
  0
SECTION
  2
TABLES
  0
TABLE
  2
VPORT
  5
AA37
330
0
100
AcDbSymbolTable
 70
     4
  0
VPORT
  5
AD4B
330
AA37
100
AcDbSymbolTableRecord
100
AcDbViewportTableRecord
  2
*Active
 70
     0
 10
0.0
 20
0.0
 11
1.0
 21
1.0
 12
524.9999999999998
 22
742.4999999999999
 13
0.0
 23
0.0
 14
1.0
 24
1.0
 15
10.0
 25
10.0
 16
0.0
 26
0.0
 36
1.0
 17
0.0
 27
0.0
 37
0.0
 40
1485.0
 41
1.334231805929919
 42
50.0
 43
0.0
 44
0.0
 50
0.0
 51
0.0
 71
     0
 72
  1500
 73
     1
 74
     0
 75
     0
 76
     0
 77
     0
 78
     0
281
     0
 65
     1
110
0.0
120
0.0
130
0.0
111
1.0
121
0.0
131
0.0
112
0.0
122
1.0
132
0.0
 79
     0
146
0.0
  0
ENDTAB
  0
TABLE
  2
LTYPE
  5
AA34
330
0
100
AcDbSymbolTable
 70
     3
  0
LTYPE
  5
AA42
330
AA34
100
AcDbSymbolTableRecord
100
AcDbLinetypeTableRecord
  2
ByBlock
 70
     0
  3

 72
    65
 73
     0
 40
0.0
  0
LTYPE
  5
AA43
330
AA34
100
AcDbSymbolTableRecord
100
AcDbLinetypeTableRecord
  2
ByLayer
 70
     0
  3

 72
    65
 73
     0
 40
0.0
  0
LTYPE
  5
AA44
330
AA34
100
AcDbSymbolTableRecord
100
AcDbLinetypeTableRecord
  2
AUSGEZOGEN
 70
     0
  3
Ausgezogene Linie
 72
    65
 73
     0
 40
0.0
  0
LTYPE
  5
AA65
330
AA34
100
AcDbSymbolTableRecord
100
AcDbLinetypeTableRecord
  2
STRICHPUNKT
 70
     0
  3
__ . __ . __ . __ . __ . __ . __ . __ . __ . __
 72
    65
 73
     4
 40
1.0
 49
0.5
 74
     0
 49
-0.25
 74
     0
 49
0.0
 74
     0
 49
-0.25
 74
     0
  0
LTYPE
  5
AA68
330
AA34
100
AcDbSymbolTableRecord
100
AcDbLinetypeTableRecord
  2
CONTINUOUS
 70
     0
  3
Solid line
 72
    65
 73
     0
 40
0.0
  0
ENDTAB
  0
TABLE
  2
LAYER
  5
AA31
330
0
100
AcDbSymbolTable
 70
     9
  0
LAYER
  5
AA3F
330
AA31
100
AcDbSymbolTableRecord
100
AcDbLayerTableRecord
  2
0
 70
     0
 62
     7
  6
AUSGEZOGEN
370
    -3
390
AA3E
  0
LAYER
  5
AA6C
330
AA31
100
AcDbSymbolTableRecord
100
AcDbLayerTableRecord
  2
VOLL
 70
     0
 62
     1
  6
AUSGEZOGEN
370
    -3
390
AA3E
  0
LAYER
  5
AA6D
330
AA31
100
AcDbSymbolTableRecord
100
AcDbLayerTableRecord
  2
HILF
 70
     0
 62
     2
  6
AUSGEZOGEN
370
    -3
390
AA3E
  0
LAYER
  5
AA6E
330
AA31
100
AcDbSymbolTableRecord
100
AcDbLayerTableRecord
  2
MITTEL
 70
     0
 62
     2
  6
STRICHPUNKT
370
    -3
390
AA3E
  0
LAYER
  5
AA71
330
AA31
100
AcDbSymbolTableRecord
100
AcDbLayerTableRecord
  2
BEM
 70
     0
 62
     7
  6
AUSGEZOGEN
370
    -3
390
AA3E
  0
LAYER
  5
AA72
330
AA31
100
AcDbSymbolTableRecord
100
AcDbLayerTableRecord
  2
STEMPEL
 70
     0
 62
     3
  6
AUSGEZOGEN
370
    -3
390
AA3E
  0
LAYER
  5
AA73
330
AA31
100
AcDbSymbolTableRecord
100
AcDbLayerTableRecord
  2
TEXT
 70
     0
 62
     7
  6
AUSGEZOGEN
370
    -3
390
AA3E
  0
LAYER
  5
AA74
330
AA31
100
AcDbSymbolTableRecord
100
AcDbLayerTableRecord
  2
DEFPOINTS
 70
     0
 62
     7
  6
AUSGEZOGEN
290
     0
370
    -3
390
AA3E
  0
LAYER
  5
AA75
330
AA31
100
AcDbSymbolTableRecord
100
AcDbLayerTableRecord
  2
SCHRAFF
 70
     0
 62
     7
  6
AUSGEZOGEN
370
    -3
390
AA3E
  0
ENDTAB
  0
TABLE
  2
STYLE
  5
AA32
330
0
100
AcDbSymbolTable
 70
     2
  0
STYLE
  5
AA40
330
AA32
100
AcDbSymbolTableRecord
100
AcDbTextStyleTableRecord
  2
STANDARD
 70
     0
 40
0.0
 41
1.0
 50
0.0
 71
     0
 42
3.5
  3
txt
  4

  0
STYLE
  5
AA64
330
AA32
100
AcDbSymbolTableRecord
100
AcDbTextStyleTableRecord
  2
GREEKS
 70
     0
 40
0.0
 41
0.8
 50
0.0
 71
     0
 42
2.5
  3
SIMPLEX.shx
  4

  0
ENDTAB
  0
TABLE
  2
VIEW
  5
AA35
330
0
100
AcDbSymbolTable
 70
     0
  0
ENDTAB
  0
TABLE
  2
UCS
  5
AA36
330
0
100
AcDbSymbolTable
 70
     0
  0
ENDTAB
  0
TABLE
  2
APPID
  5
AA38
330
0
100
AcDbSymbolTable
 70
     1
  0
APPID
  5
AA41
330
AA38
100
AcDbSymbolTableRecord
100
AcDbRegAppTableRecord
  2
ACAD
 70
     0
  0
ENDTAB
  0
TABLE
  2
DIMSTYLE
  5
AA39
330
0
100
AcDbSymbolTable
 70
     1
100
AcDbDimStyleTable
 71
     1
340
AA6B
  0
DIMSTYLE
105
AA6B
102
{ACAD_REACTORS
330
36A
330
AA16
330
AC7A
330
AC92
330
ACC5
102
}
330
AA39
100
AcDbSymbolTableRecord
100
AcDbDimStyleTableRecord
  2
STANDARD
 70
     0
 40
5.0
 41
3.5
 42
1.0
 43
7.0
 44
1.0
 47
4.0
 48
4.0
 73
     0
 74
     0
 77
     1
 78
     8
140
3.5
141
1.5
146
0.5142857142857144
147
1.5
172
     1
178
     1
271
     2
272
     2
279
     2
284
     8
285
     8
286
     8
340
AA40
  0
ENDTAB
  0
TABLE
  2
BLOCK_RECORD
  5
AA30
330
0
100
AcDbSymbolTable
 70
    22
  0
BLOCK_RECORD
  5
AA4F
330
AA30
100
AcDbSymbolTableRecord
100
AcDbBlockTableRecord
  2
*Model_Space
340
AA52
  0
BLOCK_RECORD
  5
AA4B
330
AA30
100
AcDbSymbolTableRecord
100
AcDbBlockTableRecord
  2
*Paper_Space
340
AA4E
  0
BLOCK_RECORD
  5
AA53
330
AA30
100
AcDbSymbolTableRecord
100
AcDbBlockTableRecord
  2
LOGO
340
0
102
{BLKREFS
331
1E6
102
}
  0
BLOCK_RECORD
  5
AA55
330
AA30
100
AcDbSymbolTableRecord
100
AcDbBlockTableRecord
  2
*X1
340
0
102
{BLKREFS
331
3EB
102
}
  0
BLOCK_RECORD
  5
AA56
330
AA30
100
AcDbSymbolTableRecord
100
AcDbBlockTableRecord
  2
*X2
340
0
102
{BLKREFS
331
3E6
102
}
  0
BLOCK_RECORD
  5
AA57
330
AA30
100
AcDbSymbolTableRecord
100
AcDbBlockTableRecord
  2
*X3
340
0
102
{BLKREFS
331
1590
102
}
  0
BLOCK_RECORD
  5
AA58
330
AA30
100
AcDbSymbolTableRecord
100
AcDbBlockTableRecord
  2
*X4
340
0
102
{BLKREFS
331
15BA
102
}
  0
BLOCK_RECORD
  5
ABBF
330
AA30
100
AcDbSymbolTableRecord
100
AcDbBlockTableRecord
  2
*D17
340
0
  0
BLOCK_RECORD
  5
AC6E
330
AA30
100
AcDbSymbolTableRecord
100
AcDbBlockTableRecord
  2
*D18
340
0
  0
BLOCK_RECORD
  5
AC7B
330
AA30
100
AcDbSymbolTableRecord
100
AcDbBlockTableRecord
  2
*D19
340
0
  0
BLOCK_RECORD
  5
AC93
330
AA30
100
AcDbSymbolTableRecord
100
AcDbBlockTableRecord
  2
*D20
340
0
  0
BLOCK_RECORD
  5
ACC6
330
AA30
100
AcDbSymbolTableRecord
100
AcDbBlockTableRecord
  2
*D21
340
0
  0
ENDTAB
  0
ENDSEC
  0
SECTION
  2
BLOCKS
  0
BLOCK
  5
AA78
330
AA4F
100
AcDbEntity
  8
0
100
AcDbBlockBegin
  2
*Model_Space
 70
     0
 10
0.0
 20
0.0
 30
0.0
  3
*Model_Space
  1

  0
ENDBLK
  5
AA79
330
AA4F
100
AcDbEntity
  8
0
100
AcDbBlockEnd
  0
BLOCK
  5
AA76
330
AA4B
100
AcDbEntity
 67
     1
  8
0
100
AcDbBlockBegin
  2
*Paper_Space
 70
     0
 10
0.0
 20
0.0
 30
0.0
  3
*Paper_Space
  1

  0
ENDBLK
  5
AA77
330
AA4B
100
AcDbEntity
 67
     1
  8
0
100
AcDbBlockEnd
  0
BLOCK
  5
44
330
AA53
100
AcDbEntity
  8
0
100
AcDbBlockBegin
  2
LOGO
 70
     0
 10
0.0
 20
0.0
 30
0.0
  3
LOGO
  1

  0
ARC
  5
45
330
AA53
100
AcDbEntity
  8
0
100
AcDbCircle
 10
11.59973089678112
 20
-9.271599258481501
 30
0.0
 40
4.5
100
AcDbArc
 50
270.0
 51
231.0575587310159
  0
LINE
  5
46
330
AA53
100
AcDbEntity
  8
0
100
AcDbLine
 10
3.599730896781125
 20
-4.771599258481529
 30
0.0
 11
3.599730896781153
 21
-11.77159925848133
 31
0.0
  0
LINE
  5
47
330
AA53
100
AcDbEntity
  8
0
100
AcDbLine
 10
2.599730896781125
 20
-4.771599258481529
 30
0.0
 11
2.599730896781153
 21
-11.77159925848133
 31
0.0
  0
CIRCLE
  5
48
330
AA53
100
AcDbEntity
  8
0
100
AcDbCircle
 10
11.59973089678112
 20
-9.271599258481501
 30
0.0
 40
3.5
  0
ARC
  5
49
330
AA53
100
AcDbEntity
  8
0
100
AcDbCircle
 10
31.59973089678115
 20
-9.271599258481472
 30
0.0
 40
4.5
100
AcDbArc
 50
270.0
 51
231.0575587310182
  0
LINE
  5
4A
330
AA53
100
AcDbEntity
  8
0
100
AcDbLine
 10
17.59973089678112
 20
-4.771599258481472
 30
0.0
 11
17.59973089678115
 21
-13.77159925848147
 31
0.0
  0
ARC
  5
4B
330
AA53
100
AcDbEntity
  8
0
100
AcDbCircle
 10
22.59973089678116
 20
-7.271599258481472
 30
0.0
 40
2.5
100
AcDbArc
 50
293.1161887722295
 51
90.0
  0
CIRCLE
  5
4C
330
AA53
100
AcDbEntity
  8
0
100
AcDbCircle
 10
31.59973089678115
 20
-9.271599258481472
 30
0.0
 40
3.5
  0
ARC
  5
4D
330
AA53
100
AcDbEntity
  8
0
100
AcDbCircle
 10
4.599730896781153
 20
-11.77159925848133
 30
0.0
 40
1.0
100
AcDbArc
 50
180.0
 51
270.0
  0
ARC
  5
4E
330
AA53
100
AcDbEntity
  8
0
100
AcDbCircle
 10
4.599730896781153
 20
-11.77159925848133
 30
0.0
 40
2.0
100
AcDbArc
 50
179.9999999999992
 51
270.0
  0
LINE
  5
4F
330
AA53
100
AcDbEntity
  8
0
100
AcDbLine
 10
11.59973089678115
 20
-13.77159925848144
 30
0.0
 11
4.599730896781153
 21
-13.77159925848147
 31
0.0
  0
LINE
  5
50
330
AA53
100
AcDbEntity
  8
0
100
AcDbLine
 10
8.771303772034769
 20
-12.77159925848136
 30
0.0
 11
4.599730896781153
 21
-12.77159925848133
 31
0.0
  0
LINE
  5
51
330
AA53
100
AcDbEntity
  8
0
100
AcDbLine
 10
31.59973089678115
 20
-13.77159925848147
 30
0.0
 11
23.6715276665056
 21
-13.77159925848144
 31
0.0
  0
LINE
  5
52
330
AA53
100
AcDbEntity
  8
0
100
AcDbLine
 10
23.56565672307022
 20
-9.51278021337896
 30
0.0
 11
24.4388546544846
 21
-12.77159925848144
 31
0.0
  0
LINE
  5
53
330
AA53
100
AcDbEntity
  8
0
100
AcDbLine
 10
22.59973089678116
 20
-9.771599258481472
 30
0.0
 11
18.59973089678112
 21
-9.771599258481472
 31
0.0
  0
LINE
  5
54
330
AA53
100
AcDbEntity
  8
0
100
AcDbLine
 10
18.59973089678115
 20
-13.77159925848144
 30
0.0
 11
17.59973089678115
 21
-13.77159925848144
 31
0.0
  0
LINE
  5
55
330
AA53
100
AcDbEntity
  8
0
100
AcDbLine
 10
18.59973089678115
 20
-9.771599258481472
 30
0.0
 11
18.59973089678115
 21
-13.77159925848144
 31
0.0
  0
LINE
  5
56
330
AA53
100
AcDbEntity
  8
0
100
AcDbLine
 10
22.59973089678116
 20
-9.771599258481472
 30
0.0
 11
23.67152766650562
 21
-13.77159925848147
 31
0.0
  0
ARC
  5
57
330
AA53
100
AcDbEntity
  8
0
100
AcDbCircle
 10
22.59973089678116
 20
-7.271599258481472
 30
0.0
 40
2.5
100
AcDbArc
 50
270.0
 51
270.0000000000007
  0
LINE
  5
58
330
AA53
100
AcDbEntity
  8
0
100
AcDbLine
 10
28.77130377203494
 20
-12.77159925848147
 30
0.0
 11
24.43885465448463
 21
-12.77159925848144
 31
0.0
  0
LINE
  5
59
330
AA53
100
AcDbEntity
  8
0
100
AcDbLine
 10
3.599730896781125
 20
-4.771599258481472
 30
0.0
 11
2.599730896781125
 21
-4.771599258481472
 31
0.0
  0
LINE
  5
5A
330
AA53
100
AcDbEntity
  8
0
100
AcDbLine
 10
22.59973089678116
 20
-8.771599258481472
 30
0.0
 11
18.59973089678115
 21
-8.771599258481472
 31
0.0
  0
LINE
  5
5B
330
AA53
100
AcDbEntity
  8
0
100
AcDbLine
 10
22.59973089678116
 20
-5.771599258481472
 30
0.0
 11
18.59973089678115
 21
-5.771599258481472
 31
0.0
  0
LINE
  5
5C
330
AA53
100
AcDbEntity
  8
0
100
AcDbLine
 10
22.59973089678116
 20
-4.771599258481472
 30
0.0
 11
17.59973089678115
 21
-4.771599258481472
 31
0.0
  0
LINE
  5
5D
330
AA53
100
AcDbEntity
  8
0
100
AcDbLine
 10
18.59973089678115
 20
-5.771599258481472
 30
0.0
 11
18.59973089678115
 21
-8.771599258481472
 31
0.0
  0
ARC
  5
5E
330
AA53
100
AcDbEntity
  8
0
100
AcDbCircle
 10
22.59973089678116
 20
-7.271599258481472
 30
0.0
 40
1.5
100
AcDbArc
 50
270.0
 51
90.0
  0
ENDBLK
  5
5F
330
AA53
100
AcDbEntity
  8
0
100
AcDbBlockEnd
  0
BLOCK
  5
135A
330
AA55
100
AcDbEntity
  8
0
100
AcDbBlockBegin
  2
*X1
 70
     1
 10
0.0
 20
0.0
 30
0.0
  3
*X1
  1

  0
LINE
  5
1338
330
AA55
100
AcDbEntity
  8
BEM
 62
     0
100
AcDbLine
 10
578.892001738507
 20
1106.60518229897
 30
0.0
 11
578.9222472972812
 21
1106.60518229897
 31
0.0
  0
LINE
  5
1339
330
AA55
100
AcDbEntity
  8
BEM
 62
     0
100
AcDbLine
 10
578.8417953594413
 20
1106.73018229897
 30
0.0
 11
579.0472472972813
 21
1106.73018229897
 31
0.0
  0
LINE
  5
133A
330
AA55
100
AcDbEntity
  8
BEM
 62
     0
100
AcDbLine
 10
578.7979437783787
 20
1106.85518229897
 30
0.0
 11
579.1722472972812
 21
1106.85518229897
 31
0.0
  0
LINE
  5
133B
330
AA55
100
AcDbEntity
  8
BEM
 62
     0
100
AcDbLine
 10
578.7601577100282
 20
1106.98018229897
 30
0.0
 11
579.2972472972812
 21
1106.98018229897
 31
0.0
  0
LINE
  5
133C
330
AA55
100
AcDbEntity
  8
BEM
 62
     0
100
AcDbLine
 10
578.7282018345336
 20
1107.10518229897
 30
0.0
 11
579.4222472972812
 21
1107.10518229897
 31
0.0
  0
LINE
  5
133D
330
AA55
100
AcDbEntity
  8
BEM
 62
     0
100
AcDbLine
 10
578.7018865704844
 20
1107.23018229897
 30
0.0
 11
579.5472472972813
 21
1107.23018229897
 31
0.0
  0
LINE
  5
133E
330
AA55
100
AcDbEntity
  8
BEM
 62
     0
100
AcDbLine
 10
578.6810619368666
 20
1107.35518229897
 30
0.0
 11
579.6722472972813
 21
1107.35518229897
 31
0.0
  0
LINE
  5
133F
330
AA55
100
AcDbEntity
  8
BEM
 62
     0
100
AcDbLine
 10
578.6656130004822
 20
1107.48018229897
 30
0.0
 11
579.7972472972814
 21
1107.48018229897
 31
0.0
  0
LINE
  5
1340
330
AA55
100
AcDbEntity
  8
BEM
 62
     0
100
AcDbLine
 10
578.6554565654962
 20
1107.60518229897
 30
0.0
 11
579.9222472972814
 21
1107.60518229897
 31
0.0
  0
LINE
  5
1341
330
AA55
100
AcDbEntity
  8
BEM
 62
     0
100
AcDbLine
 10
578.650538872342
 20
1107.73018229897
 30
0.0
 11
580.0472472972813
 21
1107.73018229897
 31
0.0
  0
LINE
  5
1342
330
AA55
100
AcDbEntity
  8
BEM
 62
     0
100
AcDbLine
 10
578.6508341529057
 20
1107.85518229897
 30
0.0
 11
580.1722472972813
 21
1107.85518229897
 31
0.0
  0
LINE
  5
1343
330
AA55
100
AcDbEntity
  8
BEM
 62
     0
100
AcDbLine
 10
578.6563439496375
 20
1107.98018229897
 30
0.0
 11
580.2972472972814
 21
1107.98018229897
 31
0.0
  0
LINE
  5
1344
330
AA55
100
AcDbEntity
  8
BEM
 62
     0
100
AcDbLine
 10
578.6670971560973
 20
1108.10518229897
 30
0.0
 11
580.4222472972814
 21
1108.10518229897
 31
0.0
  0
LINE
  5
1345
330
AA55
100
AcDbEntity
  8
BEM
 62
     0
100
AcDbLine
 10
578.6831507814464
 20
1108.23018229897
 30
0.0
 11
580.5472472972813
 21
1108.23018229897
 31
0.0
  0
LINE
  5
1346
330
AA55
100
AcDbEntity
  8
BEM
 62
     0
100
AcDbLine
 10
578.704591486685
 20
1108.35518229897
 30
0.0
 11
580.6722472972815
 21
1108.35518229897
 31
0.0
  0
LINE
  5
1347
330
AA55
100
AcDbEntity
  8
BEM
 62
     0
100
AcDbLine
 10
578.7315379912008
 20
1108.48018229897
 30
0.0
 11
580.7972472972815
 21
1108.48018229897
 31
0.0
  0
LINE
  5
1348
330
AA55
100
AcDbEntity
  8
BEM
 62
     0
100
AcDbLine
 10
578.7641445106046
 20
1108.60518229897
 30
0.0
 11
580.9222472972814
 21
1108.60518229897
 31
0.0
  0
LINE
  5
1349
330
AA55
100
AcDbEntity
  8
BEM
 62
     0
100
AcDbLine
 10
578.8026054693362
 20
1108.73018229897
 30
0.0
 11
581.0472472972815
 21
1108.73018229897
 31
0.0
  0
LINE
  5
134A
330
AA55
100
AcDbEntity
  8
BEM
 62
     0
100
AcDbLine
 10
578.8471618465978
 20
1108.85518229897
 30
0.0
 11
581.1722472972815
 21
1108.85518229897
 31
0.0
  0
LINE
  5
134B
330
AA55
100
AcDbEntity
  8
BEM
 62
     0
100
AcDbLine
 10
578.8981096815737
 20
1108.98018229897
 30
0.0
 11
584.4022829627144
 21
1108.98018229897
 31
0.0
  0
LINE
  5
134C
330
AA55
100
AcDbEntity
  8
BEM
 62
     0
100
AcDbLine
 10
578.9558115160498
 20
1109.10518229897
 30
0.0
 11
584.3445811282383
 21
1109.10518229897
 31
0.0
  0
LINE
  5
134D
330
AA55
100
AcDbEntity
  8
BEM
 62
     0
100
AcDbLine
 10
579.0207119450434
 20
1109.23018229897
 30
0.0
 11
584.2796806992447
 21
1109.23018229897
 31
0.0
  0
LINE
  5
134E
330
AA55
100
AcDbEntity
  8
BEM
 62
     0
100
AcDbLine
 10
579.093359077515
 20
1109.35518229897
 30
0.0
 11
584.2070335667731
 21
1109.35518229897
 31
0.0
  0
LINE
  5
134F
330
AA55
100
AcDbEntity
  8
BEM
 62
     0
100
AcDbLine
 10
579.174434762214
 20
1109.48018229897
 30
0.0
 11
584.1259578820742
 21
1109.48018229897
 31
0.0
  0
LINE
  5
1350
330
AA55
100
AcDbEntity
  8
BEM
 62
     0
100
AcDbLine
 10
579.2647982614982
 20
1109.60518229897
 30
0.0
 11
584.0355943827899
 21
1109.60518229897
 31
0.0
  0
LINE
  5
1351
330
AA55
100
AcDbEntity
  8
BEM
 62
     0
100
AcDbLine
 10
579.3655513795243
 20
1109.73018229897
 30
0.0
 11
583.9348412647638
 21
1109.73018229897
 31
0.0
  0
LINE
  5
1352
330
AA55
100
AcDbEntity
  8
BEM
 62
     0
100
AcDbLine
 10
579.478139435241
 20
1109.85518229897
 30
0.0
 11
583.8222532090472
 21
1109.85518229897
 31
0.0
  0
LINE
  5
1353
330
AA55
100
AcDbEntity
  8
BEM
 62
     0
100
AcDbLine
 10
579.6045155733349
 20
1109.98018229897
 30
0.0
 11
583.6958770709533
 21
1109.98018229897
 31
0.0
  0
LINE
  5
1354
330
AA55
100
AcDbEntity
  8
BEM
 62
     0
100
AcDbLine
 10
579.74742509781
 20
1110.10518229897
 30
0.0
 11
583.5529675464782
 21
1110.10518229897
 31
0.0
  0
LINE
  5
1355
330
AA55
100
AcDbEntity
  8
BEM
 62
     0
100
AcDbLine
 10
579.910938739651
 20
1110.23018229897
 30
0.0
 11
583.3894539046371
 21
1110.23018229897
 31
0.0
  0
LINE
  5
1356
330
AA55
100
AcDbEntity
  8
BEM
 62
     0
100
AcDbLine
 10
580.1015693353056
 20
1110.35518229897
 30
0.0
 11
583.1988233089825
 21
1110.35518229897
 31
0.0
  0
LINE
  5
1357
330
AA55
100
AcDbEntity
  8
BEM
 62
     0
100
AcDbLine
 10
580.3310207650365
 20
1110.48018229897
 30
0.0
 11
582.9693718792516
 21
1110.48018229897
 31
0.0
  0
LINE
  5
1358
330
AA55
100
AcDbEntity
  8
BEM
 62
     0
100
AcDbLine
 10
580.6250364533552
 20
1110.60518229897
 30
0.0
 11
582.675356190933
 21
1110.60518229897
 31
0.0
  0
LINE
  5
1359
330
AA55
100
AcDbEntity
  8
BEM
 62
     0
100
AcDbLine
 10
581.0753647270829
 20
1110.73018229897
 30
0.0
 11
582.2250279172052
 21
1110.73018229897
 31
0.0
  0
ENDBLK
  5
135B
330
AA55
100
AcDbEntity
  8
0
100
AcDbBlockEnd
  0
BLOCK
  5
137F
330
AA56
100
AcDbEntity
  8
0
100
AcDbBlockBegin
  2
*X2
 70
     1
 10
0.0
 20
0.0
 30
0.0
  3
*X2
  1

  0
LINE
  5
135D
330
AA56
100
AcDbEntity
  8
BEM
 62
     0
100
AcDbLine
 10
400.3083962574157
 20
918.4408901718583
 30
0.0
 11
400.3297830971258
 21
918.4622770115684
 31
0.0
  0
LINE
  5
135E
330
AA56
100
AcDbEntity
  8
BEM
 62
     0
100
AcDbLine
 10
400.1845066386712
 20
918.4937772484104
 30
0.0
 11
400.3297830971257
 21
918.639053706865
 31
0.0
  0
LINE
  5
135F
330
AA56
100
AcDbEntity
  8
BEM
 62
     0
100
AcDbLine
 10
400.0651105406879
 20
918.5511578457237
 30
0.0
 11
400.3297830971258
 21
918.8158304021618
 31
0.0
  0
LINE
  5
1360
330
AA56
100
AcDbEntity
  8
BEM
 62
     0
100
AcDbLine
 10
399.9500034078745
 20
918.6128274082069
 30
0.0
 11
400.3297830971259
 21
918.9926070974584
 31
0.0
  0
LINE
  5
1361
330
AA56
100
AcDbEntity
  8
BEM
 62
     0
100
AcDbLine
 10
399.8390188439652
 20
918.6786195395944
 30
0.0
 11
400.3297830971257
 21
919.169383792755
 31
0.0
  0
LINE
  5
1362
330
AA56
100
AcDbEntity
  8
BEM
 62
     0
100
AcDbLine
 10
399.732022794659
 20
918.7484001855848
 30
0.0
 11
400.3297830971257
 21
919.3461604880514
 31
0.0
  0
LINE
  5
1363
330
AA56
100
AcDbEntity
  8
BEM
 62
     0
100
AcDbLine
 10
399.6289092073638
 20
918.8220632935861
 30
0.0
 11
400.3297830971258
 21
919.5229371833484
 31
0.0
  0
LINE
  5
1364
330
AA56
100
AcDbEntity
  8
BEM
 62
     0
100
AcDbLine
 10
399.5295968120359
 20
918.899527593555
 30
0.0
 11
400.3297830971258
 21
919.6997138786448
 31
0.0
  0
LINE
  5
1365
330
AA56
100
AcDbEntity
  8
BEM
 62
     0
100
AcDbLine
 10
399.4340267803362
 20
918.9807342571519
 30
0.0
 11
400.3297830971257
 21
919.8764905739414
 31
0.0
  0
LINE
  5
1366
330
AA56
100
AcDbEntity
  8
BEM
 62
     0
100
AcDbLine
 10
399.3421610985109
 20
919.0656452706232
 30
0.0
 11
400.3297830971258
 21
920.0532672692382
 31
0.0
  0
LINE
  5
1367
330
AA56
100
AcDbEntity
  8
BEM
 62
     0
100
AcDbLine
 10
399.2539815457515
 20
919.1542424131606
 30
0.0
 11
400.3297830971259
 21
920.2300439645348
 31
0.0
  0
LINE
  5
1368
330
AA56
100
AcDbEntity
  8
BEM
 62
     0
100
AcDbLine
 10
399.1694892127352
 20
919.2465267754407
 30
0.0
 11
400.3297830971257
 21
920.4068206598314
 31
0.0
  0
LINE
  5
1369
330
AA56
100
AcDbEntity
  8
BEM
 62
     0
100
AcDbLine
 10
399.088704530294
 20
919.3425187882963
 30
0.0
 11
400.3297830971257
 21
920.583597355128
 31
0.0
  0
LINE
  5
136A
330
AA56
100
AcDbEntity
  8
BEM
 62
     0
100
AcDbLine
 10
399.0116678099927
 20
919.4422587632915
 30
0.0
 11
400.3297830971259
 21
920.7603740504248
 31
0.0
  0
LINE
  5
136B
330
AA56
100
AcDbEntity
  8
BEM
 62
     0
100
AcDbLine
 10
398.9384403304122
 20
919.5458079790075
 30
0.0
 11
400.3297830971258
 21
920.9371507457213
 31
0.0
  0
LINE
  5
136C
330
AA56
100
AcDbEntity
  8
BEM
 62
     0
100
AcDbLine
 10
398.8691060388361
 20
919.6532503827281
 30
0.0
 11
400.3297830971258
 21
921.1139274410179
 31
0.0
  0
LINE
  5
136D
330
AA56
100
AcDbEntity
  8
BEM
 62
     0
100
AcDbLine
 10
398.8037739821692
 20
919.7646950213579
 30
0.0
 11
400.3297830971257
 21
921.2907041363147
 31
0.0
  0
LINE
  5
136E
330
AA56
100
AcDbEntity
  8
BEM
 62
     0
100
AcDbLine
 10
398.7425816392507
 20
919.8802793737362
 30
0.0
 11
400.3297830971258
 21
921.4674808316113
 31
0.0
  0
LINE
  5
136F
330
AA56
100
AcDbEntity
  8
BEM
 62
     0
100
AcDbLine
 10
398.6856994081094
 20
920.0001738378913
 30
0.0
 11
400.3297830971259
 21
921.6442575269079
 31
0.0
  0
LINE
  5
1370
330
AA56
100
AcDbEntity
  8
BEM
 62
     0
100
AcDbLine
 10
398.6333366200592
 20
920.1245877451379
 30
0.0
 11
402.5253748719796
 21
924.0166259970584
 31
0.0
  0
LINE
  5
1371
330
AA56
100
AcDbEntity
  8
BEM
 62
     0
100
AcDbLine
 10
398.5857496308559
 20
920.2537774512313
 30
0.0
 11
402.3961851658862
 21
924.0642129862616
 31
0.0
  0
LINE
  5
1372
330
AA56
100
AcDbEntity
  8
BEM
 62
     0
100
AcDbLine
 10
398.5432528166508
 20
920.3880573323226
 30
0.0
 11
402.2619052847947
 21
924.1067098004666
 31
0.0
  0
LINE
  5
1373
330
AA56
100
AcDbEntity
  8
BEM
 62
     0
100
AcDbLine
 10
398.5062337490069
 20
920.5278149599756
 30
0.0
 11
402.122147657142
 21
924.1437288681106
 31
0.0
  0
LINE
  5
1374
330
AA56
100
AcDbEntity
  8
BEM
 62
     0
100
AcDbLine
 10
398.4751745677986
 20
920.6735324740639
 30
0.0
 11
401.9764301430536
 21
924.1747880493189
 31
0.0
  0
LINE
  5
1375
330
AA56
100
AcDbEntity
  8
BEM
 62
     0
100
AcDbLine
 10
398.4506828632659
 20
920.8258174648277
 30
0.0
 11
401.8241451522897
 21
924.1992797538514
 31
0.0
  0
LINE
  5
1376
330
AA56
100
AcDbEntity
  8
BEM
 62
     0
100
AcDbLine
 10
398.4335377285995
 20
920.985449025458
 30
0.0
 11
401.6645135916594
 21
924.2164248885179
 31
0.0
  0
LINE
  5
1377
330
AA56
100
AcDbEntity
  8
BEM
 62
     0
100
AcDbLine
 10
398.424761158629
 20
921.153449150784
 30
0.0
 11
401.4965134663333
 21
924.2252014584884
 31
0.0
  0
LINE
  5
1378
330
AA56
100
AcDbEntity
  8
BEM
 62
     0
100
AcDbLine
 10
398.4257342352071
 20
921.3311989226589
 30
0.0
 11
401.3187636944586
 21
924.2242283819104
 31
0.0
  0
LINE
  5
1379
330
AA56
100
AcDbEntity
  8
BEM
 62
     0
100
AcDbLine
 10
398.4383981814112
 20
921.5206395641596
 30
0.0
 11
401.1293230529578
 21
924.2115644357063
 31
0.0
  0
LINE
  5
137A
330
AA56
100
AcDbEntity
  8
BEM
 62
     0
100
AcDbLine
 10
398.4656314387254
 20
921.7246495167703
 30
0.0
 11
400.9253131003471
 21
924.1843311783922
 31
0.0
  0
LINE
  5
137B
330
AA56
100
AcDbEntity
  8
BEM
 62
     0
100
AcDbLine
 10
398.5120392779659
 20
921.9478340513076
 30
0.0
 11
400.7021285658099
 21
924.1379233391517
 31
0.0
  0
LINE
  5
137C
330
AA56
100
AcDbEntity
  8
BEM
 62
     0
100
AcDbLine
 10
398.5858975922333
 20
922.1984690608717
 30
0.0
 11
400.4514935562458
 21
924.0640650248842
 31
0.0
  0
LINE
  5
137D
330
AA56
100
AcDbEntity
  8
BEM
 62
     0
100
AcDbLine
 10
398.7054097315702
 20
922.4947578955051
 30
0.0
 11
400.1552047216123
 21
923.9445528855473
 31
0.0
  0
LINE
  5
137E
330
AA56
100
AcDbEntity
  8
BEM
 62
     0
100
AcDbLine
 10
398.9354515600348
 20
922.9015764192663
 30
0.0
 11
399.7483861978512
 21
923.7145110570827
 31
0.0
  0
ENDBLK
  5
1380
330
AA56
100
AcDbEntity
  8
0
100
AcDbBlockEnd
  0
BLOCK
  5
158F
330
AA57
100
AcDbEntity
  8
0
100
AcDbBlockBegin
  2
*X3
 70
     1
 10
0.0
 20
0.0
 30
0.0
  3
*X3
  1

  0
LINE
  5
1591
330
AA57
100
AcDbEntity
  8
0
 62
     0
100
AcDbLine
 10
699.8197248271818
 20
838.8000000000001
 30
0.0
 11
703.8467903521612
 21
838.8000000000001
 31
0.0
  0
LINE
  5
1592
330
AA57
100
AcDbEntity
  8
0
 62
     0
100
AcDbLine
 10
699.9162937046626
 20
838.9000000000001
 30
0.0
 11
703.8957421138509
 21
838.9000000000001
 31
0.0
  0
LINE
  5
1593
330
AA57
100
AcDbEntity
  8
0
 62
     0
100
AcDbLine
 10
700.0128625821433
 20
839.0
 30
0.0
 11
703.940811716029
 21
839.0
 31
0.0
  0
LINE
  5
1594
330
AA57
100
AcDbEntity
  8
0
 62
     0
100
AcDbLine
 10
700.1094314596238
 20
839.1
 30
0.0
 11
703.9821615430987
 21
839.1
 31
0.0
  0
LINE
  5
1595
330
AA57
100
AcDbEntity
  8
0
 62
     0
100
AcDbLine
 10
700.2060003371046
 20
839.2000000000001
 30
0.0
 11
704.0199326963229
 21
839.2000000000001
 31
0.0
  0
LINE
  5
1596
330
AA57
100
AcDbEntity
  8
0
 62
     0
100
AcDbLine
 10
700.3025692145854
 20
839.3
 30
0.0
 11
704.0542478880598
 21
839.3
 31
0.0
  0
LINE
  5
1597
330
AA57
100
AcDbEntity
  8
0
 62
     0
100
AcDbLine
 10
700.3991380920662
 20
839.4000000000001
 30
0.0
 11
704.0852137802688
 21
839.4000000000001
 31
0.0
  0
LINE
  5
1598
330
AA57
100
AcDbEntity
  8
0
 62
     0
100
AcDbLine
 10
700.4957069695467
 20
839.4999999999999
 30
0.0
 11
704.112922884942
 21
839.4999999999999
 31
0.0
  0
LINE
  5
1599
330
AA57
100
AcDbEntity
  8
0
 62
     0
100
AcDbLine
 10
700.5922758470275
 20
839.6
 30
0.0
 11
704.1374551146745
 21
839.6
 31
0.0
  0
LINE
  5
159A
330
AA57
100
AcDbEntity
  8
0
 62
     0
100
AcDbLine
 10
700.6888447245082
 20
839.7
 30
0.0
 11
704.1588790501756
 21
839.7
 31
0.0
  0
LINE
  5
159B
330
AA57
100
AcDbEntity
  8
0
 62
     0
100
AcDbLine
 10
700.7854136019889
 20
839.8000000000001
 30
0.0
 11
704.1772529756967
 21
839.8000000000001
 31
0.0
  0
LINE
  5
159C
330
AA57
100
AcDbEntity
  8
0
 62
     0
100
AcDbLine
 10
700.8819824794697
 20
839.9
 30
0.0
 11
704.1926257214954
 21
839.9
 31
0.0
  0
LINE
  5
159D
330
AA57
100
AcDbEntity
  8
0
 62
     0
100
AcDbLine
 10
702.9913940956851
 20
840.0
 30
0.0
 11
704.2050373434201
 21
840.0
 31
0.0
  0
LINE
  5
159E
330
AA57
100
AcDbEntity
  8
0
 62
     0
100
AcDbLine
 10
699.7231559497012
 20
838.7
 30
0.0
 11
703.7937691546758
 21
838.7
 31
0.0
  0
LINE
  5
159F
330
AA57
100
AcDbEntity
  8
0
 62
     0
100
AcDbLine
 10
699.6265870722204
 20
838.6000000000001
 30
0.0
 11
703.7364618128141
 21
838.6000000000001
 31
0.0
  0
LINE
  5
15A0
330
AA57
100
AcDbEntity
  8
0
 62
     0
100
AcDbLine
 10
699.5300181947397
 20
838.4999999999999
 30
0.0
 11
703.6746164119671
 21
838.4999999999999
 31
0.0
  0
LINE
  5
15A1
330
AA57
100
AcDbEntity
  8
0
 62
     0
100
AcDbLine
 10
699.4334493172591
 20
838.4
 30
0.0
 11
703.6079383981689
 21
838.4
 31
0.0
  0
LINE
  5
15A2
330
AA57
100
AcDbEntity
  8
0
 62
     0
100
AcDbLine
 10
699.3368804397784
 20
838.3
 30
0.0
 11
703.5360808708817
 21
838.3
 31
0.0
  0
LINE
  5
15A3
330
AA57
100
AcDbEntity
  8
0
 62
     0
100
AcDbLine
 10
699.2403115622976
 20
838.2000000000001
 30
0.0
 11
703.4586316969246
 21
838.2000000000001
 31
0.0
  0
LINE
  5
15A4
330
AA57
100
AcDbEntity
  8
0
 62
     0
100
AcDbLine
 10
699.1437426848169
 20
838.1
 30
0.0
 11
703.3750960785077
 21
838.1
 31
0.0
  0
LINE
  5
15A5
330
AA57
100
AcDbEntity
  8
0
 62
     0
100
AcDbLine
 10
699.0471738073361
 20
838.0
 30
0.0
 11
703.284872450281
 21
838.0
 31
0.0
  0
LINE
  5
15A6
330
AA57
100
AcDbEntity
  8
0
 62
     0
100
AcDbLine
 10
698.9506049298555
 20
837.9000000000001
 30
0.0
 11
703.1872182906989
 21
837.9000000000001
 31
0.0
  0
LINE
  5
15A7
330
AA57
100
AcDbEntity
  8
0
 62
     0
100
AcDbLine
 10
698.8540360523748
 20
837.8
 30
0.0
 11
703.0812001446446
 21
837.8
 31
0.0
  0
LINE
  5
15A8
330
AA57
100
AcDbEntity
  8
0
 62
     0
100
AcDbLine
 10
698.7574671748941
 20
837.7
 30
0.0
 11
702.9656178866903
 21
837.7
 31
0.0
  0
LINE
  5
15A9
330
AA57
100
AcDbEntity
  8
0
 62
     0
100
AcDbLine
 10
698.6603427678451
 20
837.6000000000001
 30
0.0
 11
702.8388848073611
 21
837.6000000000001
 31
0.0
  0
LINE
  5
15AA
330
AA57
100
AcDbEntity
  8
0
 62
     0
100
AcDbLine
 10
698.8004004537605
 20
837.5
 30
0.0
 11
702.6988271214458
 21
837.5
 31
0.0
  0
LINE
  5
15AB
330
AA57
100
AcDbEntity
  8
0
 62
     0
100
AcDbLine
 10
698.9569030335606
 20
837.4
 30
0.0
 11
702.5423245416456
 21
837.4
 31
0.0
  0
LINE
  5
15AC
330
AA57
100
AcDbEntity
  8
0
 62
     0
100
AcDbLine
 10
699.1346242908914
 20
837.3000000000001
 30
0.0
 11
702.3646032843148
 21
837.3000000000001
 31
0.0
  0
LINE
  5
15AD
330
AA57
100
AcDbEntity
  8
0
 62
     0
100
AcDbLine
 10
699.3415760390615
 20
837.1999999999999
 30
0.0
 11
702.1576515361448
 21
837.1999999999999
 31
0.0
  0
LINE
  5
15AE
330
AA57
100
AcDbEntity
  8
0
 62
     0
100
AcDbLine
 10
699.5933484512086
 20
837.1
 30
0.0
 11
701.9058791239976
 21
837.1
 31
0.0
  0
LINE
  5
15AF
330
AA57
100
AcDbEntity
  8
0
 62
     0
100
AcDbLine
 10
699.9302672461587
 20
837.0
 30
0.0
 11
701.5689603290475
 21
837.0
 31
0.0
  0
ENDBLK
  5
15B0
330
AA57
100
AcDbEntity
  8
0
100
AcDbBlockEnd
  0
BLOCK
  5
15B9
330
AA58
100
AcDbEntity
  8
0
100
AcDbBlockBegin
  2
*X4
 70
     1
 10
0.0
 20
0.0
 30
0.0
  3
*X4
  1

  0
LINE
  5
15BB
330
AA58
100
AcDbEntity
  8
0
 62
     0
100
AcDbLine
 10
673.3297830971257
 20
810.9000000000001
 30
0.0
 11
676.2568271795999
 21
810.9000000000001
 31
0.0
  0
LINE
  5
15BC
330
AA58
100
AcDbEntity
  8
0
 62
     0
100
AcDbLine
 10
673.3297830971257
 20
811.0
 30
0.0
 11
676.2743868963045
 21
811.0
 31
0.0
  0
LINE
  5
15BD
330
AA58
100
AcDbEntity
  8
0
 62
     0
100
AcDbLine
 10
673.3297830971257
 20
811.1
 30
0.0
 11
676.2889570806053
 21
811.1
 31
0.0
  0
LINE
  5
15BE
330
AA58
100
AcDbEntity
  8
0
 62
     0
100
AcDbLine
 10
673.3297830971257
 20
811.2
 30
0.0
 11
676.3005755186925
 21
811.2
 31
0.0
  0
LINE
  5
15BF
330
AA58
100
AcDbEntity
  8
0
 62
     0
100
AcDbLine
 10
673.3297830971257
 20
811.3000000000001
 30
0.0
 11
676.3092718862209
 21
811.3000000000001
 31
0.0
  0
LINE
  5
15C0
330
AA58
100
AcDbEntity
  8
0
 62
     0
100
AcDbLine
 10
673.3598523974681
 20
811.4
 30
0.0
 11
676.315068135296
 21
811.4
 31
0.0
  0
LINE
  5
15C1
330
AA58
100
AcDbEntity
  8
0
 62
     0
100
AcDbLine
 10
673.4564212749488
 20
811.5
 30
0.0
 11
676.3179787752042
 21
811.5
 31
0.0
  0
LINE
  5
15C2
330
AA58
100
AcDbEntity
  8
0
 62
     0
100
AcDbLine
 10
673.5529901524293
 20
811.5999999999999
 30
0.0
 11
676.318011055391
 21
811.5999999999999
 31
0.0
  0
LINE
  5
15C3
330
AA58
100
AcDbEntity
  8
0
 62
     0
100
AcDbLine
 10
673.6495590299101
 20
811.7
 30
0.0
 11
676.3151650561193
 21
811.7
 31
0.0
  0
LINE
  5
15C4
330
AA58
100
AcDbEntity
  8
0
 62
     0
100
AcDbLine
 10
673.7461279073909
 20
811.8
 30
0.0
 11
676.3094336894706
 21
811.8
 31
0.0
  0
LINE
  5
15C5
330
AA58
100
AcDbEntity
  8
0
 62
     0
100
AcDbLine
 10
673.8426967848717
 20
811.9000000000001
 30
0.0
 11
676.3008026107171
 21
811.9000000000001
 31
0.0
  0
LINE
  5
15C6
330
AA58
100
AcDbEntity
  8
0
 62
     0
100
AcDbLine
 10
673.9392656623522
 20
812.0
 30
0.0
 11
676.2892500374645
 21
812.0
 31
0.0
  0
LINE
  5
15C7
330
AA58
100
AcDbEntity
  8
0
 62
     0
100
AcDbLine
 10
674.035834539833
 20
812.1
 30
0.0
 11
676.2747464711958
 21
812.1
 31
0.0
  0
LINE
  5
15C8
330
AA58
100
AcDbEntity
  8
0
 62
     0
100
AcDbLine
 10
674.1324034173137
 20
812.1999999999999
 30
0.0
 11
676.2572543127877
 21
812.1999999999999
 31
0.0
  0
LINE
  5
15C9
330
AA58
100
AcDbEntity
  8
0
 62
     0
100
AcDbLine
 10
674.2289722947944
 20
812.3000000000001
 30
0.0
 11
676.2367273600458
 21
812.3000000000001
 31
0.0
  0
LINE
  5
15CA
330
AA58
100
AcDbEntity
  8
0
 62
     0
100
AcDbLine
 10
674.3255411722751
 20
812.4
 30
0.0
 11
676.2131101710949
 21
812.4
 31
0.0
  0
LINE
  5
15CB
330
AA58
100
AcDbEntity
  8
0
 62
     0
100
AcDbLine
 10
674.4221100497558
 20
812.5
 30
0.0
 11
676.1863372722843
 21
812.5
 31
0.0
  0
LINE
  5
15CC
330
AA58
100
AcDbEntity
  8
0
 62
     0
100
AcDbLine
 10
674.5186789272365
 20
812.6000000000001
 30
0.0
 11
676.1563321827516
 21
812.6000000000001
 31
0.0
  0
LINE
  5
15CD
330
AA58
100
AcDbEntity
  8
0
 62
     0
100
AcDbLine
 10
674.6152478047171
 20
812.7
 30
0.0
 11
676.1230062194208
 21
812.7
 31
0.0
  0
LINE
  5
15CE
330
AA58
100
AcDbEntity
  8
0
 62
     0
100
AcDbLine
 10
674.7118166821979
 20
812.8
 30
0.0
 11
676.0862570352725
 21
812.8
 31
0.0
  0
LINE
  5
15CF
330
AA58
100
AcDbEntity
  8
0
 62
     0
100
AcDbLine
 10
674.8083855596786
 20
812.9000000000001
 30
0.0
 11
676.0459668292026
 21
812.9000000000001
 31
0.0
  0
LINE
  5
15D0
330
AA58
100
AcDbEntity
  8
0
 62
     0
100
AcDbLine
 10
674.9049544371593
 20
813.0
 30
0.0
 11
676.0020001462213
 21
813.0
 31
0.0
  0
LINE
  5
15D1
330
AA58
100
AcDbEntity
  8
0
 62
     0
100
AcDbLine
 10
675.00152331464
 20
813.1
 30
0.0
 11
675.9542011599514
 21
813.1
 31
0.0
  0
LINE
  5
15D2
330
AA58
100
AcDbEntity
  8
0
 62
     0
100
AcDbLine
 10
675.0980921921208
 20
813.2000000000001
 30
0.0
 11
675.9023902921642
 21
813.2000000000001
 31
0.0
  0
LINE
  5
15D3
330
AA58
100
AcDbEntity
  8
0
 62
     0
100
AcDbLine
 10
675.1946610696014
 20
813.3
 30
0.0
 11
675.8463599714715
 21
813.3
 31
0.0
  0
LINE
  5
15D4
330
AA58
100
AcDbEntity
  8
0
 62
     0
100
AcDbLine
 10
675.2912299470822
 20
813.4
 30
0.0
 11
675.7858692576193
 21
813.4
 31
0.0
  0
LINE
  5
15D5
330
AA58
100
AcDbEntity
  8
0
 62
     0
100
AcDbLine
 10
675.3877988245628
 20
813.4999999999999
 30
0.0
 11
675.7206369468181
 21
813.4999999999999
 31
0.0
  0
LINE
  5
15D6
330
AA58
100
AcDbEntity
  8
0
 62
     0
100
AcDbLine
 10
675.4843677020435
 20
813.6000000000001
 30
0.0
 11
675.6503326072291
 21
813.6000000000001
 31
0.0
  0
LINE
  5
15D7
330
AA58
100
AcDbEntity
  8
0
 62
     0
100
AcDbLine
 10
673.3297830971257
 20
810.8
 30
0.0
 11
676.2362315284863
 21
810.8
 31
0.0
  0
LINE
  5
15D8
330
AA58
100
AcDbEntity
  8
0
 62
     0
100
AcDbLine
 10
673.3297830971257
 20
810.7000000000001
 30
0.0
 11
676.2125442852992
 21
810.7000000000001
 31
0.0
  0
LINE
  5
15D9
330
AA58
100
AcDbEntity
  8
0
 62
     0
100
AcDbLine
 10
673.3297830971257
 20
810.5999999999999
 30
0.0
 11
676.1856997408403
 21
810.5999999999999
 31
0.0
  0
LINE
  5
15DA
330
AA58
100
AcDbEntity
  8
0
 62
     0
100
AcDbLine
 10
673.3297830971257
 20
810.5
 30
0.0
 11
676.1556211544468
 21
810.5
 31
0.0
  0
LINE
  5
15DB
330
AA58
100
AcDbEntity
  8
0
 62
     0
100
AcDbLine
 10
673.3297830971257
 20
810.4
 30
0.0
 11
676.1222195535684
 21
810.4
 31
0.0
  0
LINE
  5
15DC
330
AA58
100
AcDbEntity
  8
0
 62
     0
100
AcDbLine
 10
673.3297830971257
 20
810.3000000000001
 30
0.0
 11
676.0853922654065
 21
810.3000000000001
 31
0.0
  0
LINE
  5
15DD
330
AA58
100
AcDbEntity
  8
0
 62
     0
100
AcDbLine
 10
673.3297830971257
 20
810.2
 30
0.0
 11
676.0450211185578
 21
810.2
 31
0.0
  0
LINE
  5
15DE
330
AA58
100
AcDbEntity
  8
0
 62
     0
100
AcDbLine
 10
673.3297830971257
 20
810.1
 30
0.0
 11
676.0009702328975
 21
810.1
 31
0.0
  0
LINE
  5
15DF
330
AA58
100
AcDbEntity
  8
0
 62
     0
100
AcDbLine
 10
673.3297830971257
 20
810.0
 30
0.0
 11
675.9530832889583
 21
810.0
 31
0.0
  0
LINE
  5
15E0
330
AA58
100
AcDbEntity
  8
0
 62
     0
100
AcDbLine
 10
673.3297830971257
 20
809.9
 30
0.0
 11
675.9011801305534
 21
809.9
 31
0.0
  0
LINE
  5
15E1
330
AA58
100
AcDbEntity
  8
0
 62
     0
100
AcDbLine
 10
673.3297830971257
 20
809.8
 30
0.0
 11
675.8450525013519
 21
809.8
 31
0.0
  0
LINE
  5
15E2
330
AA58
100
AcDbEntity
  8
0
 62
     0
100
AcDbLine
 10
673.3297830971257
 20
809.7000000000001
 30
0.0
 11
675.7844586398066
 21
809.7000000000001
 31
0.0
  0
LINE
  5
15E3
330
AA58
100
AcDbEntity
  8
0
 62
     0
100
AcDbLine
 10
673.3297830971257
 20
809.6
 30
0.0
 11
675.7191163448389
 21
809.6
 31
0.0
  0
LINE
  5
15E4
330
AA58
100
AcDbEntity
  8
0
 62
     0
100
AcDbLine
 10
673.3297830971257
 20
809.5
 30
0.0
 11
675.6486939568076
 21
809.5
 31
0.0
  0
LINE
  5
15E5
330
AA58
100
AcDbEntity
  8
0
 62
     0
100
AcDbLine
 10
673.3297830971257
 20
809.4000000000001
 30
0.0
 11
675.5727984405178
 21
809.4000000000001
 31
0.0
  0
LINE
  5
15E6
330
AA58
100
AcDbEntity
  8
0
 62
     0
100
AcDbLine
 10
673.3297830971257
 20
809.2999999999999
 30
0.0
 11
675.4909593504731
 21
809.2999999999999
 31
0.0
  0
LINE
  5
15E7
330
AA58
100
AcDbEntity
  8
0
 62
     0
100
AcDbLine
 10
673.3297830971257
 20
809.2
 30
0.0
 11
675.4026067975281
 21
809.2
 31
0.0
  0
LINE
  5
15E8
330
AA58
100
AcDbEntity
  8
0
 62
     0
100
AcDbLine
 10
673.3297830971257
 20
809.1000000000001
 30
0.0
 11
675.3070404230639
 21
809.1000000000001
 31
0.0
  0
LINE
  5
15E9
330
AA58
100
AcDbEntity
  8
0
 62
     0
100
AcDbLine
 10
673.3297830971257
 20
809.0
 30
0.0
 11
675.2033844354095
 21
809.0
 31
0.0
  0
LINE
  5
15EA
330
AA58
100
AcDbEntity
  8
0
 62
     0
100
AcDbLine
 10
673.3297830971257
 20
808.9
 30
0.0
 11
675.0905201756328
 21
808.9
 31
0.0
  0
LINE
  5
15EB
330
AA58
100
AcDbEntity
  8
0
 62
     0
100
AcDbLine
 10
673.3297830971257
 20
808.8
 30
0.0
 11
674.9669806998603
 21
808.8
 31
0.0
  0
LINE
  5
15EC
330
AA58
100
AcDbEntity
  8
0
 62
     0
100
AcDbLine
 10
673.3297830971257
 20
808.6999999999999
 30
0.0
 11
674.8307773174111
 21
808.6999999999999
 31
0.0
  0
LINE
  5
15ED
330
AA58
100
AcDbEntity
  8
0
 62
     0
100
AcDbLine
 10
673.3297830971257
 20
808.6
 30
0.0
 11
674.6790949860202
 21
808.6
 31
0.0
  0
LINE
  5
15EE
330
AA58
100
AcDbEntity
  8
0
 62
     0
100
AcDbLine
 10
673.3297830971257
 20
808.5
 30
0.0
 11
674.5077096678728
 21
808.5
 31
0.0
  0
LINE
  5
15EF
330
AA58
100
AcDbEntity
  8
0
 62
     0
100
AcDbLine
 10
673.3297830971257
 20
808.4000000000001
 30
0.0
 11
674.3097340129351
 21
808.4000000000001
 31
0.0
  0
LINE
  5
15F0
330
AA58
100
AcDbEntity
  8
0
 62
     0
100
AcDbLine
 10
673.3297830971257
 20
808.3
 30
0.0
 11
674.0723956580873
 21
808.3
 31
0.0
  0
LINE
  5
15F1
330
AA58
100
AcDbEntity
  8
0
 62
     0
100
AcDbLine
 10
673.3297830971257
 20
808.2
 30
0.0
 11
673.7658297714903
 21
808.2
 31
0.0
  0
ENDBLK
  5
15F2
330
AA58
100
AcDbEntity
  8
0
100
AcDbBlockEnd
  0
BLOCK
  5
ABC9
330
ABBF
100
AcDbEntity
  8
0
100
AcDbBlockBegin
  2
*D17
 70
     1
 10
0.0
 20
0.0
 30
0.0
  3
*D17
  1

  0
LINE
  5
AD05
330
ABBF
100
AcDbEntity
  8
BEM
 62
     0
370
    -2
100
AcDbLine
 10
637.4318396642818
 20
977.8927040575725
 30
0.0
 11
487.4474771675425
 21
1122.730919317268
 31
0.0
  0
LINE
  5
AD06
330
ABBF
100
AcDbEntity
  8
BEM
 62
     0
370
    -2
100
AcDbLine
 10
533.2330840954324
 20
869.991734006775
 30
0.0
 11
383.2487215986932
 21
1014.829949266471
 31
0.0
  0
LINE
  5
AD07
330
ABBF
100
AcDbEntity
  8
BEM
 62
     0
370
    -2
100
AcDbLine
 10
478.8876546862034
 20
1106.669180959047
 30
0.0
 11
399.001942083419
 21
1023.945103920102
 31
0.0
  0
SOLID
  5
AD08
330
ABBF
100
AcDbEntity
  8
BEM
 62
     0
100
AcDbTrace
 10
476.789580268549
 20
1108.695267872886
 30
0.0
 11
480.9857291038579
 21
1104.643094045208
 31
0.0
 12
491.0441761692358
 22
1119.257627464973
 32
0.0
 13
491.0441761692358
 23
1119.257627464973
 33
0.0
  0
SOLID
  5
AD09
330
ABBF
100
AcDbEntity
  8
BEM
 62
     0
100
AcDbTrace
 10
396.9038676657646
 20
1025.971190833941
 30
0.0
 11
401.1000165010734
 21
1021.919017006263
 31
0.0
 12
386.8454206003865
 22
1011.356657414176
 32
0.0
 13
386.8454206003865
 23
1011.356657414176
 33
0.0
  0
MTEXT
  5
AD0A
330
ABBF
100
AcDbEntity
  8
BEM
 62
     1
100
AcDbMText
 10
432.686885382937
 20
1082.219677593988
 30
0.0
 40
17.5
 41
0.0
 71
     5
 72
     1
  1
\A1;150
  7
GREEKS
 11
0.6946583704589968
 21
0.7193398003386517
 31
0.0
 73
     1
 44
1.0
  0
POINT
  5
AD0B
330
ABBF
100
AcDbEntity
  8
DEFPOINTS
 62
     0
100
AcDbPoint
 10
641.028538665975
 20
974.4194122052775
 30
0.0
  0
POINT
  5
AD0C
330
ABBF
100
AcDbEntity
  8
DEFPOINTS
 62
     0
100
AcDbPoint
 10
536.8297830971257
 20
866.51844215448
 30
0.0
  0
POINT
  5
AD0D
330
ABBF
100
AcDbEntity
  8
DEFPOINTS
 62
     0
100
AcDbPoint
 10
386.8454206003865
 20
1011.356657414176
 30
0.0
  0
ENDBLK
  5
ABCA
330
ABBF
100
AcDbEntity
  8
0
100
AcDbBlockEnd
  0
BLOCK
  5
AC78
330
AC6E
100
AcDbEntity
  8
0
100
AcDbBlockBegin
  2
*D18
 70
     1
 10
0.0
 20
0.0
 30
0.0
  3
*D18
  1

  0
LINE
  5
AC6F
330
AC6E
100
AcDbEntity
  8
BEM
 62
     0
370
    -2
100
AcDbLine
 10
673.3297830971257
 20
720.77844215448
 30
0.0
 11
673.3297830971257
 21
638.1110534911248
 31
0.0
  0
LINE
  5
AC70
330
AC6E
100
AcDbEntity
  8
BEM
 62
     0
370
    -2
100
AcDbLine
 10
400.3297830971258
 20
720.77844215448
 30
0.0
 11
400.3297830971258
 21
638.1110534911248
 31
0.0
  0
LINE
  5
AC71
330
AC6E
100
AcDbEntity
  8
BEM
 62
     0
370
    -2
100
AcDbLine
 10
655.8297830971257
 20
643.1110534911248
 30
0.0
 11
417.8297830971258
 21
643.1110534911248
 31
0.0
  0
SOLID
  5
AC72
330
AC6E
100
AcDbEntity
  8
BEM
 62
     0
100
AcDbTrace
 10
655.8297830971257
 20
646.0277201577914
 30
0.0
 11
655.8297830971257
 21
640.1943868244582
 31
0.0
 12
673.3297830971257
 22
643.1110534911248
 32
0.0
 13
673.3297830971257
 23
643.1110534911248
 33
0.0
  0
SOLID
  5
AC73
330
AC6E
100
AcDbEntity
  8
BEM
 62
     0
100
AcDbTrace
 10
417.8297830971258
 20
646.0277201577914
 30
0.0
 11
417.8297830971258
 21
640.1943868244582
 31
0.0
 12
400.3297830971258
 22
643.1110534911248
 32
0.0
 13
400.3297830971258
 23
643.1110534911248
 33
0.0
  0
MTEXT
  5
AC74
330
AC6E
100
AcDbEntity
  8
BEM
 62
     1
100
AcDbMText
 10
536.8297830971257
 20
659.3610534911248
 30
0.0
 40
17.5
 41
0.0
 71
     5
 72
     1
  1
\A1;%%c273
  7
GREEKS
 73
     1
 44
1.0
  0
POINT
  5
AC75
330
AC6E
100
AcDbEntity
  8
DEFPOINTS
 62
     0
100
AcDbPoint
 10
673.3297830971257
 20
725.7784421544799
 30
0.0
  0
POINT
  5
AC76
330
AC6E
100
AcDbEntity
  8
DEFPOINTS
 62
     0
100
AcDbPoint
 10
400.3297830971258
 20
725.7784421544799
 30
0.0
  0
POINT
  5
AC77
330
AC6E
100
AcDbEntity
  8
DEFPOINTS
 62
     0
100
AcDbPoint
 10
400.3297830971258
 20
643.1110534911248
 30
0.0
  0
ENDBLK
  5
AC79
330
AC6E
100
AcDbEntity
  8
0
100
AcDbBlockEnd
  0
BLOCK
  5
AC85
330
AC7B
100
AcDbEntity
  8
0
100
AcDbBlockBegin
  2
*D19
 70
     1
 10
0.0
 20
0.0
 30
0.0
  3
*D19
  1

  0
LINE
  5
AC88
330
AC7B
100
AcDbEntity
  8
BEM
 62
     0
370
    -2
100
AcDbLine
 10
395.3297830971259
 20
725.7784421544799
 30
0.0
 11
358.4417110014137
 21
725.7784421544799
 31
0.0
  0
LINE
  5
AC89
330
AC7B
100
AcDbEntity
  8
BEM
 62
     0
370
    -2
100
AcDbLine
 10
531.8297830971259
 20
970.7807114807311
 30
0.0
 11
358.4417110014137
 21
970.7807114807311
 31
0.0
  0
LINE
  5
AC8A
330
AC7B
100
AcDbEntity
  8
BEM
 62
     0
370
    -2
100
AcDbLine
 10
363.4417110014137
 20
743.2784421544799
 30
0.0
 11
363.4417110014137
 21
953.2807114807312
 31
0.0
  0
SOLID
  5
AC8B
330
AC7B
100
AcDbEntity
  8
BEM
 62
     0
100
AcDbTrace
 10
360.525044334747
 20
743.2784421544799
 30
0.0
 11
366.3583776680804
 21
743.2784421544799
 31
0.0
 12
363.4417110014137
 22
725.7784421544799
 32
0.0
 13
363.4417110014137
 23
725.7784421544799
 33
0.0
  0
SOLID
  5
AC8C
330
AC7B
100
AcDbEntity
  8
BEM
 62
     0
100
AcDbTrace
 10
360.5250443347471
 20
953.2807114807312
 30
0.0
 11
366.3583776680805
 21
953.2807114807312
 31
0.0
 12
363.4417110014137
 22
970.7807114807311
 32
0.0
 13
363.4417110014137
 23
970.7807114807311
 33
0.0
  0
MTEXT
  5
AC8D
330
AC7B
100
AcDbEntity
  8
BEM
 62
     1
100
AcDbMText
 10
347.1917110014136
 20
848.2795768176057
 30
0.0
 40
17.5
 41
0.0
 71
     5
 72
     1
  1
\A1;245
  7
GREEKS
 11
0.0000000000000001
 21
1.0
 31
0.0
 73
     1
 44
1.0
  0
POINT
  5
AC8E
330
AC7B
100
AcDbEntity
  8
DEFPOINTS
 62
     0
100
AcDbPoint
 10
400.3297830971258
 20
725.7784421544799
 30
0.0
  0
POINT
  5
AC8F
330
AC7B
100
AcDbEntity
  8
DEFPOINTS
 62
     0
100
AcDbPoint
 10
536.8297830971259
 20
970.7807114807311
 30
0.0
  0
POINT
  5
AC90
330
AC7B
100
AcDbEntity
  8
DEFPOINTS
 62
     0
100
AcDbPoint
 10
363.4417110014137
 20
970.7807114807311
 30
0.0
  0
ENDBLK
  5
AC86
330
AC7B
100
AcDbEntity
  8
0
100
AcDbBlockEnd
  0
BLOCK
  5
AC9D
330
AC93
100
AcDbEntity
  8
0
100
AcDbBlockBegin
  2
*D20
 70
     1
 10
0.0
 20
0.0
 30
0.0
  3
*D20
  1

  0
LINE
  5
ACDF
330
AC93
100
AcDbEntity
  8
BEM
 62
     0
370
    -2
100
AcDbLine
 10
536.6552856136133
 20
975.7776656158267
 30
0.0
 11
529.0355280612143
 21
1193.978972840734
 31
0.0
  0
LINE
  5
ACE0
330
AC93
100
AcDbEntity
  8
BEM
 62
     0
370
    -2
100
AcDbLine
 10
776.7445248772392
 20
1120.74496939439
 30
0.0
 11
773.8885486247315
 21
1202.529428731191
 31
0.0
  0
LINE
  5
ACE1
330
AC93
100
AcDbEntity
  8
BEM
 62
     0
370
    -2
100
AcDbLine
 10
546.6993650175608
 20
1189.592759897933
 30
0.0
 11
756.5737066354097
 21
1196.921733403802
 31
0.0
  0
SOLID
  5
ACE2
330
AC93
100
AcDbEntity
  8
BEM
 62
     0
100
AcDbTrace
 10
546.5975748188453
 20
1192.507649810072
 30
0.0
 11
546.8011552162765
 21
1186.677869985794
 31
0.0
 12
529.2100255447269
 22
1188.982018705639
 32
0.0
 13
529.2100255447269
 23
1188.982018705639
 33
0.0
  0
SOLID
  5
ACE3
330
AC93
100
AcDbEntity
  8
BEM
 62
     0
100
AcDbTrace
 10
756.4719164366941
 20
1199.836623315941
 30
0.0
 11
756.6754968341253
 21
1194.006843491663
 31
0.0
 12
774.063046108244
 22
1197.532474596096
 32
0.0
 13
774.063046108244
 23
1197.532474596096
 33
0.0
  0
MTEXT
  5
ACE4
330
AC93
100
AcDbEntity
  8
BEM
 62
     1
100
AcDbMText
 10
651.0694190050697
 20
1209.497347589928
 30
0.0
 40
17.5
 41
0.0
 71
     5
 72
     1
  1
\A1;245
  7
GREEKS
 11
0.9993908270190956
 21
0.0348994967025008
 31
0.0
 73
     1
 44
1.0
  0
POINT
  5
ACE5
330
AC93
100
AcDbEntity
  8
DEFPOINTS
 62
     0
100
AcDbPoint
 10
536.8297830971259
 20
970.7807114807311
 30
0.0
  0
POINT
  5
ACE6
330
AC93
100
AcDbEntity
  8
DEFPOINTS
 62
     0
100
AcDbPoint
 10
776.9190223607517
 20
1115.748015259294
 30
0.0
  0
POINT
  5
ACE7
330
AC93
100
AcDbEntity
  8
DEFPOINTS
 62
     0
100
AcDbPoint
 10
774.063046108244
 20
1197.532474596096
 30
0.0
  0
ENDBLK
  5
AC9E
330
AC93
100
AcDbEntity
  8
0
100
AcDbBlockEnd
  0
BLOCK
  5
ACD1
330
ACC6
100
AcDbEntity
  8
0
100
AcDbBlockBegin
  2
*D21
 70
     1
 10
0.0
 20
0.0
 30
0.0
  3
*D21
  1

  0
LINE
  5
ACF2
330
ACC6
100
AcDbEntity
  8
BEM
 62
     0
370
    -2
100
AcDbLine
 10
536.8297830971259
 20
975.7807114807313
 30
0.0
 11
536.8297830971259
 21
1151.918319382979
 31
0.0
  0
ARC
  5
ACF3
330
ACC6
100
AcDbEntity
  8
BEM
 62
     0
370
    -2
100
AcDbCircle
 10
536.8297830971257
 20
970.7807114807311
 30
0.0
 40
176.1376079022478
100
AcDbArc
 50
7.694916688349922
 51
84.30508331165002
  0
SOLID
  5
ACF4
330
ACC6
100
AcDbEntity
  8
BEM
 62
     0
100
AcDbTrace
 10
714.2875208370424
 20
994.6116991712981
 30
0.0
 11
708.475052131329
 21
994.1187637567873
 31
0.0
 12
712.8600927277184
 22
976.9278253469021
 32
0.0
 13
712.8600927277184
 23
976.9278253469021
 33
0.0
  0
SOLID
  5
ACF5
330
ACC6
100
AcDbEntity
  8
BEM
 62
     0
100
AcDbTrace
 10
554.1632849616491
 20
1143.135905133189
 30
0.0
 11
554.4530678607958
 21
1148.962036237888
 31
0.0
 12
536.8297830971259
 22
1146.918319382979
 32
0.0
 13
536.8297830971259
 23
1146.918319382979
 33
0.0
  0
MTEXT
  5
ACF6
330
ACC6
100
AcDbEntity
  8
BEM
 62
     1
100
AcDbMText
 10
695.2369488536624
 20
1079.960203654537
 30
0.0
 40
17.5
 41
0.0
 71
     5
 72
     1
  1
\A1;88°
  7
GREEKS
 11
0.5674975294109411
 21
-0.8233750992788635
 31
0.0
 73
     1
 44
1.0
  0
POINT
  5
ACF7
330
ACC6
100
AcDbEntity
  8
DEFPOINTS
 62
     0
100
AcDbPoint
 10
623.1177862034887
 20
1124.334732715742
 30
0.0
  0
POINT
  5
ACF8
330
ACC6
100
AcDbEntity
  8
DEFPOINTS
 62
     0
100
AcDbPoint
 10
536.8297830971257
 20
970.7807114807311
 30
0.0
  0
POINT
  5
ACF9
330
ACC6
100
AcDbEntity
  8
DEFPOINTS
 62
     0
100
AcDbPoint
 10
536.8297830971257
 20
970.7807114807311
 30
0.0
  0
POINT
  5
ACFA
330
ACC6
100
AcDbEntity
  8
DEFPOINTS
 62
     0
100
AcDbPoint
 10
786.6797577957383
 20
979.5056648547001
 30
0.0
  0
POINT
  5
ACFB
330
ACC6
100
AcDbEntity
  8
DEFPOINTS
 62
     0
100
AcDbPoint
 10
536.8297830971257
 20
720.77844215448
 30
0.0
  0
ENDBLK
  5
ACD2
330
ACC6
100
AcDbEntity
  8
0
100
AcDbBlockEnd
  0
ENDSEC
  0
SECTION
  2
ENTITIES
  0
LINE
  5
1A4
330
AA4F
100
AcDbEntity
  8
STEMPEL
100
AcDbLine
 10
1025.0
 20
275.0000000000001
 30
0.0
 11
99.99999999999992
 21
275.0
 31
0.0
  0
LINE
  5
1A5
330
AA4F
100
AcDbEntity
  8
STEMPEL
100
AcDbLine
 10
365.0000000000003
 20
274.9999999999999
 30
0.0
 11
365.0
 21
24.99999999999993
 31
0.0
  0
LINE
  5
1A6
330
AA4F
100
AcDbEntity
  8
STEMPEL
100
AcDbLine
 10
575.0
 20
275.0000000000001
 30
0.0
 11
575.0
 21
24.99999999999993
 31
0.0
  0
LINE
  5
1A7
330
AA4F
100
AcDbEntity
  8
STEMPEL
100
AcDbLine
 10
830.0
 20
274.9999999999994
 30
0.0
 11
830.0
 21
100.0
 31
0.0
  0
LINE
  5
1A8
330
AA4F
100
AcDbEntity
  8
STEMPEL
100
AcDbLine
 10
364.9999999999997
 20
74.99999999999992
 30
0.0
 11
99.99999999999992
 21
74.99999999999992
 31
0.0
  0
LINE
  5
1A9
330
AA4F
100
AcDbEntity
  8
STEMPEL
100
AcDbLine
 10
1025.0
 20
100.0
 30
0.0
 11
365.0000000000003
 21
99.99999999999992
 31
0.0
  0
LINE
  5
1AA
330
AA4F
100
AcDbEntity
  8
STEMPEL
100
AcDbLine
 10
1025.0
 20
200.0
 30
0.0
 11
365.0000000000003
 21
199.9999999999998
 31
0.0
  0
LINE
  5
1AB
330
AA4F
100
AcDbEntity
  8
VOLL
100
AcDbLine
 10
135.0000000000002
 20
275.0000000000001
 30
0.0
 11
134.9999999999999
 21
24.99999999999993
 31
0.0
  0
LINE
  5
1AC
330
AA4F
100
AcDbEntity
  8
VOLL
100
AcDbLine
 10
260.0000000000003
 20
274.9999999999999
 30
0.0
 11
260.0
 21
24.99999999999993
 31
0.0
  0
LINE
  5
1AD
330
AA4F
100
AcDbEntity
  8
VOLL
100
AcDbLine
 10
310.0000000000003
 20
274.9999999999999
 30
0.0
 11
310.0
 21
24.99999999999993
 31
0.0
  0
LINE
  5
1AE
330
AA4F
100
AcDbEntity
  8
VOLL
100
AcDbLine
 10
410.0000000000003
 20
199.9999999999998
 30
0.0
 11
410.0000000000003
 21
99.99999999999992
 31
0.0
  0
LINE
  5
1AF
330
AA4F
100
AcDbEntity
  8
VOLL
100
AcDbLine
 10
475.0000000000002
 20
274.9999999999996
 30
0.0
 11
475.0
 21
99.99999999999992
 31
0.0
  0
LINE
  5
1B0
330
AA4F
100
AcDbEntity
  8
HILF
100
AcDbLine
 10
100.0000000000002
 20
250.0000000000001
 30
0.0
 11
365.0000000000003
 21
250.0000000000001
 31
0.0
  0
LINE
  5
1B1
330
AA4F
100
AcDbEntity
  8
HILF
100
AcDbLine
 10
100.0000000000002
 20
225.0000000000001
 30
0.0
 11
365.0000000000003
 21
225.0000000000001
 31
0.0
  0
LINE
  5
1B2
330
AA4F
100
AcDbEntity
  8
HILF
100
AcDbLine
 10
100.0000000000002
 20
199.9999999999998
 30
0.0
 11
365.0000000000003
 21
199.9999999999998
 31
0.0
  0
LINE
  5
1B3
330
AA4F
100
AcDbEntity
  8
HILF
100
AcDbLine
 10
100.0000000000002
 20
174.9999999999998
 30
0.0
 11
365.0000000000003
 21
174.9999999999998
 31
0.0
  0
LINE
  5
1B4
330
AA4F
100
AcDbEntity
  8
HILF
100
AcDbLine
 10
100.0000000000002
 20
149.9999999999999
 30
0.0
 11
365.0000000000003
 21
149.9999999999999
 31
0.0
  0
LINE
  5
1B5
330
AA4F
100
AcDbEntity
  8
HILF
100
AcDbLine
 10
100.0000000000002
 20
124.9999999999999
 30
0.0
 11
365.0000000000003
 21
124.9999999999999
 31
0.0
  0
LINE
  5
1B6
330
AA4F
100
AcDbEntity
  8
HILF
100
AcDbLine
 10
100.0000000000002
 20
99.99999999999992
 30
0.0
 11
365.0000000000003
 21
99.99999999999992
 31
0.0
  0
LINE
  5
1B7
330
AA4F
100
AcDbEntity
  8
HILF
100
AcDbLine
 10
365.0000000000003
 20
174.9999999999998
 30
0.0
 11
575.0
 21
174.9999999999998
 31
0.0
  0
LINE
  5
1B8
330
AA4F
100
AcDbEntity
  8
HILF
100
AcDbLine
 10
365.0000000000003
 20
149.9999999999999
 30
0.0
 11
575.0
 21
149.9999999999999
 31
0.0
  0
LINE
  5
1B9
330
AA4F
100
AcDbEntity
  8
HILF
100
AcDbLine
 10
365.0000000000003
 20
124.9999999999999
 30
0.0
 11
575.0
 21
124.9999999999999
 31
0.0
  0
LINE
  5
1BA
330
AA4F
100
AcDbEntity
  8
HILF
100
AcDbLine
 10
586.9342002742369
 20
210.0939561891034
 30
0.0
 11
812.0884791390777
 21
210.0939561891034
 31
0.0
  0
LINE
  5
1BB
330
AA4F
100
AcDbEntity
  8
HILF
100
AcDbLine
 10
586.9342002742369
 20
174.9999999999998
 30
0.0
 11
812.0884791390775
 21
174.9999999999998
 31
0.0
  0
LINE
  5
1BC
330
AA4F
100
AcDbEntity
  8
HILF
100
AcDbLine
 10
586.9342002742369
 20
149.9999999999999
 30
0.0
 11
812.0884791390775
 21
149.9999999999999
 31
0.0
  0
LINE
  5
1BD
330
AA4F
100
AcDbEntity
  8
HILF
100
AcDbLine
 10
586.9342002742369
 20
124.9999999999999
 30
0.0
 11
812.0884791390775
 21
124.9999999999999
 31
0.0
  0
LINE
  5
1BE
330
AA4F
100
AcDbEntity
  8
VOLL
100
AcDbLine
 10
830.0
 20
150.0
 30
0.0
 11
1025.0
 21
150.0
 31
0.0
  0
LINE
  5
1BF
330
AA4F
100
AcDbEntity
  8
HILF
100
AcDbLine
 10
841.8096540742482
 20
209.4495909238957
 30
0.0
 11
1012.147209831682
 21
209.4495909238957
 31
0.0
  0
LINE
  5
1C0
330
AA4F
100
AcDbEntity
  8
HILF
100
AcDbLine
 10
583.7274248224712
 20
37.23495645070784
 30
0.0
 11
1012.147209831682
 21
37.23495645070784
 31
0.0
  0
TEXT
  5
1C1
330
AA4F
100
AcDbEntity
  8
TEXT
100
AcDbText
 10
169.6917259328681
 20
46.68454737460329
 30
0.0
 40
10.0
  1
Änderung
 41
0.8
  7
GREEKS
 72
     1
 11
196.5488687900109
 21
46.68454737460329
 31
0.0
100
AcDbText
  0
TEXT
  5
1C2
330
AA4F
100
AcDbEntity
  8
TEXT
100
AcDbText
 10
383.7908930375943
 20
256.1552237717722
 30
0.0
 40
12.5
  1
Maßstab
 41
0.8
  7
GREEKS
100
AcDbText
  0
TEXT
  5
1C3
330
AA4F
100
AcDbEntity
  8
TEXT
100
AcDbText
 10
485.7147386835128
 20
256.0460421087048
 30
0.0
 40
12.5
  1
Zul. Abw.
 41
0.8
  7
GREEKS
100
AcDbText
  0
TEXT
  5
1C4
330
AA4F
100
AcDbEntity
  8
TEXT
100
AcDbText
 10
587.1948509522525
 20
256.3723320029449
 30
0.0
 40
12.5
  1
Benennung
 41
0.8
  7
GREEKS
100
AcDbText
  0
TEXT
  5
1C5
330
AA4F
100
AcDbEntity
  8
TEXT
100
AcDbText
 10
840.4468873940851
 20
255.7830086342841
 30
0.0
 40
12.5
  1
Zeichnungs Nr.
 41
0.8
  7
GREEKS
100
AcDbText
  0
TEXT
  5
1C6
330
AA4F
100
AcDbEntity
  8
TEXT
100
AcDbText
 10
586.8555959778399
 20
77.11401425482641
 30
0.0
 40
12.5
  1
Bauvorhaben
 41
0.8
  7
GREEKS
100
AcDbText
  0
TEXT
  5
1C7
330
AA4F
100
AcDbEntity
  8
TEXT
100
AcDbText
 10
841.8096540742482
 20
182.9529559274992
 30
0.0
 40
12.5
  1
Ersatz für:
 41
0.8
  7
GREEKS
100
AcDbText
  0
TEXT
  5
1C8
330
AA4F
100
AcDbEntity
  8
TEXT
100
AcDbText
 10
120.6660276761439
 20
34.13664615067979
 30
0.0
 40
10.0
  1
Index
 50
90.0
 41
0.8
  7
GREEKS
100
AcDbText
  0
TEXT
  5
1C9
330
AA4F
100
AcDbEntity
  8
TEXT
100
AcDbText
 10
274.3133560641931
 20
46.67890673349525
 30
0.0
 40
10.0
  1
Tag
 41
0.8
  7
GREEKS
 72
     1
 11
283.6466893975264
 21
46.67890673349525
 31
0.0
100
AcDbText
  0
TEXT
  5
1CA
330
AA4F
100
AcDbEntity
  8
TEXT
100
AcDbText
 10
322.1810113792913
 20
46.4831054241602
 30
0.0
 40
10.0
  1
Name
 41
0.8
  7
GREEKS
 72
     1
 11
337.9905351888151
 21
46.4831054241602
 31
0.0
100
AcDbText
  0
TEXT
  5
1CB
330
AA4F
100
AcDbEntity
  8
TEXT
100
AcDbText
 10
430.8279182884127
 20
183.2970125307481
 30
0.0
 40
10.0
  1
Tag
 41
0.8
  7
GREEKS
100
AcDbText
  0
TEXT
  5
1CC
330
AA4F
100
AcDbEntity
  8
TEXT
100
AcDbText
 10
506.1566460565737
 20
183.2740272978806
 30
0.0
 40
10.0
  1
Name
 41
0.8
  7
GREEKS
100
AcDbText
  0
TEXT
  5
1CD
330
AA4F
100
AcDbEntity
  8
TEXT
100
AcDbText
 10
368.9590317919039
 20
159.0747592404491
 30
0.0
 40
10.0
  1
Gez.
 41
0.8
  7
GREEKS
100
AcDbText
  0
TEXT
  5
1CE
330
AA4F
100
AcDbEntity
  8
TEXT
100
AcDbText
 10
368.8787716429181
 20
134.2231572857094
 30
0.0
 40
10.0
  1
Gepr.
 41
0.8
  7
GREEKS
100
AcDbText
  0
TEXT
  5
1CF
330
AA4F
100
AcDbEntity
  8
TEXT
100
AcDbText
 10
369.0016943468259
 20
108.8236597412452
 30
0.0
 40
10.0
  1
Norm.
 41
0.8
  7
GREEKS
100
AcDbText
  0
LINE
  5
1D0
330
AA4F
100
AcDbEntity
  8
STEMPEL
100
AcDbLine
 10
124.9999999999997
 20
25.0
 30
0.0
 11
1025.0
 21
25.0
 31
0.0
  0
TEXT
  5
1D1
330
AA4F
100
AcDbEntity
  8
TEXT
100
AcDbText
 10
843.1002153742515
 20
130.185404446965
 30
0.0
 40
12.5
  1
ersetzt durch:
 41
0.8
  7
GREEKS
100
AcDbText
  0
LINE
  5
1D2
330
AA4F
100
AcDbEntity
  8
STEMPEL
100
AcDbLine
 10
1025.0
 20
25.0
 30
0.0
 11
99.99999999999971
 21
25.0
 31
0.0
  0
LINE
  5
1D3
330
AA4F
100
AcDbEntity
  8
STEMPEL
100
AcDbLine
 10
1025.0
 20
25.0
 30
0.0
 11
1025.0
 21
1460.0
 31
0.0
  0
LINE
  5
1D4
330
AA4F
100
AcDbEntity
  8
STEMPEL
100
AcDbLine
 10
100.0
 20
25.0
 30
0.0
 11
99.99999999999971
 21
1460.0
 31
0.0
  0
LINE
  5
1D5
330
AA4F
100
AcDbEntity
  8
STEMPEL
100
AcDbLine
 10
1025.0
 20
1460.0
 30
0.0
 11
99.99999999999971
 21
1460.0
 31
0.0
  0
LINE
  5
1D6
330
AA4F
100
AcDbEntity
  8
HILF
100
AcDbLine
 10
0.0
 20
0.0
 30
0.0
 11
-0.0000000000002842
 21
1485.0
 31
0.0
  0
LINE
  5
1D7
330
AA4F
100
AcDbEntity
  8
HILF
100
AcDbLine
 10
1050.0
 20
1485.0
 30
0.0
 11
0.0
 21
1485.0
 31
0.0
  0
LINE
  5
1D8
330
AA4F
100
AcDbEntity
  8
HILF
100
AcDbLine
 10
1050.0
 20
0.0
 30
0.0
 11
0.0
 21
0.0
 31
0.0
  0
LINE
  5
1D9
330
AA4F
100
AcDbEntity
  8
HILF
100
AcDbLine
 10
77.7191783928464
 20
742.5000000000001
 30
0.0
 11
0.0000000000002842
 21
742.5000000000001
 31
0.0
  0
TEXT
  5
1DA
330
AA4F
100
AcDbEntity
  8
TEXT
100
AcDbText
 10
371.55527455526
 20
182.8506367787916
 30
0.0
 40
10.0
  1
2011
 41
0.8
  7
GREEKS
100
AcDbText
  0
LINE
  5
1DB
330
AA4F
100
AcDbEntity
  8
HILF
100
AcDbLine
 10
1050.0
 20
-0.0000000000002842
 30
0.0
 11
1050.0
 21
1485.0
 31
0.0
  0
TEXT
  5
1DC
330
AA4F
100
AcDbEntity
  8
VOLL
100
AcDbText
 10
78.07675471698113
 20
31.02594776470585
 30
0.0
 40
1.8
  1

  7
GREEKS
100
AcDbText
  0
TEXT
  5
1DD
330
AA4F
100
AcDbEntity
  8
TEXT
100
AcDbText
 10
104.6377487744418
 20
279.1799999999999
 30
0.0
 40
12.5
  1
Erstellt mit AUTOCAD 2004
 41
0.8
  7
GREEKS
100
AcDbText
  0
TEXT
  5
1DE
330
AA4F
100
AcDbEntity
  8
TEXT
100
AcDbText
 10
511.0540121453142
 20
157.7240979930877
 30
0.0
 40
10.0
  1
Koeh
 41
0.8
  7
GREEKS
 72
     1
 11
524.1968692881714
 21
157.7240979930877
 31
0.0
100
AcDbText
  0
TEXT
  5
1DF
330
AA4F
100
AcDbEntity
  8
TEXT
 62
     1
100
AcDbText
 10
864.1596318652263
 20
220.372535722849
 30
0.0
 40
17.5
  1
03004250W
 41
0.8
  7
GREEKS
 72
     1
 11
924.1596318652264
 21
220.372535722849
 31
0.0
100
AcDbText
  0
TEXT
  5
1E0
330
AA4F
100
AcDbEntity
  8
TEXT
 62
     1
100
AcDbText
 10
401.2515766204717
 20
220.372535722849
 30
0.0
 40
17.5
  1
1:5
 41
0.8
  7
GREEKS
100
AcDbText
  0
TEXT
  5
1E1
330
AA4F
100
AcDbEntity
  8
TEXT
100
AcDbText
 10
425.9974927705902
 20
157.7691260206433
 30
0.0
 40
10.0
  1
06.04.
 41
0.8
  7
GREEKS
 72
     1
 11
443.5213022943996
 21
157.7691260206433
 31
0.0
100
AcDbText
  0
TEXT
  5
1E2
330
AA4F
100
AcDbEntity
  8
TEXT
 62
     1
100
AcDbText
 10
587.207320850568
 20
218.5437197313445
 30
0.0
 40
17.5
  1
Bogen 88%%d DN250
 41
0.8
  7
GREEKS
100
AcDbText
  0
TEXT
  5
1E3
330
AA4F
100
AcDbEntity
  8
TEXT
100
AcDbText
 10
587.8240977813288
 20
181.1007260038562
 30
0.0
 40
12.5
  1
Muffenlos
 41
0.8
  7
GREEKS
100
AcDbText
  0
TEXT
  5
1E4
330
AA4F
100
AcDbEntity
  8
TEXT
100
AcDbText
 10
587.8240977813288
 20
129.100298576054
 30
0.0
 40
12.5
  1
EDV-Art.Nr. 03004.250X
 41
0.8
  7
GREEKS
100
AcDbText
  0
TEXT
  5
1E5
330
AA4F
100
AcDbEntity
  8
TEXT
100
AcDbText
 10
587.4593753944567
 20
106.5743538255658
 30
0.0
 40
10.0
  1
03004250W.DWG
 41
0.8
  7
GREEKS
100
AcDbText
  0
INSERT
  5
1E6
330
AA4F
100
AcDbEntity
  8
STEMPEL
100
AcDbBlockReference
  2
LOGO
 10
377.4888713644485
 20
112.552631911208
 30
0.0
 41
5.0
 42
5.0
 43
5.0
  0
TEXT
  5
1EB
330
AA4F
100
AcDbEntity
  8
TEXT
 62
     1
100
AcDbText
 10
471.7846544748148
 20
351.64847138984
 30
0.0
 40
17.5
  1
Werkstoff: EN 10219 S235
 41
0.8
  7
GREEKS
100
AcDbText
  0
TEXT
  5
1EC
330
AA4F
100
AcDbEntity
  8
TEXT
 62
     1
100
AcDbText
 10
591.7846544748149
 20
321.64847138984
 30
0.0
 40
17.5
  1
feuerverzinkt und innen beschichtet
 41
0.8
  7
GREEKS
100
AcDbText
  0
LINE
  5
1EE
330
AA4F
100
AcDbEntity
  8
STEMPEL
100
AcDbLine
 10
400.3297830971258
 20
921.6680219809788
 30
0.0
 11
400.3297830971258
 21
725.7784421544799
 31
0.0
  0
LINE
  5
1F0
330
AA4F
100
AcDbEntity
  8
STEMPEL
100
AcDbLine
 10
673.3297830971257
 20
811.3688623279811
 30
0.0
 11
673.3297830971257
 21
725.7784421544799
 31
0.0
  0
LINE
  5
1FB
330
AA4F
100
AcDbEntity
  8
STEMPEL
100
AcDbLine
 10
673.3297830971259
 20
811.3688623279811
 30
0.0
 11
400.3297830971257
 21
921.6680219809788
 31
0.0
  0
ARC
  5
203
330
AA4F
100
AcDbEntity
  8
SCHRAFF
100
AcDbCircle
 10
529.21831850032
 20
869.5936734686055
 30
0.0
 40
3.811488253428933
100
AcDbArc
 50
286.085224108806
 51
29.91477589119093
  0
ARC
  5
204
330
AA4F
100
AcDbEntity
  8
SCHRAFF
100
AcDbCircle
 10
524.5823992274861
 20
871.466706435685
 30
0.0
 40
3.811488253428933
100
AcDbArc
 50
286.085224108806
 51
29.91477589119093
  0
ARC
  5
205
330
AA4F
100
AcDbEntity
  8
SCHRAFF
100
AcDbCircle
 10
519.9464799546521
 20
873.3397394027646
 30
0.0
 40
3.811488253428933
100
AcDbArc
 50
286.085224108806
 51
29.91477589119093
  0
ARC
  5
206
330
AA4F
100
AcDbEntity
  8
SCHRAFF
100
AcDbCircle
 10
510.6746414089842
 20
877.0858053369236
 30
0.0
 40
3.811488253428933
100
AcDbArc
 50
286.085224108806
 51
29.91477589119093
  0
ARC
  5
207
330
AA4F
100
AcDbEntity
  8
SCHRAFF
100
AcDbCircle
 10
515.3105606818181
 20
875.2127723698441
 30
0.0
 40
3.811488253428933
100
AcDbArc
 50
286.085224108806
 51
29.91477589119093
  0
ARC
  5
208
330
AA4F
100
AcDbEntity
  8
SCHRAFF
100
AcDbCircle
 10
501.4028028633163
 20
880.8318712710828
 30
0.0
 40
3.811488253428933
100
AcDbArc
 50
286.085224108806
 51
29.91477589119093
  0
ARC
  5
209
330
AA4F
100
AcDbEntity
  8
SCHRAFF
100
AcDbCircle
 10
506.0387221361503
 20
878.9588383040033
 30
0.0
 40
3.811488253428933
100
AcDbArc
 50
286.085224108806
 51
29.91477589119093
  0
ARC
  5
20A
330
AA4F
100
AcDbEntity
  8
SCHRAFF
100
AcDbCircle
 10
492.1309643176484
 20
884.5779372052419
 30
0.0
 40
3.811488253428933
100
AcDbArc
 50
286.085224108806
 51
29.91477589119093
  0
ARC
  5
20B
330
AA4F
100
AcDbEntity
  8
SCHRAFF
100
AcDbCircle
 10
496.7668835904824
 20
882.7049042381624
 30
0.0
 40
3.811488253428933
100
AcDbArc
 50
286.085224108806
 51
29.91477589119093
  0
ARC
  5
20C
330
AA4F
100
AcDbEntity
  8
SCHRAFF
100
AcDbCircle
 10
482.8591257719806
 20
888.3240031394011
 30
0.0
 40
3.811488253428933
100
AcDbArc
 50
286.085224108806
 51
29.91477589119093
  0
ARC
  5
20D
330
AA4F
100
AcDbEntity
  8
SCHRAFF
100
AcDbCircle
 10
487.4950450448145
 20
886.4509701723214
 30
0.0
 40
3.811488253428933
100
AcDbArc
 50
286.085224108806
 51
29.91477589119093
  0
ARC
  5
20E
330
AA4F
100
AcDbEntity
  8
SCHRAFF
100
AcDbCircle
 10
473.5872872263128
 20
892.0700690735602
 30
0.0
 40
3.811488253428933
100
AcDbArc
 50
286.085224108806
 51
29.91477589119093
  0
ARC
  5
20F
330
AA4F
100
AcDbEntity
  8
SCHRAFF
100
AcDbCircle
 10
478.2232064991467
 20
890.1970361064806
 30
0.0
 40
3.811488253428933
100
AcDbArc
 50
286.085224108806
 51
29.91477589119093
  0
ARC
  5
210
330
AA4F
100
AcDbEntity
  8
SCHRAFF
100
AcDbCircle
 10
464.3154486806448
 20
895.8161350077194
 30
0.0
 40
3.811488253428933
100
AcDbArc
 50
286.085224108806
 51
29.91477589119093
  0
ARC
  5
211
330
AA4F
100
AcDbEntity
  8
SCHRAFF
100
AcDbCircle
 10
468.9513679534788
 20
893.9431020406399
 30
0.0
 40
3.811488253428933
100
AcDbArc
 50
286.085224108806
 51
29.91477589119093
  0
ARC
  5
212
330
AA4F
100
AcDbEntity
  8
SCHRAFF
100
AcDbCircle
 10
455.043610134977
 20
899.5622009418784
 30
0.0
 40
3.811488253428933
100
AcDbArc
 50
286.085224108806
 51
29.91477589119093
  0
ARC
  5
213
330
AA4F
100
AcDbEntity
  8
SCHRAFF
100
AcDbCircle
 10
459.6795294078109
 20
897.6891679747989
 30
0.0
 40
3.811488253428933
100
AcDbArc
 50
286.085224108806
 51
29.91477589119093
  0
ARC
  5
214
330
AA4F
100
AcDbEntity
  8
SCHRAFF
100
AcDbCircle
 10
445.7717715893091
 20
903.3082668760375
 30
0.0
 40
3.811488253428933
100
AcDbArc
 50
286.085224108806
 51
29.91477589119093
  0
ARC
  5
215
330
AA4F
100
AcDbEntity
  8
SCHRAFF
100
AcDbCircle
 10
450.407690862143
 20
901.435233908958
 30
0.0
 40
3.811488253428933
100
AcDbArc
 50
286.085224108806
 51
29.91477589119093
  0
ARC
  5
216
330
AA4F
100
AcDbEntity
  8
SCHRAFF
100
AcDbCircle
 10
436.4999330436412
 20
907.0543328101967
 30
0.0
 40
3.811488253428933
100
AcDbArc
 50
286.085224108806
 51
29.91477589119093
  0
ARC
  5
217
330
AA4F
100
AcDbEntity
  8
SCHRAFF
100
AcDbCircle
 10
441.1358523164751
 20
905.1812998431172
 30
0.0
 40
3.811488253428933
100
AcDbArc
 50
286.085224108806
 51
29.91477589119093
  0
ARC
  5
218
330
AA4F
100
AcDbEntity
  8
SCHRAFF
100
AcDbCircle
 10
427.2280944979732
 20
910.8003987443556
 30
0.0
 40
3.811488253428933
100
AcDbArc
 50
286.085224108806
 51
29.91477589119093
  0
ARC
  5
219
330
AA4F
100
AcDbEntity
  8
SCHRAFF
100
AcDbCircle
 10
431.8640137708072
 20
908.9273657772761
 30
0.0
 40
3.811488253428933
100
AcDbArc
 50
286.085224108806
 51
29.91477589119093
  0
ARC
  5
21A
330
AA4F
100
AcDbEntity
  8
SCHRAFF
100
AcDbCircle
 10
417.9562559523054
 20
914.5464646785148
 30
0.0
 40
3.811488253428933
100
AcDbArc
 50
286.085224108806
 51
29.91477589119093
  0
ARC
  5
21B
330
AA4F
100
AcDbEntity
  8
SCHRAFF
100
AcDbCircle
 10
422.5921752251394
 20
912.6734317114353
 30
0.0
 40
3.811488253428933
100
AcDbArc
 50
286.085224108806
 51
29.91477589119093
  0
ARC
  5
21C
330
AA4F
100
AcDbEntity
  8
SCHRAFF
100
AcDbCircle
 10
408.6844174066375
 20
918.292530612674
 30
0.0
 40
3.811488253428933
100
AcDbArc
 50
286.085224108806
 51
29.91477589119093
  0
ARC
  5
21D
330
AA4F
100
AcDbEntity
  8
SCHRAFF
100
AcDbCircle
 10
413.3203366794715
 20
916.4194976455943
 30
0.0
 40
3.811488253428933
100
AcDbArc
 50
286.085224108806
 51
29.91477589119093
  0
TEXT
  5
248
330
AA4F
100
AcDbEntity
  8
TEXT
 62
     1
100
AcDbText
 10
273.9036994186759
 20
439.8504167589382
 30
0.0
 40
17.5
  1
Rohrenden leicht entgratet
 41
0.8
  7
GREEKS
100
AcDbText
  0
LINE
  5
332
102
{ACAD_REACTORS
330
AC91
102
}
330
AA4F
100
AcDbEntity
  8
STEMPEL
100
AcDbLine
 10
673.3297830971257
 20
725.7784421544799
 30
0.0
 11
400.3297830971258
 21
725.7784421544799
 31
0.0
  0
LINE
  5
335
330
AA4F
100
AcDbEntity
  8
MITTEL
100
AcDbLine
 10
536.8297830971257
 20
866.51844215448
 30
0.0
 11
641.0285386659754
 21
974.4194122052777
 31
0.0
  0
LINE
  5
336
330
AA4F
100
AcDbEntity
  8
STEMPEL
100
AcDbLine
 10
400.3297830971257
 20
921.6680219809788
 30
0.0
 11
581.1487731735235
 21
1108.911567514085
 31
0.0
  0
LINE
  5
337
330
AA4F
100
AcDbEntity
  8
STEMPEL
100
AcDbLine
 10
673.3297830971259
 20
811.3688623279811
 30
0.0
 11
700.908304158427
 21
839.9272568964702
 31
0.0
  0
LINE
  5
33A
330
AA4F
100
AcDbEntity
  8
STEMPEL
100
AcDbLine
 10
700.908304158427
 20
839.9272568964702
 30
0.0
 11
581.1487731735235
 21
1108.911567514085
 31
0.0
  0
ARC
  5
33B
330
AA4F
100
AcDbEntity
  8
SCHRAFF
100
AcDbCircle
 10
633.6221779853209
 20
991.0543706548253
 30
0.0
 40
3.811488253428933
100
AcDbArc
 50
242.0852241088091
 51
345.9147758911941
  0
ARC
  5
33C
330
AA4F
100
AcDbEntity
  8
SCHRAFF
100
AcDbCircle
 10
605.1506129700149
 20
1055.002552689807
 30
0.0
 40
3.811488253428933
100
AcDbArc
 50
242.0852241088091
 51
345.9147758911941
  0
ARC
  5
33D
330
AA4F
100
AcDbEntity
  8
SCHRAFF
100
AcDbCircle
 10
601.0832465392569
 20
1064.138007266233
 30
0.0
 40
3.811488253428933
100
AcDbArc
 50
242.0852241088091
 51
345.9147758911941
  0
ARC
  5
33E
330
AA4F
100
AcDbEntity
  8
SCHRAFF
100
AcDbCircle
 10
603.1169297546358
 20
1059.57027997802
 30
0.0
 40
3.811488253428933
100
AcDbArc
 50
242.0852241088091
 51
345.9147758911941
  0
ARC
  5
33F
330
AA4F
100
AcDbEntity
  8
SCHRAFF
100
AcDbCircle
 10
599.0495633238779
 20
1068.705734554446
 30
0.0
 40
3.811488253428933
100
AcDbArc
 50
242.0852241088091
 51
345.9147758911941
  0
ARC
  5
340
330
AA4F
100
AcDbEntity
  8
SCHRAFF
100
AcDbCircle
 10
615.3190290469098
 20
1032.163916248742
 30
0.0
 40
3.811488253428933
100
AcDbArc
 50
242.0852241088091
 51
345.9147758911941
  0
ARC
  5
341
330
AA4F
100
AcDbEntity
  8
SCHRAFF
100
AcDbCircle
 10
607.1842961853938
 20
1050.434825401594
 30
0.0
 40
3.811488253428933
100
AcDbArc
 50
242.0852241088091
 51
345.9147758911941
  0
ARC
  5
342
330
AA4F
100
AcDbEntity
  8
SCHRAFF
100
AcDbCircle
 10
611.2516626161518
 20
1041.299370825168
 30
0.0
 40
3.811488253428933
100
AcDbArc
 50
242.0852241088091
 51
345.9147758911941
  0
ARC
  5
343
330
AA4F
100
AcDbEntity
  8
SCHRAFF
100
AcDbCircle
 10
609.2179794007728
 20
1045.867098113381
 30
0.0
 40
3.811488253428933
100
AcDbArc
 50
242.0852241088091
 51
345.9147758911941
  0
ARC
  5
344
330
AA4F
100
AcDbEntity
  8
SCHRAFF
100
AcDbCircle
 10
613.2853458315309
 20
1036.731643536955
 30
0.0
 40
3.811488253428933
100
AcDbArc
 50
242.0852241088091
 51
345.9147758911941
  0
ARC
  5
345
330
AA4F
100
AcDbEntity
  8
SCHRAFF
100
AcDbCircle
 10
619.386395477668
 20
1023.028461672316
 30
0.0
 40
3.811488253428933
100
AcDbArc
 50
242.0852241088091
 51
345.9147758911941
  0
ARC
  5
346
330
AA4F
100
AcDbEntity
  8
SCHRAFF
100
AcDbCircle
 10
617.3527122622888
 20
1027.596188960529
 30
0.0
 40
3.811488253428933
100
AcDbArc
 50
242.0852241088091
 51
345.9147758911941
  0
ARC
  5
347
330
AA4F
100
AcDbEntity
  8
SCHRAFF
100
AcDbCircle
 10
623.4537619084258
 20
1013.89300709589
 30
0.0
 40
3.811488253428933
100
AcDbArc
 50
242.0852241088091
 51
345.9147758911941
  0
ARC
  5
348
330
AA4F
100
AcDbEntity
  8
SCHRAFF
100
AcDbCircle
 10
621.4200786930469
 20
1018.460734384103
 30
0.0
 40
3.811488253428933
100
AcDbArc
 50
242.0852241088091
 51
345.9147758911941
  0
ARC
  5
349
330
AA4F
100
AcDbEntity
  8
SCHRAFF
100
AcDbCircle
 10
631.5884947699418
 20
995.6220979430383
 30
0.0
 40
3.811488253428933
100
AcDbArc
 50
242.0852241088091
 51
345.9147758911941
  0
ARC
  5
34A
330
AA4F
100
AcDbEntity
  8
SCHRAFF
100
AcDbCircle
 10
629.5548115545629
 20
1000.189825231251
 30
0.0
 40
3.811488253428933
100
AcDbArc
 50
242.0852241088091
 51
345.9147758911941
  0
ARC
  5
34B
330
AA4F
100
AcDbEntity
  8
SCHRAFF
100
AcDbCircle
 10
627.5211283391838
 20
1004.757552519464
 30
0.0
 40
3.811488253428933
100
AcDbArc
 50
242.0852241088091
 51
345.9147758911941
  0
ARC
  5
34C
330
AA4F
100
AcDbEntity
  8
SCHRAFF
100
AcDbCircle
 10
625.4874451238049
 20
1009.325279807677
 30
0.0
 40
3.811488253428933
100
AcDbArc
 50
242.0852241088091
 51
345.9147758911941
  0
ARC
  5
34D
330
AA4F
100
AcDbEntity
  8
SCHRAFF
100
AcDbCircle
 10
597.0158801084989
 20
1073.273461842659
 30
0.0
 40
3.811488253428933
100
AcDbArc
 50
242.0852241088091
 51
345.9147758911941
  0
ARC
  5
34E
330
AA4F
100
AcDbEntity
  8
SCHRAFF
100
AcDbCircle
 10
588.8811472469829
 20
1091.544370995511
 30
0.0
 40
3.811488253428933
100
AcDbArc
 50
242.0852241088091
 51
345.9147758911941
  0
ARC
  5
34F
330
AA4F
100
AcDbEntity
  8
SCHRAFF
100
AcDbCircle
 10
584.8137808162248
 20
1100.679825571937
 30
0.0
 40
3.811488253428933
100
AcDbArc
 50
242.0852241088091
 51
345.9147758911941
  0
ARC
  5
350
330
AA4F
100
AcDbEntity
  8
SCHRAFF
100
AcDbCircle
 10
586.8474640316038
 20
1096.112098283724
 30
0.0
 40
3.811488253428933
100
AcDbArc
 50
242.0852241088091
 51
345.9147758911941
  0
ARC
  5
351
330
AA4F
100
AcDbEntity
  8
SCHRAFF
100
AcDbCircle
 10
592.948513677741
 20
1082.408916419085
 30
0.0
 40
3.811488253428933
100
AcDbArc
 50
242.0852241088091
 51
345.9147758911941
  0
ARC
  5
352
330
AA4F
100
AcDbEntity
  8
SCHRAFF
100
AcDbCircle
 10
590.9148304623617
 20
1086.976643707298
 30
0.0
 40
3.811488253428933
100
AcDbArc
 50
242.0852241088091
 51
345.9147758911941
  0
ARC
  5
353
330
AA4F
100
AcDbEntity
  8
SCHRAFF
100
AcDbCircle
 10
594.9821968931201
 20
1077.841189130872
 30
0.0
 40
3.811488253428933
100
AcDbArc
 50
242.0852241088091
 51
345.9147758911941
  0
ARC
  5
354
330
AA4F
100
AcDbEntity
  8
SCHRAFF
100
AcDbCircle
 10
635.6558612006999
 20
986.4866433666122
 30
0.0
 40
3.811488253428933
100
AcDbArc
 50
242.0852241088091
 51
345.9147758911941
  0
ARC
  5
355
330
AA4F
100
AcDbEntity
  8
SCHRAFF
100
AcDbCircle
 10
637.689544416079
 20
981.9189160783993
 30
0.0
 40
3.811488253428933
100
AcDbArc
 50
242.0852241088091
 51
345.9147758911941
  0
LINE
  5
356
330
AA4F
100
AcDbEntity
  8
STEMPEL
100
AcDbLine
 10
700.9083041584269
 20
839.9272568964704
 30
0.0
 11
786.4465849605343
 21
842.9143194830812
 31
0.0
  0
LINE
  5
358
330
AA4F
100
AcDbEntity
  8
STEMPEL
100
AcDbLine
 10
581.1487731735233
 20
1108.911567514085
 30
0.0
 11
776.9190223607513
 21
1115.748015259294
 31
0.0
  0
LINE
  5
359
102
{ACAD_REACTORS
330
ACA9
102
}
330
AA4F
100
AcDbEntity
  8
STEMPEL
100
AcDbLine
 10
786.4465849605343
 20
842.9143194830812
 30
0.0
 11
776.9190223607513
 21
1115.748015259294
 31
0.0
  0
LINE
  5
35A
102
{ACAD_REACTORS
330
ACA9
330
ACDE
102
}
330
AA4F
100
AcDbEntity
  8
MITTEL
100
AcDbLine
 10
536.8297830971259
 20
970.7807114807311
 30
0.0
 11
786.6797577957383
 21
979.5056648547003
 31
0.0
  0
DIMENSION
  5
36A
330
AA4F
100
AcDbEntity
  8
BEM
100
AcDbDimension
  2
*D17
 10
386.8454206003865
 20
1011.356657414176
 30
0.0
 11
444.3761571384402
 21
1070.931479074029
 31
0.0
 70
   161
 71
     5
 42
149.9999999999998
  3
STANDARD
100
AcDbAlignedDimension
 13
641.0285386659752
 23
974.4194122052777
 33
0.0
 14
536.8297830971257
 24
866.51844215448
 34
0.0
1001
ACAD
1000
DSTYLE
1002
{
1070
    47
1040
2.399999999999999
1070
    48
1040
2.399999999999999
1070
    79
1070
     2
1070
   146
1040
0.5
1070
   179
1070
     2
1070
   279
1070
     0
1070
   340
1005
AA64
1002
}
  0
ARC
  5
3C7
330
AA4F
100
AcDbEntity
  8
SCHRAFF
100
AcDbCircle
 10
400.0196137628885
 20
921.8492235675348
 30
0.0
 40
3.811488253428933
100
AcDbArc
 50
286.085224108806
 51
29.91477589119093
  0
ARC
  5
3C8
330
AA4F
100
AcDbEntity
  8
SCHRAFF
100
AcDbCircle
 10
404.6555330357223
 20
919.9761906004553
 30
0.0
 40
3.811488253428933
100
AcDbArc
 50
286.085224108806
 51
29.91477589119093
  0
ARC
  5
3E2
330
AA4F
100
AcDbEntity
  8
SCHRAFF
100
AcDbCircle
 10
401.4240553072187
 20
921.2259073098989
 30
0.0
 40
3.000169257656326
100
AcDbArc
 50
67.39138737792631
 51
248.6086126220719
  0
INSERT
  5
3E6
330
AA4F
100
AcDbEntity
  8
SCHRAFF
100
AcDbBlockReference
  2
*X2
 10
0.0
 20
0.0
 30
0.0
1001
ACAD
1000
HATCH
1002
{
1070
    19
1000
ANSI31
1040
1.0
1040
0.0
1000
R14_HATCH_DATA
1000
3E6
1011
1.0
1021
0.0
1031
0.0
1011
0.0
1021
1.0
1031
0.0
1011
0.0
1021
0.0
1031
1.0
1040
0.0
1010
0.0
1020
0.0
1030
1.0
1000
ANSI31
1070
     0
1070
     1
1071
        1
1071
        7
1070
     1
1070
     1
1071
        3
1040
402.5774226576215
1040
923.9955208803472
1040
1.010679112876681
1040
400.3297830971258
1040
918.4324177529461
1040
0.0
1040
400.3297830971258
1040
921.6680219809788
1040
0.0
1071
        3
1005
3E2
1005
1EE
1005
336
1070
     0
1070
     1
1040
0.0
1040
1.0
1070
     0
1070
     1
1040
0.7853981633974483
1040
0.0
1040
0.0
1040
-0.0883883476483184
1040
0.0883883476483185
1070
     0
1040
0.0243553426746152
1071
        1
1040
399.8700715128707
1040
922.170110999099
1040
0.0
1002
}
  0
ARC
  5
3E9
330
AA4F
100
AcDbEntity
  8
SCHRAFF
100
AcDbCircle
 10
581.6501963221439
 20
1107.785596723391
 30
0.0
 40
3.000169257656326
100
AcDbArc
 50
22.3913873779263
 51
203.6086126220719
  0
INSERT
  5
3EB
330
AA4F
100
AcDbEntity
  8
SCHRAFF
100
AcDbBlockReference
  2
*X1
 10
0.0
 20
0.0
 30
0.0
1001
ACAD
1000
HATCH
1002
{
1070
    19
1000
ANSI31
1040
1.0
1040
-0.7853981633974485
1000
R14_HATCH_DATA
1000
3EB
1011
1.0
1021
0.0
1031
0.0
1011
0.0
1021
1.0
1031
0.0
1011
0.0
1021
0.0
1031
1.0
1040
0.0
1010
0.0
1020
0.0
1030
1.0
1000
ANSI31
1070
     0
1070
     0
1071
        1
1071
        7
1070
     1
1070
     1
1071
        3
1040
584.4241627337433
1040
1108.928455385652
1040
1.010679112876681
1040
578.9011336130283
1040
1106.584068614717
1040
0.0
1040
581.1890513039062
1040
1108.871986305594
1040
0.0
1071
        0
1070
     0
1070
     1
1040
-0.7853981633974485
1040
1.0
1070
     0
1070
     1
1040
6.283185307179586
1040
-353.6045613805535
1040
740.2301822989702
1040
0.0
1040
0.125
1070
     0
1040
0.0243553426746152
1071
        1
1040
581.2190166747615
1040
1109.552082033683
1040
0.0
1002
}
  0
ARC
  5
3EC
330
AA4F
100
AcDbEntity
  8
SCHRAFF
100
AcDbCircle
 10
580.9989588051341
 20
1109.406471329641
 30
0.0
 40
3.811488253428933
100
AcDbArc
 50
242.0852241088091
 51
345.9147758911941
  0
ARC
  5
3ED
330
AA4F
100
AcDbEntity
  8
SCHRAFF
100
AcDbCircle
 10
583.0326420205132
 20
1104.838744041428
 30
0.0
 40
3.811488253428933
100
AcDbArc
 50
242.0852241088091
 51
345.9147758911941
  0
ARC
  5
74B
330
AA4F
100
AcDbEntity
  8
SCHRAFF
100
AcDbCircle
 10
672.8423060304213
 20
811.5511219588649
 30
0.0
 40
3.476048688300321
100
AcDbArc
 50
278.0616676335754
 51
38.10822221131368
  0
ARC
  5
751
330
AA4F
100
AcDbEntity
  8
SCHRAFF
100
AcDbCircle
 10
700.7496137876032
 20
840.3781038658532
 30
0.0
 40
3.476048688300321
100
AcDbArc
 50
233.0616676335754
 51
354.4601783640467
  0
LINE
  5
F2F
102
{ACAD_REACTORS
330
AC91
330
ACDE
102
}
330
AA4F
100
AcDbEntity
  8
MITTEL
100
AcDbLine
 10
536.8297830971259
 20
970.7807114807311
 30
0.0
 11
536.8297830971257
 21
720.77844215448
 31
0.0
  0
INSERT
  5
1590
330
AA4F
100
AcDbEntity
  8
SCHRAFF
100
AcDbBlockReference
  2
*X3
 10
0.0
 20
0.0
 30
0.0
1001
ACAD
1000
HATCH
1002
{
1070
    16
1000
_U,I
1040
0.1
1040
0.0
1070
     0
1002
}
  0
INSERT
  5
15BA
330
AA4F
100
AcDbEntity
  8
SCHRAFF
100
AcDbBlockReference
  2
*X4
 10
0.0
 20
0.0
 30
0.0
1001
ACAD
1000
HATCH
1002
{
1070
    16
1000
_U,I
1040
0.1
1040
0.0
1070
     0
1002
}
  0
POINT
  5
A4CF
330
AA4F
100
AcDbEntity
  8
BEM
100
AcDbPoint
 10
536.8297830971259
 20
970.7807114807311
 30
0.0
  0
POINT
  5
A4D9
330
AA4F
100
AcDbEntity
  8
BEM
100
AcDbPoint
 10
536.8297830971256
 20
970.7807114807311
 30
0.0
  0
DIMENSION
  5
AA16
330
AA4F
100
AcDbEntity
  8
BEM
100
AcDbDimension
  2
*D18
 10
400.3297830971258
 20
643.1110534911248
 30
0.0
 11
536.8297830971257
 21
659.3610534911248
 31
0.0
 70
    32
  1
%%c<>
 71
     5
 42
272.9999999999999
  3
STANDARD
100
AcDbAlignedDimension
 13
673.3297830971257
 23
725.7784421544799
 33
0.0
 14
400.3297830971258
 24
725.7784421544799
 34
0.0
100
AcDbRotatedDimension
1001
ACAD
1000
DSTYLE
1002
{
1070
    47
1040
2.399999999999999
1070
    48
1040
2.399999999999999
1070
    79
1070
     2
1070
   146
1040
0.5
1070
   179
1070
     2
1070
   279
1070
     0
1070
   340
1005
AA64
1002
}
  0
TEXT
  5
AA2F
330
AA4F
100
AcDbEntity
  8
TEXT
 62
     1
100
AcDbText
 10
688.5935927456769
 20
937.3474579094981
 30
0.0
 40
17.5
  1
DN250
 50
1.999999999999977
 41
0.8
  7
GREEKS
100
AcDbText
  0
TEXT
  5
AA7E
330
AA4F
100
AcDbEntity
  8
TEXT
100
AcDbText
 10
481.7206788119809
 20
222.9109358117355
 30
0.0
 40
10.0
  1
DIN EN1123-2
 41
0.8
  7
GREEKS
 72
     1
 11
524.1968692881714
 21
222.9109358117355
 31
0.0
100
AcDbText
  0
TEXT
  5
AA84
330
AA4F
100
AcDbEntity
  8
BEM
100
AcDbText
 10
1043.174799735863
 20
25.72478973237118
 30
0.0
 40
10.12
  1
Diese Zeichnung ist urheberrechtlich geschützt und bleibt unser Eigentum. Sie darf weder ganz noch teilweise verfielfältigt und nicht an Dritte weitergegeben werden.
 50
90.0
 41
0.8
  7
GREEKS
100
AcDbText
  0
DIMENSION
  5
AC7A
102
{ACAD_XDICTIONARY
360
AC87
102
}
102
{ACAD_REACTORS
330
AC91
102
}
330
AA4F
100
AcDbEntity
  8
BEM
100
AcDbDimension
  2
*D19
 10
363.4417110014137
 20
970.7807114807311
 30
0.0
 11
347.1917110014136
 21
848.2795768176057
 31
0.0
 70
    32
 71
     5
 42
245.0022693262511
  3
STANDARD
100
AcDbAlignedDimension
 13
400.3297830971258
 23
725.7784421544799
 33
0.0
 14
536.8297830971259
 24
970.7807114807311
 34
0.0
 50
90.0
100
AcDbRotatedDimension
1001
ACAD
1000
DSTYLE
1002
{
1070
    47
1040
2.399999999999999
1070
    48
1040
2.399999999999999
1070
    79
1070
     2
1070
   146
1040
0.5
1070
   179
1070
     2
1070
   279
1070
     0
1070
   340
1005
AA64
1002
}
  0
DIMENSION
  5
AC92
102
{ACAD_XDICTIONARY
360
AC9F
102
}
102
{ACAD_REACTORS
330
ACA9
102
}
330
AA4F
100
AcDbEntity
  8
BEM
100
AcDbDimension
  2
*D20
 10
774.063046108244
 20
1197.532474596096
 30
0.0
 11
651.0694190050697
 21
1209.497347589928
 31
0.0
 70
    32
 71
     5
 42
245.0022693262509
 51
358.0
  3
STANDARD
100
AcDbAlignedDimension
 13
536.8297830971259
 23
970.7807114807311
 33
0.0
 14
776.9190223607515
 24
1115.748015259294
 34
0.0
 50
1.999999999999972
100
AcDbRotatedDimension
1001
ACAD
1000
DSTYLE
1002
{
1070
    47
1040
2.399999999999999
1070
    48
1040
2.399999999999999
1070
    79
1070
     2
1070
   146
1040
0.5
1070
   179
1070
     2
1070
   279
1070
     0
1070
   340
1005
AA64
1002
}
  0
DIMENSION
  5
ACC5
102
{ACAD_XDICTIONARY
360
ACD3
102
}
102
{ACAD_REACTORS
330
ACDE
102
}
330
AA4F
100
AcDbEntity
  8
BEM
100
AcDbDimension
  2
*D21
 10
536.8297830971257
 20
720.77844215448
 30
0.0
 11
681.8571034903807
 21
1070.73836880161
 31
0.0
 70
   162
 71
     5
 42
1.535889741755009
  3
STANDARD
100
AcDb2LineAngularDimension
 13
536.8297830971259
 23
970.7807114807311
 33
0.0
 14
786.6797577957383
 24
979.5056648547003
 34
0.0
 15
536.8297830971259
 25
970.7807114807311
 35
0.0
 16
623.1177862034887
 26
1124.334732715742
 36
0.0
1001
ACAD
1000
DSTYLE
1002
{
1070
    47
1040
2.399999999999999
1070
    48
1040
2.399999999999999
1070
    79
1070
     2
1070
   146
1040
0.5
1070
   179
1070
     2
1070
   279
1070
     0
1070
   340
1005
AA64
1002
}
  0
ARC
  5
AD0E
330
AA4F
100
AcDbEntity
  8
SCHRAFF
100
AcDbCircle
 10
676.3295255082801
 20
895.1320976023524
 30
0.0
 40
3.811488253428933
100
AcDbArc
 50
242.0852241088091
 51
345.9147758911941
  0
ARC
  5
AD0F
330
AA4F
100
AcDbEntity
  8
SCHRAFF
100
AcDbCircle
 10
674.295842292901
 20
899.6998248905653
 30
0.0
 40
3.811488253428933
100
AcDbArc
 50
242.0852241088091
 51
345.9147758911941
  0
ARC
  5
AD10
330
AA4F
100
AcDbEntity
  8
SCHRAFF
100
AcDbCircle
 10
664.127426216006
 20
922.5384613316304
 30
0.0
 40
3.811488253428933
100
AcDbArc
 50
242.0852241088091
 51
345.9147758911941
  0
ARC
  5
AD11
330
AA4F
100
AcDbEntity
  8
SCHRAFF
100
AcDbCircle
 10
666.1611094313849
 20
917.9707340434173
 30
0.0
 40
3.811488253428933
100
AcDbArc
 50
242.0852241088091
 51
345.9147758911941
  0
ARC
  5
AD12
330
AA4F
100
AcDbEntity
  8
SCHRAFF
100
AcDbCircle
 10
668.1947926467639
 20
913.4030067552044
 30
0.0
 40
3.811488253428933
100
AcDbArc
 50
242.0852241088091
 51
345.9147758911941
  0
ARC
  5
AD13
330
AA4F
100
AcDbEntity
  8
SCHRAFF
100
AcDbCircle
 10
670.228475862143
 20
908.8352794669914
 30
0.0
 40
3.811488253428933
100
AcDbArc
 50
242.0852241088091
 51
345.9147758911941
  0
ARC
  5
AD14
330
AA4F
100
AcDbEntity
  8
SCHRAFF
100
AcDbCircle
 10
660.0600597852479
 20
931.6739159080563
 30
0.0
 40
3.811488253428933
100
AcDbArc
 50
242.0852241088091
 51
345.9147758911941
  0
ARC
  5
AD15
330
AA4F
100
AcDbEntity
  8
SCHRAFF
100
AcDbCircle
 10
662.093743000627
 20
927.1061886198435
 30
0.0
 40
3.811488253428933
100
AcDbArc
 50
242.0852241088091
 51
345.9147758911941
  0
ARC
  5
AD16
330
AA4F
100
AcDbEntity
  8
SCHRAFF
100
AcDbCircle
 10
655.9926933544899
 20
940.8093704844825
 30
0.0
 40
3.811488253428933
100
AcDbArc
 50
242.0852241088091
 51
345.9147758911941
  0
ARC
  5
AD17
330
AA4F
100
AcDbEntity
  8
SCHRAFF
100
AcDbCircle
 10
658.026376569869
 20
936.2416431962694
 30
0.0
 40
3.811488253428933
100
AcDbArc
 50
242.0852241088091
 51
345.9147758911941
  0
ARC
  5
AD18
330
AA4F
100
AcDbEntity
  8
SCHRAFF
100
AcDbCircle
 10
651.9253269237319
 20
949.9448250609082
 30
0.0
 40
3.811488253428933
100
AcDbArc
 50
242.0852241088091
 51
345.9147758911941
  0
ARC
  5
AD19
330
AA4F
100
AcDbEntity
  8
SCHRAFF
100
AcDbCircle
 10
647.8579604929739
 20
959.0802796373344
 30
0.0
 40
3.811488253428933
100
AcDbArc
 50
242.0852241088091
 51
345.9147758911941
  0
ARC
  5
AD1A
330
AA4F
100
AcDbEntity
  8
SCHRAFF
100
AcDbCircle
 10
649.8916437083529
 20
954.5125523491213
 30
0.0
 40
3.811488253428933
100
AcDbArc
 50
242.0852241088091
 51
345.9147758911941
  0
ARC
  5
AD1B
330
AA4F
100
AcDbEntity
  8
SCHRAFF
100
AcDbCircle
 10
645.824277277595
 20
963.6480069255474
 30
0.0
 40
3.811488253428933
100
AcDbArc
 50
242.0852241088091
 51
345.9147758911941
  0
ARC
  5
AD1C
330
AA4F
100
AcDbEntity
  8
SCHRAFF
100
AcDbCircle
 10
653.9590101391109
 20
945.3770977726952
 30
0.0
 40
3.811488253428933
100
AcDbArc
 50
242.0852241088091
 51
345.9147758911941
  0
ARC
  5
AD1D
330
AA4F
100
AcDbEntity
  8
SCHRAFF
100
AcDbCircle
 10
641.7569108468369
 20
972.7834615019734
 30
0.0
 40
3.811488253428933
100
AcDbArc
 50
242.0852241088091
 51
345.9147758911941
  0
ARC
  5
AD1E
330
AA4F
100
AcDbEntity
  8
SCHRAFF
100
AcDbCircle
 10
639.723227631458
 20
977.3511887901863
 30
0.0
 40
3.811488253428933
100
AcDbArc
 50
242.0852241088091
 51
345.9147758911941
  0
ARC
  5
AD1F
330
AA4F
100
AcDbEntity
  8
SCHRAFF
100
AcDbCircle
 10
643.7905940622159
 20
968.2157342137603
 30
0.0
 40
3.811488253428933
100
AcDbArc
 50
242.0852241088091
 51
345.9147758911941
  0
ARC
  5
AD20
330
AA4F
100
AcDbEntity
  8
SCHRAFF
100
AcDbCircle
 10
672.262159077522
 20
904.2675521787783
 30
0.0
 40
3.811488253428933
100
AcDbArc
 50
242.0852241088091
 51
345.9147758911941
  0
ARC
  5
AD21
330
AA4F
100
AcDbEntity
  8
SCHRAFF
100
AcDbCircle
 10
694.6326744466908
 20
854.0225520084353
 30
0.0
 40
3.811488253428933
100
AcDbArc
 50
242.0852241088091
 51
345.9147758911941
  0
ARC
  5
AD22
330
AA4F
100
AcDbEntity
  8
SCHRAFF
100
AcDbCircle
 10
680.3968919390379
 20
885.9966430259262
 30
0.0
 40
3.811488253428933
100
AcDbArc
 50
242.0852241088091
 51
345.9147758911941
  0
ARC
  5
AD23
330
AA4F
100
AcDbEntity
  8
SCHRAFF
100
AcDbCircle
 10
678.3632087236587
 20
890.5643703141393
 30
0.0
 40
3.811488253428933
100
AcDbArc
 50
242.0852241088091
 51
345.9147758911941
  0
ARC
  5
AD24
330
AA4F
100
AcDbEntity
  8
SCHRAFF
100
AcDbCircle
 10
684.4642583697958
 20
876.8611884495005
 30
0.0
 40
3.811488253428933
100
AcDbArc
 50
242.0852241088091
 51
345.9147758911941
  0
ARC
  5
AD25
330
AA4F
100
AcDbEntity
  8
SCHRAFF
100
AcDbCircle
 10
682.4305751544168
 20
881.4289157377134
 30
0.0
 40
3.811488253428933
100
AcDbArc
 50
242.0852241088091
 51
345.9147758911941
  0
ARC
  5
AD26
330
AA4F
100
AcDbEntity
  8
SCHRAFF
100
AcDbCircle
 10
692.5989912313118
 20
858.5902792966484
 30
0.0
 40
3.811488253428933
100
AcDbArc
 50
242.0852241088091
 51
345.9147758911941
  0
ARC
  5
AD27
330
AA4F
100
AcDbEntity
  8
SCHRAFF
100
AcDbCircle
 10
690.5653080159328
 20
863.1580065848613
 30
0.0
 40
3.811488253428933
100
AcDbArc
 50
242.0852241088091
 51
345.9147758911941
  0
ARC
  5
AD28
330
AA4F
100
AcDbEntity
  8
SCHRAFF
100
AcDbCircle
 10
688.5316248005538
 20
867.7257338730743
 30
0.0
 40
3.811488253428933
100
AcDbArc
 50
242.0852241088091
 51
345.9147758911941
  0
ARC
  5
AD29
330
AA4F
100
AcDbEntity
  8
SCHRAFF
100
AcDbCircle
 10
686.4979415851749
 20
872.2934611612874
 30
0.0
 40
3.811488253428933
100
AcDbArc
 50
242.0852241088091
 51
345.9147758911941
  0
ARC
  5
AD2A
330
AA4F
100
AcDbEntity
  8
SCHRAFF
100
AcDbCircle
 10
696.6663576620699
 20
849.4548247202223
 30
0.0
 40
3.811488253428933
100
AcDbArc
 50
242.0852241088091
 51
345.9147758911941
  0
ARC
  5
AD2B
330
AA4F
100
AcDbEntity
  8
SCHRAFF
100
AcDbCircle
 10
698.7000408774489
 20
844.8870974320094
 30
0.0
 40
3.811488253428933
100
AcDbArc
 50
242.0852241088091
 51
345.9147758911941
  0
ARC
  5
AD2C
330
AA4F
100
AcDbEntity
  8
SCHRAFF
100
AcDbCircle
 10
533.8542377731539
 20
867.720640501526
 30
0.0
 40
3.811488253428933
100
AcDbArc
 50
286.085224108806
 51
29.91477589119093
  0
ARC
  5
AD2D
330
AA4F
100
AcDbEntity
  8
SCHRAFF
100
AcDbCircle
 10
543.1260763188218
 20
863.9745745673668
 30
0.0
 40
3.811488253428933
100
AcDbArc
 50
286.085224108806
 51
29.91477589119093
  0
ARC
  5
AD2E
330
AA4F
100
AcDbEntity
  8
SCHRAFF
100
AcDbCircle
 10
538.4901570459878
 20
865.8476075344463
 30
0.0
 40
3.811488253428933
100
AcDbArc
 50
286.085224108806
 51
29.91477589119093
  0
ARC
  5
AD2F
330
AA4F
100
AcDbEntity
  8
SCHRAFF
100
AcDbCircle
 10
552.3979148644897
 20
860.2285086332077
 30
0.0
 40
3.811488253428933
100
AcDbArc
 50
286.085224108806
 51
29.91477589119093
  0
ARC
  5
AD30
330
AA4F
100
AcDbEntity
  8
SCHRAFF
100
AcDbCircle
 10
547.7619955916558
 20
862.1015416002872
 30
0.0
 40
3.811488253428933
100
AcDbArc
 50
286.085224108806
 51
29.91477589119093
  0
ARC
  5
AD31
330
AA4F
100
AcDbEntity
  8
SCHRAFF
100
AcDbCircle
 10
561.6697534101576
 20
856.4824426990487
 30
0.0
 40
3.811488253428933
100
AcDbArc
 50
286.085224108806
 51
29.91477589119093
  0
ARC
  5
AD32
330
AA4F
100
AcDbEntity
  8
SCHRAFF
100
AcDbCircle
 10
557.0338341373237
 20
858.3554756661282
 30
0.0
 40
3.811488253428933
100
AcDbArc
 50
286.085224108806
 51
29.91477589119093
  0
ARC
  5
AD33
330
AA4F
100
AcDbEntity
  8
SCHRAFF
100
AcDbCircle
 10
570.9415919558255
 20
852.7363767648894
 30
0.0
 40
3.811488253428933
100
AcDbArc
 50
286.085224108806
 51
29.91477589119093
  0
ARC
  5
AD34
330
AA4F
100
AcDbEntity
  8
SCHRAFF
100
AcDbCircle
 10
566.3056726829916
 20
854.6094097319691
 30
0.0
 40
3.811488253428933
100
AcDbArc
 50
286.085224108806
 51
29.91477589119093
  0
ARC
  5
AD35
330
AA4F
100
AcDbEntity
  8
SCHRAFF
100
AcDbCircle
 10
580.2134305014933
 20
848.9903108307304
 30
0.0
 40
3.811488253428933
100
AcDbArc
 50
286.085224108806
 51
29.91477589119093
  0
ARC
  5
AD36
330
AA4F
100
AcDbEntity
  8
SCHRAFF
100
AcDbCircle
 10
575.5775112286594
 20
850.8633437978099
 30
0.0
 40
3.811488253428933
100
AcDbArc
 50
286.085224108806
 51
29.91477589119093
  0
ARC
  5
AD37
330
AA4F
100
AcDbEntity
  8
SCHRAFF
100
AcDbCircle
 10
589.4852690471613
 20
845.2442448965713
 30
0.0
 40
3.811488253428933
100
AcDbArc
 50
286.085224108806
 51
29.91477589119093
  0
ARC
  5
AD38
330
AA4F
100
AcDbEntity
  8
SCHRAFF
100
AcDbCircle
 10
584.8493497743272
 20
847.1172778636509
 30
0.0
 40
3.811488253428933
100
AcDbArc
 50
286.085224108806
 51
29.91477589119093
  0
ARC
  5
AD39
330
AA4F
100
AcDbEntity
  8
SCHRAFF
100
AcDbCircle
 10
598.7571075928291
 20
841.4981789624121
 30
0.0
 40
3.811488253428933
100
AcDbArc
 50
286.085224108806
 51
29.91477589119093
  0
ARC
  5
AD3A
330
AA4F
100
AcDbEntity
  8
SCHRAFF
100
AcDbCircle
 10
594.1211883199952
 20
843.3712119294918
 30
0.0
 40
3.811488253428933
100
AcDbArc
 50
286.085224108806
 51
29.91477589119093
  0
ARC
  5
AD3B
330
AA4F
100
AcDbEntity
  8
SCHRAFF
100
AcDbCircle
 10
608.0289461384969
 20
837.7521130282529
 30
0.0
 40
3.811488253428933
100
AcDbArc
 50
286.085224108806
 51
29.91477589119093
  0
ARC
  5
AD3C
330
AA4F
100
AcDbEntity
  8
SCHRAFF
100
AcDbCircle
 10
603.393026865663
 20
839.6251459953326
 30
0.0
 40
3.811488253428933
100
AcDbArc
 50
286.085224108806
 51
29.91477589119093
  0
ARC
  5
AD3D
330
AA4F
100
AcDbEntity
  8
SCHRAFF
100
AcDbCircle
 10
617.3007846841649
 20
834.0060470940938
 30
0.0
 40
3.811488253428933
100
AcDbArc
 50
286.085224108806
 51
29.91477589119093
  0
ARC
  5
AD3E
330
AA4F
100
AcDbEntity
  8
SCHRAFF
100
AcDbCircle
 10
612.664865411331
 20
835.8790800611734
 30
0.0
 40
3.811488253428933
100
AcDbArc
 50
286.085224108806
 51
29.91477589119093
  0
ARC
  5
AD3F
330
AA4F
100
AcDbEntity
  8
SCHRAFF
100
AcDbCircle
 10
626.5726232298327
 20
830.2599811599348
 30
0.0
 40
3.811488253428933
100
AcDbArc
 50
286.085224108806
 51
29.91477589119093
  0
ARC
  5
AD40
330
AA4F
100
AcDbEntity
  8
SCHRAFF
100
AcDbCircle
 10
621.9367039569988
 20
832.1330141270143
 30
0.0
 40
3.811488253428933
100
AcDbArc
 50
286.085224108806
 51
29.91477589119093
  0
ARC
  5
AD41
330
AA4F
100
AcDbEntity
  8
SCHRAFF
100
AcDbCircle
 10
631.2085425026666
 20
828.3869481928553
 30
0.0
 40
3.811488253428933
100
AcDbArc
 50
286.085224108806
 51
29.91477589119093
  0
ARC
  5
AD42
330
AA4F
100
AcDbEntity
  8
SCHRAFF
100
AcDbCircle
 10
635.8444617755006
 20
826.5139152257756
 30
0.0
 40
3.811488253428933
100
AcDbArc
 50
286.085224108806
 51
29.91477589119093
  0
ARC
  5
AD43
330
AA4F
100
AcDbEntity
  8
SCHRAFF
100
AcDbCircle
 10
640.4803810483346
 20
824.640882258696
 30
0.0
 40
3.811488253428933
100
AcDbArc
 50
286.085224108806
 51
29.91477589119093
  0
ARC
  5
AD44
330
AA4F
100
AcDbEntity
  8
SCHRAFF
100
AcDbCircle
 10
668.2958966853381
 20
813.4026844562185
 30
0.0
 40
3.811488253428933
100
AcDbArc
 50
286.085224108806
 51
29.91477589119093
  0
ARC
  5
AD45
330
AA4F
100
AcDbEntity
  8
SCHRAFF
100
AcDbCircle
 10
663.6599774125041
 20
815.2757174232981
 30
0.0
 40
3.811488253428933
100
AcDbArc
 50
286.085224108806
 51
29.91477589119093
  0
ARC
  5
AD46
330
AA4F
100
AcDbEntity
  8
SCHRAFF
100
AcDbCircle
 10
659.0240581396701
 20
817.1487503903776
 30
0.0
 40
3.811488253428933
100
AcDbArc
 50
286.085224108806
 51
29.91477589119093
  0
ARC
  5
AD47
330
AA4F
100
AcDbEntity
  8
SCHRAFF
100
AcDbCircle
 10
649.7522195940023
 20
820.8948163245368
 30
0.0
 40
3.811488253428933
100
AcDbArc
 50
286.085224108806
 51
29.91477589119093
  0
ARC
  5
AD48
330
AA4F
100
AcDbEntity
  8
SCHRAFF
100
AcDbCircle
 10
654.3881388668362
 20
819.0217833574573
 30
0.0
 40
3.811488253428933
100
AcDbArc
 50
286.085224108806
 51
29.91477589119093
  0
ARC
  5
AD49
330
AA4F
100
AcDbEntity
  8
SCHRAFF
100
AcDbCircle
 10
645.1163003211684
 20
822.7678492916163
 30
0.0
 40
3.811488253428933
100
AcDbArc
 50
286.085224108806
 51
29.91477589119093
  0
ENDSEC
  0
SECTION
  2
OBJECTS
  0
DICTIONARY
  5
AA3B
330
0
100
AcDbDictionary
281
     1
  3
ACAD_COLOR
350
AA4A
  3
ACAD_GROUP
350
AA3C
  3
ACAD_LAYOUT
350
AA48
  3
ACAD_MATERIAL
350
AA49
  3
ACAD_MLINESTYLE
350
AA45
  3
ACAD_PLOTSETTINGS
350
AA47
  3
ACAD_PLOTSTYLENAME
350
AA3D
  3
AcDbVariableDictionary
350
ABAC
  0
DICTIONARY
  5
AC87
330
AC7A
100
AcDbDictionary
280
     1
281
     1
  3
ACAD_DIMASSOC
360
AC91
  0
DICTIONARY
  5
AC9F
330
AC92
100
AcDbDictionary
280
     1
281
     1
  3
ACAD_DIMASSOC
360
ACA9
  0
DICTIONARY
  5
ACD3
330
ACC5
100
AcDbDictionary
280
     1
281
     1
  3
ACAD_DIMASSOC
360
ACDE
  0
DICTIONARY
  5
AA4A
102
{ACAD_REACTORS
330
AA3B
102
}
330
AA3B
100
AcDbDictionary
281
     1
  0
DICTIONARY
  5
AA3C
102
{ACAD_REACTORS
330
AA3B
102
}
330
AA3B
100
AcDbDictionary
281
     1
  0
DICTIONARY
  5
AA48
102
{ACAD_REACTORS
330
AA3B
102
}
330
AA3B
100
AcDbDictionary
281
     1
  3
Layout1
350
AA4E
  3
Model
350
AA52
  0
DICTIONARY
  5
AA49
102
{ACAD_REACTORS
330
AA3B
102
}
330
AA3B
100
AcDbDictionary
281
     1
  0
DICTIONARY
  5
AA45
102
{ACAD_REACTORS
330
AA3B
102
}
330
AA3B
100
AcDbDictionary
281
     1
  3
Standard
350
AA46
  0
DICTIONARY
  5
AA47
102
{ACAD_REACTORS
330
AA3B
102
}
330
AA3B
100
AcDbDictionary
281
     1
  0
ACDBDICTIONARYWDFLT
  5
AA3D
102
{ACAD_REACTORS
330
AA3B
102
}
330
AA3B
100
AcDbDictionary
281
     1
  3
Normal
350
AA3E
100
AcDbDictionaryWithDefault
340
AA3E
  0
DICTIONARY
  5
ABAC
102
{ACAD_REACTORS
330
AA3B
102
}
330
AA3B
100
AcDbDictionary
281
     1
  3
DIMASSOC
350
ABAE
  3
HIDETEXT
350
ABAD
  3
PROJECTNAME
350
ABAF
  0
DIMASSOC
  5
AC91
102
{ACAD_REACTORS
330
AC87
102
}
330
AC87
100
AcDbDimAssoc
330
AC7A
 90
        3
 70
     0
 71
     0
  1
AcDbOsnapPointRef
 72
     1
331
332
 73
     2
 91
        0
 40
1.0
 10
0.0
 20
0.0
 30
2.000000000000000E+50
 75
     0
  1
AcDbOsnapPointRef
 72
    13
331
F2F
 73
     2
 91
        0
 40
0.0
 10
0.0
 20
0.0
 30
2.000000000000000E+50
 75
     0
  0
DIMASSOC
  5
ACA9
102
{ACAD_REACTORS
330
AC9F
102
}
330
AC9F
100
AcDbDimAssoc
330
AC92
 90
        3
 70
     0
 71
     0
  1
AcDbOsnapPointRef
 72
    13
331
35A
 73
     2
 91
        0
 40
0.0
 10
0.0
 20
0.0
 30
2.000000000000000E+50
 75
     0
  1
AcDbOsnapPointRef
 72
     1
331
359
 73
     2
 91
        0
 40
1.0
 10
0.0
 20
0.0
 30
2.000000000000000E+50
 75
     0
  0
DIMASSOC
  5
ACDE
102
{ACAD_REACTORS
330
ACD3
102
}
330
ACD3
100
AcDbDimAssoc
330
ACC5
 90
       15
 70
     0
 71
     0
  1
AcDbOsnapPointRef
 72
    13
331
35A
 73
     2
 91
        0
 40
0.0
 10
0.0
 20
0.0
 30
2.000000000000000E+50
 75
     0
  1
AcDbOsnapPointRef
 72
     1
331
35A
 73
     2
 91
        0
 40
1.0
 10
0.0
 20
0.0
 30
2.000000000000000E+50
 75
     0
  1
AcDbOsnapPointRef
 72
    13
331
F2F
 73
     2
 91
        0
 40
0.0
 10
0.0
 20
0.0
 30
2.000000000000000E+50
 75
     0
  1
AcDbOsnapPointRef
 72
     1
331
F2F
 73
     2
 91
        0
 40
1.0
 10
0.0
 20
0.0
 30
2.000000000000000E+50
 75
     0
  0
LAYOUT
  5
AA4E
102
{ACAD_REACTORS
330
AA48
102
}
330
AA48
100
AcDbPlotSettings
  1

  2
RICOH Aficio 2027 PCL 6
  4

  6

 40
0.0
 41
0.0
 42
0.0
 43
0.0
 44
0.0
 45
0.0
 46
0.0
 47
0.0
 48
0.0
 49
0.0
140
0.0
141
0.0
142
1.0
143
1.0
 70
   688
 72
     0
 73
     0
 74
     5
  7
monochrome1.ctb
 75
    16
147
1.0
 76
     0
 77
     2
 78
   300
148
0.0
149
0.0
100
AcDbLayout
  1
Layout1
 70
     0
 71
     1
 10
0.0
 20
0.0
 11
12.0
 21
9.0
 12
0.0
 22
0.0
 32
0.0
 14
1.000000000000000E+20
 24
1.000000000000000E+20
 34
1.000000000000000E+20
 15
-1.000000000000000E+20
 25
-1.000000000000000E+20
 35
-1.000000000000000E+20
146
0.0
 13
0.0
 23
0.0
 33
0.0
 16
1.0
 26
0.0
 36
0.0
 17
0.0
 27
1.0
 37
0.0
 76
     0
330
AA4B
  0
LAYOUT
  5
AA52
102
{ACAD_REACTORS
330
AA48
102
}
330
AA48
100
AcDbPlotSettings
  1

  2
RICOH Aficio 2027 PCL 6
  4
A4
  6

 40
5.027083396911621
 41
5.027085304260253
 42
5.027084350585937
 43
5.027069091796875
 44
209.9733276367187
 45
296.9259948730469
 46
0.0
 47
0.0
 48
0.0
 49
0.0
140
0.0
141
0.0
142
1.0
143
1.0
 70
 11952
 72
     0
 73
     1
 74
     0
  7
monochrome1.ctb
 75
     0
147
1.0
 76
     0
 77
     2
 78
   300
148
5756.851871210684
149
232.3518454851996
100
AcDbLayout
  1
Model
 70
     1
 71
     0
 10
0.0
 20
0.0
 11
12.0
 21
9.0
 12
0.0
 22
0.0
 32
0.0
 14
0.0
 24
0.0
 34
0.0
 15
0.0
 25
0.0
 35
0.0
146
0.0
 13
0.0
 23
0.0
 33
0.0
 16
1.0
 26
0.0
 36
0.0
 17
0.0
 27
1.0
 37
0.0
 76
     0
330
AA4F
  0
MLINESTYLE
  5
AA46
102
{ACAD_REACTORS
330
AA45
102
}
330
AA45
100
AcDbMlineStyle
  2
STANDARD
 70
     0
  3

 62
   256
 51
90.0
 52
90.0
 71
     2
 49
0.5
 62
   256
  6
BYLAYER
 49
-0.5
 62
   256
  6
BYLAYER
  0
ACDBPLACEHOLDER
  5
AA3E
102
{ACAD_REACTORS
330
AA3D
102
}
330
AA3D
  0
DICTIONARYVAR
  5
ABAE
102
{ACAD_REACTORS
330
ABAC
102
}
330
ABAC
100
DictionaryVariables
280
     0
  1
2
  0
DICTIONARYVAR
  5
ABAD
102
{ACAD_REACTORS
330
ABAC
102
}
330
ABAC
100
DictionaryVariables
280
     0
  1
1
  0
DICTIONARYVAR
  5
ABAF
102
{ACAD_REACTORS
330
ABAC
102
}
330
ABAC
100
DictionaryVariables
280
     0
  1

  0
ENDSEC
  0
EOF
