  0
SECTION
  2
HEADER
  9
$ACADVER
  1
AC1018
  9
$ACADMAINTVER
 70
     2
  9
$DWGCODEPAGE
  3
ANSI_1252
  9
$INSBASE
 10
0.0
 20
0.0
 30
0.0
  9
$EXTMIN
 10
-0.0160104821884488
 20
-0.022643396237072
 30
-0.0000000000112498
  9
$EXTMAX
 10
1050.016025151412
 20
1485.022664142714
 30
0.0000000000002956
  9
$LIMMIN
 10
0.0
 20
0.0
  9
$LIMMAX
 10
1050.0
 20
1485.0
  9
$ORTHOMODE
 70
     1
  9
$REGENMODE
 70
     1
  9
$FILLMODE
 70
     1
  9
$QTEXTMODE
 70
     0
  9
$MIRRTEXT
 70
     1
  9
$LTSCALE
 40
50.0
  9
$ATTMODE
 70
     1
  9
$TEXTSIZE
 40
2.5
  9
$TRACEWID
 40
0.5
  9
$TEXTSTYLE
  7
GREEKS
  9
$CLAYER
  8
BEM
  9
$CELTYPE
  6
ByLayer
  9
$CECOLOR
 62
   256
  9
$CELTSCALE
 40
1.0
  9
$DISPSILH
 70
     0
  9
$DIMSCALE
 40
5.0
  9
$DIMASZ
 40
3.5
  9
$DIMEXO
 40
1.0
  9
$DIMDLI
 40
7.0
  9
$DIMRND
 40
0.0
  9
$DIMDLE
 40
0.0
  9
$DIMEXE
 40
1.0
  9
$DIMTP
 40
1.6
  9
$DIMTM
 40
1.6
  9
$DIMTXT
 40
3.5
  9
$DIMCEN
 40
1.5
  9
$DIMTSZ
 40
0.0
  9
$DIMTOL
 70
     0
  9
$DIMLIM
 70
     0
  9
$DIMTIH
 70
     0
  9
$DIMTOH
 70
     0
  9
$DIMSE1
 70
     0
  9
$DIMSE2
 70
     0
  9
$DIMTAD
 70
     1
  9
$DIMZIN
 70
     8
  9
$DIMBLK
  1

  9
$DIMASO
 70
     1
  9
$DIMSHO
 70
     0
  9
$DIMPOST
  1

  9
$DIMAPOST
  1

  9
$DIMALT
 70
     0
  9
$DIMALTD
 70
     2
  9
$DIMALTF
 40
25.4
  9
$DIMLFAC
 40
1.0
  9
$DIMTOFL
 70
     1
  9
$DIMTVP
 40
0.0
  9
$DIMTIX
 70
     0
  9
$DIMSOXD
 70
     0
  9
$DIMSAH
 70
     0
  9
$DIMBLK1
  1

  9
$DIMBLK2
  1

  9
$DIMSTYLE
  2
Standard
  9
$DIMCLRD
 70
     0
  9
$DIMCLRE
 70
     0
  9
$DIMCLRT
 70
     1
  9
$DIMTFAC
 40
0.5
  9
$DIMGAP
 40
1.5
  9
$DIMJUST
 70
     0
  9
$DIMSD1
 70
     0
  9
$DIMSD2
 70
     0
  9
$DIMTOLJ
 70
     1
  9
$DIMTZIN
 70
     8
  9
$DIMALTZ
 70
     8
  9
$DIMALTTZ
 70
     8
  9
$DIMUPT
 70
     0
  9
$DIMDEC
 70
     2
  9
$DIMTDEC
 70
     2
  9
$DIMALTU
 70
     2
  9
$DIMALTTD
 70
     2
  9
$DIMTXSTY
  7
GREEKS
  9
$DIMAUNIT
 70
     0
  9
$DIMADEC
 70
     2
  9
$DIMALTRND
 40
0.0
  9
$DIMAZIN
 70
     2
  9
$DIMDSEP
 70
    46
  9
$DIMATFIT
 70
     3
  9
$DIMFRAC
 70
     0
  9
$DIMLDRBLK
  1

  9
$DIMLUNIT
 70
     2
  9
$DIMLWD
 70
    -2
  9
$DIMLWE
 70
    -2
  9
$DIMTMOVE
 70
     0
  9
$LUNITS
 70
     2
  9
$LUPREC
 70
     2
  9
$SKETCHINC
 40
1.0
  9
$FILLETRAD
 40
0.0
  9
$AUNITS
 70
     0
  9
$AUPREC
 70
     0
  9
$MENU
  1
ACAD
  9
$ELEVATION
 40
0.0
  9
$PELEVATION
 40
0.0
  9
$THICKNESS
 40
0.0
  9
$LIMCHECK
 70
     0
  9
$CHAMFERA
 40
0.0
  9
$CHAMFERB
 40
0.0
  9
$CHAMFERC
 40
0.0
  9
$CHAMFERD
 40
0.0
  9
$SKPOLY
 70
     0
  9
$TDCREATE
 40
2452216.013353704
  9
$TDUCREATE
 40
2452215.930020371
  9
$TDUPDATE
 40
2455657.581294456
  9
$TDUUPDATE
 40
2455657.497961123
  9
$TDINDWG
 40
0.0672141204
  9
$TDUSRTIMER
 40
0.0672141204
  9
$USRTIMER
 70
     1
  9
$ANGBASE
 50
0.0
  9
$ANGDIR
 70
     0
  9
$PDMODE
 70
     0
  9
$PDSIZE
 40
0.0
  9
$PLINEWID
 40
0.0
  9
$SPLFRAME
 70
     0
  9
$SPLINETYPE
 70
     6
  9
$SPLINESEGS
 70
     8
  9
$HANDSEED
  5
3D8
  9
$SURFTAB1
 70
     6
  9
$SURFTAB2
 70
     6
  9
$SURFTYPE
 70
     6
  9
$SURFU
 70
     6
  9
$SURFV
 70
     6
  9
$UCSBASE
  2

  9
$UCSNAME
  2

  9
$UCSORG
 10
0.0
 20
0.0
 30
0.0
  9
$UCSXDIR
 10
1.0
 20
0.0
 30
0.0
  9
$UCSYDIR
 10
0.0
 20
1.0
 30
0.0
  9
$UCSORTHOREF
  2

  9
$UCSORTHOVIEW
 70
     0
  9
$UCSORGTOP
 10
0.0
 20
0.0
 30
0.0
  9
$UCSORGBOTTOM
 10
0.0
 20
0.0
 30
0.0
  9
$UCSORGLEFT
 10
0.0
 20
0.0
 30
0.0
  9
$UCSORGRIGHT
 10
0.0
 20
0.0
 30
0.0
  9
$UCSORGFRONT
 10
0.0
 20
0.0
 30
0.0
  9
$UCSORGBACK
 10
0.0
 20
0.0
 30
0.0
  9
$PUCSBASE
  2

  9
$PUCSNAME
  2

  9
$PUCSORG
 10
0.0
 20
0.0
 30
0.0
  9
$PUCSXDIR
 10
1.0
 20
0.0
 30
0.0
  9
$PUCSYDIR
 10
0.0
 20
1.0
 30
0.0
  9
$PUCSORTHOREF
  2

  9
$PUCSORTHOVIEW
 70
     0
  9
$PUCSORGTOP
 10
0.0
 20
0.0
 30
0.0
  9
$PUCSORGBOTTOM
 10
0.0
 20
0.0
 30
0.0
  9
$PUCSORGLEFT
 10
0.0
 20
0.0
 30
0.0
  9
$PUCSORGRIGHT
 10
0.0
 20
0.0
 30
0.0
  9
$PUCSORGFRONT
 10
0.0
 20
0.0
 30
0.0
  9
$PUCSORGBACK
 10
0.0
 20
0.0
 30
0.0
  9
$USERI1
 70
     0
  9
$USERI2
 70
     0
  9
$USERI3
 70
     0
  9
$USERI4
 70
     0
  9
$USERI5
 70
     0
  9
$USERR1
 40
0.0
  9
$USERR2
 40
0.0
  9
$USERR3
 40
0.0
  9
$USERR4
 40
0.0
  9
$USERR5
 40
0.0
  9
$WORLDVIEW
 70
     1
  9
$SHADEDGE
 70
     3
  9
$SHADEDIF
 70
    70
  9
$TILEMODE
 70
     1
  9
$MAXACTVP
 70
    16
  9
$PINSBASE
 10
0.0
 20
0.0
 30
0.0
  9
$PLIMCHECK
 70
     0
  9
$PEXTMIN
 10
1.000000000000000E+20
 20
1.000000000000000E+20
 30
1.000000000000000E+20
  9
$PEXTMAX
 10
-1.000000000000000E+20
 20
-1.000000000000000E+20
 30
-1.000000000000000E+20
  9
$PLIMMIN
 10
0.0
 20
0.0
  9
$PLIMMAX
 10
12.0
 20
9.0
  9
$UNITMODE
 70
     0
  9
$VISRETAIN
 70
     0
  9
$PLINEGEN
 70
     0
  9
$PSLTSCALE
 70
     0
  9
$TREEDEPTH
 70
  3020
  9
$CMLSTYLE
  2
Standard
  9
$CMLJUST
 70
     0
  9
$CMLSCALE
 40
1.0
  9
$PROXYGRAPHICS
 70
     1
  9
$MEASUREMENT
 70
     0
  9
$CELWEIGHT
370
    -1
  9
$ENDCAPS
280
     0
  9
$JOINSTYLE
280
     0
  9
$LWDISPLAY
290
     0
  9
$INSUNITS
 70
     0
  9
$HYPERLINKBASE
  1

  9
$STYLESHEET
  1
monochrome 1.ctb
  9
$XEDIT
290
     1
  9
$CEPSNTYPE
380
     0
  9
$PSTYLEMODE
290
     1
  9
$FINGERPRINTGUID
  2
{78F11249-8855-4790-9FA6-DAB0D6177EA1}
  9
$VERSIONGUID
  2
{67C0B3D1-B714-44F6-AE8D-0DF41A67472D}
  9
$EXTNAMES
290
     1
  9
$PSVPSCALE
 40
0.0
  9
$OLESTARTUP
290
     0
  9
$SORTENTS
280
   127
  9
$INDEXCTL
280
     0
  9
$HIDETEXT
280
     1
  9
$XCLIPFRAME
290
     0
  9
$HALOGAP
280
     0
  9
$OBSCOLOR
 70
   257
  9
$OBSLTYPE
280
     0
  9
$INTERSECTIONDISPLAY
280
     0
  9
$INTERSECTIONCOLOR
 70
   257
  9
$DIMASSOC
280
     2
  9
$PROJECTNAME
  1

  0
ENDSEC
  0
SECTION
  2
CLASSES
  0
CLASS
  1
ACDBDICTIONARYWDFLT
  2
AcDbDictionaryWithDefault
  3
ObjectDBX Classes
 90
        0
 91
        1
280
     0
281
     0
  0
CLASS
  1
DIMASSOC
  2
AcDbDimAssoc
  3
"AcDbDimAssoc|Product Desc:     AcDim ARX App For Dimension|Company:          Autodesk, Inc.|WEB Address:      www.autodesk.com"
 90
        0
 91
        1
280
     0
281
     0
  0
CLASS
  1
DICTIONARYVAR
  2
AcDbDictionaryVar
  3
ObjectDBX Classes
 90
        0
 91
        3
280
     0
281
     0
  0
ENDSEC
  0
SECTION
  2
TABLES
  0
TABLE
  2
VPORT
  5
8
330
0
100
AcDbSymbolTable
 70
     3
  0
VPORT
  5
3D7
330
8
100
AcDbSymbolTableRecord
100
AcDbViewportTableRecord
  2
*Active
 70
     0
 10
0.0
 20
0.0
 11
1.0
 21
1.0
 12
524.9999999999998
 22
742.4999999999999
 13
0.0
 23
0.0
 14
1.0
 24
1.0
 15
10.0
 25
10.0
 16
0.0
 26
0.0
 36
1.0
 17
0.0
 27
0.0
 37
0.0
 40
1485.0
 41
1.334231805929919
 42
50.0
 43
0.0
 44
0.0
 50
0.0
 51
0.0
 71
     0
 72
  1500
 73
     1
 74
     0
 75
     0
 76
     0
 77
     0
 78
     0
281
     0
 65
     1
110
0.0
120
0.0
130
0.0
111
1.0
121
0.0
131
0.0
112
0.0
122
1.0
132
0.0
 79
     0
146
0.0
  0
ENDTAB
  0
TABLE
  2
LTYPE
  5
5
330
0
100
AcDbSymbolTable
 70
     2
  0
LTYPE
  5
13
330
5
100
AcDbSymbolTableRecord
100
AcDbLinetypeTableRecord
  2
ByBlock
 70
     0
  3

 72
    65
 73
     0
 40
0.0
  0
LTYPE
  5
14
330
5
100
AcDbSymbolTableRecord
100
AcDbLinetypeTableRecord
  2
ByLayer
 70
     0
  3

 72
    65
 73
     0
 40
0.0
  0
LTYPE
  5
15
330
5
100
AcDbSymbolTableRecord
100
AcDbLinetypeTableRecord
  2
Continuous
 70
     0
  3
Solid line
 72
    65
 73
     0
 40
0.0
  0
LTYPE
  5
36
330
5
100
AcDbSymbolTableRecord
100
AcDbLinetypeTableRecord
  2
STRICHPUNKT
 70
     0
  3
__ . __ . __ . __ . __ . __ . __ . __ . __ . __
 72
    65
 73
     4
 40
1.0
 49
0.5
 74
     0
 49
-0.25
 74
     0
 49
0.0
 74
     0
 49
-0.25
 74
     0
  0
ENDTAB
  0
TABLE
  2
LAYER
  5
2
330
0
100
AcDbSymbolTable
 70
     9
  0
LAYER
  5
10
330
2
100
AcDbSymbolTableRecord
100
AcDbLayerTableRecord
  2
0
 70
     0
 62
     7
  6
Continuous
370
    -3
390
F
  0
LAYER
  5
39
330
2
100
AcDbSymbolTableRecord
100
AcDbLayerTableRecord
  2
VOLL
 70
     0
 62
     1
  6
Continuous
370
    -3
390
F
  0
LAYER
  5
3A
330
2
100
AcDbSymbolTableRecord
100
AcDbLayerTableRecord
  2
HILF
 70
     0
 62
     2
  6
Continuous
370
    -3
390
F
  0
LAYER
  5
3B
330
2
100
AcDbSymbolTableRecord
100
AcDbLayerTableRecord
  2
MITTEL
 70
     0
 62
     2
  6
STRICHPUNKT
370
    -3
390
F
  0
LAYER
  5
3C
330
2
100
AcDbSymbolTableRecord
100
AcDbLayerTableRecord
  2
BEM
 70
     0
 62
     7
  6
Continuous
370
    -3
390
F
  0
LAYER
  5
3D
330
2
100
AcDbSymbolTableRecord
100
AcDbLayerTableRecord
  2
STEMPEL
 70
     0
 62
     3
  6
Continuous
370
    -3
390
F
  0
LAYER
  5
3E
330
2
100
AcDbSymbolTableRecord
100
AcDbLayerTableRecord
  2
TEXT
 70
     0
 62
     7
  6
Continuous
370
    -3
390
F
  0
LAYER
  5
3F
330
2
100
AcDbSymbolTableRecord
100
AcDbLayerTableRecord
  2
DEFPOINTS
 70
     0
 62
     7
  6
Continuous
290
     0
370
    -3
390
F
  0
LAYER
  5
40
330
2
100
AcDbSymbolTableRecord
100
AcDbLayerTableRecord
  2
SCHRAFF
 70
     0
 62
     7
  6
Continuous
370
    -3
390
F
  0
ENDTAB
  0
TABLE
  2
STYLE
  5
3
330
0
100
AcDbSymbolTable
 70
     2
  0
STYLE
  5
11
330
3
100
AcDbSymbolTableRecord
100
AcDbTextStyleTableRecord
  2
STANDARD
 70
     0
 40
0.0
 41
1.0
 50
0.0
 71
     0
 42
3.5
  3
txt
  4

  0
STYLE
  5
35
330
3
100
AcDbSymbolTableRecord
100
AcDbTextStyleTableRecord
  2
GREEKS
 70
     0
 40
0.0
 41
0.8
 50
0.0
 71
     0
 42
2.5
  3
SIMPLEX.shx
  4

  0
ENDTAB
  0
TABLE
  2
VIEW
  5
6
330
0
100
AcDbSymbolTable
 70
     0
  0
ENDTAB
  0
TABLE
  2
UCS
  5
7
330
0
100
AcDbSymbolTable
 70
     0
  0
ENDTAB
  0
TABLE
  2
APPID
  5
9
330
0
100
AcDbSymbolTable
 70
     1
  0
APPID
  5
12
330
9
100
AcDbSymbolTableRecord
100
AcDbRegAppTableRecord
  2
ACAD
 70
     0
  0
ENDTAB
  0
TABLE
  2
DIMSTYLE
  5
A
330
0
100
AcDbSymbolTable
 70
     1
100
AcDbDimStyleTable
 71
     1
340
26A
  0
DIMSTYLE
105
26A
102
{ACAD_REACTORS
330
178
330
260
330
27B
330
17A
330
261
330
186
102
}
330
A
100
AcDbSymbolTableRecord
100
AcDbDimStyleTableRecord
  2
Standard
 70
     0
340
11
  0
ENDTAB
  0
TABLE
  2
BLOCK_RECORD
  5
1
330
0
100
AcDbSymbolTable
 70
    16
  0
BLOCK_RECORD
  5
20
330
1
100
AcDbSymbolTableRecord
100
AcDbBlockTableRecord
  2
*Model_Space
340
23
  0
BLOCK_RECORD
  5
1C
330
1
100
AcDbSymbolTableRecord
100
AcDbBlockTableRecord
  2
*Paper_Space
340
1F
  0
BLOCK_RECORD
  5
24
330
1
100
AcDbSymbolTableRecord
100
AcDbBlockTableRecord
  2
LOGO
340
0
102
{BLKREFS
331
18C
102
}
  0
BLOCK_RECORD
  5
28
330
1
100
AcDbSymbolTableRecord
100
AcDbBlockTableRecord
  2
*X3
340
0
102
{BLKREFS
331
1EF
102
}
  0
BLOCK_RECORD
  5
29
330
1
100
AcDbSymbolTableRecord
100
AcDbBlockTableRecord
  2
*X4
340
0
102
{BLKREFS
331
225
102
}
  0
BLOCK_RECORD
  5
27C
330
1
100
AcDbSymbolTableRecord
100
AcDbBlockTableRecord
  2
*D7
340
0
  0
BLOCK_RECORD
  5
2F8
330
1
100
AcDbSymbolTableRecord
100
AcDbBlockTableRecord
  2
*D10
340
0
  0
BLOCK_RECORD
  5
304
330
1
100
AcDbSymbolTableRecord
100
AcDbBlockTableRecord
  2
*D11
340
0
  0
BLOCK_RECORD
  5
359
330
1
100
AcDbSymbolTableRecord
100
AcDbBlockTableRecord
  2
*D12
340
0
  0
BLOCK_RECORD
  5
371
330
1
100
AcDbSymbolTableRecord
100
AcDbBlockTableRecord
  2
*D14
340
0
  0
BLOCK_RECORD
  5
3C1
330
1
100
AcDbSymbolTableRecord
100
AcDbBlockTableRecord
  2
*D15
340
0
  0
ENDTAB
  0
ENDSEC
  0
SECTION
  2
BLOCKS
  0
BLOCK
  5
44
330
20
100
AcDbEntity
  8
0
100
AcDbBlockBegin
  2
*Model_Space
 70
     0
 10
0.0
 20
0.0
 30
0.0
  3
*Model_Space
  1

  0
ENDBLK
  5
45
330
20
100
AcDbEntity
  8
0
100
AcDbBlockEnd
  0
BLOCK
  5
42
330
1C
100
AcDbEntity
 67
     1
  8
0
100
AcDbBlockBegin
  2
*Paper_Space
 70
     0
 10
0.0
 20
0.0
 30
0.0
  3
*Paper_Space
  1

  0
ENDBLK
  5
43
330
1C
100
AcDbEntity
 67
     1
  8
0
100
AcDbBlockEnd
  0
BLOCK
  5
46
330
24
100
AcDbEntity
  8
0
100
AcDbBlockBegin
  2
LOGO
 70
     0
 10
0.0
 20
0.0
 30
0.0
  3
LOGO
  1

  0
ARC
  5
47
330
24
100
AcDbEntity
  8
0
100
AcDbCircle
 10
11.59973089678112
 20
-9.271599258481501
 30
0.0
 40
4.5
100
AcDbArc
 50
270.0
 51
231.0575587310159
  0
LINE
  5
48
330
24
100
AcDbEntity
  8
0
100
AcDbLine
 10
3.599730896781125
 20
-4.771599258481529
 30
0.0
 11
3.599730896781153
 21
-11.77159925848133
 31
0.0
  0
LINE
  5
49
330
24
100
AcDbEntity
  8
0
100
AcDbLine
 10
2.599730896781125
 20
-4.771599258481529
 30
0.0
 11
2.599730896781153
 21
-11.77159925848133
 31
0.0
  0
CIRCLE
  5
4A
330
24
100
AcDbEntity
  8
0
100
AcDbCircle
 10
11.59973089678112
 20
-9.271599258481501
 30
0.0
 40
3.5
  0
ARC
  5
4B
330
24
100
AcDbEntity
  8
0
100
AcDbCircle
 10
31.59973089678115
 20
-9.271599258481472
 30
0.0
 40
4.5
100
AcDbArc
 50
270.0
 51
231.0575587310182
  0
LINE
  5
4C
330
24
100
AcDbEntity
  8
0
100
AcDbLine
 10
17.59973089678112
 20
-4.771599258481472
 30
0.0
 11
17.59973089678115
 21
-13.77159925848147
 31
0.0
  0
ARC
  5
4D
330
24
100
AcDbEntity
  8
0
100
AcDbCircle
 10
22.59973089678116
 20
-7.271599258481472
 30
0.0
 40
2.5
100
AcDbArc
 50
293.1161887722295
 51
90.0
  0
CIRCLE
  5
4E
330
24
100
AcDbEntity
  8
0
100
AcDbCircle
 10
31.59973089678115
 20
-9.271599258481472
 30
0.0
 40
3.5
  0
ARC
  5
4F
330
24
100
AcDbEntity
  8
0
100
AcDbCircle
 10
4.599730896781153
 20
-11.77159925848133
 30
0.0
 40
1.0
100
AcDbArc
 50
180.0
 51
270.0
  0
ARC
  5
50
330
24
100
AcDbEntity
  8
0
100
AcDbCircle
 10
4.599730896781153
 20
-11.77159925848133
 30
0.0
 40
2.0
100
AcDbArc
 50
179.9999999999992
 51
270.0
  0
LINE
  5
51
330
24
100
AcDbEntity
  8
0
100
AcDbLine
 10
11.59973089678115
 20
-13.77159925848144
 30
0.0
 11
4.599730896781153
 21
-13.77159925848147
 31
0.0
  0
LINE
  5
52
330
24
100
AcDbEntity
  8
0
100
AcDbLine
 10
8.771303772034769
 20
-12.77159925848136
 30
0.0
 11
4.599730896781153
 21
-12.77159925848133
 31
0.0
  0
LINE
  5
53
330
24
100
AcDbEntity
  8
0
100
AcDbLine
 10
31.59973089678115
 20
-13.77159925848147
 30
0.0
 11
23.6715276665056
 21
-13.77159925848144
 31
0.0
  0
LINE
  5
54
330
24
100
AcDbEntity
  8
0
100
AcDbLine
 10
23.56565672307022
 20
-9.51278021337896
 30
0.0
 11
24.4388546544846
 21
-12.77159925848144
 31
0.0
  0
LINE
  5
55
330
24
100
AcDbEntity
  8
0
100
AcDbLine
 10
22.59973089678116
 20
-9.771599258481472
 30
0.0
 11
18.59973089678112
 21
-9.771599258481472
 31
0.0
  0
LINE
  5
56
330
24
100
AcDbEntity
  8
0
100
AcDbLine
 10
18.59973089678115
 20
-13.77159925848144
 30
0.0
 11
17.59973089678115
 21
-13.77159925848144
 31
0.0
  0
LINE
  5
57
330
24
100
AcDbEntity
  8
0
100
AcDbLine
 10
18.59973089678115
 20
-9.771599258481472
 30
0.0
 11
18.59973089678115
 21
-13.77159925848144
 31
0.0
  0
LINE
  5
58
330
24
100
AcDbEntity
  8
0
100
AcDbLine
 10
22.59973089678116
 20
-9.771599258481472
 30
0.0
 11
23.67152766650562
 21
-13.77159925848147
 31
0.0
  0
ARC
  5
59
330
24
100
AcDbEntity
  8
0
100
AcDbCircle
 10
22.59973089678116
 20
-7.271599258481472
 30
0.0
 40
2.5
100
AcDbArc
 50
270.0
 51
270.0000000000007
  0
LINE
  5
5A
330
24
100
AcDbEntity
  8
0
100
AcDbLine
 10
28.77130377203494
 20
-12.77159925848147
 30
0.0
 11
24.43885465448463
 21
-12.77159925848144
 31
0.0
  0
LINE
  5
5B
330
24
100
AcDbEntity
  8
0
100
AcDbLine
 10
3.599730896781125
 20
-4.771599258481472
 30
0.0
 11
2.599730896781125
 21
-4.771599258481472
 31
0.0
  0
LINE
  5
5C
330
24
100
AcDbEntity
  8
0
100
AcDbLine
 10
22.59973089678116
 20
-8.771599258481472
 30
0.0
 11
18.59973089678115
 21
-8.771599258481472
 31
0.0
  0
LINE
  5
5D
330
24
100
AcDbEntity
  8
0
100
AcDbLine
 10
22.59973089678116
 20
-5.771599258481472
 30
0.0
 11
18.59973089678115
 21
-5.771599258481472
 31
0.0
  0
LINE
  5
5E
330
24
100
AcDbEntity
  8
0
100
AcDbLine
 10
22.59973089678116
 20
-4.771599258481472
 30
0.0
 11
17.59973089678115
 21
-4.771599258481472
 31
0.0
  0
LINE
  5
5F
330
24
100
AcDbEntity
  8
0
100
AcDbLine
 10
18.59973089678115
 20
-5.771599258481472
 30
0.0
 11
18.59973089678115
 21
-8.771599258481472
 31
0.0
  0
ARC
  5
60
330
24
100
AcDbEntity
  8
0
100
AcDbCircle
 10
22.59973089678116
 20
-7.271599258481472
 30
0.0
 40
1.5
100
AcDbArc
 50
270.0
 51
90.0
  0
ENDBLK
  5
61
330
24
100
AcDbEntity
  8
0
100
AcDbBlockEnd
  0
BLOCK
  5
80
330
28
100
AcDbEntity
  8
0
100
AcDbBlockBegin
  2
*X3
 70
     1
 10
0.0
 20
0.0
 30
0.0
  3
*X3
  1

  0
LINE
  5
81
330
28
100
AcDbEntity
  8
0
 62
     0
100
AcDbLine
 10
617.0270108926757
 20
1010.7
 30
0.0
 11
620.0014605681578
 21
1010.7
 31
0.0
  0
LINE
  5
82
330
28
100
AcDbEntity
  8
0
 62
     0
100
AcDbLine
 10
617.0270108926757
 20
1010.8
 30
0.0
 11
620.1014605681578
 21
1010.8
 31
0.0
  0
LINE
  5
83
330
28
100
AcDbEntity
  8
0
 62
     0
100
AcDbLine
 10
617.0270108926757
 20
1010.9
 30
0.0
 11
620.2014605681577
 21
1010.9
 31
0.0
  0
LINE
  5
84
330
28
100
AcDbEntity
  8
0
 62
     0
100
AcDbLine
 10
617.0270108926757
 20
1011.0
 30
0.0
 11
620.3014605681577
 21
1011.0
 31
0.0
  0
LINE
  5
85
330
28
100
AcDbEntity
  8
0
 62
     0
100
AcDbLine
 10
617.0270108926757
 20
1011.1
 30
0.0
 11
620.4014605681577
 21
1011.1
 31
0.0
  0
LINE
  5
86
330
28
100
AcDbEntity
  8
0
 62
     0
100
AcDbLine
 10
617.0270108926757
 20
1011.2
 30
0.0
 11
620.5014605681578
 21
1011.2
 31
0.0
  0
LINE
  5
87
330
28
100
AcDbEntity
  8
0
 62
     0
100
AcDbLine
 10
617.0270108926757
 20
1011.3
 30
0.0
 11
620.6014605681578
 21
1011.3
 31
0.0
  0
LINE
  5
88
330
28
100
AcDbEntity
  8
0
 62
     0
100
AcDbLine
 10
617.0270108926757
 20
1011.4
 30
0.0
 11
620.7014605681578
 21
1011.4
 31
0.0
  0
LINE
  5
89
330
28
100
AcDbEntity
  8
0
 62
     0
100
AcDbLine
 10
617.0270108926757
 20
1011.5
 30
0.0
 11
620.8014605681577
 21
1011.5
 31
0.0
  0
LINE
  5
8A
330
28
100
AcDbEntity
  8
0
 62
     0
100
AcDbLine
 10
617.0270108926757
 20
1011.6
 30
0.0
 11
620.9014605681577
 21
1011.6
 31
0.0
  0
LINE
  5
8B
330
28
100
AcDbEntity
  8
0
 62
     0
100
AcDbLine
 10
617.0270108926757
 20
1011.7
 30
0.0
 11
621.0014605681577
 21
1011.7
 31
0.0
  0
LINE
  5
8C
330
28
100
AcDbEntity
  8
0
 62
     0
100
AcDbLine
 10
617.0270108926757
 20
1011.8
 30
0.0
 11
621.1014605681578
 21
1011.8
 31
0.0
  0
LINE
  5
8D
330
28
100
AcDbEntity
  8
0
 62
     0
100
AcDbLine
 10
617.0270108926757
 20
1011.9
 30
0.0
 11
621.2014605681578
 21
1011.9
 31
0.0
  0
LINE
  5
8E
330
28
100
AcDbEntity
  8
0
 62
     0
100
AcDbLine
 10
617.0270108926757
 20
1012.0
 30
0.0
 11
621.2376022967208
 21
1012.0
 31
0.0
  0
LINE
  5
8F
330
28
100
AcDbEntity
  8
0
 62
     0
100
AcDbLine
 10
617.0270108926757
 20
1012.1
 30
0.0
 11
621.1336141163537
 21
1012.1
 31
0.0
  0
LINE
  5
90
330
28
100
AcDbEntity
  8
0
 62
     0
100
AcDbLine
 10
617.0270108926757
 20
1012.2
 30
0.0
 11
621.0244225679509
 21
1012.2
 31
0.0
  0
LINE
  5
91
330
28
100
AcDbEntity
  8
0
 62
     0
100
AcDbLine
 10
617.0270108926757
 20
1012.3
 30
0.0
 11
620.9095886660795
 21
1012.3
 31
0.0
  0
LINE
  5
92
330
28
100
AcDbEntity
  8
0
 62
     0
100
AcDbLine
 10
617.0270108926757
 20
1012.4
 30
0.0
 11
620.7885956958448
 21
1012.4
 31
0.0
  0
LINE
  5
93
330
28
100
AcDbEntity
  8
0
 62
     0
100
AcDbLine
 10
617.0270108926757
 20
1012.5
 30
0.0
 11
620.6608284852823
 21
1012.5
 31
0.0
  0
LINE
  5
94
330
28
100
AcDbEntity
  8
0
 62
     0
100
AcDbLine
 10
617.0270108926757
 20
1012.6
 30
0.0
 11
620.5255449229862
 21
1012.6
 31
0.0
  0
LINE
  5
95
330
28
100
AcDbEntity
  8
0
 62
     0
100
AcDbLine
 10
617.0270108926757
 20
1012.7
 30
0.0
 11
620.3818358398441
 21
1012.7
 31
0.0
  0
LINE
  5
96
330
28
100
AcDbEntity
  8
0
 62
     0
100
AcDbLine
 10
617.0270108926757
 20
1012.8
 30
0.0
 11
620.2285668411244
 21
1012.8
 31
0.0
  0
LINE
  5
97
330
28
100
AcDbEntity
  8
0
 62
     0
100
AcDbLine
 10
617.0270108926757
 20
1012.9
 30
0.0
 11
620.0642910173844
 21
1012.9
 31
0.0
  0
LINE
  5
98
330
28
100
AcDbEntity
  8
0
 62
     0
100
AcDbLine
 10
617.0270108926757
 20
1013.0
 30
0.0
 11
619.8871123980169
 21
1013.0
 31
0.0
  0
LINE
  5
99
330
28
100
AcDbEntity
  8
0
 62
     0
100
AcDbLine
 10
617.0270108926757
 20
1013.1
 30
0.0
 11
619.6944611144715
 21
1013.1
 31
0.0
  0
LINE
  5
9A
330
28
100
AcDbEntity
  8
0
 62
     0
100
AcDbLine
 10
617.0270108926757
 20
1013.2
 30
0.0
 11
619.4826983220245
 21
1013.2
 31
0.0
  0
LINE
  5
9B
330
28
100
AcDbEntity
  8
0
 62
     0
100
AcDbLine
 10
617.0270108926757
 20
1013.3
 30
0.0
 11
619.246360080065
 21
1013.3
 31
0.0
  0
LINE
  5
9C
330
28
100
AcDbEntity
  8
0
 62
     0
100
AcDbLine
 10
617.0270108926757
 20
1013.4
 30
0.0
 11
618.9765290076129
 21
1013.4
 31
0.0
  0
LINE
  5
9D
330
28
100
AcDbEntity
  8
0
 62
     0
100
AcDbLine
 10
617.0270108926757
 20
1013.5
 30
0.0
 11
618.656652247506
 21
1013.5
 31
0.0
  0
LINE
  5
9E
330
28
100
AcDbEntity
  8
0
 62
     0
100
AcDbLine
 10
617.0270108926757
 20
1013.6
 30
0.0
 11
618.2480108968839
 21
1013.6
 31
0.0
  0
LINE
  5
9F
330
28
100
AcDbEntity
  8
0
 62
     0
100
AcDbLine
 10
617.0270108926757
 20
1013.7
 30
0.0
 11
617.5801393363303
 21
1013.7
 31
0.0
  0
LINE
  5
A0
330
28
100
AcDbEntity
  8
0
 62
     0
100
AcDbLine
 10
617.0270108926757
 20
1010.6
 30
0.0
 11
619.9014605681577
 21
1010.6
 31
0.0
  0
LINE
  5
A1
330
28
100
AcDbEntity
  8
0
 62
     0
100
AcDbLine
 10
617.0270108926757
 20
1010.5
 30
0.0
 11
619.8014605681577
 21
1010.5
 31
0.0
  0
LINE
  5
A2
330
28
100
AcDbEntity
  8
0
 62
     0
100
AcDbLine
 10
617.0270108926757
 20
1010.4
 30
0.0
 11
619.7014605681578
 21
1010.4
 31
0.0
  0
LINE
  5
A3
330
28
100
AcDbEntity
  8
0
 62
     0
100
AcDbLine
 10
617.0270108926757
 20
1010.3
 30
0.0
 11
619.6014605681577
 21
1010.3
 31
0.0
  0
LINE
  5
A4
330
28
100
AcDbEntity
  8
0
 62
     0
100
AcDbLine
 10
617.0270108926757
 20
1010.2
 30
0.0
 11
619.5014605681578
 21
1010.2
 31
0.0
  0
LINE
  5
A5
330
28
100
AcDbEntity
  8
0
 62
     0
100
AcDbLine
 10
617.0270108926757
 20
1010.1
 30
0.0
 11
619.4014605681577
 21
1010.1
 31
0.0
  0
LINE
  5
A6
330
28
100
AcDbEntity
  8
0
 62
     0
100
AcDbLine
 10
617.0270108926757
 20
1010.0
 30
0.0
 11
619.3014605681577
 21
1010.0
 31
0.0
  0
LINE
  5
A7
330
28
100
AcDbEntity
  8
0
 62
     0
100
AcDbLine
 10
617.0270108926757
 20
1009.9
 30
0.0
 11
619.2014605681578
 21
1009.9
 31
0.0
  0
LINE
  5
A8
330
28
100
AcDbEntity
  8
0
 62
     0
100
AcDbLine
 10
617.0270108926757
 20
1009.8
 30
0.0
 11
619.1014605681577
 21
1009.8
 31
0.0
  0
LINE
  5
A9
330
28
100
AcDbEntity
  8
0
 62
     0
100
AcDbLine
 10
617.0270108926757
 20
1009.7
 30
0.0
 11
619.0014605681577
 21
1009.7
 31
0.0
  0
LINE
  5
AA
330
28
100
AcDbEntity
  8
0
 62
     0
100
AcDbLine
 10
617.0270108926757
 20
1009.6
 30
0.0
 11
618.9014605681578
 21
1009.6
 31
0.0
  0
LINE
  5
AB
330
28
100
AcDbEntity
  8
0
 62
     0
100
AcDbLine
 10
617.0270108926757
 20
1009.5
 30
0.0
 11
618.8014605681577
 21
1009.5
 31
0.0
  0
LINE
  5
AC
330
28
100
AcDbEntity
  8
0
 62
     0
100
AcDbLine
 10
617.0270108926757
 20
1009.4
 30
0.0
 11
618.7014605681578
 21
1009.4
 31
0.0
  0
LINE
  5
AD
330
28
100
AcDbEntity
  8
0
 62
     0
100
AcDbLine
 10
617.0270108926757
 20
1009.3
 30
0.0
 11
618.6014605681577
 21
1009.3
 31
0.0
  0
LINE
  5
AE
330
28
100
AcDbEntity
  8
0
 62
     0
100
AcDbLine
 10
617.0270108926757
 20
1009.2
 30
0.0
 11
618.5014605681577
 21
1009.2
 31
0.0
  0
LINE
  5
AF
330
28
100
AcDbEntity
  8
0
 62
     0
100
AcDbLine
 10
617.0270108926757
 20
1009.1
 30
0.0
 11
618.4014605681577
 21
1009.1
 31
0.0
  0
LINE
  5
B0
330
28
100
AcDbEntity
  8
0
 62
     0
100
AcDbLine
 10
617.0270108926757
 20
1009.0
 30
0.0
 11
618.3014605681577
 21
1009.0
 31
0.0
  0
LINE
  5
B1
330
28
100
AcDbEntity
  8
0
 62
     0
100
AcDbLine
 10
617.0270108926757
 20
1008.9
 30
0.0
 11
618.2014605681578
 21
1008.9
 31
0.0
  0
LINE
  5
B2
330
28
100
AcDbEntity
  8
0
 62
     0
100
AcDbLine
 10
617.0270108926757
 20
1008.8
 30
0.0
 11
618.1014605681578
 21
1008.8
 31
0.0
  0
LINE
  5
B3
330
28
100
AcDbEntity
  8
0
 62
     0
100
AcDbLine
 10
617.0270108926757
 20
1008.7
 30
0.0
 11
618.0014605681577
 21
1008.7
 31
0.0
  0
LINE
  5
B4
330
28
100
AcDbEntity
  8
0
 62
     0
100
AcDbLine
 10
617.0270108926757
 20
1008.6
 30
0.0
 11
617.9014605681577
 21
1008.6
 31
0.0
  0
LINE
  5
B5
330
28
100
AcDbEntity
  8
0
 62
     0
100
AcDbLine
 10
617.0270108926757
 20
1008.5
 30
0.0
 11
617.8014605681577
 21
1008.5
 31
0.0
  0
LINE
  5
B6
330
28
100
AcDbEntity
  8
0
 62
     0
100
AcDbLine
 10
617.0270108926757
 20
1008.4
 30
0.0
 11
617.7014605681578
 21
1008.4
 31
0.0
  0
LINE
  5
B7
330
28
100
AcDbEntity
  8
0
 62
     0
100
AcDbLine
 10
617.0270108926757
 20
1008.3
 30
0.0
 11
617.6014605681578
 21
1008.3
 31
0.0
  0
LINE
  5
B8
330
28
100
AcDbEntity
  8
0
 62
     0
100
AcDbLine
 10
617.0270108926757
 20
1008.2
 30
0.0
 11
617.5014605681577
 21
1008.2
 31
0.0
  0
LINE
  5
B9
330
28
100
AcDbEntity
  8
0
 62
     0
100
AcDbLine
 10
617.0270108926757
 20
1008.1
 30
0.0
 11
617.4014605681577
 21
1008.1
 31
0.0
  0
LINE
  5
BA
330
28
100
AcDbEntity
  8
0
 62
     0
100
AcDbLine
 10
617.0270108926757
 20
1008.0
 30
0.0
 11
617.3014605681577
 21
1008.0
 31
0.0
  0
LINE
  5
BB
330
28
100
AcDbEntity
  8
0
 62
     0
100
AcDbLine
 10
617.0270108926757
 20
1007.9
 30
0.0
 11
617.2014605681578
 21
1007.9
 31
0.0
  0
LINE
  5
BC
330
28
100
AcDbEntity
  8
0
 62
     0
100
AcDbLine
 10
617.0270108926757
 20
1007.8
 30
0.0
 11
617.1014605681578
 21
1007.8
 31
0.0
  0
ENDBLK
  5
BD
330
28
100
AcDbEntity
  8
0
100
AcDbBlockEnd
  0
BLOCK
  5
BE
330
29
100
AcDbEntity
  8
0
100
AcDbBlockBegin
  2
*X4
 70
     1
 10
0.0
 20
0.0
 30
0.0
  3
*X4
  1

  0
LINE
  5
BF
330
29
100
AcDbEntity
  8
0
 62
     0
100
AcDbLine
 10
617.027010892676
 20
782.4
 30
0.0
 11
618.9932074587613
 21
782.4
 31
0.0
  0
LINE
  5
C0
330
29
100
AcDbEntity
  8
0
 62
     0
100
AcDbLine
 10
617.027010892676
 20
782.5
 30
0.0
 11
619.0259349507087
 21
782.5
 31
0.0
  0
LINE
  5
C1
330
29
100
AcDbEntity
  8
0
 62
     0
100
AcDbLine
 10
617.027010892676
 20
782.6
 30
0.0
 11
619.056313581058
 21
782.6
 31
0.0
  0
LINE
  5
C2
330
29
100
AcDbEntity
  8
0
 62
     0
100
AcDbLine
 10
617.027010892676
 20
782.7
 30
0.0
 11
619.0843885088234
 21
782.7
 31
0.0
  0
LINE
  5
C3
330
29
100
AcDbEntity
  8
0
 62
     0
100
AcDbLine
 10
617.027010892676
 20
782.8000000000001
 30
0.0
 11
619.1102004443949
 21
782.8000000000001
 31
0.0
  0
LINE
  5
C4
330
29
100
AcDbEntity
  8
0
 62
     0
100
AcDbLine
 10
617.06141698548
 20
782.9000000000001
 30
0.0
 11
619.1337859741813
 21
782.9000000000001
 31
0.0
  0
LINE
  5
C5
330
29
100
AcDbEntity
  8
0
 62
     0
100
AcDbLine
 10
617.1614169854799
 20
783.0
 30
0.0
 11
619.1551778420967
 21
783.0
 31
0.0
  0
LINE
  5
C6
330
29
100
AcDbEntity
  8
0
 62
     0
100
AcDbLine
 10
617.2614169854799
 20
783.1
 30
0.0
 11
619.1744051933161
 21
783.1
 31
0.0
  0
LINE
  5
C7
330
29
100
AcDbEntity
  8
0
 62
     0
100
AcDbLine
 10
617.36141698548
 20
783.2
 30
0.0
 11
619.1914937848106
 21
783.2
 31
0.0
  0
LINE
  5
C8
330
29
100
AcDbEntity
  8
0
 62
     0
100
AcDbLine
 10
617.46141698548
 20
783.3000000000001
 30
0.0
 11
619.2064661664037
 21
783.3000000000001
 31
0.0
  0
LINE
  5
C9
330
29
100
AcDbEntity
  8
0
 62
     0
100
AcDbLine
 10
617.56141698548
 20
783.4000000000001
 30
0.0
 11
619.2193418354578
 21
783.4000000000001
 31
0.0
  0
LINE
  5
CA
330
29
100
AcDbEntity
  8
0
 62
     0
100
AcDbLine
 10
617.6614169854799
 20
783.4999999999999
 30
0.0
 11
619.230137367761
 21
783.4999999999999
 31
0.0
  0
LINE
  5
CB
330
29
100
AcDbEntity
  8
0
 62
     0
100
AcDbLine
 10
617.7614169854799
 20
783.6
 30
0.0
 11
619.2388665267253
 21
783.6
 31
0.0
  0
LINE
  5
CC
330
29
100
AcDbEntity
  8
0
 62
     0
100
AcDbLine
 10
617.86141698548
 20
783.7
 30
0.0
 11
619.2455403526158
 21
783.7
 31
0.0
  0
LINE
  5
CD
330
29
100
AcDbEntity
  8
0
 62
     0
100
AcDbLine
 10
617.96141698548
 20
783.8
 30
0.0
 11
619.2501672331823
 21
783.8
 31
0.0
  0
LINE
  5
CE
330
29
100
AcDbEntity
  8
0
 62
     0
100
AcDbLine
 10
618.06141698548
 20
783.9000000000001
 30
0.0
 11
619.2527529567645
 21
783.9000000000001
 31
0.0
  0
LINE
  5
CF
330
29
100
AcDbEntity
  8
0
 62
     0
100
AcDbLine
 10
618.1614169854799
 20
784.0
 30
0.0
 11
619.253300748657
 21
784.0
 31
0.0
  0
LINE
  5
D0
330
29
100
AcDbEntity
  8
0
 62
     0
100
AcDbLine
 10
618.2614169854799
 20
784.1
 30
0.0
 11
619.2518112912734
 21
784.1
 31
0.0
  0
LINE
  5
D1
330
29
100
AcDbEntity
  8
0
 62
     0
100
AcDbLine
 10
618.3614169854799
 20
784.2
 30
0.0
 11
619.2482827284042
 21
784.2
 31
0.0
  0
LINE
  5
D2
330
29
100
AcDbEntity
  8
0
 62
     0
100
AcDbLine
 10
618.46141698548
 20
784.3
 30
0.0
 11
619.2427106536284
 21
784.3
 31
0.0
  0
LINE
  5
D3
330
29
100
AcDbEntity
  8
0
 62
     0
100
AcDbLine
 10
618.56141698548
 20
784.4000000000001
 30
0.0
 11
619.2350880827128
 21
784.4000000000001
 31
0.0
  0
LINE
  5
D4
330
29
100
AcDbEntity
  8
0
 62
     0
100
AcDbLine
 10
618.6614169854799
 20
784.4999999999999
 30
0.0
 11
619.2254054095919
 21
784.4999999999999
 31
0.0
  0
LINE
  5
D5
330
29
100
AcDbEntity
  8
0
 62
     0
100
AcDbLine
 10
618.7614169854799
 20
784.6
 30
0.0
 11
619.2136503452762
 21
784.6
 31
0.0
  0
LINE
  5
D6
330
29
100
AcDbEntity
  8
0
 62
     0
100
AcDbLine
 10
618.8614169854799
 20
784.7
 30
0.0
 11
619.1998078387761
 21
784.7
 31
0.0
  0
LINE
  5
D7
330
29
100
AcDbEntity
  8
0
 62
     0
100
AcDbLine
 10
618.96141698548
 20
784.8
 30
0.0
 11
619.183859978833
 21
784.8
 31
0.0
  0
LINE
  5
D8
330
29
100
AcDbEntity
  8
0
 62
     0
100
AcDbLine
 10
619.06141698548
 20
784.9000000000001
 30
0.0
 11
619.1657858749337
 21
784.9000000000001
 31
0.0
  0
LINE
  5
D9
330
29
100
AcDbEntity
  8
0
 62
     0
100
AcDbLine
 10
617.027010892676
 20
782.3000000000001
 30
0.0
 11
618.9580811232265
 21
782.3000000000001
 31
0.0
  0
LINE
  5
DA
330
29
100
AcDbEntity
  8
0
 62
     0
100
AcDbLine
 10
617.027010892676
 20
782.2
 30
0.0
 11
618.9205007071578
 21
782.2
 31
0.0
  0
LINE
  5
DB
330
29
100
AcDbEntity
  8
0
 62
     0
100
AcDbLine
 10
617.027010892676
 20
782.1
 30
0.0
 11
618.8804052194133
 21
782.1
 31
0.0
  0
LINE
  5
DC
330
29
100
AcDbEntity
  8
0
 62
     0
100
AcDbLine
 10
617.027010892676
 20
782.0
 30
0.0
 11
618.8377273364261
 21
782.0
 31
0.0
  0
LINE
  5
DD
330
29
100
AcDbEntity
  8
0
 62
     0
100
AcDbLine
 10
617.027010892676
 20
781.9
 30
0.0
 11
618.7923927305886
 21
781.9
 31
0.0
  0
LINE
  5
DE
330
29
100
AcDbEntity
  8
0
 62
     0
100
AcDbLine
 10
617.027010892676
 20
781.8
 30
0.0
 11
618.7443192875076
 21
781.8
 31
0.0
  0
LINE
  5
DF
330
29
100
AcDbEntity
  8
0
 62
     0
100
AcDbLine
 10
617.027010892676
 20
781.7000000000001
 30
0.0
 11
618.6934161901092
 21
781.7000000000001
 31
0.0
  0
LINE
  5
E0
330
29
100
AcDbEntity
  8
0
 62
     0
100
AcDbLine
 10
617.027010892676
 20
781.6
 30
0.0
 11
618.639582842074
 21
781.6
 31
0.0
  0
LINE
  5
E1
330
29
100
AcDbEntity
  8
0
 62
     0
100
AcDbLine
 10
617.027010892676
 20
781.5
 30
0.0
 11
618.5827075959533
 21
781.5
 31
0.0
  0
LINE
  5
E2
330
29
100
AcDbEntity
  8
0
 62
     0
100
AcDbLine
 10
617.027010892676
 20
781.4
 30
0.0
 11
618.5226662419697
 21
781.4
 31
0.0
  0
LINE
  5
E3
330
29
100
AcDbEntity
  8
0
 62
     0
100
AcDbLine
 10
617.027010892676
 20
781.3
 30
0.0
 11
618.4593202011375
 21
781.3
 31
0.0
  0
LINE
  5
E4
330
29
100
AcDbEntity
  8
0
 62
     0
100
AcDbLine
 10
617.027010892676
 20
781.2
 30
0.0
 11
618.3925143497748
 21
781.2
 31
0.0
  0
LINE
  5
E5
330
29
100
AcDbEntity
  8
0
 62
     0
100
AcDbLine
 10
617.027010892676
 20
781.1
 30
0.0
 11
618.3220743800425
 21
781.1
 31
0.0
  0
LINE
  5
E6
330
29
100
AcDbEntity
  8
0
 62
     0
100
AcDbLine
 10
617.027010892676
 20
781.0
 30
0.0
 11
618.2478035703353
 21
781.0
 31
0.0
  0
LINE
  5
E7
330
29
100
AcDbEntity
  8
0
 62
     0
100
AcDbLine
 10
617.027010892676
 20
780.9000000000001
 30
0.0
 11
618.1694787964578
 21
780.9000000000001
 31
0.0
  0
LINE
  5
E8
330
29
100
AcDbEntity
  8
0
 62
     0
100
AcDbLine
 10
617.027010892676
 20
780.8
 30
0.0
 11
618.0868455538274
 21
780.8
 31
0.0
  0
LINE
  5
E9
330
29
100
AcDbEntity
  8
0
 62
     0
100
AcDbLine
 10
617.027010892676
 20
780.7
 30
0.0
 11
617.9996116736423
 21
780.7
 31
0.0
  0
LINE
  5
EA
330
29
100
AcDbEntity
  8
0
 62
     0
100
AcDbLine
 10
617.027010892676
 20
780.6
 30
0.0
 11
617.9074392878857
 21
780.6
 31
0.0
  0
LINE
  5
EB
330
29
100
AcDbEntity
  8
0
 62
     0
100
AcDbLine
 10
617.027010892676
 20
780.5
 30
0.0
 11
617.8099344062558
 21
780.5
 31
0.0
  0
LINE
  5
EC
330
29
100
AcDbEntity
  8
0
 62
     0
100
AcDbLine
 10
617.027010892676
 20
780.4000000000001
 30
0.0
 11
617.7066331739947
 21
780.4000000000001
 31
0.0
  0
LINE
  5
ED
330
29
100
AcDbEntity
  8
0
 62
     0
100
AcDbLine
 10
617.027010892676
 20
780.3
 30
0.0
 11
617.5969834164493
 21
780.3
 31
0.0
  0
LINE
  5
EE
330
29
100
AcDbEntity
  8
0
 62
     0
100
AcDbLine
 10
617.027010892676
 20
780.2
 30
0.0
 11
617.4803193245684
 21
780.2
 31
0.0
  0
LINE
  5
EF
330
29
100
AcDbEntity
  8
0
 62
     0
100
AcDbLine
 10
617.027010892676
 20
780.1
 30
0.0
 11
617.3558258728936
 21
780.1
 31
0.0
  0
LINE
  5
F0
330
29
100
AcDbEntity
  8
0
 62
     0
100
AcDbLine
 10
617.027010892676
 20
780.0
 30
0.0
 11
617.222487353992
 21
780.0
 31
0.0
  0
LINE
  5
F1
330
29
100
AcDbEntity
  8
0
 62
     0
100
AcDbLine
 10
617.027010892676
 20
779.9000000000001
 30
0.0
 11
617.0790103682157
 21
779.9000000000001
 31
0.0
  0
ENDBLK
  5
F2
330
29
100
AcDbEntity
  8
0
100
AcDbBlockEnd
  0
BLOCK
  5
288
330
27C
100
AcDbEntity
  8
0
100
AcDbBlockBegin
  2
*D7
 70
     1
 10
0.0
 20
0.0
 30
0.0
  3
*D7
  1

  0
LINE
  5
388
330
27C
100
AcDbEntity
  8
BEM
 62
     0
370
    -2
100
AcDbLine
 10
781.7450437862296
 20
1027.315998965018
 30
0.0
 11
803.4398033804745
 21
1049.010758559262
 31
0.0
  0
LINE
  5
389
330
27C
100
AcDbEntity
  8
BEM
 62
     0
370
    -2
100
AcDbLine
 10
464.25409903347
 20
1104.825054212257
 30
0.0
 11
464.2540990334697
 21
1189.506077462863
 31
0.0
  0
ARC
  5
38A
330
27C
100
AcDbEntity
  8
BEM
 62
     0
370
    -2
100
AcDbCircle
 10
464.25409903347
 20
709.8250542122575
 30
0.0
 40
474.681023250605
100
AcDbArc
 50
47.11243526600109
 51
87.88756473399899
  0
SOLID
  5
38B
330
27C
100
AcDbEntity
  8
BEM
 62
     0
100
AcDbTrace
 10
789.327928604767
 20
1059.719450088599
 30
0.0
 11
785.2798739160189
 21
1055.519327350549
 31
0.0
 12
799.9042694745419
 22
1045.47522465333
 32
0.0
 13
799.9042694745419
 23
1045.47522465333
 33
0.0
  0
SOLID
  5
38C
330
27C
100
AcDbEntity
  8
BEM
 62
     0
100
AcDbTrace
 10
481.697361431794
 20
1181.267321320815
 30
0.0
 11
481.8048897806568
 21
1187.099663511733
 31
0.0
 12
464.2540990334697
 22
1184.506077462863
 32
0.0
 13
464.2540990334697
 23
1184.506077462863
 33
0.0
  0
MTEXT
  5
38D
330
27C
100
AcDbEntity
  8
BEM
 62
     1
100
AcDbMText
 10
671.8098248900924
 20
1154.722671933477
 30
0.0
 40
17.5
 41
0.0
 71
     5
 72
     1
  1
\A1;45°
  7
GREEKS
 11
0.9062324372483457
 21
-0.4227798122887651
 31
0.0
 73
     1
 44
1.0
  0
POINT
  5
38E
330
27C
100
AcDbEntity
  8
DEFPOINTS
 62
     0
100
AcDbPoint
 10
587.1105881994788
 20
1168.331713819338
 30
0.0
  0
POINT
  5
38F
330
27C
100
AcDbEntity
  8
DEFPOINTS
 62
     0
100
AcDbPoint
 10
464.25409903347
 20
1099.825054212257
 30
0.0
  0
POINT
  5
390
330
27C
100
AcDbEntity
  8
DEFPOINTS
 62
     0
100
AcDbPoint
 10
778.2095098802969
 20
1023.780465059085
 30
0.0
  0
POINT
  5
391
330
27C
100
AcDbEntity
  8
DEFPOINTS
 62
     0
100
AcDbPoint
 10
556.6600796664555
 20
802.2310348452432
 30
0.0
  0
POINT
  5
392
330
27C
100
AcDbEntity
  8
DEFPOINTS
 62
     0
100
AcDbPoint
 10
464.25409903347
 20
659.8250542122578
 30
0.0
  0
ENDBLK
  5
289
330
27C
100
AcDbEntity
  8
0
100
AcDbBlockEnd
  0
BLOCK
  5
302
330
2F8
100
AcDbEntity
  8
0
100
AcDbBlockBegin
  2
*D10
 70
     1
 10
0.0
 20
0.0
 30
0.0
  3
*D10
  1

  0
LINE
  5
2F9
330
2F8
100
AcDbEntity
  8
SCHRAFF
 62
     0
370
    -2
100
AcDbLine
 10
622.6685651275371
 20
755.8095420976643
 30
0.0
 11
581.6631663277944
 21
714.8041432979215
 31
0.0
  0
LINE
  5
2FA
330
2F8
100
AcDbEntity
  8
SCHRAFF
 62
     0
370
    -2
100
AcDbLine
 10
622.6685651275369
 20
980.669498514986
 30
0.0
 11
469.2331881191334
 21
827.2341215065825
 31
0.0
  0
LINE
  5
2FB
330
2F8
100
AcDbEntity
  8
SCHRAFF
 62
     0
370
    -2
100
AcDbLine
 10
572.8243315629624
 20
730.7140458746189
 30
0.0
 11
485.1430906958306
 21
818.3952867417508
 31
0.0
  0
SOLID
  5
2FC
330
2F8
100
AcDbEntity
  8
SCHRAFF
 62
     0
100
AcDbTrace
 10
574.8867263414232
 20
732.7764406530795
 30
0.0
 11
570.7619367845018
 21
728.6516510961582
 31
0.0
 12
585.1987002337271
 22
718.3396772038543
 32
0.0
 13
585.1987002337271
 23
718.3396772038543
 33
0.0
  0
SOLID
  5
2FD
330
2F8
100
AcDbEntity
  8
SCHRAFF
 62
     0
100
AcDbTrace
 10
487.2054854742914
 20
820.4576815202113
 30
0.0
 11
483.08069591737
 21
816.3328919632899
 31
0.0
 12
472.768722025066
 22
830.7696554125154
 32
0.0
 13
472.768722025066
 23
830.7696554125154
 33
0.0
  0
MTEXT
  5
2FE
330
2F8
100
AcDbEntity
  8
SCHRAFF
 62
     1
100
AcDbMText
 10
540.4741963236777
 20
786.0451515024662
 30
0.0
 40
17.5
 41
0.0
 71
     5
 72
     1
  1
\A1;%%c159
  7
GREEKS
 11
0.7071067811865476
 21
-0.7071067811865475
 31
0.0
 73
     1
 44
1.0
  0
POINT
  5
2FF
330
2F8
100
AcDbEntity
  8
DEFPOINTS
 62
     0
100
AcDbPoint
 10
626.2040990334699
 20
759.3450760035969
 30
0.0
  0
POINT
  5
300
330
2F8
100
AcDbEntity
  8
DEFPOINTS
 62
     0
100
AcDbPoint
 10
626.2040990334695
 20
984.2050324209187
 30
0.0
  0
POINT
  5
301
330
2F8
100
AcDbEntity
  8
DEFPOINTS
 62
     0
100
AcDbPoint
 10
472.768722025066
 20
830.7696554125154
 30
0.0
  0
ENDBLK
  5
303
330
2F8
100
AcDbEntity
  8
0
100
AcDbBlockEnd
  0
BLOCK
  5
30E
330
304
100
AcDbEntity
  8
0
100
AcDbBlockBegin
  2
*D11
 70
     1
 10
0.0
 20
0.0
 30
0.0
  3
*D11
  1

  0
LINE
  5
3CD
330
304
100
AcDbEntity
  8
BEM
 62
     0
370
    -2
100
AcDbLine
 10
467.7896329394028
 20
706.2895203063249
 30
0.0
 11
553.488899802832
 21
620.5902534428957
 31
0.0
  0
LINE
  5
3CE
330
304
100
AcDbEntity
  8
BEM
 62
     0
370
    -2
100
AcDbLine
 10
839.5569945217413
 20
955.361912605775
 30
0.0
 11
863.9087767437263
 21
931.01013038379
 31
0.0
  0
LINE
  5
3CF
330
304
100
AcDbEntity
  8
BEM
 62
     0
370
    -2
100
AcDbLine
 10
562.3277345676639
 20
636.500156019593
 30
0.0
 11
847.998874167029
 21
922.1712956189582
 31
0.0
  0
SOLID
  5
3D0
330
304
100
AcDbEntity
  8
BEM
 62
     0
100
AcDbTrace
 10
560.2653397892031
 20
638.5625507980538
 30
0.0
 11
564.3901293461246
 21
634.4377612411323
 31
0.0
 12
549.9533658968992
 22
624.1257873488284
 32
0.0
 13
549.9533658968992
 23
624.1257873488284
 33
0.0
  0
SOLID
  5
3D1
330
304
100
AcDbEntity
  8
BEM
 62
     0
100
AcDbTrace
 10
845.9364793885683
 20
924.2336903974191
 30
0.0
 11
850.0612689454898
 21
920.1089008404975
 31
0.0
 12
860.3732428377936
 22
934.5456642897229
 32
0.0
 13
860.3732428377936
 23
934.5456642897229
 33
0.0
  0
MTEXT
  5
3D2
330
304
100
AcDbEntity
  8
BEM
 62
     1
100
AcDbMText
 10
693.6728191730652
 20
790.8262110135569
 30
0.0
 40
17.5
 41
0.0
 71
     5
 72
     1
  1
\A1;440
  7
GREEKS
 11
0.7071067811865476
 21
0.7071067811865475
 31
0.0
 73
     1
 44
1.0
  0
POINT
  5
3D3
330
304
100
AcDbEntity
  8
DEFPOINTS
 62
     0
100
AcDbPoint
 10
464.25409903347
 20
709.8250542122577
 30
0.0
  0
POINT
  5
3D4
330
304
100
AcDbEntity
  8
DEFPOINTS
 62
     0
100
AcDbPoint
 10
836.0214606158086
 20
958.8974465117077
 30
0.0
  0
POINT
  5
3D5
330
304
100
AcDbEntity
  8
DEFPOINTS
 62
     0
100
AcDbPoint
 10
860.3732428377936
 20
934.5456642897229
 30
0.0
  0
ENDBLK
  5
30F
330
304
100
AcDbEntity
  8
0
100
AcDbBlockEnd
  0
BLOCK
  5
363
330
359
100
AcDbEntity
  8
0
100
AcDbBlockBegin
  2
*D12
 70
     1
 10
0.0
 20
0.0
 30
0.0
  3
*D12
  1

  0
LINE
  5
3AF
330
359
100
AcDbEntity
  8
BEM
 62
     0
370
    -2
100
AcDbLine
 10
297.3040990334703
 20
669.8250542122577
 30
0.0
 11
223.8338536888688
 21
669.8250542122579
 31
0.0
  0
LINE
  5
3B0
330
359
100
AcDbEntity
  8
BEM
 62
     0
370
    -2
100
AcDbLine
 10
297.3040990334703
 20
1089.825054212257
 30
0.0
 11
223.8338536888689
 21
1089.825054212257
 31
0.0
  0
LINE
  5
3B1
330
359
100
AcDbEntity
  8
BEM
 62
     0
370
    -2
100
AcDbLine
 10
228.8338536888688
 20
687.3250542122579
 30
0.0
 11
228.8338536888689
 21
1072.325054212257
 31
0.0
  0
SOLID
  5
3B2
330
359
100
AcDbEntity
  8
BEM
 62
     0
100
AcDbTrace
 10
225.9171870222021
 20
687.3250542122579
 30
0.0
 11
231.7505203555354
 21
687.3250542122579
 31
0.0
 12
228.8338536888688
 22
669.8250542122579
 32
0.0
 13
228.8338536888688
 23
669.8250542122579
 33
0.0
  0
SOLID
  5
3B3
330
359
100
AcDbEntity
  8
BEM
 62
     0
100
AcDbTrace
 10
225.9171870222022
 20
1072.325054212257
 30
0.0
 11
231.7505203555355
 21
1072.325054212257
 31
0.0
 12
228.8338536888689
 22
1089.825054212257
 32
0.0
 13
228.8338536888689
 23
1089.825054212257
 33
0.0
  0
MTEXT
  5
3B4
330
359
100
AcDbEntity
  8
BEM
 62
     1
100
AcDbMText
 10
212.5838536888687
 20
879.8250542122577
 30
0.0
 40
17.5
 41
0.0
 71
     5
 72
     1
  1
\A1;420
  7
GREEKS
 11
0.0000000000000001
 21
1.0
 31
0.0
 73
     1
 44
1.0
  0
POINT
  5
3B5
330
359
100
AcDbEntity
  8
DEFPOINTS
 62
     0
100
AcDbPoint
 10
302.3040990334703
 20
669.8250542122577
 30
0.0
  0
POINT
  5
3B6
330
359
100
AcDbEntity
  8
DEFPOINTS
 62
     0
100
AcDbPoint
 10
302.3040990334703
 20
1089.825054212257
 30
0.0
  0
POINT
  5
3B7
330
359
100
AcDbEntity
  8
DEFPOINTS
 62
     0
100
AcDbPoint
 10
228.8338536888689
 20
1089.825054212257
 30
0.0
  0
ENDBLK
  5
364
330
359
100
AcDbEntity
  8
0
100
AcDbBlockEnd
  0
BLOCK
  5
37D
330
371
100
AcDbEntity
  8
0
100
AcDbBlockBegin
  2
*D14
 70
     1
 10
0.0
 20
0.0
 30
0.0
  3
*D14
  1

  0
LINE
  5
372
330
371
100
AcDbEntity
  8
BEM
 62
     0
370
    -2
100
AcDbLine
 10
297.3040990334703
 20
669.8250542122577
 30
0.0
 11
262.2926338108186
 21
669.8250542122577
 31
0.0
  0
LINE
  5
373
330
371
100
AcDbEntity
  8
BEM
 62
     0
370
    -2
100
AcDbLine
 10
459.25409903347
 20
709.8250542122577
 30
0.0
 11
262.2926338108186
 21
709.8250542122577
 31
0.0
  0
LINE
  5
374
330
371
100
AcDbEntity
  8
BEM
 62
     0
370
    -2
100
AcDbLine
 10
267.2926338108187
 20
652.3250542122577
 30
0.0
 11
267.2926338108186
 21
634.8250542122578
 31
0.0
  0
LINE
  5
375
330
371
100
AcDbEntity
  8
BEM
 62
     0
370
    -2
100
AcDbLine
 10
267.2926338108187
 20
727.3250542122577
 30
0.0
 11
267.2926338108187
 21
744.8250542122576
 31
0.0
  0
LINE
  5
376
330
371
100
AcDbEntity
  8
BEM
 62
     0
370
    -2
100
AcDbLine
 10
267.2926338108187
 20
669.8250542122577
 30
0.0
 11
267.2926338108187
 21
709.8250542122577
 31
0.0
  0
SOLID
  5
377
330
371
100
AcDbEntity
  8
BEM
 62
     0
100
AcDbTrace
 10
264.3759671441519
 20
652.3250542122577
 30
0.0
 11
270.2093004774853
 21
652.3250542122577
 31
0.0
 12
267.2926338108187
 22
669.8250542122577
 32
0.0
 13
267.2926338108187
 23
669.8250542122577
 33
0.0
  0
SOLID
  5
378
330
371
100
AcDbEntity
  8
BEM
 62
     0
100
AcDbTrace
 10
264.3759671441519
 20
727.3250542122577
 30
0.0
 11
270.2093004774853
 21
727.3250542122577
 31
0.0
 12
267.2926338108187
 22
709.8250542122577
 32
0.0
 13
267.2926338108187
 23
709.8250542122577
 33
0.0
  0
MTEXT
  5
379
330
371
100
AcDbEntity
  8
BEM
 62
     1
100
AcDbMText
 10
251.0426338108185
 20
689.8250542122577
 30
0.0
 40
17.5
 41
0.0
 71
     5
 72
     1
  1
\A1;40
  7
GREEKS
 11
0.0000000000000001
 21
1.0
 31
0.0
 73
     1
 44
1.0
  0
POINT
  5
37A
330
371
100
AcDbEntity
  8
DEFPOINTS
 62
     0
100
AcDbPoint
 10
302.3040990334703
 20
669.8250542122577
 30
0.0
  0
POINT
  5
37B
330
371
100
AcDbEntity
  8
DEFPOINTS
 62
     0
100
AcDbPoint
 10
464.25409903347
 20
709.8250542122577
 30
0.0
  0
POINT
  5
37C
330
371
100
AcDbEntity
  8
DEFPOINTS
 62
     0
100
AcDbPoint
 10
267.2926338108187
 20
709.8250542122577
 30
0.0
  0
ENDBLK
  5
37E
330
371
100
AcDbEntity
  8
0
100
AcDbBlockEnd
  0
BLOCK
  5
3CB
330
3C1
100
AcDbEntity
  8
0
100
AcDbBlockBegin
  2
*D15
 70
     1
 10
0.0
 20
0.0
 30
0.0
  3
*D15
  1

  0
LINE
  5
3C2
330
3C1
100
AcDbEntity
  8
SCHRAFF
 62
     0
370
    -2
100
AcDbLine
 10
626.2040990334699
 20
664.8250542122577
 30
0.0
 11
626.2040990334699
 21
576.4907738603466
 31
0.0
  0
LINE
  5
3C3
330
3C1
100
AcDbEntity
  8
SCHRAFF
 62
     0
370
    -2
100
AcDbLine
 10
302.3040990334703
 20
664.8250542122577
 30
0.0
 11
302.3040990334703
 21
576.4907738603466
 31
0.0
  0
LINE
  5
3C4
330
3C1
100
AcDbEntity
  8
SCHRAFF
 62
     0
370
    -2
100
AcDbLine
 10
608.7040990334699
 20
581.4907738603466
 30
0.0
 11
319.8040990334703
 21
581.4907738603466
 31
0.0
  0
SOLID
  5
3C5
330
3C1
100
AcDbEntity
  8
SCHRAFF
 62
     0
100
AcDbTrace
 10
608.7040990334699
 20
584.4074405270132
 30
0.0
 11
608.7040990334699
 21
578.57410719368
 31
0.0
 12
626.2040990334699
 22
581.4907738603466
 32
0.0
 13
626.2040990334699
 23
581.4907738603466
 33
0.0
  0
SOLID
  5
3C6
330
3C1
100
AcDbEntity
  8
SCHRAFF
 62
     0
100
AcDbTrace
 10
319.8040990334703
 20
584.4074405270132
 30
0.0
 11
319.8040990334703
 21
578.57410719368
 31
0.0
 12
302.3040990334703
 22
581.4907738603466
 32
0.0
 13
302.3040990334703
 23
581.4907738603466
 33
0.0
  0
MTEXT
  5
3C7
330
3C1
100
AcDbEntity
  8
SCHRAFF
 62
     1
100
AcDbMText
 10
464.25409903347
 20
597.7407738603466
 30
0.0
 40
17.5
 41
0.0
 71
     5
 72
     1
  1
\A1;%%c324
  7
GREEKS
 73
     1
 44
1.0
  0
POINT
  5
3C8
330
3C1
100
AcDbEntity
  8
DEFPOINTS
 62
     0
100
AcDbPoint
 10
626.2040990334699
 20
669.8250542122577
 30
0.0
  0
POINT
  5
3C9
330
3C1
100
AcDbEntity
  8
DEFPOINTS
 62
     0
100
AcDbPoint
 10
302.3040990334703
 20
669.8250542122577
 30
0.0
  0
POINT
  5
3CA
330
3C1
100
AcDbEntity
  8
DEFPOINTS
 62
     0
100
AcDbPoint
 10
302.3040990334703
 20
581.4907738603466
 30
0.0
  0
ENDBLK
  5
3CC
330
3C1
100
AcDbEntity
  8
0
100
AcDbBlockEnd
  0
ENDSEC
  0
SECTION
  2
ENTITIES
  0
DIMENSION
  5
178
330
20
100
AcDbEntity
  8
SCHRAFF
100
AcDbDimension
  2
*D10
 10
472.768722025066
 20
830.7696554125154
 30
0.0
 11
540.4741963236777
 21
786.0451515024662
 31
0.0
 70
    32
  1
%%c<>
 71
     5
 42
158.9999999999999
  3
Standard
100
AcDbAlignedDimension
 13
626.2040990334699
 23
759.3450760035969
 33
0.0
 14
626.2040990334696
 24
984.2050324209189
 34
0.0
 50
315.0
100
AcDbRotatedDimension
1001
ACAD
1000
DSTYLE
1002
{
1070
    40
1040
5.0
1070
    41
1040
3.5
1070
    42
1040
1.0
1070
    43
1040
7.0
1070
    44
1040
1.0
1070
    47
1040
1.6
1070
    48
1040
1.6
1070
    73
1070
     0
1070
    74
1070
     0
1070
    77
1070
     1
1070
    78
1070
     8
1070
    79
1070
     2
1070
   140
1040
3.5
1070
   141
1040
1.5
1070
   146
1040
0.5
1070
   147
1040
1.5
1070
   172
1070
     1
1070
   178
1070
     1
1070
   179
1070
     2
1070
   271
1070
     2
1070
   272
1070
     2
1070
   284
1070
     8
1070
   285
1070
     8
1070
   286
1070
     8
1070
   340
1005
35
1002
}
  0
DIMENSION
  5
17A
330
20
100
AcDbEntity
  8
BEM
100
AcDbDimension
  2
*D12
 10
228.8338536888689
 20
1089.825054212257
 30
0.0
 11
212.5838536888687
 21
879.8250542122577
 31
0.0
 70
    32
 71
     5
 42
419.9999999999996
  3
Standard
100
AcDbAlignedDimension
 13
302.3040990334703
 23
669.8250542122577
 33
0.0
 14
302.3040990334703
 24
1089.825054212257
 34
0.0
 50
90.0
100
AcDbRotatedDimension
1001
ACAD
1000
DSTYLE
1002
{
1070
    40
1040
5.0
1070
    41
1040
3.5
1070
    42
1040
1.0
1070
    43
1040
7.0
1070
    44
1040
1.0
1070
    47
1040
1.6
1070
    48
1040
1.6
1070
    73
1070
     0
1070
    74
1070
     0
1070
    77
1070
     1
1070
    78
1070
     8
1070
    79
1070
     2
1070
   140
1040
3.5
1070
   141
1040
1.5
1070
   146
1040
0.5
1070
   147
1040
1.5
1070
   172
1070
     1
1070
   178
1070
     1
1070
   179
1070
     2
1070
   271
1070
     2
1070
   272
1070
     2
1070
   284
1070
     8
1070
   285
1070
     8
1070
   286
1070
     8
1070
   340
1005
35
1002
}
  0
LINE
  5
17C
330
20
100
AcDbEntity
  8
STEMPEL
100
AcDbLine
 10
626.2040990334699
 20
759.345076003597
 30
0.0
 11
626.2040990334699
 21
669.8250542122577
 31
0.0
  0
LINE
  5
17E
330
20
100
AcDbEntity
  8
HILF
100
AcDbLine
 10
1050.0
 20
-0.0000000000002842
 30
0.0
 11
1050.0
 21
1485.0
 31
0.0
  0
LINE
  5
17F
330
20
100
AcDbEntity
  8
STEMPEL
100
AcDbLine
 10
1025.0
 20
25.0
 30
0.0
 11
1025.0
 21
1460.0
 31
0.0
  0
LINE
  5
180
330
20
100
AcDbEntity
  8
MITTEL
100
AcDbLine
 10
520.4664972586786
 20
766.0374524374661
 30
0.0
 11
464.25409903347
 21
709.8250542122577
 31
0.0
  0
LINE
  5
181
102
{ACAD_REACTORS
330
296
102
}
330
20
100
AcDbEntity
  8
MITTEL
100
AcDbLine
 10
464.25409903347
 20
1099.825054212257
 30
0.0
 11
464.25409903347
 21
659.8250542122578
 31
0.0
  0
LINE
  5
182
330
20
100
AcDbEntity
  8
STEMPEL
100
AcDbLine
 10
302.3040990334703
 20
1089.825054212258
 30
0.0
 11
302.3040990334703
 21
669.8250542122577
 31
0.0
  0
LINE
  5
183
330
20
100
AcDbEntity
  8
HILF
100
AcDbLine
 10
0.0
 20
0.0
 30
0.0
 11
-0.0000000000002842
 21
1485.0
 31
0.0
  0
LINE
  5
184
330
20
100
AcDbEntity
  8
STEMPEL
100
AcDbLine
 10
100.0
 20
25.0
 30
0.0
 11
99.99999999999971
 21
1460.0
 31
0.0
  0
DIMENSION
  5
186
330
20
100
AcDbEntity
  8
SCHRAFF
100
AcDbDimension
  2
*D15
 10
302.3040990334703
 20
581.4907738603466
 30
0.0
 11
464.25409903347
 21
597.7407738603466
 31
0.0
 70
    32
  1
%%c324
 71
     5
 42
323.8999999999996
  3
Standard
100
AcDbAlignedDimension
 13
626.2040990334699
 23
669.8250542122577
 33
0.0
 14
302.3040990334703
 24
669.8250542122577
 34
0.0
100
AcDbRotatedDimension
1001
ACAD
1000
DSTYLE
1002
{
1070
    40
1040
5.0
1070
    41
1040
3.5
1070
    42
1040
1.0
1070
    43
1040
7.0
1070
    44
1040
1.0
1070
    47
1040
1.6
1070
    48
1040
1.6
1070
    73
1070
     0
1070
    74
1070
     0
1070
    77
1070
     1
1070
    78
1070
     8
1070
    79
1070
     2
1070
   140
1040
3.5
1070
   141
1040
1.5
1070
   146
1040
0.5
1070
   147
1040
1.5
1070
   172
1070
     1
1070
   178
1070
     1
1070
   179
1070
     2
1070
   271
1070
     2
1070
   272
1070
     2
1070
   284
1070
     8
1070
   285
1070
     8
1070
   286
1070
     8
1070
   340
1005
35
1002
}
  0
TEXT
  5
187
330
20
100
AcDbEntity
  8
TEXT
 62
     1
100
AcDbText
 10
292.4806628287003
 20
428.844636841721
 30
0.0
 40
17.5
  1
Rohrenden leicht entgratet
 41
0.8
  7
GREEKS
100
AcDbText
  0
TEXT
  5
188
330
20
100
AcDbEntity
  8
TEXT
 62
     1
100
AcDbText
 10
401.2515766204717
 20
220.372535722849
 30
0.0
 40
17.5
  1
1:5
 41
0.8
  7
GREEKS
100
AcDbText
  0
TEXT
  5
189
330
20
100
AcDbEntity
  8
TEXT
100
AcDbText
 10
383.7908930375943
 20
256.1552237717722
 30
0.0
 40
12.5
  1
Maßstab
 41
0.8
  7
GREEKS
100
AcDbText
  0
TEXT
  5
18A
330
20
100
AcDbEntity
  8
TEXT
100
AcDbText
 10
369.0016943468259
 20
108.8236597412452
 30
0.0
 40
10.0
  1
Norm.
 41
0.8
  7
GREEKS
100
AcDbText
  0
LINE
  5
18B
330
20
100
AcDbEntity
  8
STEMPEL
100
AcDbLine
 10
626.2040990334699
 20
669.8250542122577
 30
0.0
 11
302.3040990334703
 21
669.8250542122577
 31
0.0
  0
INSERT
  5
18C
330
20
100
AcDbEntity
  8
STEMPEL
100
AcDbBlockReference
  2
LOGO
 10
377.4888713644485
 20
112.552631911208
 30
0.0
 41
5.0
 42
5.0
 43
5.0
  0
LINE
  5
18D
330
20
100
AcDbEntity
  8
HILF
100
AcDbLine
 10
1050.0
 20
0.0
 30
0.0
 11
0.0
 21
0.0
 31
0.0
  0
LINE
  5
18E
330
20
100
AcDbEntity
  8
STEMPEL
100
AcDbLine
 10
1025.0
 20
25.0
 30
0.0
 11
99.99999999999971
 21
25.0
 31
0.0
  0
LINE
  5
18F
330
20
100
AcDbEntity
  8
STEMPEL
100
AcDbLine
 10
124.9999999999997
 20
25.0
 30
0.0
 11
1025.0
 21
25.0
 31
0.0
  0
LINE
  5
190
330
20
100
AcDbEntity
  8
HILF
100
AcDbLine
 10
365.0000000000003
 20
124.9999999999999
 30
0.0
 11
575.0
 21
124.9999999999999
 31
0.0
  0
LINE
  5
191
330
20
100
AcDbEntity
  8
HILF
100
AcDbLine
 10
365.0000000000003
 20
149.9999999999999
 30
0.0
 11
575.0
 21
149.9999999999999
 31
0.0
  0
LINE
  5
192
330
20
100
AcDbEntity
  8
HILF
100
AcDbLine
 10
365.0000000000003
 20
174.9999999999998
 30
0.0
 11
575.0
 21
174.9999999999998
 31
0.0
  0
LINE
  5
193
330
20
100
AcDbEntity
  8
STEMPEL
100
AcDbLine
 10
1025.0
 20
200.0
 30
0.0
 11
365.0000000000003
 21
199.9999999999998
 31
0.0
  0
LINE
  5
194
330
20
100
AcDbEntity
  8
STEMPEL
100
AcDbLine
 10
1025.0
 20
100.0
 30
0.0
 11
365.0000000000003
 21
99.99999999999992
 31
0.0
  0
LINE
  5
195
330
20
100
AcDbEntity
  8
STEMPEL
100
AcDbLine
 10
1025.0
 20
275.0000000000001
 30
0.0
 11
99.99999999999992
 21
275.0
 31
0.0
  0
TEXT
  5
196
330
20
100
AcDbEntity
  8
TEXT
100
AcDbText
 10
104.6377487744418
 20
279.1799999999999
 30
0.0
 40
12.5
  1
Erstellt mit AUTOCAD 2004
 41
0.8
  7
GREEKS
100
AcDbText
  0
LINE
  5
197
330
20
100
AcDbEntity
  8
STEMPEL
100
AcDbLine
 10
365.0000000000003
 20
274.9999999999999
 30
0.0
 11
365.0
 21
24.99999999999993
 31
0.0
  0
TEXT
  5
198
330
20
100
AcDbEntity
  8
TEXT
100
AcDbText
 10
322.3339940681349
 20
46.4831054241602
 30
0.0
 40
10.0
  1
Name
 41
0.8
  7
GREEKS
 72
     1
 11
338.1435178776587
 21
46.4831054241602
 31
0.0
100
AcDbText
  0
TEXT
  5
199
330
20
100
AcDbEntity
  8
TEXT
100
AcDbText
 10
275.2385433958294
 20
46.67890673349525
 30
0.0
 40
10.0
  1
Tag
 41
0.8
  7
GREEKS
 72
     1
 11
284.5718767291627
 21
46.67890673349525
 31
0.0
100
AcDbText
  0
LINE
  5
19A
330
20
100
AcDbEntity
  8
VOLL
100
AcDbLine
 10
310.0000000000003
 20
274.9999999999999
 30
0.0
 11
310.0
 21
24.99999999999993
 31
0.0
  0
LINE
  5
19B
330
20
100
AcDbEntity
  8
VOLL
100
AcDbLine
 10
260.0000000000003
 20
274.9999999999999
 30
0.0
 11
260.0
 21
24.99999999999993
 31
0.0
  0
TEXT
  5
19C
330
20
100
AcDbEntity
  8
TEXT
100
AcDbText
 10
120.6660276761439
 20
34.13664615067979
 30
0.0
 40
10.0
  1
Index
 50
90.0
 41
0.8
  7
GREEKS
100
AcDbText
  0
LINE
  5
19D
330
20
100
AcDbEntity
  8
VOLL
100
AcDbLine
 10
135.0000000000002
 20
275.0000000000001
 30
0.0
 11
134.9999999999999
 21
24.99999999999993
 31
0.0
  0
TEXT
  5
19E
330
20
100
AcDbEntity
  8
TEXT
100
AcDbText
 10
169.1016451158562
 20
46.68454737460329
 30
0.0
 40
10.0
  1
Änderung
 41
0.8
  7
GREEKS
 72
     1
 11
195.958787972999
 21
46.68454737460329
 31
0.0
100
AcDbText
  0
LINE
  5
19F
330
20
100
AcDbEntity
  8
HILF
100
AcDbLine
 10
100.0000000000002
 20
99.99999999999992
 30
0.0
 11
365.0000000000003
 21
99.99999999999992
 31
0.0
  0
LINE
  5
1A0
330
20
100
AcDbEntity
  8
HILF
100
AcDbLine
 10
100.0000000000002
 20
124.9999999999999
 30
0.0
 11
365.0000000000003
 21
124.9999999999999
 31
0.0
  0
LINE
  5
1A1
330
20
100
AcDbEntity
  8
HILF
100
AcDbLine
 10
100.0000000000002
 20
149.9999999999999
 30
0.0
 11
365.0000000000003
 21
149.9999999999999
 31
0.0
  0
LINE
  5
1A2
330
20
100
AcDbEntity
  8
HILF
100
AcDbLine
 10
100.0000000000002
 20
174.9999999999998
 30
0.0
 11
365.0000000000003
 21
174.9999999999998
 31
0.0
  0
LINE
  5
1A3
330
20
100
AcDbEntity
  8
HILF
100
AcDbLine
 10
100.0000000000002
 20
199.9999999999998
 30
0.0
 11
365.0000000000003
 21
199.9999999999998
 31
0.0
  0
LINE
  5
1A4
330
20
100
AcDbEntity
  8
HILF
100
AcDbLine
 10
100.0000000000002
 20
225.0000000000001
 30
0.0
 11
365.0000000000003
 21
225.0000000000001
 31
0.0
  0
LINE
  5
1A5
330
20
100
AcDbEntity
  8
HILF
100
AcDbLine
 10
100.0000000000002
 20
250.0000000000001
 30
0.0
 11
365.0000000000003
 21
250.0000000000001
 31
0.0
  0
LINE
  5
1A6
330
20
100
AcDbEntity
  8
STEMPEL
100
AcDbLine
 10
364.9999999999997
 20
74.99999999999992
 30
0.0
 11
99.99999999999992
 21
74.99999999999992
 31
0.0
  0
TEXT
  5
1A7
330
20
100
AcDbEntity
  8
TEXT
100
AcDbText
 10
368.9590317919039
 20
159.0747592404491
 30
0.0
 40
10.0
  1
Gez.
 41
0.8
  7
GREEKS
100
AcDbText
  0
TEXT
  5
1A8
330
20
100
AcDbEntity
  8
TEXT
100
AcDbText
 10
368.8787716429181
 20
134.2231572857094
 30
0.0
 40
10.0
  1
Gepr.
 41
0.8
  7
GREEKS
100
AcDbText
  0
TEXT
  5
1A9
330
20
100
AcDbEntity
  8
TEXT
100
AcDbText
 10
371.55527455526
 20
182.8506367787916
 30
0.0
 40
10.0
  1
2011
 41
0.8
  7
GREEKS
100
AcDbText
  0
LINE
  5
1AA
330
20
100
AcDbEntity
  8
HILF
100
AcDbLine
 10
77.7191783928464
 20
742.5000000000001
 30
0.0
 11
0.0000000000002842
 21
742.5000000000001
 31
0.0
  0
TEXT
  5
1C5
330
20
100
AcDbEntity
  8
TEXT
100
AcDbText
 10
587.8240977813288
 20
181.8582405213435
 30
0.0
 40
12.5
  1
Muffenlos / Muffe
 41
0.8
  7
GREEKS
100
AcDbText
  0
TEXT
  5
1C6
330
20
100
AcDbEntity
  8
TEXT
100
AcDbText
 10
587.8240977813288
 20
129.100298576054
 30
0.0
 40
12.5
  1
EDV-Art.Nr. 02260.KF0X
 41
0.8
  7
GREEKS
100
AcDbText
  0
TEXT
  5
1C7
330
20
100
AcDbEntity
  8
TEXT
 62
     1
100
AcDbText
 10
588.9294820816727
 20
218.5437197313445
 30
0.0
 40
17.5
  1
Abzweig 45%%d DN300/150
 41
0.7
  7
GREEKS
100
AcDbText
  0
LINE
  5
1C8
330
20
100
AcDbEntity
  8
HILF
100
AcDbLine
 10
586.9342002742369
 20
124.9999999999999
 30
0.0
 11
812.0884791390775
 21
124.9999999999999
 31
0.0
  0
LINE
  5
1C9
330
20
100
AcDbEntity
  8
HILF
100
AcDbLine
 10
586.9342002742369
 20
149.9999999999999
 30
0.0
 11
812.0884791390775
 21
149.9999999999999
 31
0.0
  0
LINE
  5
1CA
330
20
100
AcDbEntity
  8
HILF
100
AcDbLine
 10
586.9342002742369
 20
174.9999999999998
 30
0.0
 11
812.0884791390775
 21
174.9999999999998
 31
0.0
  0
LINE
  5
1CB
330
20
100
AcDbEntity
  8
HILF
100
AcDbLine
 10
586.9342002742369
 20
210.0939561891034
 30
0.0
 11
812.0884791390777
 21
210.0939561891034
 31
0.0
  0
LINE
  5
1CC
330
20
100
AcDbEntity
  8
HILF
100
AcDbLine
 10
583.7274248224712
 20
37.23495645070784
 30
0.0
 11
1012.147209831682
 21
37.23495645070784
 31
0.0
  0
LINE
  5
1CD
330
20
100
AcDbEntity
  8
STEMPEL
100
AcDbLine
 10
575.0
 20
275.0000000000001
 30
0.0
 11
575.0
 21
24.99999999999993
 31
0.0
  0
LINE
  5
1CE
330
20
100
AcDbEntity
  8
VOLL
100
AcDbLine
 10
475.0000000000002
 20
274.9999999999996
 30
0.0
 11
475.0
 21
99.99999999999992
 31
0.0
  0
LINE
  5
1CF
330
20
100
AcDbEntity
  8
VOLL
100
AcDbLine
 10
410.0000000000003
 20
199.9999999999998
 30
0.0
 11
410.0000000000003
 21
99.99999999999992
 31
0.0
  0
TEXT
  5
1D0
330
20
100
AcDbEntity
  8
TEXT
100
AcDbText
 10
425.9974927705902
 20
157.7691260206433
 30
0.0
 40
10.0
  1
05.04.
 41
0.8
  7
GREEKS
 72
     1
 11
443.5213022943996
 21
157.7691260206433
 31
0.0
100
AcDbText
  0
TEXT
  5
1D1
330
20
100
AcDbEntity
  8
TEXT
100
AcDbText
 10
511.0540121453142
 20
157.7240979930877
 30
0.0
 40
10.0
  1
Koeh
 41
0.8
  7
GREEKS
 72
     1
 11
524.1968692881714
 21
157.7240979930877
 31
0.0
100
AcDbText
  0
TEXT
  5
1D2
330
20
100
AcDbEntity
  8
TEXT
100
AcDbText
 10
430.8279182884127
 20
183.2970125307481
 30
0.0
 40
10.0
  1
Tag
 41
0.8
  7
GREEKS
100
AcDbText
  0
TEXT
  5
1D3
330
20
100
AcDbEntity
  8
TEXT
100
AcDbText
 10
506.1566460565737
 20
183.2740272978806
 30
0.0
 40
10.0
  1
Name
 41
0.8
  7
GREEKS
100
AcDbText
  0
TEXT
  5
1D4
330
20
100
AcDbEntity
  8
TEXT
100
AcDbText
 10
485.7147386835128
 20
256.0460421087048
 30
0.0
 40
12.5
  1
Zul. Abw.
 41
0.8
  7
GREEKS
100
AcDbText
  0
TEXT
  5
1D5
330
20
100
AcDbEntity
  8
TEXT
100
AcDbText
 10
587.4593753944567
 20
106.5743538255658
 30
0.0
 40
10.0
  1
02260KF0W.DWG
 41
0.8
  7
GREEKS
100
AcDbText
  0
TEXT
  5
1D6
330
20
100
AcDbEntity
  8
TEXT
100
AcDbText
 10
586.8555959778399
 20
77.11401425482641
 30
0.0
 40
12.5
  1
Bauvorhaben
 41
0.8
  7
GREEKS
100
AcDbText
  0
TEXT
  5
1D7
330
20
100
AcDbEntity
  8
TEXT
100
AcDbText
 10
587.1948509522525
 20
256.3723320029449
 30
0.0
 40
12.5
  1
Benennung
 41
0.8
  7
GREEKS
100
AcDbText
  0
TEXT
  5
1D8
330
20
100
AcDbEntity
  8
TEXT
 62
     1
100
AcDbText
 10
864.621479471771
 20
220.372535722849
 30
0.0
 40
17.5
  1
02260KF0W
 41
0.8
  7
GREEKS
 72
     1
 11
924.2881461384376
 21
220.372535722849
 31
0.0
100
AcDbText
  0
TEXT
  5
1D9
330
20
100
AcDbEntity
  8
TEXT
100
AcDbText
 10
843.1002153742515
 20
130.185404446965
 30
0.0
 40
12.5
  1
ersetzt durch:
 41
0.8
  7
GREEKS
100
AcDbText
  0
TEXT
  5
1DA
330
20
100
AcDbEntity
  8
TEXT
100
AcDbText
 10
841.8096540742482
 20
182.9529559274992
 30
0.0
 40
12.5
  1
Ersatz für:
 41
0.8
  7
GREEKS
100
AcDbText
  0
TEXT
  5
1DB
330
20
100
AcDbEntity
  8
TEXT
100
AcDbText
 10
840.4468873940851
 20
255.7830086342841
 30
0.0
 40
12.5
  1
Zeichnungs Nr.
 41
0.8
  7
GREEKS
100
AcDbText
  0
LINE
  5
1DC
330
20
100
AcDbEntity
  8
HILF
100
AcDbLine
 10
841.8096540742482
 20
209.4495909238957
 30
0.0
 11
1012.147209831682
 21
209.4495909238957
 31
0.0
  0
LINE
  5
1DD
330
20
100
AcDbEntity
  8
VOLL
100
AcDbLine
 10
830.0
 20
150.0
 30
0.0
 11
1025.0
 21
150.0
 31
0.0
  0
LINE
  5
1DE
330
20
100
AcDbEntity
  8
STEMPEL
100
AcDbLine
 10
830.0
 20
274.9999999999994
 30
0.0
 11
830.0
 21
100.0
 31
0.0
  0
TEXT
  5
1DF
330
20
100
AcDbEntity
  8
TEXT
 62
     1
100
AcDbText
 10
600.0373920362804
 20
323.4720666920996
 30
0.0
 40
17.5
  1
feuerverzinkt und innen beschichtet
 41
0.8
  7
GREEKS
100
AcDbText
  0
TEXT
  5
1E0
330
20
100
AcDbEntity
  8
TEXT
 62
     1
100
AcDbText
 10
480.0373920362803
 20
353.4720666920997
 30
0.0
 40
17.5
  1
Werkstoff: EN 10219 S235, RSt34-2 DIN 2394
 41
0.8
  7
GREEKS
100
AcDbText
  0
POINT
  5
1E3
330
20
100
AcDbEntity
  8
BEM
100
AcDbPoint
 10
464.25409903347
 20
704.8250542122574
 30
0.0
  0
LINE
  5
1E4
330
20
100
AcDbEntity
  8
STEMPEL
100
AcDbLine
 10
626.2040990334699
 20
1089.825054212257
 30
0.0
 11
302.3040990334703
 21
1089.825054212257
 31
0.0
  0
LINE
  5
1E5
330
20
100
AcDbEntity
  8
HILF
100
AcDbLine
 10
1050.0
 20
1485.0
 30
0.0
 11
0.0
 21
1485.0
 31
0.0
  0
LINE
  5
1E6
330
20
100
AcDbEntity
  8
STEMPEL
100
AcDbLine
 10
1025.0
 20
1460.0
 30
0.0
 11
99.99999999999971
 21
1460.0
 31
0.0
  0
LINE
  5
1E7
330
20
100
AcDbEntity
  8
STEMPEL
  6
Continuous
100
AcDbLine
 10
768.9975009862914
 20
902.1384779564185
 30
0.0
 11
626.2040990334699
 21
759.345076003597
 31
0.0
  0
LINE
  5
1E8
330
20
100
AcDbEntity
  8
HILF
  6
Continuous
100
AcDbLine
 10
679.8052593279071
 20
1042.195828132006
 30
0.0
 11
796.624872953218
 21
925.3762145066959
 31
0.0
  0
LINE
  5
1E9
330
20
100
AcDbEntity
  8
HILF
  6
Continuous
100
AcDbLine
 10
663.3171038355771
 20
1023.852109214258
 30
0.0
 11
778.281154035475
 21
908.8880590143611
 31
0.0
  0
LINE
  5
1EA
330
20
100
AcDbEntity
  8
HILF
  6
Continuous
100
AcDbLine
 10
660.5725814884404
 20
1015.845611546322
 30
0.0
 11
770.2746563675368
 21
906.1435366672261
 31
0.0
  0
LINE
  5
1EB
102
{ACAD_REACTORS
330
296
102
}
330
20
100
AcDbEntity
  8
MITTEL
100
AcDbLine
 10
778.209509880297
 20
1023.780465059085
 30
0.0
 11
556.6600796664556
 21
802.2310348452434
 31
0.0
  0
LINE
  5
1EC
330
20
100
AcDbEntity
  8
STEMPEL
  6
Continuous
100
AcDbLine
 10
836.0214606158088
 20
958.8974465117077
 30
0.0
 11
713.3264913329194
 21
1081.592415794597
 31
0.0
  0
LINE
  5
1ED
330
20
100
AcDbEntity
  8
STEMPEL
  6
Continuous
100
AcDbLine
 10
656.56752277763
 20
1014.568456165079
 30
0.0
 11
626.2040990334699
 21
984.2050324209191
 31
0.0
  0
ARC
  5
1EE
330
20
100
AcDbEntity
  8
SCHRAFF
100
AcDbCircle
 10
626.2040990334699
 20
984.2050324209191
 30
0.0
 40
6.0
100
AcDbArc
 50
44.99999999999923
 51
90.0
  0
INSERT
  5
1EF
330
20
100
AcDbEntity
  8
SCHRAFF
100
AcDbBlockReference
  2
*X3
 10
9.177088140794012
 20
-23.52051790359897
 30
0.0
1001
ACAD
1000
HATCH
1002
{
1070
    16
1000
_U,I
1040
0.1
1040
0.0
1070
     0
1002
}
  0
LINE
  5
1F0
330
20
100
AcDbEntity
  8
STEMPEL
100
AcDbLine
 10
626.2040990334699
 20
1089.825054212258
 30
0.0
 11
626.2040990334699
 21
984.2050324209191
 31
0.0
  0
ARC
  5
1F1
330
20
100
AcDbEntity
  8
STEMPEL
100
AcDbCircle
 10
1041.678203625906
 20
850.9191805960309
 30
0.0
 40
436.3299782086638
100
AcDbArc
 50
162.2135391470727
 51
180.0
  0
ARC
  5
21C
330
20
100
AcDbEntity
  8
STEMPEL
100
AcDbCircle
 10
816.8182472085799
 20
850.9191805960305
 30
0.0
 40
211.4700217913373
100
AcDbArc
 50
180.0
 51
205.6603788569952
  0
ARC
  5
21D
330
20
100
AcDbEntity
  8
SCHRAFF
100
AcDbCircle
 10
609.1207026477759
 20
811.1536163495426
 30
0.0
 40
10.0
100
AcDbArc
 50
264.6688845889792
 51
299.5932614849877
  0
ARC
  5
21E
330
20
100
AcDbEntity
  8
SCHRAFF
100
AcDbCircle
 10
607.473015489036
 20
821.0169386613666
 30
0.0
 40
10.0
100
AcDbArc
 50
261.9592277400417
 51
296.8836046360496
  0
ARC
  5
21F
330
20
100
AcDbEntity
  8
SCHRAFF
100
AcDbCircle
 10
611.2328342187051
 20
801.3792161005715
 30
0.0
 40
10.0
100
AcDbArc
 50
99.48379897128631
 51
102.1934558202152
  0
ARC
  5
220
330
20
100
AcDbEntity
  8
SCHRAFF
100
AcDbCircle
 10
616.8305103527863
 20
782.1843624633942
 30
0.0
 40
10.0
100
AcDbArc
 50
272.7978551357922
 51
307.7222320318002
  0
ARC
  5
221
330
20
100
AcDbEntity
  8
SCHRAFF
100
AcDbCircle
 10
620.303537630733
 20
772.8068317902032
 30
0.0
 40
10.0
100
AcDbArc
 50
107.6127695181
 51
110.3224263670265
  0
ARC
  5
222
330
20
100
AcDbEntity
  8
SCHRAFF
100
AcDbCircle
 10
613.8046871430701
 20
791.7155950124165
 30
0.0
 40
10.0
100
AcDbArc
 50
270.0881982868545
 51
305.0125751828626
  0
ARC
  5
223
330
20
100
AcDbEntity
  8
SCHRAFF
100
AcDbCircle
 10
620.303537630733
 20
772.8068317902032
 30
0.0
 40
10.0
100
AcDbArc
 50
275.5075119847301
 51
310.4318888807386
  0
ARC
  5
224
330
20
100
AcDbEntity
  8
SCHRAFF
100
AcDbCircle
 10
623.5211912779647
 20
760.456372782523
 30
0.0
 40
4.909252002999881
100
AcDbArc
 50
303.1272495028176
 51
11.87275049718511
  0
INSERT
  5
225
330
20
100
AcDbEntity
  8
SCHRAFF
100
AcDbBlockReference
  2
*X4
 10
9.177088140794012
 20
-23.52051790359897
 30
0.0
1001
ACAD
1000
HATCH
1002
{
1070
    16
1000
_U,I
1040
0.1
1040
0.0
1070
     0
1002
}
  0
ARC
  5
226
330
20
100
AcDbEntity
  8
SCHRAFF
100
AcDbCircle
 10
613.8046871430701
 20
791.7155950124165
 30
0.0
 40
10.0
100
AcDbArc
 50
102.1934558202212
 51
104.9031126691555
  0
ARC
  5
227
330
20
100
AcDbEntity
  8
SCHRAFF
100
AcDbCircle
 10
616.8305103527863
 20
782.1843624633942
 30
0.0
 40
10.0
100
AcDbArc
 50
104.9031126691596
 51
107.6127695180918
  0
ARC
  5
228
330
20
100
AcDbEntity
  8
SCHRAFF
100
AcDbCircle
 10
611.2328342187051
 20
801.3792161005715
 30
0.0
 40
10.0
100
AcDbArc
 50
267.3785414379165
 51
302.3029183339247
  0
ARC
  5
229
330
20
100
AcDbEntity
  8
SCHRAFF
100
AcDbCircle
 10
609.1207026477759
 20
811.1536163495426
 30
0.0
 40
10.0
100
AcDbArc
 50
96.77414212234952
 51
99.48379897127582
  0
ARC
  5
22A
330
20
100
AcDbEntity
  8
SCHRAFF
100
AcDbCircle
 10
606.2934572304052
 20
830.9471270943468
 30
0.0
 40
10.0
100
AcDbArc
 50
91.35482842447743
 51
94.06448527339808
  0
ARC
  5
22B
330
20
100
AcDbEntity
  8
SCHRAFF
100
AcDbCircle
 10
607.473015489036
 20
821.0169386613666
 30
0.0
 40
10.0
100
AcDbArc
 50
94.06448527341765
 51
96.77414212233248
  0
ARC
  5
22C
330
20
100
AcDbEntity
  8
SCHRAFF
100
AcDbCircle
 10
605.3482254172426
 20
850.9191805960305
 30
0.0
 40
10.0
100
AcDbArc
 50
253.8302571932288
 51
288.7546340892369
  0
ARC
  5
22D
330
20
100
AcDbEntity
  8
SCHRAFF
100
AcDbCircle
 10
605.5846655498744
 20
840.9219761836119
 30
0.0
 40
10.0
100
AcDbArc
 50
256.5399140421662
 51
291.4642909381743
  0
ARC
  5
22E
330
20
100
AcDbEntity
  8
SCHRAFF
100
AcDbCircle
 10
606.2934572304052
 20
830.9471270943468
 30
0.0
 40
10.0
100
AcDbArc
 50
259.2495708911037
 51
294.1739477871115
  0
ARC
  5
22F
330
20
100
AcDbEntity
  8
STEMPEL
100
AcDbCircle
 10
1041.678203625906
 20
850.9191805960309
 30
0.0
 40
433.3299782086639
100
AcDbArc
 50
179.9438413077232
 51
180.0
  0
ARC
  5
230
330
20
100
AcDbEntity
  8
SCHRAFF
100
AcDbCircle
 10
605.462817589445
 20
860.9185240061785
 30
0.0
 40
10.0
100
AcDbArc
 50
86.71710423291409
 51
88.03026253977536
  0
ARC
  5
231
330
20
100
AcDbEntity
  8
SCHRAFF
100
AcDbCircle
 10
605.3482254172426
 20
850.9191805960305
 30
0.0
 40
10.0
100
AcDbArc
 50
88.03026253974342
 51
89.34342084660119
  0
ARC
  5
232
330
20
100
AcDbEntity
  8
SCHRAFF
100
AcDbCircle
 10
605.5846655498744
 20
840.9219761836119
 30
0.0
 40
10.0
100
AcDbArc
 50
89.34342084658359
 51
91.35482842447157
  0
ARC
  5
233
330
20
100
AcDbEntity
  8
SCHRAFF
100
AcDbCircle
 10
606.3791938582612
 20
880.8962047792368
 30
0.0
 40
10.0
100
AcDbArc
 50
249.2281843291118
 51
284.145543952358
  0
ARC
  5
234
330
20
100
AcDbEntity
  8
SCHRAFF
100
AcDbCircle
 10
605.462817589445
 20
860.9185240061785
 30
0.0
 40
10.0
100
AcDbArc
 50
251.8545009427668
 51
286.7732049282269
  0
ARC
  5
235
330
20
100
AcDbEntity
  8
SCHRAFF
100
AcDbCircle
 10
605.8065339159827
 20
870.9126152148312
 30
0.0
 40
10.0
100
AcDbArc
 50
250.5413426359392
 51
285.4587022591858
  0
ARC
  5
238
330
20
100
AcDbEntity
  8
SCHRAFF
100
AcDbCircle
 10
614.5977325168996
 20
940.2842805001982
 30
0.0
 40
10.0
100
AcDbArc
 50
241.3492344881456
 51
276.2665941113926
  0
ARC
  5
239
330
20
100
AcDbEntity
  8
SCHRAFF
100
AcDbCircle
 10
612.6619218091366
 20
930.4734376768875
 30
0.0
 40
10.0
100
AcDbArc
 50
242.6623927949732
 51
277.5797524182201
  0
ARC
  5
23A
330
20
100
AcDbEntity
  8
SCHRAFF
100
AcDbCircle
 10
609.4672271991957
 20
910.7315684420481
 30
0.0
 40
10.0
100
AcDbArc
 50
245.288709408629
 51
280.2060690318754
  0
ARC
  5
23B
330
20
100
AcDbEntity
  8
SCHRAFF
100
AcDbCircle
 10
610.9514538928338
 20
920.6208086111356
 30
0.0
 40
10.0
100
AcDbArc
 50
243.9755511018013
 51
278.8929107250482
  0
ARC
  5
23C
330
20
100
AcDbEntity
  8
SCHRAFF
100
AcDbCircle
 10
607.1804966239901
 20
890.8640487726808
 30
0.0
 40
10.0
100
AcDbArc
 50
82.77762931243277
 51
84.09078761929063
  0
ARC
  5
23D
330
20
100
AcDbEntity
  8
SCHRAFF
100
AcDbCircle
 10
606.3791938582612
 20
880.8962047792368
 30
0.0
 40
10.0
100
AcDbArc
 50
84.09078761927162
 51
85.40394592610747
  0
ARC
  5
23E
330
20
100
AcDbEntity
  8
SCHRAFF
100
AcDbCircle
 10
605.8065339159827
 20
870.9126152148312
 30
0.0
 40
10.0
100
AcDbArc
 50
85.40394592610551
 51
86.71710423292907
  0
ARC
  5
23F
330
20
100
AcDbEntity
  8
SCHRAFF
100
AcDbCircle
 10
608.210021325176
 20
900.8109115388823
 30
0.0
 40
10.0
100
AcDbArc
 50
246.6018677154568
 51
281.5192273387035
  0
ARC
  5
240
330
20
100
AcDbEntity
  8
SCHRAFF
100
AcDbCircle
 10
607.1804966239901
 20
890.8640487726808
 30
0.0
 40
10.0
100
AcDbArc
 50
247.9150260222839
 51
282.8323856455307
  0
ARC
  5
241
330
20
100
AcDbEntity
  8
SCHRAFF
100
AcDbCircle
 10
608.210021325176
 20
900.8109115388823
 30
0.0
 40
10.0
100
AcDbArc
 50
81.46447100561967
 51
82.77762931244852
  0
ARC
  5
242
330
20
100
AcDbEntity
  8
SCHRAFF
100
AcDbCircle
 10
610.9514538928338
 20
920.6208086111356
 30
0.0
 40
10.0
100
AcDbArc
 50
78.83815439197167
 51
80.15131269878564
  0
ARC
  5
243
330
20
100
AcDbEntity
  8
SCHRAFF
100
AcDbCircle
 10
609.4672271991957
 20
910.7315684420481
 30
0.0
 40
10.0
100
AcDbArc
 50
80.15131269880214
 51
81.46447100561045
  0
ARC
  5
244
330
20
100
AcDbEntity
  8
SCHRAFF
100
AcDbCircle
 10
621.7464649080507
 20
969.4146855781681
 30
0.0
 40
10.0
100
AcDbArc
 50
237.4097595676631
 51
272.3271191909098
  0
ARC
  5
245
330
20
100
AcDbEntity
  8
SCHRAFF
100
AcDbCircle
 10
616.7578692225715
 20
950.0481838903803
 30
0.0
 40
10.0
100
AcDbArc
 50
74.8986794714564
 51
76.21183777833533
  0
ARC
  5
246
330
20
100
AcDbEntity
  8
SCHRAFF
100
AcDbCircle
 10
614.5977325168996
 20
940.2842805001982
 30
0.0
 40
10.0
100
AcDbArc
 50
76.21183777828495
 51
77.52499608516195
  0
ARC
  5
247
330
20
100
AcDbEntity
  8
SCHRAFF
100
AcDbCircle
 10
619.1411973043309
 20
959.7600193119005
 30
0.0
 40
10.0
100
AcDbArc
 50
238.7229178744905
 51
273.6402774977372
  0
ARC
  5
248
330
20
100
AcDbEntity
  8
SCHRAFF
100
AcDbCircle
 10
612.6619218091366
 20
930.4734376768875
 30
0.0
 40
10.0
100
AcDbArc
 50
77.52499608512386
 51
78.83815439197831
  0
ARC
  5
249
330
20
100
AcDbEntity
  8
SCHRAFF
100
AcDbCircle
 10
616.7578692225715
 20
950.0481838903803
 30
0.0
 40
10.0
100
AcDbArc
 50
240.0360761813181
 51
274.9534358045646
  0
ARC
  5
24A
330
20
100
AcDbEntity
  8
SCHRAFF
100
AcDbCircle
 10
627.6172291098223
 20
988.5322587040509
 30
0.0
 40
10.0
100
AcDbArc
 50
234.7834429540082
 51
269.7008025772549
  0
ARC
  5
24B
330
20
100
AcDbEntity
  8
SCHRAFF
100
AcDbCircle
 10
624.5723036048412
 20
979.0071115309562
 30
0.0
 40
10.0
100
AcDbArc
 50
236.0966012608355
 51
271.013960884082
  0
ARC
  5
24C
330
20
100
AcDbEntity
  8
STEMPEL
  6
Continuous
100
AcDbCircle
 10
712.7985970866352
 20
1036.85840497713
 30
0.0
 40
35.00004740563918
100
AcDbArc
 50
134.905698550909
 51
162.527183620552
  0
ARC
  5
24D
330
20
100
AcDbEntity
  8
STEMPEL
  6
Continuous
100
AcDbCircle
 10
649.4964549657647
 20
1021.639523976945
 30
0.0
 40
10.0
100
AcDbArc
 50
315.0
 51
349.7719440319485
  0
LINE
  5
24E
330
20
100
AcDbEntity
  8
STEMPEL
  6
Continuous
100
AcDbLine
 10
674.9719198270609
 20
1040.043921026375
 30
0.0
 11
664.3235786623336
 21
1029.395579861648
 31
0.0
  0
ARC
  5
24F
330
20
100
AcDbEntity
  8
STEMPEL
  6
Continuous
100
AcDbCircle
 10
677.0515007236915
 20
1016.66765780029
 30
0.0
 40
18.0
100
AcDbArc
 50
135.0
 51
169.7719440319486
  0
ARC
  5
250
330
20
100
AcDbEntity
  8
STEMPEL
  6
Continuous
100
AcDbCircle
 10
662.2439977657031
 20
1052.771843087733
 30
0.0
 40
18.0
100
AcDbArc
 50
315.0
 51
342.527183620552
  0
LINE
  5
251
330
20
100
AcDbEntity
  8
STEMPEL
  6
Continuous
100
AcDbLine
 10
699.5204722563066
 20
1073.07775482986
 30
0.0
 11
688.0905930054209
 21
1061.647875578974
 31
0.0
  0
ARC
  5
252
330
20
100
AcDbEntity
  8
STEMPEL
  6
Continuous
100
AcDbCircle
 10
724.2692095978359
 20
1048.32901748833
 30
0.0
 40
35.0
100
AcDbArc
 50
110.0000000000069
 51
135.0
  0
LINE
  5
253
330
20
100
AcDbEntity
  8
STEMPEL
  6
Continuous
100
AcDbLine
 10
713.3264913329194
 20
1081.592415794597
 30
0.0
 11
712.298504581437
 21
1081.218259215837
 31
0.0
  0
LINE
  5
254
330
20
100
AcDbEntity
  8
STEMPEL
  6
Continuous
100
AcDbLine
 10
827.5067996510715
 20
945.0914274350948
 30
0.0
 11
816.0769204001862
 21
933.6615481842093
 31
0.0
  0
ARC
  5
255
330
20
100
AcDbEntity
  8
STEMPEL
  6
Continuous
100
AcDbCircle
 10
791.2874497983421
 20
958.3695522654233
 30
0.0
 40
35.00004740563918
100
AcDbArc
 50
287.472816379448
 51
315.094301449091
  0
ARC
  5
256
330
20
100
AcDbEntity
  8
STEMPEL
  6
Continuous
100
AcDbCircle
 10
771.0967026215024
 20
922.6224559024796
 30
0.0
 40
18.0
100
AcDbArc
 50
280.2280559680514
 51
315.0
  0
ARC
  5
257
330
20
100
AcDbEntity
  8
STEMPEL
  6
Continuous
100
AcDbCircle
 10
776.0685687981568
 20
895.0674101445528
 30
0.0
 40
10.0
100
AcDbArc
 50
100.2280559680515
 51
135.0
  0
ARC
  5
258
330
20
100
AcDbEntity
  8
STEMPEL
  6
Continuous
100
AcDbCircle
 10
807.2008879089453
 20
907.8149529444912
 30
0.0
 40
18.0
100
AcDbArc
 50
107.472816379448
 51
135.0
  0
LINE
  5
259
330
20
100
AcDbEntity
  8
STEMPEL
  6
Continuous
100
AcDbLine
 10
794.4729658475876
 20
920.5428750058491
 30
0.0
 11
783.8246246828603
 21
909.8945338411219
 31
0.0
  0
ARC
  5
25A
330
20
100
AcDbEntity
  8
STEMPEL
  6
Continuous
100
AcDbCircle
 10
802.7580623095426
 20
969.8401647766237
 30
0.0
 40
35.0
100
AcDbArc
 50
315.0
 51
339.9999999999899
  0
POINT
  5
25B
330
20
100
AcDbEntity
  8
BEM
100
AcDbPoint
 10
836.0214606158082
 20
958.8974465117074
 30
0.0
  0
LINE
  5
25C
330
20
100
AcDbEntity
  8
STEMPEL
  6
Continuous
100
AcDbLine
 10
836.0214606158088
 20
958.8974465117077
 30
0.0
 11
835.6473040370492
 21
957.8694597602252
 31
0.0
  0
LINE
  5
25D
330
20
100
AcDbEntity
  8
BEM
100
AcDbLine
 10
626.2040990334699
 20
881.7750542122578
 30
0.0
 11
626.2040990334699
 21
861.7750542122578
 31
0.0
  0
DIMENSION
  5
260
330
20
100
AcDbEntity
  8
BEM
100
AcDbDimension
  2
*D11
 10
860.3732428377936
 20
934.5456642897229
 30
0.0
 11
693.6728191730652
 21
790.8262110135569
 31
0.0
 70
    32
  1
440
 71
     5
 42
439.0
  3
Standard
100
AcDbAlignedDimension
 13
464.25409903347
 23
709.8250542122577
 33
0.0
 14
836.0214606158086
 24
958.8974465117077
 34
0.0
 50
45.0
100
AcDbRotatedDimension
1001
ACAD
1000
DSTYLE
1002
{
1070
    40
1040
5.0
1070
    41
1040
3.5
1070
    42
1040
1.0
1070
    43
1040
7.0
1070
    44
1040
1.0
1070
    47
1040
1.6
1070
    48
1040
1.6
1070
    73
1070
     0
1070
    74
1070
     0
1070
    77
1070
     1
1070
    78
1070
     8
1070
    79
1070
     2
1070
   140
1040
3.5
1070
   141
1040
1.5
1070
   146
1040
0.5
1070
   147
1040
1.5
1070
   172
1070
     1
1070
   178
1070
     1
1070
   179
1070
     2
1070
   271
1070
     2
1070
   272
1070
     2
1070
   284
1070
     8
1070
   285
1070
     8
1070
   286
1070
     8
1070
   340
1005
35
1002
}
  0
DIMENSION
  5
261
330
20
100
AcDbEntity
  8
BEM
100
AcDbDimension
  2
*D14
 10
267.2926338108187
 20
709.8250542122577
 30
0.0
 11
251.0426338108185
 21
689.8250542122577
 31
0.0
 70
    32
 71
     5
 42
39.99999999999989
  3
Standard
100
AcDbAlignedDimension
 13
302.3040990334703
 23
669.8250542122577
 33
0.0
 14
464.25409903347
 24
709.8250542122577
 34
0.0
 50
90.0
100
AcDbRotatedDimension
1001
ACAD
1000
DSTYLE
1002
{
1070
    40
1040
5.0
1070
    41
1040
3.5
1070
    42
1040
1.0
1070
    43
1040
7.0
1070
    44
1040
1.0
1070
    47
1040
1.6
1070
    48
1040
1.6
1070
    73
1070
     0
1070
    74
1070
     0
1070
    77
1070
     1
1070
    78
1070
     8
1070
    79
1070
     2
1070
   140
1040
3.5
1070
   141
1040
1.5
1070
   146
1040
0.5
1070
   147
1040
1.5
1070
   172
1070
     1
1070
   178
1070
     1
1070
   179
1070
     2
1070
   271
1070
     2
1070
   272
1070
     2
1070
   284
1070
     8
1070
   285
1070
     8
1070
   286
1070
     8
1070
   340
1005
35
1002
}
  0
TEXT
  5
268
330
20
100
AcDbEntity
  8
TEXT
 62
     1
100
AcDbText
 10
452.8408394286583
 20
894.482444824947
 30
0.0
 40
17.5
  1
DN300
 50
90.0
 41
0.8
  7
GREEKS
100
AcDbText
  0
TEXT
  5
269
330
20
100
AcDbEntity
  8
TEXT
 62
     1
100
AcDbText
 10
655.8345452806911
 20
917.3377600105599
 30
0.0
 40
17.5
  1
DN150
 50
45.0
 41
0.8
  7
GREEKS
100
AcDbText
  0
DIMENSION
  5
27B
102
{ACAD_XDICTIONARY
360
28A
102
}
102
{ACAD_REACTORS
330
296
102
}
330
20
100
AcDbEntity
  8
BEM
100
AcDbDimension
  2
*D7
 10
464.25409903347
 20
659.8250542122578
 30
0.0
 11
664.9396529403999
 21
1139.996394828192
 31
0.0
 70
   162
 71
     5
 42
0.7853981633974483
  3
Standard
100
AcDb2LineAngularDimension
 13
778.209509880297
 23
1023.780465059085
 33
0.0
 14
556.6600796664556
 24
802.2310348452434
 34
0.0
 15
464.25409903347
 25
1099.825054212257
 35
0.0
 16
587.1105881994788
 26
1168.331713819338
 36
0.0
1001
ACAD
1000
DSTYLE
1002
{
1070
    40
1040
5.0
1070
    41
1040
3.5
1070
    42
1040
1.0
1070
    43
1040
7.0
1070
    44
1040
1.0
1070
    47
1040
1.6
1070
    48
1040
1.6
1070
    73
1070
     0
1070
    74
1070
     0
1070
    77
1070
     1
1070
    78
1070
     8
1070
    79
1070
     2
1070
   140
1040
3.5
1070
   141
1040
1.5
1070
   146
1040
0.5
1070
   147
1040
1.5
1070
   172
1070
     1
1070
   178
1070
     1
1070
   179
1070
     2
1070
   271
1070
     2
1070
   272
1070
     2
1070
   284
1070
     8
1070
   285
1070
     8
1070
   286
1070
     8
1070
   340
1005
35
1002
}
  0
TEXT
  5
324
330
20
100
AcDbEntity
  8
BEM
100
AcDbText
 10
1043.255730964291
 20
25.41975269997152
 30
0.0
 40
10.0
  1
Diese Zeichnung ist urheberrechtlich geschützt und bleibt unser Eigentum. Sie darf weder ganz noch teilweise verfielfältigt und nicht an Dritte weitergegeben werden.
 50
90.0
 41
0.8
  7
GREEKS
100
AcDbText
  0
TEXT
  5
325
330
20
100
AcDbEntity
  8
TEXT
100
AcDbText
 10
481.7206788119809
 20
223.5984562861056
 30
0.0
 40
10.0
  1
DIN EN1123-2
 41
0.8
  7
GREEKS
 72
     1
 11
524.1968692881714
 21
223.5984562861056
 31
0.0
100
AcDbText
  0
ENDSEC
  0
SECTION
  2
OBJECTS
  0
DICTIONARY
  5
C
330
0
100
AcDbDictionary
281
     1
  3
ACAD_COLOR
350
1B
  3
ACAD_GROUP
350
D
  3
ACAD_LAYOUT
350
19
  3
ACAD_MATERIAL
350
1A
  3
ACAD_MLINESTYLE
350
16
  3
ACAD_PLOTSETTINGS
350
18
  3
ACAD_PLOTSTYLENAME
350
E
  3
AcDbVariableDictionary
350
33E
  0
DICTIONARY
  5
28A
330
27B
100
AcDbDictionary
280
     1
281
     1
  3
ACAD_DIMASSOC
360
296
  0
DICTIONARY
  5
1B
102
{ACAD_REACTORS
330
C
102
}
330
C
100
AcDbDictionary
281
     1
  0
DICTIONARY
  5
D
102
{ACAD_REACTORS
330
C
102
}
330
C
100
AcDbDictionary
281
     1
  0
DICTIONARY
  5
19
102
{ACAD_REACTORS
330
C
102
}
330
C
100
AcDbDictionary
281
     1
  3
Layout1
350
1F
  3
Model
350
23
  0
DICTIONARY
  5
1A
102
{ACAD_REACTORS
330
C
102
}
330
C
100
AcDbDictionary
281
     1
  0
DICTIONARY
  5
16
102
{ACAD_REACTORS
330
C
102
}
330
C
100
AcDbDictionary
281
     1
  3
Standard
350
17
  0
DICTIONARY
  5
18
102
{ACAD_REACTORS
330
C
102
}
330
C
100
AcDbDictionary
281
     1
  0
ACDBDICTIONARYWDFLT
  5
E
102
{ACAD_REACTORS
330
C
102
}
330
C
100
AcDbDictionary
281
     1
  3
Normal
350
F
100
AcDbDictionaryWithDefault
340
F
  0
DICTIONARY
  5
33E
102
{ACAD_REACTORS
330
C
102
}
330
C
100
AcDbDictionary
281
     1
  3
DIMASSOC
350
340
  3
HIDETEXT
350
33F
  3
PROJECTNAME
350
341
  0
DIMASSOC
  5
296
102
{ACAD_REACTORS
330
28A
102
}
330
28A
100
AcDbDimAssoc
330
27B
 90
       15
 70
     0
 71
     0
  1
AcDbOsnapPointRef
 72
    13
331
1EB
 73
     2
 91
        0
 40
0.0
 10
0.0
 20
0.0
 30
2.000000000000000E+50
 75
     0
  1
AcDbOsnapPointRef
 72
     1
331
1EB
 73
     2
 91
        0
 40
1.0
 10
0.0
 20
0.0
 30
2.000000000000000E+50
 75
     0
  1
AcDbOsnapPointRef
 72
    13
331
181
 73
     2
 91
        0
 40
0.0
 10
0.0
 20
0.0
 30
2.000000000000000E+50
 75
     0
  1
AcDbOsnapPointRef
 72
     1
331
181
 73
     2
 91
        0
 40
1.0
 10
0.0
 20
0.0
 30
2.000000000000000E+50
 75
     0
  0
LAYOUT
  5
1F
102
{ACAD_REACTORS
330
19
102
}
330
19
100
AcDbPlotSettings
  1

  2
RICOH Aficio 2027 PCL 6
  4

  6

 40
0.0
 41
0.0
 42
0.0
 43
0.0
 44
0.0
 45
0.0
 46
0.0
 47
0.0
 48
0.0
 49
0.0
140
0.0
141
0.0
142
1.0
143
1.0
 70
   688
 72
     0
 73
     0
 74
     5
  7
monochrome1.ctb
 75
    16
147
1.0
 76
     0
 77
     2
 78
   300
148
0.0
149
0.0
100
AcDbLayout
  1
Layout1
 70
     0
 71
     1
 10
0.0
 20
0.0
 11
12.0
 21
9.0
 12
0.0
 22
0.0
 32
0.0
 14
1.000000000000000E+20
 24
1.000000000000000E+20
 34
1.000000000000000E+20
 15
-1.000000000000000E+20
 25
-1.000000000000000E+20
 35
-1.000000000000000E+20
146
0.0
 13
0.0
 23
0.0
 33
0.0
 16
1.0
 26
0.0
 36
0.0
 17
0.0
 27
1.0
 37
0.0
 76
     0
330
1C
  0
LAYOUT
  5
23
102
{ACAD_REACTORS
330
19
102
}
330
19
100
AcDbPlotSettings
  1

  2
RICOH Aficio 2027 PCL 6
  4
A4
  6

 40
5.027083396911621
 41
5.027085304260253
 42
5.027084350585937
 43
5.027069091796875
 44
209.9733276367187
 45
296.9259948730469
 46
0.0
 47
0.0
 48
0.0
 49
0.0
140
0.0
141
0.0
142
1.0
143
1.0
 70
 11952
 72
     0
 73
     1
 74
     0
  7
monochrome1.ctb
 75
     0
147
1.0
 76
     0
 77
     2
 78
   300
148
5756.851871210684
149
232.3518454851996
100
AcDbLayout
  1
Model
 70
     1
 71
     0
 10
0.0
 20
0.0
 11
12.0
 21
9.0
 12
0.0
 22
0.0
 32
0.0
 14
0.0
 24
0.0
 34
0.0
 15
0.0
 25
0.0
 35
0.0
146
0.0
 13
0.0
 23
0.0
 33
0.0
 16
1.0
 26
0.0
 36
0.0
 17
0.0
 27
1.0
 37
0.0
 76
     0
330
20
  0
MLINESTYLE
  5
17
102
{ACAD_REACTORS
330
16
102
}
330
16
100
AcDbMlineStyle
  2
STANDARD
 70
     0
  3

 62
   256
 51
90.0
 52
90.0
 71
     2
 49
0.5
 62
   256
  6
BYLAYER
 49
-0.5
 62
   256
  6
BYLAYER
  0
ACDBPLACEHOLDER
  5
F
102
{ACAD_REACTORS
330
E
102
}
330
E
  0
DICTIONARYVAR
  5
340
102
{ACAD_REACTORS
330
33E
102
}
330
33E
100
DictionaryVariables
280
     0
  1
2
  0
DICTIONARYVAR
  5
33F
102
{ACAD_REACTORS
330
33E
102
}
330
33E
100
DictionaryVariables
280
     0
  1
1
  0
DICTIONARYVAR
  5
341
102
{ACAD_REACTORS
330
33E
102
}
330
33E
100
DictionaryVariables
280
     0
  1

  0
ENDSEC
  0
EOF
