  0
SECTION
  2
HEADER
  9
$ACADVER
  1
AC1018
  9
$ACADMAINTVER
 70
     2
  9
$DWGCODEPAGE
  3
ANSI_1252
  9
$INSBASE
 10
0.0
 20
0.0
 30
0.0
  9
$EXTMIN
 10
-0.080096417720597
 20
-0.1132792193470777
 30
-0.000000000000013
  9
$EXTMAX
 10
1050.000004890039
 20
1485.000006915915
 30
0.0000000000000023
  9
$LIMMIN
 10
0.0
 20
0.0
  9
$LIMMAX
 10
1050.0
 20
1485.0
  9
$ORTHOMODE
 70
     0
  9
$REGENMODE
 70
     1
  9
$FILLMODE
 70
     1
  9
$QTEXTMODE
 70
     0
  9
$MIRRTEXT
 70
     1
  9
$LTSCALE
 40
50.0
  9
$ATTMODE
 70
     1
  9
$TEXTSIZE
 40
2.5
  9
$TRACEWID
 40
0.5
  9
$TEXTSTYLE
  7
GREEKS
  9
$CLAYER
  8
BEM
  9
$CELTYPE
  6
ByLayer
  9
$CECOLOR
 62
   256
  9
$CELTSCALE
 40
1.0
  9
$DISPSILH
 70
     0
  9
$DIMSCALE
 40
5.0
  9
$DIMASZ
 40
3.5
  9
$DIMEXO
 40
1.0
  9
$DIMDLI
 40
7.0
  9
$DIMRND
 40
0.0
  9
$DIMDLE
 40
0.0
  9
$DIMEXE
 40
1.0
  9
$DIMTP
 40
3.0
  9
$DIMTM
 40
3.0
  9
$DIMTXT
 40
3.5
  9
$DIMCEN
 40
1.5
  9
$DIMTSZ
 40
0.0
  9
$DIMTOL
 70
     0
  9
$DIMLIM
 70
     0
  9
$DIMTIH
 70
     0
  9
$DIMTOH
 70
     0
  9
$DIMSE1
 70
     0
  9
$DIMSE2
 70
     0
  9
$DIMTAD
 70
     1
  9
$DIMZIN
 70
     8
  9
$DIMBLK
  1

  9
$DIMASO
 70
     1
  9
$DIMSHO
 70
     0
  9
$DIMPOST
  1

  9
$DIMAPOST
  1

  9
$DIMALT
 70
     0
  9
$DIMALTD
 70
     2
  9
$DIMALTF
 40
25.4
  9
$DIMLFAC
 40
1.0
  9
$DIMTOFL
 70
     1
  9
$DIMTVP
 40
0.0
  9
$DIMTIX
 70
     0
  9
$DIMSOXD
 70
     0
  9
$DIMSAH
 70
     0
  9
$DIMBLK1
  1

  9
$DIMBLK2
  1

  9
$DIMSTYLE
  2
Standard
  9
$DIMCLRD
 70
     0
  9
$DIMCLRE
 70
     0
  9
$DIMCLRT
 70
     1
  9
$DIMTFAC
 40
0.5
  9
$DIMGAP
 40
1.5
  9
$DIMJUST
 70
     0
  9
$DIMSD1
 70
     0
  9
$DIMSD2
 70
     0
  9
$DIMTOLJ
 70
     1
  9
$DIMTZIN
 70
     8
  9
$DIMALTZ
 70
     8
  9
$DIMALTTZ
 70
     8
  9
$DIMUPT
 70
     0
  9
$DIMDEC
 70
     2
  9
$DIMTDEC
 70
     2
  9
$DIMALTU
 70
     2
  9
$DIMALTTD
 70
     2
  9
$DIMTXSTY
  7
GREEKS
  9
$DIMAUNIT
 70
     0
  9
$DIMADEC
 70
     2
  9
$DIMALTRND
 40
0.0
  9
$DIMAZIN
 70
     2
  9
$DIMDSEP
 70
    46
  9
$DIMATFIT
 70
     3
  9
$DIMFRAC
 70
     0
  9
$DIMLDRBLK
  1

  9
$DIMLUNIT
 70
     2
  9
$DIMLWD
 70
    -2
  9
$DIMLWE
 70
    -2
  9
$DIMTMOVE
 70
     0
  9
$LUNITS
 70
     2
  9
$LUPREC
 70
     2
  9
$SKETCHINC
 40
1.0
  9
$FILLETRAD
 40
0.0
  9
$AUNITS
 70
     0
  9
$AUPREC
 70
     0
  9
$MENU
  1
ACAD
  9
$ELEVATION
 40
0.0
  9
$PELEVATION
 40
0.0
  9
$THICKNESS
 40
0.0
  9
$LIMCHECK
 70
     0
  9
$CHAMFERA
 40
0.0
  9
$CHAMFERB
 40
0.0
  9
$CHAMFERC
 40
0.0
  9
$CHAMFERD
 40
0.0
  9
$SKPOLY
 70
     0
  9
$TDCREATE
 40
2452215.971595023
  9
$TDUCREATE
 40
2452215.888261690
  9
$TDUPDATE
 40
2455657.573051805
  9
$TDUUPDATE
 40
2455657.489718472
  9
$TDINDWG
 40
0.0728294213
  9
$TDUSRTIMER
 40
0.0728294213
  9
$USRTIMER
 70
     1
  9
$ANGBASE
 50
0.0
  9
$ANGDIR
 70
     0
  9
$PDMODE
 70
     0
  9
$PDSIZE
 40
0.0
  9
$PLINEWID
 40
0.0
  9
$SPLFRAME
 70
     0
  9
$SPLINETYPE
 70
     6
  9
$SPLINESEGS
 70
     8
  9
$HANDSEED
  5
4BC
  9
$SURFTAB1
 70
     6
  9
$SURFTAB2
 70
     6
  9
$SURFTYPE
 70
     6
  9
$SURFU
 70
     6
  9
$SURFV
 70
     6
  9
$UCSBASE
  2

  9
$UCSNAME
  2

  9
$UCSORG
 10
0.0
 20
0.0
 30
0.0
  9
$UCSXDIR
 10
1.0
 20
0.0
 30
0.0
  9
$UCSYDIR
 10
0.0
 20
1.0
 30
0.0
  9
$UCSORTHOREF
  2

  9
$UCSORTHOVIEW
 70
     0
  9
$UCSORGTOP
 10
0.0
 20
0.0
 30
0.0
  9
$UCSORGBOTTOM
 10
0.0
 20
0.0
 30
0.0
  9
$UCSORGLEFT
 10
0.0
 20
0.0
 30
0.0
  9
$UCSORGRIGHT
 10
0.0
 20
0.0
 30
0.0
  9
$UCSORGFRONT
 10
0.0
 20
0.0
 30
0.0
  9
$UCSORGBACK
 10
0.0
 20
0.0
 30
0.0
  9
$PUCSBASE
  2

  9
$PUCSNAME
  2

  9
$PUCSORG
 10
0.0
 20
0.0
 30
0.0
  9
$PUCSXDIR
 10
1.0
 20
0.0
 30
0.0
  9
$PUCSYDIR
 10
0.0
 20
1.0
 30
0.0
  9
$PUCSORTHOREF
  2

  9
$PUCSORTHOVIEW
 70
     0
  9
$PUCSORGTOP
 10
0.0
 20
0.0
 30
0.0
  9
$PUCSORGBOTTOM
 10
0.0
 20
0.0
 30
0.0
  9
$PUCSORGLEFT
 10
0.0
 20
0.0
 30
0.0
  9
$PUCSORGRIGHT
 10
0.0
 20
0.0
 30
0.0
  9
$PUCSORGFRONT
 10
0.0
 20
0.0
 30
0.0
  9
$PUCSORGBACK
 10
0.0
 20
0.0
 30
0.0
  9
$USERI1
 70
     0
  9
$USERI2
 70
     0
  9
$USERI3
 70
     0
  9
$USERI4
 70
     0
  9
$USERI5
 70
     0
  9
$USERR1
 40
0.0
  9
$USERR2
 40
0.0
  9
$USERR3
 40
0.0
  9
$USERR4
 40
0.0
  9
$USERR5
 40
0.0
  9
$WORLDVIEW
 70
     1
  9
$SHADEDGE
 70
     3
  9
$SHADEDIF
 70
    70
  9
$TILEMODE
 70
     1
  9
$MAXACTVP
 70
    16
  9
$PINSBASE
 10
0.0
 20
0.0
 30
0.0
  9
$PLIMCHECK
 70
     0
  9
$PEXTMIN
 10
1.000000000000000E+20
 20
1.000000000000000E+20
 30
1.000000000000000E+20
  9
$PEXTMAX
 10
-1.000000000000000E+20
 20
-1.000000000000000E+20
 30
-1.000000000000000E+20
  9
$PLIMMIN
 10
0.0
 20
0.0
  9
$PLIMMAX
 10
12.0
 20
9.0
  9
$UNITMODE
 70
     0
  9
$VISRETAIN
 70
     0
  9
$PLINEGEN
 70
     0
  9
$PSLTSCALE
 70
     0
  9
$TREEDEPTH
 70
  3020
  9
$CMLSTYLE
  2
Standard
  9
$CMLJUST
 70
     0
  9
$CMLSCALE
 40
1.0
  9
$PROXYGRAPHICS
 70
     1
  9
$MEASUREMENT
 70
     0
  9
$CELWEIGHT
370
    -1
  9
$ENDCAPS
280
     0
  9
$JOINSTYLE
280
     0
  9
$LWDISPLAY
290
     0
  9
$INSUNITS
 70
     0
  9
$HYPERLINKBASE
  1

  9
$STYLESHEET
  1
monochrome 1.ctb
  9
$XEDIT
290
     1
  9
$CEPSNTYPE
380
     0
  9
$PSTYLEMODE
290
     1
  9
$FINGERPRINTGUID
  2
{6B52FE18-653B-45CE-B386-B38F97745C09}
  9
$VERSIONGUID
  2
{75912B03-BD30-4189-880E-274880227003}
  9
$EXTNAMES
290
     1
  9
$PSVPSCALE
 40
0.0
  9
$OLESTARTUP
290
     0
  9
$SORTENTS
280
   127
  9
$INDEXCTL
280
     0
  9
$HIDETEXT
280
     1
  9
$XCLIPFRAME
290
     0
  9
$HALOGAP
280
     0
  9
$OBSCOLOR
 70
   257
  9
$OBSLTYPE
280
     0
  9
$INTERSECTIONDISPLAY
280
     0
  9
$INTERSECTIONCOLOR
 70
   257
  9
$DIMASSOC
280
     2
  9
$PROJECTNAME
  1

  0
ENDSEC
  0
SECTION
  2
CLASSES
  0
CLASS
  1
ACDBDICTIONARYWDFLT
  2
AcDbDictionaryWithDefault
  3
ObjectDBX Classes
 90
        0
 91
        1
280
     0
281
     0
  0
CLASS
  1
DICTIONARYVAR
  2
AcDbDictionaryVar
  3
ObjectDBX Classes
 90
        0
 91
        3
280
     0
281
     0
  0
CLASS
  1
DIMASSOC
  2
AcDbDimAssoc
  3
"AcDbDimAssoc|Product Desc:     AcDim ARX App For Dimension|Company:          Autodesk, Inc.|WEB Address:      www.autodesk.com"
 90
        0
 91
        1
280
     0
281
     0
  0
ENDSEC
  0
SECTION
  2
TABLES
  0
TABLE
  2
VPORT
  5
8
330
0
100
AcDbSymbolTable
 70
     3
  0
VPORT
  5
4BB
330
8
100
AcDbSymbolTableRecord
100
AcDbViewportTableRecord
  2
*Active
 70
     0
 10
0.0
 20
0.0
 11
1.0
 21
1.0
 12
524.9999999999998
 22
742.4999999999999
 13
0.0
 23
0.0
 14
1.0
 24
1.0
 15
10.0
 25
10.0
 16
0.0
 26
0.0
 36
1.0
 17
0.0
 27
0.0
 37
0.0
 40
1485.0
 41
1.334231805929919
 42
50.0
 43
0.0
 44
0.0
 50
0.0
 51
0.0
 71
     0
 72
  1500
 73
     1
 74
     0
 75
     0
 76
     0
 77
     0
 78
     0
281
     0
 65
     1
110
0.0
120
0.0
130
0.0
111
1.0
121
0.0
131
0.0
112
0.0
122
1.0
132
0.0
 79
     0
146
0.0
  0
ENDTAB
  0
TABLE
  2
LTYPE
  5
5
330
0
100
AcDbSymbolTable
 70
     2
  0
LTYPE
  5
13
330
5
100
AcDbSymbolTableRecord
100
AcDbLinetypeTableRecord
  2
ByBlock
 70
     0
  3

 72
    65
 73
     0
 40
0.0
  0
LTYPE
  5
14
330
5
100
AcDbSymbolTableRecord
100
AcDbLinetypeTableRecord
  2
ByLayer
 70
     0
  3

 72
    65
 73
     0
 40
0.0
  0
LTYPE
  5
15
330
5
100
AcDbSymbolTableRecord
100
AcDbLinetypeTableRecord
  2
Continuous
 70
     0
  3
Solid line
 72
    65
 73
     0
 40
0.0
  0
LTYPE
  5
37
330
5
100
AcDbSymbolTableRecord
100
AcDbLinetypeTableRecord
  2
STRICHPUNKT
 70
     0
  3
__ . __ . __ . __ . __ . __ . __ . __ . __ . __
 72
    65
 73
     4
 40
1.0
 49
0.5
 74
     0
 49
-0.25
 74
     0
 49
0.0
 74
     0
 49
-0.25
 74
     0
  0
ENDTAB
  0
TABLE
  2
LAYER
  5
2
330
0
100
AcDbSymbolTable
 70
     9
  0
LAYER
  5
10
330
2
100
AcDbSymbolTableRecord
100
AcDbLayerTableRecord
  2
0
 70
     0
 62
     7
  6
Continuous
370
    -3
390
F
  0
LAYER
  5
3A
330
2
100
AcDbSymbolTableRecord
100
AcDbLayerTableRecord
  2
VOLL
 70
     0
 62
     1
  6
Continuous
370
    -3
390
F
  0
LAYER
  5
3B
330
2
100
AcDbSymbolTableRecord
100
AcDbLayerTableRecord
  2
HILF
 70
     0
 62
     2
  6
Continuous
370
    -3
390
F
  0
LAYER
  5
3C
330
2
100
AcDbSymbolTableRecord
100
AcDbLayerTableRecord
  2
MITTEL
 70
     0
 62
     2
  6
STRICHPUNKT
370
    -3
390
F
  0
LAYER
  5
3D
330
2
100
AcDbSymbolTableRecord
100
AcDbLayerTableRecord
  2
BEM
 70
     0
 62
     7
  6
Continuous
370
    -3
390
F
  0
LAYER
  5
3E
330
2
100
AcDbSymbolTableRecord
100
AcDbLayerTableRecord
  2
STEMPEL
 70
     0
 62
     3
  6
Continuous
370
    -3
390
F
  0
LAYER
  5
3F
330
2
100
AcDbSymbolTableRecord
100
AcDbLayerTableRecord
  2
TEXT
 70
     0
 62
     7
  6
Continuous
370
    -3
390
F
  0
LAYER
  5
40
330
2
100
AcDbSymbolTableRecord
100
AcDbLayerTableRecord
  2
DEFPOINTS
 70
     0
 62
     7
  6
Continuous
290
     0
370
    -3
390
F
  0
LAYER
  5
41
330
2
100
AcDbSymbolTableRecord
100
AcDbLayerTableRecord
  2
SCHRAFF
 70
     0
 62
     7
  6
Continuous
370
    -3
390
F
  0
ENDTAB
  0
TABLE
  2
STYLE
  5
3
330
0
100
AcDbSymbolTable
 70
     2
  0
STYLE
  5
11
330
3
100
AcDbSymbolTableRecord
100
AcDbTextStyleTableRecord
  2
STANDARD
 70
     0
 40
0.0
 41
1.0
 50
0.0
 71
     0
 42
3.5
  3
txt
  4

  0
STYLE
  5
36
330
3
100
AcDbSymbolTableRecord
100
AcDbTextStyleTableRecord
  2
GREEKS
 70
     0
 40
0.0
 41
0.8
 50
0.0
 71
     0
 42
2.5
  3
SIMPLEX.shx
  4

  0
ENDTAB
  0
TABLE
  2
VIEW
  5
6
330
0
100
AcDbSymbolTable
 70
     0
  0
ENDTAB
  0
TABLE
  2
UCS
  5
7
330
0
100
AcDbSymbolTable
 70
     0
  0
ENDTAB
  0
TABLE
  2
APPID
  5
9
330
0
100
AcDbSymbolTable
 70
     1
  0
APPID
  5
12
330
9
100
AcDbSymbolTableRecord
100
AcDbRegAppTableRecord
  2
ACAD
 70
     0
  0
ENDTAB
  0
TABLE
  2
DIMSTYLE
  5
A
330
0
100
AcDbSymbolTable
 70
     1
100
AcDbDimStyleTable
 71
     1
340
257
  0
DIMSTYLE
105
257
102
{ACAD_REACTORS
330
154
330
16A
330
16C
330
16B
330
15D
330
495
102
}
330
A
100
AcDbSymbolTableRecord
100
AcDbDimStyleTableRecord
  2
Standard
 70
     0
340
11
  0
ENDTAB
  0
TABLE
  2
BLOCK_RECORD
  5
1
330
0
100
AcDbSymbolTable
 70
    20
  0
BLOCK_RECORD
  5
20
330
1
100
AcDbSymbolTableRecord
100
AcDbBlockTableRecord
  2
*Model_Space
340
23
  0
BLOCK_RECORD
  5
1C
330
1
100
AcDbSymbolTableRecord
100
AcDbBlockTableRecord
  2
*Paper_Space
340
1F
  0
BLOCK_RECORD
  5
24
330
1
100
AcDbSymbolTableRecord
100
AcDbBlockTableRecord
  2
LOGO
340
0
102
{BLKREFS
331
168
102
}
  0
BLOCK_RECORD
  5
27
330
1
100
AcDbSymbolTableRecord
100
AcDbBlockTableRecord
  2
*X2
340
0
102
{BLKREFS
331
1CF
102
}
  0
BLOCK_RECORD
  5
28
330
1
100
AcDbSymbolTableRecord
100
AcDbBlockTableRecord
  2
*X3
340
0
102
{BLKREFS
331
23B
102
}
  0
BLOCK_RECORD
  5
378
330
1
100
AcDbSymbolTableRecord
100
AcDbBlockTableRecord
  2
INDEX
340
0
102
{BLKREFS
331
37C
102
}
  0
BLOCK_RECORD
  5
395
330
1
100
AcDbSymbolTableRecord
100
AcDbBlockTableRecord
  2
*D10
340
0
  0
BLOCK_RECORD
  5
3E4
330
1
100
AcDbSymbolTableRecord
100
AcDbBlockTableRecord
  2
*D12
340
0
  0
BLOCK_RECORD
  5
3FC
330
1
100
AcDbSymbolTableRecord
100
AcDbBlockTableRecord
  2
*D14
340
0
  0
BLOCK_RECORD
  5
414
330
1
100
AcDbSymbolTableRecord
100
AcDbBlockTableRecord
  2
*D16
340
0
  0
BLOCK_RECORD
  5
477
330
1
100
AcDbSymbolTableRecord
100
AcDbBlockTableRecord
  2
*D18
340
0
  0
BLOCK_RECORD
  5
496
330
1
100
AcDbSymbolTableRecord
100
AcDbBlockTableRecord
  2
*D19
340
0
  0
ENDTAB
  0
ENDSEC
  0
SECTION
  2
BLOCKS
  0
BLOCK
  5
45
330
20
100
AcDbEntity
  8
0
100
AcDbBlockBegin
  2
*Model_Space
 70
     0
 10
0.0
 20
0.0
 30
0.0
  3
*Model_Space
  1

  0
ENDBLK
  5
46
330
20
100
AcDbEntity
  8
0
100
AcDbBlockEnd
  0
BLOCK
  5
43
330
1C
100
AcDbEntity
 67
     1
  8
0
100
AcDbBlockBegin
  2
*Paper_Space
 70
     0
 10
0.0
 20
0.0
 30
0.0
  3
*Paper_Space
  1

  0
ENDBLK
  5
44
330
1C
100
AcDbEntity
 67
     1
  8
0
100
AcDbBlockEnd
  0
BLOCK
  5
47
330
24
100
AcDbEntity
  8
0
100
AcDbBlockBegin
  2
LOGO
 70
     0
 10
0.0
 20
0.0
 30
0.0
  3
LOGO
  1

  0
ARC
  5
48
330
24
100
AcDbEntity
  8
0
100
AcDbCircle
 10
11.59973089678112
 20
-9.271599258481501
 30
0.0
 40
4.5
100
AcDbArc
 50
270.0
 51
231.0575587310159
  0
LINE
  5
49
330
24
100
AcDbEntity
  8
0
100
AcDbLine
 10
3.599730896781125
 20
-4.771599258481529
 30
0.0
 11
3.599730896781153
 21
-11.77159925848133
 31
0.0
  0
LINE
  5
4A
330
24
100
AcDbEntity
  8
0
100
AcDbLine
 10
2.599730896781125
 20
-4.771599258481529
 30
0.0
 11
2.599730896781153
 21
-11.77159925848133
 31
0.0
  0
CIRCLE
  5
4B
330
24
100
AcDbEntity
  8
0
100
AcDbCircle
 10
11.59973089678112
 20
-9.271599258481501
 30
0.0
 40
3.5
  0
ARC
  5
4C
330
24
100
AcDbEntity
  8
0
100
AcDbCircle
 10
31.59973089678115
 20
-9.271599258481472
 30
0.0
 40
4.5
100
AcDbArc
 50
270.0
 51
231.0575587310182
  0
LINE
  5
4D
330
24
100
AcDbEntity
  8
0
100
AcDbLine
 10
17.59973089678112
 20
-4.771599258481472
 30
0.0
 11
17.59973089678115
 21
-13.77159925848147
 31
0.0
  0
ARC
  5
4E
330
24
100
AcDbEntity
  8
0
100
AcDbCircle
 10
22.59973089678116
 20
-7.271599258481472
 30
0.0
 40
2.5
100
AcDbArc
 50
293.1161887722295
 51
90.0
  0
CIRCLE
  5
4F
330
24
100
AcDbEntity
  8
0
100
AcDbCircle
 10
31.59973089678115
 20
-9.271599258481472
 30
0.0
 40
3.5
  0
ARC
  5
50
330
24
100
AcDbEntity
  8
0
100
AcDbCircle
 10
4.599730896781153
 20
-11.77159925848133
 30
0.0
 40
1.0
100
AcDbArc
 50
180.0
 51
270.0
  0
ARC
  5
51
330
24
100
AcDbEntity
  8
0
100
AcDbCircle
 10
4.599730896781153
 20
-11.77159925848133
 30
0.0
 40
2.0
100
AcDbArc
 50
179.9999999999992
 51
270.0
  0
LINE
  5
52
330
24
100
AcDbEntity
  8
0
100
AcDbLine
 10
11.59973089678115
 20
-13.77159925848144
 30
0.0
 11
4.599730896781153
 21
-13.77159925848147
 31
0.0
  0
LINE
  5
53
330
24
100
AcDbEntity
  8
0
100
AcDbLine
 10
8.771303772034769
 20
-12.77159925848136
 30
0.0
 11
4.599730896781153
 21
-12.77159925848133
 31
0.0
  0
LINE
  5
54
330
24
100
AcDbEntity
  8
0
100
AcDbLine
 10
31.59973089678115
 20
-13.77159925848147
 30
0.0
 11
23.6715276665056
 21
-13.77159925848144
 31
0.0
  0
LINE
  5
55
330
24
100
AcDbEntity
  8
0
100
AcDbLine
 10
23.56565672307022
 20
-9.51278021337896
 30
0.0
 11
24.4388546544846
 21
-12.77159925848144
 31
0.0
  0
LINE
  5
56
330
24
100
AcDbEntity
  8
0
100
AcDbLine
 10
22.59973089678116
 20
-9.771599258481472
 30
0.0
 11
18.59973089678112
 21
-9.771599258481472
 31
0.0
  0
LINE
  5
57
330
24
100
AcDbEntity
  8
0
100
AcDbLine
 10
18.59973089678115
 20
-13.77159925848144
 30
0.0
 11
17.59973089678115
 21
-13.77159925848144
 31
0.0
  0
LINE
  5
58
330
24
100
AcDbEntity
  8
0
100
AcDbLine
 10
18.59973089678115
 20
-9.771599258481472
 30
0.0
 11
18.59973089678115
 21
-13.77159925848144
 31
0.0
  0
LINE
  5
59
330
24
100
AcDbEntity
  8
0
100
AcDbLine
 10
22.59973089678116
 20
-9.771599258481472
 30
0.0
 11
23.67152766650562
 21
-13.77159925848147
 31
0.0
  0
ARC
  5
5A
330
24
100
AcDbEntity
  8
0
100
AcDbCircle
 10
22.59973089678116
 20
-7.271599258481472
 30
0.0
 40
2.5
100
AcDbArc
 50
270.0
 51
270.0000000000007
  0
LINE
  5
5B
330
24
100
AcDbEntity
  8
0
100
AcDbLine
 10
28.77130377203494
 20
-12.77159925848147
 30
0.0
 11
24.43885465448463
 21
-12.77159925848144
 31
0.0
  0
LINE
  5
5C
330
24
100
AcDbEntity
  8
0
100
AcDbLine
 10
3.599730896781125
 20
-4.771599258481472
 30
0.0
 11
2.599730896781125
 21
-4.771599258481472
 31
0.0
  0
LINE
  5
5D
330
24
100
AcDbEntity
  8
0
100
AcDbLine
 10
22.59973089678116
 20
-8.771599258481472
 30
0.0
 11
18.59973089678115
 21
-8.771599258481472
 31
0.0
  0
LINE
  5
5E
330
24
100
AcDbEntity
  8
0
100
AcDbLine
 10
22.59973089678116
 20
-5.771599258481472
 30
0.0
 11
18.59973089678115
 21
-5.771599258481472
 31
0.0
  0
LINE
  5
5F
330
24
100
AcDbEntity
  8
0
100
AcDbLine
 10
22.59973089678116
 20
-4.771599258481472
 30
0.0
 11
17.59973089678115
 21
-4.771599258481472
 31
0.0
  0
LINE
  5
60
330
24
100
AcDbEntity
  8
0
100
AcDbLine
 10
18.59973089678115
 20
-5.771599258481472
 30
0.0
 11
18.59973089678115
 21
-8.771599258481472
 31
0.0
  0
ARC
  5
61
330
24
100
AcDbEntity
  8
0
100
AcDbCircle
 10
22.59973089678116
 20
-7.271599258481472
 30
0.0
 40
1.5
100
AcDbArc
 50
270.0
 51
90.0
  0
ENDBLK
  5
62
330
24
100
AcDbEntity
  8
0
100
AcDbBlockEnd
  0
BLOCK
  5
75
330
27
100
AcDbEntity
  8
0
100
AcDbBlockBegin
  2
*X2
 70
     1
 10
0.0
 20
0.0
 30
0.0
  3
*X2
  1

  0
LINE
  5
76
330
27
100
AcDbEntity
  8
0
 62
     0
100
AcDbLine
 10
638.0360172101502
 20
792.0
 30
0.0
 11
639.8496631125246
 21
792.0
 31
0.0
  0
LINE
  5
77
330
27
100
AcDbEntity
  8
0
 62
     0
100
AcDbLine
 10
638.0360172101502
 20
792.1
 30
0.0
 11
639.8843863105601
 21
792.1
 31
0.0
  0
LINE
  5
78
330
27
100
AcDbEntity
  8
0
 62
     0
100
AcDbLine
 10
638.0360172101502
 20
792.2
 30
0.0
 11
639.9170878011724
 21
792.2
 31
0.0
  0
LINE
  5
79
330
27
100
AcDbEntity
  8
0
 62
     0
100
AcDbLine
 10
638.0360172101502
 20
792.3
 30
0.0
 11
639.9478031775199
 21
792.3
 31
0.0
  0
LINE
  5
7A
330
27
100
AcDbEntity
  8
0
 62
     0
100
AcDbLine
 10
638.0360172101502
 20
792.4000000000001
 30
0.0
 11
639.9765651137884
 21
792.4000000000001
 31
0.0
  0
LINE
  5
7B
330
27
100
AcDbEntity
  8
0
 62
     0
100
AcDbLine
 10
638.0954262997924
 20
792.4999999999999
 30
0.0
 11
640.0034035592873
 21
792.4999999999999
 31
0.0
  0
LINE
  5
7C
330
27
100
AcDbEntity
  8
0
 62
     0
100
AcDbLine
 10
638.1954262997925
 20
792.6
 30
0.0
 11
640.0283459105428
 21
792.6
 31
0.0
  0
LINE
  5
7D
330
27
100
AcDbEntity
  8
0
 62
     0
100
AcDbLine
 10
638.2954262997925
 20
792.7
 30
0.0
 11
640.0514171638916
 21
792.7
 31
0.0
  0
LINE
  5
7E
330
27
100
AcDbEntity
  8
0
 62
     0
100
AcDbLine
 10
638.3954262997925
 20
792.8
 30
0.0
 11
640.0726400507165
 21
792.8
 31
0.0
  0
LINE
  5
7F
330
27
100
AcDbEntity
  8
0
 62
     0
100
AcDbLine
 10
638.4954262997926
 20
792.9000000000001
 30
0.0
 11
640.092035157145
 21
792.9000000000001
 31
0.0
  0
LINE
  5
80
330
27
100
AcDbEntity
  8
0
 62
     0
100
AcDbLine
 10
638.5954262997925
 20
793.0
 30
0.0
 11
640.1096210297748
 21
793.0
 31
0.0
  0
LINE
  5
81
330
27
100
AcDbEntity
  8
0
 62
     0
100
AcDbLine
 10
638.6954262997925
 20
793.1
 30
0.0
 11
640.1254142687601
 21
793.1
 31
0.0
  0
LINE
  5
82
330
27
100
AcDbEntity
  8
0
 62
     0
100
AcDbLine
 10
638.7954262997925
 20
793.2
 30
0.0
 11
640.1394296093981
 21
793.2
 31
0.0
  0
LINE
  5
83
330
27
100
AcDbEntity
  8
0
 62
     0
100
AcDbLine
 10
638.8954262997925
 20
793.3
 30
0.0
 11
640.1516799931889
 21
793.3
 31
0.0
  0
LINE
  5
84
330
27
100
AcDbEntity
  8
0
 62
     0
100
AcDbLine
 10
638.9954262997926
 20
793.4000000000001
 30
0.0
 11
640.1621766291952
 21
793.4000000000001
 31
0.0
  0
LINE
  5
85
330
27
100
AcDbEntity
  8
0
 62
     0
100
AcDbLine
 10
639.0954262997925
 20
793.5
 30
0.0
 11
640.1709290463948
 21
793.5
 31
0.0
  0
LINE
  5
86
330
27
100
AcDbEntity
  8
0
 62
     0
100
AcDbLine
 10
639.1954262997925
 20
793.6
 30
0.0
 11
640.1779451376141
 21
793.6
 31
0.0
  0
LINE
  5
87
330
27
100
AcDbEntity
  8
0
 62
     0
100
AcDbLine
 10
639.2954262997925
 20
793.7
 30
0.0
 11
640.1832311955168
 21
793.7
 31
0.0
  0
LINE
  5
88
330
27
100
AcDbEntity
  8
0
 62
     0
100
AcDbLine
 10
639.3954262997925
 20
793.8
 30
0.0
 11
640.18679194104
 21
793.8
 31
0.0
  0
LINE
  5
89
330
27
100
AcDbEntity
  8
0
 62
     0
100
AcDbLine
 10
639.4954262997925
 20
793.9
 30
0.0
 11
640.1886305445759
 21
793.9
 31
0.0
  0
LINE
  5
8A
330
27
100
AcDbEntity
  8
0
 62
     0
100
AcDbLine
 10
639.5954262997925
 20
794.0
 30
0.0
 11
640.1887486401265
 21
794.0
 31
0.0
  0
LINE
  5
8B
330
27
100
AcDbEntity
  8
0
 62
     0
100
AcDbLine
 10
639.6954262997925
 20
794.1
 30
0.0
 11
640.1871463325748
 21
794.1
 31
0.0
  0
LINE
  5
8C
330
27
100
AcDbEntity
  8
0
 62
     0
100
AcDbLine
 10
639.7954262997926
 20
794.2000000000001
 30
0.0
 11
640.1838221981513
 21
794.2000000000001
 31
0.0
  0
LINE
  5
8D
330
27
100
AcDbEntity
  8
0
 62
     0
100
AcDbLine
 10
639.8954262997925
 20
794.3
 30
0.0
 11
640.1787732780995
 21
794.3
 31
0.0
  0
LINE
  5
8E
330
27
100
AcDbEntity
  8
0
 62
     0
100
AcDbLine
 10
639.9954262997925
 20
794.4
 30
0.0
 11
640.1719950654743
 21
794.4
 31
0.0
  0
LINE
  5
8F
330
27
100
AcDbEntity
  8
0
 62
     0
100
AcDbLine
 10
640.0954262997925
 20
794.5
 30
0.0
 11
640.1634814849354
 21
794.5
 31
0.0
  0
LINE
  5
90
330
27
100
AcDbEntity
  8
0
 62
     0
100
AcDbLine
 10
638.0360172101502
 20
791.9000000000001
 30
0.0
 11
639.8128794758906
 21
791.9000000000001
 31
0.0
  0
LINE
  5
91
330
27
100
AcDbEntity
  8
0
 62
     0
100
AcDbLine
 10
638.0360172101502
 20
791.8000000000001
 30
0.0
 11
639.7739932840035
 21
791.8000000000001
 31
0.0
  0
LINE
  5
92
330
27
100
AcDbEntity
  8
0
 62
     0
100
AcDbLine
 10
638.0360172101502
 20
791.7
 30
0.0
 11
639.7329587547463
 21
791.7
 31
0.0
  0
LINE
  5
93
330
27
100
AcDbEntity
  8
0
 62
     0
100
AcDbLine
 10
638.0360172101502
 20
791.6
 30
0.0
 11
639.6897261231718
 21
791.6
 31
0.0
  0
LINE
  5
94
330
27
100
AcDbEntity
  8
0
 62
     0
100
AcDbLine
 10
638.0360172101502
 20
791.5
 30
0.0
 11
639.6442412809567
 21
791.5
 31
0.0
  0
LINE
  5
95
330
27
100
AcDbEntity
  8
0
 62
     0
100
AcDbLine
 10
638.0360172101502
 20
791.4000000000001
 30
0.0
 11
639.5964453657456
 21
791.4000000000001
 31
0.0
  0
LINE
  5
96
330
27
100
AcDbEntity
  8
0
 62
     0
100
AcDbLine
 10
638.0360172101502
 20
791.3000000000001
 30
0.0
 11
639.54627429206
 21
791.3000000000001
 31
0.0
  0
LINE
  5
97
330
27
100
AcDbEntity
  8
0
 62
     0
100
AcDbLine
 10
638.0360172101502
 20
791.2
 30
0.0
 11
639.4936582137136
 21
791.2
 31
0.0
  0
LINE
  5
98
330
27
100
AcDbEntity
  8
0
 62
     0
100
AcDbLine
 10
638.0360172101502
 20
791.1
 30
0.0
 11
639.4385209055245
 21
791.1
 31
0.0
  0
LINE
  5
99
330
27
100
AcDbEntity
  8
0
 62
     0
100
AcDbLine
 10
638.0360172101502
 20
791.0
 30
0.0
 11
639.3807790494054
 21
791.0
 31
0.0
  0
LINE
  5
9A
330
27
100
AcDbEntity
  8
0
 62
     0
100
AcDbLine
 10
638.0360172101502
 20
790.9
 30
0.0
 11
639.3203414065018
 21
790.9
 31
0.0
  0
LINE
  5
9B
330
27
100
AcDbEntity
  8
0
 62
     0
100
AcDbLine
 10
638.0360172101502
 20
790.8000000000001
 30
0.0
 11
639.2571078526933
 21
790.8000000000001
 31
0.0
  0
LINE
  5
9C
330
27
100
AcDbEntity
  8
0
 62
     0
100
AcDbLine
 10
638.0360172101502
 20
790.7
 30
0.0
 11
639.1909682491871
 21
790.7
 31
0.0
  0
LINE
  5
9D
330
27
100
AcDbEntity
  8
0
 62
     0
100
AcDbLine
 10
638.0360172101502
 20
790.6
 30
0.0
 11
639.121801112694
 21
790.6
 31
0.0
  0
LINE
  5
9E
330
27
100
AcDbEntity
  8
0
 62
     0
100
AcDbLine
 10
638.0360172101502
 20
790.5
 30
0.0
 11
639.0494720402158
 21
790.5
 31
0.0
  0
LINE
  5
9F
330
27
100
AcDbEntity
  8
0
 62
     0
100
AcDbLine
 10
638.0360172101502
 20
790.4
 30
0.0
 11
638.9738318309688
 21
790.4
 31
0.0
  0
LINE
  5
A0
330
27
100
AcDbEntity
  8
0
 62
     0
100
AcDbLine
 10
638.0360172101502
 20
790.3
 30
0.0
 11
638.8947142312758
 21
790.3
 31
0.0
  0
LINE
  5
A1
330
27
100
AcDbEntity
  8
0
 62
     0
100
AcDbLine
 10
638.0360172101502
 20
790.2000000000001
 30
0.0
 11
638.811933205701
 21
790.2000000000001
 31
0.0
  0
LINE
  5
A2
330
27
100
AcDbEntity
  8
0
 62
     0
100
AcDbLine
 10
638.0360172101502
 20
790.1
 30
0.0
 11
638.7252796068268
 21
790.1
 31
0.0
  0
LINE
  5
A3
330
27
100
AcDbEntity
  8
0
 62
     0
100
AcDbLine
 10
638.0360172101502
 20
790.0
 30
0.0
 11
638.6345170732221
 21
790.0
 31
0.0
  0
LINE
  5
A4
330
27
100
AcDbEntity
  8
0
 62
     0
100
AcDbLine
 10
638.0360172101502
 20
789.9
 30
0.0
 11
638.5393769247679
 21
789.9
 31
0.0
  0
LINE
  5
A5
330
27
100
AcDbEntity
  8
0
 62
     0
100
AcDbLine
 10
638.0360172101502
 20
789.8
 30
0.0
 11
638.4395517379681
 21
789.8
 31
0.0
  0
LINE
  5
A6
330
27
100
AcDbEntity
  8
0
 62
     0
100
AcDbLine
 10
638.0360172101502
 20
789.7
 30
0.0
 11
638.3346871575583
 21
789.7
 31
0.0
  0
LINE
  5
A7
330
27
100
AcDbEntity
  8
0
 62
     0
100
AcDbLine
 10
638.0360172101502
 20
789.6
 30
0.0
 11
638.2243713124952
 21
789.6
 31
0.0
  0
LINE
  5
A8
330
27
100
AcDbEntity
  8
0
 62
     0
100
AcDbLine
 10
638.0360172101502
 20
789.5
 30
0.0
 11
638.1081209174399
 21
789.5
 31
0.0
  0
ENDBLK
  5
A9
330
27
100
AcDbEntity
  8
0
100
AcDbBlockEnd
  0
BLOCK
  5
AA
330
28
100
AcDbEntity
  8
0
100
AcDbBlockBegin
  2
*X3
 70
     1
 10
0.0
 20
0.0
 30
0.0
  3
*X3
  1

  0
LINE
  5
AB
330
28
100
AcDbEntity
  8
0
 62
     0
100
AcDbLine
 10
638.0360172101504
 20
1103.6
 30
0.0
 11
639.4826561400847
 21
1103.6
 31
0.0
  0
LINE
  5
AC
330
28
100
AcDbEntity
  8
0
 62
     0
100
AcDbLine
 10
638.0360172101504
 20
1103.7
 30
0.0
 11
639.5826561400846
 21
1103.7
 31
0.0
  0
LINE
  5
AD
330
28
100
AcDbEntity
  8
0
 62
     0
100
AcDbLine
 10
638.0360172101504
 20
1103.8
 30
0.0
 11
639.6826561400845
 21
1103.8
 31
0.0
  0
LINE
  5
AE
330
28
100
AcDbEntity
  8
0
 62
     0
100
AcDbLine
 10
638.0360172101504
 20
1103.9
 30
0.0
 11
639.7826561400846
 21
1103.9
 31
0.0
  0
LINE
  5
AF
330
28
100
AcDbEntity
  8
0
 62
     0
100
AcDbLine
 10
638.0360172101504
 20
1104.0
 30
0.0
 11
639.8826561400845
 21
1104.0
 31
0.0
  0
LINE
  5
B0
330
28
100
AcDbEntity
  8
0
 62
     0
100
AcDbLine
 10
638.0360172101504
 20
1104.1
 30
0.0
 11
639.9826561400847
 21
1104.1
 31
0.0
  0
LINE
  5
B1
330
28
100
AcDbEntity
  8
0
 62
     0
100
AcDbLine
 10
638.0360172101504
 20
1104.2
 30
0.0
 11
640.0826561400846
 21
1104.2
 31
0.0
  0
LINE
  5
B2
330
28
100
AcDbEntity
  8
0
 62
     0
100
AcDbLine
 10
638.0360172101504
 20
1104.3
 30
0.0
 11
640.1317131099895
 21
1104.3
 31
0.0
  0
LINE
  5
B3
330
28
100
AcDbEntity
  8
0
 62
     0
100
AcDbLine
 10
638.0360172101504
 20
1104.4
 30
0.0
 11
640.0241352948263
 21
1104.4
 31
0.0
  0
LINE
  5
B4
330
28
100
AcDbEntity
  8
0
 62
     0
100
AcDbLine
 10
638.0360172101504
 20
1104.5
 30
0.0
 11
639.9050505786671
 21
1104.5
 31
0.0
  0
LINE
  5
B5
330
28
100
AcDbEntity
  8
0
 62
     0
100
AcDbLine
 10
638.0360172101504
 20
1104.6
 30
0.0
 11
639.7720926539723
 21
1104.6
 31
0.0
  0
LINE
  5
B6
330
28
100
AcDbEntity
  8
0
 62
     0
100
AcDbLine
 10
638.0360172101504
 20
1104.7
 30
0.0
 11
639.6217757543982
 21
1104.7
 31
0.0
  0
LINE
  5
B7
330
28
100
AcDbEntity
  8
0
 62
     0
100
AcDbLine
 10
638.0360172101504
 20
1104.8
 30
0.0
 11
639.4485689347497
 21
1104.8
 31
0.0
  0
LINE
  5
B8
330
28
100
AcDbEntity
  8
0
 62
     0
100
AcDbLine
 10
638.0360172101504
 20
1104.9
 30
0.0
 11
639.2426549307115
 21
1104.9
 31
0.0
  0
LINE
  5
B9
330
28
100
AcDbEntity
  8
0
 62
     0
100
AcDbLine
 10
638.0360172101504
 20
1105.0
 30
0.0
 11
638.9829315688411
 21
1105.0
 31
0.0
  0
LINE
  5
BA
330
28
100
AcDbEntity
  8
0
 62
     0
100
AcDbLine
 10
638.0360172101504
 20
1105.1
 30
0.0
 11
638.5993279740338
 21
1105.1
 31
0.0
  0
LINE
  5
BB
330
28
100
AcDbEntity
  8
0
 62
     0
100
AcDbLine
 10
638.0360172101504
 20
1103.5
 30
0.0
 11
639.3826561400845
 21
1103.5
 31
0.0
  0
LINE
  5
BC
330
28
100
AcDbEntity
  8
0
 62
     0
100
AcDbLine
 10
638.0360172101504
 20
1103.4
 30
0.0
 11
639.2826561400847
 21
1103.4
 31
0.0
  0
LINE
  5
BD
330
28
100
AcDbEntity
  8
0
 62
     0
100
AcDbLine
 10
638.0360172101504
 20
1103.3
 30
0.0
 11
639.1826561400845
 21
1103.3
 31
0.0
  0
LINE
  5
BE
330
28
100
AcDbEntity
  8
0
 62
     0
100
AcDbLine
 10
638.0360172101504
 20
1103.2
 30
0.0
 11
639.0826561400846
 21
1103.2
 31
0.0
  0
LINE
  5
BF
330
28
100
AcDbEntity
  8
0
 62
     0
100
AcDbLine
 10
638.0360172101504
 20
1103.1
 30
0.0
 11
638.9826561400846
 21
1103.1
 31
0.0
  0
LINE
  5
C0
330
28
100
AcDbEntity
  8
0
 62
     0
100
AcDbLine
 10
638.0360172101504
 20
1103.0
 30
0.0
 11
638.8826561400845
 21
1103.0
 31
0.0
  0
LINE
  5
C1
330
28
100
AcDbEntity
  8
0
 62
     0
100
AcDbLine
 10
638.0360172101504
 20
1102.9
 30
0.0
 11
638.7826561400847
 21
1102.9
 31
0.0
  0
LINE
  5
C2
330
28
100
AcDbEntity
  8
0
 62
     0
100
AcDbLine
 10
638.0360172101504
 20
1102.8
 30
0.0
 11
638.6826561400845
 21
1102.8
 31
0.0
  0
LINE
  5
C3
330
28
100
AcDbEntity
  8
0
 62
     0
100
AcDbLine
 10
638.0360172101504
 20
1102.7
 30
0.0
 11
638.5826561400846
 21
1102.7
 31
0.0
  0
LINE
  5
C4
330
28
100
AcDbEntity
  8
0
 62
     0
100
AcDbLine
 10
638.0360172101504
 20
1102.6
 30
0.0
 11
638.4826561400847
 21
1102.6
 31
0.0
  0
LINE
  5
C5
330
28
100
AcDbEntity
  8
0
 62
     0
100
AcDbLine
 10
638.0360172101504
 20
1102.5
 30
0.0
 11
638.3826561400845
 21
1102.5
 31
0.0
  0
LINE
  5
C6
330
28
100
AcDbEntity
  8
0
 62
     0
100
AcDbLine
 10
638.0360172101504
 20
1102.4
 30
0.0
 11
638.2826561400847
 21
1102.4
 31
0.0
  0
LINE
  5
C7
330
28
100
AcDbEntity
  8
0
 62
     0
100
AcDbLine
 10
638.0360172101504
 20
1102.3
 30
0.0
 11
638.1826561400845
 21
1102.3
 31
0.0
  0
LINE
  5
C8
330
28
100
AcDbEntity
  8
0
 62
     0
100
AcDbLine
 10
638.0360172101504
 20
1102.2
 30
0.0
 11
638.0826561400846
 21
1102.2
 31
0.0
  0
ENDBLK
  5
C9
330
28
100
AcDbEntity
  8
0
100
AcDbBlockEnd
  0
BLOCK
  5
37A
330
378
100
AcDbEntity
  8
0
100
AcDbBlockBegin
  2
INDEX
 70
     0
 10
0.0
 20
0.0
 30
0.0
  3
INDEX
  1

  0
TEXT
  5
379
330
378
100
AcDbEntity
  8
BEM
100
AcDbText
 10
-2.697707614283444
 20
10.16790107998861
 30
0.0
 40
4.0
  1
Diese Zeichnung ist urheberrechtlich geschützt und bleibt unser Eigentum. Sie darf weder ganz noch teilweise verfielfältigt und nicht an Dritte weitergegeben werden.
 50
90.0
 41
0.8
  7
GREEKS
100
AcDbText
  0
ENDBLK
  5
37B
330
378
100
AcDbEntity
  8
0
100
AcDbBlockEnd
  0
BLOCK
  5
39F
330
395
100
AcDbEntity
  8
0
100
AcDbBlockBegin
  2
*D10
 70
     1
 10
0.0
 20
0.0
 30
0.0
  3
*D10
  1

  0
LINE
  5
396
330
395
100
AcDbEntity
  8
BEM
 62
     0
370
    -2
100
AcDbLine
 10
565.9247895507328
 20
789.9389607402322
 30
0.0
 11
543.633200498074
 21
767.6473716875736
 31
0.0
  0
LINE
  5
397
330
395
100
AcDbEntity
  8
BEM
 62
     0
370
    -2
100
AcDbLine
 10
565.9247895507328
 20
1099.65173089994
 30
0.0
 11
388.7768154182203
 21
922.5037567674274
 31
0.0
  0
LINE
  5
398
330
395
100
AcDbEntity
  8
BEM
 62
     0
370
    -2
100
AcDbLine
 10
534.7943657332423
 20
783.5572742642709
 30
0.0
 11
404.6867179949177
 21
913.6649220025956
 31
0.0
  0
SOLID
  5
399
330
395
100
AcDbEntity
  8
BEM
 62
     0
100
AcDbTrace
 10
536.8567605117029
 20
785.6196690427315
 30
0.0
 11
532.7319709547815
 21
781.4948794858101
 31
0.0
 12
547.1687344040069
 22
771.1829055935063
 32
0.0
 13
547.1687344040069
 23
771.1829055935063
 33
0.0
  0
SOLID
  5
39A
330
395
100
AcDbEntity
  8
BEM
 62
     0
100
AcDbTrace
 10
406.7491127733783
 20
915.7273167810563
 30
0.0
 11
402.6243232164569
 21
911.6025272241348
 31
0.0
 12
392.3123493241531
 22
926.0392906733601
 32
0.0
 13
392.3123493241531
 23
926.0392906733601
 33
0.0
  0
MTEXT
  5
39B
330
395
100
AcDbEntity
  8
BEM
 62
     1
100
AcDbMText
 10
481.2310270583612
 20
860.1015833277145
 30
0.0
 40
17.5
 41
0.0
 71
     5
 72
     1
  1
\A1;%%c219
  7
GREEKS
 11
0.7071067811865476
 21
-0.7071067811865475
 31
0.0
 73
     1
 44
1.0
  0
POINT
  5
39C
330
395
100
AcDbEntity
  8
DEFPOINTS
 62
     0
100
AcDbPoint
 10
569.4603234566654
 20
793.4744946461649
 30
0.0
  0
POINT
  5
39D
330
395
100
AcDbEntity
  8
DEFPOINTS
 62
     0
100
AcDbPoint
 10
569.4603234566657
 20
1103.187264805872
 30
0.0
  0
POINT
  5
39E
330
395
100
AcDbEntity
  8
DEFPOINTS
 62
     0
100
AcDbPoint
 10
392.3123493241531
 20
926.0392906733601
 30
0.0
  0
ENDBLK
  5
3A0
330
395
100
AcDbEntity
  8
0
100
AcDbBlockEnd
  0
BLOCK
  5
3EE
330
3E4
100
AcDbEntity
  8
0
100
AcDbBlockBegin
  2
*D12
 70
     1
 10
0.0
 20
0.0
 30
0.0
  3
*D12
  1

  0
LINE
  5
48C
330
3E4
100
AcDbEntity
  8
BEM
 62
     0
370
    -2
100
AcDbLine
 10
436.4958573625983
 20
808.2953458200861
 30
0.0
 11
583.9471446454934
 21
660.8440585371911
 31
0.0
  0
LINE
  5
48D
330
3E4
100
AcDbEntity
  8
BEM
 62
     0
370
    -2
100
AcDbLine
 10
858.9315069670021
 20
1064.682206154767
 30
0.0
 11
923.3583996150359
 21
1000.255313506733
 31
0.0
  0
LINE
  5
48E
330
3E4
100
AcDbEntity
  8
BEM
 62
     0
370
    -2
100
AcDbLine
 10
592.7859794103252
 20
676.7539611138884
 30
0.0
 11
907.4484970383386
 21
991.4164787419018
 31
0.0
  0
SOLID
  5
48F
330
3E4
100
AcDbEntity
  8
BEM
 62
     0
100
AcDbTrace
 10
590.7235846318644
 20
678.8163558923492
 30
0.0
 11
594.8483741887859
 21
674.6915663354276
 31
0.0
 12
580.4116107395607
 22
664.3795924431239
 32
0.0
 13
580.4116107395607
 23
664.3795924431239
 33
0.0
  0
SOLID
  5
490
330
3E4
100
AcDbEntity
  8
BEM
 62
     0
100
AcDbTrace
 10
905.3861022598779
 20
993.4788735203625
 30
0.0
 11
909.5108918167992
 21
989.3540839634409
 31
0.0
 12
919.8228657091032
 22
1003.790847412666
 32
0.0
 13
919.8228657091032
 23
1003.790847412666
 33
0.0
  0
MTEXT
  5
491
330
3E4
100
AcDbEntity
  8
BEM
 62
     1
100
AcDbMText
 10
738.6267530300506
 20
845.5757051221763
 30
0.0
 40
17.5
 41
0.0
 71
     5
 72
     1
  1
\A1;480
  7
GREEKS
 11
0.7071067811865476
 21
0.7071067811865475
 31
0.0
 73
     1
 44
1.0
  0
POINT
  5
492
330
3E4
100
AcDbEntity
  8
DEFPOINTS
 62
     0
100
AcDbPoint
 10
432.9603234566656
 20
811.8308797260191
 30
0.0
  0
POINT
  5
493
330
3E4
100
AcDbEntity
  8
DEFPOINTS
 62
     0
100
AcDbPoint
 10
855.3959730610694
 20
1068.2177400607
 30
0.0
  0
POINT
  5
494
330
3E4
100
AcDbEntity
  8
DEFPOINTS
 62
     0
100
AcDbPoint
 10
919.8228657091032
 20
1003.790847412666
 30
0.0
  0
ENDBLK
  5
3EF
330
3E4
100
AcDbEntity
  8
0
100
AcDbBlockEnd
  0
BLOCK
  5
406
330
3FC
100
AcDbEntity
  8
0
100
AcDbBlockBegin
  2
*D14
 70
     1
 10
0.0
 20
0.0
 30
0.0
  3
*D14
  1

  0
LINE
  5
3FD
330
3FC
100
AcDbEntity
  8
BEM
 62
     0
370
    -2
100
AcDbLine
 10
291.4603234566658
 20
706.830879726019
 30
0.0
 11
252.4977029108198
 21
706.8308797260191
 31
0.0
  0
LINE
  5
3FE
330
3FC
100
AcDbEntity
  8
BEM
 62
     0
370
    -2
100
AcDbLine
 10
427.9603234566655
 20
811.8308797260191
 30
0.0
 11
252.4977029108198
 21
811.8308797260191
 31
0.0
  0
LINE
  5
3FF
330
3FC
100
AcDbEntity
  8
BEM
 62
     0
370
    -2
100
AcDbLine
 10
257.4977029108198
 20
724.330879726019
 30
0.0
 11
257.4977029108198
 21
794.330879726019
 31
0.0
  0
SOLID
  5
400
330
3FC
100
AcDbEntity
  8
BEM
 62
     0
100
AcDbTrace
 10
254.5810362441531
 20
724.3308797260191
 30
0.0
 11
260.4143695774865
 21
724.330879726019
 31
0.0
 12
257.4977029108198
 22
706.830879726019
 32
0.0
 13
257.4977029108198
 23
706.830879726019
 33
0.0
  0
SOLID
  5
401
330
3FC
100
AcDbEntity
  8
BEM
 62
     0
100
AcDbTrace
 10
254.5810362441531
 20
794.3308797260191
 30
0.0
 11
260.4143695774865
 21
794.330879726019
 31
0.0
 12
257.4977029108198
 22
811.8308797260191
 32
0.0
 13
257.4977029108198
 23
811.8308797260191
 33
0.0
  0
MTEXT
  5
402
330
3FC
100
AcDbEntity
  8
BEM
 62
     1
100
AcDbMText
 10
241.2477029108197
 20
759.3308797260191
 30
0.0
 40
17.5
 41
0.0
 71
     5
 72
     1
  1
\A1;105
  7
GREEKS
 11
0.0000000000000001
 21
1.0
 31
0.0
 73
     1
 44
1.0
  0
POINT
  5
403
330
3FC
100
AcDbEntity
  8
DEFPOINTS
 62
     0
100
AcDbPoint
 10
296.4603234566658
 20
706.830879726019
 30
0.0
  0
POINT
  5
404
330
3FC
100
AcDbEntity
  8
DEFPOINTS
 62
     0
100
AcDbPoint
 10
432.9603234566655
 20
811.8308797260191
 30
0.0
  0
POINT
  5
405
330
3FC
100
AcDbEntity
  8
DEFPOINTS
 62
     0
100
AcDbPoint
 10
257.4977029108198
 20
811.8308797260191
 30
0.0
  0
ENDBLK
  5
407
330
3FC
100
AcDbEntity
  8
0
100
AcDbBlockEnd
  0
BLOCK
  5
41E
330
414
100
AcDbEntity
  8
0
100
AcDbBlockBegin
  2
*D16
 70
     1
 10
0.0
 20
0.0
 30
0.0
  3
*D16
  1

  0
LINE
  5
4B1
330
414
100
AcDbEntity
  8
BEM
 62
     0
370
    -2
100
AcDbLine
 10
291.4603234566658
 20
706.830879726019
 30
0.0
 11
213.1825631032703
 21
706.8308797260191
 31
0.0
  0
LINE
  5
4B2
330
414
100
AcDbEntity
  8
BEM
 62
     0
370
    -2
100
AcDbLine
 10
291.4603234566658
 20
1246.830879726019
 30
0.0
 11
213.1825631032703
 21
1246.830879726019
 31
0.0
  0
LINE
  5
4B3
330
414
100
AcDbEntity
  8
BEM
 62
     0
370
    -2
100
AcDbLine
 10
218.1825631032702
 20
724.3308797260191
 30
0.0
 11
218.1825631032704
 21
1229.330879726019
 31
0.0
  0
SOLID
  5
4B4
330
414
100
AcDbEntity
  8
BEM
 62
     0
100
AcDbTrace
 10
215.2658964366036
 20
724.3308797260191
 30
0.0
 11
221.0992297699369
 21
724.3308797260191
 31
0.0
 12
218.1825631032702
 22
706.8308797260191
 32
0.0
 13
218.1825631032702
 23
706.8308797260191
 33
0.0
  0
SOLID
  5
4B5
330
414
100
AcDbEntity
  8
BEM
 62
     0
100
AcDbTrace
 10
215.2658964366037
 20
1229.330879726019
 30
0.0
 11
221.099229769937
 21
1229.330879726019
 31
0.0
 12
218.1825631032704
 22
1246.830879726019
 32
0.0
 13
218.1825631032704
 23
1246.830879726019
 33
0.0
  0
MTEXT
  5
4B6
330
414
100
AcDbEntity
  8
BEM
 62
     1
100
AcDbMText
 10
201.9325631032701
 20
976.8308797260189
 30
0.0
 40
17.5
 41
0.0
 71
     5
 72
     1
  1
\A1;540
  7
GREEKS
 11
0.0000000000000001
 21
1.0
 31
0.0
 73
     1
 44
1.0
  0
POINT
  5
4B7
330
414
100
AcDbEntity
  8
DEFPOINTS
 62
     0
100
AcDbPoint
 10
296.4603234566658
 20
706.830879726019
 30
0.0
  0
POINT
  5
4B8
330
414
100
AcDbEntity
  8
DEFPOINTS
 62
     0
100
AcDbPoint
 10
296.4603234566658
 20
1246.830879726019
 30
0.0
  0
POINT
  5
4B9
330
414
100
AcDbEntity
  8
DEFPOINTS
 62
     0
100
AcDbPoint
 10
218.1825631032704
 20
1246.830879726019
 30
0.0
  0
ENDBLK
  5
41F
330
414
100
AcDbEntity
  8
0
100
AcDbBlockEnd
  0
BLOCK
  5
481
330
477
100
AcDbEntity
  8
0
100
AcDbBlockBegin
  2
*D18
 70
     1
 10
0.0
 20
0.0
 30
0.0
  3
*D18
  1

  0
LINE
  5
483
330
477
100
AcDbEntity
  8
BEM
 62
     0
370
    -2
100
AcDbLine
 10
569.4603234566657
 20
701.830879726019
 30
0.0
 11
569.4603234566657
 21
652.1641491459158
 31
0.0
  0
LINE
  5
484
330
477
100
AcDbEntity
  8
BEM
 62
     0
370
    -2
100
AcDbLine
 10
296.4603234566658
 20
701.830879726019
 30
0.0
 11
296.4603234566658
 21
652.1641491459158
 31
0.0
  0
LINE
  5
485
330
477
100
AcDbEntity
  8
BEM
 62
     0
370
    -2
100
AcDbLine
 10
551.9603234566657
 20
657.1641491459159
 30
0.0
 11
313.9603234566658
 21
657.1641491459159
 31
0.0
  0
SOLID
  5
486
330
477
100
AcDbEntity
  8
BEM
 62
     0
100
AcDbTrace
 10
551.9603234566657
 20
660.0808158125825
 30
0.0
 11
551.9603234566657
 21
654.2474824792492
 31
0.0
 12
569.4603234566657
 22
657.1641491459159
 32
0.0
 13
569.4603234566657
 23
657.1641491459159
 33
0.0
  0
SOLID
  5
487
330
477
100
AcDbEntity
  8
BEM
 62
     0
100
AcDbTrace
 10
313.9603234566658
 20
660.0808158125825
 30
0.0
 11
313.9603234566658
 21
654.2474824792492
 31
0.0
 12
296.4603234566658
 22
657.1641491459159
 32
0.0
 13
296.4603234566658
 23
657.1641491459159
 33
0.0
  0
MTEXT
  5
488
330
477
100
AcDbEntity
  8
BEM
 62
     1
100
AcDbMText
 10
432.9603234566657
 20
673.4141491459158
 30
0.0
 40
17.5
 41
0.0
 71
     5
 72
     1
  1
\A1;%%c273
  7
GREEKS
 73
     1
 44
1.0
  0
POINT
  5
489
330
477
100
AcDbEntity
  8
DEFPOINTS
 62
     0
100
AcDbPoint
 10
569.4603234566657
 20
706.830879726019
 30
0.0
  0
POINT
  5
48A
330
477
100
AcDbEntity
  8
DEFPOINTS
 62
     0
100
AcDbPoint
 10
296.4603234566658
 20
706.830879726019
 30
0.0
  0
POINT
  5
48B
330
477
100
AcDbEntity
  8
DEFPOINTS
 62
     0
100
AcDbPoint
 10
296.4603234566658
 20
657.1641491459159
 30
0.0
  0
ENDBLK
  5
482
330
477
100
AcDbEntity
  8
0
100
AcDbBlockEnd
  0
BLOCK
  5
4A2
330
496
100
AcDbEntity
  8
0
100
AcDbBlockBegin
  2
*D19
 70
     1
 10
0.0
 20
0.0
 30
0.0
  3
*D19
  1

  0
LINE
  5
4A5
330
496
100
AcDbEntity
  8
BEM
 62
     0
370
    -2
100
AcDbLine
 10
779.4426462380738
 20
1158.313202507427
 30
0.0
 11
811.4245225736555
 21
1190.295078843009
 31
0.0
  0
LINE
  5
4A6
330
496
100
AcDbEntity
  8
BEM
 62
     0
370
    -2
100
AcDbLine
 10
432.9603234566654
 20
1261.830879726019
 30
0.0
 11
432.9603234566656
 21
1347.060082989937
 31
0.0
  0
ARC
  5
4A7
330
496
100
AcDbEntity
  8
BEM
 62
     0
370
    -2
100
AcDbCircle
 10
432.9603234566656
 20
811.8308797260191
 30
0.0
 40
530.2292032639187
100
AcDbArc
 50
46.89110982568423
 51
88.10889017431575
  0
SOLID
  5
4A8
330
496
100
AcDbEntity
  8
BEM
 62
     0
100
AcDbTrace
 10
797.3401792155288
 20
1201.02417124083
 30
0.0
 11
793.2840198441597
 21
1196.831874861537
 31
0.0
 12
807.8889886677227
 22
1186.759544937076
 32
0.0
 13
807.8889886677227
 23
1186.759544937076
 33
0.0
  0
SOLID
  5
4A9
330
496
100
AcDbEntity
  8
BEM
 62
     0
100
AcDbTrace
 10
450.4098087427599
 20
1338.855023287712
 30
0.0
 11
450.5060721442331
 21
1344.687562283323
 31
0.0
 12
432.9603234566656
 22
1342.060082989937
 32
0.0
 13
432.9603234566656
 23
1342.060082989937
 33
0.0
  0
MTEXT
  5
4AA
330
496
100
AcDbEntity
  8
BEM
 62
     1
100
AcDbMText
 10
642.0888606778415
 20
1316.711830564628
 30
0.0
 40
17.5
 41
0.0
 71
     5
 72
     1
  1
\A1;45°
  7
GREEKS
 11
0.9238795325112867
 21
-0.3826834323650898
 31
0.0
 73
     1
 44
1.0
  0
POINT
  5
4AB
330
496
100
AcDbEntity
  8
DEFPOINTS
 62
     0
100
AcDbPoint
 10
698.074925088625
 20
1271.022839580955
 30
0.0
  0
POINT
  5
4AC
330
496
100
AcDbEntity
  8
DEFPOINTS
 62
     0
100
AcDbPoint
 10
432.9603234566655
 20
1256.830879726019
 30
0.0
  0
POINT
  5
4AD
330
496
100
AcDbEntity
  8
DEFPOINTS
 62
     0
100
AcDbPoint
 10
775.9071123321411
 20
1154.777668601494
 30
0.0
  0
POINT
  5
4AE
330
496
100
AcDbEntity
  8
DEFPOINTS
 62
     0
100
AcDbPoint
 10
496.3609998602286
 20
875.2315561295818
 30
0.0
  0
POINT
  5
4AF
330
496
100
AcDbEntity
  8
DEFPOINTS
 62
     0
100
AcDbPoint
 10
432.9603234566654
 20
696.830879726019
 30
0.0
  0
ENDBLK
  5
4A3
330
496
100
AcDbEntity
  8
0
100
AcDbBlockEnd
  0
ENDSEC
  0
SECTION
  2
ENTITIES
  0
DIMENSION
  5
154
330
20
100
AcDbEntity
  8
BEM
100
AcDbDimension
  2
*D10
 10
392.3123493241531
 20
926.0392906733601
 30
0.0
 11
481.2310270583612
 21
860.1015833277145
 31
0.0
 70
    32
  1
%%c<>
 71
     5
 42
218.9999999999999
  3
Standard
100
AcDbAlignedDimension
 13
569.4603234566654
 23
793.4744946461648
 33
0.0
 14
569.4603234566657
 24
1103.187264805872
 34
0.0
 50
315.0
100
AcDbRotatedDimension
1001
ACAD
1000
DSTYLE
1002
{
1070
    40
1040
5.0
1070
    41
1040
3.5
1070
    42
1040
1.0
1070
    43
1040
7.0
1070
    44
1040
1.0
1070
    47
1040
3.0
1070
    48
1040
3.0
1070
    73
1070
     0
1070
    74
1070
     0
1070
    77
1070
     1
1070
    78
1070
     8
1070
    79
1070
     2
1070
   140
1040
3.5
1070
   141
1040
1.5
1070
   146
1040
0.5
1070
   147
1040
1.5
1070
   172
1070
     1
1070
   178
1070
     1
1070
   179
1070
     2
1070
   271
1070
     2
1070
   272
1070
     2
1070
   284
1070
     8
1070
   285
1070
     8
1070
   286
1070
     8
1070
   340
1005
36
1002
}
  0
LINE
  5
155
330
20
100
AcDbEntity
  8
STEMPEL
100
AcDbLine
 10
569.4603234566657
 20
1246.830879726019
 30
0.0
 11
296.4603234566658
 21
1246.830879726019
 31
0.0
  0
LINE
  5
156
330
20
100
AcDbEntity
  8
STEMPEL
100
AcDbLine
 10
1025.0
 20
1460.0
 30
0.0
 11
99.99999999999971
 21
1460.0
 31
0.0
  0
LINE
  5
157
330
20
100
AcDbEntity
  8
HILF
100
AcDbLine
 10
1050.0
 20
1485.0
 30
0.0
 11
0.0
 21
1485.0
 31
0.0
  0
TEXT
  5
159
330
20
100
AcDbEntity
  8
TEXT
 62
     1
100
AcDbText
 10
480.0373920362803
 20
353.4720666920997
 30
0.0
 40
17.5
  1
Werkstoff: EN 10219 S235, RSt34-2 DIN2394
 41
0.8
  7
GREEKS
100
AcDbText
  0
TEXT
  5
15A
330
20
100
AcDbEntity
  8
TEXT
100
AcDbText
 10
506.1566460565737
 20
183.2740272978806
 30
0.0
 40
10.0
  1
Name
 41
0.8
  7
GREEKS
100
AcDbText
  0
TEXT
  5
15B
330
20
100
AcDbEntity
  8
TEXT
100
AcDbText
 10
485.7147386835128
 20
256.0460421087048
 30
0.0
 40
12.5
  1
Zul. Abw.
 41
0.8
  7
GREEKS
100
AcDbText
  0
TEXT
  5
15C
330
20
100
AcDbEntity
  8
TEXT
100
AcDbText
 10
511.0540121453142
 20
157.7240979930877
 30
0.0
 40
10.0
  1
Koeh
 41
0.8
  7
GREEKS
 72
     1
 11
524.1968692881714
 21
157.7240979930877
 31
0.0
100
AcDbText
  0
DIMENSION
  5
15D
330
20
100
AcDbEntity
  8
BEM
100
AcDbDimension
  2
*D18
 10
296.4603234566658
 20
657.1641491459159
 30
0.0
 11
432.9603234566657
 21
673.4141491459158
 31
0.0
 70
    32
  1
%%c<>
 71
     5
 42
272.9999999999999
  3
Standard
100
AcDbAlignedDimension
 13
569.4603234566657
 23
706.830879726019
 33
0.0
 14
296.4603234566658
 24
706.830879726019
 34
0.0
100
AcDbRotatedDimension
1001
ACAD
1000
DSTYLE
1002
{
1070
    40
1040
5.0
1070
    41
1040
3.5
1070
    42
1040
1.0
1070
    43
1040
7.0
1070
    44
1040
1.0
1070
    47
1040
3.0
1070
    48
1040
3.0
1070
    73
1070
     0
1070
    74
1070
     0
1070
    77
1070
     1
1070
    78
1070
     8
1070
    79
1070
     2
1070
   140
1040
3.5
1070
   141
1040
1.5
1070
   146
1040
0.5
1070
   147
1040
1.5
1070
   172
1070
     1
1070
   178
1070
     1
1070
   179
1070
     2
1070
   271
1070
     2
1070
   272
1070
     2
1070
   284
1070
     8
1070
   285
1070
     8
1070
   286
1070
     8
1070
   340
1005
36
1002
}
  0
LINE
  5
15E
330
20
100
AcDbEntity
  8
STEMPEL
100
AcDbLine
 10
569.4603234566657
 20
706.830879726019
 30
0.0
 11
296.4603234566658
 21
706.830879726019
 31
0.0
  0
LINE
  5
15F
330
20
100
AcDbEntity
  8
STEMPEL
100
AcDbLine
 10
1025.0
 20
275.0000000000001
 30
0.0
 11
99.99999999999992
 21
275.0
 31
0.0
  0
LINE
  5
160
330
20
100
AcDbEntity
  8
STEMPEL
100
AcDbLine
 10
1025.0
 20
100.0
 30
0.0
 11
365.0000000000003
 21
99.99999999999992
 31
0.0
  0
LINE
  5
161
330
20
100
AcDbEntity
  8
STEMPEL
100
AcDbLine
 10
1025.0
 20
200.0
 30
0.0
 11
365.0000000000003
 21
199.9999999999998
 31
0.0
  0
LINE
  5
162
330
20
100
AcDbEntity
  8
HILF
100
AcDbLine
 10
365.0000000000003
 20
174.9999999999998
 30
0.0
 11
575.0
 21
174.9999999999998
 31
0.0
  0
LINE
  5
163
330
20
100
AcDbEntity
  8
HILF
100
AcDbLine
 10
365.0000000000003
 20
149.9999999999999
 30
0.0
 11
575.0
 21
149.9999999999999
 31
0.0
  0
LINE
  5
164
330
20
100
AcDbEntity
  8
HILF
100
AcDbLine
 10
365.0000000000003
 20
124.9999999999999
 30
0.0
 11
575.0
 21
124.9999999999999
 31
0.0
  0
LINE
  5
165
330
20
100
AcDbEntity
  8
STEMPEL
100
AcDbLine
 10
124.9999999999997
 20
25.0
 30
0.0
 11
1025.0
 21
25.0
 31
0.0
  0
LINE
  5
166
330
20
100
AcDbEntity
  8
STEMPEL
100
AcDbLine
 10
1025.0
 20
25.0
 30
0.0
 11
99.99999999999971
 21
25.0
 31
0.0
  0
LINE
  5
167
330
20
100
AcDbEntity
  8
HILF
100
AcDbLine
 10
1050.0
 20
0.0
 30
0.0
 11
0.0
 21
0.0
 31
0.0
  0
INSERT
  5
168
330
20
100
AcDbEntity
  8
STEMPEL
100
AcDbBlockReference
  2
LOGO
 10
377.4888713644485
 20
112.552631911208
 30
0.0
 41
5.0
 42
5.0
 43
5.0
  0
DIMENSION
  5
16A
330
20
100
AcDbEntity
  8
BEM
100
AcDbDimension
  2
*D12
 10
919.8228657091032
 20
1003.790847412666
 30
0.0
 11
738.6267530300506
 21
845.5757051221763
 31
0.0
 70
    32
 71
     5
 42
479.9999999999995
  3
Standard
100
AcDbAlignedDimension
 13
432.9603234566655
 23
811.8308797260189
 33
0.0
 14
855.3959730610692
 24
1068.2177400607
 34
0.0
 50
45.0
100
AcDbRotatedDimension
1001
ACAD
1000
DSTYLE
1002
{
1070
    40
1040
5.0
1070
    41
1040
3.5
1070
    42
1040
1.0
1070
    43
1040
7.0
1070
    44
1040
1.0
1070
    47
1040
3.0
1070
    48
1040
3.0
1070
    73
1070
     0
1070
    74
1070
     0
1070
    77
1070
     1
1070
    78
1070
     8
1070
    79
1070
     2
1070
   140
1040
3.5
1070
   141
1040
1.5
1070
   146
1040
0.5
1070
   147
1040
1.5
1070
   172
1070
     1
1070
   178
1070
     1
1070
   179
1070
     2
1070
   271
1070
     2
1070
   272
1070
     2
1070
   284
1070
     8
1070
   285
1070
     8
1070
   286
1070
     8
1070
   340
1005
36
1002
}
  0
DIMENSION
  5
16B
330
20
100
AcDbEntity
  8
BEM
100
AcDbDimension
  2
*D16
 10
218.1825631032704
 20
1246.830879726019
 30
0.0
 11
201.9325631032701
 21
976.8308797260189
 31
0.0
 70
    32
 71
     5
 42
539.9999999999998
  3
Standard
100
AcDbAlignedDimension
 13
296.4603234566658
 23
706.830879726019
 33
0.0
 14
296.4603234566658
 24
1246.830879726019
 34
0.0
 50
90.0
100
AcDbRotatedDimension
1001
ACAD
1000
DSTYLE
1002
{
1070
    40
1040
5.0
1070
    41
1040
3.5
1070
    42
1040
1.0
1070
    43
1040
7.0
1070
    44
1040
1.0
1070
    47
1040
3.0
1070
    48
1040
3.0
1070
    73
1070
     0
1070
    74
1070
     0
1070
    77
1070
     1
1070
    78
1070
     8
1070
    79
1070
     2
1070
   140
1040
3.5
1070
   141
1040
1.5
1070
   146
1040
0.5
1070
   147
1040
1.5
1070
   172
1070
     1
1070
   178
1070
     1
1070
   179
1070
     2
1070
   271
1070
     2
1070
   272
1070
     2
1070
   284
1070
     8
1070
   285
1070
     8
1070
   286
1070
     8
1070
   340
1005
36
1002
}
  0
DIMENSION
  5
16C
330
20
100
AcDbEntity
  8
BEM
100
AcDbDimension
  2
*D14
 10
257.4977029108198
 20
811.8308797260191
 30
0.0
 11
241.2477029108197
 21
759.3308797260191
 31
0.0
 70
    32
 71
     5
 42
105.0
  3
Standard
100
AcDbAlignedDimension
 13
296.4603234566658
 23
706.830879726019
 33
0.0
 14
432.9603234566655
 24
811.8308797260191
 34
0.0
 50
90.0
100
AcDbRotatedDimension
1001
ACAD
1000
DSTYLE
1002
{
1070
    40
1040
5.0
1070
    41
1040
3.5
1070
    42
1040
1.0
1070
    43
1040
7.0
1070
    44
1040
1.0
1070
    47
1040
3.0
1070
    48
1040
3.0
1070
    73
1070
     0
1070
    74
1070
     0
1070
    77
1070
     1
1070
    78
1070
     8
1070
    79
1070
     2
1070
   140
1040
3.5
1070
   141
1040
1.5
1070
   146
1040
0.5
1070
   147
1040
1.5
1070
   172
1070
     1
1070
   178
1070
     1
1070
   179
1070
     2
1070
   271
1070
     2
1070
   272
1070
     2
1070
   284
1070
     8
1070
   285
1070
     8
1070
   286
1070
     8
1070
   340
1005
36
1002
}
  0
LINE
  5
17D
330
20
100
AcDbEntity
  8
STEMPEL
100
AcDbLine
 10
296.4603234566658
 20
1246.830879726019
 30
0.0
 11
296.4603234566658
 21
706.830879726019
 31
0.0
  0
LINE
  5
17E
102
{ACAD_REACTORS
330
4B0
102
}
330
20
100
AcDbEntity
  8
MITTEL
100
AcDbLine
 10
432.9603234566655
 20
1256.830879726019
 30
0.0
 11
432.9603234566655
 21
696.830879726019
 31
0.0
  0
LINE
  5
180
330
20
100
AcDbEntity
  8
STEMPEL
100
AcDbLine
 10
100.0
 20
25.0
 30
0.0
 11
99.99999999999971
 21
1460.0
 31
0.0
  0
LINE
  5
181
330
20
100
AcDbEntity
  8
HILF
100
AcDbLine
 10
0.0
 20
0.0
 30
0.0
 11
-0.0000000000002842
 21
1485.0
 31
0.0
  0
LINE
  5
182
330
20
100
AcDbEntity
  8
STEMPEL
100
AcDbLine
 10
364.9999999999997
 20
74.99999999999992
 30
0.0
 11
99.99999999999992
 21
74.99999999999992
 31
0.0
  0
LINE
  5
183
330
20
100
AcDbEntity
  8
HILF
100
AcDbLine
 10
100.0000000000002
 20
250.0000000000001
 30
0.0
 11
365.0000000000003
 21
250.0000000000001
 31
0.0
  0
LINE
  5
184
330
20
100
AcDbEntity
  8
HILF
100
AcDbLine
 10
100.0000000000002
 20
225.0000000000001
 30
0.0
 11
365.0000000000003
 21
225.0000000000001
 31
0.0
  0
LINE
  5
185
330
20
100
AcDbEntity
  8
HILF
100
AcDbLine
 10
100.0000000000002
 20
199.9999999999998
 30
0.0
 11
365.0000000000003
 21
199.9999999999998
 31
0.0
  0
LINE
  5
186
330
20
100
AcDbEntity
  8
HILF
100
AcDbLine
 10
100.0000000000002
 20
174.9999999999998
 30
0.0
 11
365.0000000000003
 21
174.9999999999998
 31
0.0
  0
LINE
  5
187
330
20
100
AcDbEntity
  8
HILF
100
AcDbLine
 10
100.0000000000002
 20
149.9999999999999
 30
0.0
 11
365.0000000000003
 21
149.9999999999999
 31
0.0
  0
LINE
  5
188
330
20
100
AcDbEntity
  8
HILF
100
AcDbLine
 10
100.0000000000002
 20
124.9999999999999
 30
0.0
 11
365.0000000000003
 21
124.9999999999999
 31
0.0
  0
LINE
  5
189
330
20
100
AcDbEntity
  8
HILF
100
AcDbLine
 10
100.0000000000002
 20
99.99999999999992
 30
0.0
 11
365.0000000000003
 21
99.99999999999992
 31
0.0
  0
TEXT
  5
18A
330
20
100
AcDbEntity
  8
TEXT
100
AcDbText
 10
167.6577701503943
 20
46.68454737460329
 30
0.0
 40
10.0
  1
Änderung
 41
0.8
  7
GREEKS
 72
     1
 11
194.5149130075371
 21
46.68454737460329
 31
0.0
100
AcDbText
  0
TEXT
  5
18B
330
20
100
AcDbEntity
  8
TEXT
100
AcDbText
 10
104.6377487744418
 20
279.1799999999999
 30
0.0
 40
12.5
  1
Erstellt mit AUTOCAD 2004
 41
0.8
  7
GREEKS
100
AcDbText
  0
LINE
  5
18C
330
20
100
AcDbEntity
  8
VOLL
100
AcDbLine
 10
135.0000000000002
 20
275.0000000000001
 30
0.0
 11
134.9999999999999
 21
24.99999999999993
 31
0.0
  0
TEXT
  5
18D
330
20
100
AcDbEntity
  8
TEXT
100
AcDbText
 10
120.6660276761439
 20
34.13664615067979
 30
0.0
 40
10.0
  1
Index
 50
90.0
 41
0.8
  7
GREEKS
100
AcDbText
  0
LINE
  5
18E
330
20
100
AcDbEntity
  8
HILF
100
AcDbLine
 10
77.7191783928464
 20
742.5000000000001
 30
0.0
 11
0.0000000000002842
 21
742.5000000000001
 31
0.0
  0
LINE
  5
18F
330
20
100
AcDbEntity
  8
VOLL
100
AcDbLine
 10
260.0000000000003
 20
274.9999999999999
 30
0.0
 11
260.0
 21
24.99999999999993
 31
0.0
  0
LINE
  5
190
330
20
100
AcDbEntity
  8
VOLL
100
AcDbLine
 10
310.0000000000003
 20
274.9999999999999
 30
0.0
 11
310.0
 21
24.99999999999993
 31
0.0
  0
TEXT
  5
191
330
20
100
AcDbEntity
  8
TEXT
100
AcDbText
 10
275.8111366917958
 20
46.67890673349525
 30
0.0
 40
10.0
  1
Tag
 41
0.8
  7
GREEKS
 72
     1
 11
285.144470025129
 21
46.67890673349525
 31
0.0
100
AcDbText
  0
TEXT
  5
192
330
20
100
AcDbEntity
  8
TEXT
100
AcDbText
 10
320.2985809922406
 20
46.4831054241602
 30
0.0
 40
10.0
  1
Name
 41
0.8
  7
GREEKS
 72
     1
 11
336.1081048017644
 21
46.4831054241602
 31
0.0
100
AcDbText
  0
LINE
  5
193
330
20
100
AcDbEntity
  8
STEMPEL
100
AcDbLine
 10
365.0000000000003
 20
274.9999999999999
 30
0.0
 11
365.0
 21
24.99999999999993
 31
0.0
  0
TEXT
  5
194
330
20
100
AcDbEntity
  8
TEXT
100
AcDbText
 10
430.8279182884127
 20
183.2970125307481
 30
0.0
 40
10.0
  1
Tag
 41
0.8
  7
GREEKS
100
AcDbText
  0
TEXT
  5
195
330
20
100
AcDbEntity
  8
TEXT
100
AcDbText
 10
425.9974927705902
 20
157.7691260206433
 30
0.0
 40
10.0
  1
05.04.
 41
0.8
  7
GREEKS
 72
     1
 11
443.5213022943996
 21
157.7691260206433
 31
0.0
100
AcDbText
  0
LINE
  5
196
330
20
100
AcDbEntity
  8
VOLL
100
AcDbLine
 10
410.0000000000003
 20
199.9999999999998
 30
0.0
 11
410.0000000000003
 21
99.99999999999992
 31
0.0
  0
TEXT
  5
197
330
20
100
AcDbEntity
  8
TEXT
100
AcDbText
 10
368.9590317919039
 20
159.0747592404491
 30
0.0
 40
10.0
  1
Gez.
 41
0.8
  7
GREEKS
100
AcDbText
  0
TEXT
  5
198
330
20
100
AcDbEntity
  8
TEXT
100
AcDbText
 10
369.0016943468259
 20
108.8236597412452
 30
0.0
 40
10.0
  1
Norm.
 41
0.8
  7
GREEKS
100
AcDbText
  0
TEXT
  5
199
330
20
100
AcDbEntity
  8
TEXT
100
AcDbText
 10
368.8787716429181
 20
134.2231572857094
 30
0.0
 40
10.0
  1
Gepr.
 41
0.8
  7
GREEKS
100
AcDbText
  0
TEXT
  5
19A
330
20
100
AcDbEntity
  8
TEXT
 62
     1
100
AcDbText
 10
401.2515766204717
 20
220.372535722849
 30
0.0
 40
17.5
  1
1:5
 41
0.8
  7
GREEKS
100
AcDbText
  0
TEXT
  5
19B
330
20
100
AcDbEntity
  8
TEXT
100
AcDbText
 10
383.7908930375943
 20
256.1552237717722
 30
0.0
 40
12.5
  1
Maßstab
 41
0.8
  7
GREEKS
100
AcDbText
  0
TEXT
  5
19C
330
20
100
AcDbEntity
  8
TEXT
100
AcDbText
 10
371.55527455526
 20
182.8506367787916
 30
0.0
 40
10.0
  1
2011
 41
0.8
  7
GREEKS
100
AcDbText
  0
LINE
  5
19D
330
20
100
AcDbEntity
  8
VOLL
100
AcDbLine
 10
475.0000000000002
 20
274.9999999999996
 30
0.0
 11
475.0
 21
99.99999999999992
 31
0.0
  0
TEXT
  5
19F
330
20
100
AcDbEntity
  8
TEXT
 62
     1
100
AcDbText
 10
292.4806628287003
 20
428.844636841721
 30
0.0
 40
17.5
  1
Rohrenden leicht entgratet
 41
0.8
  7
GREEKS
100
AcDbText
  0
POINT
  5
1A0
330
20
100
AcDbEntity
  8
DEFPOINTS
  6
ByBlock
 62
     0
100
AcDbPoint
 10
432.9603234566655
 20
701.830879726019
 30
0.0
  0
LINE
  5
1A1
330
20
100
AcDbEntity
  8
MITTEL
100
AcDbLine
 10
462.7314006550935
 20
841.6019569244468
 30
0.0
 11
432.9603234566655
 21
811.8308797260191
 31
0.0
  0
LINE
  5
1A2
330
20
100
AcDbEntity
  8
STEMPEL
100
AcDbLine
 10
569.4603234566654
 20
793.4744946461649
 30
0.0
 11
569.4603234566657
 21
706.8308797260191
 31
0.0
  0
LINE
  5
1A3
330
20
100
AcDbEntity
  8
STEMPEL
100
AcDbLine
 10
1025.0
 20
25.0
 30
0.0
 11
1025.0
 21
1460.0
 31
0.0
  0
LINE
  5
1A4
330
20
100
AcDbEntity
  8
HILF
100
AcDbLine
 10
1050.0
 20
-0.0000000000002842
 30
0.0
 11
1050.0
 21
1485.0
 31
0.0
  0
TEXT
  5
1A6
330
20
100
AcDbEntity
  8
TEXT
 62
     1
100
AcDbText
 10
600.0373920362804
 20
323.4720666920996
 30
0.0
 40
17.5
  1
feuerverzinkt und innen beschichtet
 41
0.8
  7
GREEKS
100
AcDbText
  0
LINE
  5
1A7
330
20
100
AcDbEntity
  8
VOLL
100
AcDbLine
 10
830.0
 20
150.0
 30
0.0
 11
1025.0
 21
150.0
 31
0.0
  0
LINE
  5
1A8
330
20
100
AcDbEntity
  8
HILF
100
AcDbLine
 10
841.8096540742482
 20
209.4495909238957
 30
0.0
 11
1012.147209831682
 21
209.4495909238957
 31
0.0
  0
TEXT
  5
1A9
330
20
100
AcDbEntity
  8
TEXT
100
AcDbText
 10
840.4468873940851
 20
255.7830086342841
 30
0.0
 40
12.5
  1
Zeichnungs Nr.
 41
0.8
  7
GREEKS
100
AcDbText
  0
TEXT
  5
1AA
330
20
100
AcDbEntity
  8
TEXT
100
AcDbText
 10
841.8096540742482
 20
182.9529559274992
 30
0.0
 40
12.5
  1
Ersatz für:
 41
0.8
  7
GREEKS
100
AcDbText
  0
TEXT
  5
1AB
330
20
100
AcDbEntity
  8
TEXT
100
AcDbText
 10
843.1002153742515
 20
130.185404446965
 30
0.0
 40
12.5
  1
ersetzt durch:
 41
0.8
  7
GREEKS
100
AcDbText
  0
LINE
  5
1AC
330
20
100
AcDbEntity
  8
HILF
100
AcDbLine
 10
583.7274248224712
 20
37.23495645070784
 30
0.0
 11
1012.147209831682
 21
37.23495645070784
 31
0.0
  0
TEXT
  5
1AD
330
20
100
AcDbEntity
  8
TEXT
100
AcDbText
 10
587.8240977813288
 20
129.100298576054
 30
0.0
 40
12.5
  1
EDV-Art.Nr. 02260.HG0X
 41
0.8
  7
GREEKS
100
AcDbText
  0
TEXT
  5
1AE
330
20
100
AcDbEntity
  8
TEXT
100
AcDbText
 10
587.8240977813288
 20
181.8582405213435
 30
0.0
 40
12.5
  1
Muffenlos / Muffe
 41
0.8
  7
GREEKS
100
AcDbText
  0
LINE
  5
1AF
330
20
100
AcDbEntity
  8
HILF
100
AcDbLine
 10
586.9342002742369
 20
210.0939561891034
 30
0.0
 11
812.0884791390777
 21
210.0939561891034
 31
0.0
  0
LINE
  5
1B0
330
20
100
AcDbEntity
  8
HILF
100
AcDbLine
 10
586.9342002742369
 20
174.9999999999998
 30
0.0
 11
812.0884791390775
 21
174.9999999999998
 31
0.0
  0
LINE
  5
1B1
330
20
100
AcDbEntity
  8
HILF
100
AcDbLine
 10
586.9342002742369
 20
149.9999999999999
 30
0.0
 11
812.0884791390775
 21
149.9999999999999
 31
0.0
  0
LINE
  5
1B2
330
20
100
AcDbEntity
  8
HILF
100
AcDbLine
 10
586.9342002742369
 20
124.9999999999999
 30
0.0
 11
812.0884791390775
 21
124.9999999999999
 31
0.0
  0
TEXT
  5
1B3
330
20
100
AcDbEntity
  8
TEXT
 62
     1
100
AcDbText
 10
585.062932586588
 20
218.5437197313445
 30
0.0
 40
17.5
  1
Abzweig 45%%d DN250/200
 41
0.7
  7
GREEKS
100
AcDbText
  0
LINE
  5
1B4
330
20
100
AcDbEntity
  8
STEMPEL
100
AcDbLine
 10
575.0
 20
275.0000000000001
 30
0.0
 11
575.0
 21
24.99999999999993
 31
0.0
  0
TEXT
  5
1B5
330
20
100
AcDbEntity
  8
TEXT
100
AcDbText
 10
587.1948509522525
 20
256.3723320029449
 30
0.0
 40
12.5
  1
Benennung
 41
0.8
  7
GREEKS
100
AcDbText
  0
TEXT
  5
1B6
330
20
100
AcDbEntity
  8
TEXT
100
AcDbText
 10
587.4593753944567
 20
106.5743538255658
 30
0.0
 40
10.0
  1
02260HG0W.DWG
 41
0.8
  7
GREEKS
100
AcDbText
  0
TEXT
  5
1B7
330
20
100
AcDbEntity
  8
TEXT
100
AcDbText
 10
586.8555959778399
 20
77.11401425482641
 30
0.0
 40
12.5
  1
Bauvorhaben
 41
0.8
  7
GREEKS
100
AcDbText
  0
LINE
  5
1B8
330
20
100
AcDbEntity
  8
STEMPEL
100
AcDbLine
 10
830.0
 20
274.9999999999994
 30
0.0
 11
830.0
 21
100.0
 31
0.0
  0
TEXT
  5
1B9
330
20
100
AcDbEntity
  8
TEXT
 62
     1
100
AcDbText
 10
867.4300900573781
 20
220.372535722849
 30
0.0
 40
17.5
  1
02260HG0W
 41
0.8
  7
GREEKS
 72
     1
 11
928.430090057378
 21
220.372535722849
 31
0.0
100
AcDbText
  0
LINE
  5
1BA
330
20
100
AcDbEntity
  8
STEMPEL
  6
Continuous
100
AcDbLine
 10
844.1729737085545
 20
1048.529576381068
 30
0.0
 11
821.3440213705245
 21
1025.700624043038
 31
0.0
  0
LINE
  5
1BB
330
20
100
AcDbEntity
  8
STEMPEL
  6
Continuous
100
AcDbLine
 10
689.3471837913473
 20
1234.266529330422
 30
0.0
 11
855.3959730610692
 21
1068.2177400607
 31
0.0
  0
LINE
  5
1BC
330
20
100
AcDbEntity
  8
STEMPEL
  6
Continuous
100
AcDbLine
 10
669.6590201117149
 20
1223.043529977908
 30
0.0
 11
646.8300677736845
 21
1200.214577639878
 31
0.0
  0
LINE
  5
1BE
330
20
100
AcDbEntity
  8
STEMPEL
  6
Continuous
100
AcDbLine
 10
759.0778684958007
 20
983.0920396852999
 30
0.0
 11
569.4603234566654
 21
793.4744946461649
 31
0.0
  0
LINE
  5
1BF
102
{ACAD_REACTORS
330
4B0
102
}
330
20
100
AcDbEntity
  8
MITTEL
100
AcDbLine
 10
775.9071123321412
 20
1154.777668601494
 30
0.0
 11
496.3609998602286
 21
875.2315561295819
 31
0.0
  0
LINE
  5
1C0
330
20
100
AcDbEntity
  8
HILF
  6
Continuous
100
AcDbLine
 10
608.5608219557846
 20
1139.001799755932
 30
0.0
 11
760.1312434865747
 21
987.4313782251418
 31
0.0
  0
LINE
  5
1C1
330
20
100
AcDbEntity
  8
HILF
  6
Continuous
100
AcDbLine
 10
611.600319570123
 20
1147.72522861807
 30
0.0
 11
768.8546723487168
 21
990.4708758394772
 31
0.0
  0
LINE
  5
1C2
330
20
100
AcDbEntity
  8
HILF
  6
Continuous
100
AcDbLine
 10
636.3264764642742
 20
1174.638944347902
 30
0.0
 11
795.76838807855
 21
1015.197032733626
 31
0.0
  0
ARC
  5
1C3
330
20
100
AcDbEntity
  8
STEMPEL
100
AcDbCircle
 10
942.3151747797566
 20
893.3293459692558
 30
0.0
 40
427.856385079854
100
AcDbArc
 50
150.538342175014
 51
180.0
  0
ARC
  5
1C4
330
20
100
AcDbEntity
  8
STEMPEL
100
AcDbCircle
 10
632.6024046200496
 20
893.329345969256
 30
0.0
 40
118.143614920147
100
AcDbArc
 50
180.0
 51
237.6932507718517
  0
ARC
  5
1C5
330
20
100
AcDbEntity
  8
SCHRAFF
100
AcDbCircle
 10
529.3785412142097
 20
835.8598082125237
 30
0.0
 40
10.0
100
AcDbArc
 50
283.9483795047556
 51
318.8929963009694
  0
ARC
  5
1C6
330
20
100
AcDbEntity
  8
SCHRAFF
100
AcDbCircle
 10
540.5401883873317
 20
819.2856960813671
 30
0.0
 40
10.0
100
AcDbArc
 50
121.5322864503248
 51
126.3834074426792
  0
ARC
  5
1C7
330
20
100
AcDbEntity
  8
SCHRAFF
100
AcDbCircle
 10
521.1697416129815
 20
854.0779082687944
 30
0.0
 40
10.0
100
AcDbArc
 50
274.2461375200409
 51
309.190754316254
  0
ARC
  5
1C8
330
20
100
AcDbEntity
  8
SCHRAFF
100
AcDbCircle
 10
529.3785412142097
 20
835.8598082125237
 30
0.0
 40
10.0
100
AcDbArc
 50
111.8300444656078
 51
116.6811654579662
  0
ARC
  5
1C9
330
20
100
AcDbEntity
  8
SCHRAFF
100
AcDbCircle
 10
518.2495425763092
 20
863.642030684689
 30
0.0
 40
10.0
100
AcDbArc
 50
269.3950165276836
 51
304.3396333238971
  0
ARC
  5
1CA
330
20
100
AcDbEntity
  8
SCHRAFF
100
AcDbCircle
 10
534.6083307003307
 20
827.3363522273696
 30
0.0
 40
10.0
100
AcDbArc
 50
116.6811654579627
 51
121.5322864503262
  0
ARC
  5
1CB
330
20
100
AcDbEntity
  8
SCHRAFF
100
AcDbCircle
 10
524.8882882038208
 20
844.7949986359388
 30
0.0
 40
10.0
100
AcDbArc
 50
279.0972585123983
 51
314.0418753086119
  0
ARC
  5
1CC
330
20
100
AcDbEntity
  8
SCHRAFF
100
AcDbCircle
 10
547.1316161068273
 20
811.7655178508552
 30
0.0
 40
10.0
100
AcDbArc
 50
298.5017424818276
 51
333.446359278053
  0
ARC
  5
1CD
330
20
100
AcDbEntity
  8
SCHRAFF
100
AcDbCircle
 10
554.3353902705418
 20
804.8296950591312
 30
0.0
 40
10.0
100
AcDbArc
 50
303.3528634741855
 51
338.2974802703994
  0
ARC
  5
1CE
330
20
100
AcDbEntity
  8
SCHRAFF
100
AcDbCircle
 10
565.7997134350723
 20
794.9907689636678
 30
0.0
 40
5.813501478551943
100
AcDbArc
 50
309.0260659536844
 51
5.973934046315534
  0
INSERT
  5
1CF
330
20
100
AcDbEntity
  8
SCHRAFF
100
AcDbBlockReference
  2
*X2
 10
-68.57569375348447
 20
1.033903735807257
 30
0.0
1001
ACAD
1000
HATCH
1002
{
1070
    16
1000
_U,I
1040
0.1
1040
0.0
1070
     0
1002
}
  0
ARC
  5
1D0
330
20
100
AcDbEntity
  8
SCHRAFF
100
AcDbCircle
 10
540.5401883873317
 20
819.2856960813671
 30
0.0
 40
10.0
100
AcDbArc
 50
293.6506214894708
 51
328.5952382856844
  0
ARC
  5
1D1
330
20
100
AcDbEntity
  8
SCHRAFF
100
AcDbCircle
 10
547.1316161068273
 20
811.7655178508552
 30
0.0
 40
10.0
100
AcDbArc
 50
126.3834074426792
 51
131.2345284350396
  0
ARC
  5
1D2
330
20
100
AcDbEntity
  8
SCHRAFF
100
AcDbCircle
 10
534.6083307003307
 20
827.3363522273696
 30
0.0
 40
10.0
100
AcDbArc
 50
288.7995004971134
 51
323.7441172933265
  0
ARC
  5
1D3
330
20
100
AcDbEntity
  8
SCHRAFF
100
AcDbCircle
 10
554.3353902705418
 20
804.8296950591312
 30
0.0
 40
10.0
100
AcDbArc
 50
131.2345284350336
 51
136.0856494274
  0
ARC
  5
1D4
330
20
100
AcDbEntity
  8
SCHRAFF
100
AcDbCircle
 10
514.9261724331897
 20
913.3225179738801
 30
0.0
 40
10.0
100
AcDbArc
 50
250.5016888008696
 51
285.4191345722688
  0
ARC
  5
1D5
330
20
100
AcDbEntity
  8
SCHRAFF
100
AcDbCircle
 10
515.5101614940011
 20
923.305451249068
 30
0.0
 40
10.0
100
AcDbArc
 50
249.1625225360978
 51
284.0799683074965
  0
ARC
  5
1D6
330
20
100
AcDbEntity
  8
SCHRAFF
100
AcDbCircle
 10
514.8820034303591
 20
883.3383054759764
 30
0.0
 40
10.0
100
AcDbArc
 50
259.6927745429685
 51
294.6373913391822
  0
ARC
  5
1D7
330
20
100
AcDbEntity
  8
SCHRAFF
100
AcDbCircle
 10
514.5756513426024
 20
903.3286631137647
 30
0.0
 40
10.0
100
AcDbArc
 50
251.8408550656423
 51
286.7583008370408
  0
ARC
  5
1D8
330
20
100
AcDbEntity
  8
SCHRAFF
100
AcDbCircle
 10
514.4587896999025
 20
893.329345969256
 30
0.0
 40
10.0
100
AcDbArc
 50
254.8416535506115
 51
289.7862703468249
  0
ARC
  5
1D9
330
20
100
AcDbEntity
  8
SCHRAFF
100
AcDbCircle
 10
516.1486125516212
 20
873.4188447379152
 30
0.0
 40
10.0
100
AcDbArc
 50
264.543895535326
 51
299.4885123315394
  0
ARC
  5
1DA
330
20
100
AcDbEntity
  8
SCHRAFF
100
AcDbCircle
 10
516.1486125516212
 20
873.4188447379152
 30
0.0
 40
10.0
100
AcDbArc
 50
92.42556049617796
 51
97.27668148853719
  0
ARC
  5
1DB
330
20
100
AcDbEntity
  8
SCHRAFF
100
AcDbCircle
 10
514.5756513426024
 20
903.3286631137647
 30
0.0
 40
10.0
100
AcDbArc
 50
86.65208433807137
 51
87.99125060284037
  0
ARC
  5
1DC
330
20
100
AcDbEntity
  8
SCHRAFF
100
AcDbCircle
 10
518.2495425763092
 20
863.642030684689
 30
0.0
 40
10.0
100
AcDbArc
 50
97.27668148853588
 51
102.1278024808937
  0
ARC
  5
1DD
330
20
100
AcDbEntity
  8
SCHRAFF
100
AcDbCircle
 10
521.1697416129815
 20
854.0779082687944
 30
0.0
 40
10.0
100
AcDbArc
 50
102.1278024808937
 51
106.9789234732507
  0
ARC
  5
1DE
330
20
100
AcDbEntity
  8
SCHRAFF
100
AcDbCircle
 10
517.3771401121395
 20
943.2167486519315
 30
0.0
 40
10.0
100
AcDbArc
 50
246.4841900065533
 51
281.4016357779524
  0
ARC
  5
1DF
330
20
100
AcDbEntity
  8
SCHRAFF
100
AcDbCircle
 10
518.6591098030076
 20
953.1342359199694
 30
0.0
 40
10.0
100
AcDbArc
 50
245.1450237417816
 51
280.0624695131806
  0
ARC
  5
1E0
330
20
100
AcDbEntity
  8
SCHRAFF
100
AcDbCircle
 10
520.1725082882999
 20
963.0190538254604
 30
0.0
 40
10.0
100
AcDbArc
 50
243.8058574770102
 51
278.7233032484083
  0
ARC
  5
1E1
330
20
100
AcDbEntity
  8
SCHRAFF
100
AcDbCircle
 10
516.3272995118193
 20
933.2720096048815
 30
0.0
 40
10.0
100
AcDbArc
 50
247.8233562713259
 51
282.7408020427245
  0
ARC
  5
1E2
330
20
100
AcDbEntity
  8
SCHRAFF
100
AcDbCircle
 10
514.9261724331897
 20
913.3225179738801
 30
0.0
 40
10.0
100
AcDbArc
 50
85.31291807330477
 51
86.65208433806288
  0
ARC
  5
1E3
330
20
100
AcDbEntity
  8
SCHRAFF
100
AcDbCircle
 10
515.5101614940011
 20
923.305451249068
 30
0.0
 40
10.0
100
AcDbArc
 50
83.97375180852
 51
85.31291807330282
  0
ARC
  5
1E4
330
20
100
AcDbEntity
  8
SCHRAFF
100
AcDbCircle
 10
516.3272995118193
 20
933.2720096048815
 30
0.0
 40
10.0
100
AcDbArc
 50
82.63458554375386
 51
83.97375180852526
  0
ARC
  5
1E5
330
20
100
AcDbEntity
  8
SCHRAFF
100
AcDbCircle
 10
520.1725082882999
 20
963.0190538254604
 30
0.0
 40
10.0
100
AcDbArc
 50
78.61708674942029
 51
79.95625301422568
  0
ARC
  5
1E6
330
20
100
AcDbEntity
  8
SCHRAFF
100
AcDbCircle
 10
518.6591098030076
 20
953.1342359199694
 30
0.0
 40
10.0
100
AcDbArc
 50
79.95625301420513
 51
81.29541927898552
  0
ARC
  5
1E7
330
20
100
AcDbEntity
  8
SCHRAFF
100
AcDbCircle
 10
521.9165088502712
 20
972.8658026310228
 30
0.0
 40
10.0
100
AcDbArc
 50
242.4666912122373
 51
277.3841369836361
  0
ARC
  5
1E8
330
20
100
AcDbEntity
  8
SCHRAFF
100
AcDbCircle
 10
523.8901588011611
 20
982.6691033951201
 30
0.0
 40
10.0
100
AcDbArc
 50
241.1275249474652
 51
276.0449707188636
  0
ARC
  5
1E9
330
20
100
AcDbEntity
  8
SCHRAFF
100
AcDbCircle
 10
517.3771401121395
 20
943.2167486519315
 30
0.0
 40
10.0
100
AcDbArc
 50
81.29541927899344
 51
82.63458554374199
  0
LINE
  5
21F
330
20
100
AcDbEntity
  8
STEMPEL
  6
Continuous
100
AcDbLine
 10
604.2214834159461
 20
1137.948424765153
 30
0.0
 11
569.4603234566657
 21
1103.187264805873
 31
0.0
  0
ARC
  5
220
330
20
100
AcDbEntity
  8
SCHRAFF
100
AcDbCircle
 10
569.7870255157292
 20
1103.766662668359
 30
0.0
 40
10.0
100
AcDbArc
 50
223.7183635054287
 51
258.6358092768275
  0
ARC
  5
221
330
20
100
AcDbEntity
  8
SCHRAFF
100
AcDbCircle
 10
537.1610587342968
 20
1030.84744843225
 30
0.0
 40
10.0
100
AcDbArc
 50
234.4316936236053
 51
269.349139395004
  0
ARC
  5
222
330
20
100
AcDbEntity
  8
SCHRAFF
100
AcDbCircle
 10
540.4856184342081
 20
1040.278636204833
 30
0.0
 40
10.0
100
AcDbArc
 50
233.0925273588325
 51
268.0099731302315
  0
ARC
  5
223
330
20
100
AcDbEntity
  8
SCHRAFF
100
AcDbCircle
 10
528.5219694596382
 20
1002.123966629023
 30
0.0
 40
10.0
100
AcDbArc
 50
238.4491924179211
 51
273.3666381893197
  0
ARC
  5
224
330
20
100
AcDbEntity
  8
SCHRAFF
100
AcDbCircle
 10
523.8901588011611
 20
982.6691033951201
 30
0.0
 40
10.0
100
AcDbArc
 50
75.93875421989842
 51
77.27792048465983
  0
ARC
  5
225
330
20
100
AcDbEntity
  8
SCHRAFF
100
AcDbCircle
 10
531.1775999677425
 20
1011.764901573541
 30
0.0
 40
10.0
100
AcDbArc
 50
237.1100261531485
 51
272.0274719245476
  0
ARC
  5
226
330
20
100
AcDbEntity
  8
SCHRAFF
100
AcDbCircle
 10
526.092380003616
 20
992.4236009103927
 30
0.0
 40
10.0
100
AcDbArc
 50
239.788358682693
 51
274.7058044540921
  0
ARC
  5
227
330
20
100
AcDbEntity
  8
SCHRAFF
100
AcDbCircle
 10
521.9165088502712
 20
972.8658026310228
 30
0.0
 40
10.0
100
AcDbArc
 50
77.27792048466188
 51
78.61708674944023
  0
ARC
  5
228
330
20
100
AcDbEntity
  8
SCHRAFF
100
AcDbCircle
 10
526.092380003616
 20
992.4236009103927
 30
0.0
 40
10.0
100
AcDbArc
 50
74.59958795511875
 51
75.93875421989512
  0
ARC
  5
229
330
20
100
AcDbEntity
  8
SCHRAFF
100
AcDbCircle
 10
531.1775999677425
 20
1011.764901573541
 30
0.0
 40
10.0
100
AcDbArc
 50
71.92125542557488
 51
73.2604216903513
  0
ARC
  5
22A
330
20
100
AcDbEntity
  8
SCHRAFF
100
AcDbCircle
 10
528.5219694596382
 20
1002.123966629023
 30
0.0
 40
10.0
100
AcDbArc
 50
73.26042169033563
 51
74.59958795513441
  0
ARC
  5
22B
330
20
100
AcDbEntity
  8
SCHRAFF
100
AcDbCircle
 10
534.0578208479601
 20
1021.341139231471
 30
0.0
 40
10.0
100
AcDbArc
 50
235.7708598883772
 51
270.6883056597759
  0
ARC
  5
22C
330
20
100
AcDbEntity
  8
SCHRAFF
100
AcDbCircle
 10
534.0578208479601
 20
1021.341139231471
 30
0.0
 40
10.0
100
AcDbArc
 50
70.58208916080977
 51
71.92125542557119
  0
ARC
  5
22D
330
20
100
AcDbEntity
  8
SCHRAFF
100
AcDbCircle
 10
560.3605067468797
 20
1086.129029116026
 30
0.0
 40
10.0
100
AcDbArc
 50
226.3966960349728
 51
261.3141418063711
  0
ARC
  5
22E
330
20
100
AcDbEntity
  8
SCHRAFF
100
AcDbCircle
 10
551.7684689999909
 20
1068.070173648918
 30
0.0
 40
10.0
100
AcDbArc
 50
229.0750285645169
 51
263.9924743359152
  0
ARC
  5
22F
330
20
100
AcDbEntity
  8
SCHRAFF
100
AcDbCircle
 10
547.7913189940213
 20
1058.89508357688
 30
0.0
 40
10.0
100
AcDbArc
 50
230.4141948292891
 51
265.3316406006871
  0
ARC
  5
230
330
20
100
AcDbEntity
  8
SCHRAFF
100
AcDbCircle
 10
540.4856184342081
 20
1040.278636204833
 30
0.0
 40
10.0
100
AcDbArc
 50
67.90375663122485
 51
69.24292289606845
  0
ARC
  5
231
330
20
100
AcDbEntity
  8
SCHRAFF
100
AcDbCircle
 10
537.1610587342968
 20
1030.84744843225
 30
0.0
 40
10.0
100
AcDbArc
 50
69.24292289600639
 51
70.58208916083059
  0
ARC
  5
232
330
20
100
AcDbEntity
  8
SCHRAFF
100
AcDbCircle
 10
544.0296838546244
 20
1049.629550614441
 30
0.0
 40
10.0
100
AcDbArc
 50
231.7533610940607
 51
266.6708068654592
  0
ARC
  5
233
330
20
100
AcDbEntity
  8
SCHRAFF
100
AcDbCircle
 10
544.0296838546244
 20
1049.629550614441
 30
0.0
 40
10.0
100
AcDbArc
 50
66.56459036647866
 51
67.90375663127047
  0
ARC
  5
234
330
20
100
AcDbEntity
  8
SCHRAFF
100
AcDbCircle
 10
551.7684689999909
 20
1068.070173648918
 30
0.0
 40
10.0
100
AcDbArc
 50
63.88625783693182
 51
65.22542410172859
  0
ARC
  5
235
330
20
100
AcDbEntity
  8
SCHRAFF
100
AcDbCircle
 10
547.7913189940213
 20
1058.89508357688
 30
0.0
 40
10.0
100
AcDbArc
 50
65.2254241017047
 51
66.56459036650023
  0
ARC
  5
236
330
20
100
AcDbEntity
  8
SCHRAFF
100
AcDbCircle
 10
555.9589612917366
 20
1077.149808793175
 30
0.0
 40
10.0
100
AcDbArc
 50
227.7358622997452
 51
262.6533080711433
  0
ARC
  5
237
330
20
100
AcDbEntity
  8
SCHRAFF
100
AcDbCircle
 10
564.970700951929
 20
1095.002929577026
 30
0.0
 40
10.0
100
AcDbArc
 50
225.0575297702007
 51
259.9749755415992
  0
ARC
  5
238
330
20
100
AcDbEntity
  8
SCHRAFF
100
AcDbCircle
 10
555.9589612917366
 20
1077.149808793175
 30
0.0
 40
10.0
100
AcDbArc
 50
62.54709157218823
 51
63.88625783692832
  0
LINE
  5
239
330
20
100
AcDbEntity
  8
STEMPEL
100
AcDbLine
 10
569.4603234566657
 20
1246.830879726019
 30
0.0
 11
569.4603234566657
 21
1103.187264805873
 31
0.0
  0
ARC
  5
23A
330
20
100
AcDbEntity
  8
SCHRAFF
100
AcDbCircle
 10
569.4603234566654
 20
1103.187264805872
 30
0.0
 40
3.0
100
AcDbArc
 50
45.00000000000306
 51
89.99999999999783
  0
INSERT
  5
23B
330
20
100
AcDbEntity
  8
SCHRAFF
100
AcDbBlockReference
  2
*X3
 10
-68.57569375348447
 20
1.033903735807257
 30
0.0
1001
ACAD
1000
HATCH
1002
{
1070
    16
1000
_U,I
1040
0.1
1040
0.0
1070
     0
1002
}
  0
LINE
  5
23C
330
20
100
AcDbEntity
  8
STEMPEL
  6
Continuous
100
AcDbLine
 10
630.8967975087337
 20
1172.260492094755
 30
0.0
 11
612.7432850782609
 21
1154.106979664282
 31
0.0
  0
ARC
  5
23D
330
20
100
AcDbEntity
  8
STEMPEL
  6
Continuous
100
AcDbCircle
 10
627.5218168050594
 20
1139.328447937483
 30
0.0
 40
20.9
100
AcDbArc
 50
134.9999999999999
 51
169.3868930268838
  0
ARC
  5
23E
330
20
100
AcDbEntity
  8
STEMPEL
  6
Continuous
100
AcDbCircle
 10
597.1504156040807
 20
1145.019492577018
 30
0.0
 40
10.0
100
AcDbArc
 50
315.0
 51
349.3868930268837
  0
ARC
  5
23F
330
20
100
AcDbEntity
  8
STEMPEL
  6
Continuous
100
AcDbCircle
 10
677.1649486865874
 20
1169.879696726974
 30
0.0
 40
42.9
100
AcDbArc
 50
135.0
 51
165.6354476581464
  0
ARC
  5
240
330
20
100
AcDbEntity
  8
STEMPEL
  6
Continuous
100
AcDbCircle
 10
618.168875447376
 20
1184.988414156113
 30
0.0
 40
18.0
100
AcDbArc
 50
314.9999999999999
 51
345.6354476581463
  0
LINE
  5
241
330
20
100
AcDbEntity
  8
STEMPEL
  6
Continuous
100
AcDbLine
 10
793.3899358254018
 20
1009.767353778086
 30
0.0
 11
775.2364233949294
 21
991.613841347614
 31
0.0
  0
ARC
  5
242
330
20
100
AcDbEntity
  8
STEMPEL
  6
Continuous
100
AcDbCircle
 10
766.1489363076659
 20
976.0209718734342
 30
0.0
 40
10.0
100
AcDbArc
 50
100.6131069731177
 51
135.0
  0
ARC
  5
243
330
20
100
AcDbEntity
  8
STEMPEL
  6
Continuous
100
AcDbCircle
 10
760.4578916681305
 20
1006.392373074412
 30
0.0
 40
20.9
100
AcDbArc
 50
280.6131069731178
 51
315.0
  0
ARC
  5
244
330
20
100
AcDbEntity
  8
STEMPEL
  6
Continuous
100
AcDbCircle
 10
791.0091404576217
 20
1056.03550495594
 30
0.0
 40
42.9
100
AcDbArc
 50
284.3645523418534
 51
315.0
  0
ARC
  5
245
330
20
100
AcDbEntity
  8
STEMPEL
  6
Continuous
100
AcDbCircle
 10
806.11785788676
 20
997.0394317167286
 30
0.0
 40
18.0
100
AcDbArc
 50
104.3645523418536
 51
135.0
  0
ARC
  5
246
330
20
100
AcDbEntity
  8
STEMPEL
  6
Continuous
100
AcDbCircle
 10
699.9939010246173
 20
1192.708649065005
 30
0.0
 40
42.9
100
AcDbArc
 50
104.3695577484716
 51
135.0
  0
ARC
  5
247
330
20
100
AcDbEntity
  8
STEMPEL
  6
Continuous
100
AcDbCircle
 10
813.8380927956516
 20
1078.86445729397
 30
0.0
 40
42.9
100
AcDbArc
 50
315.0
 51
345.6304422515284
  0
LINE
  5
249
330
20
100
AcDbEntity
  8
BEM
100
AcDbLine
 10
569.4603234566657
 20
955.4019475378844
 30
0.0
 11
569.4603234566657
 21
941.2598119141534
 31
0.0
  0
TEXT
  5
251
330
20
100
AcDbEntity
  8
TEXT
 62
     1
100
AcDbText
 10
420.8496580068968
 20
1016.01039773147
 30
0.0
 40
17.5
  1
DN250
 50
90.0
 41
0.8
  7
GREEKS
100
AcDbText
  0
TEXT
  5
252
330
20
100
AcDbEntity
  8
TEXT
 62
     1
100
AcDbText
 10
588.9485702199766
 20
992.5807991744283
 30
0.0
 40
17.5
  1
DN200
 50
45.0
 41
0.8
  7
GREEKS
100
AcDbText
  0
TEXT
  5
2E0
330
20
100
AcDbEntity
  8
VOLL
100
AcDbText
 10
1504.282107738805
 20
154.0258796104811
 30
0.0
 40
9.0
  1

  7
GREEKS
100
AcDbText
  0
INSERT
  5
37C
330
20
100
AcDbEntity
  8
BEM
100
AcDbBlockReference
  2
INDEX
 10
1050.0
 20
-0.0000000000002842
 30
0.0
 41
2.5
 42
2.5
 43
2.5
  0
TEXT
  5
3C7
330
20
100
AcDbEntity
  8
TEXT
100
AcDbText
 10
481.7206788119809
 20
222.1183940127969
 30
0.0
 40
10.0
  1
DIN EN1123-2
 41
0.8
  7
GREEKS
 72
     1
 11
524.1968692881714
 21
222.1183940127969
 31
0.0
100
AcDbText
  0
DIMENSION
  5
495
102
{ACAD_XDICTIONARY
360
4A4
102
}
102
{ACAD_REACTORS
330
4B0
102
}
330
20
100
AcDbEntity
  8
BEM
100
AcDbDimension
  2
*D19
 10
432.9603234566655
 20
696.830879726019
 30
0.0
 11
642.0888606778414
 21
1316.711830564628
 31
0.0
 70
    34
 71
     5
 42
0.7853981633974483
  3
Standard
100
AcDb2LineAngularDimension
 13
775.9071123321412
 23
1154.777668601494
 33
0.0
 14
496.3609998602286
 24
875.2315561295819
 34
0.0
 15
432.9603234566655
 25
1256.830879726019
 35
0.0
 16
698.074925088625
 26
1271.022839580955
 36
0.0
1001
ACAD
1000
DSTYLE
1002
{
1070
    40
1040
5.0
1070
    41
1040
3.5
1070
    42
1040
1.0
1070
    43
1040
7.0
1070
    44
1040
1.0
1070
    47
1040
3.0
1070
    48
1040
3.0
1070
    73
1070
     0
1070
    74
1070
     0
1070
    77
1070
     1
1070
    78
1070
     8
1070
    79
1070
     2
1070
   140
1040
3.5
1070
   141
1040
1.5
1070
   146
1040
0.5
1070
   147
1040
1.5
1070
   172
1070
     1
1070
   178
1070
     1
1070
   179
1070
     2
1070
   271
1070
     2
1070
   272
1070
     2
1070
   284
1070
     8
1070
   285
1070
     8
1070
   286
1070
     8
1070
   340
1005
36
1002
}
  0
ENDSEC
  0
SECTION
  2
OBJECTS
  0
DICTIONARY
  5
C
330
0
100
AcDbDictionary
281
     1
  3
ACAD_COLOR
350
1B
  3
ACAD_GROUP
350
D
  3
ACAD_LAYOUT
350
19
  3
ACAD_MATERIAL
350
1A
  3
ACAD_MLINESTYLE
350
16
  3
ACAD_PLOTSETTINGS
350
18
  3
ACAD_PLOTSTYLENAME
350
E
  3
AcDbVariableDictionary
350
3B5
  0
DICTIONARY
  5
4A4
330
495
100
AcDbDictionary
280
     1
281
     1
  3
ACAD_DIMASSOC
360
4B0
  0
DICTIONARY
  5
1B
102
{ACAD_REACTORS
330
C
102
}
330
C
100
AcDbDictionary
281
     1
  0
DICTIONARY
  5
D
102
{ACAD_REACTORS
330
C
102
}
330
C
100
AcDbDictionary
281
     1
  0
DICTIONARY
  5
19
102
{ACAD_REACTORS
330
C
102
}
330
C
100
AcDbDictionary
281
     1
  3
Layout1
350
1F
  3
Model
350
23
  0
DICTIONARY
  5
1A
102
{ACAD_REACTORS
330
C
102
}
330
C
100
AcDbDictionary
281
     1
  0
DICTIONARY
  5
16
102
{ACAD_REACTORS
330
C
102
}
330
C
100
AcDbDictionary
281
     1
  3
Standard
350
17
  0
DICTIONARY
  5
18
102
{ACAD_REACTORS
330
C
102
}
330
C
100
AcDbDictionary
281
     1
  0
ACDBDICTIONARYWDFLT
  5
E
102
{ACAD_REACTORS
330
C
102
}
330
C
100
AcDbDictionary
281
     1
  3
Normal
350
F
100
AcDbDictionaryWithDefault
340
F
  0
DICTIONARY
  5
3B5
102
{ACAD_REACTORS
330
C
102
}
330
C
100
AcDbDictionary
281
     1
  3
DIMASSOC
350
3B7
  3
HIDETEXT
350
3B6
  3
PROJECTNAME
350
3B8
  0
DIMASSOC
  5
4B0
102
{ACAD_REACTORS
330
4A4
102
}
330
4A4
100
AcDbDimAssoc
330
495
 90
       15
 70
     0
 71
     0
  1
AcDbOsnapPointRef
 72
    13
331
1BF
 73
     2
 91
        0
 40
0.0
 10
0.0
 20
0.0
 30
2.000000000000000E+50
 75
     0
  1
AcDbOsnapPointRef
 72
     1
331
1BF
 73
     2
 91
        0
 40
1.0
 10
0.0
 20
0.0
 30
2.000000000000000E+50
 75
     0
  1
AcDbOsnapPointRef
 72
    13
331
17E
 73
     2
 91
        0
 40
0.0
 10
0.0
 20
0.0
 30
2.000000000000000E+50
 75
     0
  1
AcDbOsnapPointRef
 72
     1
331
17E
 73
     2
 91
        0
 40
1.0
 10
0.0
 20
0.0
 30
2.000000000000000E+50
 75
     0
  0
LAYOUT
  5
1F
102
{ACAD_REACTORS
330
19
102
}
330
19
100
AcDbPlotSettings
  1

  2
RICOH Aficio 2027 PCL 6
  4

  6

 40
0.0
 41
0.0
 42
0.0
 43
0.0
 44
0.0
 45
0.0
 46
0.0
 47
0.0
 48
0.0
 49
0.0
140
0.0
141
0.0
142
1.0
143
1.0
 70
   688
 72
     0
 73
     0
 74
     5
  7
monochrome1.ctb
 75
    16
147
1.0
 76
     0
 77
     2
 78
   300
148
0.0
149
0.0
100
AcDbLayout
  1
Layout1
 70
     0
 71
     1
 10
0.0
 20
0.0
 11
12.0
 21
9.0
 12
0.0
 22
0.0
 32
0.0
 14
1.000000000000000E+20
 24
1.000000000000000E+20
 34
1.000000000000000E+20
 15
-1.000000000000000E+20
 25
-1.000000000000000E+20
 35
-1.000000000000000E+20
146
0.0
 13
0.0
 23
0.0
 33
0.0
 16
1.0
 26
0.0
 36
0.0
 17
0.0
 27
1.0
 37
0.0
 76
     0
330
1C
  0
LAYOUT
  5
23
102
{ACAD_REACTORS
330
19
102
}
330
19
100
AcDbPlotSettings
  1

  2
RICOH Aficio 2027 PCL 6
  4
A4
  6

 40
5.027083396911621
 41
5.027085304260253
 42
5.027084350585937
 43
5.027069091796875
 44
209.9733276367187
 45
296.9259948730469
 46
0.0
 47
0.0
 48
0.0
 49
0.0
140
0.0
141
0.0
142
1.0
143
1.0
 70
 11952
 72
     0
 73
     1
 74
     0
  7
monochrome1.ctb
 75
     0
147
1.0
 76
     0
 77
     2
 78
   300
148
5749.737974108374
149
225.2379483828901
100
AcDbLayout
  1
Model
 70
     1
 71
     0
 10
0.0
 20
0.0
 11
12.0
 21
9.0
 12
0.0
 22
0.0
 32
0.0
 14
0.0
 24
0.0
 34
0.0
 15
0.0
 25
0.0
 35
0.0
146
0.0
 13
0.0
 23
0.0
 33
0.0
 16
1.0
 26
0.0
 36
0.0
 17
0.0
 27
1.0
 37
0.0
 76
     0
330
20
  0
MLINESTYLE
  5
17
102
{ACAD_REACTORS
330
16
102
}
330
16
100
AcDbMlineStyle
  2
STANDARD
 70
     0
  3

 62
   256
 51
90.0
 52
90.0
 71
     2
 49
0.5
 62
   256
  6
BYLAYER
 49
-0.5
 62
   256
  6
BYLAYER
  0
ACDBPLACEHOLDER
  5
F
102
{ACAD_REACTORS
330
E
102
}
330
E
  0
DICTIONARYVAR
  5
3B7
102
{ACAD_REACTORS
330
3B5
102
}
330
3B5
100
DictionaryVariables
280
     0
  1
2
  0
DICTIONARYVAR
  5
3B6
102
{ACAD_REACTORS
330
3B5
102
}
330
3B5
100
DictionaryVariables
280
     0
  1
1
  0
DICTIONARYVAR
  5
3B8
102
{ACAD_REACTORS
330
3B5
102
}
330
3B5
100
DictionaryVariables
280
     0
  1

  0
ENDSEC
  0
EOF
