  0
SECTION
  2
HEADER
  9
$ACADVER
  1
AC1018
  9
$ACADMAINTVER
 70
     2
  9
$DWGCODEPAGE
  3
ANSI_1252
  9
$INSBASE
 10
0.0
 20
0.0
 30
0.0
  9
$EXTMIN
 10
-0.080096417720597
 20
-0.1132792193470777
 30
-0.000000000000013
  9
$EXTMAX
 10
1050.000004890039
 20
1485.000006915915
 30
0.0000000000000023
  9
$LIMMIN
 10
0.0
 20
0.0
  9
$LIMMAX
 10
1050.0
 20
1485.0
  9
$ORTHOMODE
 70
     1
  9
$REGENMODE
 70
     1
  9
$FILLMODE
 70
     1
  9
$QTEXTMODE
 70
     0
  9
$MIRRTEXT
 70
     1
  9
$LTSCALE
 40
50.0
  9
$ATTMODE
 70
     1
  9
$TEXTSIZE
 40
2.5
  9
$TRACEWID
 40
0.5
  9
$TEXTSTYLE
  7
GREEKS
  9
$CLAYER
  8
BEM
  9
$CELTYPE
  6
ByLayer
  9
$CECOLOR
 62
   256
  9
$CELTSCALE
 40
1.0
  9
$DISPSILH
 70
     0
  9
$DIMSCALE
 40
5.0
  9
$DIMASZ
 40
3.5
  9
$DIMEXO
 40
1.0
  9
$DIMDLI
 40
7.0
  9
$DIMRND
 40
0.0
  9
$DIMDLE
 40
0.0
  9
$DIMEXE
 40
1.0
  9
$DIMTP
 40
3.0
  9
$DIMTM
 40
3.0
  9
$DIMTXT
 40
3.5
  9
$DIMCEN
 40
1.5
  9
$DIMTSZ
 40
0.0
  9
$DIMTOL
 70
     0
  9
$DIMLIM
 70
     0
  9
$DIMTIH
 70
     0
  9
$DIMTOH
 70
     0
  9
$DIMSE1
 70
     0
  9
$DIMSE2
 70
     0
  9
$DIMTAD
 70
     1
  9
$DIMZIN
 70
     8
  9
$DIMBLK
  1

  9
$DIMASO
 70
     1
  9
$DIMSHO
 70
     0
  9
$DIMPOST
  1

  9
$DIMAPOST
  1

  9
$DIMALT
 70
     0
  9
$DIMALTD
 70
     2
  9
$DIMALTF
 40
25.4
  9
$DIMLFAC
 40
1.0
  9
$DIMTOFL
 70
     1
  9
$DIMTVP
 40
0.0
  9
$DIMTIX
 70
     0
  9
$DIMSOXD
 70
     0
  9
$DIMSAH
 70
     0
  9
$DIMBLK1
  1

  9
$DIMBLK2
  1

  9
$DIMSTYLE
  2
Standard
  9
$DIMCLRD
 70
     0
  9
$DIMCLRE
 70
     0
  9
$DIMCLRT
 70
     1
  9
$DIMTFAC
 40
0.5
  9
$DIMGAP
 40
1.5
  9
$DIMJUST
 70
     0
  9
$DIMSD1
 70
     0
  9
$DIMSD2
 70
     0
  9
$DIMTOLJ
 70
     1
  9
$DIMTZIN
 70
     8
  9
$DIMALTZ
 70
     8
  9
$DIMALTTZ
 70
     8
  9
$DIMUPT
 70
     0
  9
$DIMDEC
 70
     2
  9
$DIMTDEC
 70
     2
  9
$DIMALTU
 70
     2
  9
$DIMALTTD
 70
     2
  9
$DIMTXSTY
  7
GREEKS
  9
$DIMAUNIT
 70
     0
  9
$DIMADEC
 70
     2
  9
$DIMALTRND
 40
0.0
  9
$DIMAZIN
 70
     2
  9
$DIMDSEP
 70
    46
  9
$DIMATFIT
 70
     3
  9
$DIMFRAC
 70
     0
  9
$DIMLDRBLK
  1

  9
$DIMLUNIT
 70
     2
  9
$DIMLWD
 70
    -2
  9
$DIMLWE
 70
    -2
  9
$DIMTMOVE
 70
     0
  9
$LUNITS
 70
     2
  9
$LUPREC
 70
     2
  9
$SKETCHINC
 40
1.0
  9
$FILLETRAD
 40
0.0
  9
$AUNITS
 70
     0
  9
$AUPREC
 70
     0
  9
$MENU
  1
ACAD
  9
$ELEVATION
 40
0.0
  9
$PELEVATION
 40
0.0
  9
$THICKNESS
 40
0.0
  9
$LIMCHECK
 70
     0
  9
$CHAMFERA
 40
0.0
  9
$CHAMFERB
 40
0.0
  9
$CHAMFERC
 40
0.0
  9
$CHAMFERD
 40
0.0
  9
$SKPOLY
 70
     0
  9
$TDCREATE
 40
2452066.321214931
  9
$TDUCREATE
 40
2452066.237881597
  9
$TDUPDATE
 40
2455657.570220104
  9
$TDUUPDATE
 40
2455657.486886771
  9
$TDINDWG
 40
0.1064818171
  9
$TDUSRTIMER
 40
0.1064818171
  9
$USRTIMER
 70
     1
  9
$ANGBASE
 50
0.0
  9
$ANGDIR
 70
     0
  9
$PDMODE
 70
     0
  9
$PDSIZE
 40
0.0
  9
$PLINEWID
 40
0.0
  9
$SPLFRAME
 70
     0
  9
$SPLINETYPE
 70
     6
  9
$SPLINESEGS
 70
     8
  9
$HANDSEED
  5
599
  9
$SURFTAB1
 70
     6
  9
$SURFTAB2
 70
     6
  9
$SURFTYPE
 70
     6
  9
$SURFU
 70
     6
  9
$SURFV
 70
     6
  9
$UCSBASE
  2

  9
$UCSNAME
  2

  9
$UCSORG
 10
0.0
 20
0.0
 30
0.0
  9
$UCSXDIR
 10
1.0
 20
0.0
 30
0.0
  9
$UCSYDIR
 10
0.0
 20
1.0
 30
0.0
  9
$UCSORTHOREF
  2

  9
$UCSORTHOVIEW
 70
     0
  9
$UCSORGTOP
 10
0.0
 20
0.0
 30
0.0
  9
$UCSORGBOTTOM
 10
0.0
 20
0.0
 30
0.0
  9
$UCSORGLEFT
 10
0.0
 20
0.0
 30
0.0
  9
$UCSORGRIGHT
 10
0.0
 20
0.0
 30
0.0
  9
$UCSORGFRONT
 10
0.0
 20
0.0
 30
0.0
  9
$UCSORGBACK
 10
0.0
 20
0.0
 30
0.0
  9
$PUCSBASE
  2

  9
$PUCSNAME
  2

  9
$PUCSORG
 10
0.0
 20
0.0
 30
0.0
  9
$PUCSXDIR
 10
1.0
 20
0.0
 30
0.0
  9
$PUCSYDIR
 10
0.0
 20
1.0
 30
0.0
  9
$PUCSORTHOREF
  2

  9
$PUCSORTHOVIEW
 70
     0
  9
$PUCSORGTOP
 10
0.0
 20
0.0
 30
0.0
  9
$PUCSORGBOTTOM
 10
0.0
 20
0.0
 30
0.0
  9
$PUCSORGLEFT
 10
0.0
 20
0.0
 30
0.0
  9
$PUCSORGRIGHT
 10
0.0
 20
0.0
 30
0.0
  9
$PUCSORGFRONT
 10
0.0
 20
0.0
 30
0.0
  9
$PUCSORGBACK
 10
0.0
 20
0.0
 30
0.0
  9
$USERI1
 70
     0
  9
$USERI2
 70
     0
  9
$USERI3
 70
     0
  9
$USERI4
 70
     0
  9
$USERI5
 70
     0
  9
$USERR1
 40
0.0
  9
$USERR2
 40
0.0
  9
$USERR3
 40
0.0
  9
$USERR4
 40
0.0
  9
$USERR5
 40
0.0
  9
$WORLDVIEW
 70
     1
  9
$SHADEDGE
 70
     3
  9
$SHADEDIF
 70
    70
  9
$TILEMODE
 70
     1
  9
$MAXACTVP
 70
    16
  9
$PINSBASE
 10
0.0
 20
0.0
 30
0.0
  9
$PLIMCHECK
 70
     0
  9
$PEXTMIN
 10
1.000000000000000E+20
 20
1.000000000000000E+20
 30
1.000000000000000E+20
  9
$PEXTMAX
 10
-1.000000000000000E+20
 20
-1.000000000000000E+20
 30
-1.000000000000000E+20
  9
$PLIMMIN
 10
0.0
 20
0.0
  9
$PLIMMAX
 10
12.0
 20
9.0
  9
$UNITMODE
 70
     0
  9
$VISRETAIN
 70
     0
  9
$PLINEGEN
 70
     0
  9
$PSLTSCALE
 70
     0
  9
$TREEDEPTH
 70
  3020
  9
$CMLSTYLE
  2
Standard
  9
$CMLJUST
 70
     0
  9
$CMLSCALE
 40
1.0
  9
$PROXYGRAPHICS
 70
     1
  9
$MEASUREMENT
 70
     0
  9
$CELWEIGHT
370
    -1
  9
$ENDCAPS
280
     0
  9
$JOINSTYLE
280
     0
  9
$LWDISPLAY
290
     0
  9
$INSUNITS
 70
     0
  9
$HYPERLINKBASE
  1

  9
$STYLESHEET
  1
monochrome 1.ctb
  9
$XEDIT
290
     1
  9
$CEPSNTYPE
380
     0
  9
$PSTYLEMODE
290
     1
  9
$FINGERPRINTGUID
  2
{7416DDCF-4688-4DCB-A4F8-22EA8582F043}
  9
$VERSIONGUID
  2
{48747663-CEAB-42FE-9923-AAE2CF2C7202}
  9
$EXTNAMES
290
     1
  9
$PSVPSCALE
 40
0.0
  9
$OLESTARTUP
290
     0
  9
$SORTENTS
280
   127
  9
$INDEXCTL
280
     0
  9
$HIDETEXT
280
     1
  9
$XCLIPFRAME
290
     0
  9
$HALOGAP
280
     0
  9
$OBSCOLOR
 70
   257
  9
$OBSLTYPE
280
     0
  9
$INTERSECTIONDISPLAY
280
     0
  9
$INTERSECTIONCOLOR
 70
   257
  9
$DIMASSOC
280
     2
  9
$PROJECTNAME
  1

  0
ENDSEC
  0
SECTION
  2
CLASSES
  0
CLASS
  1
ACDBDICTIONARYWDFLT
  2
AcDbDictionaryWithDefault
  3
ObjectDBX Classes
 90
        0
 91
        1
280
     0
281
     0
  0
CLASS
  1
DICTIONARYVAR
  2
AcDbDictionaryVar
  3
ObjectDBX Classes
 90
        0
 91
        3
280
     0
281
     0
  0
CLASS
  1
DIMASSOC
  2
AcDbDimAssoc
  3
"AcDbDimAssoc|Product Desc:     AcDim ARX App For Dimension|Company:          Autodesk, Inc.|WEB Address:      www.autodesk.com"
 90
        0
 91
        1
280
     0
281
     0
  0
ENDSEC
  0
SECTION
  2
TABLES
  0
TABLE
  2
VPORT
  5
8
330
0
100
AcDbSymbolTable
 70
     3
  0
VPORT
  5
598
330
8
100
AcDbSymbolTableRecord
100
AcDbViewportTableRecord
  2
*Active
 70
     0
 10
0.0
 20
0.0
 11
1.0
 21
1.0
 12
525.0
 22
742.4999999999999
 13
0.0
 23
0.0
 14
1.0
 24
1.0
 15
10.0
 25
10.0
 16
0.0
 26
0.0
 36
1.0
 17
0.0
 27
0.0
 37
0.0
 40
1485.0
 41
1.334231805929919
 42
50.0
 43
0.0
 44
0.0
 50
0.0
 51
0.0
 71
     0
 72
  1500
 73
     1
 74
     0
 75
     0
 76
     0
 77
     0
 78
     0
281
     0
 65
     1
110
0.0
120
0.0
130
0.0
111
1.0
121
0.0
131
0.0
112
0.0
122
1.0
132
0.0
 79
     0
146
0.0
  0
ENDTAB
  0
TABLE
  2
LTYPE
  5
5
330
0
100
AcDbSymbolTable
 70
     2
  0
LTYPE
  5
13
330
5
100
AcDbSymbolTableRecord
100
AcDbLinetypeTableRecord
  2
ByBlock
 70
     0
  3

 72
    65
 73
     0
 40
0.0
  0
LTYPE
  5
14
330
5
100
AcDbSymbolTableRecord
100
AcDbLinetypeTableRecord
  2
ByLayer
 70
     0
  3

 72
    65
 73
     0
 40
0.0
  0
LTYPE
  5
15
330
5
100
AcDbSymbolTableRecord
100
AcDbLinetypeTableRecord
  2
Continuous
 70
     0
  3
Solid line
 72
    65
 73
     0
 40
0.0
  0
LTYPE
  5
36
330
5
100
AcDbSymbolTableRecord
100
AcDbLinetypeTableRecord
  2
STRICHPUNKT
 70
     0
  3
__ . __ . __ . __ . __ . __ . __ . __ . __ . __
 72
    65
 73
     4
 40
1.0
 49
0.5
 74
     0
 49
-0.25
 74
     0
 49
0.0
 74
     0
 49
-0.25
 74
     0
  0
ENDTAB
  0
TABLE
  2
LAYER
  5
2
330
0
100
AcDbSymbolTable
 70
     9
  0
LAYER
  5
10
330
2
100
AcDbSymbolTableRecord
100
AcDbLayerTableRecord
  2
0
 70
     0
 62
     7
  6
Continuous
370
    -3
390
F
  0
LAYER
  5
39
330
2
100
AcDbSymbolTableRecord
100
AcDbLayerTableRecord
  2
VOLL
 70
     0
 62
     1
  6
Continuous
370
    -3
390
F
  0
LAYER
  5
3A
330
2
100
AcDbSymbolTableRecord
100
AcDbLayerTableRecord
  2
HILF
 70
     0
 62
     2
  6
Continuous
370
    -3
390
F
  0
LAYER
  5
3B
330
2
100
AcDbSymbolTableRecord
100
AcDbLayerTableRecord
  2
MITTEL
 70
     0
 62
     2
  6
STRICHPUNKT
370
    -3
390
F
  0
LAYER
  5
3C
330
2
100
AcDbSymbolTableRecord
100
AcDbLayerTableRecord
  2
BEM
 70
     0
 62
     7
  6
Continuous
370
    -3
390
F
  0
LAYER
  5
3D
330
2
100
AcDbSymbolTableRecord
100
AcDbLayerTableRecord
  2
STEMPEL
 70
     0
 62
     3
  6
Continuous
370
    -3
390
F
  0
LAYER
  5
3E
330
2
100
AcDbSymbolTableRecord
100
AcDbLayerTableRecord
  2
TEXT
 70
     0
 62
     7
  6
Continuous
370
    -3
390
F
  0
LAYER
  5
3F
330
2
100
AcDbSymbolTableRecord
100
AcDbLayerTableRecord
  2
DEFPOINTS
 70
     0
 62
     7
  6
Continuous
290
     0
370
    -3
390
F
  0
LAYER
  5
40
330
2
100
AcDbSymbolTableRecord
100
AcDbLayerTableRecord
  2
SCHRAFF
 70
     0
 62
     7
  6
Continuous
370
    -3
390
F
  0
ENDTAB
  0
TABLE
  2
STYLE
  5
3
330
0
100
AcDbSymbolTable
 70
     2
  0
STYLE
  5
11
330
3
100
AcDbSymbolTableRecord
100
AcDbTextStyleTableRecord
  2
STANDARD
 70
     0
 40
0.0
 41
1.0
 50
0.0
 71
     0
 42
3.5
  3
txt
  4

  0
STYLE
  5
35
330
3
100
AcDbSymbolTableRecord
100
AcDbTextStyleTableRecord
  2
GREEKS
 70
     0
 40
0.0
 41
0.8
 50
0.0
 71
     0
 42
2.5
  3
SIMPLEX.shx
  4

  0
ENDTAB
  0
TABLE
  2
VIEW
  5
6
330
0
100
AcDbSymbolTable
 70
     0
  0
ENDTAB
  0
TABLE
  2
UCS
  5
7
330
0
100
AcDbSymbolTable
 70
     0
  0
ENDTAB
  0
TABLE
  2
APPID
  5
9
330
0
100
AcDbSymbolTable
 70
     1
  0
APPID
  5
12
330
9
100
AcDbSymbolTableRecord
100
AcDbRegAppTableRecord
  2
ACAD
 70
     0
  0
ENDTAB
  0
TABLE
  2
DIMSTYLE
  5
A
330
0
100
AcDbSymbolTable
 70
     1
100
AcDbDimStyleTable
 71
     1
340
23F
  0
DIMSTYLE
105
23F
102
{ACAD_REACTORS
330
16F
330
16B
330
45B
330
155
330
19E
330
162
102
}
330
A
100
AcDbSymbolTableRecord
100
AcDbDimStyleTableRecord
  2
Standard
 70
     0
340
11
  0
ENDTAB
  0
TABLE
  2
BLOCK_RECORD
  5
1
330
0
100
AcDbSymbolTable
 70
    15
  0
BLOCK_RECORD
  5
20
330
1
100
AcDbSymbolTableRecord
100
AcDbBlockTableRecord
  2
*Model_Space
340
23
  0
BLOCK_RECORD
  5
1C
330
1
100
AcDbSymbolTableRecord
100
AcDbBlockTableRecord
  2
*Paper_Space
340
1F
  0
BLOCK_RECORD
  5
24
330
1
100
AcDbSymbolTableRecord
100
AcDbBlockTableRecord
  2
LOGO
340
0
102
{BLKREFS
331
2D4
102
}
  0
BLOCK_RECORD
  5
27
330
1
100
AcDbSymbolTableRecord
100
AcDbBlockTableRecord
  2
*X2
340
0
102
{BLKREFS
331
1EC
102
}
  0
BLOCK_RECORD
  5
28
330
1
100
AcDbSymbolTableRecord
100
AcDbBlockTableRecord
  2
*X3
340
0
102
{BLKREFS
331
1D8
102
}
  0
BLOCK_RECORD
  5
306
330
1
100
AcDbSymbolTableRecord
100
AcDbBlockTableRecord
  2
*D8
340
0
  0
BLOCK_RECORD
  5
320
330
1
100
AcDbSymbolTableRecord
100
AcDbBlockTableRecord
  2
*D10
340
0
  0
BLOCK_RECORD
  5
32C
330
1
100
AcDbSymbolTableRecord
100
AcDbBlockTableRecord
  2
*D11
340
0
  0
BLOCK_RECORD
  5
338
330
1
100
AcDbSymbolTableRecord
100
AcDbBlockTableRecord
  2
*D12
340
0
  0
BLOCK_RECORD
  5
353
330
1
100
AcDbSymbolTableRecord
100
AcDbBlockTableRecord
  2
*D13
340
0
  0
BLOCK_RECORD
  5
45C
330
1
100
AcDbSymbolTableRecord
100
AcDbBlockTableRecord
  2
*D14
340
0
  0
ENDTAB
  0
ENDSEC
  0
SECTION
  2
BLOCKS
  0
BLOCK
  5
44
330
20
100
AcDbEntity
  8
0
100
AcDbBlockBegin
  2
*Model_Space
 70
     0
 10
0.0
 20
0.0
 30
0.0
  3
*Model_Space
  1

  0
ENDBLK
  5
45
330
20
100
AcDbEntity
  8
0
100
AcDbBlockEnd
  0
BLOCK
  5
42
330
1C
100
AcDbEntity
 67
     1
  8
0
100
AcDbBlockBegin
  2
*Paper_Space
 70
     0
 10
0.0
 20
0.0
 30
0.0
  3
*Paper_Space
  1

  0
ENDBLK
  5
43
330
1C
100
AcDbEntity
 67
     1
  8
0
100
AcDbBlockEnd
  0
BLOCK
  5
46
330
24
100
AcDbEntity
  8
0
100
AcDbBlockBegin
  2
LOGO
 70
     0
 10
0.0
 20
0.0
 30
0.0
  3
LOGO
  1

  0
ARC
  5
47
330
24
100
AcDbEntity
  8
0
100
AcDbCircle
 10
11.59973089678112
 20
-9.271599258481501
 30
0.0
 40
4.5
100
AcDbArc
 50
270.0
 51
231.0575587310159
  0
LINE
  5
48
330
24
100
AcDbEntity
  8
0
100
AcDbLine
 10
3.599730896781125
 20
-4.771599258481529
 30
0.0
 11
3.599730896781153
 21
-11.77159925848133
 31
0.0
  0
LINE
  5
49
330
24
100
AcDbEntity
  8
0
100
AcDbLine
 10
2.599730896781125
 20
-4.771599258481529
 30
0.0
 11
2.599730896781153
 21
-11.77159925848133
 31
0.0
  0
CIRCLE
  5
4A
330
24
100
AcDbEntity
  8
0
100
AcDbCircle
 10
11.59973089678112
 20
-9.271599258481501
 30
0.0
 40
3.5
  0
ARC
  5
4B
330
24
100
AcDbEntity
  8
0
100
AcDbCircle
 10
31.59973089678115
 20
-9.271599258481472
 30
0.0
 40
4.5
100
AcDbArc
 50
270.0
 51
231.0575587310182
  0
LINE
  5
4C
330
24
100
AcDbEntity
  8
0
100
AcDbLine
 10
17.59973089678112
 20
-4.771599258481472
 30
0.0
 11
17.59973089678115
 21
-13.77159925848147
 31
0.0
  0
ARC
  5
4D
330
24
100
AcDbEntity
  8
0
100
AcDbCircle
 10
22.59973089678116
 20
-7.271599258481472
 30
0.0
 40
2.5
100
AcDbArc
 50
293.1161887722295
 51
90.0
  0
CIRCLE
  5
4E
330
24
100
AcDbEntity
  8
0
100
AcDbCircle
 10
31.59973089678115
 20
-9.271599258481472
 30
0.0
 40
3.5
  0
ARC
  5
4F
330
24
100
AcDbEntity
  8
0
100
AcDbCircle
 10
4.599730896781153
 20
-11.77159925848133
 30
0.0
 40
1.0
100
AcDbArc
 50
180.0
 51
270.0
  0
ARC
  5
50
330
24
100
AcDbEntity
  8
0
100
AcDbCircle
 10
4.599730896781153
 20
-11.77159925848133
 30
0.0
 40
2.0
100
AcDbArc
 50
179.9999999999992
 51
270.0
  0
LINE
  5
51
330
24
100
AcDbEntity
  8
0
100
AcDbLine
 10
11.59973089678115
 20
-13.77159925848144
 30
0.0
 11
4.599730896781153
 21
-13.77159925848147
 31
0.0
  0
LINE
  5
52
330
24
100
AcDbEntity
  8
0
100
AcDbLine
 10
8.771303772034769
 20
-12.77159925848136
 30
0.0
 11
4.599730896781153
 21
-12.77159925848133
 31
0.0
  0
LINE
  5
53
330
24
100
AcDbEntity
  8
0
100
AcDbLine
 10
31.59973089678115
 20
-13.77159925848147
 30
0.0
 11
23.6715276665056
 21
-13.77159925848144
 31
0.0
  0
LINE
  5
54
330
24
100
AcDbEntity
  8
0
100
AcDbLine
 10
23.56565672307022
 20
-9.51278021337896
 30
0.0
 11
24.4388546544846
 21
-12.77159925848144
 31
0.0
  0
LINE
  5
55
330
24
100
AcDbEntity
  8
0
100
AcDbLine
 10
22.59973089678116
 20
-9.771599258481472
 30
0.0
 11
18.59973089678112
 21
-9.771599258481472
 31
0.0
  0
LINE
  5
56
330
24
100
AcDbEntity
  8
0
100
AcDbLine
 10
18.59973089678115
 20
-13.77159925848144
 30
0.0
 11
17.59973089678115
 21
-13.77159925848144
 31
0.0
  0
LINE
  5
57
330
24
100
AcDbEntity
  8
0
100
AcDbLine
 10
18.59973089678115
 20
-9.771599258481472
 30
0.0
 11
18.59973089678115
 21
-13.77159925848144
 31
0.0
  0
LINE
  5
58
330
24
100
AcDbEntity
  8
0
100
AcDbLine
 10
22.59973089678116
 20
-9.771599258481472
 30
0.0
 11
23.67152766650562
 21
-13.77159925848147
 31
0.0
  0
ARC
  5
59
330
24
100
AcDbEntity
  8
0
100
AcDbCircle
 10
22.59973089678116
 20
-7.271599258481472
 30
0.0
 40
2.5
100
AcDbArc
 50
270.0
 51
270.0000000000007
  0
LINE
  5
5A
330
24
100
AcDbEntity
  8
0
100
AcDbLine
 10
28.77130377203494
 20
-12.77159925848147
 30
0.0
 11
24.43885465448463
 21
-12.77159925848144
 31
0.0
  0
LINE
  5
5B
330
24
100
AcDbEntity
  8
0
100
AcDbLine
 10
3.599730896781125
 20
-4.771599258481472
 30
0.0
 11
2.599730896781125
 21
-4.771599258481472
 31
0.0
  0
LINE
  5
5C
330
24
100
AcDbEntity
  8
0
100
AcDbLine
 10
22.59973089678116
 20
-8.771599258481472
 30
0.0
 11
18.59973089678115
 21
-8.771599258481472
 31
0.0
  0
LINE
  5
5D
330
24
100
AcDbEntity
  8
0
100
AcDbLine
 10
22.59973089678116
 20
-5.771599258481472
 30
0.0
 11
18.59973089678115
 21
-5.771599258481472
 31
0.0
  0
LINE
  5
5E
330
24
100
AcDbEntity
  8
0
100
AcDbLine
 10
22.59973089678116
 20
-4.771599258481472
 30
0.0
 11
17.59973089678115
 21
-4.771599258481472
 31
0.0
  0
LINE
  5
5F
330
24
100
AcDbEntity
  8
0
100
AcDbLine
 10
18.59973089678115
 20
-5.771599258481472
 30
0.0
 11
18.59973089678115
 21
-8.771599258481472
 31
0.0
  0
ARC
  5
60
330
24
100
AcDbEntity
  8
0
100
AcDbCircle
 10
22.59973089678116
 20
-7.271599258481472
 30
0.0
 40
1.5
100
AcDbArc
 50
270.0
 51
90.0
  0
ENDBLK
  5
61
330
24
100
AcDbEntity
  8
0
100
AcDbBlockEnd
  0
BLOCK
  5
72
330
27
100
AcDbEntity
  8
0
100
AcDbBlockBegin
  2
*X2
 70
     1
 10
0.0
 20
0.0
 30
0.0
  3
*X2
  1

  0
LINE
  5
73
330
27
100
AcDbEntity
  8
0
 62
     0
100
AcDbLine
 10
638.0360172101504
 20
1026.2
 30
0.0
 11
639.5090630112775
 21
1026.2
 31
0.0
  0
LINE
  5
74
330
27
100
AcDbEntity
  8
0
 62
     0
100
AcDbLine
 10
638.0360172101504
 20
1026.3
 30
0.0
 11
639.6090630112776
 21
1026.3
 31
0.0
  0
LINE
  5
75
330
27
100
AcDbEntity
  8
0
 62
     0
100
AcDbLine
 10
638.0360172101504
 20
1026.4
 30
0.0
 11
639.7090630112777
 21
1026.4
 31
0.0
  0
LINE
  5
76
330
27
100
AcDbEntity
  8
0
 62
     0
100
AcDbLine
 10
638.0360172101504
 20
1026.5
 30
0.0
 11
639.8090630112776
 21
1026.5
 31
0.0
  0
LINE
  5
77
330
27
100
AcDbEntity
  8
0
 62
     0
100
AcDbLine
 10
638.0360172101504
 20
1026.6
 30
0.0
 11
639.9090630112778
 21
1026.6
 31
0.0
  0
LINE
  5
78
330
27
100
AcDbEntity
  8
0
 62
     0
100
AcDbLine
 10
638.0360172101504
 20
1026.7
 30
0.0
 11
640.0090630112777
 21
1026.7
 31
0.0
  0
LINE
  5
79
330
27
100
AcDbEntity
  8
0
 62
     0
100
AcDbLine
 10
638.0360172101504
 20
1026.8
 30
0.0
 11
640.1090630112776
 21
1026.8
 31
0.0
  0
LINE
  5
7A
330
27
100
AcDbEntity
  8
0
 62
     0
100
AcDbLine
 10
638.0360172101504
 20
1026.9
 30
0.0
 11
640.1043189159334
 21
1026.9
 31
0.0
  0
LINE
  5
7B
330
27
100
AcDbEntity
  8
0
 62
     0
100
AcDbLine
 10
638.0360172101504
 20
1027.0
 30
0.0
 11
639.9938892146287
 21
1027.0
 31
0.0
  0
LINE
  5
7C
330
27
100
AcDbEntity
  8
0
 62
     0
100
AcDbLine
 10
638.0360172101504
 20
1027.1
 30
0.0
 11
639.8714064401759
 21
1027.1
 31
0.0
  0
LINE
  5
7D
330
27
100
AcDbEntity
  8
0
 62
     0
100
AcDbLine
 10
638.0360172101504
 20
1027.2
 30
0.0
 11
639.7342646790043
 21
1027.2
 31
0.0
  0
LINE
  5
7E
330
27
100
AcDbEntity
  8
0
 62
     0
100
AcDbLine
 10
638.0360172101504
 20
1027.3
 30
0.0
 11
639.5785590427253
 21
1027.3
 31
0.0
  0
LINE
  5
7F
330
27
100
AcDbEntity
  8
0
 62
     0
100
AcDbLine
 10
638.0360172101504
 20
1027.4
 30
0.0
 11
639.3979372316707
 21
1027.4
 31
0.0
  0
LINE
  5
80
330
27
100
AcDbEntity
  8
0
 62
     0
100
AcDbLine
 10
638.0360172101504
 20
1027.5
 30
0.0
 11
639.1806643106983
 21
1027.5
 31
0.0
  0
LINE
  5
81
330
27
100
AcDbEntity
  8
0
 62
     0
100
AcDbLine
 10
638.0360172101504
 20
1027.6
 30
0.0
 11
638.8995030667611
 21
1027.6
 31
0.0
  0
LINE
  5
82
330
27
100
AcDbEntity
  8
0
 62
     0
100
AcDbLine
 10
638.0360172101504
 20
1027.7
 30
0.0
 11
638.4372635987223
 21
1027.7
 31
0.0
  0
LINE
  5
83
330
27
100
AcDbEntity
  8
0
 62
     0
100
AcDbLine
 10
638.0360172101504
 20
1026.1
 30
0.0
 11
639.4090630112777
 21
1026.1
 31
0.0
  0
LINE
  5
84
330
27
100
AcDbEntity
  8
0
 62
     0
100
AcDbLine
 10
638.0360172101504
 20
1026.0
 30
0.0
 11
639.3090630112775
 21
1026.0
 31
0.0
  0
LINE
  5
85
330
27
100
AcDbEntity
  8
0
 62
     0
100
AcDbLine
 10
638.0360172101504
 20
1025.9
 30
0.0
 11
639.2090630112776
 21
1025.9
 31
0.0
  0
LINE
  5
86
330
27
100
AcDbEntity
  8
0
 62
     0
100
AcDbLine
 10
638.0360172101504
 20
1025.8
 30
0.0
 11
639.1090630112775
 21
1025.8
 31
0.0
  0
LINE
  5
87
330
27
100
AcDbEntity
  8
0
 62
     0
100
AcDbLine
 10
638.0360172101504
 20
1025.7
 30
0.0
 11
639.0090630112776
 21
1025.7
 31
0.0
  0
LINE
  5
88
330
27
100
AcDbEntity
  8
0
 62
     0
100
AcDbLine
 10
638.0360172101504
 20
1025.6
 30
0.0
 11
638.9090630112776
 21
1025.6
 31
0.0
  0
LINE
  5
89
330
27
100
AcDbEntity
  8
0
 62
     0
100
AcDbLine
 10
638.0360172101504
 20
1025.5
 30
0.0
 11
638.8090630112775
 21
1025.5
 31
0.0
  0
LINE
  5
8A
330
27
100
AcDbEntity
  8
0
 62
     0
100
AcDbLine
 10
638.0360172101504
 20
1025.4
 30
0.0
 11
638.7090630112776
 21
1025.4
 31
0.0
  0
LINE
  5
8B
330
27
100
AcDbEntity
  8
0
 62
     0
100
AcDbLine
 10
638.0360172101504
 20
1025.3
 30
0.0
 11
638.6090630112775
 21
1025.3
 31
0.0
  0
LINE
  5
8C
330
27
100
AcDbEntity
  8
0
 62
     0
100
AcDbLine
 10
638.0360172101504
 20
1025.2
 30
0.0
 11
638.5090630112776
 21
1025.2
 31
0.0
  0
LINE
  5
8D
330
27
100
AcDbEntity
  8
0
 62
     0
100
AcDbLine
 10
638.0360172101504
 20
1025.1
 30
0.0
 11
638.4090630112776
 21
1025.1
 31
0.0
  0
LINE
  5
8E
330
27
100
AcDbEntity
  8
0
 62
     0
100
AcDbLine
 10
638.0360172101504
 20
1025.0
 30
0.0
 11
638.3090630112775
 21
1025.0
 31
0.0
  0
LINE
  5
8F
330
27
100
AcDbEntity
  8
0
 62
     0
100
AcDbLine
 10
638.0360172101504
 20
1024.9
 30
0.0
 11
638.2090630112776
 21
1024.9
 31
0.0
  0
LINE
  5
90
330
27
100
AcDbEntity
  8
0
 62
     0
100
AcDbLine
 10
638.0360172101504
 20
1024.8
 30
0.0
 11
638.1090630112774
 21
1024.8
 31
0.0
  0
ENDBLK
  5
91
330
27
100
AcDbEntity
  8
0
100
AcDbBlockEnd
  0
BLOCK
  5
92
330
28
100
AcDbEntity
  8
0
100
AcDbBlockBegin
  2
*X3
 70
     1
 10
0.0
 20
0.0
 30
0.0
  3
*X3
  1

  0
LINE
  5
93
330
28
100
AcDbEntity
  8
0
 62
     0
100
AcDbLine
 10
638.0360172101502
 20
799.4
 30
0.0
 11
639.8409317462319
 21
799.4
 31
0.0
  0
LINE
  5
94
330
28
100
AcDbEntity
  8
0
 62
     0
100
AcDbLine
 10
638.0360172101502
 20
799.5
 30
0.0
 11
639.876183815169
 21
799.5
 31
0.0
  0
LINE
  5
95
330
28
100
AcDbEntity
  8
0
 62
     0
100
AcDbLine
 10
638.0360172101502
 20
799.6
 30
0.0
 11
639.9094026129954
 21
799.6
 31
0.0
  0
LINE
  5
96
330
28
100
AcDbEntity
  8
0
 62
     0
100
AcDbLine
 10
638.0360172101502
 20
799.7
 30
0.0
 11
639.9406245865826
 21
799.7
 31
0.0
  0
LINE
  5
97
330
28
100
AcDbEntity
  8
0
 62
     0
100
AcDbLine
 10
638.0360172101502
 20
799.8000000000001
 30
0.0
 11
639.9698832017559
 21
799.8000000000001
 31
0.0
  0
LINE
  5
98
330
28
100
AcDbEntity
  8
0
 62
     0
100
AcDbLine
 10
638.0690194285997
 20
799.9000000000001
 30
0.0
 11
639.9972091442358
 21
799.9000000000001
 31
0.0
  0
LINE
  5
99
330
28
100
AcDbEntity
  8
0
 62
     0
100
AcDbLine
 10
638.1690194285996
 20
800.0
 30
0.0
 11
640.0226304977626
 21
800.0
 31
0.0
  0
LINE
  5
9A
330
28
100
AcDbEntity
  8
0
 62
     0
100
AcDbLine
 10
638.2690194285997
 20
800.1000000000001
 30
0.0
 11
640.0461729020264
 21
800.1000000000001
 31
0.0
  0
LINE
  5
9B
330
28
100
AcDbEntity
  8
0
 62
     0
100
AcDbLine
 10
638.3690194285996
 20
800.2
 30
0.0
 11
640.0678596926425
 21
800.2
 31
0.0
  0
LINE
  5
9C
330
28
100
AcDbEntity
  8
0
 62
     0
100
AcDbLine
 10
638.4690194285997
 20
800.3
 30
0.0
 11
640.0877120250815
 21
800.3
 31
0.0
  0
LINE
  5
9D
330
28
100
AcDbEntity
  8
0
 62
     0
100
AcDbLine
 10
638.5690194285997
 20
800.4000000000001
 30
0.0
 11
640.1057489841876
 21
800.4000000000001
 31
0.0
  0
LINE
  5
9E
330
28
100
AcDbEntity
  8
0
 62
     0
100
AcDbLine
 10
638.6690194285996
 20
800.5
 30
0.0
 11
640.1219876806805
 21
800.5
 31
0.0
  0
LINE
  5
9F
330
28
100
AcDbEntity
  8
0
 62
     0
100
AcDbLine
 10
638.7690194285997
 20
800.6
 30
0.0
 11
640.1364433358357
 21
800.6
 31
0.0
  0
LINE
  5
A0
330
28
100
AcDbEntity
  8
0
 62
     0
100
AcDbLine
 10
638.8690194285997
 20
800.7000000000001
 30
0.0
 11
640.1491293553581
 21
800.7000000000001
 31
0.0
  0
LINE
  5
A1
330
28
100
AcDbEntity
  8
0
 62
     0
100
AcDbLine
 10
638.9690194285996
 20
800.8
 30
0.0
 11
640.1600573933177
 21
800.8
 31
0.0
  0
LINE
  5
A2
330
28
100
AcDbEntity
  8
0
 62
     0
100
AcDbLine
 10
639.0690194285997
 20
800.9
 30
0.0
 11
640.1692374068747
 21
800.9
 31
0.0
  0
LINE
  5
A3
330
28
100
AcDbEntity
  8
0
 62
     0
100
AcDbLine
 10
639.1690194285996
 20
801.0
 30
0.0
 11
640.1766777024098
 21
801.0
 31
0.0
  0
LINE
  5
A4
330
28
100
AcDbEntity
  8
0
 62
     0
100
AcDbLine
 10
639.2690194285997
 20
801.1000000000001
 30
0.0
 11
640.1823849735664
 21
801.1000000000001
 31
0.0
  0
LINE
  5
A5
330
28
100
AcDbEntity
  8
0
 62
     0
100
AcDbLine
 10
639.3690194285997
 20
801.2
 30
0.0
 11
640.1863643316142
 21
801.2
 31
0.0
  0
LINE
  5
A6
330
28
100
AcDbEntity
  8
0
 62
     0
100
AcDbLine
 10
639.4690194285997
 20
801.3000000000001
 30
0.0
 11
640.1886193284624
 21
801.3000000000001
 31
0.0
  0
LINE
  5
A7
330
28
100
AcDbEntity
  8
0
 62
     0
100
AcDbLine
 10
639.5690194285997
 20
801.4000000000001
 30
0.0
 11
640.1891519725619
 21
801.4000000000001
 31
0.0
  0
LINE
  5
A8
330
28
100
AcDbEntity
  8
0
 62
     0
100
AcDbLine
 10
639.6690194285996
 20
801.5
 30
0.0
 11
640.1879627378657
 21
801.5
 31
0.0
  0
LINE
  5
A9
330
28
100
AcDbEntity
  8
0
 62
     0
100
AcDbLine
 10
639.7690194285996
 20
801.6
 30
0.0
 11
640.1850505659394
 21
801.6
 31
0.0
  0
LINE
  5
AA
330
28
100
AcDbEntity
  8
0
 62
     0
100
AcDbLine
 10
639.8690194285997
 20
801.7000000000001
 30
0.0
 11
640.1804128612458
 21
801.7000000000001
 31
0.0
  0
LINE
  5
AB
330
28
100
AcDbEntity
  8
0
 62
     0
100
AcDbLine
 10
639.9690194285997
 20
801.8
 30
0.0
 11
640.1740454795519
 21
801.8
 31
0.0
  0
LINE
  5
AC
330
28
100
AcDbEntity
  8
0
 62
     0
100
AcDbLine
 10
640.0690194285997
 20
801.9000000000001
 30
0.0
 11
640.1659427093395
 21
801.9000000000001
 31
0.0
  0
LINE
  5
AD
330
28
100
AcDbEntity
  8
0
 62
     0
100
AcDbLine
 10
638.0360172101502
 20
799.3000000000001
 30
0.0
 11
639.8036067514173
 21
799.3000000000001
 31
0.0
  0
LINE
  5
AE
330
28
100
AcDbEntity
  8
0
 62
     0
100
AcDbLine
 10
638.0360172101502
 20
799.2
 30
0.0
 11
639.7641657116674
 21
799.2
 31
0.0
  0
LINE
  5
AF
330
28
100
AcDbEntity
  8
0
 62
     0
100
AcDbLine
 10
638.0360172101502
 20
799.1
 30
0.0
 11
639.7225617533788
 21
799.1
 31
0.0
  0
LINE
  5
B0
330
28
100
AcDbEntity
  8
0
 62
     0
100
AcDbLine
 10
638.0360172101502
 20
799.0
 30
0.0
 11
639.678743919176
 21
799.0
 31
0.0
  0
LINE
  5
B1
330
28
100
AcDbEntity
  8
0
 62
     0
100
AcDbLine
 10
638.0360172101502
 20
798.9
 30
0.0
 11
639.6326567936073
 21
798.9
 31
0.0
  0
LINE
  5
B2
330
28
100
AcDbEntity
  8
0
 62
     0
100
AcDbLine
 10
638.0360172101502
 20
798.8
 30
0.0
 11
639.584240076457
 21
798.8
 31
0.0
  0
LINE
  5
B3
330
28
100
AcDbEntity
  8
0
 62
     0
100
AcDbLine
 10
638.0360172101502
 20
798.7
 30
0.0
 11
639.5334280948812
 21
798.7
 31
0.0
  0
LINE
  5
B4
330
28
100
AcDbEntity
  8
0
 62
     0
100
AcDbLine
 10
638.0360172101502
 20
798.6
 30
0.0
 11
639.4801492437284
 21
798.6
 31
0.0
  0
LINE
  5
B5
330
28
100
AcDbEntity
  8
0
 62
     0
100
AcDbLine
 10
638.0360172101502
 20
798.5
 30
0.0
 11
639.4243253411056
 21
798.5
 31
0.0
  0
LINE
  5
B6
330
28
100
AcDbEntity
  8
0
 62
     0
100
AcDbLine
 10
638.0360172101502
 20
798.4
 30
0.0
 11
639.36587088336
 21
798.4
 31
0.0
  0
LINE
  5
B7
330
28
100
AcDbEntity
  8
0
 62
     0
100
AcDbLine
 10
638.0360172101502
 20
798.3
 30
0.0
 11
639.30469217998
 21
798.3
 31
0.0
  0
LINE
  5
B8
330
28
100
AcDbEntity
  8
0
 62
     0
100
AcDbLine
 10
638.0360172101502
 20
798.2
 30
0.0
 11
639.2406863442394
 21
798.2
 31
0.0
  0
LINE
  5
B9
330
28
100
AcDbEntity
  8
0
 62
     0
100
AcDbLine
 10
638.0360172101502
 20
798.1
 30
0.0
 11
639.1737401093941
 21
798.1
 31
0.0
  0
LINE
  5
BA
330
28
100
AcDbEntity
  8
0
 62
     0
100
AcDbLine
 10
638.0360172101502
 20
798.0
 30
0.0
 11
639.1037284324122
 21
798.0
 31
0.0
  0
LINE
  5
BB
330
28
100
AcDbEntity
  8
0
 62
     0
100
AcDbLine
 10
638.0360172101502
 20
797.9
 30
0.0
 11
639.030512836967
 21
797.9
 31
0.0
  0
LINE
  5
BC
330
28
100
AcDbEntity
  8
0
 62
     0
100
AcDbLine
 10
638.0360172101502
 20
797.8
 30
0.0
 11
638.9539394338283
 21
797.8
 31
0.0
  0
LINE
  5
BD
330
28
100
AcDbEntity
  8
0
 62
     0
100
AcDbLine
 10
638.0360172101502
 20
797.7
 30
0.0
 11
638.8738365385854
 21
797.7
 31
0.0
  0
LINE
  5
BE
330
28
100
AcDbEntity
  8
0
 62
     0
100
AcDbLine
 10
638.0360172101502
 20
797.5999999999999
 30
0.0
 11
638.7900117819238
 21
797.5999999999999
 31
0.0
  0
LINE
  5
BF
330
28
100
AcDbEntity
  8
0
 62
     0
100
AcDbLine
 10
638.0360172101502
 20
797.5
 30
0.0
 11
638.7022485737611
 21
797.5
 31
0.0
  0
LINE
  5
C0
330
28
100
AcDbEntity
  8
0
 62
     0
100
AcDbLine
 10
638.0360172101502
 20
797.4000000000001
 30
0.0
 11
638.6103017352262
 21
797.4000000000001
 31
0.0
  0
LINE
  5
C1
330
28
100
AcDbEntity
  8
0
 62
     0
100
AcDbLine
 10
638.0360172101502
 20
797.3
 30
0.0
 11
638.5138920454964
 21
797.3
 31
0.0
  0
LINE
  5
C2
330
28
100
AcDbEntity
  8
0
 62
     0
100
AcDbLine
 10
638.0360172101502
 20
797.2
 30
0.0
 11
638.4126993540122
 21
797.2
 31
0.0
  0
LINE
  5
C3
330
28
100
AcDbEntity
  8
0
 62
     0
100
AcDbLine
 10
638.0360172101502
 20
797.1
 30
0.0
 11
638.3063537669149
 21
797.1
 31
0.0
  0
LINE
  5
C4
330
28
100
AcDbEntity
  8
0
 62
     0
100
AcDbLine
 10
638.0360172101502
 20
797.0
 30
0.0
 11
638.194424204068
 21
797.0
 31
0.0
  0
LINE
  5
C5
330
28
100
AcDbEntity
  8
0
 62
     0
100
AcDbLine
 10
638.0360172101502
 20
796.9000000000001
 30
0.0
 11
638.0764032967223
 21
796.9000000000001
 31
0.0
  0
ENDBLK
  5
C6
330
28
100
AcDbEntity
  8
0
100
AcDbBlockEnd
  0
BLOCK
  5
310
330
306
100
AcDbEntity
  8
0
100
AcDbBlockBegin
  2
*D8
 70
     1
 10
0.0
 20
0.0
 30
0.0
  3
*D8
  1

  0
LINE
  5
56A
330
306
100
AcDbEntity
  8
BEM
 62
     0
370
    -2
100
AcDbLine
 10
348.4465700169549
 20
748.4832615059863
 30
0.0
 11
268.192164539992
 21
748.4832615059863
 31
0.0
  0
LINE
  5
56B
330
306
100
AcDbEntity
  8
BEM
 62
     0
370
    -2
100
AcDbLine
 10
348.4465700169549
 20
1163.483261505986
 30
0.0
 11
268.1921645399921
 21
1163.483261505986
 31
0.0
  0
LINE
  5
56C
330
306
100
AcDbEntity
  8
BEM
 62
     0
370
    -2
100
AcDbLine
 10
273.1921645399919
 20
765.9832615059863
 30
0.0
 11
273.192164539992
 21
1145.983261505986
 31
0.0
  0
SOLID
  5
56D
330
306
100
AcDbEntity
  8
BEM
 62
     0
100
AcDbTrace
 10
270.2754978733253
 20
765.9832615059863
 30
0.0
 11
276.1088312066586
 21
765.9832615059863
 31
0.0
 12
273.1921645399919
 22
748.4832615059863
 32
0.0
 13
273.1921645399919
 23
748.4832615059863
 33
0.0
  0
SOLID
  5
56E
330
306
100
AcDbEntity
  8
BEM
 62
     0
100
AcDbTrace
 10
270.2754978733253
 20
1145.983261505986
 30
0.0
 11
276.1088312066587
 21
1145.983261505986
 31
0.0
 12
273.1921645399921
 22
1163.483261505986
 32
0.0
 13
273.1921645399921
 23
1163.483261505986
 33
0.0
  0
MTEXT
  5
56F
330
306
100
AcDbEntity
  8
BEM
 62
     1
100
AcDbMText
 10
256.9421645399919
 20
955.9832615059862
 30
0.0
 40
17.5
 41
0.0
 71
     5
 72
     1
  1
\A1;415
  7
GREEKS
 11
0.0000000000000001
 21
1.0
 31
0.0
 73
     1
 44
1.0
  0
POINT
  5
570
330
306
100
AcDbEntity
  8
DEFPOINTS
 62
     0
100
AcDbPoint
 10
353.4465700169548
 20
748.4832615059863
 30
0.0
  0
POINT
  5
571
330
306
100
AcDbEntity
  8
DEFPOINTS
 62
     0
100
AcDbPoint
 10
353.4465700169548
 20
1163.483261505986
 30
0.0
  0
POINT
  5
572
330
306
100
AcDbEntity
  8
DEFPOINTS
 62
     0
100
AcDbPoint
 10
273.1921645399921
 20
1163.483261505986
 30
0.0
  0
ENDBLK
  5
311
330
306
100
AcDbEntity
  8
0
100
AcDbBlockEnd
  0
BLOCK
  5
32A
330
320
100
AcDbEntity
  8
0
100
AcDbBlockBegin
  2
*D10
 70
     1
 10
0.0
 20
0.0
 30
0.0
  3
*D10
  1

  0
LINE
  5
401
330
320
100
AcDbEntity
  8
BEM
 62
     0
370
    -2
100
AcDbLine
 10
348.4465700169549
 20
748.4832615059863
 30
0.0
 11
309.4839494711087
 21
748.4832615059863
 31
0.0
  0
LINE
  5
402
330
320
100
AcDbEntity
  8
BEM
 62
     0
370
    -2
100
AcDbLine
 10
484.9465700169546
 20
813.4832615059863
 30
0.0
 11
309.4839494711087
 21
813.4832615059863
 31
0.0
  0
LINE
  5
403
330
320
100
AcDbEntity
  8
BEM
 62
     0
370
    -2
100
AcDbLine
 10
314.4839494711086
 20
765.9832615059863
 30
0.0
 11
314.4839494711086
 21
795.9832615059863
 31
0.0
  0
SOLID
  5
404
330
320
100
AcDbEntity
  8
BEM
 62
     0
100
AcDbTrace
 10
311.567282804442
 20
765.9832615059863
 30
0.0
 11
317.4006161377753
 21
765.9832615059863
 31
0.0
 12
314.4839494711086
 22
748.4832615059863
 32
0.0
 13
314.4839494711086
 23
748.4832615059863
 33
0.0
  0
SOLID
  5
405
330
320
100
AcDbEntity
  8
BEM
 62
     0
100
AcDbTrace
 10
311.567282804442
 20
795.9832615059863
 30
0.0
 11
317.4006161377753
 21
795.9832615059863
 31
0.0
 12
314.4839494711086
 22
813.4832615059863
 32
0.0
 13
314.4839494711086
 23
813.4832615059863
 33
0.0
  0
MTEXT
  5
406
330
320
100
AcDbEntity
  8
BEM
 62
     1
100
AcDbMText
 10
298.2339494711085
 20
780.9832615059864
 30
0.0
 40
17.5
 41
0.0
 71
     5
 72
     1
  1
\A1;65
  7
GREEKS
 11
0.0000000000000001
 21
1.0
 31
0.0
 73
     1
 44
1.0
  0
POINT
  5
407
330
320
100
AcDbEntity
  8
DEFPOINTS
 62
     0
100
AcDbPoint
 10
353.4465700169548
 20
748.4832615059863
 30
0.0
  0
POINT
  5
408
330
320
100
AcDbEntity
  8
DEFPOINTS
 62
     0
100
AcDbPoint
 10
489.9465700169546
 20
813.4832615059863
 30
0.0
  0
POINT
  5
409
330
320
100
AcDbEntity
  8
DEFPOINTS
 62
     0
100
AcDbPoint
 10
314.4839494711086
 20
813.4832615059863
 30
0.0
  0
ENDBLK
  5
32B
330
320
100
AcDbEntity
  8
0
100
AcDbBlockEnd
  0
BLOCK
  5
336
330
32C
100
AcDbEntity
  8
0
100
AcDbBlockBegin
  2
*D11
 70
     1
 10
0.0
 20
0.0
 30
0.0
  3
*D11
  1

  0
LINE
  5
40A
330
32C
100
AcDbEntity
  8
BEM
 62
     0
370
    -2
100
AcDbLine
 10
622.9110361110212
 20
834.0177493913925
 30
0.0
 11
607.282189620034
 21
818.3889029004086
 31
0.0
  0
LINE
  5
40B
330
32C
100
AcDbEntity
  8
BEM
 62
     0
370
    -2
100
AcDbLine
 10
622.911036111021
 20
1058.877705808714
 30
0.0
 11
494.8522114113731
 21
930.8188811090934
 31
0.0
  0
LINE
  5
40C
330
32C
100
AcDbEntity
  8
BEM
 62
     0
370
    -2
100
AcDbLine
 10
598.4433548552039
 20
834.2988054771069
 30
0.0
 11
510.7621139880694
 21
921.98004634426
 31
0.0
  0
SOLID
  5
40D
330
32C
100
AcDbEntity
  8
BEM
 62
     0
100
AcDbTrace
 10
600.5057496336648
 20
836.3612002555674
 30
0.0
 11
596.3809600767429
 21
832.2364106986464
 31
0.0
 12
610.8177235259671
 22
821.924436806341
 32
0.0
 13
610.8177235259671
 23
821.924436806341
 33
0.0
  0
SOLID
  5
40E
330
32C
100
AcDbEntity
  8
BEM
 62
     0
100
AcDbTrace
 10
512.8245087665304
 20
924.0424411227204
 30
0.0
 11
508.6997192096085
 21
919.9176515657994
 31
0.0
 12
498.3877453173062
 22
934.3544150150259
 32
0.0
 13
498.3877453173062
 23
934.3544150150259
 33
0.0
  0
MTEXT
  5
40F
330
32C
100
AcDbEntity
  8
BEM
 62
     1
100
AcDbMText
 10
566.0932196159193
 20
889.6299111049637
 30
0.0
 40
17.5
 41
0.0
 71
     5
 72
     1
  1
\A1;%%c159
  7
GREEKS
 11
0.7071067811864725
 21
-0.7071067811866226
 31
0.0
 73
     1
 44
1.0
  0
POINT
  5
410
330
32C
100
AcDbEntity
  8
DEFPOINTS
 62
     0
100
AcDbPoint
 10
626.4465700169543
 20
837.5532832973249
 30
0.0
  0
POINT
  5
411
330
32C
100
AcDbEntity
  8
DEFPOINTS
 62
     0
100
AcDbPoint
 10
626.4465700169542
 20
1062.413239714646
 30
0.0
  0
POINT
  5
412
330
32C
100
AcDbEntity
  8
DEFPOINTS
 62
     0
100
AcDbPoint
 10
498.3877453173062
 20
934.3544150150259
 30
0.0
  0
ENDBLK
  5
337
330
32C
100
AcDbEntity
  8
0
100
AcDbBlockEnd
  0
BLOCK
  5
342
330
338
100
AcDbEntity
  8
0
100
AcDbBlockBegin
  2
*D12
 70
     1
 10
0.0
 20
0.0
 30
0.0
  3
*D12
  1

  0
LINE
  5
58E
330
338
100
AcDbEntity
  8
BEM
 62
     0
370
    -2
100
AcDbLine
 10
626.4465700169548
 20
743.4832615059863
 30
0.0
 11
626.4465700169548
 21
684.7704919823568
 31
0.0
  0
LINE
  5
58F
330
338
100
AcDbEntity
  8
BEM
 62
     0
370
    -2
100
AcDbLine
 10
353.4465700169548
 20
743.4832615059863
 30
0.0
 11
353.4465700169548
 21
684.7704919823568
 31
0.0
  0
LINE
  5
590
330
338
100
AcDbEntity
  8
BEM
 62
     0
370
    -2
100
AcDbLine
 10
608.9465700169548
 20
689.7704919823568
 30
0.0
 11
370.9465700169549
 21
689.7704919823568
 31
0.0
  0
SOLID
  5
591
330
338
100
AcDbEntity
  8
BEM
 62
     0
100
AcDbTrace
 10
608.9465700169548
 20
692.6871586490234
 30
0.0
 11
608.9465700169548
 21
686.8538253156901
 31
0.0
 12
626.4465700169548
 22
689.7704919823568
 32
0.0
 13
626.4465700169548
 23
689.7704919823568
 33
0.0
  0
SOLID
  5
592
330
338
100
AcDbEntity
  8
BEM
 62
     0
100
AcDbTrace
 10
370.9465700169549
 20
692.6871586490234
 30
0.0
 11
370.9465700169549
 21
686.8538253156901
 31
0.0
 12
353.4465700169548
 22
689.7704919823568
 32
0.0
 13
353.4465700169548
 23
689.7704919823568
 33
0.0
  0
MTEXT
  5
593
330
338
100
AcDbEntity
  8
BEM
 62
     1
100
AcDbMText
 10
489.9465700169549
 20
706.0204919823568
 30
0.0
 40
17.5
 41
0.0
 71
     5
 72
     1
  1
\A1;%%c273
  7
GREEKS
 73
     1
 44
1.0
  0
POINT
  5
594
330
338
100
AcDbEntity
  8
DEFPOINTS
 62
     0
100
AcDbPoint
 10
626.4465700169548
 20
748.4832615059863
 30
0.0
  0
POINT
  5
595
330
338
100
AcDbEntity
  8
DEFPOINTS
 62
     0
100
AcDbPoint
 10
353.4465700169548
 20
748.4832615059863
 30
0.0
  0
POINT
  5
596
330
338
100
AcDbEntity
  8
DEFPOINTS
 62
     0
100
AcDbPoint
 10
353.4465700169548
 20
689.7704919823568
 30
0.0
  0
ENDBLK
  5
343
330
338
100
AcDbEntity
  8
0
100
AcDbBlockEnd
  0
BLOCK
  5
35D
330
353
100
AcDbEntity
  8
0
100
AcDbBlockBegin
  2
*D13
 70
     1
 10
0.0
 20
0.0
 30
0.0
  3
*D13
  1

  0
LINE
  5
573
330
353
100
AcDbEntity
  8
BEM
 62
     0
370
    -2
100
AcDbLine
 10
493.4821039228876
 20
809.9477276000536
 30
0.0
 11
585.3389690524311
 21
718.0908624705296
 31
0.0
  0
LINE
  5
574
330
353
100
AcDbEntity
  8
BEM
 62
     0
370
    -2
100
AcDbLine
 10
841.2078349448837
 20
1034.97848933916
 30
0.0
 11
871.7172154329459
 21
1004.469108851105
 31
0.0
  0
LINE
  5
575
330
353
100
AcDbEntity
  8
BEM
 62
     0
370
    -2
100
AcDbLine
 10
594.1778038172612
 20
734.0007650472277
 30
0.0
 11
855.8073128562494
 21
995.630274086271
 31
0.0
  0
SOLID
  5
576
330
353
100
AcDbEntity
  8
BEM
 62
     0
100
AcDbTrace
 10
592.1154090388003
 20
736.0631598256883
 30
0.0
 11
596.2401985957223
 21
731.9383702687672
 31
0.0
 12
581.803435146498
 22
721.6263963764618
 32
0.0
 13
581.803435146498
 23
721.6263963764618
 33
0.0
  0
SOLID
  5
577
330
353
100
AcDbEntity
  8
BEM
 62
     0
100
AcDbTrace
 10
853.7449180777883
 20
997.6926688647315
 30
0.0
 11
857.8697076347104
 21
993.5678793078105
 31
0.0
 12
868.1816815270128
 22
1008.004642757037
 32
0.0
 13
868.1816815270128
 23
1008.004642757037
 33
0.0
  0
MTEXT
  5
578
330
353
100
AcDbEntity
  8
BEM
 62
     1
100
AcDbMText
 10
713.5020731424726
 20
876.3060047610295
 30
0.0
 40
17.5
 41
0.0
 71
     5
 72
     1
  1
\A1;405
  7
GREEKS
 11
0.707106781186473
 21
0.7071067811866221
 31
0.0
 73
     1
 44
1.0
  0
POINT
  5
579
330
353
100
AcDbEntity
  8
DEFPOINTS
 62
     0
100
AcDbPoint
 10
489.9465700169545
 20
813.483261505986
 30
0.0
  0
POINT
  5
57A
330
353
100
AcDbEntity
  8
DEFPOINTS
 62
     0
100
AcDbPoint
 10
837.6723010389506
 20
1038.514023245093
 30
0.0
  0
POINT
  5
57B
330
353
100
AcDbEntity
  8
DEFPOINTS
 62
     0
100
AcDbPoint
 10
868.1816815270128
 20
1008.004642757037
 30
0.0
  0
ENDBLK
  5
35E
330
353
100
AcDbEntity
  8
0
100
AcDbBlockEnd
  0
BLOCK
  5
468
330
45C
100
AcDbEntity
  8
0
100
AcDbBlockBegin
  2
*D14
 70
     1
 10
0.0
 20
0.0
 30
0.0
  3
*D14
  1

  0
LINE
  5
46B
330
45C
100
AcDbEntity
  8
BEM
 62
     0
370
    -2
100
AcDbLine
 10
786.9314181153044
 20
1110.468109604336
 30
0.0
 11
812.7719810752006
 21
1136.308672564233
 31
0.0
  0
LINE
  5
46C
330
45C
100
AcDbEntity
  8
BEM
 62
     0
370
    -2
100
AcDbLine
 10
489.9465700169546
 20
1178.483261505986
 30
0.0
 11
489.9465700169545
 21
1270.027336103227
 31
0.0
  0
ARC
  5
46D
330
45C
100
AcDbEntity
  8
BEM
 62
     0
370
    -2
100
AcDbCircle
 10
489.9465700169546
 20
813.4832615059856
 30
0.0
 40
451.5440745972415
100
AcDbArc
 50
47.22068887659
 51
87.77931112341006
  0
SOLID
  5
46E
330
45C
100
AcDbEntity
  8
BEM
 62
     0
100
AcDbTrace
 10
798.6466546297886
 20
1147.007366365317
 30
0.0
 11
794.6025695647818
 21
1142.803421341323
 31
0.0
 12
809.2364471692679
 22
1132.7731386583
 32
0.0
 13
809.2364471692679
 23
1132.7731386583
 33
0.0
  0
SOLID
  5
46F
330
45C
100
AcDbEntity
  8
BEM
 62
     0
100
AcDbTrace
 10
507.3867650085246
 20
1261.772102916425
 30
0.0
 11
507.4998030695649
 21
1267.604340923788
 31
0.0
 12
489.9465700169546
 22
1265.027336103227
 32
0.0
 13
489.9465700169546
 23
1265.027336103227
 33
0.0
  0
MTEXT
  5
470
330
45C
100
AcDbEntity
  8
BEM
 62
     1
100
AcDbMText
 10
668.9636121238777
 20
1245.668632456435
 30
0.0
 40
17.5
 41
0.0
 71
     5
 72
     1
  1
\A1;45°
  7
GREEKS
 11
0.9238795325112867
 21
-0.3826834323650898
 31
0.0
 73
     1
 44
1.0
  0
POINT
  5
471
330
45C
100
AcDbEntity
  8
DEFPOINTS
 62
     0
100
AcDbPoint
 10
715.7186073155751
 20
1204.531901035533
 30
0.0
  0
POINT
  5
472
330
45C
100
AcDbEntity
  8
DEFPOINTS
 62
     0
100
AcDbPoint
 10
489.9465700169546
 20
1173.483261505986
 30
0.0
  0
POINT
  5
473
330
45C
100
AcDbEntity
  8
DEFPOINTS
 62
     0
100
AcDbPoint
 10
783.3958842093718
 20
1106.932575698403
 30
0.0
  0
POINT
  5
474
330
45C
100
AcDbEntity
  8
DEFPOINTS
 62
     0
100
AcDbPoint
 10
696.3544752594257
 20
1019.891166748457
 30
0.0
  0
POINT
  5
475
330
45C
100
AcDbEntity
  8
DEFPOINTS
 62
     0
100
AcDbPoint
 10
489.9465700169546
 20
738.4832615059863
 30
0.0
  0
ENDBLK
  5
469
330
45C
100
AcDbEntity
  8
0
100
AcDbBlockEnd
  0
ENDSEC
  0
SECTION
  2
ENTITIES
  0
DIMENSION
  5
155
330
20
100
AcDbEntity
  8
BEM
100
AcDbDimension
  2
*D13
 10
868.1816815270128
 20
1008.004642757037
 30
0.0
 11
713.5020731424726
 21
876.3060047610295
 31
0.0
 70
    32
 71
     5
 42
404.9999999999902
  3
Standard
100
AcDbAlignedDimension
 13
489.9465700169546
 23
813.483261505986
 33
0.0
 14
837.6723010389506
 24
1038.514023245093
 34
0.0
 50
45.00000000000603
100
AcDbRotatedDimension
1001
ACAD
1000
DSTYLE
1002
{
1070
    40
1040
5.0
1070
    41
1040
3.5
1070
    42
1040
1.0
1070
    43
1040
7.0
1070
    44
1040
1.0
1070
    47
1040
3.0
1070
    48
1040
3.0
1070
    73
1070
     0
1070
    74
1070
     0
1070
    77
1070
     1
1070
    78
1070
     8
1070
    79
1070
     2
1070
   140
1040
3.5
1070
   141
1040
1.5
1070
   146
1040
0.5
1070
   147
1040
1.5
1070
   172
1070
     1
1070
   178
1070
     1
1070
   179
1070
     2
1070
   271
1070
     2
1070
   272
1070
     2
1070
   284
1070
     8
1070
   285
1070
     8
1070
   286
1070
     8
1070
   340
1005
35
1002
}
  0
LINE
  5
161
330
20
100
AcDbEntity
  8
STEMPEL
100
AcDbLine
 10
626.4465700169548
 20
748.4832615059863
 30
0.0
 11
353.4465700169548
 21
748.4832615059863
 31
0.0
  0
DIMENSION
  5
162
330
20
100
AcDbEntity
  8
BEM
100
AcDbDimension
  2
*D12
 10
353.4465700169548
 20
689.7704919823568
 30
0.0
 11
489.9465700169549
 21
706.0204919823568
 31
0.0
 70
    32
  1
%%c<>
 71
     5
 42
273.0
  3
Standard
100
AcDbAlignedDimension
 13
626.4465700169548
 23
748.4832615059863
 33
0.0
 14
353.4465700169548
 24
748.4832615059863
 34
0.0
100
AcDbRotatedDimension
1001
ACAD
1000
DSTYLE
1002
{
1070
    40
1040
5.0
1070
    41
1040
3.5
1070
    42
1040
1.0
1070
    43
1040
7.0
1070
    44
1040
1.0
1070
    47
1040
3.0
1070
    48
1040
3.0
1070
    73
1070
     0
1070
    74
1070
     0
1070
    77
1070
     1
1070
    78
1070
     8
1070
    79
1070
     2
1070
   140
1040
3.5
1070
   141
1040
1.5
1070
   146
1040
0.5
1070
   147
1040
1.5
1070
   172
1070
     1
1070
   178
1070
     1
1070
   179
1070
     2
1070
   271
1070
     2
1070
   272
1070
     2
1070
   284
1070
     8
1070
   285
1070
     8
1070
   286
1070
     8
1070
   340
1005
35
1002
}
  0
TEXT
  5
166
330
20
100
AcDbEntity
  8
TEXT
 62
     1
100
AcDbText
 10
480.0373920362804
 20
353.4720666920996
 30
0.0
 40
17.5
  1
Werkstoff: EN 10219 S235, RSt34-2 DIN 2394
 41
0.8
  7
GREEKS
100
AcDbText
  0
LINE
  5
16A
330
20
100
AcDbEntity
  8
STEMPEL
100
AcDbLine
 10
626.4465700169548
 20
1163.483261505986
 30
0.0
 11
353.4465700169548
 21
1163.483261505986
 31
0.0
  0
DIMENSION
  5
16B
330
20
100
AcDbEntity
  8
BEM
100
AcDbDimension
  2
*D11
 10
498.3877453173062
 20
934.3544150150259
 30
0.0
 11
566.0932196159193
 21
889.6299111049637
 31
0.0
 70
    32
  1
%%c<>
 71
     5
 42
159.0000000000167
  3
Standard
100
AcDbAlignedDimension
 13
626.4465700169544
 23
837.5532832973249
 33
0.0
 14
626.4465700169544
 24
1062.413239714647
 34
0.0
 50
314.9999999999939
100
AcDbRotatedDimension
1001
ACAD
1000
DSTYLE
1002
{
1070
    40
1040
5.0
1070
    41
1040
3.5
1070
    42
1040
1.0
1070
    43
1040
7.0
1070
    44
1040
1.0
1070
    47
1040
3.0
1070
    48
1040
3.0
1070
    73
1070
     0
1070
    74
1070
     0
1070
    77
1070
     1
1070
    78
1070
     8
1070
    79
1070
     2
1070
   140
1040
3.5
1070
   141
1040
1.5
1070
   146
1040
0.5
1070
   147
1040
1.5
1070
   172
1070
     1
1070
   178
1070
     1
1070
   179
1070
     2
1070
   271
1070
     2
1070
   272
1070
     2
1070
   284
1070
     8
1070
   285
1070
     8
1070
   286
1070
     8
1070
   340
1005
35
1002
}
  0
LINE
  5
16C
330
20
100
AcDbEntity
  8
MITTEL
100
AcDbLine
 10
548.5086369437376
 20
872.0453284327691
 30
0.0
 11
489.9465700169546
 21
813.4832615059863
 31
0.0
  0
DIMENSION
  5
16F
330
20
100
AcDbEntity
  8
BEM
100
AcDbDimension
  2
*D10
 10
314.4839494711086
 20
813.4832615059863
 30
0.0
 11
298.2339494711085
 21
780.9832615059864
 31
0.0
 70
    32
 71
     5
 42
65.0
  3
Standard
100
AcDbAlignedDimension
 13
353.4465700169548
 23
748.4832615059863
 33
0.0
 14
489.9465700169546
 24
813.4832615059863
 34
0.0
 50
90.0
100
AcDbRotatedDimension
1001
ACAD
1000
DSTYLE
1002
{
1070
    40
1040
5.0
1070
    41
1040
3.5
1070
    42
1040
1.0
1070
    43
1040
7.0
1070
    44
1040
1.0
1070
    47
1040
3.0
1070
    48
1040
3.0
1070
    73
1070
     0
1070
    74
1070
     0
1070
    77
1070
     1
1070
    78
1070
     8
1070
    79
1070
     2
1070
   140
1040
3.5
1070
   141
1040
1.5
1070
   146
1040
0.5
1070
   147
1040
1.5
1070
   172
1070
     1
1070
   178
1070
     1
1070
   179
1070
     2
1070
   271
1070
     2
1070
   272
1070
     2
1070
   284
1070
     8
1070
   285
1070
     8
1070
   286
1070
     8
1070
   340
1005
35
1002
}
  0
TEXT
  5
18D
330
20
100
AcDbEntity
  8
TEXT
 62
     1
100
AcDbText
 10
234.1571368100373
 20
534.260174815278
 30
0.0
 40
17.5
  1
Rohrenden leicht entgratet
 41
0.8
  7
GREEKS
100
AcDbText
  0
LINE
  5
19D
330
20
100
AcDbEntity
  8
STEMPEL
100
AcDbLine
 10
353.4465700169548
 20
1163.483261505986
 30
0.0
 11
353.4465700169548
 21
748.4832615059863
 31
0.0
  0
DIMENSION
  5
19E
330
20
100
AcDbEntity
  8
BEM
100
AcDbDimension
  2
*D8
 10
273.1921645399921
 20
1163.483261505986
 30
0.0
 11
256.9421645399919
 21
955.9832615059862
 31
0.0
 70
    32
 71
     5
 42
414.9999999999998
  3
Standard
100
AcDbAlignedDimension
 13
353.4465700169548
 23
748.4832615059863
 33
0.0
 14
353.4465700169548
 24
1163.483261505986
 34
0.0
 50
90.0
100
AcDbRotatedDimension
1001
ACAD
1000
DSTYLE
1002
{
1070
    40
1040
5.0
1070
    41
1040
3.5
1070
    42
1040
1.0
1070
    43
1040
7.0
1070
    44
1040
1.0
1070
    47
1040
3.0
1070
    48
1040
3.0
1070
    73
1070
     0
1070
    74
1070
     0
1070
    77
1070
     1
1070
    78
1070
     8
1070
    79
1070
     2
1070
   140
1040
3.5
1070
   141
1040
1.5
1070
   146
1040
0.5
1070
   147
1040
1.5
1070
   172
1070
     1
1070
   178
1070
     1
1070
   179
1070
     2
1070
   271
1070
     2
1070
   272
1070
     2
1070
   284
1070
     8
1070
   285
1070
     8
1070
   286
1070
     8
1070
   340
1005
35
1002
}
  0
LINE
  5
1A1
102
{ACAD_REACTORS
330
476
102
}
330
20
100
AcDbEntity
  8
MITTEL
100
AcDbLine
 10
489.9465700169546
 20
1173.483261505986
 30
0.0
 11
489.9465700169546
 21
738.4832615059863
 31
0.0
  0
POINT
  5
1A2
330
20
100
AcDbEntity
  8
DEFPOINTS
  6
ByBlock
 62
     0
100
AcDbPoint
 10
489.9465700169546
 20
743.4832615059863
 30
0.0
  0
TEXT
  5
1AC
330
20
100
AcDbEntity
  8
TEXT
 62
     1
100
AcDbText
 10
600.0373920362804
 20
323.4720666920996
 30
0.0
 40
17.5
  1
feuerverzinkt und innen beschichtet
 41
0.8
  7
GREEKS
100
AcDbText
  0
ARC
  5
1BA
330
20
100
AcDbEntity
  8
STEMPEL
  6
Continuous
100
AcDbCircle
 10
714.4494375097776
 20
1116.474981710515
 30
0.0
 40
35.00004740563918
100
AcDbArc
 50
134.905698550909
 51
162.527183620552
  0
LINE
  5
1BB
102
{ACAD_REACTORS
330
476
102
}
330
20
100
AcDbEntity
  8
MITTEL
100
AcDbLine
 10
783.3958842093718
 20
1106.932575698403
 30
0.0
 11
696.3544752594257
 21
1019.891166748457
 31
0.0
  0
LINE
  5
1BC
330
20
100
AcDbEntity
  8
HILF
  6
Continuous
100
AcDbLine
 10
662.223421911581
 20
1095.462188279709
 30
0.0
 11
771.9254967906784
 21
985.7601134006127
 31
0.0
  0
LINE
  5
1BD
330
20
100
AcDbEntity
  8
HILF
  6
Continuous
100
AcDbLine
 10
664.9679442587162
 20
1103.468685947648
 30
0.0
 11
779.9319944586177
 21
988.5046357477463
 31
0.0
  0
LINE
  5
1BE
330
20
100
AcDbEntity
  8
STEMPEL
  6
Continuous
100
AcDbLine
 10
770.6483414094337
 20
981.755054689804
 30
0.0
 11
626.4465700169546
 21
837.5532832973249
 31
0.0
  0
LINE
  5
1BF
330
20
100
AcDbEntity
  8
HILF
  6
Continuous
100
AcDbLine
 10
681.456099751053
 20
1121.812404865389
 30
0.0
 11
798.2757133763604
 21
1004.992791240081
 31
0.0
  0
ARC
  5
1C0
330
20
100
AcDbEntity
  8
STEMPEL
100
AcDbCircle
 10
986.3360002790555
 20
924.4427135594278
 30
0.0
 40
385.4299782086593
100
AcDbArc
 50
159.0247144331225
 51
180.0
  0
ARC
  5
1C1
330
20
100
AcDbEntity
  8
SCHRAFF
100
AcDbCircle
 10
605.5669686074645
 20
984.2023372346693
 30
0.0
 40
10.0
100
AcDbArc
 50
244.3305744203243
 51
279.2485404303376
  0
ARC
  5
1C2
330
20
100
AcDbEntity
  8
SCHRAFF
100
AcDbCircle
 10
761.4760438617373
 20
924.4427135594278
 30
0.0
 40
160.5700217913407
100
AcDbArc
 50
180.0
 51
212.7606700065452
  0
ARC
  5
1C3
330
20
100
AcDbEntity
  8
SCHRAFF
100
AcDbCircle
 10
605.8641546070134
 20
884.8488779199335
 30
0.0
 40
10.0
100
AcDbArc
 50
268.5121266816119
 51
303.4432444110006
  0
ARC
  5
1C4
330
20
100
AcDbEntity
  8
SCHRAFF
100
AcDbCircle
 10
603.7012959183662
 20
894.612178708752
 30
0.0
 40
10.0
100
AcDbArc
 50
264.9432760139666
 51
299.874393743356
  0
ARC
  5
1C5
330
20
100
AcDbEntity
  8
SCHRAFF
100
AcDbCircle
 10
608.6305641135879
 20
875.2391443938709
 30
0.0
 40
10.0
100
AcDbArc
 50
102.4909773367637
 51
106.0598280043967
  0
ARC
  5
1C6
330
20
100
AcDbEntity
  8
SCHRAFF
100
AcDbCircle
 10
602.1503768355257
 20
904.4911791641869
 30
0.0
 40
10.0
100
AcDbArc
 50
261.3744253463218
 51
296.305543075711
  0
ARC
  5
1C7
330
20
100
AcDbEntity
  8
SCHRAFF
100
AcDbCircle
 10
605.8641546070134
 20
884.8488779199335
 30
0.0
 40
10.0
100
AcDbArc
 50
98.92212666911794
 51
102.4909773367524
  0
ARC
  5
1C8
330
20
100
AcDbEntity
  8
SCHRAFF
100
AcDbCircle
 10
603.7012959183662
 20
894.612178708752
 30
0.0
 40
10.0
100
AcDbArc
 50
95.35327600146468
 51
98.92212666911534
  0
ARC
  5
1C9
330
20
100
AcDbEntity
  8
SCHRAFF
100
AcDbCircle
 10
601.2174126988723
 20
914.4475629414282
 30
0.0
 40
10.0
100
AcDbArc
 50
257.8055746786768
 51
292.7366924080656
  0
ARC
  5
1CA
330
20
100
AcDbEntity
  8
SCHRAFF
100
AcDbCircle
 10
600.9060220703964
 20
924.4427135594278
 30
0.0
 40
10.0
100
AcDbArc
 50
254.2367240110313
 51
289.1678417404206
  0
ARC
  5
1CB
330
20
100
AcDbEntity
  8
SCHRAFF
100
AcDbCircle
 10
602.1503768355257
 20
904.4911791641869
 30
0.0
 40
10.0
100
AcDbArc
 50
91.7844253338198
 51
95.3532760014699
  0
ARC
  5
1CC
330
20
100
AcDbEntity
  8
SCHRAFF
100
AcDbCircle
 10
601.4248357435016
 20
944.434299734902
 30
0.0
 40
10.0
100
AcDbArc
 50
250.2769086331282
 51
285.1948746431418
  0
ARC
  5
1CD
330
20
100
AcDbEntity
  8
SCHRAFF
100
AcDbCircle
 10
601.0357473196681
 20
934.4418720920096
 30
0.0
 40
10.0
100
AcDbArc
 50
251.7634921863298
 51
286.681458196343
  0
ARC
  5
1CE
330
20
100
AcDbEntity
  8
SCHRAFF
100
AcDbCircle
 10
600.9060220703964
 20
924.4427135594278
 30
0.0
 40
10.0
100
AcDbArc
 50
87.77012467019842
 51
89.25670822339956
  0
ARC
  5
1CF
330
20
100
AcDbEntity
  8
SCHRAFF
100
AcDbCircle
 10
602.0730254287318
 20
954.4132701292845
 30
0.0
 40
10.0
100
AcDbArc
 50
248.790325079927
 51
283.7082910899407
  0
ARC
  5
1D0
330
20
100
AcDbEntity
  8
SCHRAFF
100
AcDbCircle
 10
601.0357473196681
 20
934.4418720920096
 30
0.0
 40
10.0
100
AcDbArc
 50
86.28354111701652
 51
87.77012467017884
  0
ARC
  5
1D1
330
20
100
AcDbEntity
  8
SCHRAFF
100
AcDbCircle
 10
604.1447891600455
 20
974.3039835523978
 30
0.0
 40
10.0
100
AcDbArc
 50
245.8171579735247
 51
280.7351239835382
  0
ARC
  5
1D2
330
20
100
AcDbEntity
  8
SCHRAFF
100
AcDbCircle
 10
602.9798800493158
 20
964.3720659750242
 30
0.0
 40
10.0
100
AcDbArc
 50
247.3037415267263
 51
282.2217075367398
  0
ARC
  5
1D3
330
20
100
AcDbEntity
  8
SCHRAFF
100
AcDbCircle
 10
602.0730254287318
 20
954.4132701292845
 30
0.0
 40
10.0
100
AcDbArc
 50
83.31037401057839
 51
84.79695756381291
  0
ARC
  5
1D4
330
20
100
AcDbEntity
  8
SCHRAFF
100
AcDbCircle
 10
601.4248357435016
 20
944.434299734902
 30
0.0
 40
10.0
100
AcDbArc
 50
84.79695756379522
 51
86.28354111699822
  0
ARC
  5
1D5
330
20
100
AcDbEntity
  8
SCHRAFF
100
AcDbCircle
 10
602.9798800493158
 20
964.3720659750242
 30
0.0
 40
10.0
100
AcDbArc
 50
81.82379045739473
 51
83.31037401059413
  0
LINE
  5
1D6
330
20
100
AcDbEntity
  8
STEMPEL
100
AcDbLine
 10
626.4465700169546
 20
837.5532832973249
 30
0.0
 11
626.4465700169548
 21
748.4832615059863
 31
0.0
  0
ARC
  5
1D7
330
20
100
AcDbEntity
  8
SCHRAFF
100
AcDbCircle
 10
620.4323546094112
 20
847.7002245447692
 30
0.0
 40
10.0
100
AcDbArc
 50
282.7875293521915
 51
317.7186470815808
  0
INSERT
  5
1D8
330
20
100
AcDbEntity
  8
SCHRAFF
100
AcDbBlockReference
  2
*X3
 10
-11.58944719319561
 20
37.68628551577445
 30
0.0
1001
ACAD
1000
HATCH
1002
{
1070
    16
1000
_U,I
1040
0.1
1040
0.0
1070
     0
1002
}
  0
ARC
  5
1D9
330
20
100
AcDbEntity
  8
SCHRAFF
100
AcDbCircle
 10
622.7916020147004
 20
839.0672206138983
 30
0.0
 40
5.808134054535517
100
AcDbArc
 50
308.9973446560862
 51
6.002655343914247
  0
ARC
  5
1DA
330
20
100
AcDbEntity
  8
SCHRAFF
100
AcDbCircle
 10
611.989794739167
 20
865.8202501061015
 30
0.0
 40
10.0
100
AcDbArc
 50
275.6498280169018
 51
310.5809457462909
  0
ARC
  5
1DB
330
20
100
AcDbEntity
  8
SCHRAFF
100
AcDbCircle
 10
615.928817489621
 20
856.6287268497852
 30
0.0
 40
10.0
100
AcDbArc
 50
279.2186786845466
 51
314.1497964139357
  0
ARC
  5
1DC
330
20
100
AcDbEntity
  8
SCHRAFF
100
AcDbCircle
 10
608.6305641135879
 20
875.2391443938709
 30
0.0
 40
10.0
100
AcDbArc
 50
272.0809773492566
 51
307.0120950786457
  0
ARC
  5
1DD
330
20
100
AcDbEntity
  8
SCHRAFF
100
AcDbCircle
 10
611.989794739167
 20
865.8202501061015
 30
0.0
 40
10.0
100
AcDbArc
 50
106.0598280043986
 51
109.6286786720516
  0
ARC
  5
1DE
330
20
100
AcDbEntity
  8
SCHRAFF
100
AcDbCircle
 10
615.928817489621
 20
856.6287268497852
 30
0.0
 40
10.0
100
AcDbArc
 50
109.628678672044
 51
113.1975293396964
  0
ARC
  5
1DF
330
20
100
AcDbEntity
  8
SCHRAFF
100
AcDbCircle
 10
609.17913664098
 20
1003.8717278591
 30
0.0
 40
10.0
100
AcDbArc
 50
241.3574073139215
 51
276.2753733239346
  0
ARC
  5
1E0
330
20
100
AcDbEntity
  8
SCHRAFF
100
AcDbCircle
 10
607.2454610577185
 20
994.0604639884922
 30
0.0
 40
10.0
100
AcDbArc
 50
242.8439908671231
 51
277.7619568771363
  0
ARC
  5
1E1
330
20
100
AcDbEntity
  8
SCHRAFF
100
AcDbCircle
 10
611.3666937120149
 20
1013.629524437271
 30
0.0
 40
10.0
100
AcDbArc
 50
239.8708237607204
 51
274.7887897707339
  0
ARC
  5
1E2
330
20
100
AcDbEntity
  8
SCHRAFF
100
AcDbCircle
 10
604.1447891600455
 20
974.3039835523978
 30
0.0
 40
10.0
100
AcDbArc
 50
80.33720690419206
 51
81.82379045739473
  0
LINE
  5
1E3
330
20
100
AcDbEntity
  8
STEMPEL
  6
Continuous
100
AcDbLine
 10
658.2183632007724
 20
1094.185032898465
 30
0.0
 11
626.4465700169546
 21
1062.413239714647
 31
0.0
  0
LINE
  5
1E4
330
20
100
AcDbEntity
  8
STEMPEL
100
AcDbLine
 10
626.4465700169548
 20
1163.483261505986
 30
0.0
 11
626.4465700169548
 21
1062.413239714647
 31
0.0
  0
ARC
  5
1E5
330
20
100
AcDbEntity
  8
SCHRAFF
100
AcDbCircle
 10
619.4370799730752
 20
1042.516632695846
 30
0.0
 40
10.0
100
AcDbArc
 50
235.4110731011169
 51
270.3290391111309
  0
ARC
  5
1E6
330
20
100
AcDbEntity
  8
SCHRAFF
100
AcDbCircle
 10
605.5669686074645
 20
984.2023372346693
 30
0.0
 40
10.0
100
AcDbArc
 50
78.8506233509906
 51
80.33720690419336
  0
ARC
  5
1E7
330
20
100
AcDbEntity
  8
SCHRAFF
100
AcDbCircle
 10
613.8066597263801
 20
1023.327285305056
 30
0.0
 40
10.0
100
AcDbArc
 50
238.3842402075193
 51
273.3022062175328
  0
ARC
  5
1E8
330
20
100
AcDbEntity
  8
SCHRAFF
100
AcDbCircle
 10
607.2454610577185
 20
994.0604639884922
 30
0.0
 40
10.0
100
AcDbArc
 50
77.36403979780135
 51
78.85062335098066
  0
ARC
  5
1E9
330
20
100
AcDbEntity
  8
SCHRAFF
100
AcDbCircle
 10
616.4973922316598
 20
1032.958482457281
 30
0.0
 40
10.0
100
AcDbArc
 50
236.8976566543187
 51
271.8156226643316
  0
ARC
  5
1EA
330
20
100
AcDbEntity
  8
SCHRAFF
100
AcDbCircle
 10
611.3666937120149
 20
1013.629524437271
 30
0.0
 40
10.0
100
AcDbArc
 50
74.39087269140134
 51
75.87745624457674
  0
ARC
  5
1EB
330
20
100
AcDbEntity
  8
SCHRAFF
100
AcDbCircle
 10
609.17913664098
 20
1003.8717278591
 30
0.0
 40
10.0
100
AcDbArc
 50
75.8774562446036
 51
77.36403979777669
  0
INSERT
  5
1EC
330
20
100
AcDbEntity
  8
SCHRAFF
100
AcDbBlockReference
  2
*X2
 10
-11.58944719319561
 20
37.68628551577445
 30
0.0
1001
ACAD
1000
HATCH
1002
{
1070
    16
1000
_U,I
1040
0.1
1040
0.0
1070
     0
1002
}
  0
ARC
  5
1ED
330
20
100
AcDbEntity
  8
SCHRAFF
100
AcDbCircle
 10
626.4465700169548
 20
1062.413239714647
 30
0.0
 40
3.0
100
AcDbArc
 50
44.99999999999846
 51
90.00000000000218
  0
ARC
  5
1EE
330
20
100
AcDbEntity
  8
SCHRAFF
100
AcDbCircle
 10
622.6237441127225
 20
1051.995301993859
 30
0.0
 40
10.0
100
AcDbArc
 50
233.9244895479163
 51
268.8424555579293
  0
ARC
  5
1EF
330
20
100
AcDbEntity
  8
SCHRAFF
100
AcDbCircle
 10
613.8066597263801
 20
1023.327285305056
 30
0.0
 40
10.0
100
AcDbArc
 50
72.90428913819726
 51
74.39087269137845
  0
ARC
  5
1F0
330
20
100
AcDbEntity
  8
SCHRAFF
100
AcDbCircle
 10
626.0552395616196
 20
1061.388109826674
 30
0.0
 40
10.0
100
AcDbArc
 50
232.4379059947146
 51
267.3558720047284
  0
ARC
  5
1F1
330
20
100
AcDbEntity
  8
SCHRAFF
100
AcDbCircle
 10
619.4370799730752
 20
1042.516632695846
 30
0.0
 40
10.0
100
AcDbArc
 50
69.93112203177938
 51
71.41770558499167
  0
ARC
  5
1F2
330
20
100
AcDbEntity
  8
SCHRAFF
100
AcDbCircle
 10
616.4973922316598
 20
1032.958482457281
 30
0.0
 40
10.0
100
AcDbArc
 50
71.41770558498077
 51
72.90428913819251
  0
LINE
  5
1F3
330
20
100
AcDbEntity
  8
STEMPEL
  6
Continuous
100
AcDbLine
 10
676.6227602502033
 20
1119.660497759761
 30
0.0
 11
665.974419085476
 21
1109.012156595034
 31
0.0
  0
ARC
  5
1F4
330
20
100
AcDbEntity
  8
STEMPEL
  6
Continuous
100
AcDbCircle
 10
651.1472953889072
 20
1101.25610071033
 30
0.0
 40
10.0
100
AcDbArc
 50
315.0
 51
349.7719440319485
  0
ARC
  5
1F5
330
20
100
AcDbEntity
  8
STEMPEL
  6
Continuous
100
AcDbCircle
 10
678.7023411468338
 20
1096.284234533676
 30
0.0
 40
18.0
100
AcDbArc
 50
135.0
 51
169.7719440319486
  0
ARC
  5
1F6
330
20
100
AcDbEntity
  8
STEMPEL
  6
Continuous
100
AcDbCircle
 10
663.8948381888451
 20
1132.388419821118
 30
0.0
 40
18.0
100
AcDbArc
 50
315.0
 51
342.527183620552
  0
ARC
  5
224
330
20
100
AcDbEntity
  8
STEMPEL
  6
Continuous
100
AcDbCircle
 10
777.7194092212992
 20
974.6839868779384
 30
0.0
 40
10.0
100
AcDbArc
 50
100.2280559680515
 51
135.0
  0
LINE
  5
225
330
20
100
AcDbEntity
  8
STEMPEL
  6
Continuous
100
AcDbLine
 10
837.6723010389515
 20
1038.514023245093
 30
0.0
 11
714.9773317560618
 21
1161.208992527982
 31
0.0
  0
LINE
  5
226
330
20
100
AcDbEntity
  8
STEMPEL
  6
Continuous
100
AcDbLine
 10
701.171312679449
 20
1152.694331563245
 30
0.0
 11
689.7414334285634
 21
1141.26445231236
 31
0.0
  0
ARC
  5
227
330
20
100
AcDbEntity
  8
STEMPEL
  6
Continuous
100
AcDbCircle
 10
725.9200500209781
 20
1127.945594221716
 30
0.0
 40
35.0
100
AcDbArc
 50
110.0000000000069
 51
135.0
  0
LINE
  5
228
330
20
100
AcDbEntity
  8
STEMPEL
  6
Continuous
100
AcDbLine
 10
714.9773317560618
 20
1161.208992527982
 30
0.0
 11
713.9493450045795
 21
1160.834835949223
 31
0.0
  0
ARC
  5
229
330
20
100
AcDbEntity
  8
STEMPEL
  6
Continuous
100
AcDbCircle
 10
792.9382902214842
 20
1037.986128998809
 30
0.0
 40
35.00004740563918
100
AcDbArc
 50
287.472816379448
 51
315.094301449091
  0
LINE
  5
22A
330
20
100
AcDbEntity
  8
STEMPEL
  6
Continuous
100
AcDbLine
 10
796.1238062707297
 20
1000.159451739234
 30
0.0
 11
785.4754651060025
 21
989.5111105745073
 31
0.0
  0
ARC
  5
22B
330
20
100
AcDbEntity
  8
STEMPEL
  6
Continuous
100
AcDbCircle
 10
772.7475430446445
 20
1002.239032635865
 30
0.0
 40
18.0
100
AcDbArc
 50
280.2280559680514
 51
315.0
  0
ARC
  5
22C
330
20
100
AcDbEntity
  8
STEMPEL
  6
Continuous
100
AcDbCircle
 10
808.8517283320875
 20
987.4315296778766
 30
0.0
 40
18.0
100
AcDbArc
 50
107.472816379448
 51
135.0
  0
ARC
  5
22D
330
20
100
AcDbEntity
  8
STEMPEL
  6
Continuous
100
AcDbCircle
 10
804.4089027326847
 20
1049.456741510009
 30
0.0
 40
35.0
100
AcDbArc
 50
315.0
 51
339.9999999999899
  0
LINE
  5
22E
330
20
100
AcDbEntity
  8
STEMPEL
  6
Continuous
100
AcDbLine
 10
829.1576400742142
 20
1024.70800416848
 30
0.0
 11
817.7277608233284
 21
1013.278124917595
 31
0.0
  0
LINE
  5
22F
330
20
100
AcDbEntity
  8
STEMPEL
100
AcDbLine
 10
837.6723010389515
 20
1038.514023245093
 30
0.0
 11
837.2981444601915
 21
1037.486036493611
 31
0.0
  0
LINE
  5
231
330
20
100
AcDbEntity
  8
MITTEL
100
AcDbLine
 10
626.4465700169548
 20
959.9832615059863
 30
0.0
 11
626.4465700169548
 21
939.9832615059862
 31
0.0
  0
POINT
  5
238
330
20
100
AcDbEntity
  8
BEM
100
AcDbPoint
 10
626.4465700169548
 20
1163.483261505986
 30
0.0
  0
POINT
  5
239
330
20
100
AcDbEntity
  8
BEM
100
AcDbPoint
 10
837.6723010389515
 20
1038.514023245093
 30
0.0
  0
LINE
  5
23C
330
20
100
AcDbEntity
  8
MITTEL
100
AcDbLine
 10
679.1604233293128
 20
1002.697114818344
 30
0.0
 11
582.6957817353036
 21
906.232473224335
 31
0.0
  0
TEXT
  5
23D
330
20
100
AcDbEntity
  8
TEXT
 62
     1
100
AcDbText
 10
477.3569833527845
 20
966.9171052679827
 30
0.0
 40
17.5
  1
DN250
 50
90.0
 41
0.8
  7
GREEKS
100
AcDbText
  0
TEXT
  5
23E
330
20
100
AcDbEntity
  8
TEXT
 62
     1
100
AcDbText
 10
652.2588442407464
 20
1005.095545073672
 30
0.0
 40
17.5
  1
DN150
 50
45.0
 41
0.8
  7
GREEKS
100
AcDbText
  0
LINE
  5
290
330
20
100
AcDbEntity
  8
STEMPEL
100
AcDbLine
 10
1025.0
 20
275.0000000000001
 30
0.0
 11
100.0
 21
275.0
 31
0.0
  0
LINE
  5
291
330
20
100
AcDbEntity
  8
STEMPEL
100
AcDbLine
 10
340.0000000000002
 20
274.9999999999999
 30
0.0
 11
340.0
 21
24.99999999999995
 31
0.0
  0
LINE
  5
292
330
20
100
AcDbEntity
  8
STEMPEL
100
AcDbLine
 10
550.0
 20
275.0000000000001
 30
0.0
 11
550.0
 21
24.99999999999995
 31
0.0
  0
LINE
  5
293
330
20
100
AcDbEntity
  8
STEMPEL
100
AcDbLine
 10
830.0
 20
274.9999999999994
 30
0.0
 11
830.0
 21
100.0
 31
0.0
  0
LINE
  5
294
330
20
100
AcDbEntity
  8
STEMPEL
100
AcDbLine
 10
339.9999999999998
 20
74.99999999999989
 30
0.0
 11
100.0
 21
74.99999999999989
 31
0.0
  0
LINE
  5
295
330
20
100
AcDbEntity
  8
STEMPEL
100
AcDbLine
 10
1025.0
 20
100.0
 30
0.0
 11
340.0000000000002
 21
99.99999999999989
 31
0.0
  0
LINE
  5
296
330
20
100
AcDbEntity
  8
STEMPEL
100
AcDbLine
 10
1025.0
 20
200.0
 30
0.0
 11
340.0000000000002
 21
199.9999999999999
 31
0.0
  0
LINE
  5
297
330
20
100
AcDbEntity
  8
VOLL
100
AcDbLine
 10
135.0000000000002
 20
275.0000000000001
 30
0.0
 11
135.0
 21
24.99999999999995
 31
0.0
  0
LINE
  5
298
330
20
100
AcDbEntity
  8
VOLL
100
AcDbLine
 10
235.0000000000002
 20
274.9999999999999
 30
0.0
 11
235.0
 21
24.99999999999995
 31
0.0
  0
LINE
  5
299
330
20
100
AcDbEntity
  8
VOLL
100
AcDbLine
 10
285.0000000000002
 20
274.9999999999999
 30
0.0
 11
285.0
 21
24.99999999999995
 31
0.0
  0
LINE
  5
29A
330
20
100
AcDbEntity
  8
VOLL
100
AcDbLine
 10
385.0000000000002
 20
199.9999999999999
 30
0.0
 11
385.0000000000002
 21
99.99999999999989
 31
0.0
  0
LINE
  5
29B
330
20
100
AcDbEntity
  8
VOLL
100
AcDbLine
 10
450.0000000000002
 20
274.9999999999996
 30
0.0
 11
450.0
 21
99.99999999999989
 31
0.0
  0
LINE
  5
29C
330
20
100
AcDbEntity
  8
HILF
100
AcDbLine
 10
100.0000000000002
 20
250.0000000000001
 30
0.0
 11
340.0000000000002
 21
250.0000000000001
 31
0.0
  0
LINE
  5
29D
330
20
100
AcDbEntity
  8
HILF
100
AcDbLine
 10
100.0000000000002
 20
225.0000000000001
 30
0.0
 11
340.0000000000002
 21
225.0000000000001
 31
0.0
  0
LINE
  5
29E
330
20
100
AcDbEntity
  8
HILF
100
AcDbLine
 10
100.0000000000002
 20
199.9999999999999
 30
0.0
 11
340.0000000000002
 21
199.9999999999999
 31
0.0
  0
LINE
  5
29F
330
20
100
AcDbEntity
  8
HILF
100
AcDbLine
 10
100.0000000000002
 20
174.9999999999999
 30
0.0
 11
340.0000000000002
 21
174.9999999999999
 31
0.0
  0
LINE
  5
2A0
330
20
100
AcDbEntity
  8
HILF
100
AcDbLine
 10
100.0000000000002
 20
150.0
 30
0.0
 11
340.0000000000002
 21
150.0
 31
0.0
  0
LINE
  5
2A1
330
20
100
AcDbEntity
  8
HILF
100
AcDbLine
 10
100.0000000000002
 20
125.0
 30
0.0
 11
340.0000000000002
 21
125.0
 31
0.0
  0
LINE
  5
2A2
330
20
100
AcDbEntity
  8
HILF
100
AcDbLine
 10
100.0000000000002
 20
99.99999999999989
 30
0.0
 11
340.0000000000002
 21
99.99999999999989
 31
0.0
  0
LINE
  5
2A3
330
20
100
AcDbEntity
  8
HILF
100
AcDbLine
 10
340.0000000000002
 20
174.9999999999999
 30
0.0
 11
550.0
 21
174.9999999999999
 31
0.0
  0
LINE
  5
2A4
330
20
100
AcDbEntity
  8
HILF
100
AcDbLine
 10
340.0000000000002
 20
150.0
 30
0.0
 11
550.0
 21
150.0
 31
0.0
  0
LINE
  5
2A5
330
20
100
AcDbEntity
  8
HILF
100
AcDbLine
 10
340.0000000000002
 20
125.0
 30
0.0
 11
550.0
 21
125.0
 31
0.0
  0
LINE
  5
2A6
330
20
100
AcDbEntity
  8
HILF
100
AcDbLine
 10
561.9342002742369
 20
210.0939561891034
 30
0.0
 11
812.0884791390777
 21
210.0939561891034
 31
0.0
  0
LINE
  5
2A7
330
20
100
AcDbEntity
  8
HILF
100
AcDbLine
 10
561.9342002742369
 20
174.9999999999999
 30
0.0
 11
812.0884791390775
 21
174.9999999999999
 31
0.0
  0
LINE
  5
2A8
330
20
100
AcDbEntity
  8
HILF
100
AcDbLine
 10
561.9342002742369
 20
150.0
 30
0.0
 11
812.0884791390775
 21
150.0
 31
0.0
  0
LINE
  5
2A9
330
20
100
AcDbEntity
  8
HILF
100
AcDbLine
 10
561.9342002742369
 20
125.0
 30
0.0
 11
812.0884791390775
 21
125.0
 31
0.0
  0
LINE
  5
2AA
330
20
100
AcDbEntity
  8
VOLL
100
AcDbLine
 10
830.0
 20
150.0
 30
0.0
 11
1025.0
 21
150.0
 31
0.0
  0
LINE
  5
2AB
330
20
100
AcDbEntity
  8
HILF
100
AcDbLine
 10
841.809654074248
 20
209.4495909238957
 30
0.0
 11
1012.147209831682
 21
209.4495909238957
 31
0.0
  0
LINE
  5
2AC
330
20
100
AcDbEntity
  8
HILF
100
AcDbLine
 10
558.7274248224712
 20
37.23495645070784
 30
0.0
 11
1012.147209831682
 21
37.23495645070784
 31
0.0
  0
TEXT
  5
2AD
330
20
100
AcDbEntity
  8
TEXT
100
AcDbText
 10
159.6541494907954
 20
46.68454737460331
 30
0.0
 40
10.0
  1
Änderung
 41
0.8
  7
GREEKS
 72
     1
 11
186.5112923479382
 21
46.68454737460331
 31
0.0
100
AcDbText
  0
TEXT
  5
2AE
330
20
100
AcDbEntity
  8
TEXT
100
AcDbText
 10
358.7908930375943
 20
256.1552237717722
 30
0.0
 40
12.5
  1
Maßstab
 41
0.8
  7
GREEKS
100
AcDbText
  0
TEXT
  5
2AF
330
20
100
AcDbEntity
  8
TEXT
100
AcDbText
 10
460.7147386835129
 20
256.0460421087048
 30
0.0
 40
12.5
  1
Zul. Abw.
 41
0.8
  7
GREEKS
100
AcDbText
  0
TEXT
  5
2B0
330
20
100
AcDbEntity
  8
TEXT
100
AcDbText
 10
562.1948509522526
 20
256.3723320029449
 30
0.0
 40
12.5
  1
Benennung
 41
0.8
  7
GREEKS
100
AcDbText
  0
TEXT
  5
2B1
330
20
100
AcDbEntity
  8
TEXT
100
AcDbText
 10
840.4468873940849
 20
255.7830086342841
 30
0.0
 40
12.5
  1
Zeichnungs Nr.
 41
0.8
  7
GREEKS
100
AcDbText
  0
TEXT
  5
2B2
330
20
100
AcDbEntity
  8
TEXT
100
AcDbText
 10
561.85559597784
 20
77.11401425482643
 30
0.0
 40
12.5
  1
Bauvorhaben
 41
0.8
  7
GREEKS
100
AcDbText
  0
TEXT
  5
2B3
330
20
100
AcDbEntity
  8
TEXT
100
AcDbText
 10
841.809654074248
 20
182.9529559274993
 30
0.0
 40
12.5
  1
Ersatz für:
 41
0.8
  7
GREEKS
100
AcDbText
  0
TEXT
  5
2B4
330
20
100
AcDbEntity
  8
TEXT
100
AcDbText
 10
120.6660276761438
 20
34.13664615067978
 30
0.0
 40
10.0
  1
Index
 50
90.0
 41
0.8
  7
GREEKS
100
AcDbText
  0
TEXT
  5
2B5
330
20
100
AcDbEntity
  8
TEXT
100
AcDbText
 10
250.2336690188703
 20
46.67890673349529
 30
0.0
 40
10.0
  1
Tag
 41
0.8
  7
GREEKS
 72
     1
 11
259.5670023522036
 21
46.67890673349529
 31
0.0
100
AcDbText
  0
TEXT
  5
2B6
330
20
100
AcDbEntity
  8
TEXT
100
AcDbText
 10
297.5306860966483
 20
46.48310542416015
 30
0.0
 40
10.0
  1
Name
 41
0.8
  7
GREEKS
 72
     1
 11
313.340209906172
 21
46.48310542416015
 31
0.0
100
AcDbText
  0
TEXT
  5
2B7
330
20
100
AcDbEntity
  8
TEXT
100
AcDbText
 10
405.8279182884125
 20
183.2970125307481
 30
0.0
 40
10.0
  1
Tag
 41
0.8
  7
GREEKS
100
AcDbText
  0
TEXT
  5
2B8
330
20
100
AcDbEntity
  8
TEXT
100
AcDbText
 10
481.1566460565736
 20
183.2740272978806
 30
0.0
 40
10.0
  1
Name
 41
0.8
  7
GREEKS
100
AcDbText
  0
TEXT
  5
2B9
330
20
100
AcDbEntity
  8
TEXT
100
AcDbText
 10
343.9590317919037
 20
159.0747592404491
 30
0.0
 40
10.0
  1
Gez.
 41
0.8
  7
GREEKS
100
AcDbText
  0
TEXT
  5
2BA
330
20
100
AcDbEntity
  8
TEXT
100
AcDbText
 10
343.8787716429181
 20
134.2231572857095
 30
0.0
 40
10.0
  1
Gepr.
 41
0.8
  7
GREEKS
100
AcDbText
  0
TEXT
  5
2BB
330
20
100
AcDbEntity
  8
TEXT
100
AcDbText
 10
344.0016943468259
 20
108.8236597412451
 30
0.0
 40
10.0
  1
Norm.
 41
0.8
  7
GREEKS
100
AcDbText
  0
LINE
  5
2BC
330
20
100
AcDbEntity
  8
STEMPEL
100
AcDbLine
 10
124.9999999999998
 20
25.0
 30
0.0
 11
1025.0
 21
25.0
 31
0.0
  0
TEXT
  5
2BD
330
20
100
AcDbEntity
  8
TEXT
100
AcDbText
 10
843.1002153742515
 20
130.1854044469651
 30
0.0
 40
12.5
  1
ersetzt durch:
 41
0.8
  7
GREEKS
100
AcDbText
  0
LINE
  5
2BE
330
20
100
AcDbEntity
  8
STEMPEL
100
AcDbLine
 10
1025.0
 20
25.0
 30
0.0
 11
99.99999999999978
 21
25.0
 31
0.0
  0
LINE
  5
2BF
330
20
100
AcDbEntity
  8
STEMPEL
100
AcDbLine
 10
1025.0
 20
25.0
 30
0.0
 11
1025.0
 21
1460.0
 31
0.0
  0
LINE
  5
2C0
330
20
100
AcDbEntity
  8
STEMPEL
100
AcDbLine
 10
100.0
 20
25.0
 30
0.0
 11
99.99999999999978
 21
1460.0
 31
0.0
  0
LINE
  5
2C1
330
20
100
AcDbEntity
  8
STEMPEL
100
AcDbLine
 10
1025.0
 20
1460.0
 30
0.0
 11
99.99999999999978
 21
1460.0
 31
0.0
  0
LINE
  5
2C2
330
20
100
AcDbEntity
  8
HILF
100
AcDbLine
 10
0.0
 20
0.0
 30
0.0
 11
-0.0000000000002274
 21
1485.0
 31
0.0
  0
LINE
  5
2C3
330
20
100
AcDbEntity
  8
HILF
100
AcDbLine
 10
1050.0
 20
1485.0
 30
0.0
 11
0.0
 21
1485.0
 31
0.0
  0
LINE
  5
2C4
330
20
100
AcDbEntity
  8
HILF
100
AcDbLine
 10
1050.0
 20
0.0
 30
0.0
 11
0.0
 21
0.0
 31
0.0
  0
LINE
  5
2C5
330
20
100
AcDbEntity
  8
HILF
100
AcDbLine
 10
77.71917839284651
 20
742.4999999999999
 30
0.0
 11
0.0000000000002274
 21
742.4999999999999
 31
0.0
  0
TEXT
  5
2C6
330
20
100
AcDbEntity
  8
TEXT
100
AcDbText
 10
346.55527455526
 20
182.8506367787916
 30
0.0
 40
10.0
  1
2011
 41
0.8
  7
GREEKS
100
AcDbText
  0
LINE
  5
2C7
330
20
100
AcDbEntity
  8
HILF
100
AcDbLine
 10
1050.0
 20
-0.0000000000002842
 30
0.0
 11
1050.0
 21
1485.0
 31
0.0
  0
TEXT
  5
2C8
330
20
100
AcDbEntity
  8
VOLL
100
AcDbText
 10
1611.29552925768
 20
159.7295677493015
 30
0.0
 40
9.0
  1

  7
GREEKS
100
AcDbText
  0
TEXT
  5
2C9
330
20
100
AcDbEntity
  8
TEXT
100
AcDbText
 10
104.6377487744419
 20
279.1799999999998
 30
0.0
 40
12.5
  1
Erstellt mit AUTOCAD 2004
 41
0.8
  7
GREEKS
100
AcDbText
  0
TEXT
  5
2CA
330
20
100
AcDbEntity
  8
TEXT
100
AcDbText
 10
486.0540121453142
 20
157.7240979930877
 30
0.0
 40
10.0
  1
Koeh
 41
0.8
  7
GREEKS
 72
     1
 11
499.1968692881714
 21
157.7240979930877
 31
0.0
100
AcDbText
  0
TEXT
  5
2CB
330
20
100
AcDbEntity
  8
TEXT
 62
     1
100
AcDbText
 10
866.988251506984
 20
220.372535722849
 30
0.0
 40
17.5
  1
02260HF0W
 41
0.8
  7
GREEKS
 72
     1
 11
926.988251506984
 21
220.372535722849
 31
0.0
100
AcDbText
  0
TEXT
  5
2CC
330
20
100
AcDbEntity
  8
TEXT
 62
     1
100
AcDbText
 10
376.2515766204717
 20
220.372535722849
 30
0.0
 40
17.5
  1
1:5
 41
0.8
  7
GREEKS
100
AcDbText
  0
TEXT
  5
2CD
330
20
100
AcDbEntity
  8
TEXT
100
AcDbText
 10
400.9974927705902
 20
157.7691260206433
 30
0.0
 40
10.0
  1
05.04.
 41
0.8
  7
GREEKS
 72
     1
 11
418.5213022943996
 21
157.7691260206433
 31
0.0
100
AcDbText
  0
TEXT
  5
2CE
330
20
100
AcDbEntity
  8
TEXT
 62
     1
100
AcDbText
 10
561.9125620588865
 20
218.5437197313445
 30
0.0
 40
17.5
  1
Abzweig 45° DN250/150
 41
0.7800000000000001
  7
GREEKS
100
AcDbText
  0
TEXT
  5
2CF
330
20
100
AcDbEntity
  8
TEXT
100
AcDbText
 10
562.8240977813288
 20
178.7583604396322
 30
0.0
 40
12.5
  1
Muffe / Muffenlos
 41
0.8
  7
GREEKS
100
AcDbText
  0
TEXT
  5
2D1
330
20
100
AcDbEntity
  8
TEXT
100
AcDbText
 10
562.8240977813288
 20
129.100298576054
 30
0.0
 40
12.5
  1
EDV-Art.Nr. 02260.HF0X
 41
0.8
  7
GREEKS
100
AcDbText
  0
TEXT
  5
2D2
330
20
100
AcDbEntity
  8
TEXT
100
AcDbText
 10
562.4593753944568
 20
106.5743538255658
 30
0.0
 40
10.0
  1
02260HF0W.DWG
 41
0.8
  7
GREEKS
100
AcDbText
  0
TEXT
  5
2D3
330
20
100
AcDbEntity
  8
TEXT
100
AcDbText
 10
456.5653305202101
 20
226.9090960255756
 30
0.0
 40
10.0
  1
DIN EN1123-2
 41
0.8
  7
GREEKS
 72
     1
 11
499.0415209964005
 21
226.9090960255756
 31
0.0
100
AcDbText
  0
INSERT
  5
2D4
330
20
100
AcDbEntity
  8
STEMPEL
100
AcDbBlockReference
  2
LOGO
 10
352.4888713644486
 20
112.5526319112081
 30
0.0
 41
5.0
 42
5.0
 43
5.0
  0
TEXT
  5
2D5
330
20
100
AcDbEntity
  8
BEM
100
AcDbText
 10
1043.255730964292
 20
25.41975269997124
 30
0.0
 40
10.0
  1
Diese Zeichnung ist urheberrechtlich geschützt und bleibt unser Eigentum. Sie darf weder ganz noch teilweise verfielfältigt und nicht an Dritte weitergegeben werden.
 50
90.0
 41
0.8
  7
GREEKS
100
AcDbText
  0
TEXT
  5
3C8
330
20
100
AcDbEntity
  8
TEXT
 62
     1
100
AcDbText
 10
926.988251506984
 20
156.5638126016114
 30
0.0
 40
17.5
  1

 41
0.8
  7
GREEKS
 72
     1
 11
926.988251506984
 21
156.5638126016114
 31
0.0
100
AcDbText
  0
DIMENSION
  5
45B
102
{ACAD_XDICTIONARY
360
46A
102
}
102
{ACAD_REACTORS
330
476
102
}
330
20
100
AcDbEntity
  8
BEM
100
AcDbDimension
  2
*D14
 10
489.9465700169546
 20
738.4832615059863
 30
0.0
 11
668.9636121238776
 21
1245.668632456435
 31
0.0
 70
    34
 71
     5
 42
0.785398163397447
  3
Standard
100
AcDb2LineAngularDimension
 13
783.3958842093718
 23
1106.932575698403
 33
0.0
 14
696.3544752594257
 24
1019.891166748457
 34
0.0
 15
489.9465700169546
 25
1173.483261505986
 35
0.0
 16
715.7186073155751
 26
1204.531901035533
 36
0.0
1001
ACAD
1000
DSTYLE
1002
{
1070
    40
1040
5.0
1070
    41
1040
3.5
1070
    42
1040
1.0
1070
    43
1040
7.0
1070
    44
1040
1.0
1070
    47
1040
3.0
1070
    48
1040
3.0
1070
    73
1070
     0
1070
    74
1070
     0
1070
    77
1070
     1
1070
    78
1070
     8
1070
    79
1070
     2
1070
   140
1040
3.5
1070
   141
1040
1.5
1070
   146
1040
0.5
1070
   147
1040
1.5
1070
   172
1070
     1
1070
   178
1070
     1
1070
   179
1070
     2
1070
   271
1070
     2
1070
   272
1070
     2
1070
   284
1070
     8
1070
   285
1070
     8
1070
   286
1070
     8
1070
   340
1005
35
1002
}
  0
ENDSEC
  0
SECTION
  2
OBJECTS
  0
DICTIONARY
  5
C
330
0
100
AcDbDictionary
281
     1
  3
ACAD_COLOR
350
1B
  3
ACAD_GROUP
350
D
  3
ACAD_LAYOUT
350
19
  3
ACAD_MATERIAL
350
1A
  3
ACAD_MLINESTYLE
350
16
  3
ACAD_PLOTSETTINGS
350
18
  3
ACAD_PLOTSTYLENAME
350
E
  3
AcDbVariableDictionary
350
4EF
  0
DICTIONARY
  5
46A
330
45B
100
AcDbDictionary
280
     1
281
     1
  3
ACAD_DIMASSOC
360
476
  0
DICTIONARY
  5
1B
102
{ACAD_REACTORS
330
C
102
}
330
C
100
AcDbDictionary
281
     1
  0
DICTIONARY
  5
D
102
{ACAD_REACTORS
330
C
102
}
330
C
100
AcDbDictionary
281
     1
  0
DICTIONARY
  5
19
102
{ACAD_REACTORS
330
C
102
}
330
C
100
AcDbDictionary
281
     1
  3
Layout1
350
1F
  3
Model
350
23
  0
DICTIONARY
  5
1A
102
{ACAD_REACTORS
330
C
102
}
330
C
100
AcDbDictionary
281
     1
  0
DICTIONARY
  5
16
102
{ACAD_REACTORS
330
C
102
}
330
C
100
AcDbDictionary
281
     1
  3
Standard
350
17
  0
DICTIONARY
  5
18
102
{ACAD_REACTORS
330
C
102
}
330
C
100
AcDbDictionary
281
     1
  0
ACDBDICTIONARYWDFLT
  5
E
102
{ACAD_REACTORS
330
C
102
}
330
C
100
AcDbDictionary
281
     1
  3
Normal
350
F
100
AcDbDictionaryWithDefault
340
F
  0
DICTIONARY
  5
4EF
102
{ACAD_REACTORS
330
C
102
}
330
C
100
AcDbDictionary
281
     1
  3
DIMASSOC
350
4F1
  3
HIDETEXT
350
4F0
  3
PROJECTNAME
350
4F2
  0
DIMASSOC
  5
476
102
{ACAD_REACTORS
330
46A
102
}
330
46A
100
AcDbDimAssoc
330
45B
 90
       15
 70
     0
 71
     0
  1
AcDbOsnapPointRef
 72
    13
331
1BB
 73
     2
 91
        0
 40
0.0
 10
0.0
 20
0.0
 30
2.000000000000000E+50
 75
     0
  1
AcDbOsnapPointRef
 72
     1
331
1BB
 73
     2
 91
        0
 40
1.0
 10
0.0
 20
0.0
 30
2.000000000000000E+50
 75
     0
  1
AcDbOsnapPointRef
 72
    13
331
1A1
 73
     2
 91
        0
 40
0.0
 10
0.0
 20
0.0
 30
2.000000000000000E+50
 75
     0
  1
AcDbOsnapPointRef
 72
     1
331
1A1
 73
     2
 91
        0
 40
1.0
 10
0.0
 20
0.0
 30
2.000000000000000E+50
 75
     0
  0
LAYOUT
  5
1F
102
{ACAD_REACTORS
330
19
102
}
330
19
100
AcDbPlotSettings
  1

  2
RICOH Aficio 2027 PCL 6
  4

  6

 40
0.0
 41
0.0
 42
0.0
 43
0.0
 44
0.0
 45
0.0
 46
0.0
 47
0.0
 48
0.0
 49
0.0
140
0.0
141
0.0
142
1.0
143
1.0
 70
   688
 72
     0
 73
     0
 74
     5
  7
monochrome1.ctb
 75
    16
147
1.0
 76
     0
 77
     2
 78
   300
148
0.0
149
0.0
100
AcDbLayout
  1
Layout1
 70
     0
 71
     1
 10
0.0
 20
0.0
 11
12.0
 21
9.0
 12
0.0
 22
0.0
 32
0.0
 14
1.000000000000000E+20
 24
1.000000000000000E+20
 34
1.000000000000000E+20
 15
-1.000000000000000E+20
 25
-1.000000000000000E+20
 35
-1.000000000000000E+20
146
0.0
 13
0.0
 23
0.0
 33
0.0
 16
1.0
 26
0.0
 36
0.0
 17
0.0
 27
1.0
 37
0.0
 76
     0
330
1C
  0
LAYOUT
  5
23
102
{ACAD_REACTORS
330
19
102
}
330
19
100
AcDbPlotSettings
  1

  2
RICOH Aficio 2027 PCL 6
  4
A4
  6

 40
5.027083396911621
 41
5.027085304260253
 42
5.027084350585937
 43
5.027069091796875
 44
209.9733276367187
 45
296.9259948730469
 46
0.0
 47
0.0
 48
0.0
 49
0.0
140
0.0
141
0.0
142
1.0
143
1.0
 70
 11952
 72
     0
 73
     1
 74
     0
  7
monochrome1.ctb
 75
     0
147
1.0
 76
     0
 77
     2
 78
   300
148
5768.56296816089
149
244.0629167083776
100
AcDbLayout
  1
Model
 70
     1
 71
     0
 10
0.0
 20
0.0
 11
12.0
 21
9.0
 12
0.0
 22
0.0
 32
0.0
 14
0.0
 24
0.0
 34
0.0
 15
0.0
 25
0.0
 35
0.0
146
0.0
 13
0.0
 23
0.0
 33
0.0
 16
1.0
 26
0.0
 36
0.0
 17
0.0
 27
1.0
 37
0.0
 76
     0
330
20
  0
MLINESTYLE
  5
17
102
{ACAD_REACTORS
330
16
102
}
330
16
100
AcDbMlineStyle
  2
STANDARD
 70
     0
  3

 62
   256
 51
90.0
 52
90.0
 71
     2
 49
0.5
 62
   256
  6
BYLAYER
 49
-0.5
 62
   256
  6
BYLAYER
  0
ACDBPLACEHOLDER
  5
F
102
{ACAD_REACTORS
330
E
102
}
330
E
  0
DICTIONARYVAR
  5
4F1
102
{ACAD_REACTORS
330
4EF
102
}
330
4EF
100
DictionaryVariables
280
     0
  1
2
  0
DICTIONARYVAR
  5
4F0
102
{ACAD_REACTORS
330
4EF
102
}
330
4EF
100
DictionaryVariables
280
     0
  1
1
  0
DICTIONARYVAR
  5
4F2
102
{ACAD_REACTORS
330
4EF
102
}
330
4EF
100
DictionaryVariables
280
     0
  1

  0
ENDSEC
  0
EOF
