  0
SECTION
  2
HEADER
  9
$ACADVER
  1
AC1018
  9
$ACADMAINTVER
 70
     2
  9
$DWGCODEPAGE
  3
ANSI_1252
  9
$INSBASE
 10
0.0
 20
0.0
 30
0.0
  9
$EXTMIN
 10
-0.080096417720597
 20
-0.1132792193470777
 30
-0.000000000000013
  9
$EXTMAX
 10
1050.000004890039
 20
1485.000006915915
 30
0.0000000000000023
  9
$LIMMIN
 10
0.0
 20
0.0
  9
$LIMMAX
 10
1050.0
 20
1485.0
  9
$ORTHOMODE
 70
     0
  9
$REGENMODE
 70
     1
  9
$FILLMODE
 70
     1
  9
$QTEXTMODE
 70
     0
  9
$MIRRTEXT
 70
     1
  9
$LTSCALE
 40
50.0
  9
$ATTMODE
 70
     1
  9
$TEXTSIZE
 40
2.5
  9
$TRACEWID
 40
0.5
  9
$TEXTSTYLE
  7
GREEKS
  9
$CLAYER
  8
BEM
  9
$CELTYPE
  6
ByLayer
  9
$CECOLOR
 62
   256
  9
$CELTSCALE
 40
1.0
  9
$DISPSILH
 70
     0
  9
$DIMSCALE
 40
5.0
  9
$DIMASZ
 40
3.5
  9
$DIMEXO
 40
1.0
  9
$DIMDLI
 40
7.0
  9
$DIMRND
 40
0.0
  9
$DIMDLE
 40
0.0
  9
$DIMEXE
 40
1.0
  9
$DIMTP
 40
3.0
  9
$DIMTM
 40
3.0
  9
$DIMTXT
 40
3.5
  9
$DIMCEN
 40
1.5
  9
$DIMTSZ
 40
0.0
  9
$DIMTOL
 70
     0
  9
$DIMLIM
 70
     0
  9
$DIMTIH
 70
     0
  9
$DIMTOH
 70
     0
  9
$DIMSE1
 70
     0
  9
$DIMSE2
 70
     0
  9
$DIMTAD
 70
     1
  9
$DIMZIN
 70
     8
  9
$DIMBLK
  1

  9
$DIMASO
 70
     1
  9
$DIMSHO
 70
     0
  9
$DIMPOST
  1

  9
$DIMAPOST
  1

  9
$DIMALT
 70
     0
  9
$DIMALTD
 70
     2
  9
$DIMALTF
 40
25.4
  9
$DIMLFAC
 40
1.0
  9
$DIMTOFL
 70
     1
  9
$DIMTVP
 40
0.0
  9
$DIMTIX
 70
     0
  9
$DIMSOXD
 70
     0
  9
$DIMSAH
 70
     0
  9
$DIMBLK1
  1

  9
$DIMBLK2
  1

  9
$DIMSTYLE
  2
Standard
  9
$DIMCLRD
 70
     0
  9
$DIMCLRE
 70
     0
  9
$DIMCLRT
 70
     1
  9
$DIMTFAC
 40
0.5
  9
$DIMGAP
 40
1.5
  9
$DIMJUST
 70
     0
  9
$DIMSD1
 70
     0
  9
$DIMSD2
 70
     0
  9
$DIMTOLJ
 70
     1
  9
$DIMTZIN
 70
     8
  9
$DIMALTZ
 70
     8
  9
$DIMALTTZ
 70
     8
  9
$DIMUPT
 70
     0
  9
$DIMDEC
 70
     2
  9
$DIMTDEC
 70
     2
  9
$DIMALTU
 70
     2
  9
$DIMALTTD
 70
     2
  9
$DIMTXSTY
  7
GREEKS
  9
$DIMAUNIT
 70
     0
  9
$DIMADEC
 70
     2
  9
$DIMALTRND
 40
0.0
  9
$DIMAZIN
 70
     2
  9
$DIMDSEP
 70
    46
  9
$DIMATFIT
 70
     3
  9
$DIMFRAC
 70
     0
  9
$DIMLDRBLK
  1

  9
$DIMLUNIT
 70
     2
  9
$DIMLWD
 70
    -2
  9
$DIMLWE
 70
    -2
  9
$DIMTMOVE
 70
     0
  9
$LUNITS
 70
     2
  9
$LUPREC
 70
     2
  9
$SKETCHINC
 40
1.0
  9
$FILLETRAD
 40
0.0
  9
$AUNITS
 70
     0
  9
$AUPREC
 70
     0
  9
$MENU
  1
ACAD
  9
$ELEVATION
 40
0.0
  9
$PELEVATION
 40
0.0
  9
$THICKNESS
 40
0.0
  9
$LIMCHECK
 70
     0
  9
$CHAMFERA
 40
0.0
  9
$CHAMFERB
 40
0.0
  9
$CHAMFERC
 40
0.0
  9
$CHAMFERD
 40
0.0
  9
$SKPOLY
 70
     0
  9
$TDCREATE
 40
2452215.883793055
  9
$TDUCREATE
 40
2452215.800459722
  9
$TDUPDATE
 40
2455657.567846088
  9
$TDUUPDATE
 40
2455657.484512755
  9
$TDINDWG
 40
0.0875341667
  9
$TDUSRTIMER
 40
0.0875341667
  9
$USRTIMER
 70
     1
  9
$ANGBASE
 50
0.0
  9
$ANGDIR
 70
     0
  9
$PDMODE
 70
     0
  9
$PDSIZE
 40
0.0
  9
$PLINEWID
 40
0.0
  9
$SPLFRAME
 70
     0
  9
$SPLINETYPE
 70
     6
  9
$SPLINESEGS
 70
     8
  9
$HANDSEED
  5
5E0
  9
$SURFTAB1
 70
     6
  9
$SURFTAB2
 70
     6
  9
$SURFTYPE
 70
     6
  9
$SURFU
 70
     6
  9
$SURFV
 70
     6
  9
$UCSBASE
  2

  9
$UCSNAME
  2

  9
$UCSORG
 10
0.0
 20
0.0
 30
0.0
  9
$UCSXDIR
 10
1.0
 20
0.0
 30
0.0
  9
$UCSYDIR
 10
0.0
 20
1.0
 30
0.0
  9
$UCSORTHOREF
  2

  9
$UCSORTHOVIEW
 70
     0
  9
$UCSORGTOP
 10
0.0
 20
0.0
 30
0.0
  9
$UCSORGBOTTOM
 10
0.0
 20
0.0
 30
0.0
  9
$UCSORGLEFT
 10
0.0
 20
0.0
 30
0.0
  9
$UCSORGRIGHT
 10
0.0
 20
0.0
 30
0.0
  9
$UCSORGFRONT
 10
0.0
 20
0.0
 30
0.0
  9
$UCSORGBACK
 10
0.0
 20
0.0
 30
0.0
  9
$PUCSBASE
  2

  9
$PUCSNAME
  2

  9
$PUCSORG
 10
0.0
 20
0.0
 30
0.0
  9
$PUCSXDIR
 10
1.0
 20
0.0
 30
0.0
  9
$PUCSYDIR
 10
0.0
 20
1.0
 30
0.0
  9
$PUCSORTHOREF
  2

  9
$PUCSORTHOVIEW
 70
     0
  9
$PUCSORGTOP
 10
0.0
 20
0.0
 30
0.0
  9
$PUCSORGBOTTOM
 10
0.0
 20
0.0
 30
0.0
  9
$PUCSORGLEFT
 10
0.0
 20
0.0
 30
0.0
  9
$PUCSORGRIGHT
 10
0.0
 20
0.0
 30
0.0
  9
$PUCSORGFRONT
 10
0.0
 20
0.0
 30
0.0
  9
$PUCSORGBACK
 10
0.0
 20
0.0
 30
0.0
  9
$USERI1
 70
     0
  9
$USERI2
 70
     0
  9
$USERI3
 70
     0
  9
$USERI4
 70
     0
  9
$USERI5
 70
     0
  9
$USERR1
 40
0.0
  9
$USERR2
 40
0.0
  9
$USERR3
 40
0.0
  9
$USERR4
 40
0.0
  9
$USERR5
 40
0.0
  9
$WORLDVIEW
 70
     1
  9
$SHADEDGE
 70
     3
  9
$SHADEDIF
 70
    70
  9
$TILEMODE
 70
     1
  9
$MAXACTVP
 70
    16
  9
$PINSBASE
 10
5.612851412409735
 20
50.00000000000001
 30
-2.58105543498411
  9
$PLIMCHECK
 70
     0
  9
$PEXTMIN
 10
1.000000000000000E+20
 20
1.000000000000000E+20
 30
1.000000000000000E+20
  9
$PEXTMAX
 10
-1.000000000000000E+20
 20
-1.000000000000000E+20
 30
-1.000000000000000E+20
  9
$PLIMMIN
 10
0.0
 20
0.0
  9
$PLIMMAX
 10
12.0
 20
9.0
  9
$UNITMODE
 70
     0
  9
$VISRETAIN
 70
     0
  9
$PLINEGEN
 70
     0
  9
$PSLTSCALE
 70
     0
  9
$TREEDEPTH
 70
  3020
  9
$CMLSTYLE
  2
Standard
  9
$CMLJUST
 70
     0
  9
$CMLSCALE
 40
1.0
  9
$PROXYGRAPHICS
 70
     1
  9
$MEASUREMENT
 70
     0
  9
$CELWEIGHT
370
    -1
  9
$ENDCAPS
280
     0
  9
$JOINSTYLE
280
     0
  9
$LWDISPLAY
290
     0
  9
$INSUNITS
 70
     0
  9
$HYPERLINKBASE
  1

  9
$STYLESHEET
  1
monochrome 1.ctb
  9
$XEDIT
290
     1
  9
$CEPSNTYPE
380
     0
  9
$PSTYLEMODE
290
     1
  9
$FINGERPRINTGUID
  2
{2CB7B559-5825-4820-AD00-1E70514FAB63}
  9
$VERSIONGUID
  2
{A3B43F8C-1F2F-403A-8B76-051AB8A74720}
  9
$EXTNAMES
290
     1
  9
$PSVPSCALE
 40
0.0
  9
$OLESTARTUP
290
     0
  9
$SORTENTS
280
   127
  9
$INDEXCTL
280
     0
  9
$HIDETEXT
280
     1
  9
$XCLIPFRAME
290
     0
  9
$HALOGAP
280
     0
  9
$OBSCOLOR
 70
   257
  9
$OBSLTYPE
280
     0
  9
$INTERSECTIONDISPLAY
280
     0
  9
$INTERSECTIONCOLOR
 70
   257
  9
$DIMASSOC
280
     2
  9
$PROJECTNAME
  1

  0
ENDSEC
  0
SECTION
  2
CLASSES
  0
CLASS
  1
ACDBDICTIONARYWDFLT
  2
AcDbDictionaryWithDefault
  3
ObjectDBX Classes
 90
        0
 91
        1
280
     0
281
     0
  0
CLASS
  1
DICTIONARYVAR
  2
AcDbDictionaryVar
  3
ObjectDBX Classes
 90
        0
 91
        3
280
     0
281
     0
  0
CLASS
  1
DIMASSOC
  2
AcDbDimAssoc
  3
"AcDbDimAssoc|Product Desc:     AcDim ARX App For Dimension|Company:          Autodesk, Inc.|WEB Address:      www.autodesk.com"
 90
        0
 91
        1
280
     0
281
     0
  0
ENDSEC
  0
SECTION
  2
TABLES
  0
TABLE
  2
VPORT
  5
8
330
0
100
AcDbSymbolTable
 70
     3
  0
VPORT
  5
5DF
330
8
100
AcDbSymbolTableRecord
100
AcDbViewportTableRecord
  2
*Active
 70
     0
 10
0.0
 20
0.0
 11
1.0
 21
1.0
 12
525.0
 22
742.4999999999999
 13
0.0
 23
0.0
 14
1.0
 24
1.0
 15
10.0
 25
10.0
 16
0.0
 26
0.0
 36
1.0
 17
0.0
 27
0.0
 37
0.0
 40
1485.0
 41
1.334231805929919
 42
50.0
 43
0.0
 44
0.0
 50
0.0
 51
0.0
 71
     0
 72
  1500
 73
     1
 74
     0
 75
     0
 76
     0
 77
     0
 78
     0
281
     0
 65
     1
110
0.0
120
0.0
130
0.0
111
1.0
121
0.0
131
0.0
112
0.0
122
1.0
132
0.0
 79
     0
146
0.0
  0
ENDTAB
  0
TABLE
  2
LTYPE
  5
5
330
0
100
AcDbSymbolTable
 70
     2
  0
LTYPE
  5
13
330
5
100
AcDbSymbolTableRecord
100
AcDbLinetypeTableRecord
  2
ByBlock
 70
     0
  3

 72
    65
 73
     0
 40
0.0
  0
LTYPE
  5
14
330
5
100
AcDbSymbolTableRecord
100
AcDbLinetypeTableRecord
  2
ByLayer
 70
     0
  3

 72
    65
 73
     0
 40
0.0
  0
LTYPE
  5
15
330
5
100
AcDbSymbolTableRecord
100
AcDbLinetypeTableRecord
  2
Continuous
 70
     0
  3
Solid line
 72
    65
 73
     0
 40
0.0
  0
LTYPE
  5
35
330
5
100
AcDbSymbolTableRecord
100
AcDbLinetypeTableRecord
  2
STRICHPUNKT
 70
     0
  3
__ . __ . __ . __ . __ . __ . __ . __ . __ . __
 72
    65
 73
     4
 40
1.0
 49
0.5
 74
     0
 49
-0.25
 74
     0
 49
0.0
 74
     0
 49
-0.25
 74
     0
  0
ENDTAB
  0
TABLE
  2
LAYER
  5
2
330
0
100
AcDbSymbolTable
 70
     9
  0
LAYER
  5
10
330
2
100
AcDbSymbolTableRecord
100
AcDbLayerTableRecord
  2
0
 70
     0
 62
     7
  6
Continuous
370
    -3
390
F
  0
LAYER
  5
38
330
2
100
AcDbSymbolTableRecord
100
AcDbLayerTableRecord
  2
VOLL
 70
     0
 62
     1
  6
Continuous
370
    -3
390
F
  0
LAYER
  5
39
330
2
100
AcDbSymbolTableRecord
100
AcDbLayerTableRecord
  2
HILF
 70
     0
 62
     2
  6
Continuous
370
    -3
390
F
  0
LAYER
  5
3A
330
2
100
AcDbSymbolTableRecord
100
AcDbLayerTableRecord
  2
MITTEL
 70
     0
 62
     2
  6
STRICHPUNKT
370
    -3
390
F
  0
LAYER
  5
3B
330
2
100
AcDbSymbolTableRecord
100
AcDbLayerTableRecord
  2
BEM
 70
     0
 62
     7
  6
Continuous
370
    -3
390
F
  0
LAYER
  5
3C
330
2
100
AcDbSymbolTableRecord
100
AcDbLayerTableRecord
  2
STEMPEL
 70
     0
 62
     3
  6
Continuous
370
    -3
390
F
  0
LAYER
  5
3D
330
2
100
AcDbSymbolTableRecord
100
AcDbLayerTableRecord
  2
TEXT
 70
     0
 62
     7
  6
Continuous
370
    -3
390
F
  0
LAYER
  5
3E
330
2
100
AcDbSymbolTableRecord
100
AcDbLayerTableRecord
  2
DEFPOINTS
 70
     0
 62
     7
  6
Continuous
290
     0
370
    -3
390
F
  0
LAYER
  5
3F
330
2
100
AcDbSymbolTableRecord
100
AcDbLayerTableRecord
  2
SCHRAFF
 70
     0
 62
     7
  6
Continuous
370
    -3
390
F
  0
ENDTAB
  0
TABLE
  2
STYLE
  5
3
330
0
100
AcDbSymbolTable
 70
     2
  0
STYLE
  5
11
330
3
100
AcDbSymbolTableRecord
100
AcDbTextStyleTableRecord
  2
STANDARD
 70
     0
 40
0.0
 41
1.0
 50
0.0
 71
     0
 42
3.5
  3
txt
  4

  0
STYLE
  5
34
330
3
100
AcDbSymbolTableRecord
100
AcDbTextStyleTableRecord
  2
GREEKS
 70
     0
 40
0.0
 41
0.8
 50
0.0
 71
     0
 42
2.5
  3
SIMPLEX.shx
  4

  0
ENDTAB
  0
TABLE
  2
VIEW
  5
6
330
0
100
AcDbSymbolTable
 70
     0
  0
ENDTAB
  0
TABLE
  2
UCS
  5
7
330
0
100
AcDbSymbolTable
 70
     0
  0
ENDTAB
  0
TABLE
  2
APPID
  5
9
330
0
100
AcDbSymbolTable
 70
     1
  0
APPID
  5
12
330
9
100
AcDbSymbolTableRecord
100
AcDbRegAppTableRecord
  2
ACAD
 70
     0
  0
ENDTAB
  0
TABLE
  2
DIMSTYLE
  5
A
330
0
100
AcDbSymbolTable
 70
     1
100
AcDbDimStyleTable
 71
     1
340
242
  0
DIMSTYLE
105
242
102
{ACAD_REACTORS
330
168
330
4F0
330
230
330
17F
330
1AE
330
16B
102
}
330
A
100
AcDbSymbolTableRecord
100
AcDbDimStyleTableRecord
  2
Standard
 70
     0
340
11
  0
ENDTAB
  0
TABLE
  2
BLOCK_RECORD
  5
1
330
0
100
AcDbSymbolTable
 70
    15
  0
BLOCK_RECORD
  5
20
330
1
100
AcDbSymbolTableRecord
100
AcDbBlockTableRecord
  2
*Model_Space
340
23
  0
BLOCK_RECORD
  5
1C
330
1
100
AcDbSymbolTableRecord
100
AcDbBlockTableRecord
  2
*Paper_Space
340
1F
  0
BLOCK_RECORD
  5
24
330
1
100
AcDbSymbolTableRecord
100
AcDbBlockTableRecord
  2
LOGO
340
0
102
{BLKREFS
331
2D7
102
}
  0
BLOCK_RECORD
  5
27
330
1
100
AcDbSymbolTableRecord
100
AcDbBlockTableRecord
  2
*X2
340
0
102
{BLKREFS
331
216
102
}
  0
BLOCK_RECORD
  5
28
330
1
100
AcDbSymbolTableRecord
100
AcDbBlockTableRecord
  2
*X3
340
0
102
{BLKREFS
331
20E
102
}
  0
BLOCK_RECORD
  5
2D9
330
1
100
AcDbSymbolTableRecord
100
AcDbBlockTableRecord
  2
*D5
340
0
  0
BLOCK_RECORD
  5
309
330
1
100
AcDbSymbolTableRecord
100
AcDbBlockTableRecord
  2
*D9
340
0
  0
BLOCK_RECORD
  5
315
330
1
100
AcDbSymbolTableRecord
100
AcDbBlockTableRecord
  2
*D10
340
0
  0
BLOCK_RECORD
  5
33D
330
1
100
AcDbSymbolTableRecord
100
AcDbBlockTableRecord
  2
*D12
340
0
  0
BLOCK_RECORD
  5
349
330
1
100
AcDbSymbolTableRecord
100
AcDbBlockTableRecord
  2
*D13
340
0
  0
BLOCK_RECORD
  5
4F1
330
1
100
AcDbSymbolTableRecord
100
AcDbBlockTableRecord
  2
*D14
340
0
  0
ENDTAB
  0
ENDSEC
  0
SECTION
  2
BLOCKS
  0
BLOCK
  5
43
330
20
100
AcDbEntity
  8
0
100
AcDbBlockBegin
  2
*Model_Space
 70
     0
 10
0.0
 20
0.0
 30
0.0
  3
*Model_Space
  1

  0
ENDBLK
  5
44
330
20
100
AcDbEntity
  8
0
100
AcDbBlockEnd
  0
BLOCK
  5
41
330
1C
100
AcDbEntity
 67
     1
  8
0
100
AcDbBlockBegin
  2
*Paper_Space
 70
     0
 10
0.0
 20
0.0
 30
0.0
  3
*Paper_Space
  1

  0
ENDBLK
  5
42
330
1C
100
AcDbEntity
 67
     1
  8
0
100
AcDbBlockEnd
  0
BLOCK
  5
45
330
24
100
AcDbEntity
  8
0
100
AcDbBlockBegin
  2
LOGO
 70
     0
 10
0.0
 20
0.0
 30
0.0
  3
LOGO
  1

  0
ARC
  5
46
330
24
100
AcDbEntity
  8
0
100
AcDbCircle
 10
11.59973089678112
 20
-9.271599258481501
 30
0.0
 40
4.5
100
AcDbArc
 50
270.0
 51
231.0575587310159
  0
LINE
  5
47
330
24
100
AcDbEntity
  8
0
100
AcDbLine
 10
3.599730896781125
 20
-4.771599258481529
 30
0.0
 11
3.599730896781153
 21
-11.77159925848133
 31
0.0
  0
LINE
  5
48
330
24
100
AcDbEntity
  8
0
100
AcDbLine
 10
2.599730896781125
 20
-4.771599258481529
 30
0.0
 11
2.599730896781153
 21
-11.77159925848133
 31
0.0
  0
CIRCLE
  5
49
330
24
100
AcDbEntity
  8
0
100
AcDbCircle
 10
11.59973089678112
 20
-9.271599258481501
 30
0.0
 40
3.5
  0
ARC
  5
4A
330
24
100
AcDbEntity
  8
0
100
AcDbCircle
 10
31.59973089678115
 20
-9.271599258481472
 30
0.0
 40
4.5
100
AcDbArc
 50
270.0
 51
231.0575587310182
  0
LINE
  5
4B
330
24
100
AcDbEntity
  8
0
100
AcDbLine
 10
17.59973089678112
 20
-4.771599258481472
 30
0.0
 11
17.59973089678115
 21
-13.77159925848147
 31
0.0
  0
ARC
  5
4C
330
24
100
AcDbEntity
  8
0
100
AcDbCircle
 10
22.59973089678116
 20
-7.271599258481472
 30
0.0
 40
2.5
100
AcDbArc
 50
293.1161887722295
 51
90.0
  0
CIRCLE
  5
4D
330
24
100
AcDbEntity
  8
0
100
AcDbCircle
 10
31.59973089678115
 20
-9.271599258481472
 30
0.0
 40
3.5
  0
ARC
  5
4E
330
24
100
AcDbEntity
  8
0
100
AcDbCircle
 10
4.599730896781153
 20
-11.77159925848133
 30
0.0
 40
1.0
100
AcDbArc
 50
180.0
 51
270.0
  0
ARC
  5
4F
330
24
100
AcDbEntity
  8
0
100
AcDbCircle
 10
4.599730896781153
 20
-11.77159925848133
 30
0.0
 40
2.0
100
AcDbArc
 50
179.9999999999992
 51
270.0
  0
LINE
  5
50
330
24
100
AcDbEntity
  8
0
100
AcDbLine
 10
11.59973089678115
 20
-13.77159925848144
 30
0.0
 11
4.599730896781153
 21
-13.77159925848147
 31
0.0
  0
LINE
  5
51
330
24
100
AcDbEntity
  8
0
100
AcDbLine
 10
8.771303772034769
 20
-12.77159925848136
 30
0.0
 11
4.599730896781153
 21
-12.77159925848133
 31
0.0
  0
LINE
  5
52
330
24
100
AcDbEntity
  8
0
100
AcDbLine
 10
31.59973089678115
 20
-13.77159925848147
 30
0.0
 11
23.6715276665056
 21
-13.77159925848144
 31
0.0
  0
LINE
  5
53
330
24
100
AcDbEntity
  8
0
100
AcDbLine
 10
23.56565672307022
 20
-9.51278021337896
 30
0.0
 11
24.4388546544846
 21
-12.77159925848144
 31
0.0
  0
LINE
  5
54
330
24
100
AcDbEntity
  8
0
100
AcDbLine
 10
22.59973089678116
 20
-9.771599258481472
 30
0.0
 11
18.59973089678112
 21
-9.771599258481472
 31
0.0
  0
LINE
  5
55
330
24
100
AcDbEntity
  8
0
100
AcDbLine
 10
18.59973089678115
 20
-13.77159925848144
 30
0.0
 11
17.59973089678115
 21
-13.77159925848144
 31
0.0
  0
LINE
  5
56
330
24
100
AcDbEntity
  8
0
100
AcDbLine
 10
18.59973089678115
 20
-9.771599258481472
 30
0.0
 11
18.59973089678115
 21
-13.77159925848144
 31
0.0
  0
LINE
  5
57
330
24
100
AcDbEntity
  8
0
100
AcDbLine
 10
22.59973089678116
 20
-9.771599258481472
 30
0.0
 11
23.67152766650562
 21
-13.77159925848147
 31
0.0
  0
ARC
  5
58
330
24
100
AcDbEntity
  8
0
100
AcDbCircle
 10
22.59973089678116
 20
-7.271599258481472
 30
0.0
 40
2.5
100
AcDbArc
 50
270.0
 51
270.0000000000007
  0
LINE
  5
59
330
24
100
AcDbEntity
  8
0
100
AcDbLine
 10
28.77130377203494
 20
-12.77159925848147
 30
0.0
 11
24.43885465448463
 21
-12.77159925848144
 31
0.0
  0
LINE
  5
5A
330
24
100
AcDbEntity
  8
0
100
AcDbLine
 10
3.599730896781125
 20
-4.771599258481472
 30
0.0
 11
2.599730896781125
 21
-4.771599258481472
 31
0.0
  0
LINE
  5
5B
330
24
100
AcDbEntity
  8
0
100
AcDbLine
 10
22.59973089678116
 20
-8.771599258481472
 30
0.0
 11
18.59973089678115
 21
-8.771599258481472
 31
0.0
  0
LINE
  5
5C
330
24
100
AcDbEntity
  8
0
100
AcDbLine
 10
22.59973089678116
 20
-5.771599258481472
 30
0.0
 11
18.59973089678115
 21
-5.771599258481472
 31
0.0
  0
LINE
  5
5D
330
24
100
AcDbEntity
  8
0
100
AcDbLine
 10
22.59973089678116
 20
-4.771599258481472
 30
0.0
 11
17.59973089678115
 21
-4.771599258481472
 31
0.0
  0
LINE
  5
5E
330
24
100
AcDbEntity
  8
0
100
AcDbLine
 10
18.59973089678115
 20
-5.771599258481472
 30
0.0
 11
18.59973089678115
 21
-8.771599258481472
 31
0.0
  0
ARC
  5
5F
330
24
100
AcDbEntity
  8
0
100
AcDbCircle
 10
22.59973089678116
 20
-7.271599258481472
 30
0.0
 40
1.5
100
AcDbArc
 50
270.0
 51
90.0
  0
ENDBLK
  5
60
330
24
100
AcDbEntity
  8
0
100
AcDbBlockEnd
  0
BLOCK
  5
71
330
27
100
AcDbEntity
  8
0
100
AcDbBlockBegin
  2
*X2
 70
     1
 10
0.0
 20
0.0
 30
0.0
  3
*X2
  1

  0
LINE
  5
72
330
27
100
AcDbEntity
  8
0
 62
     0
100
AcDbLine
 10
701.7020629044663
 20
976.4000000000001
 30
0.0
 11
704.5892586589324
 21
976.4000000000001
 31
0.0
  0
LINE
  5
73
330
27
100
AcDbEntity
  8
0
 62
     0
100
AcDbLine
 10
701.7020629044663
 20
976.5
 30
0.0
 11
704.6892586589324
 21
976.5
 31
0.0
  0
LINE
  5
74
330
27
100
AcDbEntity
  8
0
 62
     0
100
AcDbLine
 10
701.7020629044663
 20
976.6
 30
0.0
 11
704.7892586589324
 21
976.6
 31
0.0
  0
LINE
  5
75
330
27
100
AcDbEntity
  8
0
 62
     0
100
AcDbLine
 10
701.7020629044663
 20
976.7000000000001
 30
0.0
 11
704.8892586589325
 21
976.7000000000001
 31
0.0
  0
LINE
  5
76
330
27
100
AcDbEntity
  8
0
 62
     0
100
AcDbLine
 10
701.7020629044663
 20
976.8
 30
0.0
 11
704.9892586589325
 21
976.8
 31
0.0
  0
LINE
  5
77
330
27
100
AcDbEntity
  8
0
 62
     0
100
AcDbLine
 10
701.7020629044663
 20
976.9000000000001
 30
0.0
 11
705.0892586589325
 21
976.9000000000001
 31
0.0
  0
LINE
  5
78
330
27
100
AcDbEntity
  8
0
 62
     0
100
AcDbLine
 10
701.7020629044663
 20
977.0
 30
0.0
 11
705.1892586589324
 21
977.0
 31
0.0
  0
LINE
  5
79
330
27
100
AcDbEntity
  8
0
 62
     0
100
AcDbLine
 10
701.7020629044663
 20
977.1
 30
0.0
 11
705.2892586589324
 21
977.1
 31
0.0
  0
LINE
  5
7A
330
27
100
AcDbEntity
  8
0
 62
     0
100
AcDbLine
 10
701.7020629044663
 20
977.2
 30
0.0
 11
705.3892586589324
 21
977.2
 31
0.0
  0
LINE
  5
7B
330
27
100
AcDbEntity
  8
0
 62
     0
100
AcDbLine
 10
701.7020629044663
 20
977.3000000000001
 30
0.0
 11
705.4892586589325
 21
977.3000000000001
 31
0.0
  0
LINE
  5
7C
330
27
100
AcDbEntity
  8
0
 62
     0
100
AcDbLine
 10
701.7020629044663
 20
977.4
 30
0.0
 11
705.5892586589325
 21
977.4
 31
0.0
  0
LINE
  5
7D
330
27
100
AcDbEntity
  8
0
 62
     0
100
AcDbLine
 10
701.7020629044663
 20
977.5
 30
0.0
 11
705.6892586589324
 21
977.5
 31
0.0
  0
LINE
  5
7E
330
27
100
AcDbEntity
  8
0
 62
     0
100
AcDbLine
 10
701.7020629044663
 20
977.5999999999999
 30
0.0
 11
705.7892586589324
 21
977.5999999999999
 31
0.0
  0
LINE
  5
7F
330
27
100
AcDbEntity
  8
0
 62
     0
100
AcDbLine
 10
701.7020629044663
 20
977.7000000000001
 30
0.0
 11
705.8892586589324
 21
977.7000000000001
 31
0.0
  0
LINE
  5
80
330
27
100
AcDbEntity
  8
0
 62
     0
100
AcDbLine
 10
701.7020629044663
 20
977.8
 30
0.0
 11
705.9892586589325
 21
977.8
 31
0.0
  0
LINE
  5
81
330
27
100
AcDbEntity
  8
0
 62
     0
100
AcDbLine
 10
701.7020629044663
 20
977.9000000000001
 30
0.0
 11
706.0892586589325
 21
977.9000000000001
 31
0.0
  0
LINE
  5
82
330
27
100
AcDbEntity
  8
0
 62
     0
100
AcDbLine
 10
701.7020629044663
 20
978.0
 30
0.0
 11
706.1892586589324
 21
978.0
 31
0.0
  0
LINE
  5
83
330
27
100
AcDbEntity
  8
0
 62
     0
100
AcDbLine
 10
701.7020629044663
 20
978.1
 30
0.0
 11
706.2892586589324
 21
978.1
 31
0.0
  0
LINE
  5
84
330
27
100
AcDbEntity
  8
0
 62
     0
100
AcDbLine
 10
701.7020629044663
 20
978.3000000000001
 30
0.0
 11
706.2898655699245
 21
978.3000000000001
 31
0.0
  0
LINE
  5
85
330
27
100
AcDbEntity
  8
0
 62
     0
100
AcDbLine
 10
701.7020629044663
 20
978.4
 30
0.0
 11
706.1731936372044
 21
978.4
 31
0.0
  0
LINE
  5
86
330
27
100
AcDbEntity
  8
0
 62
     0
100
AcDbLine
 10
701.7020629044663
 20
978.5
 30
0.0
 11
706.0485256455709
 21
978.5
 31
0.0
  0
LINE
  5
87
330
27
100
AcDbEntity
  8
0
 62
     0
100
AcDbLine
 10
701.7020629044663
 20
978.5999999999999
 30
0.0
 11
705.9147995332885
 21
978.5999999999999
 31
0.0
  0
LINE
  5
88
330
27
100
AcDbEntity
  8
0
 62
     0
100
AcDbLine
 10
701.7020629044663
 20
978.7
 30
0.0
 11
705.7706552023751
 21
978.7
 31
0.0
  0
LINE
  5
89
330
27
100
AcDbEntity
  8
0
 62
     0
100
AcDbLine
 10
701.7020629044663
 20
978.8
 30
0.0
 11
705.6143018058421
 21
978.8
 31
0.0
  0
LINE
  5
8A
330
27
100
AcDbEntity
  8
0
 62
     0
100
AcDbLine
 10
701.7020629044663
 20
978.9000000000001
 30
0.0
 11
705.4432972086943
 21
978.9000000000001
 31
0.0
  0
LINE
  5
8B
330
27
100
AcDbEntity
  8
0
 62
     0
100
AcDbLine
 10
701.7020629044663
 20
979.0
 30
0.0
 11
705.2541558029822
 21
979.0
 31
0.0
  0
LINE
  5
8C
330
27
100
AcDbEntity
  8
0
 62
     0
100
AcDbLine
 10
701.7020629044663
 20
979.1
 30
0.0
 11
705.0415856480551
 21
979.1
 31
0.0
  0
LINE
  5
8D
330
27
100
AcDbEntity
  8
0
 62
     0
100
AcDbLine
 10
701.7020629044663
 20
979.1999999999999
 30
0.0
 11
704.7968066889669
 21
979.1999999999999
 31
0.0
  0
LINE
  5
8E
330
27
100
AcDbEntity
  8
0
 62
     0
100
AcDbLine
 10
701.6959857262852
 20
979.3000000000001
 30
0.0
 11
704.5030671482598
 21
979.3000000000001
 31
0.0
  0
LINE
  5
8F
330
27
100
AcDbEntity
  8
0
 62
     0
100
AcDbLine
 10
702.0801674220059
 20
979.4
 30
0.0
 11
704.118885452539
 21
979.4
 31
0.0
  0
LINE
  5
90
330
27
100
AcDbEntity
  8
0
 62
     0
100
AcDbLine
 10
702.8024421451722
 20
979.4999999999999
 30
0.0
 11
703.3966107293728
 21
979.4999999999999
 31
0.0
  0
LINE
  5
91
330
27
100
AcDbEntity
  8
0
 62
     0
100
AcDbLine
 10
701.7020629044663
 20
976.3000000000001
 30
0.0
 11
704.4892586589325
 21
976.3000000000001
 31
0.0
  0
LINE
  5
92
330
27
100
AcDbEntity
  8
0
 62
     0
100
AcDbLine
 10
701.7020629044663
 20
976.2
 30
0.0
 11
704.3892586589325
 21
976.2
 31
0.0
  0
LINE
  5
93
330
27
100
AcDbEntity
  8
0
 62
     0
100
AcDbLine
 10
701.7020629044663
 20
976.1000000000001
 30
0.0
 11
704.2892586589324
 21
976.1000000000001
 31
0.0
  0
LINE
  5
94
330
27
100
AcDbEntity
  8
0
 62
     0
100
AcDbLine
 10
701.7020629044663
 20
976.0
 30
0.0
 11
704.1892586589324
 21
976.0
 31
0.0
  0
LINE
  5
95
330
27
100
AcDbEntity
  8
0
 62
     0
100
AcDbLine
 10
701.7020629044663
 20
975.9
 30
0.0
 11
704.0892586589325
 21
975.9
 31
0.0
  0
LINE
  5
96
330
27
100
AcDbEntity
  8
0
 62
     0
100
AcDbLine
 10
701.7020629044663
 20
975.8
 30
0.0
 11
703.9892586589324
 21
975.8
 31
0.0
  0
LINE
  5
97
330
27
100
AcDbEntity
  8
0
 62
     0
100
AcDbLine
 10
701.7020629044663
 20
975.7000000000001
 30
0.0
 11
703.8892586589325
 21
975.7000000000001
 31
0.0
  0
LINE
  5
98
330
27
100
AcDbEntity
  8
0
 62
     0
100
AcDbLine
 10
701.7020629044663
 20
975.6
 30
0.0
 11
703.7892586589324
 21
975.6
 31
0.0
  0
LINE
  5
99
330
27
100
AcDbEntity
  8
0
 62
     0
100
AcDbLine
 10
701.7020629044663
 20
975.5
 30
0.0
 11
703.6892586589324
 21
975.5
 31
0.0
  0
LINE
  5
9A
330
27
100
AcDbEntity
  8
0
 62
     0
100
AcDbLine
 10
701.7020629044663
 20
975.4000000000001
 30
0.0
 11
703.5892586589325
 21
975.4000000000001
 31
0.0
  0
LINE
  5
9B
330
27
100
AcDbEntity
  8
0
 62
     0
100
AcDbLine
 10
701.7020629044663
 20
975.3
 30
0.0
 11
703.4892586589324
 21
975.3
 31
0.0
  0
LINE
  5
9C
330
27
100
AcDbEntity
  8
0
 62
     0
100
AcDbLine
 10
701.7020629044663
 20
975.2
 30
0.0
 11
703.3892586589324
 21
975.2
 31
0.0
  0
LINE
  5
9D
330
27
100
AcDbEntity
  8
0
 62
     0
100
AcDbLine
 10
701.7020629044663
 20
975.1000000000001
 30
0.0
 11
703.2892586589325
 21
975.1000000000001
 31
0.0
  0
LINE
  5
9E
330
27
100
AcDbEntity
  8
0
 62
     0
100
AcDbLine
 10
701.7020629044663
 20
975.0
 30
0.0
 11
703.1892586589324
 21
975.0
 31
0.0
  0
LINE
  5
9F
330
27
100
AcDbEntity
  8
0
 62
     0
100
AcDbLine
 10
701.7020629044663
 20
974.9
 30
0.0
 11
703.0892586589325
 21
974.9
 31
0.0
  0
LINE
  5
A0
330
27
100
AcDbEntity
  8
0
 62
     0
100
AcDbLine
 10
701.7020629044663
 20
974.8000000000001
 30
0.0
 11
702.9892586589324
 21
974.8000000000001
 31
0.0
  0
LINE
  5
A1
330
27
100
AcDbEntity
  8
0
 62
     0
100
AcDbLine
 10
701.7020629044663
 20
974.6999999999999
 30
0.0
 11
702.8892586589324
 21
974.6999999999999
 31
0.0
  0
LINE
  5
A2
330
27
100
AcDbEntity
  8
0
 62
     0
100
AcDbLine
 10
701.7020629044663
 20
974.6
 30
0.0
 11
702.7892586589324
 21
974.6
 31
0.0
  0
LINE
  5
A3
330
27
100
AcDbEntity
  8
0
 62
     0
100
AcDbLine
 10
701.7020629044663
 20
974.5
 30
0.0
 11
702.6892586589324
 21
974.5
 31
0.0
  0
LINE
  5
A4
330
27
100
AcDbEntity
  8
0
 62
     0
100
AcDbLine
 10
701.7020629044663
 20
974.4000000000001
 30
0.0
 11
702.5892586589325
 21
974.4000000000001
 31
0.0
  0
LINE
  5
A5
330
27
100
AcDbEntity
  8
0
 62
     0
100
AcDbLine
 10
701.7020629044663
 20
974.3
 30
0.0
 11
702.4892586589325
 21
974.3
 31
0.0
  0
LINE
  5
A6
330
27
100
AcDbEntity
  8
0
 62
     0
100
AcDbLine
 10
701.7020629044663
 20
974.2
 30
0.0
 11
702.3892586589324
 21
974.2
 31
0.0
  0
LINE
  5
A7
330
27
100
AcDbEntity
  8
0
 62
     0
100
AcDbLine
 10
701.7020629044663
 20
974.0999999999999
 30
0.0
 11
702.2892586589324
 21
974.0999999999999
 31
0.0
  0
LINE
  5
A8
330
27
100
AcDbEntity
  8
0
 62
     0
100
AcDbLine
 10
701.7020629044663
 20
974.0
 30
0.0
 11
702.1892586589324
 21
974.0
 31
0.0
  0
LINE
  5
A9
330
27
100
AcDbEntity
  8
0
 62
     0
100
AcDbLine
 10
701.7020629044663
 20
973.9
 30
0.0
 11
702.0892586589325
 21
973.9
 31
0.0
  0
LINE
  5
AA
330
27
100
AcDbEntity
  8
0
 62
     0
100
AcDbLine
 10
701.7020629044663
 20
973.8000000000001
 30
0.0
 11
701.9892586589325
 21
973.8000000000001
 31
0.0
  0
LINE
  5
AB
330
27
100
AcDbEntity
  8
0
 62
     0
100
AcDbLine
 10
701.7020629044663
 20
973.7
 30
0.0
 11
701.8892586589324
 21
973.7
 31
0.0
  0
LINE
  5
AC
330
27
100
AcDbEntity
  8
0
 62
     0
100
AcDbLine
 10
701.7020629044663
 20
973.6
 30
0.0
 11
701.7892586589324
 21
973.6
 31
0.0
  0
ENDBLK
  5
AD
330
27
100
AcDbEntity
  8
0
100
AcDbBlockEnd
  0
BLOCK
  5
AE
330
28
100
AcDbEntity
  8
0
100
AcDbBlockBegin
  2
*X3
 70
     1
 10
0.0
 20
0.0
 30
0.0
  3
*X3
  1

  0
LINE
  5
AF
330
28
100
AcDbEntity
  8
0
 62
     0
100
AcDbLine
 10
701.7020629044663
 20
785.0
 30
0.0
 11
703.7194781221557
 21
785.0
 31
0.0
  0
LINE
  5
B0
330
28
100
AcDbEntity
  8
0
 62
     0
100
AcDbLine
 10
701.7020629044663
 20
785.0999999999999
 30
0.0
 11
703.7545113796004
 21
785.0999999999999
 31
0.0
  0
LINE
  5
B1
330
28
100
AcDbEntity
  8
0
 62
     0
100
AcDbLine
 10
701.7020629044663
 20
785.2
 30
0.0
 11
703.7873018001667
 21
785.2
 31
0.0
  0
LINE
  5
B2
330
28
100
AcDbEntity
  8
0
 62
     0
100
AcDbLine
 10
701.7020629044663
 20
785.3
 30
0.0
 11
703.8178932005694
 21
785.3
 31
0.0
  0
LINE
  5
B3
330
28
100
AcDbEntity
  8
0
 62
     0
100
AcDbLine
 10
701.7020629044663
 20
785.4
 30
0.0
 11
703.8463254353822
 21
785.4
 31
0.0
  0
LINE
  5
B4
330
28
100
AcDbEntity
  8
0
 62
     0
100
AcDbLine
 10
701.7796624545541
 20
785.5
 30
0.0
 11
703.8726346868742
 21
785.5
 31
0.0
  0
LINE
  5
B5
330
28
100
AcDbEntity
  8
0
 62
     0
100
AcDbLine
 10
701.8796624545541
 20
785.6
 30
0.0
 11
703.8968537186942
 21
785.6
 31
0.0
  0
LINE
  5
B6
330
28
100
AcDbEntity
  8
0
 62
     0
100
AcDbLine
 10
701.9796624545541
 20
785.7
 30
0.0
 11
703.9190120979049
 21
785.7
 31
0.0
  0
LINE
  5
B7
330
28
100
AcDbEntity
  8
0
 62
     0
100
AcDbLine
 10
702.0796624545542
 20
785.8
 30
0.0
 11
703.9391363891438
 21
785.8
 31
0.0
  0
LINE
  5
B8
330
28
100
AcDbEntity
  8
0
 62
     0
100
AcDbLine
 10
702.1796624545542
 20
785.9
 30
0.0
 11
703.9572503240872
 21
785.9
 31
0.0
  0
LINE
  5
B9
330
28
100
AcDbEntity
  8
0
 62
     0
100
AcDbLine
 10
702.2796624545541
 20
786.0
 30
0.0
 11
703.9733749488839
 21
786.0
 31
0.0
  0
LINE
  5
BA
330
28
100
AcDbEntity
  8
0
 62
     0
100
AcDbLine
 10
702.3796624545541
 20
786.1
 30
0.0
 11
703.9875287518015
 21
786.1
 31
0.0
  0
LINE
  5
BB
330
28
100
AcDbEntity
  8
0
 62
     0
100
AcDbLine
 10
702.4796624545541
 20
786.2
 30
0.0
 11
703.9997277729686
 21
786.2
 31
0.0
  0
LINE
  5
BC
330
28
100
AcDbEntity
  8
0
 62
     0
100
AcDbLine
 10
702.5796624545542
 20
786.3
 30
0.0
 11
704.0099856977827
 21
786.3
 31
0.0
  0
LINE
  5
BD
330
28
100
AcDbEntity
  8
0
 62
     0
100
AcDbLine
 10
702.6796624545542
 20
786.4
 30
0.0
 11
704.018313935289
 21
786.4
 31
0.0
  0
LINE
  5
BE
330
28
100
AcDbEntity
  8
0
 62
     0
100
AcDbLine
 10
702.779662454554
 20
786.5
 30
0.0
 11
704.0247216825997
 21
786.5
 31
0.0
  0
LINE
  5
BF
330
28
100
AcDbEntity
  8
0
 62
     0
100
AcDbLine
 10
702.8796624545541
 20
786.6
 30
0.0
 11
704.0292159762137
 21
786.6
 31
0.0
  0
LINE
  5
C0
330
28
100
AcDbEntity
  8
0
 62
     0
100
AcDbLine
 10
702.9796624545541
 20
786.7
 30
0.0
 11
704.0318017309157
 21
786.7
 31
0.0
  0
LINE
  5
C1
330
28
100
AcDbEntity
  8
0
 62
     0
100
AcDbLine
 10
703.0796624545541
 20
786.8000000000001
 30
0.0
 11
704.0324817667573
 21
786.8000000000001
 31
0.0
  0
LINE
  5
C2
330
28
100
AcDbEntity
  8
0
 62
     0
100
AcDbLine
 10
703.1796624545542
 20
786.9
 30
0.0
 11
704.0312568244699
 21
786.9
 31
0.0
  0
LINE
  5
C3
330
28
100
AcDbEntity
  8
0
 62
     0
100
AcDbLine
 10
703.279662454554
 20
787.0
 30
0.0
 11
704.0281255695036
 21
787.0
 31
0.0
  0
LINE
  5
C4
330
28
100
AcDbEntity
  8
0
 62
     0
100
AcDbLine
 10
703.3796624545541
 20
787.1
 30
0.0
 11
704.0230845847475
 21
787.1
 31
0.0
  0
LINE
  5
C5
330
28
100
AcDbEntity
  8
0
 62
     0
100
AcDbLine
 10
703.4796624545541
 20
787.2
 30
0.0
 11
704.0161283518338
 21
787.2
 31
0.0
  0
LINE
  5
C6
330
28
100
AcDbEntity
  8
0
 62
     0
100
AcDbLine
 10
703.5796624545541
 20
787.3000000000001
 30
0.0
 11
704.0072492207904
 21
787.3000000000001
 31
0.0
  0
LINE
  5
C7
330
28
100
AcDbEntity
  8
0
 62
     0
100
AcDbLine
 10
703.6796624545542
 20
787.4000000000001
 30
0.0
 11
703.9964373676485
 21
787.4000000000001
 31
0.0
  0
LINE
  5
C8
330
28
100
AcDbEntity
  8
0
 62
     0
100
AcDbLine
 10
703.7796624545541
 20
787.5
 30
0.0
 11
703.983680739452
 21
787.5
 31
0.0
  0
LINE
  5
C9
330
28
100
AcDbEntity
  8
0
 62
     0
100
AcDbLine
 10
703.8796624545541
 20
787.6
 30
0.0
 11
703.9689649859428
 21
787.6
 31
0.0
  0
LINE
  5
CA
330
28
100
AcDbEntity
  8
0
 62
     0
100
AcDbLine
 10
701.7020629044663
 20
784.9000000000001
 30
0.0
 11
703.682153917599
 21
784.9000000000001
 31
0.0
  0
LINE
  5
CB
330
28
100
AcDbEntity
  8
0
 62
     0
100
AcDbLine
 10
701.7020629044663
 20
784.8
 30
0.0
 11
703.6424859828072
 21
784.8
 31
0.0
  0
LINE
  5
CC
330
28
100
AcDbEntity
  8
0
 62
     0
100
AcDbLine
 10
701.7020629044663
 20
784.7
 30
0.0
 11
703.6004164266236
 21
784.7
 31
0.0
  0
LINE
  5
CD
330
28
100
AcDbEntity
  8
0
 62
     0
100
AcDbLine
 10
701.7020629044663
 20
784.6
 30
0.0
 11
703.555881749541
 21
784.6
 31
0.0
  0
LINE
  5
CE
330
28
100
AcDbEntity
  8
0
 62
     0
100
AcDbLine
 10
701.7020629044663
 20
784.4999999999999
 30
0.0
 11
703.5088122667831
 21
784.4999999999999
 31
0.0
  0
LINE
  5
CF
330
28
100
AcDbEntity
  8
0
 62
     0
100
AcDbLine
 10
701.7020629044663
 20
784.4000000000001
 30
0.0
 11
703.4591314408182
 21
784.4000000000001
 31
0.0
  0
LINE
  5
D0
330
28
100
AcDbEntity
  8
0
 62
     0
100
AcDbLine
 10
701.7020629044663
 20
784.3
 30
0.0
 11
703.4067551061389
 21
784.3
 31
0.0
  0
LINE
  5
D1
330
28
100
AcDbEntity
  8
0
 62
     0
100
AcDbLine
 10
701.7020629044663
 20
784.2
 30
0.0
 11
703.3515905650657
 21
784.2
 31
0.0
  0
LINE
  5
D2
330
28
100
AcDbEntity
  8
0
 62
     0
100
AcDbLine
 10
701.7020629044663
 20
784.1
 30
0.0
 11
703.2935355281059
 21
784.1
 31
0.0
  0
LINE
  5
D3
330
28
100
AcDbEntity
  8
0
 62
     0
100
AcDbLine
 10
701.7020629044663
 20
784.0
 30
0.0
 11
703.2324768656372
 21
784.0
 31
0.0
  0
LINE
  5
D4
330
28
100
AcDbEntity
  8
0
 62
     0
100
AcDbLine
 10
701.7020629044663
 20
783.9000000000001
 30
0.0
 11
703.1682891288477
 21
783.9000000000001
 31
0.0
  0
LINE
  5
D5
330
28
100
AcDbEntity
  8
0
 62
     0
100
AcDbLine
 10
701.7020629044663
 20
783.8
 30
0.0
 11
703.1008327862082
 21
783.8
 31
0.0
  0
LINE
  5
D6
330
28
100
AcDbEntity
  8
0
 62
     0
100
AcDbLine
 10
701.7020629044663
 20
783.7
 30
0.0
 11
703.0299521061951
 21
783.7
 31
0.0
  0
LINE
  5
D7
330
28
100
AcDbEntity
  8
0
 62
     0
100
AcDbLine
 10
701.7020629044663
 20
783.6
 30
0.0
 11
702.9554725959875
 21
783.6
 31
0.0
  0
LINE
  5
D8
330
28
100
AcDbEntity
  8
0
 62
     0
100
AcDbLine
 10
701.7020629044663
 20
783.4999999999999
 30
0.0
 11
702.8771978771621
 21
783.4999999999999
 31
0.0
  0
LINE
  5
D9
330
28
100
AcDbEntity
  8
0
 62
     0
100
AcDbLine
 10
701.7020629044663
 20
783.4000000000001
 30
0.0
 11
702.7949058396176
 21
783.4000000000001
 31
0.0
  0
LINE
  5
DA
330
28
100
AcDbEntity
  8
0
 62
     0
100
AcDbLine
 10
701.7020629044663
 20
783.3000000000001
 30
0.0
 11
702.708343858967
 21
783.3000000000001
 31
0.0
  0
LINE
  5
DB
330
28
100
AcDbEntity
  8
0
 62
     0
100
AcDbLine
 10
701.7020629044663
 20
783.2
 30
0.0
 11
702.617222782509
 21
783.2
 31
0.0
  0
LINE
  5
DC
330
28
100
AcDbEntity
  8
0
 62
     0
100
AcDbLine
 10
701.7020629044663
 20
783.1
 30
0.0
 11
702.521209272098
 21
783.1
 31
0.0
  0
LINE
  5
DD
330
28
100
AcDbEntity
  8
0
 62
     0
100
AcDbLine
 10
701.7020629044663
 20
783.0
 30
0.0
 11
702.419915918524
 21
783.0
 31
0.0
  0
LINE
  5
DE
330
28
100
AcDbEntity
  8
0
 62
     0
100
AcDbLine
 10
701.7020629044663
 20
782.9000000000001
 30
0.0
 11
702.31288827767
 21
782.9000000000001
 31
0.0
  0
LINE
  5
DF
330
28
100
AcDbEntity
  8
0
 62
     0
100
AcDbLine
 10
701.7020629044663
 20
782.8000000000001
 30
0.0
 11
702.1995875660865
 21
782.8000000000001
 31
0.0
  0
LINE
  5
E0
330
28
100
AcDbEntity
  8
0
 62
     0
100
AcDbLine
 10
701.7020629044663
 20
782.7
 30
0.0
 11
702.0793670906076
 21
782.7
 31
0.0
  0
LINE
  5
E1
330
28
100
AcDbEntity
  8
0
 62
     0
100
AcDbLine
 10
701.7020629044663
 20
782.6
 30
0.0
 11
701.9514393855408
 21
782.6
 31
0.0
  0
LINE
  5
E2
330
28
100
AcDbEntity
  8
0
 62
     0
100
AcDbLine
 10
701.7020629044663
 20
782.5
 30
0.0
 11
701.8148291313401
 21
782.5
 31
0.0
  0
ENDBLK
  5
E3
330
28
100
AcDbEntity
  8
0
100
AcDbBlockEnd
  0
BLOCK
  5
2E3
330
2D9
100
AcDbEntity
  8
0
100
AcDbBlockBegin
  2
*D5
 70
     1
 10
0.0
 20
0.0
 30
0.0
  3
*D5
  1

  0
LINE
  5
5CC
330
2D9
100
AcDbEntity
  8
BEM
 62
     0
370
    -2
100
AcDbLine
 10
487.0041602435438
 20
796.3624144212981
 30
0.0
 11
561.5376247474728
 21
721.8289499173849
 31
0.0
  0
LINE
  5
5CD
330
2D9
100
AcDbEntity
  8
BEM
 62
     0
370
    -2
100
AcDbLine
 10
812.8095810487574
 20
1019.271855816845
 30
0.0
 11
835.8950558478188
 21
996.1863810177888
 31
0.0
  0
LINE
  5
5CE
330
2D9
100
AcDbEntity
  8
BEM
 62
     0
370
    -2
100
AcDbLine
 10
570.3764595123029
 20
737.7388524940831
 30
0.0
 11
819.9851532711223
 21
987.3475462529553
 31
0.0
  0
SOLID
  5
5CF
330
2D9
100
AcDbEntity
  8
BEM
 62
     0
100
AcDbTrace
 10
568.314064733842
 20
739.8012472725437
 30
0.0
 11
572.4388542907639
 21
735.6764577156225
 31
0.0
 12
558.0020908415397
 22
725.3644838233172
 32
0.0
 13
558.0020908415397
 23
725.3644838233172
 33
0.0
  0
SOLID
  5
5D0
330
2D9
100
AcDbEntity
  8
BEM
 62
     0
100
AcDbTrace
 10
817.9227584926614
 20
989.4099410314158
 30
0.0
 11
822.0475480495833
 21
985.2851514744948
 31
0.0
 12
832.3595219418857
 22
999.7219149237212
 32
0.0
 13
832.3595219418857
 23
999.7219149237212
 33
0.0
  0
MTEXT
  5
5D1
330
2D9
100
AcDbEntity
  8
BEM
 62
     1
100
AcDbMText
 10
683.6903211974302
 20
874.0336845677994
 30
0.0
 40
17.5
 41
0.0
 71
     5
 72
     1
  1
\A1;388
  7
GREEKS
 11
0.707106781186473
 21
0.7071067811866221
 31
0.0
 73
     1
 44
1.0
  0
POINT
  5
5D2
330
2D9
100
AcDbEntity
  8
DEFPOINTS
 62
     0
100
AcDbPoint
 10
483.4686263376107
 20
799.8979483272306
 30
0.0
  0
POINT
  5
5D3
330
2D9
100
AcDbEntity
  8
DEFPOINTS
 62
     0
100
AcDbPoint
 10
809.2740471428241
 20
1022.807389722778
 30
0.0
  0
POINT
  5
5D4
330
2D9
100
AcDbEntity
  8
DEFPOINTS
 62
     0
100
AcDbPoint
 10
832.3595219418857
 20
999.7219149237212
 30
0.0
  0
ENDBLK
  5
2E4
330
2D9
100
AcDbEntity
  8
0
100
AcDbBlockEnd
  0
BLOCK
  5
313
330
309
100
AcDbEntity
  8
0
100
AcDbBlockBegin
  2
*D9
 70
     1
 10
0.0
 20
0.0
 30
0.0
  3
*D9
  1

  0
LINE
  5
5D5
330
309
100
AcDbEntity
  8
BEM
 62
     0
370
    -2
100
AcDbLine
 10
341.9686263376107
 20
754.8979483272305
 30
0.0
 11
267.1755255854247
 21
754.8979483272305
 31
0.0
  0
LINE
  5
5D6
330
309
100
AcDbEntity
  8
BEM
 62
     0
370
    -2
100
AcDbLine
 10
341.9686263376107
 20
1134.89794832723
 30
0.0
 11
267.1755255854248
 21
1134.89794832723
 31
0.0
  0
LINE
  5
5D7
330
309
100
AcDbEntity
  8
BEM
 62
     0
370
    -2
100
AcDbLine
 10
272.1755255854247
 20
772.3979483272305
 30
0.0
 11
272.1755255854248
 21
1117.39794832723
 31
0.0
  0
SOLID
  5
5D8
330
309
100
AcDbEntity
  8
BEM
 62
     0
100
AcDbTrace
 10
269.2588589187581
 20
772.3979483272305
 30
0.0
 11
275.0921922520914
 21
772.3979483272305
 31
0.0
 12
272.1755255854247
 22
754.8979483272305
 32
0.0
 13
272.1755255854247
 23
754.8979483272305
 33
0.0
  0
SOLID
  5
5D9
330
309
100
AcDbEntity
  8
BEM
 62
     0
100
AcDbTrace
 10
269.2588589187581
 20
1117.39794832723
 30
0.0
 11
275.0921922520915
 21
1117.39794832723
 31
0.0
 12
272.1755255854248
 22
1134.89794832723
 32
0.0
 13
272.1755255854248
 23
1134.89794832723
 33
0.0
  0
MTEXT
  5
5DA
330
309
100
AcDbEntity
  8
BEM
 62
     1
100
AcDbMText
 10
255.9255255854246
 20
944.8979483272305
 30
0.0
 40
17.5
 41
0.0
 71
     5
 72
     1
  1
\A1;380
  7
GREEKS
 11
0.0000000000000001
 21
1.0
 31
0.0
 73
     1
 44
1.0
  0
POINT
  5
5DB
330
309
100
AcDbEntity
  8
DEFPOINTS
 62
     0
100
AcDbPoint
 10
346.9686263376106
 20
754.8979483272305
 30
0.0
  0
POINT
  5
5DC
330
309
100
AcDbEntity
  8
DEFPOINTS
 62
     0
100
AcDbPoint
 10
346.9686263376106
 20
1134.89794832723
 30
0.0
  0
POINT
  5
5DD
330
309
100
AcDbEntity
  8
DEFPOINTS
 62
     0
100
AcDbPoint
 10
272.1755255854248
 20
1134.89794832723
 30
0.0
  0
ENDBLK
  5
314
330
309
100
AcDbEntity
  8
0
100
AcDbBlockEnd
  0
BLOCK
  5
31F
330
315
100
AcDbEntity
  8
0
100
AcDbBlockBegin
  2
*D10
 70
     1
 10
0.0
 20
0.0
 30
0.0
  3
*D10
  1

  0
LINE
  5
593
330
315
100
AcDbEntity
  8
BEM
 62
     0
370
    -2
100
AcDbLine
 10
341.9686263376107
 20
754.8979483272305
 30
0.0
 11
303.0060057917649
 21
754.8979483272305
 31
0.0
  0
LINE
  5
594
330
315
100
AcDbEntity
  8
BEM
 62
     0
370
    -2
100
AcDbLine
 10
478.4686263376106
 20
799.8979483272306
 30
0.0
 11
303.0060057917649
 21
799.8979483272306
 31
0.0
  0
LINE
  5
595
330
315
100
AcDbEntity
  8
BEM
 62
     0
370
    -2
100
AcDbLine
 10
308.0060057917649
 20
737.3979483272306
 30
0.0
 11
308.0060057917649
 21
719.8979483272305
 31
0.0
  0
LINE
  5
596
330
315
100
AcDbEntity
  8
BEM
 62
     0
370
    -2
100
AcDbLine
 10
308.0060057917649
 20
817.3979483272304
 30
0.0
 11
308.0060057917649
 21
834.8979483272305
 31
0.0
  0
LINE
  5
597
330
315
100
AcDbEntity
  8
BEM
 62
     0
370
    -2
100
AcDbLine
 10
308.0060057917649
 20
754.8979483272305
 30
0.0
 11
308.0060057917649
 21
799.8979483272306
 31
0.0
  0
SOLID
  5
598
330
315
100
AcDbEntity
  8
BEM
 62
     0
100
AcDbTrace
 10
305.0893391250982
 20
737.3979483272306
 30
0.0
 11
310.9226724584316
 21
737.3979483272306
 31
0.0
 12
308.0060057917649
 22
754.8979483272305
 32
0.0
 13
308.0060057917649
 23
754.8979483272305
 33
0.0
  0
SOLID
  5
599
330
315
100
AcDbEntity
  8
BEM
 62
     0
100
AcDbTrace
 10
305.0893391250982
 20
817.3979483272304
 30
0.0
 11
310.9226724584316
 21
817.3979483272304
 31
0.0
 12
308.0060057917649
 22
799.8979483272306
 32
0.0
 13
308.0060057917649
 23
799.8979483272306
 33
0.0
  0
MTEXT
  5
59A
330
315
100
AcDbEntity
  8
BEM
 62
     1
100
AcDbMText
 10
291.7560057917648
 20
777.3979483272307
 30
0.0
 40
17.5
 41
0.0
 71
     5
 72
     1
  1
\A1;45
  7
GREEKS
 11
0.0000000000000001
 21
1.0
 31
0.0
 73
     1
 44
1.0
  0
POINT
  5
59B
330
315
100
AcDbEntity
  8
DEFPOINTS
 62
     0
100
AcDbPoint
 10
346.9686263376106
 20
754.8979483272305
 30
0.0
  0
POINT
  5
59C
330
315
100
AcDbEntity
  8
DEFPOINTS
 62
     0
100
AcDbPoint
 10
483.4686263376106
 20
799.8979483272306
 30
0.0
  0
POINT
  5
59D
330
315
100
AcDbEntity
  8
DEFPOINTS
 62
     0
100
AcDbPoint
 10
308.0060057917649
 20
799.8979483272306
 30
0.0
  0
ENDBLK
  5
320
330
315
100
AcDbEntity
  8
0
100
AcDbBlockEnd
  0
BLOCK
  5
347
330
33D
100
AcDbEntity
  8
0
100
AcDbBlockBegin
  2
*D12
 70
     1
 10
0.0
 20
0.0
 30
0.0
  3
*D12
  1

  0
LINE
  5
5C3
330
33D
100
AcDbEntity
  8
BEM
 62
     0
370
    -2
100
AcDbLine
 10
619.9686263376106
 20
749.8979483272306
 30
0.0
 11
619.9686263376106
 21
701.0354575194303
 31
0.0
  0
LINE
  5
5C4
330
33D
100
AcDbEntity
  8
BEM
 62
     0
370
    -2
100
AcDbLine
 10
346.9686263376106
 20
749.8979483272306
 30
0.0
 11
346.9686263376106
 21
701.0354575194303
 31
0.0
  0
LINE
  5
5C5
330
33D
100
AcDbEntity
  8
BEM
 62
     0
370
    -2
100
AcDbLine
 10
602.4686263376106
 20
706.0354575194303
 30
0.0
 11
364.4686263376107
 21
706.0354575194303
 31
0.0
  0
SOLID
  5
5C6
330
33D
100
AcDbEntity
  8
BEM
 62
     0
100
AcDbTrace
 10
602.4686263376106
 20
708.9521241860969
 30
0.0
 11
602.4686263376106
 21
703.1187908527637
 31
0.0
 12
619.9686263376106
 22
706.0354575194303
 32
0.0
 13
619.9686263376106
 23
706.0354575194303
 33
0.0
  0
SOLID
  5
5C7
330
33D
100
AcDbEntity
  8
BEM
 62
     0
100
AcDbTrace
 10
364.4686263376107
 20
708.9521241860969
 30
0.0
 11
364.4686263376107
 21
703.1187908527637
 31
0.0
 12
346.9686263376106
 22
706.0354575194303
 32
0.0
 13
346.9686263376106
 23
706.0354575194303
 33
0.0
  0
MTEXT
  5
5C8
330
33D
100
AcDbEntity
  8
BEM
 62
     1
100
AcDbMText
 10
483.4686263376106
 20
722.2854575194303
 30
0.0
 40
17.5
 41
0.0
 71
     5
 72
     1
  1
\A1;%%c273
  7
GREEKS
 73
     1
 44
1.0
  0
POINT
  5
5C9
330
33D
100
AcDbEntity
  8
DEFPOINTS
 62
     0
100
AcDbPoint
 10
619.9686263376106
 20
754.8979483272305
 30
0.0
  0
POINT
  5
5CA
330
33D
100
AcDbEntity
  8
DEFPOINTS
 62
     0
100
AcDbPoint
 10
346.9686263376106
 20
754.8979483272305
 30
0.0
  0
POINT
  5
5CB
330
33D
100
AcDbEntity
  8
DEFPOINTS
 62
     0
100
AcDbPoint
 10
346.9686263376106
 20
706.0354575194303
 30
0.0
  0
ENDBLK
  5
348
330
33D
100
AcDbEntity
  8
0
100
AcDbBlockEnd
  0
BLOCK
  5
353
330
349
100
AcDbEntity
  8
0
100
AcDbBlockBegin
  2
*D13
 70
     1
 10
0.0
 20
0.0
 30
0.0
  3
*D13
  1

  0
LINE
  5
4A4
330
349
100
AcDbEntity
  8
BEM
 62
     0
370
    -2
100
AcDbLine
 10
616.4330924316775
 20
838.8172125234868
 30
0.0
 11
588.8313746819516
 21
811.2154947737668
 31
0.0
  0
LINE
  5
4A5
330
349
100
AcDbEntity
  8
BEM
 62
     0
370
    -2
100
AcDbLine
 10
616.4330924316774
 20
1026.907616319108
 30
0.0
 11
494.7861727841407
 21
905.2606966715975
 31
0.0
  0
LINE
  5
4A6
330
349
100
AcDbEntity
  8
BEM
 62
     0
370
    -2
100
AcDbLine
 10
579.9925399171214
 20
827.125397350465
 30
0.0
 11
510.6960753608371
 21
896.421861906764
 31
0.0
  0
SOLID
  5
4A7
330
349
100
AcDbEntity
  8
BEM
 62
     0
100
AcDbTrace
 10
582.0549346955824
 20
829.1877921289254
 30
0.0
 11
577.9301451386605
 21
825.0630025720045
 31
0.0
 12
592.3669085878847
 22
814.7510286796991
 32
0.0
 13
592.3669085878847
 23
814.7510286796991
 33
0.0
  0
SOLID
  5
4A8
330
349
100
AcDbEntity
  8
BEM
 62
     0
100
AcDbTrace
 10
512.758470139298
 20
898.4842566852245
 30
0.0
 11
508.6336805823761
 21
894.3594671283035
 31
0.0
 12
498.3217066900738
 22
908.7962305775299
 32
0.0
 13
498.3217066900738
 23
908.7962305775299
 33
0.0
  0
MTEXT
  5
4A9
330
349
100
AcDbEntity
  8
BEM
 62
     1
100
AcDbMText
 10
556.8347928332618
 20
873.2641148228948
 30
0.0
 40
17.5
 41
0.0
 71
     5
 72
     1
  1
\A1;%%c133
  7
GREEKS
 11
0.7071067811864725
 21
-0.7071067811866226
 31
0.0
 73
     1
 44
1.0
  0
POINT
  5
4AA
330
349
100
AcDbEntity
  8
DEFPOINTS
 62
     0
100
AcDbPoint
 10
619.9686263376106
 20
842.3527464294192
 30
0.0
  0
POINT
  5
4AB
330
349
100
AcDbEntity
  8
DEFPOINTS
 62
     0
100
AcDbPoint
 10
619.9686263376105
 20
1030.443150225041
 30
0.0
  0
POINT
  5
4AC
330
349
100
AcDbEntity
  8
DEFPOINTS
 62
     0
100
AcDbPoint
 10
498.3217066900738
 20
908.7962305775299
 30
0.0
  0
ENDBLK
  5
354
330
349
100
AcDbEntity
  8
0
100
AcDbBlockEnd
  0
BLOCK
  5
4FD
330
4F1
100
AcDbEntity
  8
0
100
AcDbBlockBegin
  2
*D14
 70
     1
 10
0.0
 20
0.0
 30
0.0
  3
*D14
  1

  0
LINE
  5
500
330
4F1
100
AcDbEntity
  8
BEM
 62
     0
370
    -2
100
AcDbLine
 10
768.432659155789
 20
1084.861981145409
 30
0.0
 11
803.5889837740182
 21
1120.018305763638
 31
0.0
  0
LINE
  5
501
330
4F1
100
AcDbEntity
  8
BEM
 62
     0
370
    -2
100
AcDbLine
 10
483.4686263376106
 20
1149.89794832723
 30
0.0
 11
483.4686263376106
 21
1252.616499405521
 31
0.0
  0
ARC
  5
502
330
4F1
100
AcDbEntity
  8
BEM
 62
     0
370
    -2
100
AcDbCircle
 10
483.4686263376106
 20
799.8979483272306
 30
0.0
 40
447.7185510782905
100
AcDbArc
 50
47.23966592101845
 51
87.76033407898154
  0
SOLID
  5
503
330
4F1
100
AcDbEntity
  8
BEM
 62
     0
100
AcDbTrace
 10
789.4613002009752
 20
1130.715245636848
 30
0.0
 11
785.4179113897458
 21
1126.51063094594
 31
0.0
 12
800.0534498680854
 22
1116.482771857705
 32
0.0
 13
800.0534498680854
 23
1116.482771857705
 33
0.0
  0
SOLID
  5
504
330
4F1
100
AcDbEntity
  8
BEM
 62
     0
100
AcDbTrace
 10
500.9082820040348
 20
1244.358378063244
 30
0.0
 11
501.0222859168585
 21
1250.190597270856
 31
0.0
 12
483.4686263376106
 22
1247.616499405521
 32
0.0
 13
483.4686263376106
 23
1247.616499405521
 33
0.0
  0
MTEXT
  5
505
330
4F1
100
AcDbEntity
  8
BEM
 62
     1
100
AcDbMText
 10
661.0217039737083
 20
1228.54899639738
 30
0.0
 40
17.5
 41
0.0
 71
     5
 72
     1
  1
\A1;45°
  7
GREEKS
 11
0.9238795325112867
 21
-0.3826834323650898
 31
0.0
 73
     1
 44
1.0
  0
POINT
  5
506
330
4F1
100
AcDbEntity
  8
DEFPOINTS
 62
     0
100
AcDbPoint
 10
707.3279018767558
 20
1187.633587306591
 30
0.0
  0
POINT
  5
507
330
4F1
100
AcDbEntity
  8
DEFPOINTS
 62
     0
100
AcDbPoint
 10
764.8971252498562
 20
1081.326447239476
 30
0.0
  0
POINT
  5
508
330
4F1
100
AcDbEntity
  8
DEFPOINTS
 62
     0
100
AcDbPoint
 10
483.4686263376106
 20
1144.89794832723
 30
0.0
  0
POINT
  5
509
330
4F1
100
AcDbEntity
  8
DEFPOINTS
 62
     0
100
AcDbPoint
 10
483.4686263376106
 20
744.8979483272305
 30
0.0
  0
POINT
  5
50A
330
4F1
100
AcDbEntity
  8
DEFPOINTS
 62
     0
100
AcDbPoint
 10
571.268795026283
 20
887.6981170159028
 30
0.0
  0
ENDBLK
  5
4FE
330
4F1
100
AcDbEntity
  8
0
100
AcDbBlockEnd
  0
ENDSEC
  0
SECTION
  2
ENTITIES
  0
LINE
  5
167
330
20
100
AcDbEntity
  8
MITTEL
100
AcDbLine
 10
540.5749395063826
 20
857.0042614960025
 30
0.0
 11
483.4686263376106
 21
799.8979483272306
 31
0.0
  0
DIMENSION
  5
168
330
20
100
AcDbEntity
  8
BEM
100
AcDbDimension
  2
*D13
 10
498.3217066900738
 20
908.7962305775299
 30
0.0
 11
556.8347928332618
 21
873.2641148228948
 31
0.0
 70
    32
  1
%%c<>
 71
     5
 42
133.0000000000142
  3
Standard
100
AcDbAlignedDimension
 13
619.9686263376106
 23
842.3527464294192
 33
0.0
 14
619.9686263376106
 24
1030.443150225041
 34
0.0
 50
314.9999999999939
100
AcDbRotatedDimension
1001
ACAD
1000
DSTYLE
1002
{
1070
    40
1040
5.0
1070
    41
1040
3.5
1070
    42
1040
1.0
1070
    43
1040
7.0
1070
    44
1040
1.0
1070
    47
1040
3.0
1070
    48
1040
3.0
1070
    73
1070
     0
1070
    74
1070
     0
1070
    77
1070
     1
1070
    78
1070
     8
1070
    79
1070
     2
1070
   140
1040
3.5
1070
   141
1040
1.5
1070
   146
1040
0.5
1070
   147
1040
1.5
1070
   172
1070
     1
1070
   178
1070
     1
1070
   179
1070
     2
1070
   271
1070
     2
1070
   272
1070
     2
1070
   284
1070
     8
1070
   285
1070
     8
1070
   286
1070
     8
1070
   340
1005
34
1002
}
  0
LINE
  5
169
330
20
100
AcDbEntity
  8
STEMPEL
100
AcDbLine
 10
619.9686263376106
 20
1134.89794832723
 30
0.0
 11
346.9686263376106
 21
1134.89794832723
 31
0.0
  0
LINE
  5
16A
330
20
100
AcDbEntity
  8
STEMPEL
100
AcDbLine
 10
619.9686263376106
 20
754.8979483272305
 30
0.0
 11
346.9686263376106
 21
754.8979483272305
 31
0.0
  0
DIMENSION
  5
16B
330
20
100
AcDbEntity
  8
BEM
100
AcDbDimension
  2
*D12
 10
346.9686263376106
 20
706.0354575194303
 30
0.0
 11
483.4686263376106
 21
722.2854575194303
 31
0.0
 70
    32
  1
%%c<>
 71
     5
 42
273.0
  3
Standard
100
AcDbAlignedDimension
 13
619.9686263376106
 23
754.8979483272305
 33
0.0
 14
346.9686263376106
 24
754.8979483272305
 34
0.0
100
AcDbRotatedDimension
1001
ACAD
1000
DSTYLE
1002
{
1070
    40
1040
5.0
1070
    41
1040
3.5
1070
    42
1040
1.0
1070
    43
1040
7.0
1070
    44
1040
1.0
1070
    47
1040
3.0
1070
    48
1040
3.0
1070
    73
1070
     0
1070
    74
1070
     0
1070
    77
1070
     1
1070
    78
1070
     8
1070
    79
1070
     2
1070
   140
1040
3.5
1070
   141
1040
1.5
1070
   146
1040
0.5
1070
   147
1040
1.5
1070
   172
1070
     1
1070
   178
1070
     1
1070
   179
1070
     2
1070
   271
1070
     2
1070
   272
1070
     2
1070
   284
1070
     8
1070
   285
1070
     8
1070
   286
1070
     8
1070
   340
1005
34
1002
}
  0
TEXT
  5
16E
330
20
100
AcDbEntity
  8
TEXT
 62
     1
100
AcDbText
 10
480.0373920362804
 20
353.4720666920996
 30
0.0
 40
17.5
  1
Werkstoff: EN 10219 S235, RSt34-2 DIN 2394
 41
0.8
  7
GREEKS
100
AcDbText
  0
DIMENSION
  5
17F
330
20
100
AcDbEntity
  8
BEM
100
AcDbDimension
  2
*D10
 10
308.0060057917649
 20
799.8979483272306
 30
0.0
 11
291.7560057917648
 21
777.3979483272307
 31
0.0
 70
    32
 71
     5
 42
45.0
  3
Standard
100
AcDbAlignedDimension
 13
346.9686263376106
 23
754.8979483272305
 33
0.0
 14
483.4686263376106
 24
799.8979483272306
 34
0.0
 50
90.0
100
AcDbRotatedDimension
1001
ACAD
1000
DSTYLE
1002
{
1070
    40
1040
5.0
1070
    41
1040
3.5
1070
    42
1040
1.0
1070
    43
1040
7.0
1070
    44
1040
1.0
1070
    47
1040
3.0
1070
    48
1040
3.0
1070
    73
1070
     0
1070
    74
1070
     0
1070
    77
1070
     1
1070
    78
1070
     8
1070
    79
1070
     2
1070
   140
1040
3.5
1070
   141
1040
1.5
1070
   146
1040
0.5
1070
   147
1040
1.5
1070
   172
1070
     1
1070
   178
1070
     1
1070
   179
1070
     2
1070
   271
1070
     2
1070
   272
1070
     2
1070
   284
1070
     8
1070
   285
1070
     8
1070
   286
1070
     8
1070
   340
1005
34
1002
}
  0
TEXT
  5
19E
330
20
100
AcDbEntity
  8
TEXT
 62
     1
100
AcDbText
 10
292.4806628287003
 20
428.844636841721
 30
0.0
 40
17.5
  1
Rohrenden leicht entgratet
 41
0.8
  7
GREEKS
100
AcDbText
  0
DIMENSION
  5
1AE
330
20
100
AcDbEntity
  8
BEM
100
AcDbDimension
  2
*D9
 10
272.1755255854248
 20
1134.89794832723
 30
0.0
 11
255.9255255854246
 21
944.8979483272305
 31
0.0
 70
    32
 71
     5
 42
379.9999999999999
  3
Standard
100
AcDbAlignedDimension
 13
346.9686263376106
 23
754.8979483272305
 33
0.0
 14
346.9686263376106
 24
1134.89794832723
 34
0.0
 50
90.0
100
AcDbRotatedDimension
1001
ACAD
1000
DSTYLE
1002
{
1070
    40
1040
5.0
1070
    41
1040
3.5
1070
    42
1040
1.0
1070
    43
1040
7.0
1070
    44
1040
1.0
1070
    47
1040
3.0
1070
    48
1040
3.0
1070
    73
1070
     0
1070
    74
1070
     0
1070
    77
1070
     1
1070
    78
1070
     8
1070
    79
1070
     2
1070
   140
1040
3.5
1070
   141
1040
1.5
1070
   146
1040
0.5
1070
   147
1040
1.5
1070
   172
1070
     1
1070
   178
1070
     1
1070
   179
1070
     2
1070
   271
1070
     2
1070
   272
1070
     2
1070
   284
1070
     8
1070
   285
1070
     8
1070
   286
1070
     8
1070
   340
1005
34
1002
}
  0
LINE
  5
1AF
330
20
100
AcDbEntity
  8
STEMPEL
100
AcDbLine
 10
346.9686263376106
 20
1134.89794832723
 30
0.0
 11
346.9686263376106
 21
754.8979483272305
 31
0.0
  0
LINE
  5
1B2
102
{ACAD_REACTORS
330
50B
102
}
330
20
100
AcDbEntity
  8
MITTEL
100
AcDbLine
 10
483.4686263376106
 20
1144.89794832723
 30
0.0
 11
483.4686263376106
 21
744.8979483272305
 31
0.0
  0
POINT
  5
1B3
330
20
100
AcDbEntity
  8
DEFPOINTS
  6
ByBlock
 62
     0
100
AcDbPoint
 10
483.4686263376106
 20
749.8979483272306
 30
0.0
  0
TEXT
  5
1B7
330
20
100
AcDbEntity
  8
TEXT
 62
     1
100
AcDbText
 10
600.0373920362804
 20
323.4720666920996
 30
0.0
 40
17.5
  1
feuerverzinkt und innen beschichtet
 41
0.8
  7
GREEKS
100
AcDbText
  0
LINE
  5
1CB
330
20
100
AcDbEntity
  8
STEMPEL
100
AcDbLine
 10
694.4676087365739
 20
1118.377161466549
 30
0.0
 11
680.9571863619829
 21
1104.866739091957
 31
0.0
  0
LINE
  5
1F9
330
20
100
AcDbEntity
  8
HILF
100
AcDbLine
 10
659.2167280991425
 20
1072.225323977805
 30
0.0
 11
755.7960019881854
 21
975.6460500887625
 31
0.0
  0
LINE
  5
1FA
330
20
100
AcDbEntity
  8
HILF
100
AcDbLine
 10
656.4722057520078
 20
1064.218826309867
 30
0.0
 11
747.7895043202538
 21
972.9015277416211
 31
0.0
  0
LINE
  5
1FB
330
20
100
AcDbEntity
  8
HILF
100
AcDbLine
 10
674.3746650944944
 20
1089.084428029695
 30
0.0
 11
772.6551060400729
 21
990.8039870841172
 31
0.0
  0
LINE
  5
1FC
102
{ACAD_REACTORS
330
50B
102
}
330
20
100
AcDbEntity
  8
MITTEL
100
AcDbLine
 10
764.8971252498563
 20
1081.326447239476
 30
0.0
 11
571.268795026283
 21
887.6981170159028
 31
0.0
  0
LINE
  5
1FD
330
20
100
AcDbEntity
  8
STEMPEL
100
AcDbLine
 10
746.5123489390064
 20
968.8964690308152
 30
0.0
 11
619.9686263376106
 21
842.3527464294197
 31
0.0
  0
ARC
  5
1FE
330
20
100
AcDbEntity
  8
STEMPEL
100
AcDbCircle
 10
969.719532796908
 20
919.1036528887154
 30
0.0
 40
367.0452018978125
100
AcDbArc
 50
162.3416768784483
 51
180.0
  0
ARC
  5
1FF
330
20
100
AcDbEntity
  8
MITTEL
100
AcDbCircle
 10
607.5677504740319
 20
978.838624191715
 30
0.0
 40
10.0
100
AcDbArc
 50
243.9191587716921
 51
278.8374082126249
  0
ARC
  5
200
330
20
100
AcDbEntity
  8
SCHRAFF
100
AcDbCircle
 10
606.0748529242969
 20
968.9506892755662
 30
0.0
 40
10.0
100
AcDbArc
 50
245.4802076942718
 51
280.3984571352046
  0
ARC
  5
201
330
20
100
AcDbEntity
  8
SCHRAFF
100
AcDbCircle
 10
605.1837004095248
 20
889.2401217367325
 30
0.0
 40
10.0
100
AcDbArc
 50
263.6696564366856
 51
298.597670867853
  0
ARC
  5
202
330
20
100
AcDbEntity
  8
SCHRAFF
100
AcDbCircle
 10
603.791059107647
 20
899.142674448246
 30
0.0
 40
10.0
100
AcDbArc
 50
260.4675496842124
 51
295.3955641153795
  0
ARC
  5
203
330
20
100
AcDbEntity
  8
SCHRAFF
100
AcDbCircle
 10
607.1273063378803
 20
879.4308202327894
 30
0.0
 40
10.0
100
AcDbArc
 50
266.8717631891595
 51
301.7997776203275
  0
ARC
  5
204
330
20
100
AcDbEntity
  8
STEMPEL
100
AcDbCircle
 10
781.6291290012868
 20
919.1036528887154
 30
0.0
 40
178.9547981021913
100
AcDbArc
 50
180.0
 51
205.3967769507945
  0
ARC
  5
205
330
20
100
AcDbEntity
  8
SCHRAFF
100
AcDbCircle
 10
602.6743308990956
 20
919.1036528887154
 30
0.0
 40
10.0
100
AcDbArc
 50
254.0633361792639
 51
288.9913506104313
  0
ARC
  5
206
330
20
100
AcDbEntity
  8
SCHRAFF
100
AcDbCircle
 10
605.1837004095248
 20
889.2401217367325
 30
0.0
 40
10.0
100
AcDbArc
 50
80.61496964699003
 51
98.0052668811801
  0
ARC
  5
207
330
20
100
AcDbEntity
  8
SCHRAFF
100
AcDbCircle
 10
602.95373106344
 20
909.1075568733621
 30
0.0
 40
10.0
100
AcDbArc
 50
257.2654429317381
 51
292.1934573629052
  0
ARC
  5
208
330
20
100
AcDbEntity
  8
SCHRAFF
100
AcDbCircle
 10
603.8997313259114
 20
949.0711867866965
 30
0.0
 40
10.0
100
AcDbArc
 50
248.6023055394295
 51
283.5205549803622
  0
ARC
  5
209
330
20
100
AcDbEntity
  8
SCHRAFF
100
AcDbCircle
 10
602.8105539030784
 20
929.1027250103267
 30
0.0
 40
10.0
100
AcDbArc
 50
251.7244033845879
 51
286.6426528255212
  0
ARC
  5
20A
330
20
100
AcDbEntity
  8
SCHRAFF
100
AcDbCircle
 10
603.219121801013
 20
939.0943751379472
 30
0.0
 40
10.0
100
AcDbArc
 50
250.1633544620089
 51
285.0816039029418
  0
ARC
  5
20B
330
20
100
AcDbEntity
  8
SCHRAFF
100
AcDbCircle
 10
604.8518772829179
 20
959.025754485826
 30
0.0
 40
10.0
100
AcDbArc
 50
247.0412566168497
 51
281.959506057783
  0
LINE
  5
20C
330
20
100
AcDbEntity
  8
STEMPEL
100
AcDbLine
 10
619.9686263376106
 20
842.3527464294197
 30
0.0
 11
619.9686263376106
 21
754.8979483272305
 31
0.0
  0
ARC
  5
20D
330
20
100
AcDbEntity
  8
SCHRAFF
100
AcDbCircle
 10
612.6414343500596
 20
860.2141052570718
 30
0.0
 40
10.0
100
AcDbArc
 50
273.2759766941077
 51
308.2039911252754
  0
INSERT
  5
20E
330
20
100
AcDbEntity
  8
SCHRAFF
100
AcDbBlockReference
  2
*X3
 10
-81.73343656685574
 20
56.93034597950736
 30
0.0
1001
ACAD
1000
HATCH
1002
{
1070
    16
1000
_U,I
1040
0.1
1040
0.0
1070
     0
1002
}
  0
ARC
  5
20F
330
20
100
AcDbEntity
  8
SCHRAFF
100
AcDbCircle
 10
617.0491258893364
 20
843.716045000232
 30
0.0
 40
5.24993878874102
100
AcDbArc
 50
303.7866381026345
 51
9.771121626243539
  0
ARC
  5
210
330
20
100
AcDbEntity
  8
SCHRAFF
100
AcDbCircle
 10
609.6158078314585
 20
869.7454002462086
 30
0.0
 40
10.0
100
AcDbArc
 50
270.0738699416334
 51
305.0018843728008
  0
ARC
  5
211
330
20
100
AcDbEntity
  8
SCHRAFF
100
AcDbCircle
 10
609.3294618016379
 20
988.6822197339029
 30
0.0
 40
10.0
100
AcDbArc
 50
242.3581098491133
 51
277.2763592900462
  0
ARC
  5
212
330
20
100
AcDbEntity
  8
SCHRAFF
100
AcDbCircle
 10
611.3586792446913
 20
998.4741693134715
 30
0.0
 40
10.0
100
AcDbArc
 50
240.7970609265333
 51
275.7153103674664
  0
ARC
  5
213
330
20
100
AcDbEntity
  8
STEMPEL
100
AcDbCircle
 10
657.0633411189082
 20
1100.064776940919
 30
0.0
 40
18.0
100
AcDbArc
 50
314.9999999999999
 51
340.0071583365459
  0
LINE
  5
214
330
20
100
AcDbEntity
  8
STEMPEL
100
AcDbLine
 10
619.9686263376106
 20
1134.89794832723
 30
0.0
 11
619.9686263376106
 21
1030.443150225041
 31
0.0
  0
LINE
  5
215
330
20
100
AcDbEntity
  8
STEMPEL
100
AcDbLine
 10
652.4671470411956
 20
1062.941670928626
 30
0.0
 11
619.9686263376106
 21
1030.443150225041
 31
0.0
  0
INSERT
  5
216
330
20
100
AcDbEntity
  8
SCHRAFF
100
AcDbBlockReference
  2
*X2
 10
-81.73343656685574
 20
56.93034597950736
 30
0.0
1001
ACAD
1000
HATCH
1002
{
1070
    16
1000
_U,I
1040
0.1
1040
0.0
1070
     0
1002
}
  0
ARC
  5
217
330
20
100
AcDbEntity
  8
SCHRAFF
100
AcDbCircle
 10
613.6538965794648
 20
1008.207204676921
 30
0.0
 40
10.0
100
AcDbArc
 50
239.2360120039544
 51
274.1542614448875
  0
ARC
  5
218
330
20
100
AcDbEntity
  8
SCHRAFF
100
AcDbCircle
 10
622.1175317807331
 20
1036.980831026627
 30
0.0
 40
10.0
100
AcDbArc
 50
234.5528652362172
 51
269.4711146771496
  0
ARC
  5
219
330
20
100
AcDbEntity
  8
SCHRAFF
100
AcDbCircle
 10
619.0353200774477
 20
1027.467683754766
 30
0.0
 40
10.0
100
AcDbArc
 50
236.1139141587969
 51
271.0321635997295
  0
ARC
  5
21A
330
20
100
AcDbEntity
  8
SCHRAFF
100
AcDbCircle
 10
616.2134101389533
 20
1017.874101300905
 30
0.0
 40
10.0
100
AcDbArc
 50
237.6749630813757
 51
272.5932125223088
  0
ARC
  5
21B
330
20
100
AcDbEntity
  8
SCHRAFF
100
AcDbCircle
 10
621.3660898704169
 20
1031.626177352541
 30
0.0
 40
4.813345538505403
100
AcDbArc
 50
46.80522346220429
 51
106.8777749044305
  0
LINE
  5
21C
330
20
100
AcDbEntity
  8
STEMPEL
100
AcDbLine
 10
669.791263180266
 20
1087.336854879562
 30
0.0
 11
660.2232029258989
 21
1077.768794625195
 31
0.0
  0
ARC
  5
21D
330
20
100
AcDbEntity
  8
STEMPEL
100
AcDbCircle
 10
672.9511249872569
 20
1065.040872563837
 30
0.0
 40
18.0
100
AcDbArc
 50
134.9999999999999
 51
169.7719440319484
  0
ARC
  5
21E
330
20
100
AcDbEntity
  8
STEMPEL
100
AcDbCircle
 10
645.3960792293301
 20
1070.012738740492
 30
0.0
 40
10.0
100
AcDbArc
 50
315.0
 51
349.7719440319482
  0
ARC
  5
21F
330
20
100
AcDbEntity
  8
STEMPEL
100
AcDbCircle
 10
702.1703897975791
 20
1083.653535656361
 30
0.0
 40
29.99973625969209
100
AcDbArc
 50
135.0
 51
160.0071583365459
  0
LINE
  5
220
330
20
100
AcDbEntity
  8
STEMPEL
100
AcDbLine
 10
680.9573728545428
 20
1104.866552599397
 30
0.0
 11
680.9571863619829
 21
1104.866739091957
 31
0.0
  0
ARC
  5
221
330
20
100
AcDbEntity
  8
STEMPEL
100
AcDbCircle
 10
748.6115505742173
 20
989.3804469768763
 30
0.0
 40
18.0
100
AcDbArc
 50
280.2280559680515
 51
315.0000000000001
  0
ARC
  5
222
330
20
100
AcDbEntity
  8
STEMPEL
100
AcDbCircle
 10
753.5834167508719
 20
961.8254012189497
 30
0.0
 40
10.0
100
AcDbArc
 50
100.2280559680516
 51
134.9999999999999
  0
LINE
  5
223
330
20
100
AcDbEntity
  8
STEMPEL
100
AcDbLine
 10
809.2740471428241
 20
1022.807389722778
 30
0.0
 11
706.3780677331583
 21
1125.703369132444
 31
0.0
  0
ARC
  5
224
330
20
100
AcDbEntity
  8
STEMPEL
100
AcDbCircle
 10
783.6354549513003
 20
973.4926631085278
 30
0.0
 40
18.0
100
AcDbArc
 50
109.9928416634573
 51
135.0
  0
LINE
  5
225
330
20
100
AcDbEntity
  8
STEMPEL
100
AcDbLine
 10
770.9075328899423
 20
986.2205851698856
 30
0.0
 11
761.3394726355754
 21
976.6525249155188
 31
0.0
  0
ARC
  5
226
330
20
100
AcDbEntity
  8
STEMPEL
100
AcDbCircle
 10
715.6808121721703
 20
1097.163958030952
 30
0.0
 40
30.0
100
AcDbArc
 50
110.0000000000059
 51
135.0
  0
LINE
  5
227
330
20
100
AcDbEntity
  8
STEMPEL
100
AcDbLine
 10
706.3780677331583
 20
1125.703369132444
 30
0.0
 11
705.4202078724006
 21
1125.35473665453
 31
0.0
  0
LINE
  5
228
330
20
100
AcDbEntity
  8
STEMPEL
100
AcDbLine
 10
801.9478394769292
 20
1010.896930726193
 30
0.0
 11
788.437417102338
 21
997.3865083516026
 31
0.0
  0
ARC
  5
229
330
20
100
AcDbEntity
  8
STEMPEL
100
AcDbCircle
 10
767.2242136667414
 20
1018.599711787199
 30
0.0
 40
29.99973625969209
100
AcDbArc
 50
289.9928416634573
 51
314.9999999999999
  0
LINE
  5
22A
330
20
100
AcDbEntity
  8
STEMPEL
100
AcDbLine
 10
788.4372306097779
 20
997.3866948441628
 30
0.0
 11
788.437417102338
 21
997.3865083516026
 31
0.0
  0
LINE
  5
22B
330
20
100
AcDbEntity
  8
STEMPEL
100
AcDbLine
 10
809.2740471428241
 20
1022.807389722778
 30
0.0
 11
808.92541466491
 21
1021.84952986202
 31
0.0
  0
ARC
  5
22C
330
20
100
AcDbEntity
  8
STEMPEL
100
AcDbCircle
 10
780.7346360413325
 20
1032.11013416179
 30
0.0
 40
30.0
100
AcDbArc
 50
314.9999999999999
 51
339.9999999999908
  0
LINE
  5
22E
330
20
100
AcDbEntity
  8
MITTEL
100
AcDbLine
 10
619.9686263376106
 20
946.3979483272305
 30
0.0
 11
619.9686263376106
 21
926.3979483272306
 31
0.0
  0
DIMENSION
  5
230
330
20
100
AcDbEntity
  8
BEM
100
AcDbDimension
  2
*D5
 10
832.3595219418857
 20
999.7219149237212
 30
0.0
 11
683.6903211974302
 21
874.0336845677994
 31
0.0
 70
    32
 71
     5
 42
387.9999999999922
  3
Standard
100
AcDbAlignedDimension
 13
483.4686263376106
 23
799.8979483272306
 33
0.0
 14
809.2740471428241
 24
1022.807389722778
 34
0.0
 50
45.00000000000603
100
AcDbRotatedDimension
1001
ACAD
1000
DSTYLE
1002
{
1070
    40
1040
5.0
1070
    41
1040
3.5
1070
    42
1040
1.0
1070
    43
1040
7.0
1070
    44
1040
1.0
1070
    47
1040
3.0
1070
    48
1040
3.0
1070
    73
1070
     0
1070
    74
1070
     0
1070
    77
1070
     1
1070
    78
1070
     8
1070
    79
1070
     2
1070
   140
1040
3.5
1070
   141
1040
1.5
1070
   146
1040
0.5
1070
   147
1040
1.5
1070
   172
1070
     1
1070
   178
1070
     1
1070
   179
1070
     2
1070
   271
1070
     2
1070
   272
1070
     2
1070
   284
1070
     8
1070
   285
1070
     8
1070
   286
1070
     8
1070
   340
1005
34
1002
}
  0
POINT
  5
23C
330
20
100
AcDbEntity
  8
DEFPOINTS
  6
ByBlock
 62
     0
100
AcDbPoint
 10
619.9686263376106
 20
1134.89794832723
 30
0.0
  0
POINT
  5
23D
330
20
100
AcDbEntity
  8
DEFPOINTS
  6
ByBlock
 62
     0
100
AcDbPoint
 10
809.2740471428241
 20
1022.807389722778
 30
0.0
  0
TEXT
  5
240
330
20
100
AcDbEntity
  8
TEXT
 62
     1
100
AcDbText
 10
476.7932792459023
 20
956.3171311602612
 30
0.0
 40
17.5
  1
DN250
 50
90.0
 41
0.8
  7
GREEKS
100
AcDbText
  0
TEXT
  5
241
330
20
100
AcDbEntity
  8
TEXT
 62
     1
100
AcDbText
 10
643.2193848806453
 20
970.2542523327815
 30
0.0
 40
17.5
  1
DN125
 50
45.0
 41
0.8
  7
GREEKS
100
AcDbText
  0
LINE
  5
293
330
20
100
AcDbEntity
  8
STEMPEL
100
AcDbLine
 10
1025.0
 20
275.0000000000001
 30
0.0
 11
100.0
 21
275.0
 31
0.0
  0
LINE
  5
294
330
20
100
AcDbEntity
  8
STEMPEL
100
AcDbLine
 10
340.0000000000002
 20
274.9999999999999
 30
0.0
 11
340.0
 21
25.0
 31
0.0
  0
LINE
  5
295
330
20
100
AcDbEntity
  8
STEMPEL
100
AcDbLine
 10
550.0
 20
275.0000000000001
 30
0.0
 11
550.0
 21
25.0
 31
0.0
  0
LINE
  5
296
330
20
100
AcDbEntity
  8
STEMPEL
100
AcDbLine
 10
830.0
 20
274.9999999999994
 30
0.0
 11
830.0
 21
100.0
 31
0.0
  0
LINE
  5
297
330
20
100
AcDbEntity
  8
STEMPEL
100
AcDbLine
 10
339.9999999999998
 20
75.0
 30
0.0
 11
100.0
 21
75.0
 31
0.0
  0
LINE
  5
298
330
20
100
AcDbEntity
  8
STEMPEL
100
AcDbLine
 10
1025.0
 20
100.0
 30
0.0
 11
340.0000000000002
 21
100.0
 31
0.0
  0
LINE
  5
299
330
20
100
AcDbEntity
  8
STEMPEL
100
AcDbLine
 10
1025.0
 20
200.0
 30
0.0
 11
340.0000000000002
 21
200.0
 31
0.0
  0
LINE
  5
29A
330
20
100
AcDbEntity
  8
VOLL
100
AcDbLine
 10
135.0000000000002
 20
275.0000000000001
 30
0.0
 11
135.0
 21
25.0
 31
0.0
  0
LINE
  5
29B
330
20
100
AcDbEntity
  8
VOLL
100
AcDbLine
 10
235.0000000000002
 20
274.9999999999999
 30
0.0
 11
235.0
 21
25.0
 31
0.0
  0
LINE
  5
29C
330
20
100
AcDbEntity
  8
VOLL
100
AcDbLine
 10
285.0000000000002
 20
274.9999999999999
 30
0.0
 11
285.0
 21
25.0
 31
0.0
  0
LINE
  5
29D
330
20
100
AcDbEntity
  8
VOLL
100
AcDbLine
 10
385.0000000000002
 20
200.0
 30
0.0
 11
385.0000000000002
 21
100.0
 31
0.0
  0
LINE
  5
29E
330
20
100
AcDbEntity
  8
VOLL
100
AcDbLine
 10
450.0000000000002
 20
274.9999999999996
 30
0.0
 11
450.0
 21
100.0
 31
0.0
  0
LINE
  5
29F
330
20
100
AcDbEntity
  8
HILF
100
AcDbLine
 10
100.0000000000002
 20
250.0000000000001
 30
0.0
 11
340.0000000000002
 21
250.0000000000001
 31
0.0
  0
LINE
  5
2A0
330
20
100
AcDbEntity
  8
HILF
100
AcDbLine
 10
100.0000000000002
 20
225.0
 30
0.0
 11
340.0000000000002
 21
225.0
 31
0.0
  0
LINE
  5
2A1
330
20
100
AcDbEntity
  8
HILF
100
AcDbLine
 10
100.0000000000002
 20
200.0
 30
0.0
 11
340.0000000000002
 21
200.0
 31
0.0
  0
LINE
  5
2A2
330
20
100
AcDbEntity
  8
HILF
100
AcDbLine
 10
100.0000000000002
 20
175.0
 30
0.0
 11
340.0000000000002
 21
175.0
 31
0.0
  0
LINE
  5
2A3
330
20
100
AcDbEntity
  8
HILF
100
AcDbLine
 10
100.0000000000002
 20
150.0
 30
0.0
 11
340.0000000000002
 21
150.0
 31
0.0
  0
LINE
  5
2A4
330
20
100
AcDbEntity
  8
HILF
100
AcDbLine
 10
100.0000000000002
 20
125.0
 30
0.0
 11
340.0000000000002
 21
125.0
 31
0.0
  0
LINE
  5
2A5
330
20
100
AcDbEntity
  8
HILF
100
AcDbLine
 10
100.0000000000002
 20
100.0
 30
0.0
 11
340.0000000000002
 21
100.0
 31
0.0
  0
LINE
  5
2A6
330
20
100
AcDbEntity
  8
HILF
100
AcDbLine
 10
340.0000000000002
 20
175.0
 30
0.0
 11
550.0
 21
175.0
 31
0.0
  0
LINE
  5
2A7
330
20
100
AcDbEntity
  8
HILF
100
AcDbLine
 10
340.0000000000002
 20
150.0
 30
0.0
 11
550.0
 21
150.0
 31
0.0
  0
LINE
  5
2A8
330
20
100
AcDbEntity
  8
HILF
100
AcDbLine
 10
340.0000000000002
 20
125.0
 30
0.0
 11
550.0
 21
125.0
 31
0.0
  0
LINE
  5
2A9
330
20
100
AcDbEntity
  8
HILF
100
AcDbLine
 10
561.9342002742369
 20
210.0939561891034
 30
0.0
 11
812.0884791390777
 21
210.0939561891034
 31
0.0
  0
LINE
  5
2AA
330
20
100
AcDbEntity
  8
HILF
100
AcDbLine
 10
561.9342002742369
 20
175.0
 30
0.0
 11
812.0884791390775
 21
175.0
 31
0.0
  0
LINE
  5
2AB
330
20
100
AcDbEntity
  8
HILF
100
AcDbLine
 10
561.9342002742369
 20
150.0
 30
0.0
 11
812.0884791390775
 21
150.0
 31
0.0
  0
LINE
  5
2AC
330
20
100
AcDbEntity
  8
HILF
100
AcDbLine
 10
561.9342002742369
 20
125.0
 30
0.0
 11
812.0884791390775
 21
125.0
 31
0.0
  0
LINE
  5
2AD
330
20
100
AcDbEntity
  8
VOLL
100
AcDbLine
 10
830.0
 20
150.0
 30
0.0
 11
1025.0
 21
150.0
 31
0.0
  0
LINE
  5
2AE
330
20
100
AcDbEntity
  8
HILF
100
AcDbLine
 10
841.809654074248
 20
209.4495909238958
 30
0.0
 11
1012.147209831682
 21
209.4495909238958
 31
0.0
  0
LINE
  5
2AF
330
20
100
AcDbEntity
  8
HILF
100
AcDbLine
 10
558.7274248224712
 20
37.23495645070784
 30
0.0
 11
1012.147209831682
 21
37.23495645070784
 31
0.0
  0
TEXT
  5
2B0
330
20
100
AcDbEntity
  8
TEXT
100
AcDbText
 10
159.6541494907954
 20
46.68454737460343
 30
0.0
 40
10.0
  1
Änderung
 41
0.8
  7
GREEKS
 72
     1
 11
186.5112923479382
 21
46.68454737460343
 31
0.0
100
AcDbText
  0
TEXT
  5
2B1
330
20
100
AcDbEntity
  8
TEXT
100
AcDbText
 10
358.7908930375943
 20
256.1552237717722
 30
0.0
 40
12.5
  1
Maßstab
 41
0.8
  7
GREEKS
100
AcDbText
  0
TEXT
  5
2B2
330
20
100
AcDbEntity
  8
TEXT
100
AcDbText
 10
460.7147386835129
 20
256.0460421087048
 30
0.0
 40
12.5
  1
Zul. Abw.
 41
0.8
  7
GREEKS
100
AcDbText
  0
TEXT
  5
2B3
330
20
100
AcDbEntity
  8
TEXT
100
AcDbText
 10
562.1948509522526
 20
256.3723320029449
 30
0.0
 40
12.5
  1
Benennung
 41
0.8
  7
GREEKS
100
AcDbText
  0
TEXT
  5
2B4
330
20
100
AcDbEntity
  8
TEXT
100
AcDbText
 10
840.4468873940849
 20
255.7830086342841
 30
0.0
 40
12.5
  1
Zeichnungs Nr.
 41
0.8
  7
GREEKS
100
AcDbText
  0
TEXT
  5
2B5
330
20
100
AcDbEntity
  8
TEXT
100
AcDbText
 10
561.85559597784
 20
77.11401425482654
 30
0.0
 40
12.5
  1
Bauvorhaben
 41
0.8
  7
GREEKS
100
AcDbText
  0
TEXT
  5
2B6
330
20
100
AcDbEntity
  8
TEXT
100
AcDbText
 10
841.809654074248
 20
182.9529559274993
 30
0.0
 40
12.5
  1
Ersatz für:
 41
0.8
  7
GREEKS
100
AcDbText
  0
TEXT
  5
2B7
330
20
100
AcDbEntity
  8
TEXT
100
AcDbText
 10
120.6660276761438
 20
34.13664615067978
 30
0.0
 40
10.0
  1
Index
 50
90.0
 41
0.8
  7
GREEKS
100
AcDbText
  0
TEXT
  5
2B8
330
20
100
AcDbEntity
  8
TEXT
100
AcDbText
 10
250.2336690188703
 20
46.67890673349529
 30
0.0
 40
10.0
  1
Tag
 41
0.8
  7
GREEKS
 72
     1
 11
259.5670023522036
 21
46.67890673349529
 31
0.0
100
AcDbText
  0
TEXT
  5
2B9
330
20
100
AcDbEntity
  8
TEXT
100
AcDbText
 10
297.5306860966483
 20
46.48310542416015
 30
0.0
 40
10.0
  1
Name
 41
0.8
  7
GREEKS
 72
     1
 11
313.340209906172
 21
46.48310542416015
 31
0.0
100
AcDbText
  0
TEXT
  5
2BA
330
20
100
AcDbEntity
  8
TEXT
100
AcDbText
 10
405.8279182884125
 20
183.2970125307481
 30
0.0
 40
10.0
  1
Tag
 41
0.8
  7
GREEKS
100
AcDbText
  0
TEXT
  5
2BB
330
20
100
AcDbEntity
  8
TEXT
100
AcDbText
 10
481.1566460565736
 20
183.2740272978806
 30
0.0
 40
10.0
  1
Name
 41
0.8
  7
GREEKS
100
AcDbText
  0
TEXT
  5
2BC
330
20
100
AcDbEntity
  8
TEXT
100
AcDbText
 10
343.9590317919037
 20
159.0747592404491
 30
0.0
 40
10.0
  1
Gez.
 41
0.8
  7
GREEKS
100
AcDbText
  0
TEXT
  5
2BD
330
20
100
AcDbEntity
  8
TEXT
100
AcDbText
 10
343.8787716429181
 20
134.2231572857095
 30
0.0
 40
10.0
  1
Gepr.
 41
0.8
  7
GREEKS
100
AcDbText
  0
TEXT
  5
2BE
330
20
100
AcDbEntity
  8
TEXT
100
AcDbText
 10
344.0016943468259
 20
108.8236597412451
 30
0.0
 40
10.0
  1
Norm.
 41
0.8
  7
GREEKS
100
AcDbText
  0
LINE
  5
2BF
330
20
100
AcDbEntity
  8
STEMPEL
100
AcDbLine
 10
124.9999999999998
 20
25.0
 30
0.0
 11
1025.0
 21
25.0
 31
0.0
  0
TEXT
  5
2C0
330
20
100
AcDbEntity
  8
TEXT
100
AcDbText
 10
843.1002153742515
 20
130.1854044469651
 30
0.0
 40
12.5
  1
ersetzt durch:
 41
0.8
  7
GREEKS
100
AcDbText
  0
LINE
  5
2C1
330
20
100
AcDbEntity
  8
STEMPEL
100
AcDbLine
 10
1025.0
 20
25.0
 30
0.0
 11
99.99999999999978
 21
25.0
 31
0.0
  0
LINE
  5
2C2
330
20
100
AcDbEntity
  8
STEMPEL
100
AcDbLine
 10
1025.0
 20
25.0
 30
0.0
 11
1025.0
 21
1460.0
 31
0.0
  0
LINE
  5
2C3
330
20
100
AcDbEntity
  8
STEMPEL
100
AcDbLine
 10
100.0
 20
25.0
 30
0.0
 11
99.99999999999978
 21
1460.0
 31
0.0
  0
LINE
  5
2C4
330
20
100
AcDbEntity
  8
STEMPEL
100
AcDbLine
 10
1025.0
 20
1460.0
 30
0.0
 11
99.99999999999978
 21
1460.0
 31
0.0
  0
LINE
  5
2C5
330
20
100
AcDbEntity
  8
HILF
100
AcDbLine
 10
0.0
 20
0.0
 30
0.0
 11
-0.0000000000002274
 21
1485.0
 31
0.0
  0
LINE
  5
2C6
330
20
100
AcDbEntity
  8
HILF
100
AcDbLine
 10
1050.0
 20
1485.0
 30
0.0
 11
0.0
 21
1485.0
 31
0.0
  0
LINE
  5
2C7
330
20
100
AcDbEntity
  8
HILF
100
AcDbLine
 10
1050.0
 20
0.0
 30
0.0
 11
0.0
 21
0.0
 31
0.0
  0
LINE
  5
2C8
330
20
100
AcDbEntity
  8
HILF
100
AcDbLine
 10
77.71917839284651
 20
742.4999999999999
 30
0.0
 11
0.0000000000002274
 21
742.4999999999999
 31
0.0
  0
TEXT
  5
2C9
330
20
100
AcDbEntity
  8
TEXT
100
AcDbText
 10
346.55527455526
 20
182.8506367787918
 30
0.0
 40
10.0
  1
2011
 41
0.8
  7
GREEKS
100
AcDbText
  0
LINE
  5
2CA
330
20
100
AcDbEntity
  8
HILF
100
AcDbLine
 10
1050.0
 20
-0.0000000000002274
 30
0.0
 11
1050.0
 21
1485.0
 31
0.0
  0
TEXT
  5
2CB
330
20
100
AcDbEntity
  8
VOLL
100
AcDbText
 10
1619.000889551284
 20
186.0059767478545
 30
0.0
 40
9.0
  1

  7
GREEKS
100
AcDbText
  0
TEXT
  5
2CC
330
20
100
AcDbEntity
  8
TEXT
100
AcDbText
 10
104.6377487744419
 20
279.1799999999998
 30
0.0
 40
12.5
  1
Erstellt mit AUTOCAD 2004
 41
0.8
  7
GREEKS
100
AcDbText
  0
TEXT
  5
2CD
330
20
100
AcDbEntity
  8
TEXT
100
AcDbText
 10
486.0540121453142
 20
157.7240979930877
 30
0.0
 40
10.0
  1
Koeh
 41
0.8
  7
GREEKS
 72
     1
 11
499.1968692881714
 21
157.7240979930877
 31
0.0
100
AcDbText
  0
TEXT
  5
2CE
330
20
100
AcDbEntity
  8
TEXT
 62
     1
100
AcDbText
 10
863.752706969886
 20
220.3725357228491
 30
0.0
 40
17.5
  1
02260HE0W
 41
0.8
  7
GREEKS
 72
     1
 11
924.0860403032193
 21
220.3725357228491
 31
0.0
100
AcDbText
  0
TEXT
  5
2CF
330
20
100
AcDbEntity
  8
TEXT
 62
     1
100
AcDbText
 10
376.2515766204717
 20
220.3725357228491
 30
0.0
 40
17.5
  1
1:5
 41
0.8
  7
GREEKS
100
AcDbText
  0
TEXT
  5
2D0
330
20
100
AcDbEntity
  8
TEXT
100
AcDbText
 10
400.9974927705902
 20
157.7691260206434
 30
0.0
 40
10.0
  1
05.04.
 41
0.8
  7
GREEKS
 72
     1
 11
418.5213022943996
 21
157.7691260206434
 31
0.0
100
AcDbText
  0
TEXT
  5
2D1
330
20
100
AcDbEntity
  8
TEXT
 62
     1
100
AcDbText
 10
561.6203066222952
 20
218.5437197313445
 30
0.0
 40
17.5
  1
Abzweig 45° DN250/125
 41
0.7800000000000001
  7
GREEKS
100
AcDbText
  0
TEXT
  5
2D2
330
20
100
AcDbEntity
  8
TEXT
100
AcDbText
 10
562.8240977813288
 20
178.7583604396322
 30
0.0
 40
12.5
  1
Muffenlos / Muffe
 41
0.8
  7
GREEKS
100
AcDbText
  0
TEXT
  5
2D4
330
20
100
AcDbEntity
  8
TEXT
100
AcDbText
 10
562.8240977813288
 20
129.100298576054
 30
0.0
 40
12.5
  1
EDV-Art.Nr. 02260.HE0X
 41
0.8
  7
GREEKS
100
AcDbText
  0
TEXT
  5
2D5
330
20
100
AcDbEntity
  8
TEXT
100
AcDbText
 10
562.4593753944568
 20
106.5743538255658
 30
0.0
 40
10.0
  1
02260HE0W.DWG
 41
0.8
  7
GREEKS
100
AcDbText
  0
TEXT
  5
2D6
330
20
100
AcDbEntity
  8
TEXT
100
AcDbText
 10
456.5653305202101
 20
226.9090960255756
 30
0.0
 40
10.0
  1
DIN EN1123-2
 41
0.8
  7
GREEKS
 72
     1
 11
499.0415209964005
 21
226.9090960255756
 31
0.0
100
AcDbText
  0
INSERT
  5
2D7
330
20
100
AcDbEntity
  8
STEMPEL
100
AcDbBlockReference
  2
LOGO
 10
352.4888713644486
 20
112.552631911208
 30
0.0
 41
5.0
 42
5.0
 43
5.0
  0
TEXT
  5
2D8
330
20
100
AcDbEntity
  8
BEM
100
AcDbText
 10
1043.255730964292
 20
25.41975269997124
 30
0.0
 40
10.0
  1
Diese Zeichnung ist urheberrechtlich geschützt und bleibt unser Eigentum. Sie darf weder ganz noch teilweise verfielfältigt und nicht an Dritte weitergegeben werden.
 50
90.0
 41
0.8
  7
GREEKS
100
AcDbText
  0
DIMENSION
  5
4F0
102
{ACAD_XDICTIONARY
360
4FF
102
}
102
{ACAD_REACTORS
330
50B
102
}
330
20
100
AcDbEntity
  8
BEM
100
AcDbDimension
  2
*D14
 10
571.268795026283
 20
887.6981170159028
 30
0.0
 11
661.0217039737082
 21
1228.54899639738
 31
0.0
 70
    34
 71
     5
 42
0.7853981633974483
  3
Standard
100
AcDb2LineAngularDimension
 13
483.4686263376106
 23
1144.89794832723
 33
0.0
 14
483.4686263376106
 24
744.8979483272305
 34
0.0
 15
764.8971252498563
 25
1081.326447239476
 35
0.0
 16
707.3279018767558
 26
1187.633587306591
 36
0.0
1001
ACAD
1000
DSTYLE
1002
{
1070
    40
1040
5.0
1070
    41
1040
3.5
1070
    42
1040
1.0
1070
    43
1040
7.0
1070
    44
1040
1.0
1070
    47
1040
3.0
1070
    48
1040
3.0
1070
    73
1070
     0
1070
    74
1070
     0
1070
    77
1070
     1
1070
    78
1070
     8
1070
    79
1070
     2
1070
   140
1040
3.5
1070
   141
1040
1.5
1070
   146
1040
0.5
1070
   147
1040
1.5
1070
   172
1070
     1
1070
   178
1070
     1
1070
   179
1070
     2
1070
   271
1070
     2
1070
   272
1070
     2
1070
   284
1070
     8
1070
   285
1070
     8
1070
   286
1070
     8
1070
   340
1005
34
1002
}
  0
ENDSEC
  0
SECTION
  2
OBJECTS
  0
DICTIONARY
  5
C
330
0
100
AcDbDictionary
281
     1
  3
ACAD_COLOR
350
1B
  3
ACAD_GROUP
350
D
  3
ACAD_LAYOUT
350
19
  3
ACAD_MATERIAL
350
1A
  3
ACAD_MLINESTYLE
350
16
  3
ACAD_PLOTSETTINGS
350
18
  3
ACAD_PLOTSTYLENAME
350
E
  3
AcDbVariableDictionary
350
516
  0
DICTIONARY
  5
4FF
330
4F0
100
AcDbDictionary
280
     1
281
     1
  3
ACAD_DIMASSOC
360
50B
  0
DICTIONARY
  5
1B
102
{ACAD_REACTORS
330
C
102
}
330
C
100
AcDbDictionary
281
     1
  0
DICTIONARY
  5
D
102
{ACAD_REACTORS
330
C
102
}
330
C
100
AcDbDictionary
281
     1
  0
DICTIONARY
  5
19
102
{ACAD_REACTORS
330
C
102
}
330
C
100
AcDbDictionary
281
     1
  3
Layout1
350
1F
  3
Model
350
23
  0
DICTIONARY
  5
1A
102
{ACAD_REACTORS
330
C
102
}
330
C
100
AcDbDictionary
281
     1
  0
DICTIONARY
  5
16
102
{ACAD_REACTORS
330
C
102
}
330
C
100
AcDbDictionary
281
     1
  3
Standard
350
17
  0
DICTIONARY
  5
18
102
{ACAD_REACTORS
330
C
102
}
330
C
100
AcDbDictionary
281
     1
  0
ACDBDICTIONARYWDFLT
  5
E
102
{ACAD_REACTORS
330
C
102
}
330
C
100
AcDbDictionary
281
     1
  3
Normal
350
F
100
AcDbDictionaryWithDefault
340
F
  0
DICTIONARY
  5
516
102
{ACAD_REACTORS
330
C
102
}
330
C
100
AcDbDictionary
281
     1
  3
DIMASSOC
350
518
  3
HIDETEXT
350
517
  3
PROJECTNAME
350
519
  0
DIMASSOC
  5
50B
102
{ACAD_REACTORS
330
4FF
102
}
330
4FF
100
AcDbDimAssoc
330
4F0
 90
       15
 70
     0
 71
     0
  1
AcDbOsnapPointRef
 72
    13
331
1B2
 73
     2
 91
        0
 40
0.0
 10
0.0
 20
0.0
 30
2.000000000000000E+50
 75
     0
  1
AcDbOsnapPointRef
 72
     1
331
1B2
 73
     2
 91
        0
 40
1.0
 10
0.0
 20
0.0
 30
2.000000000000000E+50
 75
     0
  1
AcDbOsnapPointRef
 72
    13
331
1FC
 73
     2
 91
        0
 40
0.0
 10
0.0
 20
0.0
 30
2.000000000000000E+50
 75
     0
  1
AcDbOsnapPointRef
 72
     1
331
1FC
 73
     2
 91
        0
 40
1.0
 10
0.0
 20
0.0
 30
2.000000000000000E+50
 75
     0
  0
LAYOUT
  5
1F
102
{ACAD_REACTORS
330
19
102
}
330
19
100
AcDbPlotSettings
  1

  2
RICOH Aficio 2027 PCL 6
  4

  6

 40
0.0
 41
0.0
 42
0.0
 43
0.0
 44
0.0
 45
0.0
 46
0.0
 47
0.0
 48
0.0
 49
0.0
140
0.0
141
0.0
142
1.0
143
1.0
 70
   688
 72
     0
 73
     0
 74
     5
  7
monochrome1.ctb
 75
    16
147
1.0
 76
     0
 77
     2
 78
   300
148
0.0
149
0.0
100
AcDbLayout
  1
Layout1
 70
     0
 71
     1
 10
0.0
 20
0.0
 11
12.0
 21
9.0
 12
5.612851412409735
 22
50.00000000000001
 32
-2.58105543498411
 14
1.000000000000000E+20
 24
1.000000000000000E+20
 34
1.000000000000000E+20
 15
-1.000000000000000E+20
 25
-1.000000000000000E+20
 35
-1.000000000000000E+20
146
0.0
 13
0.0
 23
0.0
 33
0.0
 16
1.0
 26
0.0
 36
0.0
 17
0.0
 27
1.0
 37
0.0
 76
     0
330
1C
  0
LAYOUT
  5
23
102
{ACAD_REACTORS
330
19
102
}
330
19
100
AcDbPlotSettings
  1

  2
RICOH Aficio 2027 PCL 6
  4
A4
  6

 40
5.027083396911621
 41
5.027085304260253
 42
5.027084350585937
 43
5.027069091796875
 44
209.9733276367187
 45
296.9259948730469
 46
0.0
 47
0.0
 48
0.0
 49
0.0
140
0.0
141
0.0
142
1.0
143
1.0
 70
 11952
 72
     0
 73
     1
 74
     0
  7
monochrome1.ctb
 75
     0
147
1.0
 76
     0
 77
     2
 78
   300
148
5764.451962287249
149
239.9519108347362
100
AcDbLayout
  1
Model
 70
     1
 71
     0
 10
0.0
 20
0.0
 11
12.0
 21
9.0
 12
0.0
 22
0.0
 32
0.0
 14
0.0
 24
0.0
 34
0.0
 15
0.0
 25
0.0
 35
0.0
146
0.0
 13
0.0
 23
0.0
 33
0.0
 16
1.0
 26
0.0
 36
0.0
 17
0.0
 27
1.0
 37
0.0
 76
     0
330
20
  0
MLINESTYLE
  5
17
102
{ACAD_REACTORS
330
16
102
}
330
16
100
AcDbMlineStyle
  2
STANDARD
 70
     0
  3

 62
   256
 51
90.0
 52
90.0
 71
     2
 49
0.5
 62
   256
  6
BYLAYER
 49
-0.5
 62
   256
  6
BYLAYER
  0
ACDBPLACEHOLDER
  5
F
102
{ACAD_REACTORS
330
E
102
}
330
E
  0
DICTIONARYVAR
  5
518
102
{ACAD_REACTORS
330
516
102
}
330
516
100
DictionaryVariables
280
     0
  1
2
  0
DICTIONARYVAR
  5
517
102
{ACAD_REACTORS
330
516
102
}
330
516
100
DictionaryVariables
280
     0
  1
1
  0
DICTIONARYVAR
  5
519
102
{ACAD_REACTORS
330
516
102
}
330
516
100
DictionaryVariables
280
     0
  1

  0
ENDSEC
  0
EOF
