  0
SECTION
  2
HEADER
  9
$ACADVER
  1
AC1018
  9
$ACADMAINTVER
 70
     2
  9
$DWGCODEPAGE
  3
ANSI_1252
  9
$INSBASE
 10
0.0
 20
0.0
 30
0.0
  9
$EXTMIN
 10
-0.032025120463004
 20
-0.0452926703683261
 30
-0.0000000000000053
  9
$EXTMAX
 10
1050.032053236514
 20
1485.0453324345
 30
0.0000000000000099
  9
$LIMMIN
 10
0.0
 20
0.0
  9
$LIMMAX
 10
1050.0
 20
1485.0
  9
$ORTHOMODE
 70
     1
  9
$REGENMODE
 70
     1
  9
$FILLMODE
 70
     1
  9
$QTEXTMODE
 70
     0
  9
$MIRRTEXT
 70
     1
  9
$LTSCALE
 40
50.0
  9
$ATTMODE
 70
     1
  9
$TEXTSIZE
 40
2.5
  9
$TRACEWID
 40
0.5
  9
$TEXTSTYLE
  7
GREEKS
  9
$CLAYER
  8
BEM
  9
$CELTYPE
  6
ByLayer
  9
$CECOLOR
 62
   256
  9
$CELTSCALE
 40
1.0
  9
$DISPSILH
 70
     0
  9
$DIMSCALE
 40
5.0
  9
$DIMASZ
 40
3.5
  9
$DIMEXO
 40
1.0
  9
$DIMDLI
 40
7.0
  9
$DIMRND
 40
0.0
  9
$DIMDLE
 40
0.0
  9
$DIMEXE
 40
1.0
  9
$DIMTP
 40
6.0
  9
$DIMTM
 40
6.0
  9
$DIMTXT
 40
3.5
  9
$DIMCEN
 40
1.5
  9
$DIMTSZ
 40
0.0
  9
$DIMTOL
 70
     0
  9
$DIMLIM
 70
     0
  9
$DIMTIH
 70
     0
  9
$DIMTOH
 70
     0
  9
$DIMSE1
 70
     0
  9
$DIMSE2
 70
     0
  9
$DIMTAD
 70
     1
  9
$DIMZIN
 70
     8
  9
$DIMBLK
  1

  9
$DIMASO
 70
     1
  9
$DIMSHO
 70
     0
  9
$DIMPOST
  1

  9
$DIMAPOST
  1

  9
$DIMALT
 70
     0
  9
$DIMALTD
 70
     2
  9
$DIMALTF
 40
25.4
  9
$DIMLFAC
 40
1.0
  9
$DIMTOFL
 70
     1
  9
$DIMTVP
 40
0.0
  9
$DIMTIX
 70
     0
  9
$DIMSOXD
 70
     0
  9
$DIMSAH
 70
     0
  9
$DIMBLK1
  1

  9
$DIMBLK2
  1

  9
$DIMSTYLE
  2
Standard
  9
$DIMCLRD
 70
     0
  9
$DIMCLRE
 70
     0
  9
$DIMCLRT
 70
     1
  9
$DIMTFAC
 40
0.5
  9
$DIMGAP
 40
1.5
  9
$DIMJUST
 70
     0
  9
$DIMSD1
 70
     0
  9
$DIMSD2
 70
     0
  9
$DIMTOLJ
 70
     1
  9
$DIMTZIN
 70
     8
  9
$DIMALTZ
 70
     8
  9
$DIMALTTZ
 70
     8
  9
$DIMUPT
 70
     0
  9
$DIMDEC
 70
     2
  9
$DIMTDEC
 70
     2
  9
$DIMALTU
 70
     2
  9
$DIMALTTD
 70
     2
  9
$DIMTXSTY
  7
GREEKS
  9
$DIMAUNIT
 70
     0
  9
$DIMADEC
 70
     2
  9
$DIMALTRND
 40
0.0
  9
$DIMAZIN
 70
     2
  9
$DIMDSEP
 70
    46
  9
$DIMATFIT
 70
     3
  9
$DIMFRAC
 70
     0
  9
$DIMLDRBLK
  1

  9
$DIMLUNIT
 70
     2
  9
$DIMLWD
 70
    -2
  9
$DIMLWE
 70
    -2
  9
$DIMTMOVE
 70
     0
  9
$LUNITS
 70
     2
  9
$LUPREC
 70
     2
  9
$SKETCHINC
 40
1.0
  9
$FILLETRAD
 40
0.0
  9
$AUNITS
 70
     0
  9
$AUPREC
 70
     0
  9
$MENU
  1
ACAD
  9
$ELEVATION
 40
0.0
  9
$PELEVATION
 40
0.0
  9
$THICKNESS
 40
0.0
  9
$LIMCHECK
 70
     0
  9
$CHAMFERA
 40
0.0
  9
$CHAMFERB
 40
0.0
  9
$CHAMFERC
 40
0.0
  9
$CHAMFERD
 40
0.0
  9
$SKPOLY
 70
     0
  9
$TDCREATE
 40
2452215.149101042
  9
$TDUCREATE
 40
2452215.065767708
  9
$TDUPDATE
 40
2455657.548826447
  9
$TDUUPDATE
 40
2455657.465493113
  9
$TDINDWG
 40
0.0206187037
  9
$TDUSRTIMER
 40
0.0206187037
  9
$USRTIMER
 70
     1
  9
$ANGBASE
 50
0.0
  9
$ANGDIR
 70
     0
  9
$PDMODE
 70
     0
  9
$PDSIZE
 40
0.0
  9
$PLINEWID
 40
0.0
  9
$SPLFRAME
 70
     0
  9
$SPLINETYPE
 70
     6
  9
$SPLINESEGS
 70
     8
  9
$HANDSEED
  5
374
  9
$SURFTAB1
 70
     6
  9
$SURFTAB2
 70
     6
  9
$SURFTYPE
 70
     6
  9
$SURFU
 70
     6
  9
$SURFV
 70
     6
  9
$UCSBASE
  2

  9
$UCSNAME
  2

  9
$UCSORG
 10
0.0
 20
0.0
 30
0.0
  9
$UCSXDIR
 10
1.0
 20
0.0
 30
0.0
  9
$UCSYDIR
 10
0.0
 20
1.0
 30
0.0
  9
$UCSORTHOREF
  2

  9
$UCSORTHOVIEW
 70
     0
  9
$UCSORGTOP
 10
0.0
 20
0.0
 30
0.0
  9
$UCSORGBOTTOM
 10
0.0
 20
0.0
 30
0.0
  9
$UCSORGLEFT
 10
0.0
 20
0.0
 30
0.0
  9
$UCSORGRIGHT
 10
0.0
 20
0.0
 30
0.0
  9
$UCSORGFRONT
 10
0.0
 20
0.0
 30
0.0
  9
$UCSORGBACK
 10
0.0
 20
0.0
 30
0.0
  9
$PUCSBASE
  2

  9
$PUCSNAME
  2

  9
$PUCSORG
 10
0.0
 20
0.0
 30
0.0
  9
$PUCSXDIR
 10
1.0
 20
0.0
 30
0.0
  9
$PUCSYDIR
 10
0.0
 20
1.0
 30
0.0
  9
$PUCSORTHOREF
  2

  9
$PUCSORTHOVIEW
 70
     0
  9
$PUCSORGTOP
 10
0.0
 20
0.0
 30
0.0
  9
$PUCSORGBOTTOM
 10
0.0
 20
0.0
 30
0.0
  9
$PUCSORGLEFT
 10
0.0
 20
0.0
 30
0.0
  9
$PUCSORGRIGHT
 10
0.0
 20
0.0
 30
0.0
  9
$PUCSORGFRONT
 10
0.0
 20
0.0
 30
0.0
  9
$PUCSORGBACK
 10
0.0
 20
0.0
 30
0.0
  9
$USERI1
 70
     0
  9
$USERI2
 70
     0
  9
$USERI3
 70
     0
  9
$USERI4
 70
     0
  9
$USERI5
 70
     0
  9
$USERR1
 40
0.0
  9
$USERR2
 40
0.0
  9
$USERR3
 40
0.0
  9
$USERR4
 40
0.0
  9
$USERR5
 40
0.0
  9
$WORLDVIEW
 70
     1
  9
$SHADEDGE
 70
     3
  9
$SHADEDIF
 70
    70
  9
$TILEMODE
 70
     1
  9
$MAXACTVP
 70
    16
  9
$PINSBASE
 10
0.0
 20
0.0
 30
0.0
  9
$PLIMCHECK
 70
     0
  9
$PEXTMIN
 10
1.000000000000000E+20
 20
1.000000000000000E+20
 30
1.000000000000000E+20
  9
$PEXTMAX
 10
-1.000000000000000E+20
 20
-1.000000000000000E+20
 30
-1.000000000000000E+20
  9
$PLIMMIN
 10
0.0
 20
0.0
  9
$PLIMMAX
 10
12.0
 20
9.0
  9
$UNITMODE
 70
     0
  9
$VISRETAIN
 70
     0
  9
$PLINEGEN
 70
     0
  9
$PSLTSCALE
 70
     0
  9
$TREEDEPTH
 70
  3020
  9
$CMLSTYLE
  2
Standard
  9
$CMLJUST
 70
     0
  9
$CMLSCALE
 40
1.0
  9
$PROXYGRAPHICS
 70
     1
  9
$MEASUREMENT
 70
     0
  9
$CELWEIGHT
370
    -1
  9
$ENDCAPS
280
     0
  9
$JOINSTYLE
280
     0
  9
$LWDISPLAY
290
     0
  9
$INSUNITS
 70
     0
  9
$HYPERLINKBASE
  1

  9
$STYLESHEET
  1
monochrome 1.ctb
  9
$XEDIT
290
     1
  9
$CEPSNTYPE
380
     0
  9
$PSTYLEMODE
290
     1
  9
$FINGERPRINTGUID
  2
{B6EBC503-D97D-4DF2-B692-2FF4FC38C207}
  9
$VERSIONGUID
  2
{114ED9E2-F915-4B81-8A3C-50C2FD56D759}
  9
$EXTNAMES
290
     1
  9
$PSVPSCALE
 40
0.0
  9
$OLESTARTUP
290
     0
  9
$SORTENTS
280
   127
  9
$INDEXCTL
280
     0
  9
$HIDETEXT
280
     1
  9
$XCLIPFRAME
290
     0
  9
$HALOGAP
280
     0
  9
$OBSCOLOR
 70
   257
  9
$OBSLTYPE
280
     0
  9
$INTERSECTIONDISPLAY
280
     0
  9
$INTERSECTIONCOLOR
 70
   257
  9
$DIMASSOC
280
     2
  9
$PROJECTNAME
  1

  0
ENDSEC
  0
SECTION
  2
CLASSES
  0
CLASS
  1
ACDBDICTIONARYWDFLT
  2
AcDbDictionaryWithDefault
  3
ObjectDBX Classes
 90
        0
 91
        1
280
     0
281
     0
  0
CLASS
  1
DICTIONARYVAR
  2
AcDbDictionaryVar
  3
ObjectDBX Classes
 90
        0
 91
        3
280
     0
281
     0
  0
ENDSEC
  0
SECTION
  2
TABLES
  0
TABLE
  2
VPORT
  5
8
330
0
100
AcDbSymbolTable
 70
     3
  0
VPORT
  5
373
330
8
100
AcDbSymbolTableRecord
100
AcDbViewportTableRecord
  2
*Active
 70
     0
 10
0.0
 20
0.0
 11
1.0
 21
1.0
 12
524.9999999999998
 22
742.4999999999999
 13
0.0
 23
0.0
 14
1.0
 24
1.0
 15
10.0
 25
10.0
 16
0.0
 26
0.0
 36
1.0
 17
0.0
 27
0.0
 37
0.0
 40
1485.0
 41
1.334231805929919
 42
50.0
 43
0.0
 44
0.0
 50
0.0
 51
0.0
 71
     0
 72
  1500
 73
     1
 74
     0
 75
     0
 76
     0
 77
     0
 78
     0
281
     0
 65
     1
110
0.0
120
0.0
130
0.0
111
1.0
121
0.0
131
0.0
112
0.0
122
1.0
132
0.0
 79
     0
146
0.0
  0
ENDTAB
  0
TABLE
  2
LTYPE
  5
5
330
0
100
AcDbSymbolTable
 70
     2
  0
LTYPE
  5
13
330
5
100
AcDbSymbolTableRecord
100
AcDbLinetypeTableRecord
  2
ByBlock
 70
     0
  3

 72
    65
 73
     0
 40
0.0
  0
LTYPE
  5
14
330
5
100
AcDbSymbolTableRecord
100
AcDbLinetypeTableRecord
  2
ByLayer
 70
     0
  3

 72
    65
 73
     0
 40
0.0
  0
LTYPE
  5
15
330
5
100
AcDbSymbolTableRecord
100
AcDbLinetypeTableRecord
  2
Continuous
 70
     0
  3
Solid line
 72
    65
 73
     0
 40
0.0
  0
LTYPE
  5
35
330
5
100
AcDbSymbolTableRecord
100
AcDbLinetypeTableRecord
  2
STRICHPUNKT
 70
     0
  3
__ . __ . __ . __ . __ . __ . __ . __ . __ . __
 72
    65
 73
     4
 40
1.0
 49
0.5
 74
     0
 49
-0.25
 74
     0
 49
0.0
 74
     0
 49
-0.25
 74
     0
  0
ENDTAB
  0
TABLE
  2
LAYER
  5
2
330
0
100
AcDbSymbolTable
 70
     9
  0
LAYER
  5
10
330
2
100
AcDbSymbolTableRecord
100
AcDbLayerTableRecord
  2
0
 70
     0
 62
     7
  6
Continuous
370
    -3
390
F
  0
LAYER
  5
38
330
2
100
AcDbSymbolTableRecord
100
AcDbLayerTableRecord
  2
VOLL
 70
     0
 62
     1
  6
Continuous
370
    -3
390
F
  0
LAYER
  5
39
330
2
100
AcDbSymbolTableRecord
100
AcDbLayerTableRecord
  2
HILF
 70
     0
 62
     2
  6
Continuous
370
    -3
390
F
  0
LAYER
  5
3A
330
2
100
AcDbSymbolTableRecord
100
AcDbLayerTableRecord
  2
MITTEL
 70
     0
 62
     2
  6
STRICHPUNKT
370
    -3
390
F
  0
LAYER
  5
3B
330
2
100
AcDbSymbolTableRecord
100
AcDbLayerTableRecord
  2
BEM
 70
     0
 62
     7
  6
Continuous
370
    -3
390
F
  0
LAYER
  5
3C
330
2
100
AcDbSymbolTableRecord
100
AcDbLayerTableRecord
  2
STEMPEL
 70
     0
 62
     3
  6
Continuous
370
    -3
390
F
  0
LAYER
  5
3D
330
2
100
AcDbSymbolTableRecord
100
AcDbLayerTableRecord
  2
TEXT
 70
     0
 62
     7
  6
Continuous
370
    -3
390
F
  0
LAYER
  5
3E
330
2
100
AcDbSymbolTableRecord
100
AcDbLayerTableRecord
  2
DEFPOINTS
 70
     0
 62
     7
  6
Continuous
290
     0
370
    -3
390
F
  0
LAYER
  5
3F
330
2
100
AcDbSymbolTableRecord
100
AcDbLayerTableRecord
  2
SCHRAFF
 70
     0
 62
     7
  6
Continuous
370
    -3
390
F
  0
ENDTAB
  0
TABLE
  2
STYLE
  5
3
330
0
100
AcDbSymbolTable
 70
     2
  0
STYLE
  5
11
330
3
100
AcDbSymbolTableRecord
100
AcDbTextStyleTableRecord
  2
STANDARD
 70
     0
 40
0.0
 41
1.0
 50
0.0
 71
     0
 42
3.5
  3
txt
  4

  0
STYLE
  5
34
330
3
100
AcDbSymbolTableRecord
100
AcDbTextStyleTableRecord
  2
GREEKS
 70
     0
 40
0.0
 41
0.8
 50
0.0
 71
     0
 42
2.5
  3
SIMPLEX.shx
  4

  0
ENDTAB
  0
TABLE
  2
VIEW
  5
6
330
0
100
AcDbSymbolTable
 70
     0
  0
ENDTAB
  0
TABLE
  2
UCS
  5
7
330
0
100
AcDbSymbolTable
 70
     0
  0
ENDTAB
  0
TABLE
  2
APPID
  5
9
330
0
100
AcDbSymbolTable
 70
     1
  0
APPID
  5
12
330
9
100
AcDbSymbolTableRecord
100
AcDbRegAppTableRecord
  2
ACAD
 70
     0
  0
ENDTAB
  0
TABLE
  2
DIMSTYLE
  5
A
330
0
100
AcDbSymbolTable
 70
     1
100
AcDbDimStyleTable
 71
     1
340
24F
  0
DIMSTYLE
105
24F
102
{ACAD_REACTORS
330
188
330
17B
330
192
330
17A
330
191
102
}
330
A
100
AcDbSymbolTableRecord
100
AcDbDimStyleTableRecord
  2
Standard
 70
     0
340
11
  0
ENDTAB
  0
TABLE
  2
BLOCK_RECORD
  5
1
330
0
100
AcDbSymbolTable
 70
    17
  0
BLOCK_RECORD
  5
20
330
1
100
AcDbSymbolTableRecord
100
AcDbBlockTableRecord
  2
*Model_Space
340
23
  0
BLOCK_RECORD
  5
1C
330
1
100
AcDbSymbolTableRecord
100
AcDbBlockTableRecord
  2
*Paper_Space
340
1F
  0
BLOCK_RECORD
  5
24
330
1
100
AcDbSymbolTableRecord
100
AcDbBlockTableRecord
  2
LOGO
340
0
102
{BLKREFS
331
1B2
102
}
  0
BLOCK_RECORD
  5
26
330
1
100
AcDbSymbolTableRecord
100
AcDbBlockTableRecord
  2
*X1
340
0
102
{BLKREFS
331
235
102
}
  0
BLOCK_RECORD
  5
27
330
1
100
AcDbSymbolTableRecord
100
AcDbBlockTableRecord
  2
*X2
340
0
102
{BLKREFS
331
1F2
102
}
  0
BLOCK_RECORD
  5
274
330
1
100
AcDbSymbolTableRecord
100
AcDbBlockTableRecord
  2
*D9
340
0
  0
BLOCK_RECORD
  5
280
330
1
100
AcDbSymbolTableRecord
100
AcDbBlockTableRecord
  2
*D10
340
0
  0
BLOCK_RECORD
  5
2CE
330
1
100
AcDbSymbolTableRecord
100
AcDbBlockTableRecord
  2
*D13
340
0
  0
BLOCK_RECORD
  5
336
330
1
100
AcDbSymbolTableRecord
100
AcDbBlockTableRecord
  2
*D15
340
0
  0
BLOCK_RECORD
  5
342
330
1
100
AcDbSymbolTableRecord
100
AcDbBlockTableRecord
  2
*D16
340
0
  0
ENDTAB
  0
ENDSEC
  0
SECTION
  2
BLOCKS
  0
BLOCK
  5
43
330
20
100
AcDbEntity
  8
0
100
AcDbBlockBegin
  2
*Model_Space
 70
     0
 10
0.0
 20
0.0
 30
0.0
  3
*Model_Space
  1

  0
ENDBLK
  5
44
330
20
100
AcDbEntity
  8
0
100
AcDbBlockEnd
  0
BLOCK
  5
41
330
1C
100
AcDbEntity
 67
     1
  8
0
100
AcDbBlockBegin
  2
*Paper_Space
 70
     0
 10
0.0
 20
0.0
 30
0.0
  3
*Paper_Space
  1

  0
ENDBLK
  5
42
330
1C
100
AcDbEntity
 67
     1
  8
0
100
AcDbBlockEnd
  0
BLOCK
  5
45
330
24
100
AcDbEntity
  8
0
100
AcDbBlockBegin
  2
LOGO
 70
     0
 10
0.0
 20
0.0
 30
0.0
  3
LOGO
  1

  0
ARC
  5
46
330
24
100
AcDbEntity
  8
0
100
AcDbCircle
 10
11.59973089678112
 20
-9.271599258481501
 30
0.0
 40
4.5
100
AcDbArc
 50
270.0
 51
231.0575587310159
  0
LINE
  5
47
330
24
100
AcDbEntity
  8
0
100
AcDbLine
 10
3.599730896781125
 20
-4.771599258481529
 30
0.0
 11
3.599730896781153
 21
-11.77159925848133
 31
0.0
  0
LINE
  5
48
330
24
100
AcDbEntity
  8
0
100
AcDbLine
 10
2.599730896781125
 20
-4.771599258481529
 30
0.0
 11
2.599730896781153
 21
-11.77159925848133
 31
0.0
  0
CIRCLE
  5
49
330
24
100
AcDbEntity
  8
0
100
AcDbCircle
 10
11.59973089678112
 20
-9.271599258481501
 30
0.0
 40
3.5
  0
ARC
  5
4A
330
24
100
AcDbEntity
  8
0
100
AcDbCircle
 10
31.59973089678115
 20
-9.271599258481472
 30
0.0
 40
4.5
100
AcDbArc
 50
270.0
 51
231.0575587310182
  0
LINE
  5
4B
330
24
100
AcDbEntity
  8
0
100
AcDbLine
 10
17.59973089678112
 20
-4.771599258481472
 30
0.0
 11
17.59973089678115
 21
-13.77159925848147
 31
0.0
  0
ARC
  5
4C
330
24
100
AcDbEntity
  8
0
100
AcDbCircle
 10
22.59973089678116
 20
-7.271599258481472
 30
0.0
 40
2.5
100
AcDbArc
 50
293.1161887722295
 51
90.0
  0
CIRCLE
  5
4D
330
24
100
AcDbEntity
  8
0
100
AcDbCircle
 10
31.59973089678115
 20
-9.271599258481472
 30
0.0
 40
3.5
  0
ARC
  5
4E
330
24
100
AcDbEntity
  8
0
100
AcDbCircle
 10
4.599730896781153
 20
-11.77159925848133
 30
0.0
 40
1.0
100
AcDbArc
 50
180.0
 51
270.0
  0
ARC
  5
4F
330
24
100
AcDbEntity
  8
0
100
AcDbCircle
 10
4.599730896781153
 20
-11.77159925848133
 30
0.0
 40
2.0
100
AcDbArc
 50
179.9999999999992
 51
270.0
  0
LINE
  5
50
330
24
100
AcDbEntity
  8
0
100
AcDbLine
 10
11.59973089678115
 20
-13.77159925848144
 30
0.0
 11
4.599730896781153
 21
-13.77159925848147
 31
0.0
  0
LINE
  5
51
330
24
100
AcDbEntity
  8
0
100
AcDbLine
 10
8.771303772034769
 20
-12.77159925848136
 30
0.0
 11
4.599730896781153
 21
-12.77159925848133
 31
0.0
  0
LINE
  5
52
330
24
100
AcDbEntity
  8
0
100
AcDbLine
 10
31.59973089678115
 20
-13.77159925848147
 30
0.0
 11
23.6715276665056
 21
-13.77159925848144
 31
0.0
  0
LINE
  5
53
330
24
100
AcDbEntity
  8
0
100
AcDbLine
 10
23.56565672307022
 20
-9.51278021337896
 30
0.0
 11
24.4388546544846
 21
-12.77159925848144
 31
0.0
  0
LINE
  5
54
330
24
100
AcDbEntity
  8
0
100
AcDbLine
 10
22.59973089678116
 20
-9.771599258481472
 30
0.0
 11
18.59973089678112
 21
-9.771599258481472
 31
0.0
  0
LINE
  5
55
330
24
100
AcDbEntity
  8
0
100
AcDbLine
 10
18.59973089678115
 20
-13.77159925848144
 30
0.0
 11
17.59973089678115
 21
-13.77159925848144
 31
0.0
  0
LINE
  5
56
330
24
100
AcDbEntity
  8
0
100
AcDbLine
 10
18.59973089678115
 20
-9.771599258481472
 30
0.0
 11
18.59973089678115
 21
-13.77159925848144
 31
0.0
  0
LINE
  5
57
330
24
100
AcDbEntity
  8
0
100
AcDbLine
 10
22.59973089678116
 20
-9.771599258481472
 30
0.0
 11
23.67152766650562
 21
-13.77159925848147
 31
0.0
  0
ARC
  5
58
330
24
100
AcDbEntity
  8
0
100
AcDbCircle
 10
22.59973089678116
 20
-7.271599258481472
 30
0.0
 40
2.5
100
AcDbArc
 50
270.0
 51
270.0000000000007
  0
LINE
  5
59
330
24
100
AcDbEntity
  8
0
100
AcDbLine
 10
28.77130377203494
 20
-12.77159925848147
 30
0.0
 11
24.43885465448463
 21
-12.77159925848144
 31
0.0
  0
LINE
  5
5A
330
24
100
AcDbEntity
  8
0
100
AcDbLine
 10
3.599730896781125
 20
-4.771599258481472
 30
0.0
 11
2.599730896781125
 21
-4.771599258481472
 31
0.0
  0
LINE
  5
5B
330
24
100
AcDbEntity
  8
0
100
AcDbLine
 10
22.59973089678116
 20
-8.771599258481472
 30
0.0
 11
18.59973089678115
 21
-8.771599258481472
 31
0.0
  0
LINE
  5
5C
330
24
100
AcDbEntity
  8
0
100
AcDbLine
 10
22.59973089678116
 20
-5.771599258481472
 30
0.0
 11
18.59973089678115
 21
-5.771599258481472
 31
0.0
  0
LINE
  5
5D
330
24
100
AcDbEntity
  8
0
100
AcDbLine
 10
22.59973089678116
 20
-4.771599258481472
 30
0.0
 11
17.59973089678115
 21
-4.771599258481472
 31
0.0
  0
LINE
  5
5E
330
24
100
AcDbEntity
  8
0
100
AcDbLine
 10
18.59973089678115
 20
-5.771599258481472
 30
0.0
 11
18.59973089678115
 21
-8.771599258481472
 31
0.0
  0
ARC
  5
5F
330
24
100
AcDbEntity
  8
0
100
AcDbCircle
 10
22.59973089678116
 20
-7.271599258481472
 30
0.0
 40
1.5
100
AcDbArc
 50
270.0
 51
90.0
  0
ENDBLK
  5
60
330
24
100
AcDbEntity
  8
0
100
AcDbBlockEnd
  0
BLOCK
  5
65
330
26
100
AcDbEntity
  8
0
100
AcDbBlockBegin
  2
*X1
 70
     1
 10
0.0
 20
0.0
 30
0.0
  3
*X1
  1

  0
LINE
  5
66
330
26
100
AcDbEntity
  8
0
 62
     0
100
AcDbLine
 10
529.2711100707812
 20
1171.2
 30
0.0
 11
533.1198933835344
 21
1171.2
 31
0.0
  0
LINE
  5
67
330
26
100
AcDbEntity
  8
0
 62
     0
100
AcDbLine
 10
529.2711100707812
 20
1171.3
 30
0.0
 11
533.2198933835343
 21
1171.3
 31
0.0
  0
LINE
  5
68
330
26
100
AcDbEntity
  8
0
 62
     0
100
AcDbLine
 10
529.2711100707812
 20
1171.4
 30
0.0
 11
533.3198933835344
 21
1171.4
 31
0.0
  0
LINE
  5
69
330
26
100
AcDbEntity
  8
0
 62
     0
100
AcDbLine
 10
529.2711100707812
 20
1171.5
 30
0.0
 11
533.4198933835343
 21
1171.5
 31
0.0
  0
LINE
  5
6A
330
26
100
AcDbEntity
  8
0
 62
     0
100
AcDbLine
 10
529.2711100707812
 20
1171.6
 30
0.0
 11
533.5198933835345
 21
1171.6
 31
0.0
  0
LINE
  5
6B
330
26
100
AcDbEntity
  8
0
 62
     0
100
AcDbLine
 10
529.2711100707812
 20
1171.7
 30
0.0
 11
533.6198933835344
 21
1171.7
 31
0.0
  0
LINE
  5
6C
330
26
100
AcDbEntity
  8
0
 62
     0
100
AcDbLine
 10
529.2711100707812
 20
1171.8
 30
0.0
 11
533.7198933835343
 21
1171.8
 31
0.0
  0
LINE
  5
6D
330
26
100
AcDbEntity
  8
0
 62
     0
100
AcDbLine
 10
529.2711100707812
 20
1171.9
 30
0.0
 11
533.8198933835344
 21
1171.9
 31
0.0
  0
LINE
  5
6E
330
26
100
AcDbEntity
  8
0
 62
     0
100
AcDbLine
 10
529.2711100707812
 20
1172.0
 30
0.0
 11
533.9198933835343
 21
1172.0
 31
0.0
  0
LINE
  5
6F
330
26
100
AcDbEntity
  8
0
 62
     0
100
AcDbLine
 10
529.2711100707812
 20
1172.1
 30
0.0
 11
534.0198933835345
 21
1172.1
 31
0.0
  0
LINE
  5
70
330
26
100
AcDbEntity
  8
0
 62
     0
100
AcDbLine
 10
529.2711100707812
 20
1172.2
 30
0.0
 11
534.1198933835344
 21
1172.2
 31
0.0
  0
LINE
  5
71
330
26
100
AcDbEntity
  8
0
 62
     0
100
AcDbLine
 10
529.2711100707812
 20
1172.3
 30
0.0
 11
534.2198933835343
 21
1172.3
 31
0.0
  0
LINE
  5
72
330
26
100
AcDbEntity
  8
0
 62
     0
100
AcDbLine
 10
529.2711100707812
 20
1172.4
 30
0.0
 11
534.3198933835345
 21
1172.4
 31
0.0
  0
LINE
  5
73
330
26
100
AcDbEntity
  8
0
 62
     0
100
AcDbLine
 10
529.2711100707812
 20
1172.5
 30
0.0
 11
534.4198933835343
 21
1172.5
 31
0.0
  0
LINE
  5
74
330
26
100
AcDbEntity
  8
0
 62
     0
100
AcDbLine
 10
529.2711100707812
 20
1172.6
 30
0.0
 11
534.5198933835344
 21
1172.6
 31
0.0
  0
LINE
  5
75
330
26
100
AcDbEntity
  8
0
 62
     0
100
AcDbLine
 10
529.2711100707812
 20
1172.7
 30
0.0
 11
534.6198933835344
 21
1172.7
 31
0.0
  0
LINE
  5
76
330
26
100
AcDbEntity
  8
0
 62
     0
100
AcDbLine
 10
529.2711100707812
 20
1172.8
 30
0.0
 11
534.7198933835342
 21
1172.8
 31
0.0
  0
LINE
  5
77
330
26
100
AcDbEntity
  8
0
 62
     0
100
AcDbLine
 10
529.2711100707812
 20
1173.0
 30
0.0
 11
534.7534328617292
 21
1173.0
 31
0.0
  0
LINE
  5
78
330
26
100
AcDbEntity
  8
0
 62
     0
100
AcDbLine
 10
529.2711100707812
 20
1173.1
 30
0.0
 11
534.6923249779409
 21
1173.1
 31
0.0
  0
LINE
  5
79
330
26
100
AcDbEntity
  8
0
 62
     0
100
AcDbLine
 10
529.2711100707812
 20
1173.2
 30
0.0
 11
534.6278221820762
 21
1173.2
 31
0.0
  0
LINE
  5
7A
330
26
100
AcDbEntity
  8
0
 62
     0
100
AcDbLine
 10
529.2711100707812
 20
1173.3
 30
0.0
 11
534.5597592400853
 21
1173.3
 31
0.0
  0
LINE
  5
7B
330
26
100
AcDbEntity
  8
0
 62
     0
100
AcDbLine
 10
529.2711100707812
 20
1173.4
 30
0.0
 11
534.4879499494603
 21
1173.4
 31
0.0
  0
LINE
  5
7C
330
26
100
AcDbEntity
  8
0
 62
     0
100
AcDbLine
 10
529.2711100707812
 20
1173.5
 30
0.0
 11
534.4121834931613
 21
1173.5
 31
0.0
  0
LINE
  5
7D
330
26
100
AcDbEntity
  8
0
 62
     0
100
AcDbLine
 10
529.2711100707812
 20
1173.6
 30
0.0
 11
534.3322199084325
 21
1173.6
 31
0.0
  0
LINE
  5
7E
330
26
100
AcDbEntity
  8
0
 62
     0
100
AcDbLine
 10
529.2711100707812
 20
1173.7
 30
0.0
 11
534.2477843932528
 21
1173.7
 31
0.0
  0
LINE
  5
7F
330
26
100
AcDbEntity
  8
0
 62
     0
100
AcDbLine
 10
529.2711100707812
 20
1173.8
 30
0.0
 11
534.158560063877
 21
1173.8
 31
0.0
  0
LINE
  5
80
330
26
100
AcDbEntity
  8
0
 62
     0
100
AcDbLine
 10
529.2711100707812
 20
1173.9
 30
0.0
 11
534.0641786146483
 21
1173.9
 31
0.0
  0
LINE
  5
81
330
26
100
AcDbEntity
  8
0
 62
     0
100
AcDbLine
 10
529.2711100707812
 20
1174.0
 30
0.0
 11
533.9642080847888
 21
1174.0
 31
0.0
  0
LINE
  5
82
330
26
100
AcDbEntity
  8
0
 62
     0
100
AcDbLine
 10
529.2711100707812
 20
1174.1
 30
0.0
 11
533.8581365529084
 21
1174.1
 31
0.0
  0
LINE
  5
83
330
26
100
AcDbEntity
  8
0
 62
     0
100
AcDbLine
 10
529.2711100707812
 20
1174.2
 30
0.0
 11
533.7453499645079
 21
1174.2
 31
0.0
  0
LINE
  5
84
330
26
100
AcDbEntity
  8
0
 62
     0
100
AcDbLine
 10
529.2711100707812
 20
1174.3
 30
0.0
 11
533.6251012783314
 21
1174.3
 31
0.0
  0
LINE
  5
85
330
26
100
AcDbEntity
  8
0
 62
     0
100
AcDbLine
 10
529.2711100707812
 20
1174.4
 30
0.0
 11
533.4964663641946
 21
1174.4
 31
0.0
  0
LINE
  5
86
330
26
100
AcDbEntity
  8
0
 62
     0
100
AcDbLine
 10
529.2711100707812
 20
1174.5
 30
0.0
 11
533.3582789340117
 21
1174.5
 31
0.0
  0
LINE
  5
87
330
26
100
AcDbEntity
  8
0
 62
     0
100
AcDbLine
 10
529.2711100707812
 20
1174.6
 30
0.0
 11
533.2090308225958
 21
1174.6
 31
0.0
  0
LINE
  5
88
330
26
100
AcDbEntity
  8
0
 62
     0
100
AcDbLine
 10
529.2711100707812
 20
1174.7
 30
0.0
 11
533.0467119113568
 21
1174.7
 31
0.0
  0
LINE
  5
89
330
26
100
AcDbEntity
  8
0
 62
     0
100
AcDbLine
 10
529.2711100707812
 20
1174.8
 30
0.0
 11
532.8685378096135
 21
1174.8
 31
0.0
  0
LINE
  5
8A
330
26
100
AcDbEntity
  8
0
 62
     0
100
AcDbLine
 10
529.2711100707812
 20
1174.9
 30
0.0
 11
532.6704505580719
 21
1174.9
 31
0.0
  0
LINE
  5
8B
330
26
100
AcDbEntity
  8
0
 62
     0
100
AcDbLine
 10
529.2711100707812
 20
1175.0
 30
0.0
 11
532.4461059862658
 21
1175.0
 31
0.0
  0
LINE
  5
8C
330
26
100
AcDbEntity
  8
0
 62
     0
100
AcDbLine
 10
529.2711100707812
 20
1175.1
 30
0.0
 11
532.1845003146052
 21
1175.1
 31
0.0
  0
LINE
  5
8D
330
26
100
AcDbEntity
  8
0
 62
     0
100
AcDbLine
 10
529.3050362145059
 20
1175.2
 30
0.0
 11
531.8629696855127
 21
1175.2
 31
0.0
  0
LINE
  5
8E
330
26
100
AcDbEntity
  8
0
 62
     0
100
AcDbLine
 10
529.753388715259
 20
1175.3
 30
0.0
 11
531.4146171847595
 21
1175.3
 31
0.0
  0
LINE
  5
8F
330
26
100
AcDbEntity
  8
0
 62
     0
100
AcDbLine
 10
529.2711100707812
 20
1171.1
 30
0.0
 11
533.0198933835345
 21
1171.1
 31
0.0
  0
LINE
  5
90
330
26
100
AcDbEntity
  8
0
 62
     0
100
AcDbLine
 10
529.2711100707812
 20
1171.0
 30
0.0
 11
532.9198933835344
 21
1171.0
 31
0.0
  0
LINE
  5
91
330
26
100
AcDbEntity
  8
0
 62
     0
100
AcDbLine
 10
529.2711100707812
 20
1170.9
 30
0.0
 11
532.8198933835344
 21
1170.9
 31
0.0
  0
LINE
  5
92
330
26
100
AcDbEntity
  8
0
 62
     0
100
AcDbLine
 10
529.2711100707812
 20
1170.8
 30
0.0
 11
532.7198933835343
 21
1170.8
 31
0.0
  0
LINE
  5
93
330
26
100
AcDbEntity
  8
0
 62
     0
100
AcDbLine
 10
529.2711100707812
 20
1170.7
 30
0.0
 11
532.6198933835343
 21
1170.7
 31
0.0
  0
LINE
  5
94
330
26
100
AcDbEntity
  8
0
 62
     0
100
AcDbLine
 10
529.2711100707812
 20
1170.6
 30
0.0
 11
532.5198933835345
 21
1170.6
 31
0.0
  0
LINE
  5
95
330
26
100
AcDbEntity
  8
0
 62
     0
100
AcDbLine
 10
529.2711100707812
 20
1170.5
 30
0.0
 11
532.4198933835344
 21
1170.5
 31
0.0
  0
LINE
  5
96
330
26
100
AcDbEntity
  8
0
 62
     0
100
AcDbLine
 10
529.2711100707812
 20
1170.4
 30
0.0
 11
532.3198933835344
 21
1170.4
 31
0.0
  0
LINE
  5
97
330
26
100
AcDbEntity
  8
0
 62
     0
100
AcDbLine
 10
529.2711100707812
 20
1170.3
 30
0.0
 11
532.2198933835343
 21
1170.3
 31
0.0
  0
LINE
  5
98
330
26
100
AcDbEntity
  8
0
 62
     0
100
AcDbLine
 10
529.2711100707812
 20
1170.2
 30
0.0
 11
532.1198933835344
 21
1170.2
 31
0.0
  0
LINE
  5
99
330
26
100
AcDbEntity
  8
0
 62
     0
100
AcDbLine
 10
529.2711100707812
 20
1170.1
 30
0.0
 11
532.0198933835345
 21
1170.1
 31
0.0
  0
LINE
  5
9A
330
26
100
AcDbEntity
  8
0
 62
     0
100
AcDbLine
 10
529.2711100707812
 20
1170.0
 30
0.0
 11
531.9198933835344
 21
1170.0
 31
0.0
  0
LINE
  5
9B
330
26
100
AcDbEntity
  8
0
 62
     0
100
AcDbLine
 10
529.2711100707812
 20
1169.9
 30
0.0
 11
531.8198933835344
 21
1169.9
 31
0.0
  0
LINE
  5
9C
330
26
100
AcDbEntity
  8
0
 62
     0
100
AcDbLine
 10
529.2711100707812
 20
1169.8
 30
0.0
 11
531.7198933835343
 21
1169.8
 31
0.0
  0
LINE
  5
9D
330
26
100
AcDbEntity
  8
0
 62
     0
100
AcDbLine
 10
529.2711100707812
 20
1169.7
 30
0.0
 11
531.6198933835344
 21
1169.7
 31
0.0
  0
LINE
  5
9E
330
26
100
AcDbEntity
  8
0
 62
     0
100
AcDbLine
 10
529.2711100707812
 20
1169.6
 30
0.0
 11
531.5198933835345
 21
1169.6
 31
0.0
  0
LINE
  5
9F
330
26
100
AcDbEntity
  8
0
 62
     0
100
AcDbLine
 10
529.2711100707812
 20
1169.5
 30
0.0
 11
531.4198933835345
 21
1169.5
 31
0.0
  0
LINE
  5
A0
330
26
100
AcDbEntity
  8
0
 62
     0
100
AcDbLine
 10
529.2711100707812
 20
1169.4
 30
0.0
 11
531.3198933835345
 21
1169.4
 31
0.0
  0
LINE
  5
A1
330
26
100
AcDbEntity
  8
0
 62
     0
100
AcDbLine
 10
529.2711100707812
 20
1169.3
 30
0.0
 11
531.2198933835344
 21
1169.3
 31
0.0
  0
LINE
  5
A2
330
26
100
AcDbEntity
  8
0
 62
     0
100
AcDbLine
 10
529.2711100707812
 20
1169.2
 30
0.0
 11
531.1198933835345
 21
1169.2
 31
0.0
  0
LINE
  5
A3
330
26
100
AcDbEntity
  8
0
 62
     0
100
AcDbLine
 10
529.2711100707812
 20
1169.1
 30
0.0
 11
531.0198933835346
 21
1169.1
 31
0.0
  0
LINE
  5
A4
330
26
100
AcDbEntity
  8
0
 62
     0
100
AcDbLine
 10
529.2711100707812
 20
1169.0
 30
0.0
 11
530.9198933835345
 21
1169.0
 31
0.0
  0
LINE
  5
A5
330
26
100
AcDbEntity
  8
0
 62
     0
100
AcDbLine
 10
529.2711100707812
 20
1168.9
 30
0.0
 11
530.8198933835345
 21
1168.9
 31
0.0
  0
LINE
  5
A6
330
26
100
AcDbEntity
  8
0
 62
     0
100
AcDbLine
 10
529.2711100707812
 20
1168.8
 30
0.0
 11
530.7198933835344
 21
1168.8
 31
0.0
  0
LINE
  5
A7
330
26
100
AcDbEntity
  8
0
 62
     0
100
AcDbLine
 10
529.2711100707812
 20
1168.7
 30
0.0
 11
530.6198933835345
 21
1168.7
 31
0.0
  0
LINE
  5
A8
330
26
100
AcDbEntity
  8
0
 62
     0
100
AcDbLine
 10
529.2711100707812
 20
1168.6
 30
0.0
 11
530.5198933835346
 21
1168.6
 31
0.0
  0
LINE
  5
A9
330
26
100
AcDbEntity
  8
0
 62
     0
100
AcDbLine
 10
529.2711100707812
 20
1168.5
 30
0.0
 11
530.4198933835344
 21
1168.5
 31
0.0
  0
LINE
  5
AA
330
26
100
AcDbEntity
  8
0
 62
     0
100
AcDbLine
 10
529.2711100707812
 20
1168.4
 30
0.0
 11
530.3198933835346
 21
1168.4
 31
0.0
  0
LINE
  5
AB
330
26
100
AcDbEntity
  8
0
 62
     0
100
AcDbLine
 10
529.2711100707812
 20
1168.3
 30
0.0
 11
530.2198933835344
 21
1168.3
 31
0.0
  0
LINE
  5
AC
330
26
100
AcDbEntity
  8
0
 62
     0
100
AcDbLine
 10
529.2711100707812
 20
1168.2
 30
0.0
 11
530.1198933835345
 21
1168.2
 31
0.0
  0
LINE
  5
AD
330
26
100
AcDbEntity
  8
0
 62
     0
100
AcDbLine
 10
529.2711100707812
 20
1168.1
 30
0.0
 11
530.0198933835345
 21
1168.1
 31
0.0
  0
LINE
  5
AE
330
26
100
AcDbEntity
  8
0
 62
     0
100
AcDbLine
 10
529.2711100707812
 20
1168.0
 30
0.0
 11
529.9198933835344
 21
1168.0
 31
0.0
  0
LINE
  5
AF
330
26
100
AcDbEntity
  8
0
 62
     0
100
AcDbLine
 10
529.2711100707812
 20
1167.9
 30
0.0
 11
529.8198933835346
 21
1167.9
 31
0.0
  0
LINE
  5
B0
330
26
100
AcDbEntity
  8
0
 62
     0
100
AcDbLine
 10
529.2711100707812
 20
1167.8
 30
0.0
 11
529.7198933835344
 21
1167.8
 31
0.0
  0
LINE
  5
B1
330
26
100
AcDbEntity
  8
0
 62
     0
100
AcDbLine
 10
529.2711100707812
 20
1167.7
 30
0.0
 11
529.6198933835345
 21
1167.7
 31
0.0
  0
LINE
  5
B2
330
26
100
AcDbEntity
  8
0
 62
     0
100
AcDbLine
 10
529.2711100707812
 20
1167.6
 30
0.0
 11
529.5198933835346
 21
1167.6
 31
0.0
  0
LINE
  5
B3
330
26
100
AcDbEntity
  8
0
 62
     0
100
AcDbLine
 10
529.2711100707812
 20
1167.5
 30
0.0
 11
529.4198933835344
 21
1167.5
 31
0.0
  0
LINE
  5
B4
330
26
100
AcDbEntity
  8
0
 62
     0
100
AcDbLine
 10
529.2711100707812
 20
1167.4
 30
0.0
 11
529.3198933835346
 21
1167.4
 31
0.0
  0
ENDBLK
  5
B5
330
26
100
AcDbEntity
  8
0
100
AcDbBlockEnd
  0
BLOCK
  5
B6
330
27
100
AcDbEntity
  8
0
100
AcDbBlockBegin
  2
*X2
 70
     1
 10
0.0
 20
0.0
 30
0.0
  3
*X2
  1

  0
LINE
  5
B7
330
27
100
AcDbEntity
  8
0
 62
     0
100
AcDbLine
 10
529.2711100707812
 20
708.8
 30
0.0
 11
531.7823954698727
 21
708.8
 31
0.0
  0
LINE
  5
B8
330
27
100
AcDbEntity
  8
0
 62
     0
100
AcDbLine
 10
529.2711100707812
 20
708.9000000000001
 30
0.0
 11
531.8085595184378
 21
708.9000000000001
 31
0.0
  0
LINE
  5
B9
330
27
100
AcDbEntity
  8
0
 62
     0
100
AcDbLine
 10
529.2711100707812
 20
709.0
 30
0.0
 11
531.8320684223356
 21
709.0
 31
0.0
  0
LINE
  5
BA
330
27
100
AcDbEntity
  8
0
 62
     0
100
AcDbLine
 10
529.2711100707812
 20
709.1
 30
0.0
 11
531.8529684909231
 21
709.1
 31
0.0
  0
LINE
  5
BB
330
27
100
AcDbEntity
  8
0
 62
     0
100
AcDbLine
 10
529.2711100707812
 20
709.2
 30
0.0
 11
531.8712999938494
 21
709.2
 31
0.0
  0
LINE
  5
BC
330
27
100
AcDbEntity
  8
0
 62
     0
100
AcDbLine
 10
529.2836662361796
 20
709.3
 30
0.0
 11
531.8870975717752
 21
709.3
 31
0.0
  0
LINE
  5
BD
330
27
100
AcDbEntity
  8
0
 62
     0
100
AcDbLine
 10
529.3836662361797
 20
709.4000000000001
 30
0.0
 11
531.9003905787461
 21
709.4000000000001
 31
0.0
  0
LINE
  5
BE
330
27
100
AcDbEntity
  8
0
 62
     0
100
AcDbLine
 10
529.4836662361795
 20
709.4999999999999
 30
0.0
 11
531.9112033644653
 21
709.4999999999999
 31
0.0
  0
LINE
  5
BF
330
27
100
AcDbEntity
  8
0
 62
     0
100
AcDbLine
 10
529.5836662361796
 20
709.6
 30
0.0
 11
531.9195555030181
 21
709.6
 31
0.0
  0
LINE
  5
C0
330
27
100
AcDbEntity
  8
0
 62
     0
100
AcDbLine
 10
529.6836662361796
 20
709.7
 30
0.0
 11
531.9254619731903
 21
709.7
 31
0.0
  0
LINE
  5
C1
330
27
100
AcDbEntity
  8
0
 62
     0
100
AcDbLine
 10
529.7836662361796
 20
709.8
 30
0.0
 11
531.9289332943293
 21
709.8
 31
0.0
  0
LINE
  5
C2
330
27
100
AcDbEntity
  8
0
 62
     0
100
AcDbLine
 10
529.8836662361797
 20
709.9000000000001
 30
0.0
 11
531.929975620662
 21
709.9000000000001
 31
0.0
  0
LINE
  5
C3
330
27
100
AcDbEntity
  8
0
 62
     0
100
AcDbLine
 10
529.9836662361796
 20
710.0
 30
0.0
 11
531.9285907960535
 21
710.0
 31
0.0
  0
LINE
  5
C4
330
27
100
AcDbEntity
  8
0
 62
     0
100
AcDbLine
 10
530.0836662361795
 20
710.0999999999999
 30
0.0
 11
531.9247763703546
 21
710.0999999999999
 31
0.0
  0
LINE
  5
C5
330
27
100
AcDbEntity
  8
0
 62
     0
100
AcDbLine
 10
530.1836662361796
 20
710.2
 30
0.0
 11
531.9185255776734
 21
710.2
 31
0.0
  0
LINE
  5
C6
330
27
100
AcDbEntity
  8
0
 62
     0
100
AcDbLine
 10
530.2836662361796
 20
710.3
 30
0.0
 11
531.9098272761234
 21
710.3
 31
0.0
  0
LINE
  5
C7
330
27
100
AcDbEntity
  8
0
 62
     0
100
AcDbLine
 10
530.3836662361796
 20
710.4
 30
0.0
 11
531.8986658477852
 21
710.4
 31
0.0
  0
LINE
  5
C8
330
27
100
AcDbEntity
  8
0
 62
     0
100
AcDbLine
 10
530.4836662361796
 20
710.5
 30
0.0
 11
531.8850210567715
 21
710.5
 31
0.0
  0
LINE
  5
C9
330
27
100
AcDbEntity
  8
0
 62
     0
100
AcDbLine
 10
530.5836662361796
 20
710.6
 30
0.0
 11
531.8688678623439
 21
710.6
 31
0.0
  0
LINE
  5
CA
330
27
100
AcDbEntity
  8
0
 62
     0
100
AcDbLine
 10
530.6836662361796
 20
710.7
 30
0.0
 11
531.8501761829752
 21
710.7
 31
0.0
  0
LINE
  5
CB
330
27
100
AcDbEntity
  8
0
 62
     0
100
AcDbLine
 10
530.7836662361796
 20
710.8
 30
0.0
 11
531.8289106060295
 21
710.8
 31
0.0
  0
LINE
  5
CC
330
27
100
AcDbEntity
  8
0
 62
     0
100
AcDbLine
 10
530.8836662361796
 20
710.9
 30
0.0
 11
531.805030036288
 21
710.9
 31
0.0
  0
LINE
  5
CD
330
27
100
AcDbEntity
  8
0
 62
     0
100
AcDbLine
 10
530.9836662361796
 20
711.0
 30
0.0
 11
531.7784872748105
 21
711.0
 31
0.0
  0
LINE
  5
CE
330
27
100
AcDbEntity
  8
0
 62
     0
100
AcDbLine
 10
531.0836662361796
 20
711.1
 30
0.0
 11
531.7492285174979
 21
711.1
 31
0.0
  0
LINE
  5
CF
330
27
100
AcDbEntity
  8
0
 62
     0
100
AcDbLine
 10
531.1836662361796
 20
711.2
 30
0.0
 11
531.7171927600869
 21
711.2
 31
0.0
  0
LINE
  5
D0
330
27
100
AcDbEntity
  8
0
 62
     0
100
AcDbLine
 10
531.2836662361796
 20
711.3
 30
0.0
 11
531.6823110930101
 21
711.3
 31
0.0
  0
LINE
  5
D1
330
27
100
AcDbEntity
  8
0
 62
     0
100
AcDbLine
 10
531.3836662361796
 20
711.4
 30
0.0
 11
531.6445058653657
 21
711.4
 31
0.0
  0
LINE
  5
D2
330
27
100
AcDbEntity
  8
0
 62
     0
100
AcDbLine
 10
531.4836662361796
 20
711.5
 30
0.0
 11
531.6036896918789
 21
711.5
 31
0.0
  0
LINE
  5
D3
330
27
100
AcDbEntity
  8
0
 62
     0
100
AcDbLine
 10
529.2711100707812
 20
708.7
 30
0.0
 11
531.7535234382043
 21
708.7
 31
0.0
  0
LINE
  5
D4
330
27
100
AcDbEntity
  8
0
 62
     0
100
AcDbLine
 10
529.2711100707812
 20
708.6
 30
0.0
 11
531.7218834750336
 21
708.6
 31
0.0
  0
LINE
  5
D5
330
27
100
AcDbEntity
  8
0
 62
     0
100
AcDbLine
 10
529.2711100707812
 20
708.4999999999999
 30
0.0
 11
531.6874078335473
 21
708.4999999999999
 31
0.0
  0
LINE
  5
D6
330
27
100
AcDbEntity
  8
0
 62
     0
100
AcDbLine
 10
529.2711100707812
 20
708.4000000000001
 30
0.0
 11
531.6500201523997
 21
708.4000000000001
 31
0.0
  0
LINE
  5
D7
330
27
100
AcDbEntity
  8
0
 62
     0
100
AcDbLine
 10
529.2711100707812
 20
708.3000000000001
 30
0.0
 11
531.6096344866496
 21
708.3000000000001
 31
0.0
  0
LINE
  5
D8
330
27
100
AcDbEntity
  8
0
 62
     0
100
AcDbLine
 10
529.2711100707812
 20
708.2
 30
0.0
 11
531.5661541537777
 21
708.2
 31
0.0
  0
LINE
  5
D9
330
27
100
AcDbEntity
  8
0
 62
     0
100
AcDbLine
 10
529.2711100707812
 20
708.1
 30
0.0
 11
531.5194703540539
 21
708.1
 31
0.0
  0
LINE
  5
DA
330
27
100
AcDbEntity
  8
0
 62
     0
100
AcDbLine
 10
529.2711100707812
 20
708.0
 30
0.0
 11
531.4694605129404
 21
708.0
 31
0.0
  0
LINE
  5
DB
330
27
100
AcDbEntity
  8
0
 62
     0
100
AcDbLine
 10
529.2711100707812
 20
707.9
 30
0.0
 11
531.4159862777295
 21
707.9
 31
0.0
  0
LINE
  5
DC
330
27
100
AcDbEntity
  8
0
 62
     0
100
AcDbLine
 10
529.2711100707812
 20
707.8000000000001
 30
0.0
 11
531.3588910796275
 21
707.8000000000001
 31
0.0
  0
LINE
  5
DD
330
27
100
AcDbEntity
  8
0
 62
     0
100
AcDbLine
 10
529.2711100707812
 20
707.7
 30
0.0
 11
531.2979971436874
 21
707.7
 31
0.0
  0
LINE
  5
DE
330
27
100
AcDbEntity
  8
0
 62
     0
100
AcDbLine
 10
529.2711100707812
 20
707.6
 30
0.0
 11
531.2331017888641
 21
707.6
 31
0.0
  0
LINE
  5
DF
330
27
100
AcDbEntity
  8
0
 62
     0
100
AcDbLine
 10
529.2711100707812
 20
707.5
 30
0.0
 11
531.1639728036893
 21
707.5
 31
0.0
  0
LINE
  5
E0
330
27
100
AcDbEntity
  8
0
 62
     0
100
AcDbLine
 10
529.2711100707812
 20
707.4
 30
0.0
 11
531.0903426013097
 21
707.4
 31
0.0
  0
LINE
  5
E1
330
27
100
AcDbEntity
  8
0
 62
     0
100
AcDbLine
 10
529.2711100707812
 20
707.3
 30
0.0
 11
531.0119007376683
 21
707.3
 31
0.0
  0
LINE
  5
E2
330
27
100
AcDbEntity
  8
0
 62
     0
100
AcDbLine
 10
529.2711100707812
 20
707.2
 30
0.0
 11
530.9282841967926
 21
707.2
 31
0.0
  0
LINE
  5
E3
330
27
100
AcDbEntity
  8
0
 62
     0
100
AcDbLine
 10
529.2711100707812
 20
707.1
 30
0.0
 11
530.8390645711388
 21
707.1
 31
0.0
  0
LINE
  5
E4
330
27
100
AcDbEntity
  8
0
 62
     0
100
AcDbLine
 10
529.2711100707812
 20
707.0
 30
0.0
 11
530.7437308298426
 21
707.0
 31
0.0
  0
LINE
  5
E5
330
27
100
AcDbEntity
  8
0
 62
     0
100
AcDbLine
 10
529.2711100707812
 20
706.9
 30
0.0
 11
530.6416656606882
 21
706.9
 31
0.0
  0
LINE
  5
E6
330
27
100
AcDbEntity
  8
0
 62
     0
100
AcDbLine
 10
529.2711100707812
 20
706.8
 30
0.0
 11
530.5321121820846
 21
706.8
 31
0.0
  0
LINE
  5
E7
330
27
100
AcDbEntity
  8
0
 62
     0
100
AcDbLine
 10
529.2711100707812
 20
706.7
 30
0.0
 11
530.4141257378598
 21
706.7
 31
0.0
  0
LINE
  5
E8
330
27
100
AcDbEntity
  8
0
 62
     0
100
AcDbLine
 10
529.2711100707812
 20
706.6
 30
0.0
 11
530.286501661825
 21
706.6
 31
0.0
  0
LINE
  5
E9
330
27
100
AcDbEntity
  8
0
 62
     0
100
AcDbLine
 10
529.2711100707812
 20
706.5
 30
0.0
 11
530.147662466684
 21
706.5
 31
0.0
  0
LINE
  5
EA
330
27
100
AcDbEntity
  8
0
 62
     0
100
AcDbLine
 10
529.2711100707812
 20
706.4
 30
0.0
 11
529.9954724502047
 21
706.4
 31
0.0
  0
LINE
  5
EB
330
27
100
AcDbEntity
  8
0
 62
     0
100
AcDbLine
 10
529.2711100707812
 20
706.3
 30
0.0
 11
529.8269126842397
 21
706.3
 31
0.0
  0
LINE
  5
EC
330
27
100
AcDbEntity
  8
0
 62
     0
100
AcDbLine
 10
529.2711100707812
 20
706.2
 30
0.0
 11
529.6374608002931
 21
706.2
 31
0.0
  0
LINE
  5
ED
330
27
100
AcDbEntity
  8
0
 62
     0
100
AcDbLine
 10
529.2711100707812
 20
706.0999999999999
 30
0.0
 11
529.4197604585995
 21
706.0999999999999
 31
0.0
  0
ENDBLK
  5
EE
330
27
100
AcDbEntity
  8
0
100
AcDbBlockEnd
  0
BLOCK
  5
27E
330
274
100
AcDbEntity
  8
0
100
AcDbBlockBegin
  2
*D9
 70
     1
 10
0.0
 20
0.0
 30
0.0
  3
*D9
  1

  0
LINE
  5
357
330
274
100
AcDbEntity
  8
BEM
 62
     0
370
    -2
100
AcDbLine
 10
277.8027872665711
 20
584.4848810387689
 30
0.0
 11
205.6859433073988
 21
584.484881038769
 31
0.0
  0
LINE
  5
358
330
274
100
AcDbEntity
  8
BEM
 62
     0
370
    -2
100
AcDbLine
 10
277.8027872665711
 20
1244.484881038769
 30
0.0
 11
205.685943307399
 21
1244.484881038769
 31
0.0
  0
LINE
  5
359
330
274
100
AcDbEntity
  8
BEM
 62
     0
370
    -2
100
AcDbLine
 10
210.6859433073988
 20
601.9848810387689
 30
0.0
 11
210.685943307399
 21
1226.984881038769
 31
0.0
  0
SOLID
  5
35A
330
274
100
AcDbEntity
  8
BEM
 62
     0
100
AcDbTrace
 10
207.7692766407321
 20
601.9848810387689
 30
0.0
 11
213.6026099740655
 21
601.9848810387689
 31
0.0
 12
210.6859433073988
 22
584.484881038769
 32
0.0
 13
210.6859433073988
 23
584.484881038769
 33
0.0
  0
SOLID
  5
35B
330
274
100
AcDbEntity
  8
BEM
 62
     0
100
AcDbTrace
 10
207.7692766407323
 20
1226.984881038769
 30
0.0
 11
213.6026099740656
 21
1226.984881038769
 31
0.0
 12
210.685943307399
 22
1244.484881038769
 32
0.0
 13
210.685943307399
 23
1244.484881038769
 33
0.0
  0
MTEXT
  5
35C
330
274
100
AcDbEntity
  8
BEM
 62
     1
100
AcDbMText
 10
194.4359433073987
 20
914.4848810387689
 30
0.0
 40
17.5
 41
0.0
 71
     5
 72
     1
  1
\A1;660
  7
GREEKS
 11
0.0000000000000001
 21
1.0
 31
0.0
 73
     1
 44
1.0
  0
POINT
  5
35D
330
274
100
AcDbEntity
  8
DEFPOINTS
 62
     0
100
AcDbPoint
 10
282.802787266571
 20
584.4848810387689
 30
0.0
  0
POINT
  5
35E
330
274
100
AcDbEntity
  8
DEFPOINTS
 62
     0
100
AcDbPoint
 10
282.802787266571
 20
1244.484881038769
 30
0.0
  0
POINT
  5
35F
330
274
100
AcDbEntity
  8
DEFPOINTS
 62
     0
100
AcDbPoint
 10
210.685943307399
 20
1244.484881038769
 30
0.0
  0
ENDBLK
  5
27F
330
274
100
AcDbEntity
  8
0
100
AcDbBlockEnd
  0
BLOCK
  5
28A
330
280
100
AcDbEntity
  8
0
100
AcDbBlockBegin
  2
*D10
 70
     1
 10
0.0
 20
0.0
 30
0.0
  3
*D10
  1

  0
LINE
  5
369
330
280
100
AcDbEntity
  8
BEM
 62
     0
370
    -2
100
AcDbLine
 10
919.8931888848713
 20
978.5223284188809
 30
0.0
 11
991.3243587605705
 21
907.0911585431817
 31
0.0
  0
LINE
  5
36A
330
280
100
AcDbEntity
  8
BEM
 62
     0
370
    -2
100
AcDbLine
 10
448.2883211725035
 20
735.9493471328362
 30
0.0
 11
634.2354342613642
 21
550.0022340439755
 31
0.0
  0
LINE
  5
36B
330
280
100
AcDbEntity
  8
BEM
 62
     0
370
    -2
100
AcDbLine
 10
975.4144561838732
 20
898.25232377835
 30
0.0
 11
643.0742690261961
 21
565.9121366206727
 31
0.0
  0
SOLID
  5
36C
330
280
100
AcDbEntity
  8
BEM
 62
     0
100
AcDbTrace
 10
973.3520614054125
 20
900.3147185568108
 30
0.0
 11
977.476850962334
 21
896.1899289998893
 31
0.0
 12
987.7888248546378
 22
910.6266924491146
 32
0.0
 13
987.7888248546378
 23
910.6266924491146
 33
0.0
  0
SOLID
  5
36D
330
280
100
AcDbEntity
  8
BEM
 62
     0
100
AcDbTrace
 10
641.0118742477354
 20
567.9745313991335
 30
0.0
 11
645.1366638046569
 21
563.849741842212
 31
0.0
 12
630.6999003554315
 22
553.5377679499082
 32
0.0
 13
630.6999003554315
 23
553.5377679499082
 33
0.0
  0
MTEXT
  5
36E
330
280
100
AcDbEntity
  8
BEM
 62
     1
100
AcDbMText
 10
797.7538774107532
 20
743.5727153937925
 30
0.0
 40
17.5
 41
0.0
 71
     5
 72
     1
  1
\A1;505
  7
GREEKS
 11
0.7071067811865476
 21
0.7071067811865475
 31
0.0
 73
     1
 44
1.0
  0
POINT
  5
36F
330
280
100
AcDbEntity
  8
DEFPOINTS
 62
     0
100
AcDbPoint
 10
916.3576549789386
 20
982.0578623248136
 30
0.0
  0
POINT
  5
370
330
280
100
AcDbEntity
  8
DEFPOINTS
 62
     0
100
AcDbPoint
 10
444.7527872665708
 20
739.4848810387689
 30
0.0
  0
POINT
  5
371
330
280
100
AcDbEntity
  8
DEFPOINTS
 62
     0
100
AcDbPoint
 10
630.6999003554315
 20
553.5377679499082
 30
0.0
  0
ENDBLK
  5
28B
330
280
100
AcDbEntity
  8
0
100
AcDbBlockEnd
  0
BLOCK
  5
2D8
330
2CE
100
AcDbEntity
  8
0
100
AcDbBlockBegin
  2
*D13
 70
     1
 10
0.0
 20
0.0
 30
0.0
  3
*D13
  1

  0
LINE
  5
2CF
330
2CE
100
AcDbEntity
  8
BEM
 62
     0
370
    -2
100
AcDbLine
 10
277.8027872665711
 20
584.4848810387689
 30
0.0
 11
243.6417194685145
 21
584.484881038769
 31
0.0
  0
LINE
  5
2D0
330
2CE
100
AcDbEntity
  8
BEM
 62
     0
370
    -2
100
AcDbLine
 10
439.7527872665709
 20
739.4848810387689
 30
0.0
 11
243.6417194685146
 21
739.4848810387689
 31
0.0
  0
LINE
  5
2D1
330
2CE
100
AcDbEntity
  8
BEM
 62
     0
370
    -2
100
AcDbLine
 10
248.6417194685145
 20
601.9848810387689
 30
0.0
 11
248.6417194685146
 21
721.984881038769
 31
0.0
  0
SOLID
  5
2D2
330
2CE
100
AcDbEntity
  8
BEM
 62
     0
100
AcDbTrace
 10
245.7250528018479
 20
601.9848810387689
 30
0.0
 11
251.5583861351812
 21
601.9848810387689
 31
0.0
 12
248.6417194685145
 22
584.484881038769
 32
0.0
 13
248.6417194685145
 23
584.484881038769
 33
0.0
  0
SOLID
  5
2D3
330
2CE
100
AcDbEntity
  8
BEM
 62
     0
100
AcDbTrace
 10
245.7250528018479
 20
721.984881038769
 30
0.0
 11
251.5583861351812
 21
721.984881038769
 31
0.0
 12
248.6417194685146
 22
739.4848810387689
 32
0.0
 13
248.6417194685146
 23
739.4848810387689
 33
0.0
  0
MTEXT
  5
2D4
330
2CE
100
AcDbEntity
  8
BEM
 62
     1
100
AcDbMText
 10
232.3917194685144
 20
661.984881038769
 30
0.0
 40
17.5
 41
0.0
 71
     5
 72
     1
  1
\A1;155
  7
GREEKS
 11
0.0000000000000001
 21
1.0
 31
0.0
 73
     1
 44
1.0
  0
POINT
  5
2D5
330
2CE
100
AcDbEntity
  8
DEFPOINTS
 62
     0
100
AcDbPoint
 10
282.802787266571
 20
584.4848810387689
 30
0.0
  0
POINT
  5
2D6
330
2CE
100
AcDbEntity
  8
DEFPOINTS
 62
     0
100
AcDbPoint
 10
444.7527872665709
 20
739.4848810387689
 30
0.0
  0
POINT
  5
2D7
330
2CE
100
AcDbEntity
  8
DEFPOINTS
 62
     0
100
AcDbPoint
 10
248.6417194685146
 20
739.4848810387689
 30
0.0
  0
ENDBLK
  5
2D9
330
2CE
100
AcDbEntity
  8
0
100
AcDbBlockEnd
  0
BLOCK
  5
340
330
336
100
AcDbEntity
  8
0
100
AcDbBlockBegin
  2
*D15
 70
     1
 10
0.0
 20
0.0
 30
0.0
  3
*D15
  1

  0
LINE
  5
337
330
336
100
AcDbEntity
  8
BEM
 62
     0
370
    -2
100
AcDbLine
 10
690.8613024585487
 20
1214.625282657069
 30
0.0
 11
752.810742469115
 21
1276.574722667635
 31
0.0
  0
LINE
  5
338
330
336
100
AcDbEntity
  8
BEM
 62
     0
370
    -2
100
AcDbLine
 10
919.8931888848713
 20
985.5933962307465
 30
0.0
 11
981.8426288954377
 21
1047.542836241313
 31
0.0
  0
LINE
  5
339
330
336
100
AcDbEntity
  8
BEM
 62
     0
370
    -2
100
AcDbLine
 10
761.6495772339469
 20
1260.664820090938
 30
0.0
 11
965.9327263187403
 21
1056.381671006144
 31
0.0
  0
SOLID
  5
33A
330
336
100
AcDbEntity
  8
BEM
 62
     0
100
AcDbTrace
 10
763.7119720124077
 20
1262.727214869399
 30
0.0
 11
759.587182455486
 21
1258.602425312477
 31
0.0
 12
749.2752085631823
 22
1273.039188761703
 32
0.0
 13
749.2752085631823
 23
1273.039188761703
 33
0.0
  0
SOLID
  5
33B
330
336
100
AcDbEntity
  8
BEM
 62
     0
100
AcDbTrace
 10
967.9951210972012
 20
1058.444065784605
 30
0.0
 11
963.8703315402795
 21
1054.319276227684
 31
0.0
 12
978.307094989505
 22
1044.00730233538
 32
0.0
 13
978.307094989505
 23
1044.00730233538
 33
0.0
  0
MTEXT
  5
33C
330
336
100
AcDbEntity
  8
BEM
 62
     1
100
AcDbMText
 10
875.2816369706248
 20
1170.013730742823
 30
0.0
 40
17.5
 41
0.0
 71
     5
 72
     1
  1
\A1;%%c324
  7
GREEKS
 11
0.7071067811865476
 21
-0.7071067811865475
 31
0.0
 73
     1
 44
1.0
  0
POINT
  5
33D
330
336
100
AcDbEntity
  8
DEFPOINTS
 62
     0
100
AcDbPoint
 10
687.325768552616
 20
1211.089748751136
 30
0.0
  0
POINT
  5
33E
330
336
100
AcDbEntity
  8
DEFPOINTS
 62
     0
100
AcDbPoint
 10
916.3576549789386
 20
982.0578623248138
 30
0.0
  0
POINT
  5
33F
330
336
100
AcDbEntity
  8
DEFPOINTS
 62
     0
100
AcDbPoint
 10
978.307094989505
 20
1044.00730233538
 30
0.0
  0
ENDBLK
  5
341
330
336
100
AcDbEntity
  8
0
100
AcDbBlockEnd
  0
BLOCK
  5
34C
330
342
100
AcDbEntity
  8
0
100
AcDbBlockBegin
  2
*D16
 70
     1
 10
0.0
 20
0.0
 30
0.0
  3
*D16
  1

  0
LINE
  5
360
330
342
100
AcDbEntity
  8
BEM
 62
     0
370
    -2
100
AcDbLine
 10
606.702787266571
 20
579.4848810387689
 30
0.0
 11
606.702787266571
 21
531.2098574621956
 31
0.0
  0
LINE
  5
361
330
342
100
AcDbEntity
  8
BEM
 62
     0
370
    -2
100
AcDbLine
 10
282.802787266571
 20
579.4848810387689
 30
0.0
 11
282.802787266571
 21
531.2098574621956
 31
0.0
  0
LINE
  5
362
330
342
100
AcDbEntity
  8
BEM
 62
     0
370
    -2
100
AcDbLine
 10
589.202787266571
 20
536.2098574621955
 30
0.0
 11
300.3027872665711
 21
536.2098574621955
 31
0.0
  0
SOLID
  5
363
330
342
100
AcDbEntity
  8
BEM
 62
     0
100
AcDbTrace
 10
589.202787266571
 20
539.1265241288622
 30
0.0
 11
589.202787266571
 21
533.2931907955289
 31
0.0
 12
606.702787266571
 22
536.2098574621955
 32
0.0
 13
606.702787266571
 23
536.2098574621955
 33
0.0
  0
SOLID
  5
364
330
342
100
AcDbEntity
  8
BEM
 62
     0
100
AcDbTrace
 10
300.3027872665711
 20
539.1265241288622
 30
0.0
 11
300.3027872665711
 21
533.2931907955289
 31
0.0
 12
282.802787266571
 22
536.2098574621955
 32
0.0
 13
282.802787266571
 23
536.2098574621955
 33
0.0
  0
MTEXT
  5
365
330
342
100
AcDbEntity
  8
BEM
 62
     1
100
AcDbMText
 10
444.752787266571
 20
552.4598574621956
 30
0.0
 40
17.5
 41
0.0
 71
     5
 72
     1
  1
\A1;%%c324
  7
GREEKS
 73
     1
 44
1.0
  0
POINT
  5
366
330
342
100
AcDbEntity
  8
DEFPOINTS
 62
     0
100
AcDbPoint
 10
606.702787266571
 20
584.4848810387689
 30
0.0
  0
POINT
  5
367
330
342
100
AcDbEntity
  8
DEFPOINTS
 62
     0
100
AcDbPoint
 10
282.802787266571
 20
584.4848810387689
 30
0.0
  0
POINT
  5
368
330
342
100
AcDbEntity
  8
DEFPOINTS
 62
     0
100
AcDbPoint
 10
282.802787266571
 20
536.2098574621955
 30
0.0
  0
ENDBLK
  5
34D
330
342
100
AcDbEntity
  8
0
100
AcDbBlockEnd
  0
ENDSEC
  0
SECTION
  2
ENTITIES
  0
DIMENSION
  5
17A
330
20
100
AcDbEntity
  8
BEM
100
AcDbDimension
  2
*D15
 10
978.307094989505
 20
1044.00730233538
 30
0.0
 11
875.2816369706248
 21
1170.013730742823
 31
0.0
 70
    33
  1
%%c324
 71
     5
 42
323.8999999999998
  3
Standard
100
AcDbAlignedDimension
 13
687.325768552616
 23
1211.089748751136
 33
0.0
 14
916.3576549789386
 24
982.0578623248138
 34
0.0
1001
ACAD
1000
DSTYLE
1002
{
1070
    40
1040
5.0
1070
    41
1040
3.5
1070
    42
1040
1.0
1070
    43
1040
7.0
1070
    44
1040
1.0
1070
    47
1040
6.0
1070
    48
1040
6.0
1070
    73
1070
     0
1070
    74
1070
     0
1070
    77
1070
     1
1070
    78
1070
     8
1070
    79
1070
     2
1070
   140
1040
3.5
1070
   141
1040
1.5
1070
   146
1040
0.5
1070
   147
1040
1.5
1070
   172
1070
     1
1070
   178
1070
     1
1070
   179
1070
     2
1070
   271
1070
     2
1070
   272
1070
     2
1070
   284
1070
     8
1070
   285
1070
     8
1070
   286
1070
     8
1070
   340
1005
34
1002
}
  0
DIMENSION
  5
17B
330
20
100
AcDbEntity
  8
BEM
100
AcDbDimension
  2
*D10
 10
630.6999003554315
 20
553.5377679499082
 30
0.0
 11
797.7538774107532
 21
743.5727153937925
 31
0.0
 70
    32
 71
     5
 42
504.9999999999998
  3
Standard
100
AcDbAlignedDimension
 13
916.3576549789386
 23
982.0578623248138
 33
0.0
 14
444.7527872665708
 24
739.4848810387689
 34
0.0
 50
45.0
100
AcDbRotatedDimension
1001
ACAD
1000
DSTYLE
1002
{
1070
    40
1040
5.0
1070
    41
1040
3.5
1070
    42
1040
1.0
1070
    43
1040
7.0
1070
    44
1040
1.0
1070
    47
1040
6.0
1070
    48
1040
6.0
1070
    73
1070
     0
1070
    74
1070
     0
1070
    77
1070
     1
1070
    78
1070
     8
1070
    79
1070
     2
1070
   140
1040
3.5
1070
   141
1040
1.5
1070
   146
1040
0.5
1070
   147
1040
1.5
1070
   172
1070
     1
1070
   178
1070
     1
1070
   179
1070
     2
1070
   271
1070
     2
1070
   272
1070
     2
1070
   284
1070
     8
1070
   285
1070
     8
1070
   286
1070
     8
1070
   340
1005
34
1002
}
  0
TEXT
  5
17C
330
20
100
AcDbEntity
  8
TEXT
 62
     1
100
AcDbText
 10
596.9467689395078
 20
326.4594863880986
 30
0.0
 40
17.5
  1
feuerverzinkt und innen beschichtet
 41
0.8
  7
GREEKS
100
AcDbText
  0
LINE
  5
17D
330
20
100
AcDbEntity
  8
HILF
100
AcDbLine
 10
1050.0
 20
0.0
 30
0.0
 11
0.0
 21
0.0
 31
0.0
  0
LINE
  5
17E
330
20
100
AcDbEntity
  8
HILF
100
AcDbLine
 10
1050.0
 20
1485.0
 30
0.0
 11
0.0
 21
1485.0
 31
0.0
  0
LINE
  5
17F
330
20
100
AcDbEntity
  8
STEMPEL
100
AcDbLine
 10
1025.0
 20
1460.0
 30
0.0
 11
99.99999999999971
 21
1460.0
 31
0.0
  0
LINE
  5
180
330
20
100
AcDbEntity
  8
STEMPEL
100
AcDbLine
 10
1025.0
 20
25.0
 30
0.0
 11
99.99999999999971
 21
25.0
 31
0.0
  0
LINE
  5
181
330
20
100
AcDbEntity
  8
STEMPEL
100
AcDbLine
 10
124.9999999999997
 20
25.0
 30
0.0
 11
1025.0
 21
25.0
 31
0.0
  0
LINE
  5
182
330
20
100
AcDbEntity
  8
HILF
100
AcDbLine
 10
583.7274248224712
 20
37.23495645070784
 30
0.0
 11
1012.147209831682
 21
37.23495645070784
 31
0.0
  0
LINE
  5
183
330
20
100
AcDbEntity
  8
HILF
100
AcDbLine
 10
841.8096540742482
 20
209.4495909238957
 30
0.0
 11
1012.147209831682
 21
209.4495909238957
 31
0.0
  0
LINE
  5
184
330
20
100
AcDbEntity
  8
VOLL
100
AcDbLine
 10
830.0
 20
150.0
 30
0.0
 11
1025.0
 21
150.0
 31
0.0
  0
LINE
  5
185
330
20
100
AcDbEntity
  8
STEMPEL
100
AcDbLine
 10
1025.0
 20
200.0
 30
0.0
 11
365.0000000000003
 21
199.9999999999998
 31
0.0
  0
LINE
  5
186
330
20
100
AcDbEntity
  8
STEMPEL
100
AcDbLine
 10
1025.0
 20
100.0
 30
0.0
 11
365.0000000000003
 21
99.99999999999992
 31
0.0
  0
LINE
  5
187
330
20
100
AcDbEntity
  8
STEMPEL
100
AcDbLine
 10
1025.0
 20
275.0000000000001
 30
0.0
 11
99.99999999999992
 21
275.0
 31
0.0
  0
DIMENSION
  5
188
330
20
100
AcDbEntity
  8
BEM
100
AcDbDimension
  2
*D9
 10
210.685943307399
 20
1244.484881038769
 30
0.0
 11
194.4359433073987
 21
914.4848810387689
 31
0.0
 70
    32
 71
     5
 42
659.9999999999998
  3
Standard
100
AcDbAlignedDimension
 13
282.802787266571
 23
584.4848810387689
 33
0.0
 14
282.802787266571
 24
1244.484881038769
 34
0.0
 50
90.0
100
AcDbRotatedDimension
1001
ACAD
1000
DSTYLE
1002
{
1070
    40
1040
5.0
1070
    41
1040
3.5
1070
    42
1040
1.0
1070
    43
1040
7.0
1070
    44
1040
1.0
1070
    47
1040
6.0
1070
    48
1040
6.0
1070
    73
1070
     0
1070
    74
1070
     0
1070
    77
1070
     1
1070
    78
1070
     8
1070
    79
1070
     2
1070
   140
1040
3.5
1070
   141
1040
1.5
1070
   146
1040
0.5
1070
   147
1040
1.5
1070
   172
1070
     1
1070
   178
1070
     1
1070
   179
1070
     2
1070
   271
1070
     2
1070
   272
1070
     2
1070
   284
1070
     8
1070
   285
1070
     8
1070
   286
1070
     8
1070
   340
1005
34
1002
}
  0
LINE
  5
189
330
20
100
AcDbEntity
  8
STEMPEL
100
AcDbLine
 10
606.7027872665711
 20
1130.466767465091
 30
0.0
 11
444.7527872665709
 21
739.4848810387689
 31
0.0
  0
LINE
  5
18A
330
20
100
AcDbEntity
  8
STEMPEL
100
AcDbLine
 10
916.3576549789388
 20
982.057862324814
 30
0.0
 11
606.7027872665711
 21
672.4029946124464
 31
0.0
  0
LINE
  5
18B
330
20
100
AcDbEntity
  8
MITTEL
100
AcDbLine
 10
808.9127795776429
 20
1103.644873349841
 30
0.0
 11
444.7527872665709
 21
739.4848810387689
 31
0.0
  0
LINE
  5
18C
330
20
100
AcDbEntity
  8
STEMPEL
100
AcDbLine
 10
282.802787266571
 20
1244.484881038769
 30
0.0
 11
282.802787266571
 21
584.4848810387689
 31
0.0
  0
LINE
  5
18D
330
20
100
AcDbEntity
  8
MITTEL
100
AcDbLine
 10
444.7527872665709
 20
1254.484881038769
 30
0.0
 11
444.7527872665709
 21
574.4848810387688
 31
0.0
  0
LINE
  5
18E
330
20
100
AcDbEntity
  8
HILF
100
AcDbLine
 10
0.0
 20
0.0
 30
0.0
 11
-0.0000000000002842
 21
1485.0
 31
0.0
  0
LINE
  5
18F
330
20
100
AcDbEntity
  8
STEMPEL
100
AcDbLine
 10
100.0
 20
25.0
 30
0.0
 11
99.99999999999971
 21
1460.0
 31
0.0
  0
TEXT
  5
190
330
20
100
AcDbEntity
  8
TEXT
 62
     1
100
AcDbText
 10
215.3997704115063
 20
401.3622941368092
 30
0.0
 40
17.5
  1
Rohrenden leicht entgratet
 41
0.8
  7
GREEKS
100
AcDbText
  0
DIMENSION
  5
191
330
20
100
AcDbEntity
  8
BEM
100
AcDbDimension
  2
*D16
 10
282.802787266571
 20
536.2098574621955
 30
0.0
 11
444.752787266571
 21
552.4598574621956
 31
0.0
 70
    32
  1
%%c324
 71
     5
 42
323.9
  3
Standard
100
AcDbAlignedDimension
 13
606.702787266571
 23
584.4848810387689
 33
0.0
 14
282.802787266571
 24
584.4848810387689
 34
0.0
100
AcDbRotatedDimension
1001
ACAD
1000
DSTYLE
1002
{
1070
    40
1040
5.0
1070
    41
1040
3.5
1070
    42
1040
1.0
1070
    43
1040
7.0
1070
    44
1040
1.0
1070
    47
1040
6.0
1070
    48
1040
6.0
1070
    73
1070
     0
1070
    74
1070
     0
1070
    77
1070
     1
1070
    78
1070
     8
1070
    79
1070
     2
1070
   140
1040
3.5
1070
   141
1040
1.5
1070
   146
1040
0.5
1070
   147
1040
1.5
1070
   172
1070
     1
1070
   178
1070
     1
1070
   179
1070
     2
1070
   271
1070
     2
1070
   272
1070
     2
1070
   284
1070
     8
1070
   285
1070
     8
1070
   286
1070
     8
1070
   340
1005
34
1002
}
  0
DIMENSION
  5
192
330
20
100
AcDbEntity
  8
BEM
100
AcDbDimension
  2
*D13
 10
248.6417194685146
 20
739.4848810387689
 30
0.0
 11
232.3917194685144
 21
661.984881038769
 31
0.0
 70
    32
 71
     5
 42
155.0
  3
Standard
100
AcDbAlignedDimension
 13
282.802787266571
 23
584.4848810387689
 33
0.0
 14
444.7527872665709
 24
739.4848810387689
 34
0.0
 50
90.0
100
AcDbRotatedDimension
1001
ACAD
1000
DSTYLE
1002
{
1070
    40
1040
5.0
1070
    41
1040
3.5
1070
    42
1040
1.0
1070
    43
1040
7.0
1070
    44
1040
1.0
1070
    47
1040
6.0
1070
    48
1040
6.0
1070
    73
1070
     0
1070
    74
1070
     0
1070
    77
1070
     1
1070
    78
1070
     8
1070
    79
1070
     2
1070
   140
1040
3.5
1070
   141
1040
1.5
1070
   146
1040
0.5
1070
   147
1040
1.5
1070
   172
1070
     1
1070
   178
1070
     1
1070
   179
1070
     2
1070
   271
1070
     2
1070
   272
1070
     2
1070
   284
1070
     8
1070
   285
1070
     8
1070
   286
1070
     8
1070
   340
1005
34
1002
}
  0
LINE
  5
193
330
20
100
AcDbEntity
  8
STEMPEL
100
AcDbLine
 10
606.702787266571
 20
584.4848810387689
 30
0.0
 11
282.802787266571
 21
584.4848810387689
 31
0.0
  0
LINE
  5
194
330
20
100
AcDbEntity
  8
HILF
100
AcDbLine
 10
365.0000000000003
 20
124.9999999999999
 30
0.0
 11
575.0
 21
124.9999999999999
 31
0.0
  0
LINE
  5
195
330
20
100
AcDbEntity
  8
HILF
100
AcDbLine
 10
365.0000000000003
 20
149.9999999999999
 30
0.0
 11
575.0
 21
149.9999999999999
 31
0.0
  0
LINE
  5
196
330
20
100
AcDbEntity
  8
HILF
100
AcDbLine
 10
365.0000000000003
 20
174.9999999999998
 30
0.0
 11
575.0
 21
174.9999999999998
 31
0.0
  0
TEXT
  5
197
330
20
100
AcDbEntity
  8
TEXT
100
AcDbText
 10
275.2195985813634
 20
46.67890673349525
 30
0.0
 40
10.0
  1
Tag
 41
0.8
  7
GREEKS
 72
     1
 11
284.5529319146967
 21
46.67890673349525
 31
0.0
100
AcDbText
  0
TEXT
  5
198
330
20
100
AcDbEntity
  8
TEXT
100
AcDbText
 10
120.6660276761439
 20
34.13664615067979
 30
0.0
 40
10.0
  1
Index
 50
90.0
 41
0.8
  7
GREEKS
100
AcDbText
  0
TEXT
  5
199
330
20
100
AcDbEntity
  8
TEXT
100
AcDbText
 10
166.5446298192954
 20
46.68454737460329
 30
0.0
 40
10.0
  1
Änderung
 41
0.8
  7
GREEKS
 72
     1
 11
193.4017726764382
 21
46.68454737460329
 31
0.0
100
AcDbText
  0
LINE
  5
19A
330
20
100
AcDbEntity
  8
VOLL
100
AcDbLine
 10
310.0000000000003
 20
274.9999999999999
 30
0.0
 11
310.0
 21
24.99999999999993
 31
0.0
  0
LINE
  5
19B
330
20
100
AcDbEntity
  8
VOLL
100
AcDbLine
 10
260.0000000000003
 20
274.9999999999999
 30
0.0
 11
260.0
 21
24.99999999999993
 31
0.0
  0
LINE
  5
19C
330
20
100
AcDbEntity
  8
VOLL
100
AcDbLine
 10
135.0000000000002
 20
275.0000000000001
 30
0.0
 11
134.9999999999999
 21
24.99999999999993
 31
0.0
  0
LINE
  5
19D
330
20
100
AcDbEntity
  8
STEMPEL
100
AcDbLine
 10
365.0000000000003
 20
274.9999999999999
 30
0.0
 11
365.0
 21
24.99999999999993
 31
0.0
  0
LINE
  5
19E
330
20
100
AcDbEntity
  8
HILF
100
AcDbLine
 10
100.0000000000002
 20
99.99999999999992
 30
0.0
 11
365.0000000000003
 21
99.99999999999992
 31
0.0
  0
LINE
  5
19F
330
20
100
AcDbEntity
  8
HILF
100
AcDbLine
 10
100.0000000000002
 20
124.9999999999999
 30
0.0
 11
365.0000000000003
 21
124.9999999999999
 31
0.0
  0
LINE
  5
1A0
330
20
100
AcDbEntity
  8
HILF
100
AcDbLine
 10
100.0000000000002
 20
149.9999999999999
 30
0.0
 11
365.0000000000003
 21
149.9999999999999
 31
0.0
  0
LINE
  5
1A1
330
20
100
AcDbEntity
  8
HILF
100
AcDbLine
 10
100.0000000000002
 20
174.9999999999998
 30
0.0
 11
365.0000000000003
 21
174.9999999999998
 31
0.0
  0
LINE
  5
1A2
330
20
100
AcDbEntity
  8
HILF
100
AcDbLine
 10
100.0000000000002
 20
199.9999999999998
 30
0.0
 11
365.0000000000003
 21
199.9999999999998
 31
0.0
  0
LINE
  5
1A3
330
20
100
AcDbEntity
  8
HILF
100
AcDbLine
 10
100.0000000000002
 20
225.0000000000001
 30
0.0
 11
365.0000000000003
 21
225.0000000000001
 31
0.0
  0
LINE
  5
1A4
330
20
100
AcDbEntity
  8
HILF
100
AcDbLine
 10
100.0000000000002
 20
250.0000000000001
 30
0.0
 11
365.0000000000003
 21
250.0000000000001
 31
0.0
  0
LINE
  5
1A5
330
20
100
AcDbEntity
  8
STEMPEL
100
AcDbLine
 10
364.9999999999997
 20
74.99999999999992
 30
0.0
 11
99.99999999999992
 21
74.99999999999992
 31
0.0
  0
TEXT
  5
1A6
330
20
100
AcDbEntity
  8
TEXT
100
AcDbText
 10
320.6307729200241
 20
46.4831054241602
 30
0.0
 40
10.0
  1
Name
 41
0.8
  7
GREEKS
 72
     1
 11
336.4402967295479
 21
46.4831054241602
 31
0.0
100
AcDbText
  0
LINE
  5
1A7
330
20
100
AcDbEntity
  8
HILF
100
AcDbLine
 10
77.7191783928464
 20
742.5000000000001
 30
0.0
 11
0.0000000000002842
 21
742.5000000000001
 31
0.0
  0
TEXT
  5
1A8
330
20
100
AcDbEntity
  8
TEXT
100
AcDbText
 10
104.6377487744418
 20
279.1799999999999
 30
0.0
 40
12.5
  1
Erstellt mit AUTOCAD 2004
 41
0.8
  7
GREEKS
100
AcDbText
  0
TEXT
  5
1A9
330
20
100
AcDbEntity
  8
TEXT
100
AcDbText
 10
587.8240977813288
 20
178.7583604396322
 30
0.0
 40
12.5
  1
Muffenlos
 41
0.8
  7
GREEKS
100
AcDbText
  0
TEXT
  5
1AA
330
20
100
AcDbEntity
  8
TEXT
100
AcDbText
 10
587.4593753944567
 20
106.5743538255658
 30
0.0
 40
10.0
  1
02250KK0W.DWG
 41
0.8
  7
GREEKS
100
AcDbText
  0
TEXT
  5
1AB
330
20
100
AcDbEntity
  8
TEXT
100
AcDbText
 10
587.8240977813288
 20
129.100298576054
 30
0.0
 40
12.5
  1
EDV-Art.Nr. 02250.KKOX
 41
0.8
  7
GREEKS
100
AcDbText
  0
TEXT
  5
1AC
330
20
100
AcDbEntity
  8
TEXT
 62
     1
100
AcDbText
 10
588.8012686495049
 20
218.5437197313445
 30
0.0
 40
17.5
  1
Abzweig 45%%d DN300/300
 41
0.7
  7
GREEKS
100
AcDbText
  0
TEXT
  5
1AD
330
20
100
AcDbEntity
  8
TEXT
100
AcDbText
 10
586.8555959778399
 20
77.11401425482641
 30
0.0
 40
12.5
  1
Bauvorhaben
 41
0.8
  7
GREEKS
100
AcDbText
  0
LINE
  5
1AE
330
20
100
AcDbEntity
  8
HILF
100
AcDbLine
 10
586.9342002742369
 20
124.9999999999999
 30
0.0
 11
812.0884791390775
 21
124.9999999999999
 31
0.0
  0
LINE
  5
1AF
330
20
100
AcDbEntity
  8
HILF
100
AcDbLine
 10
586.9342002742369
 20
149.9999999999999
 30
0.0
 11
812.0884791390775
 21
149.9999999999999
 31
0.0
  0
LINE
  5
1B0
330
20
100
AcDbEntity
  8
HILF
100
AcDbLine
 10
586.9342002742369
 20
174.9999999999998
 30
0.0
 11
812.0884791390775
 21
174.9999999999998
 31
0.0
  0
LINE
  5
1B1
330
20
100
AcDbEntity
  8
HILF
100
AcDbLine
 10
586.9342002742369
 20
210.0939561891034
 30
0.0
 11
812.0884791390777
 21
210.0939561891034
 31
0.0
  0
INSERT
  5
1B2
330
20
100
AcDbEntity
  8
STEMPEL
100
AcDbBlockReference
  2
LOGO
 10
377.4888713644485
 20
112.552631911208
 30
0.0
 41
5.0
 42
5.0
 43
5.0
  0
LINE
  5
1B3
330
20
100
AcDbEntity
  8
STEMPEL
100
AcDbLine
 10
575.0
 20
275.0000000000001
 30
0.0
 11
575.0
 21
24.99999999999993
 31
0.0
  0
TEXT
  5
1B4
330
20
100
AcDbEntity
  8
TEXT
100
AcDbText
 10
511.0540121453142
 20
157.7240979930877
 30
0.0
 40
10.0
  1
Koeh
 41
0.8
  7
GREEKS
 72
     1
 11
524.1968692881714
 21
157.7240979930877
 31
0.0
100
AcDbText
  0
TEXT
  5
1B5
330
20
100
AcDbEntity
  8
TEXT
100
AcDbText
 10
506.1566460565737
 20
183.2740272978806
 30
0.0
 40
10.0
  1
Name
 41
0.8
  7
GREEKS
100
AcDbText
  0
TEXT
  5
1B6
330
20
100
AcDbEntity
  8
TEXT
100
AcDbText
 10
485.7147386835128
 20
256.0460421087048
 30
0.0
 40
12.5
  1
Zul. Abw.
 41
0.8
  7
GREEKS
100
AcDbText
  0
TEXT
  5
1B7
330
20
100
AcDbEntity
  8
TEXT
100
AcDbText
 10
425.9974927705902
 20
157.7691260206433
 30
0.0
 40
10.0
  1
05.04.
 41
0.8
  7
GREEKS
 72
     1
 11
443.5213022943996
 21
157.7691260206433
 31
0.0
100
AcDbText
  0
TEXT
  5
1B8
330
20
100
AcDbEntity
  8
TEXT
100
AcDbText
 10
368.9590317919039
 20
159.0747592404491
 30
0.0
 40
10.0
  1
Gez.
 41
0.8
  7
GREEKS
100
AcDbText
  0
LINE
  5
1B9
330
20
100
AcDbEntity
  8
VOLL
100
AcDbLine
 10
475.0000000000002
 20
274.9999999999996
 30
0.0
 11
475.0
 21
99.99999999999992
 31
0.0
  0
LINE
  5
1BA
330
20
100
AcDbEntity
  8
VOLL
100
AcDbLine
 10
410.0000000000003
 20
199.9999999999998
 30
0.0
 11
410.0000000000003
 21
99.99999999999992
 31
0.0
  0
TEXT
  5
1BB
330
20
100
AcDbEntity
  8
TEXT
100
AcDbText
 10
368.8787716429181
 20
134.2231572857094
 30
0.0
 40
10.0
  1
Gepr.
 41
0.8
  7
GREEKS
100
AcDbText
  0
TEXT
  5
1BC
330
20
100
AcDbEntity
  8
TEXT
100
AcDbText
 10
369.0016943468259
 20
108.8236597412452
 30
0.0
 40
10.0
  1
Norm.
 41
0.8
  7
GREEKS
100
AcDbText
  0
TEXT
  5
1BD
330
20
100
AcDbEntity
  8
TEXT
100
AcDbText
 10
430.8279182884127
 20
183.2970125307481
 30
0.0
 40
10.0
  1
Tag
 41
0.8
  7
GREEKS
100
AcDbText
  0
TEXT
  5
1BE
330
20
100
AcDbEntity
  8
TEXT
 62
     1
100
AcDbText
 10
401.2515766204717
 20
220.372535722849
 30
0.0
 40
17.5
  1
1:5
 41
0.8
  7
GREEKS
100
AcDbText
  0
TEXT
  5
1BF
330
20
100
AcDbEntity
  8
TEXT
100
AcDbText
 10
371.55527455526
 20
182.8506367787916
 30
0.0
 40
10.0
  1
2011
 41
0.8
  7
GREEKS
100
AcDbText
  0
TEXT
  5
1C0
330
20
100
AcDbEntity
  8
TEXT
100
AcDbText
 10
383.7908930375943
 20
256.1552237717722
 30
0.0
 40
12.5
  1
Maßstab
 41
0.8
  7
GREEKS
100
AcDbText
  0
TEXT
  5
1C1
330
20
100
AcDbEntity
  8
TEXT
100
AcDbText
 10
587.1948509522525
 20
256.3723320029449
 30
0.0
 40
12.5
  1
Benennung
 41
0.8
  7
GREEKS
100
AcDbText
  0
LINE
  5
1C2
330
20
100
AcDbEntity
  8
STEMPEL
100
AcDbLine
 10
830.0
 20
274.9999999999994
 30
0.0
 11
830.0
 21
100.0
 31
0.0
  0
TEXT
  5
1C3
330
20
100
AcDbEntity
  8
TEXT
100
AcDbText
 10
843.1002153742515
 20
130.185404446965
 30
0.0
 40
12.5
  1
ersetzt durch:
 41
0.8
  7
GREEKS
100
AcDbText
  0
TEXT
  5
1C4
330
20
100
AcDbEntity
  8
TEXT
 62
     1
100
AcDbText
 10
862.6520860995464
 20
220.372535722849
 30
0.0
 40
17.5
  1
02250KK0W
 41
0.8
  7
GREEKS
 72
     1
 11
923.318752766213
 21
220.372535722849
 31
0.0
100
AcDbText
  0
TEXT
  5
1C5
330
20
100
AcDbEntity
  8
TEXT
100
AcDbText
 10
841.8096540742482
 20
182.9529559274992
 30
0.0
 40
12.5
  1
Ersatz für:
 41
0.8
  7
GREEKS
100
AcDbText
  0
TEXT
  5
1C6
330
20
100
AcDbEntity
  8
TEXT
100
AcDbText
 10
840.4468873940851
 20
255.7830086342841
 30
0.0
 40
12.5
  1
Zeichnungs Nr.
 41
0.8
  7
GREEKS
100
AcDbText
  0
TEXT
  5
1C8
330
20
100
AcDbEntity
  8
TEXT
 62
     1
100
AcDbText
 10
476.9467689395077
 20
356.4594863880986
 30
0.0
 40
17.5
  1
Werkstoff: EN 10219 S235
 41
0.8
  7
GREEKS
100
AcDbText
  0
LINE
  5
1CA
330
20
100
AcDbEntity
  8
STEMPEL
100
AcDbLine
 10
444.7527872665709
 20
739.4848810387689
 30
0.0
 11
606.7027872665711
 21
672.4029946124464
 31
0.0
  0
POINT
  5
1CB
330
20
100
AcDbEntity
  8
DEFPOINTS
  6
ByBlock
 62
     0
100
AcDbPoint
 10
444.7527872665709
 20
574.4848810387688
 30
0.0
  0
POINT
  5
1CC
330
20
100
AcDbEntity
  8
DEFPOINTS
  6
ByBlock
 62
     0
100
AcDbPoint
 10
444.7527872665709
 20
579.4848810387689
 30
0.0
  0
POINT
  5
1CD
330
20
100
AcDbEntity
  8
DEFPOINTS
  6
ByBlock
 62
     0
100
AcDbPoint
 10
444.7527872665709
 20
739.4848810387689
 30
0.0
  0
ARC
  5
1CE
330
20
100
AcDbEntity
  8
SCHRAFF
100
AcDbCircle
 10
451.6838752440535
 20
736.6611580662898
 30
0.0
 40
3.895075207125653
100
AcDbArc
 50
107.1278463605043
 51
207.8721536394997
  0
ARC
  5
1CF
330
20
100
AcDbEntity
  8
SCHRAFF
100
AcDbCircle
 10
460.9227703663875
 20
732.8342824052763
 30
0.0
 40
3.895075207125653
100
AcDbArc
 50
107.1278463605043
 51
207.8721536394997
  0
POINT
  5
1D0
330
20
100
AcDbEntity
  8
DEFPOINTS
  6
ByBlock
 62
     0
100
AcDbPoint
 10
444.7527872665709
 20
739.4848810387689
 30
0.0
  0
ARC
  5
1D1
330
20
100
AcDbEntity
  8
SCHRAFF
100
AcDbCircle
 10
479.4005606110554
 20
725.1805310832496
 30
0.0
 40
3.895075207125653
100
AcDbArc
 50
107.1278463605043
 51
207.8721536394997
  0
ARC
  5
1D2
330
20
100
AcDbEntity
  8
SCHRAFF
100
AcDbCircle
 10
470.1616654887214
 20
729.0074067442628
 30
0.0
 40
3.895075207125653
100
AcDbArc
 50
107.1278463605043
 51
207.8721536394997
  0
ARC
  5
1D3
330
20
100
AcDbEntity
  8
SCHRAFF
100
AcDbCircle
 10
516.3561411003914
 20
709.8730284391961
 30
0.0
 40
3.895075207125653
100
AcDbArc
 50
107.1278463605043
 51
207.8721536394997
  0
ARC
  5
1D4
330
20
100
AcDbEntity
  8
SCHRAFF
100
AcDbCircle
 10
507.1172459780573
 20
713.6999041002095
 30
0.0
 40
3.895075207125653
100
AcDbArc
 50
107.1278463605043
 51
207.8721536394997
  0
ARC
  5
1D5
330
20
100
AcDbEntity
  8
SCHRAFF
100
AcDbCircle
 10
488.6394557333894
 20
721.3536554222362
 30
0.0
 40
3.895075207125653
100
AcDbArc
 50
107.1278463605043
 51
207.8721536394997
  0
ARC
  5
1D6
330
20
100
AcDbEntity
  8
SCHRAFF
100
AcDbCircle
 10
497.8783508557232
 20
717.526779761223
 30
0.0
 40
3.895075207125653
100
AcDbArc
 50
107.1278463605043
 51
207.8721536394997
  0
LINE
  5
1E8
330
20
100
AcDbEntity
  8
STEMPEL
100
AcDbLine
 10
606.7027872665711
 20
672.4029946124464
 30
0.0
 11
606.702787266571
 21
584.4848810387689
 31
0.0
  0
ARC
  5
1E9
330
20
100
AcDbEntity
  8
SCHRAFF
100
AcDbCircle
 10
599.5061972013968
 20
675.431147490076
 30
0.0
 40
3.895075207125653
100
AcDbArc
 50
107.1278463605043
 51
207.8721536394997
  0
ARC
  5
1EA
330
20
100
AcDbEntity
  8
SCHRAFF
100
AcDbCircle
 10
581.0284069567289
 20
683.0848988121026
 30
0.0
 40
3.895075207125653
100
AcDbArc
 50
107.1278463605043
 51
207.8721536394997
  0
ARC
  5
1EB
330
20
100
AcDbEntity
  8
SCHRAFF
100
AcDbCircle
 10
590.267302079063
 20
679.2580231510894
 30
0.0
 40
3.895075207125653
100
AcDbArc
 50
107.1278463605043
 51
207.8721536394997
  0
ARC
  5
1EC
330
20
100
AcDbEntity
  8
SCHRAFF
100
AcDbCircle
 10
562.5506167120611
 20
690.7386501341295
 30
0.0
 40
3.895075207125653
100
AcDbArc
 50
107.1278463605043
 51
207.8721536394997
  0
ARC
  5
1ED
330
20
100
AcDbEntity
  8
SCHRAFF
100
AcDbCircle
 10
544.0728264673932
 20
698.3924014561559
 30
0.0
 40
3.895075207125653
100
AcDbArc
 50
107.1278463605043
 51
207.8721536394997
  0
ARC
  5
1EE
330
20
100
AcDbEntity
  8
SCHRAFF
100
AcDbCircle
 10
525.5950362227252
 20
706.0461527781826
 30
0.0
 40
3.895075207125653
100
AcDbArc
 50
107.1278463605043
 51
207.8721536394997
  0
ARC
  5
1EF
330
20
100
AcDbEntity
  8
SCHRAFF
100
AcDbCircle
 10
534.8339313450592
 20
702.2192771171694
 30
0.0
 40
3.895075207125653
100
AcDbArc
 50
107.1278463605043
 51
207.8721536394997
  0
ARC
  5
1F0
330
20
100
AcDbEntity
  8
SCHRAFF
100
AcDbCircle
 10
553.311721589727
 20
694.5655257951427
 30
0.0
 40
3.895075207125653
100
AcDbArc
 50
107.1278463605043
 51
207.8721536394997
  0
ARC
  5
1F1
330
20
100
AcDbEntity
  8
SCHRAFF
100
AcDbCircle
 10
571.7895118343949
 20
686.9117744731161
 30
0.0
 40
3.895075207125653
100
AcDbArc
 50
107.1278463605043
 51
207.8721536394997
  0
INSERT
  5
1F2
330
20
100
AcDbEntity
  8
SCHRAFF
100
AcDbBlockReference
  2
*X2
 10
77.43167719578991
 20
-36.88444922215519
 30
0.0
1001
ACAD
1000
HATCH
1002
{
1070
    16
1000
_U,I
1040
0.1
1040
0.0
1070
     0
1002
}
  0
ARC
  5
1F3
330
20
100
AcDbEntity
  8
SCHRAFF
100
AcDbCircle
 10
605.2409770389629
 20
673.0084962343376
 30
0.0
 40
4.120681816123603
100
AcDbArc
 50
290.7780987515348
 51
24.22190124846162
  0
ARC
  5
1F4
330
20
100
AcDbEntity
  8
SCHRAFF
100
AcDbCircle
 10
608.7450923237309
 20
671.6042718290625
 30
0.0
 40
3.895075207125653
100
AcDbArc
 50
107.1278463605043
 51
207.8721536394997
  0
LINE
  5
1F5
330
20
100
AcDbEntity
  8
STEMPEL
100
AcDbLine
 10
606.702787266571
 20
1244.484881038769
 30
0.0
 11
282.802787266571
 21
1244.484881038769
 31
0.0
  0
SOLID
  5
1F6
330
20
100
AcDbEntity
  8
BEM
100
AcDbTrace
 10
894.4980111349062
 20
1214.032055790252
 30
0.0
 11
890.429044199244
 21
1209.852189063397
 31
0.0
 12
905.0031278476387
 22
1199.735221619838
 32
0.0
 13
905.0031278476387
 23
1199.735221619838
 33
0.0
  0
LINE
  5
1FA
330
20
100
AcDbEntity
  8
STEMPEL
100
AcDbLine
 10
916.3576549789388
 20
982.057862324814
 30
0.0
 11
687.3257685526161
 21
1211.089748751137
 31
0.0
  0
LINE
  5
1FB
330
20
100
AcDbEntity
  8
STEMPEL
100
AcDbLine
 10
687.3257685526161
 20
1211.089748751137
 30
0.0
 11
606.7027872665711
 21
1130.466767465091
 31
0.0
  0
LINE
  5
1FC
330
20
100
AcDbEntity
  8
STEMPEL
100
AcDbLine
 10
606.702787266571
 20
1244.484881038769
 30
0.0
 11
606.7027872665711
 21
1130.466767465091
 31
0.0
  0
ARC
  5
20C
330
20
100
AcDbEntity
  8
SCHRAFF
100
AcDbCircle
 10
543.4761094728425
 20
977.7100467507398
 30
0.0
 40
3.22008508024071
100
AcDbArc
 50
178.8061231207325
 51
316.1938768792653
  0
ARC
  5
20D
330
20
100
AcDbEntity
  8
SCHRAFF
100
AcDbCircle
 10
524.3437977465618
 20
931.5205603016034
 30
0.0
 40
3.22008508024071
100
AcDbArc
 50
178.8061231207325
 51
316.1938768792653
  0
ARC
  5
20E
330
20
100
AcDbEntity
  8
SCHRAFF
100
AcDbCircle
 10
520.5173354013059
 20
922.2826630117761
 30
0.0
 40
3.22008508024071
100
AcDbArc
 50
178.8061231207325
 51
316.1938768792653
  0
ARC
  5
20F
330
20
100
AcDbEntity
  8
SCHRAFF
100
AcDbCircle
 10
447.8145508414392
 20
746.7626145050576
 30
0.0
 40
3.22008508024071
100
AcDbArc
 50
178.8061231207325
 51
316.1938768792653
  0
ARC
  5
210
330
20
100
AcDbEntity
  8
SCHRAFF
100
AcDbCircle
 10
470.7733249129762
 20
802.1899982440213
 30
0.0
 40
3.22008508024071
100
AcDbArc
 50
178.8061231207325
 51
316.1938768792653
  0
ARC
  5
211
330
20
100
AcDbEntity
  8
SCHRAFF
100
AcDbCircle
 10
459.2939378772078
 20
774.4763063745395
 30
0.0
 40
3.22008508024071
100
AcDbArc
 50
178.8061231207325
 51
316.1938768792653
  0
ARC
  5
212
330
20
100
AcDbEntity
  8
SCHRAFF
100
AcDbCircle
 10
455.4674755319517
 20
765.2384090847122
 30
0.0
 40
3.22008508024071
100
AcDbArc
 50
178.8061231207325
 51
316.1938768792653
  0
ARC
  5
213
330
20
100
AcDbEntity
  8
SCHRAFF
100
AcDbCircle
 10
451.6410131866957
 20
756.0005117948849
 30
0.0
 40
3.22008508024071
100
AcDbArc
 50
178.8061231207325
 51
316.1938768792653
  0
ARC
  5
214
330
20
100
AcDbEntity
  8
SCHRAFF
100
AcDbCircle
 10
466.94686256772
 20
792.952100954194
 30
0.0
 40
3.22008508024071
100
AcDbArc
 50
178.8061231207325
 51
316.1938768792653
  0
ARC
  5
215
330
20
100
AcDbEntity
  8
SCHRAFF
100
AcDbCircle
 10
463.120400222464
 20
783.7142036643667
 30
0.0
 40
3.22008508024071
100
AcDbArc
 50
178.8061231207325
 51
316.1938768792653
  0
ARC
  5
216
330
20
100
AcDbEntity
  8
SCHRAFF
100
AcDbCircle
 10
486.0791742940007
 20
839.1415874033304
 30
0.0
 40
3.22008508024071
100
AcDbArc
 50
178.8061231207325
 51
316.1938768792653
  0
ARC
  5
217
330
20
100
AcDbEntity
  8
SCHRAFF
100
AcDbCircle
 10
482.2527119487444
 20
829.9036901135032
 30
0.0
 40
3.22008508024071
100
AcDbArc
 50
178.8061231207325
 51
316.1938768792653
  0
ARC
  5
218
330
20
100
AcDbEntity
  8
SCHRAFF
100
AcDbCircle
 10
474.5997872582322
 20
811.4278955338486
 30
0.0
 40
3.22008508024071
100
AcDbArc
 50
178.8061231207325
 51
316.1938768792653
  0
ARC
  5
219
330
20
100
AcDbEntity
  8
SCHRAFF
100
AcDbCircle
 10
478.4262496034882
 20
820.665792823676
 30
0.0
 40
3.22008508024071
100
AcDbArc
 50
178.8061231207325
 51
316.1938768792653
  0
ARC
  5
21A
330
20
100
AcDbEntity
  8
SCHRAFF
100
AcDbCircle
 10
493.732098984513
 20
857.617381982985
 30
0.0
 40
3.22008508024071
100
AcDbArc
 50
178.8061231207325
 51
316.1938768792653
  0
ARC
  5
21B
330
20
100
AcDbEntity
  8
SCHRAFF
100
AcDbCircle
 10
489.9056366392567
 20
848.3794846931578
 30
0.0
 40
3.22008508024071
100
AcDbArc
 50
178.8061231207325
 51
316.1938768792653
  0
ARC
  5
21C
330
20
100
AcDbEntity
  8
SCHRAFF
100
AcDbCircle
 10
505.2114860202812
 20
885.3310738524669
 30
0.0
 40
3.22008508024071
100
AcDbArc
 50
178.8061231207325
 51
316.1938768792653
  0
ARC
  5
21D
330
20
100
AcDbEntity
  8
SCHRAFF
100
AcDbCircle
 10
501.3850236750251
 20
876.0931765626397
 30
0.0
 40
3.22008508024071
100
AcDbArc
 50
178.8061231207325
 51
316.1938768792653
  0
ARC
  5
21E
330
20
100
AcDbEntity
  8
SCHRAFF
100
AcDbCircle
 10
497.5585613297692
 20
866.8552792728123
 30
0.0
 40
3.22008508024071
100
AcDbArc
 50
178.8061231207325
 51
316.1938768792653
  0
ARC
  5
21F
330
20
100
AcDbEntity
  8
SCHRAFF
100
AcDbCircle
 10
516.6908730560496
 20
913.0447657219487
 30
0.0
 40
3.22008508024071
100
AcDbArc
 50
178.8061231207325
 51
316.1938768792653
  0
ARC
  5
220
330
20
100
AcDbEntity
  8
SCHRAFF
100
AcDbCircle
 10
509.0379483655376
 20
894.5689711422941
 30
0.0
 40
3.22008508024071
100
AcDbArc
 50
178.8061231207325
 51
316.1938768792653
  0
ARC
  5
221
330
20
100
AcDbEntity
  8
SCHRAFF
100
AcDbCircle
 10
512.8644107107937
 20
903.8068684321215
 30
0.0
 40
3.22008508024071
100
AcDbArc
 50
178.8061231207325
 51
316.1938768792653
  0
ARC
  5
222
330
20
100
AcDbEntity
  8
SCHRAFF
100
AcDbCircle
 10
528.1702600918181
 20
940.7584575914306
 30
0.0
 40
3.22008508024071
100
AcDbArc
 50
178.8061231207325
 51
316.1938768792653
  0
ARC
  5
223
330
20
100
AcDbEntity
  8
SCHRAFF
100
AcDbCircle
 10
539.6496471275863
 20
968.4721494609124
 30
0.0
 40
3.22008508024071
100
AcDbArc
 50
178.8061231207325
 51
316.1938768792653
  0
ARC
  5
224
330
20
100
AcDbEntity
  8
SCHRAFF
100
AcDbCircle
 10
531.9967224370741
 20
949.996354881258
 30
0.0
 40
3.22008508024071
100
AcDbArc
 50
178.8061231207325
 51
316.1938768792653
  0
ARC
  5
225
330
20
100
AcDbEntity
  8
SCHRAFF
100
AcDbCircle
 10
535.8231847823301
 20
959.2342521710852
 30
0.0
 40
3.22008508024071
100
AcDbArc
 50
178.8061231207325
 51
316.1938768792653
  0
ARC
  5
226
330
20
100
AcDbEntity
  8
SCHRAFF
100
AcDbCircle
 10
566.4348835443793
 20
1033.137430489703
 30
0.0
 40
3.22008508024071
100
AcDbArc
 50
178.8061231207325
 51
316.1938768792653
  0
ARC
  5
227
330
20
100
AcDbEntity
  8
SCHRAFF
100
AcDbCircle
 10
562.6084211991233
 20
1023.899533199876
 30
0.0
 40
3.22008508024071
100
AcDbArc
 50
178.8061231207325
 51
316.1938768792653
  0
ARC
  5
228
330
20
100
AcDbEntity
  8
SCHRAFF
100
AcDbCircle
 10
558.7819588538673
 20
1014.661635910049
 30
0.0
 40
3.22008508024071
100
AcDbArc
 50
178.8061231207325
 51
316.1938768792653
  0
ARC
  5
229
330
20
100
AcDbEntity
  8
SCHRAFF
100
AcDbCircle
 10
554.9554965086108
 20
1005.423738620222
 30
0.0
 40
3.22008508024071
100
AcDbArc
 50
178.8061231207325
 51
316.1938768792653
  0
ARC
  5
22A
330
20
100
AcDbEntity
  8
SCHRAFF
100
AcDbCircle
 10
551.1290341633548
 20
996.1858413303943
 30
0.0
 40
3.22008508024071
100
AcDbArc
 50
178.8061231207325
 51
316.1938768792653
  0
ARC
  5
22B
330
20
100
AcDbEntity
  8
SCHRAFF
100
AcDbCircle
 10
547.3025718180986
 20
986.9479440405671
 30
0.0
 40
3.22008508024071
100
AcDbArc
 50
178.8061231207325
 51
316.1938768792653
  0
ARC
  5
22C
330
20
100
AcDbEntity
  8
SCHRAFF
100
AcDbCircle
 10
577.9142705801477
 20
1060.851122359185
 30
0.0
 40
3.22008508024071
100
AcDbArc
 50
178.8061231207325
 51
316.1938768792653
  0
ARC
  5
22D
330
20
100
AcDbEntity
  8
SCHRAFF
100
AcDbCircle
 10
574.0878082348915
 20
1051.613225069358
 30
0.0
 40
3.22008508024071
100
AcDbArc
 50
178.8061231207325
 51
316.1938768792653
  0
ARC
  5
22E
330
20
100
AcDbEntity
  8
SCHRAFF
100
AcDbCircle
 10
570.2613458896355
 20
1042.375327779531
 30
0.0
 40
3.22008508024071
100
AcDbArc
 50
178.8061231207325
 51
316.1938768792653
  0
ARC
  5
22F
330
20
100
AcDbEntity
  8
SCHRAFF
100
AcDbCircle
 10
581.7407329254037
 20
1070.089019649012
 30
0.0
 40
3.22008508024071
100
AcDbArc
 50
178.8061231207325
 51
316.1938768792653
  0
ARC
  5
230
330
20
100
AcDbEntity
  8
SCHRAFF
100
AcDbCircle
 10
585.5671952706598
 20
1079.32691693884
 30
0.0
 40
3.22008508024071
100
AcDbArc
 50
178.8061231207325
 51
316.1938768792653
  0
ARC
  5
231
330
20
100
AcDbEntity
  8
SCHRAFF
100
AcDbCircle
 10
589.393657615916
 20
1088.564814228667
 30
0.0
 40
3.22008508024071
100
AcDbArc
 50
178.8061231207325
 51
316.1938768792653
  0
ARC
  5
232
330
20
100
AcDbEntity
  8
SCHRAFF
100
AcDbCircle
 10
600.8730446516843
 20
1116.278506098149
 30
0.0
 40
3.22008508024071
100
AcDbArc
 50
178.8061231207325
 51
316.1938768792653
  0
ARC
  5
233
330
20
100
AcDbEntity
  8
SCHRAFF
100
AcDbCircle
 10
597.0465823064282
 20
1107.040608808322
 30
0.0
 40
3.22008508024071
100
AcDbArc
 50
178.8061231207325
 51
316.1938768792653
  0
ARC
  5
234
330
20
100
AcDbEntity
  8
SCHRAFF
100
AcDbCircle
 10
593.2201199611722
 20
1097.802711518494
 30
0.0
 40
3.22008508024071
100
AcDbArc
 50
178.8061231207325
 51
316.1938768792653
  0
INSERT
  5
235
330
20
100
AcDbEntity
  8
SCHRAFF
100
AcDbBlockReference
  2
*X1
 10
77.43167719578991
 20
-36.88444922215519
 30
0.0
1001
ACAD
1000
HATCH
1002
{
1070
    16
1000
_U,I
1040
0.1
1040
0.0
1070
     0
1002
}
  0
ARC
  5
236
330
20
100
AcDbEntity
  8
SCHRAFF
100
AcDbCircle
 10
608.0156801457992
 20
1133.636371260067
 30
0.0
 40
4.850822288025433
100
AcDbArc
 50
29.29683198226854
 51
105.7031680177284
  0
ARC
  5
237
330
20
100
AcDbEntity
  8
SCHRAFF
100
AcDbCircle
 10
604.6995069969406
 20
1125.516403387976
 30
0.0
 40
3.22008508024071
100
AcDbArc
 50
178.8061231207325
 51
316.1938768792653
  0
LINE
  5
238
330
20
100
AcDbEntity
  8
BEM
100
AcDbLine
 10
812.4483134835756
 20
1107.180407255773
 30
0.0
 11
854.5990558486458
 21
1149.331149620844
 31
0.0
  0
POINT
  5
239
330
20
100
AcDbEntity
  8
BEM
100
AcDbPoint
 10
808.9127795776429
 20
1103.644873349841
 30
0.0
  0
LINE
  5
23A
330
20
100
AcDbEntity
  8
BEM
100
AcDbLine
 10
887.2106891402758
 20
1181.942782912474
 30
0.0
 11
908.5386617535716
 21
1203.27075552577
 31
0.0
  0
ARC
  5
23B
330
20
100
AcDbEntity
  8
BEM
100
AcDbCircle
 10
444.7527872665709
 20
739.4848810387689
 30
0.0
 40
650.8922737365832
100
AcDbArc
 50
46.54051044146531
 51
88.45948955853478
  0
LINE
  5
23C
330
20
100
AcDbEntity
  8
BEM
100
AcDbLine
 10
444.7527872665709
 20
1259.484881038769
 30
0.0
 11
444.7527872665709
 21
1395.377154775352
 31
0.0
  0
POINT
  5
23D
330
20
100
AcDbEntity
  8
BEM
100
AcDbPoint
 10
444.7527872665709
 20
1254.484881038769
 30
0.0
  0
SOLID
  5
23E
330
20
100
AcDbEntity
  8
BEM
100
AcDbTrace
 10
462.2119969283152
 20
1387.225497682376
 30
0.0
 11
462.2904149226994
 21
1393.058303902022
 31
0.0
 12
444.7527872665709
 22
1390.377154775352
 32
0.0
 13
444.7527872665709
 23
1390.377154775352
 33
0.0
  0
POINT
  5
23F
330
20
100
AcDbEntity
  8
DEFPOINTS
  6
ByBlock
 62
     0
100
AcDbPoint
 10
825.0775385927282
 20
1267.702483489383
 30
0.0
  0
TEXT
  5
240
330
20
100
AcDbEntity
  8
0
  6
ByBlock
 62
     1
100
AcDbText
 10
692.8787849033396
 20
1355.126557602638
 30
0.0
 40
17.5
  1
45%%d
 50
337.1959369436675
 41
0.8
  7
GREEKS
 72
     1
 11
709.7903747678855
 21
1357.508098986805
 31
0.0
100
AcDbText
 73
     2
  0
LINE
  5
242
330
20
100
AcDbEntity
  8
HILF
100
AcDbLine
 10
1050.0
 20
-0.0000000000002842
 30
0.0
 11
1050.0
 21
1485.0
 31
0.0
  0
LINE
  5
243
330
20
100
AcDbEntity
  8
STEMPEL
100
AcDbLine
 10
1025.0
 20
25.0
 30
0.0
 11
1025.0
 21
1460.0
 31
0.0
  0
LINE
  5
24A
330
20
100
AcDbEntity
  8
HILF
100
AcDbLine
 10
606.7027872665711
 20
915.5770166625002
 30
0.0
 11
606.7027872665711
 21
887.2927454150381
 31
0.0
  0
TEXT
  5
24D
330
20
100
AcDbEntity
  8
TEXT
 62
     1
100
AcDbText
 10
434.4841165258746
 20
983.1522056280263
 30
0.0
 40
17.5
  1
DN300
 50
90.0
 41
0.8
  7
GREEKS
100
AcDbText
  0
TEXT
  5
24E
330
20
100
AcDbEntity
  8
TEXT
 62
     1
100
AcDbText
 10
740.8910640175304
 20
1049.427960869544
 30
0.0
 40
17.5
  1
DN300
 50
45.0
 41
0.8
  7
GREEKS
100
AcDbText
  0
TEXT
  5
257
330
20
100
AcDbEntity
  8
BEM
100
AcDbText
 10
1043.255730964291
 20
25.41975269997152
 30
0.0
 40
10.0
  1
Diese Zeichnung ist urheberrechtlich geschützt und bleibt unser Eigentum. Sie darf weder ganz noch teilweise verfielfältigt und nicht an Dritte weitergegeben werden.
 50
90.0
 41
0.8
  7
GREEKS
100
AcDbText
  0
TEXT
  5
258
330
20
100
AcDbEntity
  8
TEXT
100
AcDbText
 10
481.7206788119809
 20
222.6687700560299
 30
0.0
 40
10.0
  1
DIN EN1123-2
 41
0.8
  7
GREEKS
 72
     1
 11
524.1968692881714
 21
222.6687700560299
 31
0.0
100
AcDbText
  0
ENDSEC
  0
SECTION
  2
OBJECTS
  0
DICTIONARY
  5
C
330
0
100
AcDbDictionary
281
     1
  3
ACAD_COLOR
350
1B
  3
ACAD_GROUP
350
D
  3
ACAD_LAYOUT
350
19
  3
ACAD_MATERIAL
350
1A
  3
ACAD_MLINESTYLE
350
16
  3
ACAD_PLOTSETTINGS
350
18
  3
ACAD_PLOTSTYLENAME
350
E
  3
AcDbVariableDictionary
350
26D
  0
DICTIONARY
  5
1B
102
{ACAD_REACTORS
330
C
102
}
330
C
100
AcDbDictionary
281
     1
  0
DICTIONARY
  5
D
102
{ACAD_REACTORS
330
C
102
}
330
C
100
AcDbDictionary
281
     1
  0
DICTIONARY
  5
19
102
{ACAD_REACTORS
330
C
102
}
330
C
100
AcDbDictionary
281
     1
  3
Layout1
350
1F
  3
Model
350
23
  0
DICTIONARY
  5
1A
102
{ACAD_REACTORS
330
C
102
}
330
C
100
AcDbDictionary
281
     1
  0
DICTIONARY
  5
16
102
{ACAD_REACTORS
330
C
102
}
330
C
100
AcDbDictionary
281
     1
  3
Standard
350
17
  0
DICTIONARY
  5
18
102
{ACAD_REACTORS
330
C
102
}
330
C
100
AcDbDictionary
281
     1
  0
ACDBDICTIONARYWDFLT
  5
E
102
{ACAD_REACTORS
330
C
102
}
330
C
100
AcDbDictionary
281
     1
  3
Normal
350
F
100
AcDbDictionaryWithDefault
340
F
  0
DICTIONARY
  5
26D
102
{ACAD_REACTORS
330
C
102
}
330
C
100
AcDbDictionary
281
     1
  3
DIMASSOC
350
26F
  3
HIDETEXT
350
26E
  3
PROJECTNAME
350
270
  0
LAYOUT
  5
1F
102
{ACAD_REACTORS
330
19
102
}
330
19
100
AcDbPlotSettings
  1

  2
RICOH Aficio 2027 PCL 6
  4

  6

 40
0.0
 41
0.0
 42
0.0
 43
0.0
 44
0.0
 45
0.0
 46
0.0
 47
0.0
 48
0.0
 49
0.0
140
0.0
141
0.0
142
1.0
143
1.0
 70
   688
 72
     0
 73
     0
 74
     5
  7
monochrome1.ctb
 75
    16
147
1.0
 76
     0
 77
     2
 78
   300
148
0.0
149
0.0
100
AcDbLayout
  1
Layout1
 70
     0
 71
     1
 10
0.0
 20
0.0
 11
12.0
 21
9.0
 12
0.0
 22
0.0
 32
0.0
 14
1.000000000000000E+20
 24
1.000000000000000E+20
 34
1.000000000000000E+20
 15
-1.000000000000000E+20
 25
-1.000000000000000E+20
 35
-1.000000000000000E+20
146
0.0
 13
0.0
 23
0.0
 33
0.0
 16
1.0
 26
0.0
 36
0.0
 17
0.0
 27
1.0
 37
0.0
 76
     0
330
1C
  0
LAYOUT
  5
23
102
{ACAD_REACTORS
330
19
102
}
330
19
100
AcDbPlotSettings
  1

  2
RICOH Aficio 2027 PCL 6
  4
A4
  6

 40
5.027083396911621
 41
5.027085304260253
 42
5.027084350585937
 43
5.027069091796875
 44
209.9733276367187
 45
296.9259948730469
 46
0.0
 47
0.0
 48
0.0
 49
0.0
140
0.0
141
0.0
142
1.0
143
1.0
 70
 11952
 72
     0
 73
     1
 74
     0
  7
monochrome1.ctb
 75
     0
147
1.0
 76
     0
 77
     2
 78
   300
148
5752.699293353071
149
228.1992676275874
100
AcDbLayout
  1
Model
 70
     1
 71
     0
 10
0.0
 20
0.0
 11
12.0
 21
9.0
 12
0.0
 22
0.0
 32
0.0
 14
0.0
 24
0.0
 34
0.0
 15
0.0
 25
0.0
 35
0.0
146
0.0
 13
0.0
 23
0.0
 33
0.0
 16
1.0
 26
0.0
 36
0.0
 17
0.0
 27
1.0
 37
0.0
 76
     0
330
20
  0
MLINESTYLE
  5
17
102
{ACAD_REACTORS
330
16
102
}
330
16
100
AcDbMlineStyle
  2
STANDARD
 70
     0
  3

 62
   256
 51
90.0
 52
90.0
 71
     2
 49
0.5
 62
   256
  6
BYLAYER
 49
-0.5
 62
   256
  6
BYLAYER
  0
ACDBPLACEHOLDER
  5
F
102
{ACAD_REACTORS
330
E
102
}
330
E
  0
DICTIONARYVAR
  5
26F
102
{ACAD_REACTORS
330
26D
102
}
330
26D
100
DictionaryVariables
280
     0
  1
2
  0
DICTIONARYVAR
  5
26E
102
{ACAD_REACTORS
330
26D
102
}
330
26D
100
DictionaryVariables
280
     0
  1
1
  0
DICTIONARYVAR
  5
270
102
{ACAD_REACTORS
330
26D
102
}
330
26D
100
DictionaryVariables
280
     0
  1

  0
ENDSEC
  0
EOF
