  0
SECTION
  2
HEADER
  9
$ACADVER
  1
AC1018
  9
$ACADMAINTVER
 70
     2
  9
$DWGCODEPAGE
  3
ANSI_1252
  9
$INSBASE
 10
0.0
 20
0.0
 30
0.0
  9
$EXTMIN
 10
-0.0480524721101574
 20
-0.0679599248414888
 30
-0.0000000000000058
  9
$EXTMAX
 10
1050.048072030928
 20
1485.067987586599
 30
0.0000000000000104
  9
$LIMMIN
 10
0.0
 20
0.0
  9
$LIMMAX
 10
1050.0
 20
1485.0
  9
$ORTHOMODE
 70
     0
  9
$REGENMODE
 70
     1
  9
$FILLMODE
 70
     1
  9
$QTEXTMODE
 70
     0
  9
$MIRRTEXT
 70
     1
  9
$LTSCALE
 40
50.0
  9
$ATTMODE
 70
     1
  9
$TEXTSIZE
 40
2.5
  9
$TRACEWID
 40
0.5
  9
$TEXTSTYLE
  7
GREEKS
  9
$CLAYER
  8
BEM
  9
$CELTYPE
  6
ByLayer
  9
$CECOLOR
 62
   256
  9
$CELTSCALE
 40
1.0
  9
$DISPSILH
 70
     0
  9
$DIMSCALE
 40
5.0
  9
$DIMASZ
 40
3.5
  9
$DIMEXO
 40
1.0
  9
$DIMDLI
 40
7.0
  9
$DIMRND
 40
0.0
  9
$DIMDLE
 40
0.0
  9
$DIMEXE
 40
1.0
  9
$DIMTP
 40
4.0
  9
$DIMTM
 40
4.0
  9
$DIMTXT
 40
3.5
  9
$DIMCEN
 40
1.5
  9
$DIMTSZ
 40
0.0
  9
$DIMTOL
 70
     0
  9
$DIMLIM
 70
     0
  9
$DIMTIH
 70
     0
  9
$DIMTOH
 70
     0
  9
$DIMSE1
 70
     0
  9
$DIMSE2
 70
     0
  9
$DIMTAD
 70
     1
  9
$DIMZIN
 70
     8
  9
$DIMBLK
  1

  9
$DIMASO
 70
     1
  9
$DIMSHO
 70
     0
  9
$DIMPOST
  1

  9
$DIMAPOST
  1

  9
$DIMALT
 70
     0
  9
$DIMALTD
 70
     2
  9
$DIMALTF
 40
25.4
  9
$DIMLFAC
 40
1.0
  9
$DIMTOFL
 70
     1
  9
$DIMTVP
 40
0.0
  9
$DIMTIX
 70
     0
  9
$DIMSOXD
 70
     0
  9
$DIMSAH
 70
     0
  9
$DIMBLK1
  1

  9
$DIMBLK2
  1

  9
$DIMSTYLE
  2
Standard
  9
$DIMCLRD
 70
     0
  9
$DIMCLRE
 70
     0
  9
$DIMCLRT
 70
     1
  9
$DIMTFAC
 40
0.5
  9
$DIMGAP
 40
1.5
  9
$DIMJUST
 70
     0
  9
$DIMSD1
 70
     0
  9
$DIMSD2
 70
     0
  9
$DIMTOLJ
 70
     1
  9
$DIMTZIN
 70
     8
  9
$DIMALTZ
 70
     8
  9
$DIMALTTZ
 70
     8
  9
$DIMUPT
 70
     0
  9
$DIMDEC
 70
     2
  9
$DIMTDEC
 70
     2
  9
$DIMALTU
 70
     2
  9
$DIMALTTD
 70
     2
  9
$DIMTXSTY
  7
GREEKS
  9
$DIMAUNIT
 70
     0
  9
$DIMADEC
 70
     2
  9
$DIMALTRND
 40
0.0
  9
$DIMAZIN
 70
     2
  9
$DIMDSEP
 70
    46
  9
$DIMATFIT
 70
     3
  9
$DIMFRAC
 70
     0
  9
$DIMLDRBLK
  1

  9
$DIMLUNIT
 70
     2
  9
$DIMLWD
 70
    -2
  9
$DIMLWE
 70
    -2
  9
$DIMTMOVE
 70
     0
  9
$LUNITS
 70
     2
  9
$LUPREC
 70
     2
  9
$SKETCHINC
 40
1.0
  9
$FILLETRAD
 40
0.0
  9
$AUNITS
 70
     0
  9
$AUPREC
 70
     0
  9
$MENU
  1
ACAD
  9
$ELEVATION
 40
0.0
  9
$PELEVATION
 40
0.0
  9
$THICKNESS
 40
0.0
  9
$LIMCHECK
 70
     0
  9
$CHAMFERA
 40
0.0
  9
$CHAMFERB
 40
0.0
  9
$CHAMFERC
 40
0.0
  9
$CHAMFERD
 40
0.0
  9
$SKPOLY
 70
     0
  9
$TDCREATE
 40
2452215.143079630
  9
$TDUCREATE
 40
2452215.059746296
  9
$TDUPDATE
 40
2455657.558169283
  9
$TDUUPDATE
 40
2455657.474835949
  9
$TDINDWG
 40
0.0159375810
  9
$TDUSRTIMER
 40
0.0159375810
  9
$USRTIMER
 70
     1
  9
$ANGBASE
 50
0.0
  9
$ANGDIR
 70
     0
  9
$PDMODE
 70
     0
  9
$PDSIZE
 40
0.0
  9
$PLINEWID
 40
0.0
  9
$SPLFRAME
 70
     0
  9
$SPLINETYPE
 70
     6
  9
$SPLINESEGS
 70
     8
  9
$HANDSEED
  5
37C
  9
$SURFTAB1
 70
     6
  9
$SURFTAB2
 70
     6
  9
$SURFTYPE
 70
     6
  9
$SURFU
 70
     6
  9
$SURFV
 70
     6
  9
$UCSBASE
  2

  9
$UCSNAME
  2

  9
$UCSORG
 10
0.0
 20
0.0
 30
0.0
  9
$UCSXDIR
 10
1.0
 20
0.0
 30
0.0
  9
$UCSYDIR
 10
0.0
 20
1.0
 30
0.0
  9
$UCSORTHOREF
  2

  9
$UCSORTHOVIEW
 70
     0
  9
$UCSORGTOP
 10
0.0
 20
0.0
 30
0.0
  9
$UCSORGBOTTOM
 10
0.0
 20
0.0
 30
0.0
  9
$UCSORGLEFT
 10
0.0
 20
0.0
 30
0.0
  9
$UCSORGRIGHT
 10
0.0
 20
0.0
 30
0.0
  9
$UCSORGFRONT
 10
0.0
 20
0.0
 30
0.0
  9
$UCSORGBACK
 10
0.0
 20
0.0
 30
0.0
  9
$PUCSBASE
  2

  9
$PUCSNAME
  2

  9
$PUCSORG
 10
0.0
 20
0.0
 30
0.0
  9
$PUCSXDIR
 10
1.0
 20
0.0
 30
0.0
  9
$PUCSYDIR
 10
0.0
 20
1.0
 30
0.0
  9
$PUCSORTHOREF
  2

  9
$PUCSORTHOVIEW
 70
     0
  9
$PUCSORGTOP
 10
0.0
 20
0.0
 30
0.0
  9
$PUCSORGBOTTOM
 10
0.0
 20
0.0
 30
0.0
  9
$PUCSORGLEFT
 10
0.0
 20
0.0
 30
0.0
  9
$PUCSORGRIGHT
 10
0.0
 20
0.0
 30
0.0
  9
$PUCSORGFRONT
 10
0.0
 20
0.0
 30
0.0
  9
$PUCSORGBACK
 10
0.0
 20
0.0
 30
0.0
  9
$USERI1
 70
     0
  9
$USERI2
 70
     0
  9
$USERI3
 70
     0
  9
$USERI4
 70
     0
  9
$USERI5
 70
     0
  9
$USERR1
 40
0.0
  9
$USERR2
 40
0.0
  9
$USERR3
 40
0.0
  9
$USERR4
 40
0.0
  9
$USERR5
 40
0.0
  9
$WORLDVIEW
 70
     1
  9
$SHADEDGE
 70
     3
  9
$SHADEDIF
 70
    70
  9
$TILEMODE
 70
     1
  9
$MAXACTVP
 70
    16
  9
$PINSBASE
 10
360.0242968800419
 20
50.00000000000001
 30
768.2943082147227
  9
$PLIMCHECK
 70
     0
  9
$PEXTMIN
 10
1.000000000000000E+20
 20
1.000000000000000E+20
 30
1.000000000000000E+20
  9
$PEXTMAX
 10
-1.000000000000000E+20
 20
-1.000000000000000E+20
 30
-1.000000000000000E+20
  9
$PLIMMIN
 10
0.0
 20
0.0
  9
$PLIMMAX
 10
12.0
 20
9.0
  9
$UNITMODE
 70
     0
  9
$VISRETAIN
 70
     0
  9
$PLINEGEN
 70
     0
  9
$PSLTSCALE
 70
     0
  9
$TREEDEPTH
 70
  3020
  9
$CMLSTYLE
  2
Standard
  9
$CMLJUST
 70
     0
  9
$CMLSCALE
 40
1.0
  9
$PROXYGRAPHICS
 70
     1
  9
$MEASUREMENT
 70
     0
  9
$CELWEIGHT
370
    -1
  9
$ENDCAPS
280
     0
  9
$JOINSTYLE
280
     0
  9
$LWDISPLAY
290
     0
  9
$INSUNITS
 70
     0
  9
$HYPERLINKBASE
  1

  9
$STYLESHEET
  1
monochrome 1.ctb
  9
$XEDIT
290
     1
  9
$CEPSNTYPE
380
     0
  9
$PSTYLEMODE
290
     1
  9
$FINGERPRINTGUID
  2
{A771E37E-F7DA-4D29-9131-CA005B584CBE}
  9
$VERSIONGUID
  2
{FABDF793-052D-49E9-9966-9C9A38CE433E}
  9
$EXTNAMES
290
     1
  9
$PSVPSCALE
 40
0.0
  9
$OLESTARTUP
290
     0
  9
$SORTENTS
280
   127
  9
$INDEXCTL
280
     0
  9
$HIDETEXT
280
     1
  9
$XCLIPFRAME
290
     0
  9
$HALOGAP
280
     0
  9
$OBSCOLOR
 70
   257
  9
$OBSLTYPE
280
     0
  9
$INTERSECTIONDISPLAY
280
     0
  9
$INTERSECTIONCOLOR
 70
   257
  9
$DIMASSOC
280
     2
  9
$PROJECTNAME
  1

  0
ENDSEC
  0
SECTION
  2
CLASSES
  0
CLASS
  1
ACDBDICTIONARYWDFLT
  2
AcDbDictionaryWithDefault
  3
ObjectDBX Classes
 90
        0
 91
        1
280
     0
281
     0
  0
CLASS
  1
DICTIONARYVAR
  2
AcDbDictionaryVar
  3
ObjectDBX Classes
 90
        0
 91
        3
280
     0
281
     0
  0
CLASS
  1
DIMASSOC
  2
AcDbDimAssoc
  3
"AcDbDimAssoc|Product Desc:     AcDim ARX App For Dimension|Company:          Autodesk, Inc.|WEB Address:      www.autodesk.com"
 90
        0
 91
        1
280
     0
281
     0
  0
ENDSEC
  0
SECTION
  2
TABLES
  0
TABLE
  2
VPORT
  5
8
330
0
100
AcDbSymbolTable
 70
     4
  0
VPORT
  5
37B
330
8
100
AcDbSymbolTableRecord
100
AcDbViewportTableRecord
  2
*Active
 70
     0
 10
0.0
 20
0.0
 11
1.0
 21
1.0
 12
524.9999999999998
 22
742.4999999999999
 13
0.0
 23
0.0
 14
1.0
 24
1.0
 15
10.0
 25
10.0
 16
0.0
 26
0.0
 36
1.0
 17
0.0
 27
0.0
 37
0.0
 40
1485.0
 41
1.334231805929919
 42
50.0
 43
0.0
 44
0.0
 50
0.0
 51
0.0
 71
     0
 72
  1500
 73
     1
 74
     0
 75
     0
 76
     0
 77
     0
 78
     0
281
     0
 65
     1
110
0.0
120
0.0
130
0.0
111
1.0
121
0.0
131
0.0
112
0.0
122
1.0
132
0.0
 79
     0
146
0.0
  0
ENDTAB
  0
TABLE
  2
LTYPE
  5
5
330
0
100
AcDbSymbolTable
 70
     3
  0
LTYPE
  5
13
330
5
100
AcDbSymbolTableRecord
100
AcDbLinetypeTableRecord
  2
ByBlock
 70
     0
  3

 72
    65
 73
     0
 40
0.0
  0
LTYPE
  5
14
330
5
100
AcDbSymbolTableRecord
100
AcDbLinetypeTableRecord
  2
ByLayer
 70
     0
  3

 72
    65
 73
     0
 40
0.0
  0
LTYPE
  5
15
330
5
100
AcDbSymbolTableRecord
100
AcDbLinetypeTableRecord
  2
AUSGEZOGEN
 70
     0
  3
Ausgezogene Linie
 72
    65
 73
     0
 40
0.0
  0
LTYPE
  5
35
330
5
100
AcDbSymbolTableRecord
100
AcDbLinetypeTableRecord
  2
STRICHPUNKT
 70
     0
  3
__ . __ . __ . __ . __ . __ . __ . __ . __ . __
 72
    65
 73
     4
 40
1.0
 49
0.5
 74
     0
 49
-0.25
 74
     0
 49
0.0
 74
     0
 49
-0.25
 74
     0
  0
LTYPE
  5
36
330
5
100
AcDbSymbolTableRecord
100
AcDbLinetypeTableRecord
  2
CONTINUOUS
 70
     0
  3
Solid line
 72
    65
 73
     0
 40
0.0
  0
ENDTAB
  0
TABLE
  2
LAYER
  5
2
330
0
100
AcDbSymbolTable
 70
     9
  0
LAYER
  5
10
330
2
100
AcDbSymbolTableRecord
100
AcDbLayerTableRecord
  2
0
 70
     0
 62
     7
  6
AUSGEZOGEN
370
    -3
390
F
  0
LAYER
  5
39
330
2
100
AcDbSymbolTableRecord
100
AcDbLayerTableRecord
  2
VOLL
 70
     0
 62
     1
  6
AUSGEZOGEN
370
    -3
390
F
  0
LAYER
  5
3A
330
2
100
AcDbSymbolTableRecord
100
AcDbLayerTableRecord
  2
HILF
 70
     0
 62
     2
  6
AUSGEZOGEN
370
    -3
390
F
  0
LAYER
  5
3B
330
2
100
AcDbSymbolTableRecord
100
AcDbLayerTableRecord
  2
MITTEL
 70
     0
 62
     2
  6
STRICHPUNKT
370
    -3
390
F
  0
LAYER
  5
3C
330
2
100
AcDbSymbolTableRecord
100
AcDbLayerTableRecord
  2
BEM
 70
     0
 62
     7
  6
AUSGEZOGEN
370
    -3
390
F
  0
LAYER
  5
3D
330
2
100
AcDbSymbolTableRecord
100
AcDbLayerTableRecord
  2
STEMPEL
 70
     0
 62
     3
  6
AUSGEZOGEN
370
    -3
390
F
  0
LAYER
  5
3E
330
2
100
AcDbSymbolTableRecord
100
AcDbLayerTableRecord
  2
TEXT
 70
     0
 62
     7
  6
AUSGEZOGEN
370
    -3
390
F
  0
LAYER
  5
3F
330
2
100
AcDbSymbolTableRecord
100
AcDbLayerTableRecord
  2
DEFPOINTS
 70
     0
 62
     7
  6
AUSGEZOGEN
290
     0
370
    -3
390
F
  0
LAYER
  5
40
330
2
100
AcDbSymbolTableRecord
100
AcDbLayerTableRecord
  2
SCHRAFF
 70
     0
 62
     7
  6
AUSGEZOGEN
370
    -3
390
F
  0
ENDTAB
  0
TABLE
  2
STYLE
  5
3
330
0
100
AcDbSymbolTable
 70
     2
  0
STYLE
  5
11
330
3
100
AcDbSymbolTableRecord
100
AcDbTextStyleTableRecord
  2
STANDARD
 70
     0
 40
0.0
 41
1.0
 50
0.0
 71
     0
 42
3.5
  3
txt
  4

  0
STYLE
  5
34
330
3
100
AcDbSymbolTableRecord
100
AcDbTextStyleTableRecord
  2
GREEKS
 70
     0
 40
0.0
 41
0.8
 50
0.0
 71
     0
 42
2.5
  3
SIMPLEX.shx
  4

  0
ENDTAB
  0
TABLE
  2
VIEW
  5
6
330
0
100
AcDbSymbolTable
 70
     0
  0
ENDTAB
  0
TABLE
  2
UCS
  5
7
330
0
100
AcDbSymbolTable
 70
     0
  0
ENDTAB
  0
TABLE
  2
APPID
  5
9
330
0
100
AcDbSymbolTable
 70
     1
  0
APPID
  5
12
330
9
100
AcDbSymbolTableRecord
100
AcDbRegAppTableRecord
  2
ACAD
 70
     0
  0
ENDTAB
  0
TABLE
  2
DIMSTYLE
  5
A
330
0
100
AcDbSymbolTable
 70
     1
100
AcDbDimStyleTable
 71
     1
340
267
  0
DIMSTYLE
105
267
102
{ACAD_REACTORS
330
1A5
330
1A4
330
1A6
330
20D
330
1B2
330
355
102
}
330
A
100
AcDbSymbolTableRecord
100
AcDbDimStyleTableRecord
  2
Standard
 70
     0
340
11
  0
ENDTAB
  0
TABLE
  2
BLOCK_RECORD
  5
1
330
0
100
AcDbSymbolTable
 70
     9
  0
BLOCK_RECORD
  5
20
330
1
100
AcDbSymbolTableRecord
100
AcDbBlockTableRecord
  2
*Model_Space
340
23
  0
BLOCK_RECORD
  5
1C
330
1
100
AcDbSymbolTableRecord
100
AcDbBlockTableRecord
  2
*Paper_Space
340
1F
  0
BLOCK_RECORD
  5
24
330
1
100
AcDbSymbolTableRecord
100
AcDbBlockTableRecord
  2
LOGO
340
0
102
{BLKREFS
331
1C0
102
}
  0
BLOCK_RECORD
  5
27
330
1
100
AcDbSymbolTableRecord
100
AcDbBlockTableRecord
  2
*X1
340
0
102
{BLKREFS
331
241
102
}
  0
BLOCK_RECORD
  5
28
330
1
100
AcDbSymbolTableRecord
100
AcDbBlockTableRecord
  2
*X2
340
0
102
{BLKREFS
331
1A8
102
}
  0
BLOCK_RECORD
  5
2A1
330
1
100
AcDbSymbolTableRecord
100
AcDbBlockTableRecord
  2
*D3
340
0
  0
BLOCK_RECORD
  5
2AD
330
1
100
AcDbSymbolTableRecord
100
AcDbBlockTableRecord
  2
*D4
340
0
  0
BLOCK_RECORD
  5
2CE
330
1
100
AcDbSymbolTableRecord
100
AcDbBlockTableRecord
  2
*D5
340
0
  0
BLOCK_RECORD
  5
317
330
1
100
AcDbSymbolTableRecord
100
AcDbBlockTableRecord
  2
*D6
340
0
  0
BLOCK_RECORD
  5
323
330
1
100
AcDbSymbolTableRecord
100
AcDbBlockTableRecord
  2
*D7
340
0
  0
BLOCK_RECORD
  5
356
330
1
100
AcDbSymbolTableRecord
100
AcDbBlockTableRecord
  2
*D8
340
0
  0
ENDTAB
  0
ENDSEC
  0
SECTION
  2
BLOCKS
  0
BLOCK
  5
43
330
20
100
AcDbEntity
  8
0
100
AcDbBlockBegin
  2
*Model_Space
 70
     0
 10
0.0
 20
0.0
 30
0.0
  3
*Model_Space
  1

  0
ENDBLK
  5
44
330
20
100
AcDbEntity
  8
0
100
AcDbBlockEnd
  0
BLOCK
  5
41
330
1C
100
AcDbEntity
 67
     1
  8
0
100
AcDbBlockBegin
  2
*Paper_Space
 70
     0
 10
0.0
 20
0.0
 30
0.0
  3
*Paper_Space
  1

  0
ENDBLK
  5
42
330
1C
100
AcDbEntity
 67
     1
  8
0
100
AcDbBlockEnd
  0
BLOCK
  5
45
330
24
100
AcDbEntity
  8
0
100
AcDbBlockBegin
  2
LOGO
 70
     0
 10
0.0
 20
0.0
 30
0.0
  3
LOGO
  1

  0
ARC
  5
46
330
24
100
AcDbEntity
  8
0
100
AcDbCircle
 10
11.59973089678112
 20
-9.271599258481501
 30
0.0
 40
4.5
100
AcDbArc
 50
270.0
 51
231.0575587310159
  0
LINE
  5
47
330
24
100
AcDbEntity
  8
0
100
AcDbLine
 10
3.599730896781125
 20
-4.771599258481529
 30
0.0
 11
3.599730896781153
 21
-11.77159925848133
 31
0.0
  0
LINE
  5
48
330
24
100
AcDbEntity
  8
0
100
AcDbLine
 10
2.599730896781125
 20
-4.771599258481529
 30
0.0
 11
2.599730896781153
 21
-11.77159925848133
 31
0.0
  0
CIRCLE
  5
49
330
24
100
AcDbEntity
  8
0
100
AcDbCircle
 10
11.59973089678112
 20
-9.271599258481501
 30
0.0
 40
3.5
  0
ARC
  5
4A
330
24
100
AcDbEntity
  8
0
100
AcDbCircle
 10
31.59973089678115
 20
-9.271599258481472
 30
0.0
 40
4.5
100
AcDbArc
 50
270.0
 51
231.0575587310182
  0
LINE
  5
4B
330
24
100
AcDbEntity
  8
0
100
AcDbLine
 10
17.59973089678112
 20
-4.771599258481472
 30
0.0
 11
17.59973089678115
 21
-13.77159925848147
 31
0.0
  0
ARC
  5
4C
330
24
100
AcDbEntity
  8
0
100
AcDbCircle
 10
22.59973089678116
 20
-7.271599258481472
 30
0.0
 40
2.5
100
AcDbArc
 50
293.1161887722295
 51
90.0
  0
CIRCLE
  5
4D
330
24
100
AcDbEntity
  8
0
100
AcDbCircle
 10
31.59973089678115
 20
-9.271599258481472
 30
0.0
 40
3.5
  0
ARC
  5
4E
330
24
100
AcDbEntity
  8
0
100
AcDbCircle
 10
4.599730896781153
 20
-11.77159925848133
 30
0.0
 40
1.0
100
AcDbArc
 50
180.0
 51
270.0
  0
ARC
  5
4F
330
24
100
AcDbEntity
  8
0
100
AcDbCircle
 10
4.599730896781153
 20
-11.77159925848133
 30
0.0
 40
2.0
100
AcDbArc
 50
179.9999999999992
 51
270.0
  0
LINE
  5
50
330
24
100
AcDbEntity
  8
0
100
AcDbLine
 10
11.59973089678115
 20
-13.77159925848144
 30
0.0
 11
4.599730896781153
 21
-13.77159925848147
 31
0.0
  0
LINE
  5
51
330
24
100
AcDbEntity
  8
0
100
AcDbLine
 10
8.771303772034769
 20
-12.77159925848136
 30
0.0
 11
4.599730896781153
 21
-12.77159925848133
 31
0.0
  0
LINE
  5
52
330
24
100
AcDbEntity
  8
0
100
AcDbLine
 10
31.59973089678115
 20
-13.77159925848147
 30
0.0
 11
23.6715276665056
 21
-13.77159925848144
 31
0.0
  0
LINE
  5
53
330
24
100
AcDbEntity
  8
0
100
AcDbLine
 10
23.56565672307022
 20
-9.51278021337896
 30
0.0
 11
24.4388546544846
 21
-12.77159925848144
 31
0.0
  0
LINE
  5
54
330
24
100
AcDbEntity
  8
0
100
AcDbLine
 10
22.59973089678116
 20
-9.771599258481472
 30
0.0
 11
18.59973089678112
 21
-9.771599258481472
 31
0.0
  0
LINE
  5
55
330
24
100
AcDbEntity
  8
0
100
AcDbLine
 10
18.59973089678115
 20
-13.77159925848144
 30
0.0
 11
17.59973089678115
 21
-13.77159925848144
 31
0.0
  0
LINE
  5
56
330
24
100
AcDbEntity
  8
0
100
AcDbLine
 10
18.59973089678115
 20
-9.771599258481472
 30
0.0
 11
18.59973089678115
 21
-13.77159925848144
 31
0.0
  0
LINE
  5
57
330
24
100
AcDbEntity
  8
0
100
AcDbLine
 10
22.59973089678116
 20
-9.771599258481472
 30
0.0
 11
23.67152766650562
 21
-13.77159925848147
 31
0.0
  0
ARC
  5
58
330
24
100
AcDbEntity
  8
0
100
AcDbCircle
 10
22.59973089678116
 20
-7.271599258481472
 30
0.0
 40
2.5
100
AcDbArc
 50
270.0
 51
270.0000000000007
  0
LINE
  5
59
330
24
100
AcDbEntity
  8
0
100
AcDbLine
 10
28.77130377203494
 20
-12.77159925848147
 30
0.0
 11
24.43885465448463
 21
-12.77159925848144
 31
0.0
  0
LINE
  5
5A
330
24
100
AcDbEntity
  8
0
100
AcDbLine
 10
3.599730896781125
 20
-4.771599258481472
 30
0.0
 11
2.599730896781125
 21
-4.771599258481472
 31
0.0
  0
LINE
  5
5B
330
24
100
AcDbEntity
  8
0
100
AcDbLine
 10
22.59973089678116
 20
-8.771599258481472
 30
0.0
 11
18.59973089678115
 21
-8.771599258481472
 31
0.0
  0
LINE
  5
5C
330
24
100
AcDbEntity
  8
0
100
AcDbLine
 10
22.59973089678116
 20
-5.771599258481472
 30
0.0
 11
18.59973089678115
 21
-5.771599258481472
 31
0.0
  0
LINE
  5
5D
330
24
100
AcDbEntity
  8
0
100
AcDbLine
 10
22.59973089678116
 20
-4.771599258481472
 30
0.0
 11
17.59973089678115
 21
-4.771599258481472
 31
0.0
  0
LINE
  5
5E
330
24
100
AcDbEntity
  8
0
100
AcDbLine
 10
18.59973089678115
 20
-5.771599258481472
 30
0.0
 11
18.59973089678115
 21
-8.771599258481472
 31
0.0
  0
ARC
  5
5F
330
24
100
AcDbEntity
  8
0
100
AcDbCircle
 10
22.59973089678116
 20
-7.271599258481472
 30
0.0
 40
1.5
100
AcDbArc
 50
270.0
 51
90.0
  0
ENDBLK
  5
60
330
24
100
AcDbEntity
  8
0
100
AcDbBlockEnd
  0
BLOCK
  5
70
330
27
100
AcDbEntity
  8
0
100
AcDbBlockBegin
  2
*X1
 70
     1
 10
0.0
 20
0.0
 30
0.0
  3
*X1
  1

  0
LINE
  5
71
330
27
100
AcDbEntity
  8
0
 62
     0
100
AcDbLine
 10
606.7027872665716
 20
1059.8
 30
0.0
 11
610.7354307275411
 21
1059.8
 31
0.0
  0
LINE
  5
72
330
27
100
AcDbEntity
  8
0
 62
     0
100
AcDbLine
 10
606.7027872665716
 20
1059.9
 30
0.0
 11
610.6891732281646
 21
1059.9
 31
0.0
  0
LINE
  5
73
330
27
100
AcDbEntity
  8
0
 62
     0
100
AcDbLine
 10
606.7027872665716
 20
1060.0
 30
0.0
 11
610.6420651790407
 21
1060.0
 31
0.0
  0
LINE
  5
74
330
27
100
AcDbEntity
  8
0
 62
     0
100
AcDbLine
 10
606.7027872665716
 20
1060.1
 30
0.0
 11
610.5940981297024
 21
1060.1
 31
0.0
  0
LINE
  5
75
330
27
100
AcDbEntity
  8
0
 62
     0
100
AcDbLine
 10
606.7027872665716
 20
1060.2
 30
0.0
 11
610.5452633601656
 21
1060.2
 31
0.0
  0
LINE
  5
76
330
27
100
AcDbEntity
  8
0
 62
     0
100
AcDbLine
 10
606.7027872665716
 20
1060.3
 30
0.0
 11
610.495551871022
 21
1060.3
 31
0.0
  0
LINE
  5
77
330
27
100
AcDbEntity
  8
0
 62
     0
100
AcDbLine
 10
606.7027872665716
 20
1060.4
 30
0.0
 11
610.4449543730146
 21
1060.4
 31
0.0
  0
LINE
  5
78
330
27
100
AcDbEntity
  8
0
 62
     0
100
AcDbLine
 10
606.7027872665716
 20
1060.5
 30
0.0
 11
610.3934612760617
 21
1060.5
 31
0.0
  0
LINE
  5
79
330
27
100
AcDbEntity
  8
0
 62
     0
100
AcDbLine
 10
606.7027872665716
 20
1060.6
 30
0.0
 11
610.3410626776929
 21
1060.6
 31
0.0
  0
LINE
  5
7A
330
27
100
AcDbEntity
  8
0
 62
     0
100
AcDbLine
 10
606.7027872665716
 20
1060.7
 30
0.0
 11
610.2877483508636
 21
1060.7
 31
0.0
  0
LINE
  5
7B
330
27
100
AcDbEntity
  8
0
 62
     0
100
AcDbLine
 10
606.7027872665716
 20
1060.8
 30
0.0
 11
610.2335077311013
 21
1060.8
 31
0.0
  0
LINE
  5
7C
330
27
100
AcDbEntity
  8
0
 62
     0
100
AcDbLine
 10
606.7027872665716
 20
1060.9
 30
0.0
 11
610.1783299029448
 21
1060.9
 31
0.0
  0
LINE
  5
7D
330
27
100
AcDbEntity
  8
0
 62
     0
100
AcDbLine
 10
606.7027872665716
 20
1061.0
 30
0.0
 11
610.1222035856263
 21
1061.0
 31
0.0
  0
LINE
  5
7E
330
27
100
AcDbEntity
  8
0
 62
     0
100
AcDbLine
 10
606.7027872665716
 20
1061.1
 30
0.0
 11
610.0651171179438
 21
1061.1
 31
0.0
  0
LINE
  5
7F
330
27
100
AcDbEntity
  8
0
 62
     0
100
AcDbLine
 10
606.7027872665716
 20
1061.2
 30
0.0
 11
610.0070584422714
 21
1061.2
 31
0.0
  0
LINE
  5
80
330
27
100
AcDbEntity
  8
0
 62
     0
100
AcDbLine
 10
606.7027872665716
 20
1061.3
 30
0.0
 11
609.948015087644
 21
1061.3
 31
0.0
  0
LINE
  5
81
330
27
100
AcDbEntity
  8
0
 62
     0
100
AcDbLine
 10
606.7027872665716
 20
1061.4
 30
0.0
 11
609.8879741518534
 21
1061.4
 31
0.0
  0
LINE
  5
82
330
27
100
AcDbEntity
  8
0
 62
     0
100
AcDbLine
 10
606.7027872665716
 20
1061.5
 30
0.0
 11
609.8269222824836
 21
1061.5
 31
0.0
  0
LINE
  5
83
330
27
100
AcDbEntity
  8
0
 62
     0
100
AcDbLine
 10
606.7027872665716
 20
1061.6
 30
0.0
 11
609.7648456568069
 21
1061.6
 31
0.0
  0
LINE
  5
84
330
27
100
AcDbEntity
  8
0
 62
     0
100
AcDbLine
 10
606.7027872665716
 20
1061.7
 30
0.0
 11
609.7017299604621
 21
1061.7
 31
0.0
  0
LINE
  5
85
330
27
100
AcDbEntity
  8
0
 62
     0
100
AcDbLine
 10
606.7027872665716
 20
1061.8
 30
0.0
 11
609.6375603648158
 21
1061.8
 31
0.0
  0
LINE
  5
86
330
27
100
AcDbEntity
  8
0
 62
     0
100
AcDbLine
 10
606.7027872665716
 20
1061.9
 30
0.0
 11
609.5723215029141
 21
1061.9
 31
0.0
  0
LINE
  5
87
330
27
100
AcDbEntity
  8
0
 62
     0
100
AcDbLine
 10
606.7027872665716
 20
1062.0
 30
0.0
 11
609.5059974439136
 21
1062.0
 31
0.0
  0
LINE
  5
88
330
27
100
AcDbEntity
  8
0
 62
     0
100
AcDbLine
 10
606.7027872665716
 20
1062.1
 30
0.0
 11
609.4385716658706
 21
1062.1
 31
0.0
  0
LINE
  5
89
330
27
100
AcDbEntity
  8
0
 62
     0
100
AcDbLine
 10
606.7027872665716
 20
1062.2
 30
0.0
 11
609.3700270267645
 21
1062.2
 31
0.0
  0
LINE
  5
8A
330
27
100
AcDbEntity
  8
0
 62
     0
100
AcDbLine
 10
606.7027872665716
 20
1062.3
 30
0.0
 11
609.3003457336065
 21
1062.3
 31
0.0
  0
LINE
  5
8B
330
27
100
AcDbEntity
  8
0
 62
     0
100
AcDbLine
 10
606.7027872665716
 20
1062.4
 30
0.0
 11
609.2295093094833
 21
1062.4
 31
0.0
  0
LINE
  5
8C
330
27
100
AcDbEntity
  8
0
 62
     0
100
AcDbLine
 10
606.7027872665716
 20
1062.5
 30
0.0
 11
609.1574985583626
 21
1062.5
 31
0.0
  0
LINE
  5
8D
330
27
100
AcDbEntity
  8
0
 62
     0
100
AcDbLine
 10
606.7027872665716
 20
1062.6
 30
0.0
 11
609.0842935274696
 21
1062.6
 31
0.0
  0
LINE
  5
8E
330
27
100
AcDbEntity
  8
0
 62
     0
100
AcDbLine
 10
606.7027872665716
 20
1062.7
 30
0.0
 11
609.0098734670322
 21
1062.7
 31
0.0
  0
LINE
  5
8F
330
27
100
AcDbEntity
  8
0
 62
     0
100
AcDbLine
 10
606.7027872665716
 20
1062.8
 30
0.0
 11
608.9342167871611
 21
1062.8
 31
0.0
  0
LINE
  5
90
330
27
100
AcDbEntity
  8
0
 62
     0
100
AcDbLine
 10
606.7027872665716
 20
1062.9
 30
0.0
 11
608.8573010116174
 21
1062.9
 31
0.0
  0
LINE
  5
91
330
27
100
AcDbEntity
  8
0
 62
     0
100
AcDbLine
 10
606.7027872665716
 20
1063.0
 30
0.0
 11
608.7791027281831
 21
1063.0
 31
0.0
  0
LINE
  5
92
330
27
100
AcDbEntity
  8
0
 62
     0
100
AcDbLine
 10
606.7027872665716
 20
1063.1
 30
0.0
 11
608.6995975353284
 21
1063.1
 31
0.0
  0
LINE
  5
93
330
27
100
AcDbEntity
  8
0
 62
     0
100
AcDbLine
 10
606.7027872665716
 20
1063.2
 30
0.0
 11
608.6187599848315
 21
1063.2
 31
0.0
  0
LINE
  5
94
330
27
100
AcDbEntity
  8
0
 62
     0
100
AcDbLine
 10
606.7027872665716
 20
1063.3
 30
0.0
 11
608.5365635199674
 21
1063.3
 31
0.0
  0
LINE
  5
95
330
27
100
AcDbEntity
  8
0
 62
     0
100
AcDbLine
 10
606.7027872665716
 20
1063.4
 30
0.0
 11
608.4529804088419
 21
1063.4
 31
0.0
  0
LINE
  5
96
330
27
100
AcDbEntity
  8
0
 62
     0
100
AcDbLine
 10
606.7027872665716
 20
1063.5
 30
0.0
 11
608.3679816723965
 21
1063.5
 31
0.0
  0
LINE
  5
97
330
27
100
AcDbEntity
  8
0
 62
     0
100
AcDbLine
 10
606.7027872665716
 20
1063.6
 30
0.0
 11
608.2815370065493
 21
1063.6
 31
0.0
  0
LINE
  5
98
330
27
100
AcDbEntity
  8
0
 62
     0
100
AcDbLine
 10
606.7027872665716
 20
1063.7
 30
0.0
 11
608.1936146978838
 21
1063.7
 31
0.0
  0
LINE
  5
99
330
27
100
AcDbEntity
  8
0
 62
     0
100
AcDbLine
 10
606.7027872665716
 20
1063.8
 30
0.0
 11
608.1041815322122
 21
1063.8
 31
0.0
  0
LINE
  5
9A
330
27
100
AcDbEntity
  8
0
 62
     0
100
AcDbLine
 10
606.7027872665716
 20
1063.9
 30
0.0
 11
608.0132026952669
 21
1063.9
 31
0.0
  0
LINE
  5
9B
330
27
100
AcDbEntity
  8
0
 62
     0
100
AcDbLine
 10
606.7027872665716
 20
1064.0
 30
0.0
 11
607.9206416646729
 21
1064.0
 31
0.0
  0
LINE
  5
9C
330
27
100
AcDbEntity
  8
0
 62
     0
100
AcDbLine
 10
606.7027872665716
 20
1064.1
 30
0.0
 11
607.8264600922429
 21
1064.1
 31
0.0
  0
LINE
  5
9D
330
27
100
AcDbEntity
  8
0
 62
     0
100
AcDbLine
 10
606.7027872665716
 20
1064.2
 30
0.0
 11
607.7306176755173
 21
1064.2
 31
0.0
  0
LINE
  5
9E
330
27
100
AcDbEntity
  8
0
 62
     0
100
AcDbLine
 10
606.7027872665716
 20
1064.3
 30
0.0
 11
607.6330720173171
 21
1064.3
 31
0.0
  0
LINE
  5
9F
330
27
100
AcDbEntity
  8
0
 62
     0
100
AcDbLine
 10
606.7027872665716
 20
1064.4
 30
0.0
 11
607.5337784719106
 21
1064.4
 31
0.0
  0
LINE
  5
A0
330
27
100
AcDbEntity
  8
0
 62
     0
100
AcDbLine
 10
606.7027872665716
 20
1064.5
 30
0.0
 11
607.4326899762036
 21
1064.5
 31
0.0
  0
LINE
  5
A1
330
27
100
AcDbEntity
  8
0
 62
     0
100
AcDbLine
 10
606.7027872665716
 20
1064.6
 30
0.0
 11
607.3297568641186
 21
1064.6
 31
0.0
  0
LINE
  5
A2
330
27
100
AcDbEntity
  8
0
 62
     0
100
AcDbLine
 10
606.7027872665716
 20
1064.7
 30
0.0
 11
607.2249266620766
 21
1064.7
 31
0.0
  0
LINE
  5
A3
330
27
100
AcDbEntity
  8
0
 62
     0
100
AcDbLine
 10
606.7027872665716
 20
1064.8
 30
0.0
 11
607.1181438631633
 21
1064.8
 31
0.0
  0
LINE
  5
A4
330
27
100
AcDbEntity
  8
0
 62
     0
100
AcDbLine
 10
606.7027872665716
 20
1064.9
 30
0.0
 11
607.0093496771974
 21
1064.9
 31
0.0
  0
LINE
  5
A5
330
27
100
AcDbEntity
  8
0
 62
     0
100
AcDbLine
 10
606.7027872665716
 20
1065.0
 30
0.0
 11
606.8984817534782
 21
1065.0
 31
0.0
  0
LINE
  5
A6
330
27
100
AcDbEntity
  8
0
 62
     0
100
AcDbLine
 10
606.7027872665716
 20
1065.1
 30
0.0
 11
606.7854738724559
 21
1065.1
 31
0.0
  0
LINE
  5
A7
330
27
100
AcDbEntity
  8
0
 62
     0
100
AcDbLine
 10
606.7027872665716
 20
1059.7
 30
0.0
 11
610.7808458675378
 21
1059.7
 31
0.0
  0
LINE
  5
A8
330
27
100
AcDbEntity
  8
0
 62
     0
100
AcDbLine
 10
606.7027872665716
 20
1059.6
 30
0.0
 11
610.8254265873807
 21
1059.6
 31
0.0
  0
LINE
  5
A9
330
27
100
AcDbEntity
  8
0
 62
     0
100
AcDbLine
 10
606.7027872665716
 20
1059.5
 30
0.0
 11
610.8691805836797
 21
1059.5
 31
0.0
  0
LINE
  5
AA
330
27
100
AcDbEntity
  8
0
 62
     0
100
AcDbLine
 10
606.7027872665716
 20
1059.4
 30
0.0
 11
610.9121153185424
 21
1059.4
 31
0.0
  0
LINE
  5
AB
330
27
100
AcDbEntity
  8
0
 62
     0
100
AcDbLine
 10
606.7027872665716
 20
1059.3
 30
0.0
 11
610.954238027304
 21
1059.3
 31
0.0
  0
LINE
  5
AC
330
27
100
AcDbEntity
  8
0
 62
     0
100
AcDbLine
 10
606.7027872665716
 20
1059.2
 30
0.0
 11
610.9955557258912
 21
1059.2
 31
0.0
  0
LINE
  5
AD
330
27
100
AcDbEntity
  8
0
 62
     0
100
AcDbLine
 10
606.7027872665716
 20
1059.1
 30
0.0
 11
611.0360752178404
 21
1059.1
 31
0.0
  0
LINE
  5
AE
330
27
100
AcDbEntity
  8
0
 62
     0
100
AcDbLine
 10
606.7027872665716
 20
1059.0
 30
0.0
 11
611.0758031009916
 21
1059.0
 31
0.0
  0
LINE
  5
AF
330
27
100
AcDbEntity
  8
0
 62
     0
100
AcDbLine
 10
606.7027872665716
 20
1058.9
 30
0.0
 11
611.1147457738707
 21
1058.9
 31
0.0
  0
LINE
  5
B0
330
27
100
AcDbEntity
  8
0
 62
     0
100
AcDbLine
 10
606.7027872665716
 20
1058.8
 30
0.0
 11
611.0277549638744
 21
1058.8
 31
0.0
  0
LINE
  5
B1
330
27
100
AcDbEntity
  8
0
 62
     0
100
AcDbLine
 10
606.7027872665716
 20
1058.7
 30
0.0
 11
610.9277549638744
 21
1058.7
 31
0.0
  0
LINE
  5
B2
330
27
100
AcDbEntity
  8
0
 62
     0
100
AcDbLine
 10
606.7027872665716
 20
1058.6
 30
0.0
 11
610.8277549638745
 21
1058.6
 31
0.0
  0
LINE
  5
B3
330
27
100
AcDbEntity
  8
0
 62
     0
100
AcDbLine
 10
606.7027872665716
 20
1058.5
 30
0.0
 11
610.7277549638744
 21
1058.5
 31
0.0
  0
LINE
  5
B4
330
27
100
AcDbEntity
  8
0
 62
     0
100
AcDbLine
 10
606.7027872665716
 20
1058.4
 30
0.0
 11
610.6277549638745
 21
1058.4
 31
0.0
  0
LINE
  5
B5
330
27
100
AcDbEntity
  8
0
 62
     0
100
AcDbLine
 10
606.7027872665716
 20
1058.3
 30
0.0
 11
610.5277549638743
 21
1058.3
 31
0.0
  0
LINE
  5
B6
330
27
100
AcDbEntity
  8
0
 62
     0
100
AcDbLine
 10
606.7027872665716
 20
1058.2
 30
0.0
 11
610.4277549638744
 21
1058.2
 31
0.0
  0
LINE
  5
B7
330
27
100
AcDbEntity
  8
0
 62
     0
100
AcDbLine
 10
606.7027872665716
 20
1058.1
 30
0.0
 11
610.3277549638745
 21
1058.1
 31
0.0
  0
LINE
  5
B8
330
27
100
AcDbEntity
  8
0
 62
     0
100
AcDbLine
 10
606.7027872665716
 20
1058.0
 30
0.0
 11
610.2277549638744
 21
1058.0
 31
0.0
  0
LINE
  5
B9
330
27
100
AcDbEntity
  8
0
 62
     0
100
AcDbLine
 10
606.7027872665716
 20
1057.9
 30
0.0
 11
610.1277549638744
 21
1057.9
 31
0.0
  0
LINE
  5
BA
330
27
100
AcDbEntity
  8
0
 62
     0
100
AcDbLine
 10
606.7027872665716
 20
1057.8
 30
0.0
 11
610.0277549638743
 21
1057.8
 31
0.0
  0
LINE
  5
BB
330
27
100
AcDbEntity
  8
0
 62
     0
100
AcDbLine
 10
606.7027872665716
 20
1057.7
 30
0.0
 11
609.9277549638745
 21
1057.7
 31
0.0
  0
LINE
  5
BC
330
27
100
AcDbEntity
  8
0
 62
     0
100
AcDbLine
 10
606.7027872665716
 20
1057.6
 30
0.0
 11
609.8277549638745
 21
1057.6
 31
0.0
  0
LINE
  5
BD
330
27
100
AcDbEntity
  8
0
 62
     0
100
AcDbLine
 10
606.7027872665716
 20
1057.5
 30
0.0
 11
609.7277549638744
 21
1057.5
 31
0.0
  0
LINE
  5
BE
330
27
100
AcDbEntity
  8
0
 62
     0
100
AcDbLine
 10
606.7027872665716
 20
1057.4
 30
0.0
 11
609.6277549638744
 21
1057.4
 31
0.0
  0
LINE
  5
BF
330
27
100
AcDbEntity
  8
0
 62
     0
100
AcDbLine
 10
606.7027872665716
 20
1057.3
 30
0.0
 11
609.5277549638743
 21
1057.3
 31
0.0
  0
LINE
  5
C0
330
27
100
AcDbEntity
  8
0
 62
     0
100
AcDbLine
 10
606.7027872665716
 20
1057.2
 30
0.0
 11
609.4277549638745
 21
1057.2
 31
0.0
  0
LINE
  5
C1
330
27
100
AcDbEntity
  8
0
 62
     0
100
AcDbLine
 10
606.7027872665716
 20
1057.1
 30
0.0
 11
609.3277549638745
 21
1057.1
 31
0.0
  0
LINE
  5
C2
330
27
100
AcDbEntity
  8
0
 62
     0
100
AcDbLine
 10
606.7027872665716
 20
1057.0
 30
0.0
 11
609.2277549638744
 21
1057.0
 31
0.0
  0
LINE
  5
C3
330
27
100
AcDbEntity
  8
0
 62
     0
100
AcDbLine
 10
606.7027872665716
 20
1056.9
 30
0.0
 11
609.1277549638745
 21
1056.9
 31
0.0
  0
LINE
  5
C4
330
27
100
AcDbEntity
  8
0
 62
     0
100
AcDbLine
 10
606.7027872665716
 20
1056.8
 30
0.0
 11
609.0277549638743
 21
1056.8
 31
0.0
  0
LINE
  5
C5
330
27
100
AcDbEntity
  8
0
 62
     0
100
AcDbLine
 10
606.7027872665716
 20
1056.7
 30
0.0
 11
608.9277549638744
 21
1056.7
 31
0.0
  0
LINE
  5
C6
330
27
100
AcDbEntity
  8
0
 62
     0
100
AcDbLine
 10
606.7027872665716
 20
1056.6
 30
0.0
 11
608.8277549638745
 21
1056.6
 31
0.0
  0
LINE
  5
C7
330
27
100
AcDbEntity
  8
0
 62
     0
100
AcDbLine
 10
606.7027872665716
 20
1056.5
 30
0.0
 11
608.7277549638744
 21
1056.5
 31
0.0
  0
LINE
  5
C8
330
27
100
AcDbEntity
  8
0
 62
     0
100
AcDbLine
 10
606.7027872665716
 20
1056.4
 30
0.0
 11
608.6277549638745
 21
1056.4
 31
0.0
  0
LINE
  5
C9
330
27
100
AcDbEntity
  8
0
 62
     0
100
AcDbLine
 10
606.7027872665716
 20
1056.3
 30
0.0
 11
608.5277549638743
 21
1056.3
 31
0.0
  0
LINE
  5
CA
330
27
100
AcDbEntity
  8
0
 62
     0
100
AcDbLine
 10
606.7027872665716
 20
1056.2
 30
0.0
 11
608.4277549638744
 21
1056.2
 31
0.0
  0
LINE
  5
CB
330
27
100
AcDbEntity
  8
0
 62
     0
100
AcDbLine
 10
606.7027872665716
 20
1056.1
 30
0.0
 11
608.3277549638745
 21
1056.1
 31
0.0
  0
LINE
  5
CC
330
27
100
AcDbEntity
  8
0
 62
     0
100
AcDbLine
 10
606.7027872665716
 20
1056.0
 30
0.0
 11
608.2277549638744
 21
1056.0
 31
0.0
  0
LINE
  5
CD
330
27
100
AcDbEntity
  8
0
 62
     0
100
AcDbLine
 10
606.7027872665716
 20
1055.9
 30
0.0
 11
608.1277549638745
 21
1055.9
 31
0.0
  0
LINE
  5
CE
330
27
100
AcDbEntity
  8
0
 62
     0
100
AcDbLine
 10
606.7027872665716
 20
1055.8
 30
0.0
 11
608.0277549638744
 21
1055.8
 31
0.0
  0
LINE
  5
CF
330
27
100
AcDbEntity
  8
0
 62
     0
100
AcDbLine
 10
606.7027872665716
 20
1055.7
 30
0.0
 11
607.9277549638744
 21
1055.7
 31
0.0
  0
LINE
  5
D0
330
27
100
AcDbEntity
  8
0
 62
     0
100
AcDbLine
 10
606.7027872665716
 20
1055.6
 30
0.0
 11
607.8277549638746
 21
1055.6
 31
0.0
  0
LINE
  5
D1
330
27
100
AcDbEntity
  8
0
 62
     0
100
AcDbLine
 10
606.7027872665716
 20
1055.5
 30
0.0
 11
607.7277549638743
 21
1055.5
 31
0.0
  0
LINE
  5
D2
330
27
100
AcDbEntity
  8
0
 62
     0
100
AcDbLine
 10
606.7027872665716
 20
1055.4
 30
0.0
 11
607.6277549638745
 21
1055.4
 31
0.0
  0
LINE
  5
D3
330
27
100
AcDbEntity
  8
0
 62
     0
100
AcDbLine
 10
606.7027872665716
 20
1055.3
 30
0.0
 11
607.5277549638744
 21
1055.3
 31
0.0
  0
LINE
  5
D4
330
27
100
AcDbEntity
  8
0
 62
     0
100
AcDbLine
 10
606.7027872665716
 20
1055.2
 30
0.0
 11
607.4277549638744
 21
1055.2
 31
0.0
  0
LINE
  5
D5
330
27
100
AcDbEntity
  8
0
 62
     0
100
AcDbLine
 10
606.7027872665716
 20
1055.1
 30
0.0
 11
607.3277549638746
 21
1055.1
 31
0.0
  0
LINE
  5
D6
330
27
100
AcDbEntity
  8
0
 62
     0
100
AcDbLine
 10
606.7027872665716
 20
1055.0
 30
0.0
 11
607.2277549638743
 21
1055.0
 31
0.0
  0
LINE
  5
D7
330
27
100
AcDbEntity
  8
0
 62
     0
100
AcDbLine
 10
606.7027872665716
 20
1054.9
 30
0.0
 11
607.1277549638745
 21
1054.9
 31
0.0
  0
LINE
  5
D8
330
27
100
AcDbEntity
  8
0
 62
     0
100
AcDbLine
 10
606.7027872665716
 20
1054.8
 30
0.0
 11
607.0277549638744
 21
1054.8
 31
0.0
  0
LINE
  5
D9
330
27
100
AcDbEntity
  8
0
 62
     0
100
AcDbLine
 10
606.7027872665716
 20
1054.7
 30
0.0
 11
606.9277549638744
 21
1054.7
 31
0.0
  0
LINE
  5
DA
330
27
100
AcDbEntity
  8
0
 62
     0
100
AcDbLine
 10
606.7027872665716
 20
1054.6
 30
0.0
 11
606.8277549638745
 21
1054.6
 31
0.0
  0
LINE
  5
DB
330
27
100
AcDbEntity
  8
0
 62
     0
100
AcDbLine
 10
606.7027872665716
 20
1054.5
 30
0.0
 11
606.7277549638744
 21
1054.5
 31
0.0
  0
ENDBLK
  5
DC
330
27
100
AcDbEntity
  8
0
100
AcDbBlockEnd
  0
BLOCK
  5
DD
330
28
100
AcDbEntity
  8
0
100
AcDbBlockBegin
  2
*X2
 70
     1
 10
0.0
 20
0.0
 30
0.0
  3
*X2
  1

  0
LINE
  5
DE
330
28
100
AcDbEntity
  8
0
 62
     0
100
AcDbLine
 10
606.7027872665711
 20
666.8000000000001
 30
0.0
 11
608.9554493832967
 21
666.8000000000001
 31
0.0
  0
LINE
  5
DF
330
28
100
AcDbEntity
  8
0
 62
     0
100
AcDbLine
 10
606.7027872665711
 20
666.9000000000001
 30
0.0
 11
608.9797385220938
 21
666.9000000000001
 31
0.0
  0
LINE
  5
E0
330
28
100
AcDbEntity
  8
0
 62
     0
100
AcDbLine
 10
606.7027872665711
 20
667.0
 30
0.0
 11
609.0024732293864
 21
667.0
 31
0.0
  0
LINE
  5
E1
330
28
100
AcDbEntity
  8
0
 62
     0
100
AcDbLine
 10
606.7027872665711
 20
667.1
 30
0.0
 11
609.0236690204752
 21
667.1
 31
0.0
  0
LINE
  5
E2
330
28
100
AcDbEntity
  8
0
 62
     0
100
AcDbLine
 10
606.7027872665711
 20
667.2
 30
0.0
 11
609.0433401749379
 21
667.2
 31
0.0
  0
LINE
  5
E3
330
28
100
AcDbEntity
  8
0
 62
     0
100
AcDbLine
 10
606.7027872665711
 20
667.3
 30
0.0
 11
609.0614997875363
 21
667.3
 31
0.0
  0
LINE
  5
E4
330
28
100
AcDbEntity
  8
0
 62
     0
100
AcDbLine
 10
606.7027872665711
 20
667.4000000000001
 30
0.0
 11
609.0781598140075
 21
667.4000000000001
 31
0.0
  0
LINE
  5
E5
330
28
100
AcDbEntity
  8
0
 62
     0
100
AcDbLine
 10
606.7027872665711
 20
667.4999999999999
 30
0.0
 11
609.0933311121332
 21
667.4999999999999
 31
0.0
  0
LINE
  5
E6
330
28
100
AcDbEntity
  8
0
 62
     0
100
AcDbLine
 10
606.7027872665711
 20
667.6
 30
0.0
 11
609.1070234784279
 21
667.6
 31
0.0
  0
LINE
  5
E7
330
28
100
AcDbEntity
  8
0
 62
     0
100
AcDbLine
 10
606.7027872665711
 20
667.7
 30
0.0
 11
609.1192456807439
 21
667.7
 31
0.0
  0
LINE
  5
E8
330
28
100
AcDbEntity
  8
0
 62
     0
100
AcDbLine
 10
606.7027872665711
 20
667.8
 30
0.0
 11
609.1300054870575
 21
667.8
 31
0.0
  0
LINE
  5
E9
330
28
100
AcDbEntity
  8
0
 62
     0
100
AcDbLine
 10
606.7027872665711
 20
667.9000000000001
 30
0.0
 11
609.1393096906585
 21
667.9000000000001
 31
0.0
  0
LINE
  5
EA
330
28
100
AcDbEntity
  8
0
 62
     0
100
AcDbLine
 10
606.7027872665711
 20
668.0
 30
0.0
 11
609.1471641319412
 21
668.0
 31
0.0
  0
LINE
  5
EB
330
28
100
AcDbEntity
  8
0
 62
     0
100
AcDbLine
 10
606.7027872665711
 20
668.1
 30
0.0
 11
609.1535737169574
 21
668.1
 31
0.0
  0
LINE
  5
EC
330
28
100
AcDbEntity
  8
0
 62
     0
100
AcDbLine
 10
606.7027872665711
 20
668.2
 30
0.0
 11
609.1585424328781
 21
668.2
 31
0.0
  0
LINE
  5
ED
330
28
100
AcDbEntity
  8
0
 62
     0
100
AcDbLine
 10
606.7027872665711
 20
668.3
 30
0.0
 11
609.1620733604705
 21
668.3
 31
0.0
  0
LINE
  5
EE
330
28
100
AcDbEntity
  8
0
 62
     0
100
AcDbLine
 10
606.7027872665711
 20
668.4000000000001
 30
0.0
 11
609.1641686836886
 21
668.4000000000001
 31
0.0
  0
LINE
  5
EF
330
28
100
AcDbEntity
  8
0
 62
     0
100
AcDbLine
 10
606.8080574917295
 20
668.5
 30
0.0
 11
609.1648296964426
 21
668.5
 31
0.0
  0
LINE
  5
F0
330
28
100
AcDbEntity
  8
0
 62
     0
100
AcDbLine
 10
606.9080574917295
 20
668.5999999999999
 30
0.0
 11
609.164056806601
 21
668.5999999999999
 31
0.0
  0
LINE
  5
F1
330
28
100
AcDbEntity
  8
0
 62
     0
100
AcDbLine
 10
607.0080574917295
 20
668.7
 30
0.0
 11
609.1618495372481
 21
668.7
 31
0.0
  0
LINE
  5
F2
330
28
100
AcDbEntity
  8
0
 62
     0
100
AcDbLine
 10
607.1080574917296
 20
668.8
 30
0.0
 11
609.1582065252127
 21
668.8
 31
0.0
  0
LINE
  5
F3
330
28
100
AcDbEntity
  8
0
 62
     0
100
AcDbLine
 10
607.2080574917296
 20
668.9
 30
0.0
 11
609.1531255168523
 21
668.9
 31
0.0
  0
LINE
  5
F4
330
28
100
AcDbEntity
  8
0
 62
     0
100
AcDbLine
 10
607.3080574917295
 20
669.0
 30
0.0
 11
609.1466033610648
 21
669.0
 31
0.0
  0
LINE
  5
F5
330
28
100
AcDbEntity
  8
0
 62
     0
100
AcDbLine
 10
607.4080574917295
 20
669.1
 30
0.0
 11
609.138635999476
 21
669.1
 31
0.0
  0
LINE
  5
F6
330
28
100
AcDbEntity
  8
0
 62
     0
100
AcDbLine
 10
607.5080574917295
 20
669.2
 30
0.0
 11
609.1292184537329
 21
669.2
 31
0.0
  0
LINE
  5
F7
330
28
100
AcDbEntity
  8
0
 62
     0
100
AcDbLine
 10
607.6080574917296
 20
669.3
 30
0.0
 11
609.1183448098059
 21
669.3
 31
0.0
  0
LINE
  5
F8
330
28
100
AcDbEntity
  8
0
 62
     0
100
AcDbLine
 10
607.7080574917296
 20
669.4
 30
0.0
 11
609.1060081991876
 21
669.4
 31
0.0
  0
LINE
  5
F9
330
28
100
AcDbEntity
  8
0
 62
     0
100
AcDbLine
 10
607.8080574917295
 20
669.5
 30
0.0
 11
609.092200776844
 21
669.5
 31
0.0
  0
LINE
  5
FA
330
28
100
AcDbEntity
  8
0
 62
     0
100
AcDbLine
 10
607.9080574917295
 20
669.6
 30
0.0
 11
609.0769136957507
 21
669.6
 31
0.0
  0
LINE
  5
FB
330
28
100
AcDbEntity
  8
0
 62
     0
100
AcDbLine
 10
608.0080574917295
 20
669.7
 30
0.0
 11
609.0601370778183
 21
669.7
 31
0.0
  0
LINE
  5
FC
330
28
100
AcDbEntity
  8
0
 62
     0
100
AcDbLine
 10
608.1080574917296
 20
669.8
 30
0.0
 11
609.0418599809782
 21
669.8
 31
0.0
  0
LINE
  5
FD
330
28
100
AcDbEntity
  8
0
 62
     0
100
AcDbLine
 10
608.2080574917296
 20
669.9
 30
0.0
 11
609.0220703621635
 21
669.9
 31
0.0
  0
LINE
  5
FE
330
28
100
AcDbEntity
  8
0
 62
     0
100
AcDbLine
 10
608.3080574917295
 20
670.0
 30
0.0
 11
609.0007550358854
 21
670.0
 31
0.0
  0
LINE
  5
FF
330
28
100
AcDbEntity
  8
0
 62
     0
100
AcDbLine
 10
608.4080574917295
 20
670.1
 30
0.0
 11
608.9778996280561
 21
670.1
 31
0.0
  0
LINE
  5
100
330
28
100
AcDbEntity
  8
0
 62
     0
100
AcDbLine
 10
608.5080574917295
 20
670.2
 30
0.0
 11
608.9534885246658
 21
670.2
 31
0.0
  0
LINE
  5
101
330
28
100
AcDbEntity
  8
0
 62
     0
100
AcDbLine
 10
608.6080574917295
 20
670.3000000000001
 30
0.0
 11
608.9275048148611
 21
670.3000000000001
 31
0.0
  0
LINE
  5
102
330
28
100
AcDbEntity
  8
0
 62
     0
100
AcDbLine
 10
608.7080574917296
 20
670.4
 30
0.0
 11
608.8999302279126
 21
670.4
 31
0.0
  0
LINE
  5
103
330
28
100
AcDbEntity
  8
0
 62
     0
100
AcDbLine
 10
608.8080574917295
 20
670.5
 30
0.0
 11
608.8707450634895
 21
670.5
 31
0.0
  0
LINE
  5
104
330
28
100
AcDbEntity
  8
0
 62
     0
100
AcDbLine
 10
606.7027872665711
 20
666.7
 30
0.0
 11
608.9295890055044
 21
666.7
 31
0.0
  0
LINE
  5
105
330
28
100
AcDbEntity
  8
0
 62
     0
100
AcDbLine
 10
606.7027872665711
 20
666.6
 30
0.0
 11
608.9021392265009
 21
666.6
 31
0.0
  0
LINE
  5
106
330
28
100
AcDbEntity
  8
0
 62
     0
100
AcDbLine
 10
606.7027872665711
 20
666.5
 30
0.0
 11
608.8730804601638
 21
666.5
 31
0.0
  0
LINE
  5
107
330
28
100
AcDbEntity
  8
0
 62
     0
100
AcDbLine
 10
606.7027872665711
 20
666.4000000000001
 30
0.0
 11
608.8423916199762
 21
666.4000000000001
 31
0.0
  0
LINE
  5
108
330
28
100
AcDbEntity
  8
0
 62
     0
100
AcDbLine
 10
606.7027872665711
 20
666.3000000000001
 30
0.0
 11
608.8100500344806
 21
666.3000000000001
 31
0.0
  0
LINE
  5
109
330
28
100
AcDbEntity
  8
0
 62
     0
100
AcDbLine
 10
606.7027872665711
 20
666.2
 30
0.0
 11
608.7760313538137
 21
666.2
 31
0.0
  0
LINE
  5
10A
330
28
100
AcDbEntity
  8
0
 62
     0
100
AcDbLine
 10
606.7027872665711
 20
666.1
 30
0.0
 11
608.7403094463436
 21
666.1
 31
0.0
  0
LINE
  5
10B
330
28
100
AcDbEntity
  8
0
 62
     0
100
AcDbLine
 10
606.7027872665711
 20
666.0
 30
0.0
 11
608.7028562842749
 21
666.0
 31
0.0
  0
LINE
  5
10C
330
28
100
AcDbEntity
  8
0
 62
     0
100
AcDbLine
 10
606.7027872665711
 20
665.9
 30
0.0
 11
608.6636418169351
 21
665.9
 31
0.0
  0
LINE
  5
10D
330
28
100
AcDbEntity
  8
0
 62
     0
100
AcDbLine
 10
606.7027872665711
 20
665.8000000000001
 30
0.0
 11
608.6226338302477
 21
665.8000000000001
 31
0.0
  0
LINE
  5
10E
330
28
100
AcDbEntity
  8
0
 62
     0
100
AcDbLine
 10
606.7027872665711
 20
665.7
 30
0.0
 11
608.5797977906726
 21
665.7
 31
0.0
  0
LINE
  5
10F
330
28
100
AcDbEntity
  8
0
 62
     0
100
AcDbLine
 10
606.7027872665711
 20
665.6
 30
0.0
 11
608.5350966716238
 21
665.6
 31
0.0
  0
LINE
  5
110
330
28
100
AcDbEntity
  8
0
 62
     0
100
AcDbLine
 10
606.7027872665711
 20
665.5
 30
0.0
 11
608.4884907600523
 21
665.5
 31
0.0
  0
LINE
  5
111
330
28
100
AcDbEntity
  8
0
 62
     0
100
AcDbLine
 10
606.7027872665711
 20
665.4
 30
0.0
 11
608.4399374404998
 21
665.4
 31
0.0
  0
LINE
  5
112
330
28
100
AcDbEntity
  8
0
 62
     0
100
AcDbLine
 10
606.7027872665711
 20
665.3
 30
0.0
 11
608.389390953479
 21
665.3
 31
0.0
  0
LINE
  5
113
330
28
100
AcDbEntity
  8
0
 62
     0
100
AcDbLine
 10
606.7027872665711
 20
665.2000000000001
 30
0.0
 11
608.3368021244841
 21
665.2000000000001
 31
0.0
  0
LINE
  5
114
330
28
100
AcDbEntity
  8
0
 62
     0
100
AcDbLine
 10
606.7027872665711
 20
665.1
 30
0.0
 11
608.2821180592872
 21
665.1
 31
0.0
  0
LINE
  5
115
330
28
100
AcDbEntity
  8
0
 62
     0
100
AcDbLine
 10
606.7027872665711
 20
665.0
 30
0.0
 11
608.2252818003735
 21
665.0
 31
0.0
  0
LINE
  5
116
330
28
100
AcDbEntity
  8
0
 62
     0
100
AcDbLine
 10
606.7027872665711
 20
664.9
 30
0.0
 11
608.1662319384118
 21
664.9
 31
0.0
  0
LINE
  5
117
330
28
100
AcDbEntity
  8
0
 62
     0
100
AcDbLine
 10
606.7027872665711
 20
664.8
 30
0.0
 11
608.1049021714669
 21
664.8
 31
0.0
  0
LINE
  5
118
330
28
100
AcDbEntity
  8
0
 62
     0
100
AcDbLine
 10
606.7027872665711
 20
664.7
 30
0.0
 11
608.0412208032156
 21
664.7
 31
0.0
  0
LINE
  5
119
330
28
100
AcDbEntity
  8
0
 62
     0
100
AcDbLine
 10
606.7027872665711
 20
664.6
 30
0.0
 11
607.9751101696286
 21
664.6
 31
0.0
  0
LINE
  5
11A
330
28
100
AcDbEntity
  8
0
 62
     0
100
AcDbLine
 10
606.7027872665711
 20
664.5
 30
0.0
 11
607.9064859813448
 21
664.5
 31
0.0
  0
LINE
  5
11B
330
28
100
AcDbEntity
  8
0
 62
     0
100
AcDbLine
 10
606.7027872665711
 20
664.4000000000001
 30
0.0
 11
607.8352565661633
 21
664.4000000000001
 31
0.0
  0
LINE
  5
11C
330
28
100
AcDbEntity
  8
0
 62
     0
100
AcDbLine
 10
606.7027872665711
 20
664.3
 30
0.0
 11
607.761321992541
 21
664.3
 31
0.0
  0
LINE
  5
11D
330
28
100
AcDbEntity
  8
0
 62
     0
100
AcDbLine
 10
606.7027872665711
 20
664.2
 30
0.0
 11
607.6845730504891
 21
664.2
 31
0.0
  0
LINE
  5
11E
330
28
100
AcDbEntity
  8
0
 62
     0
100
AcDbLine
 10
606.7027872665711
 20
664.1
 30
0.0
 11
607.6048900604888
 21
664.1
 31
0.0
  0
LINE
  5
11F
330
28
100
AcDbEntity
  8
0
 62
     0
100
AcDbLine
 10
606.7027872665711
 20
664.0
 30
0.0
 11
607.522141473601
 21
664.0
 31
0.0
  0
LINE
  5
120
330
28
100
AcDbEntity
  8
0
 62
     0
100
AcDbLine
 10
606.7027872665711
 20
663.9000000000001
 30
0.0
 11
607.4361822162016
 21
663.9000000000001
 31
0.0
  0
LINE
  5
121
330
28
100
AcDbEntity
  8
0
 62
     0
100
AcDbLine
 10
606.7027872665711
 20
663.8
 30
0.0
 11
607.346851719956
 21
663.8
 31
0.0
  0
LINE
  5
122
330
28
100
AcDbEntity
  8
0
 62
     0
100
AcDbLine
 10
606.7027872665711
 20
663.7
 30
0.0
 11
607.2539715605499
 21
663.7
 31
0.0
  0
LINE
  5
123
330
28
100
AcDbEntity
  8
0
 62
     0
100
AcDbLine
 10
606.7027872665711
 20
663.6
 30
0.0
 11
607.1573426056524
 21
663.6
 31
0.0
  0
LINE
  5
124
330
28
100
AcDbEntity
  8
0
 62
     0
100
AcDbLine
 10
606.7027872665711
 20
663.4999999999999
 30
0.0
 11
607.0567415411451
 21
663.4999999999999
 31
0.0
  0
LINE
  5
125
330
28
100
AcDbEntity
  8
0
 62
     0
100
AcDbLine
 10
606.7027872665711
 20
663.4000000000001
 30
0.0
 11
606.9519166011312
 21
663.4000000000001
 31
0.0
  0
LINE
  5
126
330
28
100
AcDbEntity
  8
0
 62
     0
100
AcDbLine
 10
606.7027872665711
 20
663.3
 30
0.0
 11
606.8425822661119
 21
663.3
 31
0.0
  0
LINE
  5
127
330
28
100
AcDbEntity
  8
0
 62
     0
100
AcDbLine
 10
606.7027872665711
 20
663.2
 30
0.0
 11
606.7284126064407
 21
663.2
 31
0.0
  0
ENDBLK
  5
128
330
28
100
AcDbEntity
  8
0
100
AcDbBlockEnd
  0
BLOCK
  5
2AB
330
2A1
100
AcDbEntity
  8
0
100
AcDbBlockBegin
  2
*D3
 70
     1
 10
0.0
 20
0.0
 30
0.0
  3
*D3
  1

  0
LINE
  5
32F
330
2A1
100
AcDbEntity
  8
BEM
 62
     0
370
    -2
100
AcDbLine
 10
309.0622426076456
 20
669.9033479457427
 30
0.0
 11
237.1671386715998
 21
669.9033479457429
 31
0.0
  0
LINE
  5
330
330
2A1
100
AcDbEntity
  8
BEM
 62
     0
370
    -2
100
AcDbLine
 10
309.0622426076456
 20
1259.903347945743
 30
0.0
 11
237.1671386716
 21
1259.903347945743
 31
0.0
  0
LINE
  5
331
330
2A1
100
AcDbEntity
  8
BEM
 62
     0
370
    -2
100
AcDbLine
 10
242.1671386715999
 20
687.4033479457429
 30
0.0
 11
242.1671386716
 21
1242.403347945743
 31
0.0
  0
SOLID
  5
332
330
2A1
100
AcDbEntity
  8
BEM
 62
     0
100
AcDbTrace
 10
239.2504720049332
 20
687.4033479457429
 30
0.0
 11
245.0838053382665
 21
687.4033479457429
 31
0.0
 12
242.1671386715999
 22
669.9033479457429
 32
0.0
 13
242.1671386715999
 23
669.9033479457429
 33
0.0
  0
SOLID
  5
333
330
2A1
100
AcDbEntity
  8
BEM
 62
     0
100
AcDbTrace
 10
239.2504720049333
 20
1242.403347945743
 30
0.0
 11
245.0838053382666
 21
1242.403347945743
 31
0.0
 12
242.1671386716
 22
1259.903347945743
 32
0.0
 13
242.1671386716
 23
1259.903347945743
 33
0.0
  0
MTEXT
  5
334
330
2A1
100
AcDbEntity
  8
BEM
 62
     1
100
AcDbMText
 10
225.9171386715998
 20
964.9033479457427
 30
0.0
 40
17.5
 41
0.0
 71
     5
 72
     1
  1
\A1;590
  7
GREEKS
 11
0.0000000000000001
 21
1.0
 31
0.0
 73
     1
 44
1.0
  0
POINT
  5
335
330
2A1
100
AcDbEntity
  8
DEFPOINTS
 62
     0
100
AcDbPoint
 10
314.0622426076457
 20
669.9033479457427
 30
0.0
  0
POINT
  5
336
330
2A1
100
AcDbEntity
  8
DEFPOINTS
 62
     0
100
AcDbPoint
 10
314.0622426076457
 20
1259.903347945743
 30
0.0
  0
POINT
  5
337
330
2A1
100
AcDbEntity
  8
DEFPOINTS
 62
     0
100
AcDbPoint
 10
242.1671386716
 20
1259.903347945743
 30
0.0
  0
ENDBLK
  5
2AC
330
2A1
100
AcDbEntity
  8
0
100
AcDbBlockEnd
  0
BLOCK
  5
2B7
330
2AD
100
AcDbEntity
  8
0
100
AcDbBlockBegin
  2
*D4
 70
     1
 10
0.0
 20
0.0
 30
0.0
  3
*D4
  1

  0
LINE
  5
2AE
330
2AD
100
AcDbEntity
  8
BEM
 62
     0
370
    -2
100
AcDbLine
 10
309.0622426076456
 20
669.9033479457427
 30
0.0
 11
274.9011748095891
 21
669.9033479457427
 31
0.0
  0
LINE
  5
2AF
330
2AD
100
AcDbEntity
  8
BEM
 62
     0
370
    -2
100
AcDbLine
 10
471.0122426076455
 20
794.9033479457427
 30
0.0
 11
274.9011748095891
 21
794.9033479457427
 31
0.0
  0
LINE
  5
2B0
330
2AD
100
AcDbEntity
  8
BEM
 62
     0
370
    -2
100
AcDbLine
 10
279.9011748095891
 20
687.4033479457428
 30
0.0
 11
279.9011748095891
 21
777.4033479457427
 31
0.0
  0
SOLID
  5
2B1
330
2AD
100
AcDbEntity
  8
BEM
 62
     0
100
AcDbTrace
 10
276.9845081429224
 20
687.4033479457428
 30
0.0
 11
282.8178414762557
 21
687.4033479457428
 31
0.0
 12
279.9011748095891
 22
669.9033479457427
 32
0.0
 13
279.9011748095891
 23
669.9033479457427
 33
0.0
  0
SOLID
  5
2B2
330
2AD
100
AcDbEntity
  8
BEM
 62
     0
100
AcDbTrace
 10
276.9845081429224
 20
777.4033479457427
 30
0.0
 11
282.8178414762557
 21
777.4033479457427
 31
0.0
 12
279.9011748095891
 22
794.9033479457427
 32
0.0
 13
279.9011748095891
 23
794.9033479457427
 33
0.0
  0
MTEXT
  5
2B3
330
2AD
100
AcDbEntity
  8
BEM
 62
     1
100
AcDbMText
 10
263.651174809589
 20
732.4033479457429
 30
0.0
 40
17.5
 41
0.0
 71
     5
 72
     1
  1
\A1;125
  7
GREEKS
 11
0.0000000000000001
 21
1.0
 31
0.0
 73
     1
 44
1.0
  0
POINT
  5
2B4
330
2AD
100
AcDbEntity
  8
DEFPOINTS
 62
     0
100
AcDbPoint
 10
314.0622426076457
 20
669.9033479457427
 30
0.0
  0
POINT
  5
2B5
330
2AD
100
AcDbEntity
  8
DEFPOINTS
 62
     0
100
AcDbPoint
 10
476.0122426076454
 20
794.9033479457427
 30
0.0
  0
POINT
  5
2B6
330
2AD
100
AcDbEntity
  8
DEFPOINTS
 62
     0
100
AcDbPoint
 10
279.9011748095891
 20
794.9033479457427
 30
0.0
  0
ENDBLK
  5
2B8
330
2AD
100
AcDbEntity
  8
0
100
AcDbBlockEnd
  0
BLOCK
  5
2D8
330
2CE
100
AcDbEntity
  8
0
100
AcDbBlockBegin
  2
*D5
 70
     1
 10
0.0
 20
0.0
 30
0.0
  3
*D5
  1

  0
LINE
  5
341
330
2CE
100
AcDbEntity
  8
SCHRAFF
 62
     0
370
    -2
100
AcDbLine
 10
479.5477765135782
 20
791.3678140398099
 30
0.0
 11
609.6317787541002
 21
661.2838117992879
 31
0.0
  0
LINE
  5
342
330
2CE
100
AcDbEntity
  8
SCHRAFF
 62
     0
370
    -2
100
AcDbLine
 10
904.8725053972864
 20
1023.652391659591
 30
0.0
 11
938.4364320058447
 21
990.0884650510326
 31
0.0
  0
LINE
  5
343
330
2CE
100
AcDbEntity
  8
SCHRAFF
 62
     0
370
    -2
100
AcDbLine
 10
618.4706135189319
 20
677.1937143759852
 30
0.0
 11
922.5265294291475
 21
981.2496302862006
 31
0.0
  0
SOLID
  5
344
330
2CE
100
AcDbEntity
  8
SCHRAFF
 62
     0
100
AcDbTrace
 10
616.4082187404712
 20
679.2561091544459
 30
0.0
 11
620.5330082973927
 21
675.1313195975244
 31
0.0
 12
606.0962448481674
 22
664.8193457052207
 32
0.0
 13
606.0962448481674
 23
664.8193457052207
 33
0.0
  0
SOLID
  5
345
330
2CE
100
AcDbEntity
  8
SCHRAFF
 62
     0
100
AcDbTrace
 10
920.4641346506866
 20
983.3120250646613
 30
0.0
 11
924.5889242076081
 21
979.18723550774
 31
0.0
 12
934.9008980999119
 22
993.6239989569653
 32
0.0
 13
934.9008980999119
 23
993.6239989569653
 33
0.0
  0
MTEXT
  5
346
330
2CE
100
AcDbEntity
  8
SCHRAFF
 62
     1
100
AcDbMText
 10
759.0080862797585
 20
840.7121575253741
 30
0.0
 40
17.5
 41
0.0
 71
     5
 72
     1
  1
\A1;465
  7
GREEKS
 11
0.7071067811865476
 21
0.7071067811865475
 31
0.0
 73
     1
 44
1.0
  0
POINT
  5
347
330
2CE
100
AcDbEntity
  8
DEFPOINTS
 62
     0
100
AcDbPoint
 10
476.0122426076454
 20
794.9033479457426
 30
0.0
  0
POINT
  5
348
330
2CE
100
AcDbEntity
  8
DEFPOINTS
 62
     0
100
AcDbPoint
 10
901.3369714913537
 20
1027.187925565523
 30
0.0
  0
POINT
  5
349
330
2CE
100
AcDbEntity
  8
DEFPOINTS
 62
     0
100
AcDbPoint
 10
934.9008980999119
 20
993.6239989569653
 30
0.0
  0
ENDBLK
  5
2D9
330
2CE
100
AcDbEntity
  8
0
100
AcDbBlockEnd
  0
BLOCK
  5
321
330
317
100
AcDbEntity
  8
0
100
AcDbBlockBegin
  2
*D6
 70
     1
 10
0.0
 20
0.0
 30
0.0
  3
*D6
  1

  0
LINE
  5
34A
330
317
100
AcDbEntity
  8
SCHRAFF
 62
     0
370
    -2
100
AcDbLine
 10
904.8725053972866
 20
1030.723459471456
 30
0.0
 11
935.7528846886497
 21
1061.603838762819
 31
0.0
  0
LINE
  5
34B
330
317
100
AcDbEntity
  8
SCHRAFF
 62
     0
370
    -2
100
AcDbLine
 10
711.8323541333587
 20
1223.763610735384
 30
0.0
 11
742.7127334247217
 21
1254.643990026747
 31
0.0
  0
LINE
  5
34C
330
317
100
AcDbEntity
  8
SCHRAFF
 62
     0
370
    -2
100
AcDbLine
 10
919.8429821119523
 20
1070.442673527651
 30
0.0
 11
751.5515681895536
 21
1238.73408745005
 31
0.0
  0
SOLID
  5
34D
330
317
100
AcDbEntity
  8
SCHRAFF
 62
     0
100
AcDbTrace
 10
921.9053768904132
 20
1072.505068306112
 30
0.0
 11
917.7805873334916
 21
1068.38027874919
 31
0.0
 12
932.2173507827169
 22
1058.068304856887
 32
0.0
 13
932.2173507827169
 23
1058.068304856887
 33
0.0
  0
SOLID
  5
34E
330
317
100
AcDbEntity
  8
SCHRAFF
 62
     0
100
AcDbTrace
 10
753.6139629680144
 20
1240.79648222851
 30
0.0
 11
749.4891734110929
 21
1236.671692671589
 31
0.0
 12
739.1771995187889
 22
1251.108456120814
 32
0.0
 13
739.1771995187889
 23
1251.108456120814
 33
0.0
  0
MTEXT
  5
34F
330
317
100
AcDbEntity
  8
SCHRAFF
 62
     1
100
AcDbMText
 10
847.1877603450343
 20
1166.078865683132
 30
0.0
 40
17.5
 41
0.0
 71
     5
 72
     1
  1
\A1;%%c273
  7
GREEKS
 11
0.7071067811865488
 21
-0.7071067811865463
 31
0.0
 73
     1
 44
1.0
  0
POINT
  5
350
330
317
100
AcDbEntity
  8
DEFPOINTS
 62
     0
100
AcDbPoint
 10
901.3369714913538
 20
1027.187925565524
 30
0.0
  0
POINT
  5
351
330
317
100
AcDbEntity
  8
DEFPOINTS
 62
     0
100
AcDbPoint
 10
708.2968202274259
 20
1220.228076829451
 30
0.0
  0
POINT
  5
352
330
317
100
AcDbEntity
  8
DEFPOINTS
 62
     0
100
AcDbPoint
 10
739.1771995187889
 20
1251.108456120814
 30
0.0
  0
ENDBLK
  5
322
330
317
100
AcDbEntity
  8
0
100
AcDbBlockEnd
  0
BLOCK
  5
32D
330
323
100
AcDbEntity
  8
0
100
AcDbBlockBegin
  2
*D7
 70
     1
 10
0.0
 20
0.0
 30
0.0
  3
*D7
  1

  0
LINE
  5
338
330
323
100
AcDbEntity
  8
BEM
 62
     0
370
    -2
100
AcDbLine
 10
637.9622426076455
 20
664.9033479457427
 30
0.0
 11
637.9622426076455
 21
608.686823113051
 31
0.0
  0
LINE
  5
339
330
323
100
AcDbEntity
  8
BEM
 62
     0
370
    -2
100
AcDbLine
 10
314.0622426076457
 20
664.9033479457427
 30
0.0
 11
314.0622426076457
 21
608.686823113051
 31
0.0
  0
LINE
  5
33A
330
323
100
AcDbEntity
  8
BEM
 62
     0
370
    -2
100
AcDbLine
 10
620.4622426076455
 20
613.686823113051
 30
0.0
 11
331.5622426076457
 21
613.686823113051
 31
0.0
  0
SOLID
  5
33B
330
323
100
AcDbEntity
  8
BEM
 62
     0
100
AcDbTrace
 10
620.4622426076455
 20
616.6034897797175
 30
0.0
 11
620.4622426076455
 21
610.7701564463844
 31
0.0
 12
637.9622426076455
 22
613.686823113051
 32
0.0
 13
637.9622426076455
 23
613.686823113051
 33
0.0
  0
SOLID
  5
33C
330
323
100
AcDbEntity
  8
BEM
 62
     0
100
AcDbTrace
 10
331.5622426076457
 20
616.6034897797175
 30
0.0
 11
331.5622426076457
 21
610.7701564463844
 31
0.0
 12
314.0622426076457
 22
613.686823113051
 32
0.0
 13
314.0622426076457
 23
613.686823113051
 33
0.0
  0
MTEXT
  5
33D
330
323
100
AcDbEntity
  8
BEM
 62
     1
100
AcDbMText
 10
476.0122426076455
 20
629.9368231130509
 30
0.0
 40
17.5
 41
0.0
 71
     5
 72
     1
  1
\A1;%%c324
  7
GREEKS
 73
     1
 44
1.0
  0
POINT
  5
33E
330
323
100
AcDbEntity
  8
DEFPOINTS
 62
     0
100
AcDbPoint
 10
637.9622426076455
 20
669.9033479457427
 30
0.0
  0
POINT
  5
33F
330
323
100
AcDbEntity
  8
DEFPOINTS
 62
     0
100
AcDbPoint
 10
314.0622426076457
 20
669.9033479457427
 30
0.0
  0
POINT
  5
340
330
323
100
AcDbEntity
  8
DEFPOINTS
 62
     0
100
AcDbPoint
 10
314.0622426076457
 20
613.686823113051
 30
0.0
  0
ENDBLK
  5
32E
330
323
100
AcDbEntity
  8
0
100
AcDbBlockEnd
  0
BLOCK
  5
362
330
356
100
AcDbEntity
  8
0
100
AcDbBlockBegin
  2
*D8
 70
     1
 10
0.0
 20
0.0
 30
0.0
  3
*D8
  1

  0
LINE
  5
365
330
356
100
AcDbEntity
  8
BEM
 62
     0
370
    -2
100
AcDbLine
 10
859.8908318761688
 20
1178.781937214266
 30
0.0
 11
879.3872897468622
 21
1198.27839508496
 31
0.0
  0
LINE
  5
366
330
356
100
AcDbEntity
  8
BEM
 62
     0
370
    -2
100
AcDbLine
 10
476.0122426076454
 20
1274.903347945743
 30
0.0
 11
476.012242607645
 21
1365.36181033291
 31
0.0
  0
ARC
  5
367
330
356
100
AcDbEntity
  8
BEM
 62
     0
370
    -2
100
AcDbCircle
 10
476.0122426076454
 20
794.903347945742
 30
0.0
 40
565.4584623871681
100
AcDbArc
 50
46.77327996238306
 51
88.22672003761708
  0
SOLID
  5
368
330
356
100
AcDbEntity
  8
BEM
 62
     0
100
AcDbTrace
 10
865.3176197008942
 20
1209.018326853662
 30
0.0
 11
861.25715170588
 21
1204.830203474481
 31
0.0
 12
875.8517558409295
 22
1194.742861179028
 32
0.0
 13
875.8517558409295
 23
1194.742861179028
 33
0.0
  0
SOLID
  5
369
330
356
100
AcDbEntity
  8
BEM
 62
     0
100
AcDbTrace
 10
493.4650143015367
 20
1357.174694921548
 30
0.0
 11
493.5552802893355
 21
1363.007329817478
 31
0.0
 12
476.0122426076451
 22
1360.36181033291
 32
0.0
 13
476.0122426076451
 23
1360.36181033291
 33
0.0
  0
MTEXT
  5
36A
330
356
100
AcDbEntity
  8
BEM
 62
     1
100
AcDbMText
 10
698.6224336297848
 20
1332.331890233859
 30
0.0
 40
17.5
 41
0.0
 71
     5
 72
     1
  1
\A1;45°
  7
GREEKS
 11
0.9238795325112871
 21
-0.3826834323650891
 31
0.0
 73
     1
 44
1.0
  0
POINT
  5
36B
330
356
100
AcDbEntity
  8
DEFPOINTS
 62
     0
100
AcDbPoint
 10
758.7414738012287
 20
1284.604741157917
 30
0.0
  0
POINT
  5
36C
330
356
100
AcDbEntity
  8
DEFPOINTS
 62
     0
100
AcDbPoint
 10
476.0122426076455
 20
1269.903347945743
 30
0.0
  0
POINT
  5
36D
330
356
100
AcDbEntity
  8
DEFPOINTS
 62
     0
100
AcDbPoint
 10
804.8168958593899
 20
1123.708001197487
 30
0.0
  0
POINT
  5
36E
330
356
100
AcDbEntity
  8
DEFPOINTS
 62
     0
100
AcDbPoint
 10
856.3552979702363
 20
1175.246403308334
 30
0.0
  0
POINT
  5
36F
330
356
100
AcDbEntity
  8
DEFPOINTS
 62
     0
100
AcDbPoint
 10
476.0122426076454
 20
659.9033479457428
 30
0.0
  0
ENDBLK
  5
363
330
356
100
AcDbEntity
  8
0
100
AcDbBlockEnd
  0
ENDSEC
  0
SECTION
  2
ENTITIES
  0
DIMENSION
  5
1A4
330
20
100
AcDbEntity
  8
BEM
100
AcDbDimension
  2
*D4
 10
279.9011748095891
 20
794.9033479457427
 30
0.0
 11
263.651174809589
 21
732.4033479457429
 31
0.0
 70
    32
 71
     5
 42
125.0
  3
Standard
100
AcDbAlignedDimension
 13
314.0622426076457
 23
669.9033479457427
 33
0.0
 14
476.0122426076454
 24
794.9033479457427
 34
0.0
 50
90.0
100
AcDbRotatedDimension
1001
ACAD
1000
DSTYLE
1002
{
1070
    40
1040
5.0
1070
    41
1040
3.5
1070
    42
1040
1.0
1070
    43
1040
7.0
1070
    44
1040
1.0
1070
    47
1040
4.0
1070
    48
1040
4.0
1070
    73
1070
     0
1070
    74
1070
     0
1070
    77
1070
     1
1070
    78
1070
     8
1070
    79
1070
     2
1070
   140
1040
3.5
1070
   141
1040
1.5
1070
   146
1040
0.5
1070
   147
1040
1.5
1070
   172
1070
     1
1070
   178
1070
     1
1070
   179
1070
     2
1070
   271
1070
     2
1070
   272
1070
     2
1070
   284
1070
     8
1070
   285
1070
     8
1070
   286
1070
     8
1070
   340
1005
34
1002
}
  0
DIMENSION
  5
1A5
330
20
100
AcDbEntity
  8
BEM
100
AcDbDimension
  2
*D3
 10
242.1671386716
 20
1259.903347945743
 30
0.0
 11
225.9171386715998
 21
964.9033479457427
 31
0.0
 70
    32
 71
     5
 42
589.9999999999998
  3
Standard
100
AcDbAlignedDimension
 13
314.0622426076457
 23
669.9033479457427
 33
0.0
 14
314.0622426076457
 24
1259.903347945743
 34
0.0
 50
90.0
100
AcDbRotatedDimension
1001
ACAD
1000
DSTYLE
1002
{
1070
    40
1040
5.0
1070
    41
1040
3.5
1070
    42
1040
1.0
1070
    43
1040
7.0
1070
    44
1040
1.0
1070
    47
1040
4.0
1070
    48
1040
4.0
1070
    73
1070
     0
1070
    74
1070
     0
1070
    77
1070
     1
1070
    78
1070
     8
1070
    79
1070
     2
1070
   140
1040
3.5
1070
   141
1040
1.5
1070
   146
1040
0.5
1070
   147
1040
1.5
1070
   172
1070
     1
1070
   178
1070
     1
1070
   179
1070
     2
1070
   271
1070
     2
1070
   272
1070
     2
1070
   284
1070
     8
1070
   285
1070
     8
1070
   286
1070
     8
1070
   340
1005
34
1002
}
  0
DIMENSION
  5
1A6
330
20
100
AcDbEntity
  8
SCHRAFF
100
AcDbDimension
  2
*D5
 10
934.9008980999119
 20
993.6239989569653
 30
0.0
 11
759.0080862797585
 21
840.7121575253741
 31
0.0
 70
    32
 71
     5
 42
465.0
  3
Standard
100
AcDbAlignedDimension
 13
476.0122426076454
 23
794.9033479457426
 33
0.0
 14
901.3369714913537
 24
1027.187925565524
 34
0.0
 50
45.0
100
AcDbRotatedDimension
1001
ACAD
1000
DSTYLE
1002
{
1070
    40
1040
5.0
1070
    41
1040
3.5
1070
    42
1040
1.0
1070
    43
1040
7.0
1070
    44
1040
1.0
1070
    47
1040
4.0
1070
    48
1040
4.0
1070
    73
1070
     0
1070
    74
1070
     0
1070
    77
1070
     1
1070
    78
1070
     8
1070
    79
1070
     2
1070
   140
1040
3.5
1070
   141
1040
1.5
1070
   146
1040
0.5
1070
   147
1040
1.5
1070
   172
1070
     1
1070
   178
1070
     1
1070
   179
1070
     2
1070
   271
1070
     2
1070
   272
1070
     2
1070
   284
1070
     8
1070
   285
1070
     8
1070
   286
1070
     8
1070
   340
1005
34
1002
}
  0
ARC
  5
1A7
330
20
100
AcDbEntity
  8
SCHRAFF
100
AcDbCircle
 10
633.4499499765211
 20
763.9145659665557
 30
0.0
 40
6.974336151949683
100
AcDbArc
 50
310.3146865315002
 51
17.11067274829525
  0
INSERT
  5
1A8
330
20
100
AcDbEntity
  8
SCHRAFF
100
AcDbBlockReference
  2
*X2
 10
31.2594553410745
 20
95.41846690697383
 30
0.0
1001
ACAD
1000
HATCH
1002
{
1070
    16
1000
_U,I
1040
0.1
1040
0.0
1070
     0
1002
}
  0
LINE
  5
1A9
330
20
100
AcDbEntity
  8
STEMPEL
100
AcDbLine
 10
637.9622426076458
 20
763.8131966818154
 30
0.0
 11
637.9622426076455
 21
669.9033479457427
 31
0.0
  0
LINE
  5
1AB
330
20
100
AcDbEntity
  8
STEMPEL
100
AcDbLine
 10
1025.0
 20
25.0
 30
0.0
 11
1025.0
 21
1460.0
 31
0.0
  0
LINE
  5
1AC
330
20
100
AcDbEntity
  8
HILF
100
AcDbLine
 10
1050.0
 20
-0.0000000000002842
 30
0.0
 11
1050.0
 21
1485.0
 31
0.0
  0
LINE
  5
1AE
102
{ACAD_REACTORS
330
370
102
}
330
20
100
AcDbEntity
  8
MITTEL
100
AcDbLine
 10
476.0122426076454
 20
1269.903347945743
 30
0.0
 11
476.0122426076454
 21
659.9033479457427
 31
0.0
  0
LINE
  5
1AF
330
20
100
AcDbEntity
  8
STEMPEL
100
AcDbLine
 10
314.0622426076457
 20
1259.903347945743
 30
0.0
 11
314.0622426076457
 21
669.9033479457427
 31
0.0
  0
LINE
  5
1B0
330
20
100
AcDbEntity
  8
STEMPEL
100
AcDbLine
 10
100.0
 20
25.0
 30
0.0
 11
99.99999999999971
 21
1460.0
 31
0.0
  0
LINE
  5
1B1
330
20
100
AcDbEntity
  8
HILF
100
AcDbLine
 10
0.0
 20
0.0
 30
0.0
 11
-0.0000000000002842
 21
1485.0
 31
0.0
  0
DIMENSION
  5
1B2
330
20
100
AcDbEntity
  8
BEM
100
AcDbDimension
  2
*D7
 10
314.0622426076457
 20
613.686823113051
 30
0.0
 11
476.0122426076455
 21
629.9368231130509
 31
0.0
 70
    32
  1
%%c324
 71
     5
 42
323.8999999999998
  3
Standard
100
AcDbAlignedDimension
 13
637.9622426076455
 23
669.9033479457427
 33
0.0
 14
314.0622426076457
 24
669.9033479457427
 34
0.0
100
AcDbRotatedDimension
1001
ACAD
1000
DSTYLE
1002
{
1070
    40
1040
5.0
1070
    41
1040
3.5
1070
    42
1040
1.0
1070
    43
1040
7.0
1070
    44
1040
1.0
1070
    47
1040
4.0
1070
    48
1040
4.0
1070
    73
1070
     0
1070
    74
1070
     0
1070
    77
1070
     1
1070
    78
1070
     8
1070
    79
1070
     2
1070
   140
1040
3.5
1070
   141
1040
1.5
1070
   146
1040
0.5
1070
   147
1040
1.5
1070
   172
1070
     1
1070
   178
1070
     1
1070
   179
1070
     2
1070
   271
1070
     2
1070
   272
1070
     2
1070
   284
1070
     8
1070
   285
1070
     8
1070
   286
1070
     8
1070
   340
1005
34
1002
}
  0
TEXT
  5
1B3
330
20
100
AcDbEntity
  8
TEXT
 62
     1
100
AcDbText
 10
292.4806628287003
 20
428.844636841721
 30
0.0
 40
17.5
  1
Rohrenden leicht entgratet
 41
0.8
  7
GREEKS
100
AcDbText
  0
TEXT
  5
1B4
330
20
100
AcDbEntity
  8
TEXT
100
AcDbText
 10
383.7908930375943
 20
256.1552237717722
 30
0.0
 40
12.5
  1
Maßstab
 41
0.8
  7
GREEKS
100
AcDbText
  0
TEXT
  5
1B5
330
20
100
AcDbEntity
  8
TEXT
 62
     1
100
AcDbText
 10
401.2515766204717
 20
220.372535722849
 30
0.0
 40
17.5
  1
1:5
 41
0.8
  7
GREEKS
100
AcDbText
  0
LINE
  5
1B6
330
20
100
AcDbEntity
  8
STEMPEL
100
AcDbLine
 10
637.9622426076455
 20
669.9033479457427
 30
0.0
 11
314.0622426076457
 21
669.9033479457427
 31
0.0
  0
LINE
  5
1B7
330
20
100
AcDbEntity
  8
STEMPEL
100
AcDbLine
 10
1025.0
 20
275.0000000000001
 30
0.0
 11
99.99999999999992
 21
275.0
 31
0.0
  0
LINE
  5
1B8
330
20
100
AcDbEntity
  8
STEMPEL
100
AcDbLine
 10
1025.0
 20
100.0
 30
0.0
 11
365.0000000000003
 21
99.99999999999992
 31
0.0
  0
LINE
  5
1B9
330
20
100
AcDbEntity
  8
STEMPEL
100
AcDbLine
 10
1025.0
 20
200.0
 30
0.0
 11
365.0000000000003
 21
199.9999999999998
 31
0.0
  0
LINE
  5
1BA
330
20
100
AcDbEntity
  8
HILF
100
AcDbLine
 10
365.0000000000003
 20
174.9999999999998
 30
0.0
 11
575.0
 21
174.9999999999998
 31
0.0
  0
LINE
  5
1BB
330
20
100
AcDbEntity
  8
HILF
100
AcDbLine
 10
365.0000000000003
 20
149.9999999999999
 30
0.0
 11
575.0
 21
149.9999999999999
 31
0.0
  0
LINE
  5
1BC
330
20
100
AcDbEntity
  8
HILF
100
AcDbLine
 10
365.0000000000003
 20
124.9999999999999
 30
0.0
 11
575.0
 21
124.9999999999999
 31
0.0
  0
LINE
  5
1BD
330
20
100
AcDbEntity
  8
STEMPEL
100
AcDbLine
 10
124.9999999999997
 20
25.0
 30
0.0
 11
1025.0
 21
25.0
 31
0.0
  0
LINE
  5
1BE
330
20
100
AcDbEntity
  8
STEMPEL
100
AcDbLine
 10
1025.0
 20
25.0
 30
0.0
 11
99.99999999999971
 21
25.0
 31
0.0
  0
LINE
  5
1BF
330
20
100
AcDbEntity
  8
HILF
100
AcDbLine
 10
1050.0
 20
0.0
 30
0.0
 11
0.0
 21
0.0
 31
0.0
  0
INSERT
  5
1C0
330
20
100
AcDbEntity
  8
STEMPEL
100
AcDbBlockReference
  2
LOGO
 10
377.4888713644485
 20
112.552631911208
 30
0.0
 41
5.0
 42
5.0
 43
5.0
  0
TEXT
  5
1C1
330
20
100
AcDbEntity
  8
TEXT
100
AcDbText
 10
104.6377487744418
 20
279.1799999999999
 30
0.0
 40
12.5
  1
Erstellt mit AUTOCAD 2004
 41
0.8
  7
GREEKS
100
AcDbText
  0
LINE
  5
1C2
330
20
100
AcDbEntity
  8
STEMPEL
100
AcDbLine
 10
365.0000000000003
 20
274.9999999999999
 30
0.0
 11
365.0
 21
24.99999999999993
 31
0.0
  0
TEXT
  5
1C3
330
20
100
AcDbEntity
  8
TEXT
100
AcDbText
 10
321.4962254158379
 20
46.4831054241602
 30
0.0
 40
10.0
  1
Name
 41
0.8
  7
GREEKS
 72
     1
 11
337.3057492253616
 21
46.4831054241602
 31
0.0
100
AcDbText
  0
LINE
  5
1C4
330
20
100
AcDbEntity
  8
VOLL
100
AcDbLine
 10
260.0000000000003
 20
274.9999999999999
 30
0.0
 11
260.0
 21
24.99999999999993
 31
0.0
  0
LINE
  5
1C5
330
20
100
AcDbEntity
  8
VOLL
100
AcDbLine
 10
310.0000000000003
 20
274.9999999999999
 30
0.0
 11
310.0
 21
24.99999999999993
 31
0.0
  0
TEXT
  5
1C6
330
20
100
AcDbEntity
  8
TEXT
100
AcDbText
 10
275.2385433958294
 20
46.67890673349525
 30
0.0
 40
10.0
  1
Tag
 41
0.8
  7
GREEKS
 72
     1
 11
284.5718767291627
 21
46.67890673349525
 31
0.0
100
AcDbText
  0
LINE
  5
1C7
330
20
100
AcDbEntity
  8
VOLL
100
AcDbLine
 10
135.0000000000002
 20
275.0000000000001
 30
0.0
 11
134.9999999999999
 21
24.99999999999993
 31
0.0
  0
TEXT
  5
1C8
330
20
100
AcDbEntity
  8
TEXT
100
AcDbText
 10
120.6660276761439
 20
34.13664615067979
 30
0.0
 40
10.0
  1
Index
 50
90.0
 41
0.8
  7
GREEKS
100
AcDbText
  0
TEXT
  5
1C9
330
20
100
AcDbEntity
  8
TEXT
100
AcDbText
 10
165.7505705066679
 20
46.68454737460329
 30
0.0
 40
10.0
  1
Änderung
 41
0.8
  7
GREEKS
 72
     1
 11
192.6077133638108
 21
46.68454737460329
 31
0.0
100
AcDbText
  0
LINE
  5
1CA
330
20
100
AcDbEntity
  8
STEMPEL
100
AcDbLine
 10
364.9999999999997
 20
74.99999999999992
 30
0.0
 11
99.99999999999992
 21
74.99999999999992
 31
0.0
  0
LINE
  5
1CB
330
20
100
AcDbEntity
  8
HILF
100
AcDbLine
 10
100.0000000000002
 20
250.0000000000001
 30
0.0
 11
365.0000000000003
 21
250.0000000000001
 31
0.0
  0
LINE
  5
1CC
330
20
100
AcDbEntity
  8
HILF
100
AcDbLine
 10
100.0000000000002
 20
225.0000000000001
 30
0.0
 11
365.0000000000003
 21
225.0000000000001
 31
0.0
  0
LINE
  5
1CD
330
20
100
AcDbEntity
  8
HILF
100
AcDbLine
 10
100.0000000000002
 20
199.9999999999998
 30
0.0
 11
365.0000000000003
 21
199.9999999999998
 31
0.0
  0
LINE
  5
1CE
330
20
100
AcDbEntity
  8
HILF
100
AcDbLine
 10
100.0000000000002
 20
174.9999999999998
 30
0.0
 11
365.0000000000003
 21
174.9999999999998
 31
0.0
  0
LINE
  5
1CF
330
20
100
AcDbEntity
  8
HILF
100
AcDbLine
 10
100.0000000000002
 20
149.9999999999999
 30
0.0
 11
365.0000000000003
 21
149.9999999999999
 31
0.0
  0
LINE
  5
1D0
330
20
100
AcDbEntity
  8
HILF
100
AcDbLine
 10
100.0000000000002
 20
124.9999999999999
 30
0.0
 11
365.0000000000003
 21
124.9999999999999
 31
0.0
  0
LINE
  5
1D1
330
20
100
AcDbEntity
  8
HILF
100
AcDbLine
 10
100.0000000000002
 20
99.99999999999992
 30
0.0
 11
365.0000000000003
 21
99.99999999999992
 31
0.0
  0
TEXT
  5
1D2
330
20
100
AcDbEntity
  8
TEXT
100
AcDbText
 10
368.9590317919039
 20
159.0747592404491
 30
0.0
 40
10.0
  1
Gez.
 41
0.8
  7
GREEKS
100
AcDbText
  0
TEXT
  5
1D3
330
20
100
AcDbEntity
  8
TEXT
100
AcDbText
 10
368.8787716429181
 20
134.2231572857094
 30
0.0
 40
10.0
  1
Gepr.
 41
0.8
  7
GREEKS
100
AcDbText
  0
TEXT
  5
1D4
330
20
100
AcDbEntity
  8
TEXT
100
AcDbText
 10
369.0016943468259
 20
108.8236597412452
 30
0.0
 40
10.0
  1
Norm.
 41
0.8
  7
GREEKS
100
AcDbText
  0
TEXT
  5
1D5
330
20
100
AcDbEntity
  8
TEXT
100
AcDbText
 10
371.55527455526
 20
182.8506367787916
 30
0.0
 40
10.0
  1
2011
 41
0.8
  7
GREEKS
100
AcDbText
  0
LINE
  5
1D6
330
20
100
AcDbEntity
  8
HILF
100
AcDbLine
 10
77.7191783928464
 20
742.5000000000001
 30
0.0
 11
0.0000000000002842
 21
742.5000000000001
 31
0.0
  0
TEXT
  5
1D7
330
20
100
AcDbEntity
  8
TEXT
100
AcDbText
 10
587.8240977813288
 20
178.7583604396322
 30
0.0
 40
12.5
  1
Muffenlos
 41
0.8
  7
GREEKS
100
AcDbText
  0
TEXT
  5
1D8
330
20
100
AcDbEntity
  8
TEXT
100
AcDbText
 10
587.8240977813288
 20
129.100298576054
 30
0.0
 40
12.5
  1
EDV-Art.Nr. 02250.KH0X
 41
0.8
  7
GREEKS
100
AcDbText
  0
LINE
  5
1D9
330
20
100
AcDbEntity
  8
HILF
100
AcDbLine
 10
586.9342002742369
 20
210.0939561891034
 30
0.0
 11
812.0884791390777
 21
210.0939561891034
 31
0.0
  0
LINE
  5
1DA
330
20
100
AcDbEntity
  8
HILF
100
AcDbLine
 10
586.9342002742369
 20
174.9999999999998
 30
0.0
 11
812.0884791390775
 21
174.9999999999998
 31
0.0
  0
LINE
  5
1DB
330
20
100
AcDbEntity
  8
HILF
100
AcDbLine
 10
586.9342002742369
 20
149.9999999999999
 30
0.0
 11
812.0884791390775
 21
149.9999999999999
 31
0.0
  0
LINE
  5
1DC
330
20
100
AcDbEntity
  8
HILF
100
AcDbLine
 10
586.9342002742369
 20
124.9999999999999
 30
0.0
 11
812.0884791390775
 21
124.9999999999999
 31
0.0
  0
TEXT
  5
1DD
330
20
100
AcDbEntity
  8
TEXT
 62
     1
100
AcDbText
 10
588.9294820816727
 20
218.5437197313445
 30
0.0
 40
17.5
  1
Abzweig 45%%d DN300/250
 41
0.7
  7
GREEKS
100
AcDbText
  0
LINE
  5
1DE
330
20
100
AcDbEntity
  8
HILF
100
AcDbLine
 10
583.7274248224712
 20
37.23495645070784
 30
0.0
 11
1012.147209831682
 21
37.23495645070784
 31
0.0
  0
LINE
  5
1DF
330
20
100
AcDbEntity
  8
STEMPEL
100
AcDbLine
 10
575.0
 20
275.0000000000001
 30
0.0
 11
575.0
 21
24.99999999999993
 31
0.0
  0
TEXT
  5
1E0
330
20
100
AcDbEntity
  8
TEXT
100
AcDbText
 10
425.9974927705902
 20
157.7691260206433
 30
0.0
 40
10.0
  1
05.04.
 41
0.8
  7
GREEKS
 72
     1
 11
443.5213022943996
 21
157.7691260206433
 31
0.0
100
AcDbText
  0
LINE
  5
1E1
330
20
100
AcDbEntity
  8
VOLL
100
AcDbLine
 10
475.0000000000002
 20
274.9999999999996
 30
0.0
 11
475.0
 21
99.99999999999992
 31
0.0
  0
LINE
  5
1E2
330
20
100
AcDbEntity
  8
VOLL
100
AcDbLine
 10
410.0000000000003
 20
199.9999999999998
 30
0.0
 11
410.0000000000003
 21
99.99999999999992
 31
0.0
  0
TEXT
  5
1E3
330
20
100
AcDbEntity
  8
TEXT
100
AcDbText
 10
511.0540121453142
 20
157.7240979930877
 30
0.0
 40
10.0
  1
Koeh
 41
0.8
  7
GREEKS
 72
     1
 11
524.1968692881714
 21
157.7240979930877
 31
0.0
100
AcDbText
  0
TEXT
  5
1E4
330
20
100
AcDbEntity
  8
TEXT
100
AcDbText
 10
485.7147386835128
 20
256.0460421087048
 30
0.0
 40
12.5
  1
Zul. Abw.
 41
0.8
  7
GREEKS
100
AcDbText
  0
TEXT
  5
1E5
330
20
100
AcDbEntity
  8
TEXT
100
AcDbText
 10
430.8279182884127
 20
183.2970125307481
 30
0.0
 40
10.0
  1
Tag
 41
0.8
  7
GREEKS
100
AcDbText
  0
TEXT
  5
1E6
330
20
100
AcDbEntity
  8
TEXT
100
AcDbText
 10
506.1566460565737
 20
183.2740272978806
 30
0.0
 40
10.0
  1
Name
 41
0.8
  7
GREEKS
100
AcDbText
  0
TEXT
  5
1E7
330
20
100
AcDbEntity
  8
TEXT
100
AcDbText
 10
587.4593753944567
 20
106.5743538255658
 30
0.0
 40
10.0
  1
02250KH0W.DWG
 41
0.8
  7
GREEKS
100
AcDbText
  0
TEXT
  5
1E8
330
20
100
AcDbEntity
  8
TEXT
100
AcDbText
 10
586.8555959778399
 20
77.11401425482641
 30
0.0
 40
12.5
  1
Bauvorhaben
 41
0.8
  7
GREEKS
100
AcDbText
  0
TEXT
  5
1E9
330
20
100
AcDbEntity
  8
TEXT
100
AcDbText
 10
587.1948509522525
 20
256.3723320029449
 30
0.0
 40
12.5
  1
Benennung
 41
0.8
  7
GREEKS
100
AcDbText
  0
TEXT
  5
1EA
330
20
100
AcDbEntity
  8
TEXT
 62
     1
100
AcDbText
 10
863.5819026940616
 20
220.372535722849
 30
0.0
 40
17.5
  1
02250KH0W
 41
0.8
  7
GREEKS
 72
     1
 11
924.5819026940617
 21
220.372535722849
 31
0.0
100
AcDbText
  0
LINE
  5
1EB
330
20
100
AcDbEntity
  8
VOLL
100
AcDbLine
 10
830.0
 20
150.0
 30
0.0
 11
1025.0
 21
150.0
 31
0.0
  0
LINE
  5
1EC
330
20
100
AcDbEntity
  8
HILF
100
AcDbLine
 10
841.8096540742482
 20
209.4495909238957
 30
0.0
 11
1012.147209831682
 21
209.4495909238957
 31
0.0
  0
TEXT
  5
1ED
330
20
100
AcDbEntity
  8
TEXT
100
AcDbText
 10
840.4468873940851
 20
255.7830086342841
 30
0.0
 40
12.5
  1
Zeichnungs Nr.
 41
0.8
  7
GREEKS
100
AcDbText
  0
TEXT
  5
1EE
330
20
100
AcDbEntity
  8
TEXT
100
AcDbText
 10
841.8096540742482
 20
182.9529559274992
 30
0.0
 40
12.5
  1
Ersatz für:
 41
0.8
  7
GREEKS
100
AcDbText
  0
TEXT
  5
1EF
330
20
100
AcDbEntity
  8
TEXT
100
AcDbText
 10
843.1002153742515
 20
130.185404446965
 30
0.0
 40
12.5
  1
ersetzt durch:
 41
0.8
  7
GREEKS
100
AcDbText
  0
LINE
  5
1F0
330
20
100
AcDbEntity
  8
STEMPEL
100
AcDbLine
 10
830.0
 20
274.9999999999994
 30
0.0
 11
830.0
 21
100.0
 31
0.0
  0
TEXT
  5
1F1
330
20
100
AcDbEntity
  8
TEXT
 62
     1
100
AcDbText
 10
600.0373920362804
 20
323.4720666920996
 30
0.0
 40
17.5
  1
feuerverzinkt und innen beschichtet
 41
0.8
  7
GREEKS
100
AcDbText
  0
TEXT
  5
1F3
330
20
100
AcDbEntity
  8
TEXT
 62
     1
100
AcDbText
 10
480.0373920362803
 20
353.4720666920997
 30
0.0
 40
17.5
  1
Werkstoff: EN 10219 S235
 41
0.8
  7
GREEKS
100
AcDbText
  0
POINT
  5
1F5
330
20
100
AcDbEntity
  8
DEFPOINTS
  6
ByBlock
 62
     0
100
AcDbPoint
 10
476.0122426076454
 20
659.9033479457427
 30
0.0
  0
POINT
  5
1F6
330
20
100
AcDbEntity
  8
DEFPOINTS
  6
ByBlock
 62
     0
100
AcDbPoint
 10
476.0122426076454
 20
659.9033479457427
 30
0.0
  0
POINT
  5
1F7
330
20
100
AcDbEntity
  8
DEFPOINTS
  6
ByBlock
 62
     0
100
AcDbPoint
 10
476.0122426076454
 20
664.9033479457427
 30
0.0
  0
LINE
  5
209
330
20
100
AcDbEntity
  8
STEMPEL
100
AcDbLine
 10
637.9622426076455
 20
1259.903347945743
 30
0.0
 11
314.0622426076457
 21
1259.903347945743
 31
0.0
  0
LINE
  5
20A
330
20
100
AcDbEntity
  8
STEMPEL
100
AcDbLine
 10
1025.0
 20
1460.0
 30
0.0
 11
99.99999999999971
 21
1460.0
 31
0.0
  0
LINE
  5
20B
330
20
100
AcDbEntity
  8
HILF
100
AcDbLine
 10
1050.0
 20
1485.0
 30
0.0
 11
0.0
 21
1485.0
 31
0.0
  0
DIMENSION
  5
20D
330
20
100
AcDbEntity
  8
SCHRAFF
100
AcDbDimension
  2
*D6
 10
739.1771995187889
 20
1251.108456120814
 30
0.0
 11
847.1877603450343
 21
1166.078865683132
 31
0.0
 70
    33
  1
%%c<>
 71
     5
 42
273.0000000000002
  3
Standard
100
AcDbAlignedDimension
 13
901.3369714913537
 23
1027.187925565524
 33
0.0
 14
708.2968202274259
 24
1220.228076829451
 34
0.0
1001
ACAD
1000
DSTYLE
1002
{
1070
    40
1040
5.0
1070
    41
1040
3.5
1070
    42
1040
1.0
1070
    43
1040
7.0
1070
    44
1040
1.0
1070
    47
1040
4.0
1070
    48
1040
4.0
1070
    73
1070
     0
1070
    74
1070
     0
1070
    77
1070
     1
1070
    78
1070
     8
1070
    79
1070
     2
1070
   140
1040
3.5
1070
   141
1040
1.5
1070
   146
1040
0.5
1070
   147
1040
1.5
1070
   172
1070
     1
1070
   178
1070
     1
1070
   179
1070
     2
1070
   271
1070
     2
1070
   272
1070
     2
1070
   284
1070
     8
1070
   285
1070
     8
1070
   286
1070
     8
1070
   340
1005
34
1002
}
  0
LINE
  5
20E
330
20
100
AcDbEntity
  8
STEMPEL
100
AcDbLine
 10
637.9622426076462
 20
1259.903347945743
 30
0.0
 11
637.9622426076462
 21
1149.893499209671
 31
0.0
  0
LINE
  5
20F
330
20
100
AcDbEntity
  8
STEMPEL
100
AcDbLine
 10
901.3369714913537
 20
1027.187925565524
 30
0.0
 11
637.9622426076458
 21
763.8131966818154
 31
0.0
  0
LINE
  5
210
330
20
100
AcDbEntity
  8
STEMPEL
100
AcDbLine
 10
901.3369714913537
 20
1027.187925565524
 30
0.0
 11
708.2968202274259
 21
1220.228076829451
 31
0.0
  0
LINE
  5
211
330
20
100
AcDbEntity
  8
MITTEL
100
AcDbLine
 10
811.8879636712554
 20
1130.779069009353
 30
0.0
 11
476.0122426076454
 21
794.9033479457427
 31
0.0
  0
LINE
  5
212
330
20
100
AcDbEntity
  8
STEMPEL
100
AcDbLine
 10
637.9622426076462
 20
1149.893499209671
 30
0.0
 11
558.2773779931796
 21
877.1684833312772
 31
0.0
  0
ARC
  5
213
330
20
100
AcDbEntity
  8
SCHRAFF
100
AcDbCircle
 10
578.5120053481205
 20
946.6012062457068
 30
0.0
 40
3.79240419786138
100
AcDbArc
 50
201.4284746553606
 51
305.9968846244401
  0
ARC
  5
214
330
20
100
AcDbEntity
  8
SCHRAFF
100
AcDbCircle
 10
575.7074046671446
 20
937.0023348797033
 30
0.0
 40
3.79240419786138
100
AcDbArc
 50
201.4284746553606
 51
305.9968846244401
  0
ARC
  5
215
330
20
100
AcDbEntity
  8
SCHRAFF
100
AcDbCircle
 10
575.3777467124757
 20
852.8103045067666
 30
0.0
 40
3.646071872836516
100
AcDbArc
 50
69.73949006564258
 51
180.4723066900028
  0
LINE
  5
216
330
20
100
AcDbEntity
  8
STEMPEL
100
AcDbLine
 10
558.2773779931796
 20
877.1684833312772
 30
0.0
 11
637.9622426076458
 21
763.8131966818154
 31
0.0
  0
POINT
  5
217
330
20
100
AcDbEntity
  8
DEFPOINTS
  6
ByBlock
 62
     0
100
AcDbPoint
 10
476.0122426076454
 20
794.9033479457427
 30
0.0
  0
ARC
  5
218
330
20
100
AcDbEntity
  8
SCHRAFF
100
AcDbCircle
 10
563.8910704874101
 20
869.1827544864812
 30
0.0
 40
3.646071872836516
100
AcDbArc
 50
69.73949006564258
 51
180.4723066900028
  0
ARC
  5
219
330
20
100
AcDbEntity
  8
SCHRAFF
100
AcDbCircle
 10
558.9280277040956
 20
879.3953610903024
 30
0.0
 40
3.79240419786138
100
AcDbArc
 50
201.4284746553606
 51
305.9968846244401
  0
ARC
  5
21A
330
20
100
AcDbEntity
  8
SCHRAFF
100
AcDbCircle
 10
569.6268348509206
 20
860.9912340435913
 30
0.0
 40
3.646071872836516
100
AcDbArc
 50
69.73949006564258
 51
180.4723066900028
  0
ARC
  5
21B
330
20
100
AcDbEntity
  8
SCHRAFF
100
AcDbCircle
 10
561.6844012622659
 20
889.0079780496856
 30
0.0
 40
3.79240419786138
100
AcDbArc
 50
201.4284746553606
 51
305.9968846244401
  0
ARC
  5
21C
330
20
100
AcDbEntity
  8
SCHRAFF
100
AcDbCircle
 10
567.2936026242173
 20
908.2057207816928
 30
0.0
 40
3.79240419786138
100
AcDbArc
 50
201.4284746553606
 51
305.9968846244401
  0
ARC
  5
21D
330
20
100
AcDbEntity
  8
SCHRAFF
100
AcDbCircle
 10
564.4890019432416
 20
898.6068494156892
 30
0.0
 40
3.79240419786138
100
AcDbArc
 50
201.4284746553606
 51
305.9968846244401
  0
ARC
  5
21E
330
20
100
AcDbEntity
  8
SCHRAFF
100
AcDbCircle
 10
572.9028039861689
 20
927.4034635136997
 30
0.0
 40
3.79240419786138
100
AcDbArc
 50
201.4284746553606
 51
305.9968846244401
  0
ARC
  5
21F
330
20
100
AcDbEntity
  8
SCHRAFF
100
AcDbCircle
 10
570.0982033051932
 20
917.8045921476963
 30
0.0
 40
3.79240419786138
100
AcDbArc
 50
201.4284746553606
 51
305.9968846244401
  0
ARC
  5
220
330
20
100
AcDbEntity
  8
SCHRAFF
100
AcDbCircle
 10
598.3813941586961
 20
820.0865863594676
 30
0.0
 40
3.646071872836516
100
AcDbArc
 50
69.73949006564258
 51
180.4723066900028
  0
ARC
  5
221
330
20
100
AcDbEntity
  8
SCHRAFF
100
AcDbCircle
 10
621.3850416049165
 20
787.3628682121687
 30
0.0
 40
3.646071872836516
100
AcDbArc
 50
69.73949006564258
 51
180.4723066900028
  0
ARC
  5
222
330
20
100
AcDbEntity
  8
SCHRAFF
100
AcDbCircle
 10
615.6341297433614
 20
795.5437977489934
 30
0.0
 40
3.646071872836516
100
AcDbArc
 50
69.73949006564258
 51
180.4723066900028
  0
ARC
  5
223
330
20
100
AcDbEntity
  8
SCHRAFF
100
AcDbCircle
 10
604.1323060202512
 20
811.9056568226428
 30
0.0
 40
3.646071872836516
100
AcDbArc
 50
69.73949006564258
 51
180.4723066900028
  0
ARC
  5
224
330
20
100
AcDbEntity
  8
SCHRAFF
100
AcDbCircle
 10
609.8832178818063
 20
803.7247272858181
 30
0.0
 40
3.646071872836516
100
AcDbArc
 50
69.73949006564258
 51
180.4723066900028
  0
ARC
  5
225
330
20
100
AcDbEntity
  8
SCHRAFF
100
AcDbCircle
 10
632.8868653280267
 20
771.0010091385192
 30
0.0
 40
3.646071872836516
100
AcDbArc
 50
69.73949006564258
 51
180.4723066900028
  0
ARC
  5
226
330
20
100
AcDbEntity
  8
SCHRAFF
100
AcDbCircle
 10
627.1359534664716
 20
779.1819386753439
 30
0.0
 40
3.646071872836516
100
AcDbArc
 50
69.73949006564258
 51
180.4723066900028
  0
ARC
  5
227
330
20
100
AcDbEntity
  8
SCHRAFF
100
AcDbCircle
 10
592.630482297141
 20
828.2675158962923
 30
0.0
 40
3.646071872836516
100
AcDbArc
 50
69.73949006564258
 51
180.4723066900028
  0
ARC
  5
228
330
20
100
AcDbEntity
  8
SCHRAFF
100
AcDbCircle
 10
581.1286585740308
 20
844.6293749699417
 30
0.0
 40
3.646071872836516
100
AcDbArc
 50
69.73949006564258
 51
180.4723066900028
  0
ARC
  5
229
330
20
100
AcDbEntity
  8
SCHRAFF
100
AcDbCircle
 10
586.8795704355859
 20
836.4484454331172
 30
0.0
 40
3.646071872836516
100
AcDbArc
 50
69.73949006564258
 51
180.4723066900028
  0
ARC
  5
22A
330
20
100
AcDbEntity
  8
SCHRAFF
100
AcDbCircle
 10
581.3166060290962
 20
956.2000776117102
 30
0.0
 40
3.79240419786138
100
AcDbArc
 50
201.4284746553606
 51
305.9968846244401
  0
ARC
  5
22B
330
20
100
AcDbEntity
  8
SCHRAFF
100
AcDbCircle
 10
584.1212067100719
 20
965.7989489777138
 30
0.0
 40
3.79240419786138
100
AcDbArc
 50
201.4284746553606
 51
305.9968846244401
  0
ARC
  5
22C
330
20
100
AcDbEntity
  8
SCHRAFF
100
AcDbCircle
 10
592.5350087529991
 20
994.5955630757243
 30
0.0
 40
3.79240419786138
100
AcDbArc
 50
201.4284746553606
 51
305.9968846244401
  0
ARC
  5
22D
330
20
100
AcDbEntity
  8
SCHRAFF
100
AcDbCircle
 10
589.7304080720235
 20
984.9966917097209
 30
0.0
 40
3.79240419786138
100
AcDbArc
 50
201.4284746553606
 51
305.9968846244401
  0
ARC
  5
22E
330
20
100
AcDbEntity
  8
SCHRAFF
100
AcDbCircle
 10
586.9258073910478
 20
975.3978203437172
 30
0.0
 40
3.79240419786138
100
AcDbArc
 50
201.4284746553606
 51
305.9968846244401
  0
ARC
  5
22F
330
20
100
AcDbEntity
  8
SCHRAFF
100
AcDbCircle
 10
612.1672135198296
 20
1061.787662637749
 30
0.0
 40
3.79240419786138
100
AcDbArc
 50
201.4284746553606
 51
305.9968846244401
  0
ARC
  5
230
330
20
100
AcDbEntity
  8
SCHRAFF
100
AcDbCircle
 10
603.7534114769023
 20
1032.991048539738
 30
0.0
 40
3.79240419786138
100
AcDbArc
 50
201.4284746553606
 51
305.9968846244401
  0
ARC
  5
231
330
20
100
AcDbEntity
  8
SCHRAFF
100
AcDbCircle
 10
598.1442101149507
 20
1013.793305807731
 30
0.0
 40
3.79240419786138
100
AcDbArc
 50
201.4284746553606
 51
305.9968846244401
  0
ARC
  5
232
330
20
100
AcDbEntity
  8
SCHRAFF
100
AcDbCircle
 10
595.339609433975
 20
1004.194434441727
 30
0.0
 40
3.79240419786138
100
AcDbArc
 50
201.4284746553606
 51
305.9968846244401
  0
ARC
  5
233
330
20
100
AcDbEntity
  8
SCHRAFF
100
AcDbCircle
 10
600.9488107959263
 20
1023.392177173735
 30
0.0
 40
3.79240419786138
100
AcDbArc
 50
201.4284746553606
 51
305.9968846244401
  0
ARC
  5
234
330
20
100
AcDbEntity
  8
SCHRAFF
100
AcDbCircle
 10
609.3626128388536
 20
1052.188791271745
 30
0.0
 40
3.79240419786138
100
AcDbArc
 50
201.4284746553606
 51
305.9968846244401
  0
ARC
  5
235
330
20
100
AcDbEntity
  8
SCHRAFF
100
AcDbCircle
 10
606.558012157878
 20
1042.589919905742
 30
0.0
 40
3.79240419786138
100
AcDbArc
 50
201.4284746553606
 51
305.9968846244401
  0
ARC
  5
236
330
20
100
AcDbEntity
  8
SCHRAFF
100
AcDbCircle
 10
620.5810155627569
 20
1090.584276735759
 30
0.0
 40
3.79240419786138
100
AcDbArc
 50
201.4284746553606
 51
305.9968846244401
  0
ARC
  5
237
330
20
100
AcDbEntity
  8
SCHRAFF
100
AcDbCircle
 10
617.7764148817809
 20
1080.985405369756
 30
0.0
 40
3.79240419786138
100
AcDbArc
 50
201.4284746553606
 51
305.9968846244401
  0
ARC
  5
238
330
20
100
AcDbEntity
  8
SCHRAFF
100
AcDbCircle
 10
614.9718142008053
 20
1071.386534003752
 30
0.0
 40
3.79240419786138
100
AcDbArc
 50
201.4284746553606
 51
305.9968846244401
  0
ARC
  5
239
330
20
100
AcDbEntity
  8
SCHRAFF
100
AcDbCircle
 10
623.3856162437326
 20
1100.183148101763
 30
0.0
 40
3.79240419786138
100
AcDbArc
 50
201.4284746553606
 51
305.9968846244401
  0
ARC
  5
23A
330
20
100
AcDbEntity
  8
SCHRAFF
100
AcDbCircle
 10
628.9948176056841
 20
1119.38089083377
 30
0.0
 40
3.79240419786138
100
AcDbArc
 50
201.4284746553606
 51
305.9968846244401
  0
ARC
  5
23B
330
20
100
AcDbEntity
  8
SCHRAFF
100
AcDbCircle
 10
626.1902169247082
 20
1109.782019467766
 30
0.0
 40
3.79240419786138
100
AcDbArc
 50
201.4284746553606
 51
305.9968846244401
  0
LINE
  5
23C
330
20
100
AcDbEntity
  8
STEMPEL
100
AcDbLine
 10
708.2968202274259
 20
1220.228076829451
 30
0.0
 11
637.9622426076462
 21
1149.893499209671
 31
0.0
  0
ARC
  5
23D
330
20
100
AcDbEntity
  8
SCHRAFF
100
AcDbCircle
 10
637.4086196486114
 20
1148.17750493178
 30
0.0
 40
3.79240419786138
100
AcDbArc
 50
201.4284746553606
 51
305.9968846244401
  0
ARC
  5
23E
330
20
100
AcDbEntity
  8
SCHRAFF
100
AcDbCircle
 10
631.7994182866598
 20
1128.979762199773
 30
0.0
 40
3.79240419786138
100
AcDbArc
 50
201.4284746553606
 51
305.9968846244401
  0
ARC
  5
23F
330
20
100
AcDbEntity
  8
SCHRAFF
100
AcDbCircle
 10
634.6040189676354
 20
1138.578633565777
 30
0.0
 40
3.79240419786138
100
AcDbArc
 50
201.4284746553606
 51
305.9968846244401
  0
ARC
  5
240
330
20
100
AcDbEntity
  8
SCHRAFF
100
AcDbCircle
 10
627.6291107431497
 20
1148.633917256612
 30
0.0
 40
15.80290463173664
100
AcDbArc
 50
21.04623461193614
 51
49.16556214370409
  0
INSERT
  5
241
330
20
100
AcDbEntity
  8
SCHRAFF
100
AcDbBlockReference
  2
*X1
 10
31.2594553410745
 20
95.41846690697383
 30
0.0
1001
ACAD
1000
HATCH
1002
{
1070
    16
1000
_U,I
1040
0.1
1040
0.0
1070
     0
1002
}
  0
POINT
  5
259
330
20
100
AcDbEntity
  8
BEM
100
AcDbPoint
 10
476.0122426076454
 20
1269.903347945743
 30
0.0
  0
LINE
  5
262
330
20
100
AcDbEntity
  8
HILF
100
AcDbLine
 10
637.9622426076462
 20
970.9954835694746
 30
0.0
 11
637.9622426076463
 21
942.7112123220128
 31
0.0
  0
TEXT
  5
265
330
20
100
AcDbEntity
  8
TEXT
 62
     1
100
AcDbText
 10
465.5879603866867
 20
997.0004017324837
 30
0.0
 40
17.5
  1
DN300
 50
90.0
 41
0.8
  7
GREEKS
100
AcDbText
  0
TEXT
  5
266
330
20
100
AcDbEntity
  8
TEXT
 62
     1
100
AcDbText
 10
739.5227949646553
 20
1079.583748812424
 30
0.0
 40
17.5
  1
DN250
 50
45.0
 41
0.8
  7
GREEKS
100
AcDbText
  0
TEXT
  5
26E
330
20
100
AcDbEntity
  8
BEM
100
AcDbText
 10
1043.255730964291
 20
25.41975269997152
 30
0.0
 40
10.0
  1
Diese Zeichnung ist urheberrechtlich geschützt und bleibt unser Eigentum. Sie darf weder ganz noch teilweise verfielfältigt und nicht an Dritte weitergegeben werden.
 50
90.0
 41
0.8
  7
GREEKS
100
AcDbText
  0
TEXT
  5
26F
330
20
100
AcDbEntity
  8
TEXT
100
AcDbText
 10
481.7206788119809
 20
222.3018495202353
 30
0.0
 40
10.0
  1
DIN EN1123-2
 41
0.8
  7
GREEKS
 72
     1
 11
524.1968692881714
 21
222.3018495202353
 31
0.0
100
AcDbText
  0
DIMENSION
  5
355
102
{ACAD_XDICTIONARY
360
364
102
}
102
{ACAD_REACTORS
330
370
102
}
330
20
100
AcDbEntity
  8
BEM
100
AcDbDimension
  2
*D8
 10
476.0122426076454
 20
659.9033479457427
 30
0.0
 11
698.622433629785
 21
1332.331890233859
 31
0.0
 70
    34
 71
     5
 42
0.785398163397447
  3
Standard
100
AcDb2LineAngularDimension
 13
804.8168958593899
 23
1123.708001197487
 33
0.0
 14
856.3552979702363
 24
1175.246403308334
 34
0.0
 15
476.0122426076454
 25
1269.903347945743
 35
0.0
 16
758.7414738012287
 26
1284.604741157917
 36
0.0
1001
ACAD
1000
DSTYLE
1002
{
1070
    40
1040
5.0
1070
    41
1040
3.5
1070
    42
1040
1.0
1070
    43
1040
7.0
1070
    44
1040
1.0
1070
    47
1040
4.0
1070
    48
1040
4.0
1070
    73
1070
     0
1070
    74
1070
     0
1070
    77
1070
     1
1070
    78
1070
     8
1070
    79
1070
     2
1070
   140
1040
3.5
1070
   141
1040
1.5
1070
   146
1040
0.5
1070
   147
1040
1.5
1070
   172
1070
     1
1070
   178
1070
     1
1070
   179
1070
     2
1070
   271
1070
     2
1070
   272
1070
     2
1070
   284
1070
     8
1070
   285
1070
     8
1070
   286
1070
     8
1070
   340
1005
34
1002
}
  0
LINE
  5
372
330
20
100
AcDbEntity
  8
BEM
100
AcDbLine
 10
815.4234975771881
 20
1134.314602915285
 30
0.0
 11
832.1617412448203
 21
1151.052846582917
 31
0.0
  0
ENDSEC
  0
SECTION
  2
OBJECTS
  0
DICTIONARY
  5
C
330
0
100
AcDbDictionary
281
     1
  3
ACAD_COLOR
350
1B
  3
ACAD_GROUP
350
D
  3
ACAD_LAYOUT
350
19
  3
ACAD_MATERIAL
350
1A
  3
ACAD_MLINESTYLE
350
16
  3
ACAD_PLOTSETTINGS
350
18
  3
ACAD_PLOTSTYLENAME
350
E
  3
AcDbVariableDictionary
350
284
  0
DICTIONARY
  5
364
330
355
100
AcDbDictionary
280
     1
281
     1
  3
ACAD_DIMASSOC
360
370
  0
DICTIONARY
  5
1B
102
{ACAD_REACTORS
330
C
102
}
330
C
100
AcDbDictionary
281
     1
  0
DICTIONARY
  5
D
102
{ACAD_REACTORS
330
C
102
}
330
C
100
AcDbDictionary
281
     1
  0
DICTIONARY
  5
19
102
{ACAD_REACTORS
330
C
102
}
330
C
100
AcDbDictionary
281
     1
  3
Layout1
350
1F
  3
Model
350
23
  0
DICTIONARY
  5
1A
102
{ACAD_REACTORS
330
C
102
}
330
C
100
AcDbDictionary
281
     1
  0
DICTIONARY
  5
16
102
{ACAD_REACTORS
330
C
102
}
330
C
100
AcDbDictionary
281
     1
  3
Standard
350
17
  0
DICTIONARY
  5
18
102
{ACAD_REACTORS
330
C
102
}
330
C
100
AcDbDictionary
281
     1
  0
ACDBDICTIONARYWDFLT
  5
E
102
{ACAD_REACTORS
330
C
102
}
330
C
100
AcDbDictionary
281
     1
  3
Normal
350
F
100
AcDbDictionaryWithDefault
340
F
  0
DICTIONARY
  5
284
102
{ACAD_REACTORS
330
C
102
}
330
C
100
AcDbDictionary
281
     1
  3
DIMASSOC
350
286
  3
HIDETEXT
350
285
  3
PROJECTNAME
350
287
  0
DIMASSOC
  5
370
102
{ACAD_REACTORS
330
364
102
}
330
364
100
AcDbDimAssoc
330
355
 90
       12
 70
     0
 71
     0
  1
AcDbOsnapPointRef
 72
    13
331
1AE
 73
     2
 91
        0
 40
0.0
 10
0.0
 20
0.0
 30
2.000000000000000E+50
 75
     0
  1
AcDbOsnapPointRef
 72
     1
331
1AE
 73
     2
 91
        0
 40
1.0
 10
0.0
 20
0.0
 30
2.000000000000000E+50
 75
     0
  0
LAYOUT
  5
1F
102
{ACAD_REACTORS
330
19
102
}
330
19
100
AcDbPlotSettings
  1

  2
RICOH Aficio 2027 PCL 6
  4

  6

 40
0.0
 41
0.0
 42
0.0
 43
0.0
 44
0.0
 45
0.0
 46
0.0
 47
0.0
 48
0.0
 49
0.0
140
0.0
141
0.0
142
1.0
143
1.0
 70
   688
 72
     0
 73
     0
 74
     5
  7
monochrome1.ctb
 75
    16
147
1.0
 76
     0
 77
     2
 78
   300
148
0.0
149
0.0
100
AcDbLayout
  1
Layout1
 70
     0
 71
     1
 10
0.0
 20
0.0
 11
12.0
 21
9.0
 12
360.0242968800419
 22
50.00000000000001
 32
768.2943082147227
 14
1.000000000000000E+20
 24
1.000000000000000E+20
 34
1.000000000000000E+20
 15
-1.000000000000000E+20
 25
-1.000000000000000E+20
 35
-1.000000000000000E+20
146
0.0
 13
0.0
 23
0.0
 33
0.0
 16
1.0
 26
0.0
 36
0.0
 17
0.0
 27
1.0
 37
0.0
 76
     0
330
1C
  0
LAYOUT
  5
23
102
{ACAD_REACTORS
330
19
102
}
330
19
100
AcDbPlotSettings
  1

  2
RICOH Aficio 2027 PCL 6
  4
A4
  6

 40
5.027083396911621
 41
5.027085304260253
 42
5.027084350585937
 43
5.027069091796875
 44
209.9733276367187
 45
296.9259948730469
 46
0.0
 47
0.0
 48
0.0
 49
0.0
140
0.0
141
0.0
142
1.0
143
1.0
 70
 11952
 72
     0
 73
     1
 74
     0
  7
monochrome1.ctb
 75
     0
147
1.0
 76
     0
 77
     2
 78
   300
148
5749.737974108374
149
225.2379483828901
100
AcDbLayout
  1
Model
 70
     1
 71
     0
 10
0.0
 20
0.0
 11
12.0
 21
9.0
 12
0.0
 22
0.0
 32
0.0
 14
0.0
 24
0.0
 34
0.0
 15
0.0
 25
0.0
 35
0.0
146
0.0
 13
0.0
 23
0.0
 33
0.0
 16
1.0
 26
0.0
 36
0.0
 17
0.0
 27
1.0
 37
0.0
 76
     0
330
20
  0
MLINESTYLE
  5
17
102
{ACAD_REACTORS
330
16
102
}
330
16
100
AcDbMlineStyle
  2
STANDARD
 70
     0
  3

 62
   256
 51
90.0
 52
90.0
 71
     2
 49
0.5
 62
   256
  6
BYLAYER
 49
-0.5
 62
   256
  6
BYLAYER
  0
ACDBPLACEHOLDER
  5
F
102
{ACAD_REACTORS
330
E
102
}
330
E
  0
DICTIONARYVAR
  5
286
102
{ACAD_REACTORS
330
284
102
}
330
284
100
DictionaryVariables
280
     0
  1
2
  0
DICTIONARYVAR
  5
285
102
{ACAD_REACTORS
330
284
102
}
330
284
100
DictionaryVariables
280
     0
  1
1
  0
DICTIONARYVAR
  5
287
102
{ACAD_REACTORS
330
284
102
}
330
284
100
DictionaryVariables
280
     0
  1

  0
ENDSEC
  0
EOF
