  0
SECTION
  2
HEADER
  9
$ACADVER
  1
AC1018
  9
$ACADMAINTVER
 70
     2
  9
$DWGCODEPAGE
  3
ANSI_1252
  9
$INSBASE
 10
0.0
 20
0.0
 30
0.0
  9
$EXTMIN
 10
-0.032025120463004
 20
-0.0452926703683261
 30
-0.0000000000000053
  9
$EXTMAX
 10
1050.032053236514
 20
1485.0453324345
 30
0.0000000000000099
  9
$LIMMIN
 10
0.0
 20
0.0
  9
$LIMMAX
 10
1050.0
 20
1485.0
  9
$ORTHOMODE
 70
     0
  9
$REGENMODE
 70
     1
  9
$FILLMODE
 70
     1
  9
$QTEXTMODE
 70
     0
  9
$MIRRTEXT
 70
     1
  9
$LTSCALE
 40
50.0
  9
$ATTMODE
 70
     1
  9
$TEXTSIZE
 40
2.5
  9
$TRACEWID
 40
0.5
  9
$TEXTSTYLE
  7
GREEKS
  9
$CLAYER
  8
BEM
  9
$CELTYPE
  6
ByLayer
  9
$CECOLOR
 62
   256
  9
$CELTSCALE
 40
1.0
  9
$DISPSILH
 70
     0
  9
$DIMSCALE
 40
5.0
  9
$DIMASZ
 40
3.5
  9
$DIMEXO
 40
1.0
  9
$DIMDLI
 40
7.0
  9
$DIMRND
 40
0.0
  9
$DIMDLE
 40
0.0
  9
$DIMEXE
 40
1.0
  9
$DIMTP
 40
6.0
  9
$DIMTM
 40
6.0
  9
$DIMTXT
 40
3.5
  9
$DIMCEN
 40
1.5
  9
$DIMTSZ
 40
0.0
  9
$DIMTOL
 70
     0
  9
$DIMLIM
 70
     0
  9
$DIMTIH
 70
     0
  9
$DIMTOH
 70
     0
  9
$DIMSE1
 70
     0
  9
$DIMSE2
 70
     0
  9
$DIMTAD
 70
     1
  9
$DIMZIN
 70
     8
  9
$DIMBLK
  1

  9
$DIMASO
 70
     1
  9
$DIMSHO
 70
     0
  9
$DIMPOST
  1

  9
$DIMAPOST
  1

  9
$DIMALT
 70
     0
  9
$DIMALTD
 70
     2
  9
$DIMALTF
 40
25.4
  9
$DIMLFAC
 40
1.0
  9
$DIMTOFL
 70
     1
  9
$DIMTVP
 40
0.0
  9
$DIMTIX
 70
     0
  9
$DIMSOXD
 70
     0
  9
$DIMSAH
 70
     0
  9
$DIMBLK1
  1

  9
$DIMBLK2
  1

  9
$DIMSTYLE
  2
Standard
  9
$DIMCLRD
 70
     0
  9
$DIMCLRE
 70
     0
  9
$DIMCLRT
 70
     1
  9
$DIMTFAC
 40
0.5
  9
$DIMGAP
 40
1.5
  9
$DIMJUST
 70
     0
  9
$DIMSD1
 70
     0
  9
$DIMSD2
 70
     0
  9
$DIMTOLJ
 70
     1
  9
$DIMTZIN
 70
     8
  9
$DIMALTZ
 70
     8
  9
$DIMALTTZ
 70
     8
  9
$DIMUPT
 70
     0
  9
$DIMDEC
 70
     2
  9
$DIMTDEC
 70
     2
  9
$DIMALTU
 70
     2
  9
$DIMALTTD
 70
     2
  9
$DIMTXSTY
  7
GREEKS
  9
$DIMAUNIT
 70
     0
  9
$DIMADEC
 70
     2
  9
$DIMALTRND
 40
0.0
  9
$DIMAZIN
 70
     2
  9
$DIMDSEP
 70
    46
  9
$DIMATFIT
 70
     3
  9
$DIMFRAC
 70
     0
  9
$DIMLDRBLK
  1

  9
$DIMLUNIT
 70
     2
  9
$DIMLWD
 70
    -2
  9
$DIMLWE
 70
    -2
  9
$DIMTMOVE
 70
     0
  9
$LUNITS
 70
     2
  9
$LUPREC
 70
     2
  9
$SKETCHINC
 40
1.0
  9
$FILLETRAD
 40
0.0
  9
$AUNITS
 70
     0
  9
$AUPREC
 70
     0
  9
$MENU
  1
ACAD
  9
$ELEVATION
 40
0.0
  9
$PELEVATION
 40
0.0
  9
$THICKNESS
 40
0.0
  9
$LIMCHECK
 70
     0
  9
$CHAMFERA
 40
0.0
  9
$CHAMFERB
 40
0.0
  9
$CHAMFERC
 40
0.0
  9
$CHAMFERD
 40
0.0
  9
$SKPOLY
 70
     0
  9
$TDCREATE
 40
2452215.138286921
  9
$TDUCREATE
 40
2452215.054953588
  9
$TDUPDATE
 40
2455657.556501898
  9
$TDUUPDATE
 40
2455657.473168565
  9
$TDINDWG
 40
0.0317361227
  9
$TDUSRTIMER
 40
0.0317361227
  9
$USRTIMER
 70
     1
  9
$ANGBASE
 50
0.0
  9
$ANGDIR
 70
     0
  9
$PDMODE
 70
     0
  9
$PDSIZE
 40
0.0
  9
$PLINEWID
 40
0.0
  9
$SPLFRAME
 70
     0
  9
$SPLINETYPE
 70
     6
  9
$SPLINESEGS
 70
     8
  9
$HANDSEED
  5
409
  9
$SURFTAB1
 70
     6
  9
$SURFTAB2
 70
     6
  9
$SURFTYPE
 70
     6
  9
$SURFU
 70
     6
  9
$SURFV
 70
     6
  9
$UCSBASE
  2

  9
$UCSNAME
  2

  9
$UCSORG
 10
0.0
 20
0.0
 30
0.0
  9
$UCSXDIR
 10
1.0
 20
0.0
 30
0.0
  9
$UCSYDIR
 10
0.0
 20
1.0
 30
0.0
  9
$UCSORTHOREF
  2

  9
$UCSORTHOVIEW
 70
     0
  9
$UCSORGTOP
 10
0.0
 20
0.0
 30
0.0
  9
$UCSORGBOTTOM
 10
0.0
 20
0.0
 30
0.0
  9
$UCSORGLEFT
 10
0.0
 20
0.0
 30
0.0
  9
$UCSORGRIGHT
 10
0.0
 20
0.0
 30
0.0
  9
$UCSORGFRONT
 10
0.0
 20
0.0
 30
0.0
  9
$UCSORGBACK
 10
0.0
 20
0.0
 30
0.0
  9
$PUCSBASE
  2

  9
$PUCSNAME
  2

  9
$PUCSORG
 10
0.0
 20
0.0
 30
0.0
  9
$PUCSXDIR
 10
1.0
 20
0.0
 30
0.0
  9
$PUCSYDIR
 10
0.0
 20
1.0
 30
0.0
  9
$PUCSORTHOREF
  2

  9
$PUCSORTHOVIEW
 70
     0
  9
$PUCSORGTOP
 10
0.0
 20
0.0
 30
0.0
  9
$PUCSORGBOTTOM
 10
0.0
 20
0.0
 30
0.0
  9
$PUCSORGLEFT
 10
0.0
 20
0.0
 30
0.0
  9
$PUCSORGRIGHT
 10
0.0
 20
0.0
 30
0.0
  9
$PUCSORGFRONT
 10
0.0
 20
0.0
 30
0.0
  9
$PUCSORGBACK
 10
0.0
 20
0.0
 30
0.0
  9
$USERI1
 70
     0
  9
$USERI2
 70
     0
  9
$USERI3
 70
     0
  9
$USERI4
 70
     0
  9
$USERI5
 70
     0
  9
$USERR1
 40
0.0
  9
$USERR2
 40
0.0
  9
$USERR3
 40
0.0
  9
$USERR4
 40
0.0
  9
$USERR5
 40
0.0
  9
$WORLDVIEW
 70
     1
  9
$SHADEDGE
 70
     3
  9
$SHADEDIF
 70
    70
  9
$TILEMODE
 70
     1
  9
$MAXACTVP
 70
    16
  9
$PINSBASE
 10
0.0
 20
0.0
 30
0.0
  9
$PLIMCHECK
 70
     0
  9
$PEXTMIN
 10
1.000000000000000E+20
 20
1.000000000000000E+20
 30
1.000000000000000E+20
  9
$PEXTMAX
 10
-1.000000000000000E+20
 20
-1.000000000000000E+20
 30
-1.000000000000000E+20
  9
$PLIMMIN
 10
0.0
 20
0.0
  9
$PLIMMAX
 10
12.0
 20
9.0
  9
$UNITMODE
 70
     0
  9
$VISRETAIN
 70
     0
  9
$PLINEGEN
 70
     0
  9
$PSLTSCALE
 70
     0
  9
$TREEDEPTH
 70
  3020
  9
$CMLSTYLE
  2
Standard
  9
$CMLJUST
 70
     0
  9
$CMLSCALE
 40
1.0
  9
$PROXYGRAPHICS
 70
     1
  9
$MEASUREMENT
 70
     0
  9
$CELWEIGHT
370
    -1
  9
$ENDCAPS
280
     0
  9
$JOINSTYLE
280
     0
  9
$LWDISPLAY
290
     0
  9
$INSUNITS
 70
     0
  9
$HYPERLINKBASE
  1

  9
$STYLESHEET
  1
monochrome 1.ctb
  9
$XEDIT
290
     1
  9
$CEPSNTYPE
380
     0
  9
$PSTYLEMODE
290
     1
  9
$FINGERPRINTGUID
  2
{B4550313-2FCB-49BF-BA9F-E44523A7B873}
  9
$VERSIONGUID
  2
{8DDB543C-C91D-46D0-BE00-4B9F2D938394}
  9
$EXTNAMES
290
     1
  9
$PSVPSCALE
 40
0.0
  9
$OLESTARTUP
290
     0
  9
$SORTENTS
280
   127
  9
$INDEXCTL
280
     0
  9
$HIDETEXT
280
     1
  9
$XCLIPFRAME
290
     0
  9
$HALOGAP
280
     0
  9
$OBSCOLOR
 70
   257
  9
$OBSLTYPE
280
     0
  9
$INTERSECTIONDISPLAY
280
     0
  9
$INTERSECTIONCOLOR
 70
   257
  9
$DIMASSOC
280
     2
  9
$PROJECTNAME
  1

  0
ENDSEC
  0
SECTION
  2
CLASSES
  0
CLASS
  1
ACDBDICTIONARYWDFLT
  2
AcDbDictionaryWithDefault
  3
ObjectDBX Classes
 90
        0
 91
        1
280
     0
281
     0
  0
CLASS
  1
DICTIONARYVAR
  2
AcDbDictionaryVar
  3
ObjectDBX Classes
 90
        0
 91
        3
280
     0
281
     0
  0
CLASS
  1
DIMASSOC
  2
AcDbDimAssoc
  3
"AcDbDimAssoc|Product Desc:     AcDim ARX App For Dimension|Company:          Autodesk, Inc.|WEB Address:      www.autodesk.com"
 90
        0
 91
        2
280
     0
281
     0
  0
ENDSEC
  0
SECTION
  2
TABLES
  0
TABLE
  2
VPORT
  5
8
330
0
100
AcDbSymbolTable
 70
     3
  0
VPORT
  5
408
330
8
100
AcDbSymbolTableRecord
100
AcDbViewportTableRecord
  2
*Active
 70
     0
 10
0.0
 20
0.0
 11
1.0
 21
1.0
 12
524.9999999999998
 22
742.4999999999999
 13
0.0
 23
0.0
 14
1.0
 24
1.0
 15
10.0
 25
10.0
 16
0.0
 26
0.0
 36
1.0
 17
0.0
 27
0.0
 37
0.0
 40
1485.0
 41
1.334231805929919
 42
50.0
 43
0.0
 44
0.0
 50
0.0
 51
0.0
 71
     0
 72
  1500
 73
     1
 74
     0
 75
     0
 76
     0
 77
     0
 78
     0
281
     0
 65
     1
110
0.0
120
0.0
130
0.0
111
1.0
121
0.0
131
0.0
112
0.0
122
1.0
132
0.0
 79
     0
146
0.0
  0
ENDTAB
  0
TABLE
  2
LTYPE
  5
5
330
0
100
AcDbSymbolTable
 70
     2
  0
LTYPE
  5
13
330
5
100
AcDbSymbolTableRecord
100
AcDbLinetypeTableRecord
  2
ByBlock
 70
     0
  3

 72
    65
 73
     0
 40
0.0
  0
LTYPE
  5
14
330
5
100
AcDbSymbolTableRecord
100
AcDbLinetypeTableRecord
  2
ByLayer
 70
     0
  3

 72
    65
 73
     0
 40
0.0
  0
LTYPE
  5
15
330
5
100
AcDbSymbolTableRecord
100
AcDbLinetypeTableRecord
  2
Continuous
 70
     0
  3
Solid line
 72
    65
 73
     0
 40
0.0
  0
LTYPE
  5
34
330
5
100
AcDbSymbolTableRecord
100
AcDbLinetypeTableRecord
  2
STRICHPUNKT
 70
     0
  3
__ . __ . __ . __ . __ . __ . __ . __ . __ . __
 72
    65
 73
     4
 40
1.0
 49
0.5
 74
     0
 49
-0.25
 74
     0
 49
0.0
 74
     0
 49
-0.25
 74
     0
  0
ENDTAB
  0
TABLE
  2
LAYER
  5
2
330
0
100
AcDbSymbolTable
 70
     9
  0
LAYER
  5
10
330
2
100
AcDbSymbolTableRecord
100
AcDbLayerTableRecord
  2
0
 70
     0
 62
     7
  6
Continuous
370
    -3
390
F
  0
LAYER
  5
37
330
2
100
AcDbSymbolTableRecord
100
AcDbLayerTableRecord
  2
VOLL
 70
     0
 62
     1
  6
Continuous
370
    -3
390
F
  0
LAYER
  5
38
330
2
100
AcDbSymbolTableRecord
100
AcDbLayerTableRecord
  2
HILF
 70
     0
 62
     2
  6
Continuous
370
    -3
390
F
  0
LAYER
  5
39
330
2
100
AcDbSymbolTableRecord
100
AcDbLayerTableRecord
  2
MITTEL
 70
     0
 62
     2
  6
STRICHPUNKT
370
    -3
390
F
  0
LAYER
  5
3A
330
2
100
AcDbSymbolTableRecord
100
AcDbLayerTableRecord
  2
BEM
 70
     0
 62
     7
  6
Continuous
370
    -3
390
F
  0
LAYER
  5
3B
330
2
100
AcDbSymbolTableRecord
100
AcDbLayerTableRecord
  2
STEMPEL
 70
     0
 62
     3
  6
Continuous
370
    -3
390
F
  0
LAYER
  5
3C
330
2
100
AcDbSymbolTableRecord
100
AcDbLayerTableRecord
  2
TEXT
 70
     0
 62
     7
  6
Continuous
370
    -3
390
F
  0
LAYER
  5
3D
330
2
100
AcDbSymbolTableRecord
100
AcDbLayerTableRecord
  2
DEFPOINTS
 70
     0
 62
     7
  6
Continuous
290
     0
370
    -3
390
F
  0
LAYER
  5
3E
330
2
100
AcDbSymbolTableRecord
100
AcDbLayerTableRecord
  2
SCHRAFF
 70
     0
 62
     7
  6
Continuous
370
    -3
390
F
  0
ENDTAB
  0
TABLE
  2
STYLE
  5
3
330
0
100
AcDbSymbolTable
 70
     2
  0
STYLE
  5
11
330
3
100
AcDbSymbolTableRecord
100
AcDbTextStyleTableRecord
  2
STANDARD
 70
     0
 40
0.0
 41
1.0
 50
0.0
 71
     0
 42
3.5
  3
txt
  4

  0
STYLE
  5
33
330
3
100
AcDbSymbolTableRecord
100
AcDbTextStyleTableRecord
  2
GREEKS
 70
     0
 40
0.0
 41
0.8
 50
0.0
 71
     0
 42
2.5
  3
SIMPLEX.shx
  4

  0
ENDTAB
  0
TABLE
  2
VIEW
  5
6
330
0
100
AcDbSymbolTable
 70
     0
  0
ENDTAB
  0
TABLE
  2
UCS
  5
7
330
0
100
AcDbSymbolTable
 70
     0
  0
ENDTAB
  0
TABLE
  2
APPID
  5
9
330
0
100
AcDbSymbolTable
 70
     1
  0
APPID
  5
12
330
9
100
AcDbSymbolTableRecord
100
AcDbRegAppTableRecord
  2
ACAD
 70
     0
  0
ENDTAB
  0
TABLE
  2
DIMSTYLE
  5
A
330
0
100
AcDbSymbolTable
 70
     1
100
AcDbDimStyleTable
 71
     1
340
23D
  0
DIMSTYLE
105
23D
102
{ACAD_REACTORS
330
1F5
330
184
330
183
330
17B
330
17A
330
3E9
102
}
330
A
100
AcDbSymbolTableRecord
100
AcDbDimStyleTableRecord
  2
Standard
 70
     0
340
11
  0
ENDTAB
  0
TABLE
  2
BLOCK_RECORD
  5
1
330
0
100
AcDbSymbolTable
 70
    20
  0
BLOCK_RECORD
  5
20
330
1
100
AcDbSymbolTableRecord
100
AcDbBlockTableRecord
  2
*Model_Space
340
23
  0
BLOCK_RECORD
  5
1C
330
1
100
AcDbSymbolTableRecord
100
AcDbBlockTableRecord
  2
*Paper_Space
340
1F
  0
BLOCK_RECORD
  5
24
330
1
100
AcDbSymbolTableRecord
100
AcDbBlockTableRecord
  2
LOGO
340
0
102
{BLKREFS
331
191
102
}
  0
BLOCK_RECORD
  5
26
330
1
100
AcDbSymbolTableRecord
100
AcDbBlockTableRecord
  2
*X1
340
0
102
{BLKREFS
331
179
102
}
  0
BLOCK_RECORD
  5
270
330
1
100
AcDbSymbolTableRecord
100
AcDbBlockTableRecord
  2
*D8
340
0
  0
BLOCK_RECORD
  5
285
330
1
100
AcDbSymbolTableRecord
100
AcDbBlockTableRecord
  2
*D9
340
0
  0
BLOCK_RECORD
  5
2D3
330
1
100
AcDbSymbolTableRecord
100
AcDbBlockTableRecord
  2
*D12
340
0
  0
BLOCK_RECORD
  5
366
330
1
100
AcDbSymbolTableRecord
100
AcDbBlockTableRecord
  2
*D15
340
0
  0
BLOCK_RECORD
  5
380
330
1
100
AcDbSymbolTableRecord
100
AcDbBlockTableRecord
  2
*D17
340
0
  0
BLOCK_RECORD
  5
3EA
330
1
100
AcDbSymbolTableRecord
100
AcDbBlockTableRecord
  2
*D19
340
0
  0
ENDTAB
  0
ENDSEC
  0
SECTION
  2
BLOCKS
  0
BLOCK
  5
42
330
20
100
AcDbEntity
  8
0
100
AcDbBlockBegin
  2
*Model_Space
 70
     0
 10
0.0
 20
0.0
 30
0.0
  3
*Model_Space
  1

  0
ENDBLK
  5
43
330
20
100
AcDbEntity
  8
0
100
AcDbBlockEnd
  0
BLOCK
  5
40
330
1C
100
AcDbEntity
 67
     1
  8
0
100
AcDbBlockBegin
  2
*Paper_Space
 70
     0
 10
0.0
 20
0.0
 30
0.0
  3
*Paper_Space
  1

  0
ENDBLK
  5
41
330
1C
100
AcDbEntity
 67
     1
  8
0
100
AcDbBlockEnd
  0
BLOCK
  5
44
330
24
100
AcDbEntity
  8
0
100
AcDbBlockBegin
  2
LOGO
 70
     0
 10
0.0
 20
0.0
 30
0.0
  3
LOGO
  1

  0
ARC
  5
45
330
24
100
AcDbEntity
  8
0
100
AcDbCircle
 10
11.59973089678112
 20
-9.271599258481501
 30
0.0
 40
4.5
100
AcDbArc
 50
270.0
 51
231.0575587310159
  0
LINE
  5
46
330
24
100
AcDbEntity
  8
0
100
AcDbLine
 10
3.599730896781125
 20
-4.771599258481529
 30
0.0
 11
3.599730896781153
 21
-11.77159925848133
 31
0.0
  0
LINE
  5
47
330
24
100
AcDbEntity
  8
0
100
AcDbLine
 10
2.599730896781125
 20
-4.771599258481529
 30
0.0
 11
2.599730896781153
 21
-11.77159925848133
 31
0.0
  0
CIRCLE
  5
48
330
24
100
AcDbEntity
  8
0
100
AcDbCircle
 10
11.59973089678112
 20
-9.271599258481501
 30
0.0
 40
3.5
  0
ARC
  5
49
330
24
100
AcDbEntity
  8
0
100
AcDbCircle
 10
31.59973089678115
 20
-9.271599258481472
 30
0.0
 40
4.5
100
AcDbArc
 50
270.0
 51
231.0575587310182
  0
LINE
  5
4A
330
24
100
AcDbEntity
  8
0
100
AcDbLine
 10
17.59973089678112
 20
-4.771599258481472
 30
0.0
 11
17.59973089678115
 21
-13.77159925848147
 31
0.0
  0
ARC
  5
4B
330
24
100
AcDbEntity
  8
0
100
AcDbCircle
 10
22.59973089678116
 20
-7.271599258481472
 30
0.0
 40
2.5
100
AcDbArc
 50
293.1161887722295
 51
90.0
  0
CIRCLE
  5
4C
330
24
100
AcDbEntity
  8
0
100
AcDbCircle
 10
31.59973089678115
 20
-9.271599258481472
 30
0.0
 40
3.5
  0
ARC
  5
4D
330
24
100
AcDbEntity
  8
0
100
AcDbCircle
 10
4.599730896781153
 20
-11.77159925848133
 30
0.0
 40
1.0
100
AcDbArc
 50
180.0
 51
270.0
  0
ARC
  5
4E
330
24
100
AcDbEntity
  8
0
100
AcDbCircle
 10
4.599730896781153
 20
-11.77159925848133
 30
0.0
 40
2.0
100
AcDbArc
 50
179.9999999999992
 51
270.0
  0
LINE
  5
4F
330
24
100
AcDbEntity
  8
0
100
AcDbLine
 10
11.59973089678115
 20
-13.77159925848144
 30
0.0
 11
4.599730896781153
 21
-13.77159925848147
 31
0.0
  0
LINE
  5
50
330
24
100
AcDbEntity
  8
0
100
AcDbLine
 10
8.771303772034769
 20
-12.77159925848136
 30
0.0
 11
4.599730896781153
 21
-12.77159925848133
 31
0.0
  0
LINE
  5
51
330
24
100
AcDbEntity
  8
0
100
AcDbLine
 10
31.59973089678115
 20
-13.77159925848147
 30
0.0
 11
23.6715276665056
 21
-13.77159925848144
 31
0.0
  0
LINE
  5
52
330
24
100
AcDbEntity
  8
0
100
AcDbLine
 10
23.56565672307022
 20
-9.51278021337896
 30
0.0
 11
24.4388546544846
 21
-12.77159925848144
 31
0.0
  0
LINE
  5
53
330
24
100
AcDbEntity
  8
0
100
AcDbLine
 10
22.59973089678116
 20
-9.771599258481472
 30
0.0
 11
18.59973089678112
 21
-9.771599258481472
 31
0.0
  0
LINE
  5
54
330
24
100
AcDbEntity
  8
0
100
AcDbLine
 10
18.59973089678115
 20
-13.77159925848144
 30
0.0
 11
17.59973089678115
 21
-13.77159925848144
 31
0.0
  0
LINE
  5
55
330
24
100
AcDbEntity
  8
0
100
AcDbLine
 10
18.59973089678115
 20
-9.771599258481472
 30
0.0
 11
18.59973089678115
 21
-13.77159925848144
 31
0.0
  0
LINE
  5
56
330
24
100
AcDbEntity
  8
0
100
AcDbLine
 10
22.59973089678116
 20
-9.771599258481472
 30
0.0
 11
23.67152766650562
 21
-13.77159925848147
 31
0.0
  0
ARC
  5
57
330
24
100
AcDbEntity
  8
0
100
AcDbCircle
 10
22.59973089678116
 20
-7.271599258481472
 30
0.0
 40
2.5
100
AcDbArc
 50
270.0
 51
270.0000000000007
  0
LINE
  5
58
330
24
100
AcDbEntity
  8
0
100
AcDbLine
 10
28.77130377203494
 20
-12.77159925848147
 30
0.0
 11
24.43885465448463
 21
-12.77159925848144
 31
0.0
  0
LINE
  5
59
330
24
100
AcDbEntity
  8
0
100
AcDbLine
 10
3.599730896781125
 20
-4.771599258481472
 30
0.0
 11
2.599730896781125
 21
-4.771599258481472
 31
0.0
  0
LINE
  5
5A
330
24
100
AcDbEntity
  8
0
100
AcDbLine
 10
22.59973089678116
 20
-8.771599258481472
 30
0.0
 11
18.59973089678115
 21
-8.771599258481472
 31
0.0
  0
LINE
  5
5B
330
24
100
AcDbEntity
  8
0
100
AcDbLine
 10
22.59973089678116
 20
-5.771599258481472
 30
0.0
 11
18.59973089678115
 21
-5.771599258481472
 31
0.0
  0
LINE
  5
5C
330
24
100
AcDbEntity
  8
0
100
AcDbLine
 10
22.59973089678116
 20
-4.771599258481472
 30
0.0
 11
17.59973089678115
 21
-4.771599258481472
 31
0.0
  0
LINE
  5
5D
330
24
100
AcDbEntity
  8
0
100
AcDbLine
 10
18.59973089678115
 20
-5.771599258481472
 30
0.0
 11
18.59973089678115
 21
-8.771599258481472
 31
0.0
  0
ARC
  5
5E
330
24
100
AcDbEntity
  8
0
100
AcDbCircle
 10
22.59973089678116
 20
-7.271599258481472
 30
0.0
 40
1.5
100
AcDbArc
 50
270.0
 51
90.0
  0
ENDBLK
  5
5F
330
24
100
AcDbEntity
  8
0
100
AcDbBlockEnd
  0
BLOCK
  5
64
330
26
100
AcDbEntity
  8
0
100
AcDbBlockBegin
  2
*X1
 70
     1
 10
0.0
 20
0.0
 30
0.0
  3
*X1
  1

  0
LINE
  5
65
330
26
100
AcDbEntity
  8
0
 62
     0
100
AcDbLine
 10
631.1532014594135
 20
1125.9
 30
0.0
 11
631.2409121858512
 21
1125.9
 31
0.0
  0
LINE
  5
66
330
26
100
AcDbEntity
  8
0
 62
     0
100
AcDbLine
 10
631.1532014594135
 20
1126.0
 30
0.0
 11
631.3409121858511
 21
1126.0
 31
0.0
  0
LINE
  5
67
330
26
100
AcDbEntity
  8
0
 62
     0
100
AcDbLine
 10
631.1532014594135
 20
1126.1
 30
0.0
 11
631.4409121858512
 21
1126.1
 31
0.0
  0
LINE
  5
68
330
26
100
AcDbEntity
  8
0
 62
     0
100
AcDbLine
 10
631.1532014594135
 20
1126.2
 30
0.0
 11
631.5409121858512
 21
1126.2
 31
0.0
  0
LINE
  5
69
330
26
100
AcDbEntity
  8
0
 62
     0
100
AcDbLine
 10
631.1532014594135
 20
1126.3
 30
0.0
 11
631.640912185851
 21
1126.3
 31
0.0
  0
LINE
  5
6A
330
26
100
AcDbEntity
  8
0
 62
     0
100
AcDbLine
 10
631.1532014594135
 20
1126.4
 30
0.0
 11
631.7409121858512
 21
1126.4
 31
0.0
  0
LINE
  5
6B
330
26
100
AcDbEntity
  8
0
 62
     0
100
AcDbLine
 10
631.1532014594135
 20
1126.5
 30
0.0
 11
631.8409121858511
 21
1126.5
 31
0.0
  0
LINE
  5
6C
330
26
100
AcDbEntity
  8
0
 62
     0
100
AcDbLine
 10
631.1532014594135
 20
1126.6
 30
0.0
 11
631.9409121858512
 21
1126.6
 31
0.0
  0
LINE
  5
6D
330
26
100
AcDbEntity
  8
0
 62
     0
100
AcDbLine
 10
631.1532014594135
 20
1126.7
 30
0.0
 11
632.0409121858512
 21
1126.7
 31
0.0
  0
LINE
  5
6E
330
26
100
AcDbEntity
  8
0
 62
     0
100
AcDbLine
 10
631.1532014594135
 20
1126.8
 30
0.0
 11
632.140912185851
 21
1126.8
 31
0.0
  0
LINE
  5
6F
330
26
100
AcDbEntity
  8
0
 62
     0
100
AcDbLine
 10
631.1532014594135
 20
1126.9
 30
0.0
 11
632.2409121858513
 21
1126.9
 31
0.0
  0
LINE
  5
70
330
26
100
AcDbEntity
  8
0
 62
     0
100
AcDbLine
 10
631.1532014594135
 20
1127.0
 30
0.0
 11
632.3409121858511
 21
1127.0
 31
0.0
  0
LINE
  5
71
330
26
100
AcDbEntity
  8
0
 62
     0
100
AcDbLine
 10
631.1532014594135
 20
1127.1
 30
0.0
 11
632.4409121858512
 21
1127.1
 31
0.0
  0
LINE
  5
72
330
26
100
AcDbEntity
  8
0
 62
     0
100
AcDbLine
 10
631.1532014594135
 20
1127.2
 30
0.0
 11
632.5409121858512
 21
1127.2
 31
0.0
  0
LINE
  5
73
330
26
100
AcDbEntity
  8
0
 62
     0
100
AcDbLine
 10
631.1532014594135
 20
1127.3
 30
0.0
 11
632.640912185851
 21
1127.3
 31
0.0
  0
LINE
  5
74
330
26
100
AcDbEntity
  8
0
 62
     0
100
AcDbLine
 10
631.1532014594135
 20
1127.4
 30
0.0
 11
632.7409121858513
 21
1127.4
 31
0.0
  0
LINE
  5
75
330
26
100
AcDbEntity
  8
0
 62
     0
100
AcDbLine
 10
631.1532014594135
 20
1127.5
 30
0.0
 11
632.8409121858513
 21
1127.5
 31
0.0
  0
LINE
  5
76
330
26
100
AcDbEntity
  8
0
 62
     0
100
AcDbLine
 10
631.1532014594135
 20
1127.6
 30
0.0
 11
632.9409121858514
 21
1127.6
 31
0.0
  0
LINE
  5
77
330
26
100
AcDbEntity
  8
0
 62
     0
100
AcDbLine
 10
631.1532014594135
 20
1127.7
 30
0.0
 11
633.0409121858513
 21
1127.7
 31
0.0
  0
LINE
  5
78
330
26
100
AcDbEntity
  8
0
 62
     0
100
AcDbLine
 10
631.1532014594135
 20
1127.8
 30
0.0
 11
633.1409121858512
 21
1127.8
 31
0.0
  0
LINE
  5
79
330
26
100
AcDbEntity
  8
0
 62
     0
100
AcDbLine
 10
631.1532014594135
 20
1127.9
 30
0.0
 11
633.2409121858513
 21
1127.9
 31
0.0
  0
LINE
  5
7A
330
26
100
AcDbEntity
  8
0
 62
     0
100
AcDbLine
 10
631.1532014594135
 20
1128.0
 30
0.0
 11
633.3409121858513
 21
1128.0
 31
0.0
  0
LINE
  5
7B
330
26
100
AcDbEntity
  8
0
 62
     0
100
AcDbLine
 10
631.1532014594135
 20
1128.1
 30
0.0
 11
633.4409121858514
 21
1128.1
 31
0.0
  0
LINE
  5
7C
330
26
100
AcDbEntity
  8
0
 62
     0
100
AcDbLine
 10
631.1532014594135
 20
1128.2
 30
0.0
 11
633.5409121858512
 21
1128.2
 31
0.0
  0
LINE
  5
7D
330
26
100
AcDbEntity
  8
0
 62
     0
100
AcDbLine
 10
631.1532014594135
 20
1128.3
 30
0.0
 11
633.6409121858512
 21
1128.3
 31
0.0
  0
LINE
  5
7E
330
26
100
AcDbEntity
  8
0
 62
     0
100
AcDbLine
 10
631.1532014594135
 20
1128.4
 30
0.0
 11
633.7409121858513
 21
1128.4
 31
0.0
  0
LINE
  5
7F
330
26
100
AcDbEntity
  8
0
 62
     0
100
AcDbLine
 10
631.1532014594135
 20
1128.5
 30
0.0
 11
633.8409121858513
 21
1128.5
 31
0.0
  0
LINE
  5
80
330
26
100
AcDbEntity
  8
0
 62
     0
100
AcDbLine
 10
631.1532014594135
 20
1128.6
 30
0.0
 11
633.9409121858514
 21
1128.6
 31
0.0
  0
LINE
  5
81
330
26
100
AcDbEntity
  8
0
 62
     0
100
AcDbLine
 10
631.1532014594135
 20
1128.7
 30
0.0
 11
634.0409121858513
 21
1128.7
 31
0.0
  0
LINE
  5
82
330
26
100
AcDbEntity
  8
0
 62
     0
100
AcDbLine
 10
631.1532014594135
 20
1128.8
 30
0.0
 11
634.1409121858512
 21
1128.8
 31
0.0
  0
LINE
  5
83
330
26
100
AcDbEntity
  8
0
 62
     0
100
AcDbLine
 10
631.1532014594135
 20
1128.9
 30
0.0
 11
634.2409121858513
 21
1128.9
 31
0.0
  0
LINE
  5
84
330
26
100
AcDbEntity
  8
0
 62
     0
100
AcDbLine
 10
631.1532014594135
 20
1129.0
 30
0.0
 11
634.3409121858512
 21
1129.0
 31
0.0
  0
LINE
  5
85
330
26
100
AcDbEntity
  8
0
 62
     0
100
AcDbLine
 10
631.1532014594135
 20
1129.1
 30
0.0
 11
634.4409121858514
 21
1129.1
 31
0.0
  0
LINE
  5
86
330
26
100
AcDbEntity
  8
0
 62
     0
100
AcDbLine
 10
631.1532014594135
 20
1129.2
 30
0.0
 11
634.5409121858513
 21
1129.2
 31
0.0
  0
LINE
  5
87
330
26
100
AcDbEntity
  8
0
 62
     0
100
AcDbLine
 10
631.1532014594135
 20
1129.3
 30
0.0
 11
634.6409121858512
 21
1129.3
 31
0.0
  0
LINE
  5
88
330
26
100
AcDbEntity
  8
0
 62
     0
100
AcDbLine
 10
631.1532014594135
 20
1129.4
 30
0.0
 11
634.7409121858513
 21
1129.4
 31
0.0
  0
LINE
  5
89
330
26
100
AcDbEntity
  8
0
 62
     0
100
AcDbLine
 10
631.1532014594135
 20
1129.5
 30
0.0
 11
634.8409121858512
 21
1129.5
 31
0.0
  0
LINE
  5
8A
330
26
100
AcDbEntity
  8
0
 62
     0
100
AcDbLine
 10
631.1532014594135
 20
1129.6
 30
0.0
 11
634.9409121858514
 21
1129.6
 31
0.0
  0
LINE
  5
8B
330
26
100
AcDbEntity
  8
0
 62
     0
100
AcDbLine
 10
631.1532014594135
 20
1129.7
 30
0.0
 11
635.0409121858513
 21
1129.7
 31
0.0
  0
LINE
  5
8C
330
26
100
AcDbEntity
  8
0
 62
     0
100
AcDbLine
 10
631.1532014594135
 20
1129.8
 30
0.0
 11
635.1409121858512
 21
1129.8
 31
0.0
  0
LINE
  5
8D
330
26
100
AcDbEntity
  8
0
 62
     0
100
AcDbLine
 10
631.1532014594135
 20
1129.9
 30
0.0
 11
635.2409121858514
 21
1129.9
 31
0.0
  0
LINE
  5
8E
330
26
100
AcDbEntity
  8
0
 62
     0
100
AcDbLine
 10
631.1532014594135
 20
1130.0
 30
0.0
 11
635.3409121858512
 21
1130.0
 31
0.0
  0
LINE
  5
8F
330
26
100
AcDbEntity
  8
0
 62
     0
100
AcDbLine
 10
631.1532014594135
 20
1130.1
 30
0.0
 11
635.4409121858513
 21
1130.1
 31
0.0
  0
LINE
  5
90
330
26
100
AcDbEntity
  8
0
 62
     0
100
AcDbLine
 10
631.1532014594135
 20
1130.2
 30
0.0
 11
635.5409121858513
 21
1130.2
 31
0.0
  0
LINE
  5
91
330
26
100
AcDbEntity
  8
0
 62
     0
100
AcDbLine
 10
631.1532014594135
 20
1130.3
 30
0.0
 11
635.6409121858511
 21
1130.3
 31
0.0
  0
LINE
  5
92
330
26
100
AcDbEntity
  8
0
 62
     0
100
AcDbLine
 10
631.1532014594135
 20
1130.4
 30
0.0
 11
635.7409121858514
 21
1130.4
 31
0.0
  0
LINE
  5
93
330
26
100
AcDbEntity
  8
0
 62
     0
100
AcDbLine
 10
631.1532014594135
 20
1130.5
 30
0.0
 11
635.8409121858512
 21
1130.5
 31
0.0
  0
LINE
  5
94
330
26
100
AcDbEntity
  8
0
 62
     0
100
AcDbLine
 10
631.1532014594135
 20
1130.6
 30
0.0
 11
635.9409121858513
 21
1130.6
 31
0.0
  0
LINE
  5
95
330
26
100
AcDbEntity
  8
0
 62
     0
100
AcDbLine
 10
631.1532014594135
 20
1130.7
 30
0.0
 11
636.0409121858513
 21
1130.7
 31
0.0
  0
LINE
  5
96
330
26
100
AcDbEntity
  8
0
 62
     0
100
AcDbLine
 10
631.1532014594135
 20
1130.8
 30
0.0
 11
636.1409121858512
 21
1130.8
 31
0.0
  0
LINE
  5
97
330
26
100
AcDbEntity
  8
0
 62
     0
100
AcDbLine
 10
631.1532014594135
 20
1130.9
 30
0.0
 11
636.2409121858513
 21
1130.9
 31
0.0
  0
LINE
  5
98
330
26
100
AcDbEntity
  8
0
 62
     0
100
AcDbLine
 10
631.1532014594135
 20
1131.0
 30
0.0
 11
636.3409121858512
 21
1131.0
 31
0.0
  0
LINE
  5
99
330
26
100
AcDbEntity
  8
0
 62
     0
100
AcDbLine
 10
631.1532014594135
 20
1131.1
 30
0.0
 11
636.4409121858514
 21
1131.1
 31
0.0
  0
LINE
  5
9A
330
26
100
AcDbEntity
  8
0
 62
     0
100
AcDbLine
 10
631.1532014594135
 20
1131.2
 30
0.0
 11
636.5409121858513
 21
1131.2
 31
0.0
  0
LINE
  5
9B
330
26
100
AcDbEntity
  8
0
 62
     0
100
AcDbLine
 10
631.1532014594135
 20
1131.3
 30
0.0
 11
636.6409121858512
 21
1131.3
 31
0.0
  0
LINE
  5
9C
330
26
100
AcDbEntity
  8
0
 62
     0
100
AcDbLine
 10
631.1532014594135
 20
1131.4
 30
0.0
 11
636.6822410062425
 21
1131.4
 31
0.0
  0
LINE
  5
9D
330
26
100
AcDbEntity
  8
0
 62
     0
100
AcDbLine
 10
631.1532014594135
 20
1131.5
 30
0.0
 11
636.6480374981504
 21
1131.5
 31
0.0
  0
LINE
  5
9E
330
26
100
AcDbEntity
  8
0
 62
     0
100
AcDbLine
 10
631.1532014594135
 20
1131.6
 30
0.0
 11
636.6107722701862
 21
1131.6
 31
0.0
  0
LINE
  5
9F
330
26
100
AcDbEntity
  8
0
 62
     0
100
AcDbLine
 10
631.1532014594135
 20
1131.7
 30
0.0
 11
636.5703504095455
 21
1131.7
 31
0.0
  0
LINE
  5
A0
330
26
100
AcDbEntity
  8
0
 62
     0
100
AcDbLine
 10
631.1532014594135
 20
1131.8
 30
0.0
 11
636.5266644707402
 21
1131.8
 31
0.0
  0
LINE
  5
A1
330
26
100
AcDbEntity
  8
0
 62
     0
100
AcDbLine
 10
631.1532014594135
 20
1131.9
 30
0.0
 11
636.479592771989
 21
1131.9
 31
0.0
  0
LINE
  5
A2
330
26
100
AcDbEntity
  8
0
 62
     0
100
AcDbLine
 10
631.1532014594135
 20
1132.0
 30
0.0
 11
636.4289973276124
 21
1132.0
 31
0.0
  0
LINE
  5
A3
330
26
100
AcDbEntity
  8
0
 62
     0
100
AcDbLine
 10
631.1532014594135
 20
1132.1
 30
0.0
 11
636.3747213219578
 21
1132.1
 31
0.0
  0
LINE
  5
A4
330
26
100
AcDbEntity
  8
0
 62
     0
100
AcDbLine
 10
631.1532014594135
 20
1132.2
 30
0.0
 11
636.3165859991863
 21
1132.2
 31
0.0
  0
LINE
  5
A5
330
26
100
AcDbEntity
  8
0
 62
     0
100
AcDbLine
 10
631.1532014594135
 20
1132.3
 30
0.0
 11
636.2543867996002
 21
1132.3
 31
0.0
  0
LINE
  5
A6
330
26
100
AcDbEntity
  8
0
 62
     0
100
AcDbLine
 10
631.1532014594135
 20
1132.4
 30
0.0
 11
636.1878885111178
 21
1132.4
 31
0.0
  0
LINE
  5
A7
330
26
100
AcDbEntity
  8
0
 62
     0
100
AcDbLine
 10
631.1532014594135
 20
1132.5
 30
0.0
 11
636.1168191146032
 21
1132.5
 31
0.0
  0
LINE
  5
A8
330
26
100
AcDbEntity
  8
0
 62
     0
100
AcDbLine
 10
631.1532014594135
 20
1132.6
 30
0.0
 11
636.0408618690172
 21
1132.6
 31
0.0
  0
LINE
  5
A9
330
26
100
AcDbEntity
  8
0
 62
     0
100
AcDbLine
 10
631.1532014594135
 20
1132.7
 30
0.0
 11
635.9596449819394
 21
1132.7
 31
0.0
  0
LINE
  5
AA
330
26
100
AcDbEntity
  8
0
 62
     0
100
AcDbLine
 10
631.1532014594135
 20
1132.8
 30
0.0
 11
635.8727279009269
 21
1132.8
 31
0.0
  0
LINE
  5
AB
330
26
100
AcDbEntity
  8
0
 62
     0
100
AcDbLine
 10
631.1532014594135
 20
1132.9
 30
0.0
 11
635.7795827678679
 21
1132.9
 31
0.0
  0
LINE
  5
AC
330
26
100
AcDbEntity
  8
0
 62
     0
100
AcDbLine
 10
631.1532014594135
 20
1133.0
 30
0.0
 11
635.6795687684946
 21
1133.0
 31
0.0
  0
LINE
  5
AD
330
26
100
AcDbEntity
  8
0
 62
     0
100
AcDbLine
 10
631.1532014594135
 20
1133.1
 30
0.0
 11
635.5718957299654
 21
1133.1
 31
0.0
  0
LINE
  5
AE
330
26
100
AcDbEntity
  8
0
 62
     0
100
AcDbLine
 10
631.1532014594135
 20
1133.2
 30
0.0
 11
635.4555708694345
 21
1133.2
 31
0.0
  0
LINE
  5
AF
330
26
100
AcDbEntity
  8
0
 62
     0
100
AcDbLine
 10
631.1532014594135
 20
1133.3
 30
0.0
 11
635.329318021952
 21
1133.3
 31
0.0
  0
LINE
  5
B0
330
26
100
AcDbEntity
  8
0
 62
     0
100
AcDbLine
 10
631.1532014594135
 20
1133.4
 30
0.0
 11
635.1914496084332
 21
1133.4
 31
0.0
  0
LINE
  5
B1
330
26
100
AcDbEntity
  8
0
 62
     0
100
AcDbLine
 10
631.1532014594135
 20
1133.5
 30
0.0
 11
635.0396522664545
 21
1133.5
 31
0.0
  0
LINE
  5
B2
330
26
100
AcDbEntity
  8
0
 62
     0
100
AcDbLine
 10
631.1532014594135
 20
1133.6
 30
0.0
 11
634.8706018528348
 21
1133.6
 31
0.0
  0
LINE
  5
B3
330
26
100
AcDbEntity
  8
0
 62
     0
100
AcDbLine
 10
631.248927748578
 20
1133.7
 30
0.0
 11
634.6792043514345
 21
1133.7
 31
0.0
  0
LINE
  5
B4
330
26
100
AcDbEntity
  8
0
 62
     0
100
AcDbLine
 10
631.4712432143738
 20
1133.8
 30
0.0
 11
634.4568888856387
 21
1133.8
 31
0.0
  0
LINE
  5
B5
330
26
100
AcDbEntity
  8
0
 62
     0
100
AcDbLine
 10
631.7412248321276
 20
1133.9
 30
0.0
 11
634.1869072678849
 21
1133.9
 31
0.0
  0
LINE
  5
B6
330
26
100
AcDbEntity
  8
0
 62
     0
100
AcDbLine
 10
632.1025782267017
 20
1134.0
 30
0.0
 11
633.8255538733108
 21
1134.0
 31
0.0
  0
LINE
  5
B7
330
26
100
AcDbEntity
  8
0
 62
     0
100
AcDbLine
 10
633.4212147137062
 20
742.0
 30
0.0
 11
633.4629718218839
 21
742.0
 31
0.0
  0
LINE
  5
B8
330
26
100
AcDbEntity
  8
0
 62
     0
100
AcDbLine
 10
633.3212147137063
 20
741.9000000000001
 30
0.0
 11
633.5094682004771
 21
741.9000000000001
 31
0.0
  0
LINE
  5
B9
330
26
100
AcDbEntity
  8
0
 62
     0
100
AcDbLine
 10
633.2212147137063
 20
741.8000000000001
 30
0.0
 11
633.5526687547961
 21
741.8000000000001
 31
0.0
  0
LINE
  5
BA
330
26
100
AcDbEntity
  8
0
 62
     0
100
AcDbLine
 10
633.1212147137063
 20
741.7
 30
0.0
 11
633.5926880495245
 21
741.7
 31
0.0
  0
LINE
  5
BB
330
26
100
AcDbEntity
  8
0
 62
     0
100
AcDbLine
 10
633.0212147137062
 20
741.6
 30
0.0
 11
633.6296275186623
 21
741.6
 31
0.0
  0
LINE
  5
BC
330
26
100
AcDbEntity
  8
0
 62
     0
100
AcDbLine
 10
632.9212147137062
 20
741.5
 30
0.0
 11
633.6635769945993
 21
741.5
 31
0.0
  0
LINE
  5
BD
330
26
100
AcDbEntity
  8
0
 62
     0
100
AcDbLine
 10
632.8212147137064
 20
741.4000000000001
 30
0.0
 11
633.6946159806545
 21
741.4000000000001
 31
0.0
  0
LINE
  5
BE
330
26
100
AcDbEntity
  8
0
 62
     0
100
AcDbLine
 10
632.7212147137063
 20
741.3000000000001
 30
0.0
 11
633.7228147144108
 21
741.3000000000001
 31
0.0
  0
LINE
  5
BF
330
26
100
AcDbEntity
  8
0
 62
     0
100
AcDbLine
 10
632.6212147137063
 20
741.2
 30
0.0
 11
633.748235058762
 21
741.2
 31
0.0
  0
LINE
  5
C0
330
26
100
AcDbEntity
  8
0
 62
     0
100
AcDbLine
 10
632.5212147137063
 20
741.1
 30
0.0
 11
633.7709312496764
 21
741.1
 31
0.0
  0
LINE
  5
C1
330
26
100
AcDbEntity
  8
0
 62
     0
100
AcDbLine
 10
632.4212147137062
 20
741.0
 30
0.0
 11
633.7909505235991
 21
741.0
 31
0.0
  0
LINE
  5
C2
330
26
100
AcDbEntity
  8
0
 62
     0
100
AcDbLine
 10
632.3212147137063
 20
740.9
 30
0.0
 11
633.8083336426915
 21
740.9
 31
0.0
  0
LINE
  5
C3
330
26
100
AcDbEntity
  8
0
 62
     0
100
AcDbLine
 10
632.2212147137063
 20
740.8000000000001
 30
0.0
 11
633.8231153323855
 21
740.8000000000001
 31
0.0
  0
LINE
  5
C4
330
26
100
AcDbEntity
  8
0
 62
     0
100
AcDbLine
 10
632.1212147137063
 20
740.7
 30
0.0
 11
633.8353246427749
 21
740.7
 31
0.0
  0
LINE
  5
C5
330
26
100
AcDbEntity
  8
0
 62
     0
100
AcDbLine
 10
632.0212147137063
 20
740.6
 30
0.0
 11
633.8449852429745
 21
740.6
 31
0.0
  0
LINE
  5
C6
330
26
100
AcDbEntity
  8
0
 62
     0
100
AcDbLine
 10
631.9212147137062
 20
740.5
 30
0.0
 11
633.8521156556266
 21
740.5
 31
0.0
  0
LINE
  5
C7
330
26
100
AcDbEntity
  8
0
 62
     0
100
AcDbLine
 10
631.8212147137063
 20
740.4
 30
0.0
 11
633.8567294370984
 21
740.4
 31
0.0
  0
LINE
  5
C8
330
26
100
AcDbEntity
  8
0
 62
     0
100
AcDbLine
 10
631.7212147137063
 20
740.3
 30
0.0
 11
633.8588353075259
 21
740.3
 31
0.0
  0
LINE
  5
C9
330
26
100
AcDbEntity
  8
0
 62
     0
100
AcDbLine
 10
631.6212147137063
 20
740.2000000000001
 30
0.0
 11
633.8584372336465
 21
740.2000000000001
 31
0.0
  0
LINE
  5
CA
330
26
100
AcDbEntity
  8
0
 62
     0
100
AcDbLine
 10
631.5212147137063
 20
740.1
 30
0.0
 11
633.8555344662676
 21
740.1
 31
0.0
  0
LINE
  5
CB
330
26
100
AcDbEntity
  8
0
 62
     0
100
AcDbLine
 10
631.4212147137062
 20
740.0
 30
0.0
 11
633.8501215332
 21
740.0
 31
0.0
  0
LINE
  5
CC
330
26
100
AcDbEntity
  8
0
 62
     0
100
AcDbLine
 10
631.3212147137063
 20
739.9
 30
0.0
 11
633.8421881874999
 21
739.9
 31
0.0
  0
LINE
  5
CD
330
26
100
AcDbEntity
  8
0
 62
     0
100
AcDbLine
 10
631.2212147137063
 20
739.8
 30
0.0
 11
633.8317193098747
 21
739.8
 31
0.0
  0
LINE
  5
CE
330
26
100
AcDbEntity
  8
0
 62
     0
100
AcDbLine
 10
631.1532014594135
 20
739.7
 30
0.0
 11
633.8186947630608
 21
739.7
 31
0.0
  0
LINE
  5
CF
330
26
100
AcDbEntity
  8
0
 62
     0
100
AcDbLine
 10
631.1532014594135
 20
739.6
 30
0.0
 11
633.8030891948696
 21
739.6
 31
0.0
  0
LINE
  5
D0
330
26
100
AcDbEntity
  8
0
 62
     0
100
AcDbLine
 10
631.1532014594135
 20
739.5
 30
0.0
 11
633.7848717853211
 21
739.5
 31
0.0
  0
LINE
  5
D1
330
26
100
AcDbEntity
  8
0
 62
     0
100
AcDbLine
 10
631.1532014594135
 20
739.4000000000001
 30
0.0
 11
633.7640059318295
 21
739.4000000000001
 31
0.0
  0
LINE
  5
D2
330
26
100
AcDbEntity
  8
0
 62
     0
100
AcDbLine
 10
631.1532014594135
 20
739.3
 30
0.0
 11
633.7404488646872
 21
739.3
 31
0.0
  0
LINE
  5
D3
330
26
100
AcDbEntity
  8
0
 62
     0
100
AcDbLine
 10
631.1532014594135
 20
739.2
 30
0.0
 11
633.7141511830018
 21
739.2
 31
0.0
  0
LINE
  5
D4
330
26
100
AcDbEntity
  8
0
 62
     0
100
AcDbLine
 10
631.1532014594135
 20
739.1
 30
0.0
 11
633.6850562986978
 21
739.1
 31
0.0
  0
LINE
  5
D5
330
26
100
AcDbEntity
  8
0
 62
     0
100
AcDbLine
 10
631.1532014594135
 20
739.0
 30
0.0
 11
633.6530997730127
 21
739.0
 31
0.0
  0
LINE
  5
D6
330
26
100
AcDbEntity
  8
0
 62
     0
100
AcDbLine
 10
631.1532014594135
 20
738.9000000000001
 30
0.0
 11
633.6182085259121
 21
738.9000000000001
 31
0.0
  0
LINE
  5
D7
330
26
100
AcDbEntity
  8
0
 62
     0
100
AcDbLine
 10
631.1532014594135
 20
738.8
 30
0.0
 11
633.5802998937326
 21
738.8
 31
0.0
  0
LINE
  5
D8
330
26
100
AcDbEntity
  8
0
 62
     0
100
AcDbLine
 10
631.1532014594135
 20
738.7
 30
0.0
 11
633.5392805037591
 21
738.7
 31
0.0
  0
LINE
  5
D9
330
26
100
AcDbEntity
  8
0
 62
     0
100
AcDbLine
 10
631.1532014594135
 20
738.6
 30
0.0
 11
633.4950449258172
 21
738.6
 31
0.0
  0
LINE
  5
DA
330
26
100
AcDbEntity
  8
0
 62
     0
100
AcDbLine
 10
631.1532014594135
 20
738.4999999999999
 30
0.0
 11
633.4474740495696
 21
738.4999999999999
 31
0.0
  0
LINE
  5
DB
330
26
100
AcDbEntity
  8
0
 62
     0
100
AcDbLine
 10
631.1532014594135
 20
738.4000000000001
 30
0.0
 11
633.3964331209779
 21
738.4000000000001
 31
0.0
  0
LINE
  5
DC
330
26
100
AcDbEntity
  8
0
 62
     0
100
AcDbLine
 10
631.1532014594135
 20
738.3
 30
0.0
 11
633.3417693507599
 21
738.3
 31
0.0
  0
LINE
  5
DD
330
26
100
AcDbEntity
  8
0
 62
     0
100
AcDbLine
 10
631.1532014594135
 20
738.2
 30
0.0
 11
633.283308979387
 21
738.2
 31
0.0
  0
LINE
  5
DE
330
26
100
AcDbEntity
  8
0
 62
     0
100
AcDbLine
 10
631.1532014594135
 20
738.1
 30
0.0
 11
633.220853643751
 21
738.1
 31
0.0
  0
LINE
  5
DF
330
26
100
AcDbEntity
  8
0
 62
     0
100
AcDbLine
 10
631.1532014594135
 20
738.0
 30
0.0
 11
633.1541758348977
 21
738.0
 31
0.0
  0
LINE
  5
E0
330
26
100
AcDbEntity
  8
0
 62
     0
100
AcDbLine
 10
631.1532014594135
 20
737.9000000000001
 30
0.0
 11
633.0830131559984
 21
737.9000000000001
 31
0.0
  0
LINE
  5
E1
330
26
100
AcDbEntity
  8
0
 62
     0
100
AcDbLine
 10
631.1532014594135
 20
737.8000000000001
 30
0.0
 11
633.0070609720348
 21
737.8000000000001
 31
0.0
  0
LINE
  5
E2
330
26
100
AcDbEntity
  8
0
 62
     0
100
AcDbLine
 10
631.1532014594135
 20
737.7
 30
0.0
 11
632.9259628663147
 21
737.7
 31
0.0
  0
LINE
  5
E3
330
26
100
AcDbEntity
  8
0
 62
     0
100
AcDbLine
 10
631.1532014594135
 20
737.6
 30
0.0
 11
632.8392980483327
 21
737.6
 31
0.0
  0
LINE
  5
E4
330
26
100
AcDbEntity
  8
0
 62
     0
100
AcDbLine
 10
631.1532014594135
 20
737.5
 30
0.0
 11
632.7465644310413
 21
737.5
 31
0.0
  0
LINE
  5
E5
330
26
100
AcDbEntity
  8
0
 62
     0
100
AcDbLine
 10
631.1532014594135
 20
737.4000000000001
 30
0.0
 11
632.6471554029522
 21
737.4000000000001
 31
0.0
  0
LINE
  5
E6
330
26
100
AcDbEntity
  8
0
 62
     0
100
AcDbLine
 10
631.1532014594135
 20
737.3000000000001
 30
0.0
 11
632.5403271556642
 21
737.3000000000001
 31
0.0
  0
LINE
  5
E7
330
26
100
AcDbEntity
  8
0
 62
     0
100
AcDbLine
 10
631.1532014594135
 20
737.2
 30
0.0
 11
632.4251513883142
 21
737.2
 31
0.0
  0
LINE
  5
E8
330
26
100
AcDbEntity
  8
0
 62
     0
100
AcDbLine
 10
631.1532014594135
 20
737.1
 30
0.0
 11
632.3004444683865
 21
737.1
 31
0.0
  0
LINE
  5
E9
330
26
100
AcDbEntity
  8
0
 62
     0
100
AcDbLine
 10
631.1532014594135
 20
737.0
 30
0.0
 11
632.1646568640767
 21
737.0
 31
0.0
  0
LINE
  5
EA
330
26
100
AcDbEntity
  8
0
 62
     0
100
AcDbLine
 10
631.1532014594135
 20
736.9
 30
0.0
 11
632.0156915650578
 21
736.9
 31
0.0
  0
LINE
  5
EB
330
26
100
AcDbEntity
  8
0
 62
     0
100
AcDbLine
 10
631.1532014594135
 20
736.8000000000001
 30
0.0
 11
631.8505860425008
 21
736.8000000000001
 31
0.0
  0
LINE
  5
EC
330
26
100
AcDbEntity
  8
0
 62
     0
100
AcDbLine
 10
631.1532014594135
 20
736.7
 30
0.0
 11
631.6649060504986
 21
736.7
 31
0.0
  0
LINE
  5
ED
330
26
100
AcDbEntity
  8
0
 62
     0
100
AcDbLine
 10
631.1532014594135
 20
736.6
 30
0.0
 11
631.4514472999097
 21
736.6
 31
0.0
  0
LINE
  5
EE
330
26
100
AcDbEntity
  8
0
 62
     0
100
AcDbLine
 10
631.1532014594135
 20
736.5
 30
0.0
 11
631.1969280800981
 21
736.5
 31
0.0
  0
ENDBLK
  5
EF
330
26
100
AcDbEntity
  8
0
100
AcDbBlockEnd
  0
BLOCK
  5
27A
330
270
100
AcDbEntity
  8
0
100
AcDbBlockBegin
  2
*D8
 70
     1
 10
0.0
 20
0.0
 30
0.0
  3
*D8
  1

  0
LINE
  5
3A7
330
270
100
AcDbEntity
  8
BEM
 62
     0
370
    -2
100
AcDbLine
 10
335.5336349623931
 20
621.0786062872757
 30
0.0
 11
258.818320836906
 21
621.0786062872757
 31
0.0
  0
LINE
  5
3A8
330
270
100
AcDbEntity
  8
BEM
 62
     0
370
    -2
100
AcDbLine
 10
335.5336349623931
 20
1196.078606287276
 30
0.0
 11
258.8183208369062
 21
1196.078606287276
 31
0.0
  0
LINE
  5
3A9
330
270
100
AcDbEntity
  8
BEM
 62
     0
370
    -2
100
AcDbLine
 10
263.818320836906
 20
638.5786062872758
 30
0.0
 11
263.8183208369062
 21
1178.578606287276
 31
0.0
  0
SOLID
  5
3AA
330
270
100
AcDbEntity
  8
BEM
 62
     0
100
AcDbTrace
 10
260.9016541702394
 20
638.5786062872758
 30
0.0
 11
266.7349875035727
 21
638.5786062872758
 31
0.0
 12
263.818320836906
 22
621.0786062872757
 32
0.0
 13
263.818320836906
 23
621.0786062872757
 33
0.0
  0
SOLID
  5
3AB
330
270
100
AcDbEntity
  8
BEM
 62
     0
100
AcDbTrace
 10
260.9016541702395
 20
1178.578606287276
 30
0.0
 11
266.7349875035729
 21
1178.578606287276
 31
0.0
 12
263.8183208369062
 22
1196.078606287276
 32
0.0
 13
263.8183208369062
 23
1196.078606287276
 33
0.0
  0
MTEXT
  5
3AC
330
270
100
AcDbEntity
  8
BEM
 62
     1
100
AcDbMText
 10
247.568320836906
 20
908.5786062872758
 30
0.0
 40
17.5
 41
0.0
 71
     5
 72
     1
  1
\A1;575
  7
GREEKS
 11
0.0000000000000001
 21
1.0
 31
0.0
 73
     1
 44
1.0
  0
POINT
  5
3AD
330
270
100
AcDbEntity
  8
DEFPOINTS
 62
     0
100
AcDbPoint
 10
340.5336349623931
 20
621.0786062872757
 30
0.0
  0
POINT
  5
3AE
330
270
100
AcDbEntity
  8
DEFPOINTS
 62
     0
100
AcDbPoint
 10
340.5336349623931
 20
1196.078606287276
 30
0.0
  0
POINT
  5
3AF
330
270
100
AcDbEntity
  8
DEFPOINTS
 62
     0
100
AcDbPoint
 10
263.8183208369062
 20
1196.078606287276
 30
0.0
  0
ENDBLK
  5
27B
330
270
100
AcDbEntity
  8
0
100
AcDbBlockEnd
  0
BLOCK
  5
28F
330
285
100
AcDbEntity
  8
0
100
AcDbBlockBegin
  2
*D9
 70
     1
 10
0.0
 20
0.0
 30
0.0
  3
*D9
  1

  0
LINE
  5
3BA
330
285
100
AcDbEntity
  8
BEM
 62
     0
370
    -2
100
AcDbLine
 10
480.5691688683258
 20
762.5430723813429
 30
0.0
 11
608.0712366691649
 21
635.0410045805038
 31
0.0
  0
LINE
  5
3BB
330
285
100
AcDbEntity
  8
BEM
 62
     0
370
    -2
100
AcDbLine
 10
881.1451604105046
 20
970.0789126595944
 30
0.0
 11
912.1271525793801
 21
939.096920490719
 31
0.0
  0
LINE
  5
3BC
330
285
100
AcDbEntity
  8
BEM
 62
     0
370
    -2
100
AcDbLine
 10
616.9100714339967
 20
650.950907157201
 30
0.0
 11
896.2172500026827
 21
930.258085725887
 31
0.0
  0
SOLID
  5
3BD
330
285
100
AcDbEntity
  8
BEM
 62
     0
100
AcDbTrace
 10
614.8476766555361
 20
653.0133019356618
 30
0.0
 11
618.9724662124575
 21
648.8885123787404
 31
0.0
 12
604.5357027632321
 22
638.5765384864364
 32
0.0
 13
604.5357027632321
 23
638.5765384864364
 33
0.0
  0
SOLID
  5
3BE
330
285
100
AcDbEntity
  8
BEM
 62
     0
100
AcDbTrace
 10
894.154855224222
 20
932.3204805043477
 30
0.0
 11
898.2796447811434
 21
928.1956909474263
 31
0.0
 12
908.5916186734474
 22
942.6324543966515
 32
0.0
 13
908.5916186734474
 23
942.6324543966515
 33
0.0
  0
MTEXT
  5
3BF
330
285
100
AcDbEntity
  8
BEM
 62
     1
100
AcDbMText
 10
745.0731755240585
 20
802.0949816358253
 30
0.0
 40
17.5
 41
0.0
 71
     5
 72
     1
  1
\A1;430
  7
GREEKS
 11
0.7071067811865476
 21
0.7071067811865475
 31
0.0
 73
     1
 44
1.0
  0
POINT
  5
3C0
330
285
100
AcDbEntity
  8
DEFPOINTS
 62
     0
100
AcDbPoint
 10
477.0336349623931
 20
766.0786062872756
 30
0.0
  0
POINT
  5
3C1
330
285
100
AcDbEntity
  8
DEFPOINTS
 62
     0
100
AcDbPoint
 10
877.6096265045721
 20
973.614446565527
 30
0.0
  0
POINT
  5
3C2
330
285
100
AcDbEntity
  8
DEFPOINTS
 62
     0
100
AcDbPoint
 10
908.5916186734474
 20
942.6324543966515
 30
0.0
  0
ENDBLK
  5
290
330
285
100
AcDbEntity
  8
0
100
AcDbBlockEnd
  0
BLOCK
  5
2DD
330
2D3
100
AcDbEntity
  8
0
100
AcDbBlockBegin
  2
*D12
 70
     1
 10
0.0
 20
0.0
 30
0.0
  3
*D12
  1

  0
LINE
  5
38C
330
2D3
100
AcDbEntity
  8
BEM
 62
     0
370
    -2
100
AcDbLine
 10
335.5336349623931
 20
621.0786062872757
 30
0.0
 11
296.5710144165472
 21
621.0786062872757
 31
0.0
  0
LINE
  5
38D
330
2D3
100
AcDbEntity
  8
BEM
 62
     0
370
    -2
100
AcDbLine
 10
472.0336349623931
 20
766.0786062872757
 30
0.0
 11
296.5710144165473
 21
766.0786062872757
 31
0.0
  0
LINE
  5
38E
330
2D3
100
AcDbEntity
  8
BEM
 62
     0
370
    -2
100
AcDbLine
 10
301.5710144165473
 20
638.5786062872758
 30
0.0
 11
301.5710144165473
 21
748.5786062872757
 31
0.0
  0
SOLID
  5
38F
330
2D3
100
AcDbEntity
  8
BEM
 62
     0
100
AcDbTrace
 10
298.6543477498805
 20
638.5786062872758
 30
0.0
 11
304.487681083214
 21
638.5786062872758
 31
0.0
 12
301.5710144165473
 22
621.0786062872757
 32
0.0
 13
301.5710144165473
 23
621.0786062872757
 33
0.0
  0
SOLID
  5
390
330
2D3
100
AcDbEntity
  8
BEM
 62
     0
100
AcDbTrace
 10
298.6543477498806
 20
748.5786062872757
 30
0.0
 11
304.487681083214
 21
748.5786062872757
 31
0.0
 12
301.5710144165473
 22
766.0786062872757
 32
0.0
 13
301.5710144165473
 23
766.0786062872757
 33
0.0
  0
MTEXT
  5
391
330
2D3
100
AcDbEntity
  8
BEM
 62
     1
100
AcDbMText
 10
285.3210144165472
 20
693.5786062872758
 30
0.0
 40
17.5
 41
0.0
 71
     5
 72
     1
  1
\A1;145
  7
GREEKS
 11
0.0000000000000001
 21
1.0
 31
0.0
 73
     1
 44
1.0
  0
POINT
  5
392
330
2D3
100
AcDbEntity
  8
DEFPOINTS
 62
     0
100
AcDbPoint
 10
340.5336349623931
 20
621.0786062872757
 30
0.0
  0
POINT
  5
393
330
2D3
100
AcDbEntity
  8
DEFPOINTS
 62
     0
100
AcDbPoint
 10
477.0336349623931
 20
766.0786062872757
 30
0.0
  0
POINT
  5
394
330
2D3
100
AcDbEntity
  8
DEFPOINTS
 62
     0
100
AcDbPoint
 10
301.5710144165473
 20
766.0786062872757
 30
0.0
  0
ENDBLK
  5
2DE
330
2D3
100
AcDbEntity
  8
0
100
AcDbBlockEnd
  0
BLOCK
  5
370
330
366
100
AcDbEntity
  8
0
100
AcDbBlockBegin
  2
*D15
 70
     1
 10
0.0
 20
0.0
 30
0.0
  3
*D15
  1

  0
LINE
  5
3C3
330
366
100
AcDbEntity
  8
BEM
 62
     0
370
    -2
100
AcDbLine
 10
881.1451604105048
 20
977.1499804714599
 30
0.0
 11
906.4505454066368
 21
1002.455365467592
 31
0.0
  0
LINE
  5
3C4
330
366
100
AcDbEntity
  8
BEM
 62
     0
370
    -2
100
AcDbLine
 10
688.1050091465774
 20
1170.190131735387
 30
0.0
 11
713.4103941427095
 21
1195.495516731519
 31
0.0
  0
LINE
  5
3C5
330
366
100
AcDbEntity
  8
BEM
 62
     0
370
    -2
100
AcDbLine
 10
890.5406428299396
 20
1011.294200232424
 30
0.0
 11
722.2492289075415
 21
1179.585614154822
 31
0.0
  0
SOLID
  5
3C6
330
366
100
AcDbEntity
  8
BEM
 62
     0
100
AcDbTrace
 10
892.6030376084003
 20
1013.356595010884
 30
0.0
 11
888.4782480514788
 21
1009.231805453963
 31
0.0
 12
902.9150115007041
 22
998.9198315616592
 32
0.0
 13
902.9150115007041
 23
998.9198315616592
 33
0.0
  0
SOLID
  5
3C7
330
366
100
AcDbEntity
  8
BEM
 62
     0
100
AcDbTrace
 10
724.3116236860022
 20
1181.648008933283
 30
0.0
 11
720.1868341290805
 21
1177.523219376361
 31
0.0
 12
709.8748602367769
 22
1191.959982825587
 32
0.0
 13
709.8748602367769
 23
1191.959982825587
 33
0.0
  0
MTEXT
  5
3C8
330
366
100
AcDbEntity
  8
BEM
 62
     1
100
AcDbMText
 10
817.885421063022
 20
1106.930392387904
 30
0.0
 40
17.5
 41
0.0
 71
     5
 72
     1
  1
\A1;%%c273
  7
GREEKS
 11
0.707106781186547
 21
-0.7071067811865481
 31
0.0
 73
     1
 44
1.0
  0
POINT
  5
3C9
330
366
100
AcDbEntity
  8
DEFPOINTS
 62
     0
100
AcDbPoint
 10
877.6096265045721
 20
973.6144465655272
 30
0.0
  0
POINT
  5
3CA
330
366
100
AcDbEntity
  8
DEFPOINTS
 62
     0
100
AcDbPoint
 10
684.5694752406447
 20
1166.654597829455
 30
0.0
  0
POINT
  5
3CB
330
366
100
AcDbEntity
  8
DEFPOINTS
 62
     0
100
AcDbPoint
 10
709.8748602367769
 20
1191.959982825587
 30
0.0
  0
ENDBLK
  5
371
330
366
100
AcDbEntity
  8
0
100
AcDbBlockEnd
  0
BLOCK
  5
38A
330
380
100
AcDbEntity
  8
0
100
AcDbBlockBegin
  2
*D17
 70
     1
 10
0.0
 20
0.0
 30
0.0
  3
*D17
  1

  0
LINE
  5
3B0
330
380
100
AcDbEntity
  8
BEM
 62
     0
370
    -2
100
AcDbLine
 10
613.5336349623931
 20
616.0786062872757
 30
0.0
 11
613.5336349623931
 21
575.1408512190202
 31
0.0
  0
LINE
  5
3B1
330
380
100
AcDbEntity
  8
BEM
 62
     0
370
    -2
100
AcDbLine
 10
340.5336349623931
 20
616.0786062872757
 30
0.0
 11
340.5336349623931
 21
575.1408512190202
 31
0.0
  0
LINE
  5
3B2
330
380
100
AcDbEntity
  8
BEM
 62
     0
370
    -2
100
AcDbLine
 10
596.033634962393
 20
580.1408512190203
 30
0.0
 11
358.0336349623931
 21
580.1408512190203
 31
0.0
  0
SOLID
  5
3B3
330
380
100
AcDbEntity
  8
BEM
 62
     0
100
AcDbTrace
 10
596.033634962393
 20
583.0575178856869
 30
0.0
 11
596.033634962393
 21
577.2241845523536
 31
0.0
 12
613.5336349623931
 22
580.1408512190203
 32
0.0
 13
613.5336349623931
 23
580.1408512190203
 33
0.0
  0
SOLID
  5
3B4
330
380
100
AcDbEntity
  8
BEM
 62
     0
100
AcDbTrace
 10
358.0336349623931
 20
583.0575178856869
 30
0.0
 11
358.0336349623931
 21
577.2241845523536
 31
0.0
 12
340.5336349623931
 22
580.1408512190203
 32
0.0
 13
340.5336349623931
 23
580.1408512190203
 33
0.0
  0
MTEXT
  5
3B5
330
380
100
AcDbEntity
  8
BEM
 62
     1
100
AcDbMText
 10
477.0336349623931
 20
596.3908512190203
 30
0.0
 40
17.5
 41
0.0
 71
     5
 72
     1
  1
\A1;%%c273
  7
GREEKS
 73
     1
 44
1.0
  0
POINT
  5
3B6
330
380
100
AcDbEntity
  8
DEFPOINTS
 62
     0
100
AcDbPoint
 10
613.5336349623931
 20
621.0786062872757
 30
0.0
  0
POINT
  5
3B7
330
380
100
AcDbEntity
  8
DEFPOINTS
 62
     0
100
AcDbPoint
 10
340.5336349623931
 20
621.0786062872757
 30
0.0
  0
POINT
  5
3B8
330
380
100
AcDbEntity
  8
DEFPOINTS
 62
     0
100
AcDbPoint
 10
340.5336349623931
 20
580.1408512190203
 30
0.0
  0
ENDBLK
  5
38B
330
380
100
AcDbEntity
  8
0
100
AcDbBlockEnd
  0
BLOCK
  5
3F6
330
3EA
100
AcDbEntity
  8
0
100
AcDbBlockBegin
  2
*D19
 70
     1
 10
0.0
 20
0.0
 30
0.0
  3
*D19
  1

  0
LINE
  5
3F9
330
3EA
100
AcDbEntity
  8
BEM
 62
     0
370
    -2
100
AcDbLine
 10
829.7970455246979
 20
1118.84201684958
 30
0.0
 11
840.4147440677547
 21
1129.459715392638
 31
0.0
  0
LINE
  5
3FA
330
3EA
100
AcDbEntity
  8
BEM
 62
     0
370
    -2
100
AcDbLine
 10
477.0336349623931
 20
1211.078606287276
 30
0.0
 11
477.0336349623935
 21
1279.977099094256
 31
0.0
  0
ARC
  5
3FB
330
3EA
100
AcDbEntity
  8
BEM
 62
     0
370
    -2
100
AcDbCircle
 10
477.0336349623931
 20
766.0786062872773
 30
0.0
 40
508.8984928069788
100
AcDbArc
 50
46.97038420500362
 51
88.02961579499621
  0
SOLID
  5
3FC
330
3EA
100
AcDbEntity
  8
BEM
 62
     0
100
AcDbTrace
 10
826.3205349738173
 20
1140.181506716868
 30
0.0
 11
822.2672768012239
 21
1135.986405292101
 31
0.0
 12
836.8792101618222
 22
1125.924181486705
 32
0.0
 13
836.8792101618222
 23
1125.924181486705
 33
0.0
  0
SOLID
  5
3FD
330
3EA
100
AcDbEntity
  8
BEM
 62
     0
100
AcDbTrace
 10
494.4808988145307
 20
1271.759968615344
 30
0.0
 11
494.5811971400084
 21
1277.592439620302
 31
0.0
 12
477.0336349623934
 22
1274.977099094256
 32
0.0
 13
477.0336349623934
 23
1274.977099094256
 33
0.0
  0
MTEXT
  5
3FE
330
3EA
100
AcDbEntity
  8
BEM
 62
     1
100
AcDbMText
 10
677.9992626911221
 20
1251.252550320795
 30
0.0
 40
17.5
 41
0.0
 71
     5
 72
     1
  1
\A1;45°
  7
GREEKS
 11
0.9238795325112864
 21
-0.3826834323650904
 31
0.0
 73
     1
 44
1.0
  0
POINT
  5
3FF
330
3EA
100
AcDbEntity
  8
DEFPOINTS
 62
     0
100
AcDbPoint
 10
731.4828813658833
 20
1206.797629005733
 30
0.0
  0
POINT
  5
400
330
3EA
100
AcDbEntity
  8
DEFPOINTS
 62
     0
100
AcDbPoint
 10
791.6961525904066
 20
1080.741123915289
 30
0.0
  0
POINT
  5
401
330
3EA
100
AcDbEntity
  8
DEFPOINTS
 62
     0
100
AcDbPoint
 10
477.0336349623931
 20
1206.078606287276
 30
0.0
  0
POINT
  5
402
330
3EA
100
AcDbEntity
  8
DEFPOINTS
 62
     0
100
AcDbPoint
 10
477.0336349623931
 20
616.0786062872759
 30
0.0
  0
POINT
  5
403
330
3EA
100
AcDbEntity
  8
DEFPOINTS
 62
     0
100
AcDbPoint
 10
826.2615116187653
 20
1115.306482943648
 30
0.0
  0
ENDBLK
  5
3F7
330
3EA
100
AcDbEntity
  8
0
100
AcDbBlockEnd
  0
ENDSEC
  0
SECTION
  2
ENTITIES
  0
LINE
  5
175
102
{ACAD_REACTORS
330
404
102
}
330
20
100
AcDbEntity
  8
MITTEL
100
AcDbLine
 10
477.0336349623931
 20
1206.078606287276
 30
0.0
 11
477.0336349623931
 21
616.0786062872757
 31
0.0
  0
LINE
  5
176
330
20
100
AcDbEntity
  8
MITTEL
100
AcDbLine
 10
788.1606186844737
 20
1077.205590009356
 30
0.0
 11
477.0336349623931
 21
766.0786062872757
 31
0.0
  0
LINE
  5
177
330
20
100
AcDbEntity
  8
STEMPEL
100
AcDbLine
 10
340.5336349623931
 20
1196.078606287276
 30
0.0
 11
340.5336349623931
 21
621.0786062872757
 31
0.0
  0
LINE
  5
178
330
20
100
AcDbEntity
  8
STEMPEL
100
AcDbLine
 10
877.6096265045721
 20
973.6144465655272
 30
0.0
 11
613.5336349623931
 21
709.5384550233482
 31
0.0
  0
INSERT
  5
179
330
20
100
AcDbEntity
  8
SCHRAFF
100
AcDbBlockReference
  2
*X1
 10
-17.61956649702028
 20
-30.19353172235901
 30
0.0
1001
ACAD
1000
HATCH
1002
{
1070
    16
1000
_U,I
1040
0.1
1040
0.0
1070
     0
1002
}
  0
DIMENSION
  5
17A
330
20
100
AcDbEntity
  8
BEM
100
AcDbDimension
  2
*D8
 10
263.8183208369062
 20
1196.078606287276
 30
0.0
 11
247.568320836906
 21
908.5786062872758
 31
0.0
 70
    32
 71
     5
 42
574.9999999999999
  3
Standard
100
AcDbAlignedDimension
 13
340.5336349623931
 23
621.0786062872757
 33
0.0
 14
340.5336349623931
 24
1196.078606287276
 34
0.0
 50
90.0
100
AcDbRotatedDimension
1001
ACAD
1000
DSTYLE
1002
{
1070
    40
1040
5.0
1070
    41
1040
3.5
1070
    42
1040
1.0
1070
    43
1040
7.0
1070
    44
1040
1.0
1070
    47
1040
6.0
1070
    48
1040
6.0
1070
    73
1070
     0
1070
    74
1070
     0
1070
    77
1070
     1
1070
    78
1070
     8
1070
    79
1070
     2
1070
   140
1040
3.5
1070
   141
1040
1.5
1070
   146
1040
0.5
1070
   147
1040
1.5
1070
   172
1070
     1
1070
   178
1070
     1
1070
   179
1070
     2
1070
   271
1070
     2
1070
   272
1070
     2
1070
   284
1070
     8
1070
   285
1070
     8
1070
   286
1070
     8
1070
   340
1005
33
1002
}
  0
DIMENSION
  5
17B
330
20
100
AcDbEntity
  8
BEM
100
AcDbDimension
  2
*D9
 10
908.5916186734474
 20
942.6324543966515
 30
0.0
 11
745.0731755240585
 21
802.0949816358253
 31
0.0
 70
    32
 71
     5
 42
429.9999999999995
  3
Standard
100
AcDbAlignedDimension
 13
477.0336349623931
 23
766.0786062872756
 33
0.0
 14
877.6096265045719
 24
973.614446565527
 34
0.0
 50
45.0
100
AcDbRotatedDimension
1001
ACAD
1000
DSTYLE
1002
{
1070
    40
1040
5.0
1070
    41
1040
3.5
1070
    42
1040
1.0
1070
    43
1040
7.0
1070
    44
1040
1.0
1070
    47
1040
6.0
1070
    48
1040
6.0
1070
    73
1070
     0
1070
    74
1070
     0
1070
    77
1070
     1
1070
    78
1070
     8
1070
    79
1070
     2
1070
   140
1040
3.5
1070
   141
1040
1.5
1070
   146
1040
0.5
1070
   147
1040
1.5
1070
   172
1070
     1
1070
   178
1070
     1
1070
   179
1070
     2
1070
   271
1070
     2
1070
   272
1070
     2
1070
   284
1070
     8
1070
   285
1070
     8
1070
   286
1070
     8
1070
   340
1005
33
1002
}
  0
LINE
  5
17C
330
20
100
AcDbEntity
  8
STEMPEL
100
AcDbLine
 10
1025.0
 20
25.0
 30
0.0
 11
1025.0
 21
1460.0
 31
0.0
  0
LINE
  5
17D
330
20
100
AcDbEntity
  8
HILF
100
AcDbLine
 10
1050.0
 20
-0.0000000000002842
 30
0.0
 11
1050.0
 21
1485.0
 31
0.0
  0
LINE
  5
17F
330
20
100
AcDbEntity
  8
STEMPEL
100
AcDbLine
 10
100.0
 20
25.0
 30
0.0
 11
99.99999999999971
 21
1460.0
 31
0.0
  0
LINE
  5
180
330
20
100
AcDbEntity
  8
HILF
100
AcDbLine
 10
0.0
 20
0.0
 30
0.0
 11
-0.0000000000002842
 21
1485.0
 31
0.0
  0
LINE
  5
181
330
20
100
AcDbEntity
  8
STEMPEL
100
AcDbLine
 10
613.5336349623931
 20
1095.618757551203
 30
0.0
 11
477.0336349623931
 21
766.0786062872757
 31
0.0
  0
LINE
  5
182
330
20
100
AcDbEntity
  8
STEMPEL
100
AcDbLine
 10
613.5336349623931
 20
621.0786062872757
 30
0.0
 11
340.5336349623931
 21
621.0786062872757
 31
0.0
  0
DIMENSION
  5
183
330
20
100
AcDbEntity
  8
BEM
100
AcDbDimension
  2
*D12
 10
301.5710144165473
 20
766.0786062872757
 30
0.0
 11
285.3210144165472
 21
693.5786062872758
 31
0.0
 70
    32
 71
     5
 42
145.0
  3
Standard
100
AcDbAlignedDimension
 13
340.5336349623931
 23
621.0786062872757
 33
0.0
 14
477.0336349623931
 24
766.0786062872757
 34
0.0
 50
90.0
100
AcDbRotatedDimension
1001
ACAD
1000
DSTYLE
1002
{
1070
    40
1040
5.0
1070
    41
1040
3.5
1070
    42
1040
1.0
1070
    43
1040
7.0
1070
    44
1040
1.0
1070
    47
1040
6.0
1070
    48
1040
6.0
1070
    73
1070
     0
1070
    74
1070
     0
1070
    77
1070
     1
1070
    78
1070
     8
1070
    79
1070
     2
1070
   140
1040
3.5
1070
   141
1040
1.5
1070
   146
1040
0.5
1070
   147
1040
1.5
1070
   172
1070
     1
1070
   178
1070
     1
1070
   179
1070
     2
1070
   271
1070
     2
1070
   272
1070
     2
1070
   284
1070
     8
1070
   285
1070
     8
1070
   286
1070
     8
1070
   340
1005
33
1002
}
  0
DIMENSION
  5
184
330
20
100
AcDbEntity
  8
BEM
100
AcDbDimension
  2
*D17
 10
340.5336349623931
 20
580.1408512190203
 30
0.0
 11
477.0336349623931
 21
596.3908512190203
 31
0.0
 70
    32
  1
%%c<>
 71
     5
 42
273.0
  3
Standard
100
AcDbAlignedDimension
 13
613.5336349623931
 23
621.0786062872757
 33
0.0
 14
340.5336349623931
 24
621.0786062872757
 34
0.0
100
AcDbRotatedDimension
1001
ACAD
1000
DSTYLE
1002
{
1070
    40
1040
5.0
1070
    41
1040
3.5
1070
    42
1040
1.0
1070
    43
1040
7.0
1070
    44
1040
1.0
1070
    47
1040
6.0
1070
    48
1040
6.0
1070
    73
1070
     0
1070
    74
1070
     0
1070
    77
1070
     1
1070
    78
1070
     8
1070
    79
1070
     2
1070
   140
1040
3.5
1070
   141
1040
1.5
1070
   146
1040
0.5
1070
   147
1040
1.5
1070
   172
1070
     1
1070
   178
1070
     1
1070
   179
1070
     2
1070
   271
1070
     2
1070
   272
1070
     2
1070
   284
1070
     8
1070
   285
1070
     8
1070
   286
1070
     8
1070
   340
1005
33
1002
}
  0
TEXT
  5
185
330
20
100
AcDbEntity
  8
TEXT
 62
     1
100
AcDbText
 10
292.4806628287003
 20
428.844636841721
 30
0.0
 40
17.5
  1
Rohrenden leicht entgratet
 41
0.8
  7
GREEKS
100
AcDbText
  0
TEXT
  5
186
330
20
100
AcDbEntity
  8
TEXT
100
AcDbText
 10
383.7908930375943
 20
256.1552237717722
 30
0.0
 40
12.5
  1
Maßstab
 41
0.8
  7
GREEKS
100
AcDbText
  0
TEXT
  5
187
330
20
100
AcDbEntity
  8
TEXT
 62
     1
100
AcDbText
 10
401.2515766204717
 20
220.372535722849
 30
0.0
 40
17.5
  1
1:5
 41
0.8
  7
GREEKS
100
AcDbText
  0
LINE
  5
188
330
20
100
AcDbEntity
  8
STEMPEL
100
AcDbLine
 10
1025.0
 20
275.0000000000001
 30
0.0
 11
99.99999999999992
 21
275.0
 31
0.0
  0
LINE
  5
189
330
20
100
AcDbEntity
  8
STEMPEL
100
AcDbLine
 10
1025.0
 20
100.0
 30
0.0
 11
365.0000000000003
 21
99.99999999999992
 31
0.0
  0
LINE
  5
18A
330
20
100
AcDbEntity
  8
STEMPEL
100
AcDbLine
 10
1025.0
 20
200.0
 30
0.0
 11
365.0000000000003
 21
199.9999999999998
 31
0.0
  0
LINE
  5
18B
330
20
100
AcDbEntity
  8
HILF
100
AcDbLine
 10
365.0000000000003
 20
174.9999999999998
 30
0.0
 11
575.0
 21
174.9999999999998
 31
0.0
  0
LINE
  5
18C
330
20
100
AcDbEntity
  8
HILF
100
AcDbLine
 10
365.0000000000003
 20
149.9999999999999
 30
0.0
 11
575.0
 21
149.9999999999999
 31
0.0
  0
LINE
  5
18D
330
20
100
AcDbEntity
  8
HILF
100
AcDbLine
 10
365.0000000000003
 20
124.9999999999999
 30
0.0
 11
575.0
 21
124.9999999999999
 31
0.0
  0
LINE
  5
18E
330
20
100
AcDbEntity
  8
STEMPEL
100
AcDbLine
 10
124.9999999999997
 20
25.0
 30
0.0
 11
1025.0
 21
25.0
 31
0.0
  0
LINE
  5
18F
330
20
100
AcDbEntity
  8
STEMPEL
100
AcDbLine
 10
1025.0
 20
25.0
 30
0.0
 11
99.99999999999971
 21
25.0
 31
0.0
  0
LINE
  5
190
330
20
100
AcDbEntity
  8
HILF
100
AcDbLine
 10
1050.0
 20
0.0
 30
0.0
 11
0.0
 21
0.0
 31
0.0
  0
INSERT
  5
191
330
20
100
AcDbEntity
  8
STEMPEL
100
AcDbBlockReference
  2
LOGO
 10
377.4888713644485
 20
112.552631911208
 30
0.0
 41
5.0
 42
5.0
 43
5.0
  0
LINE
  5
192
330
20
100
AcDbEntity
  8
STEMPEL
100
AcDbLine
 10
365.0000000000003
 20
274.9999999999999
 30
0.0
 11
365.0
 21
24.99999999999993
 31
0.0
  0
TEXT
  5
193
330
20
100
AcDbEntity
  8
TEXT
100
AcDbText
 10
321.3213880571594
 20
46.4831054241602
 30
0.0
 40
10.0
  1
Name
 41
0.8
  7
GREEKS
 72
     1
 11
337.1309118666832
 21
46.4831054241602
 31
0.0
100
AcDbText
  0
LINE
  5
194
330
20
100
AcDbEntity
  8
VOLL
100
AcDbLine
 10
260.0000000000003
 20
274.9999999999999
 30
0.0
 11
260.0
 21
24.99999999999993
 31
0.0
  0
LINE
  5
195
330
20
100
AcDbEntity
  8
VOLL
100
AcDbLine
 10
310.0000000000003
 20
274.9999999999999
 30
0.0
 11
310.0
 21
24.99999999999993
 31
0.0
  0
TEXT
  5
196
330
20
100
AcDbEntity
  8
TEXT
100
AcDbText
 10
275.9539230581683
 20
46.67890673349525
 30
0.0
 40
10.0
  1
Tag
 41
0.8
  7
GREEKS
 72
     1
 11
285.2872563915016
 21
46.67890673349525
 31
0.0
100
AcDbText
  0
LINE
  5
197
330
20
100
AcDbEntity
  8
VOLL
100
AcDbLine
 10
135.0000000000002
 20
275.0000000000001
 30
0.0
 11
134.9999999999999
 21
24.99999999999993
 31
0.0
  0
TEXT
  5
198
330
20
100
AcDbEntity
  8
TEXT
100
AcDbText
 10
120.6660276761439
 20
34.13664615067979
 30
0.0
 40
10.0
  1
Index
 50
90.0
 41
0.8
  7
GREEKS
100
AcDbText
  0
TEXT
  5
199
330
20
100
AcDbEntity
  8
TEXT
100
AcDbText
 10
167.9841329044959
 20
46.68454737460329
 30
0.0
 40
10.0
  1
Änderung
 41
0.8
  7
GREEKS
 72
     1
 11
194.8412757616387
 21
46.68454737460329
 31
0.0
100
AcDbText
  0
LINE
  5
19A
330
20
100
AcDbEntity
  8
STEMPEL
100
AcDbLine
 10
364.9999999999997
 20
74.99999999999992
 30
0.0
 11
99.99999999999992
 21
74.99999999999992
 31
0.0
  0
LINE
  5
19B
330
20
100
AcDbEntity
  8
HILF
100
AcDbLine
 10
100.0000000000002
 20
250.0000000000001
 30
0.0
 11
365.0000000000003
 21
250.0000000000001
 31
0.0
  0
LINE
  5
19C
330
20
100
AcDbEntity
  8
HILF
100
AcDbLine
 10
100.0000000000002
 20
225.0000000000001
 30
0.0
 11
365.0000000000003
 21
225.0000000000001
 31
0.0
  0
LINE
  5
19D
330
20
100
AcDbEntity
  8
HILF
100
AcDbLine
 10
100.0000000000002
 20
199.9999999999998
 30
0.0
 11
365.0000000000003
 21
199.9999999999998
 31
0.0
  0
LINE
  5
19E
330
20
100
AcDbEntity
  8
HILF
100
AcDbLine
 10
100.0000000000002
 20
174.9999999999998
 30
0.0
 11
365.0000000000003
 21
174.9999999999998
 31
0.0
  0
LINE
  5
19F
330
20
100
AcDbEntity
  8
HILF
100
AcDbLine
 10
100.0000000000002
 20
149.9999999999999
 30
0.0
 11
365.0000000000003
 21
149.9999999999999
 31
0.0
  0
LINE
  5
1A0
330
20
100
AcDbEntity
  8
HILF
100
AcDbLine
 10
100.0000000000002
 20
124.9999999999999
 30
0.0
 11
365.0000000000003
 21
124.9999999999999
 31
0.0
  0
LINE
  5
1A1
330
20
100
AcDbEntity
  8
HILF
100
AcDbLine
 10
100.0000000000002
 20
99.99999999999992
 30
0.0
 11
365.0000000000003
 21
99.99999999999992
 31
0.0
  0
TEXT
  5
1A2
330
20
100
AcDbEntity
  8
TEXT
100
AcDbText
 10
104.6377487744418
 20
279.1799999999999
 30
0.0
 40
12.5
  1
Erstellt mit AUTOCAD 2004
 41
0.8
  7
GREEKS
100
AcDbText
  0
TEXT
  5
1A3
330
20
100
AcDbEntity
  8
TEXT
100
AcDbText
 10
369.0016943468259
 20
108.8236597412452
 30
0.0
 40
10.0
  1
Norm.
 41
0.8
  7
GREEKS
100
AcDbText
  0
TEXT
  5
1A4
330
20
100
AcDbEntity
  8
TEXT
100
AcDbText
 10
368.8787716429181
 20
134.2231572857094
 30
0.0
 40
10.0
  1
Gepr.
 41
0.8
  7
GREEKS
100
AcDbText
  0
TEXT
  5
1A5
330
20
100
AcDbEntity
  8
TEXT
100
AcDbText
 10
368.9590317919039
 20
159.0747592404491
 30
0.0
 40
10.0
  1
Gez.
 41
0.8
  7
GREEKS
100
AcDbText
  0
TEXT
  5
1A6
330
20
100
AcDbEntity
  8
TEXT
100
AcDbText
 10
371.55527455526
 20
182.8506367787916
 30
0.0
 40
10.0
  1
2011
 41
0.8
  7
GREEKS
100
AcDbText
  0
LINE
  5
1A7
330
20
100
AcDbEntity
  8
HILF
100
AcDbLine
 10
77.7191783928464
 20
742.5000000000001
 30
0.0
 11
0.0000000000002842
 21
742.5000000000001
 31
0.0
  0
TEXT
  5
1A9
330
20
100
AcDbEntity
  8
TEXT
100
AcDbText
 10
587.8240977813288
 20
129.100298576054
 30
0.0
 40
12.5
  1
EDV-Art.Nr. 02250.HH0X
 41
0.8
  7
GREEKS
100
AcDbText
  0
LINE
  5
1AA
330
20
100
AcDbEntity
  8
HILF
100
AcDbLine
 10
586.9342002742369
 20
210.0939561891034
 30
0.0
 11
812.0884791390777
 21
210.0939561891034
 31
0.0
  0
LINE
  5
1AB
330
20
100
AcDbEntity
  8
HILF
100
AcDbLine
 10
586.9342002742369
 20
174.9999999999998
 30
0.0
 11
812.0884791390775
 21
174.9999999999998
 31
0.0
  0
LINE
  5
1AC
330
20
100
AcDbEntity
  8
HILF
100
AcDbLine
 10
586.9342002742369
 20
149.9999999999999
 30
0.0
 11
812.0884791390775
 21
149.9999999999999
 31
0.0
  0
LINE
  5
1AD
330
20
100
AcDbEntity
  8
HILF
100
AcDbLine
 10
586.9342002742369
 20
124.9999999999999
 30
0.0
 11
812.0884791390775
 21
124.9999999999999
 31
0.0
  0
TEXT
  5
1AE
330
20
100
AcDbEntity
  8
TEXT
 62
     1
100
AcDbText
 10
588.9294820816727
 20
218.5437197313445
 30
0.0
 40
17.5
  1
Abzweig 45%%d DN250/250
 41
0.7
  7
GREEKS
100
AcDbText
  0
LINE
  5
1AF
330
20
100
AcDbEntity
  8
HILF
100
AcDbLine
 10
583.7274248224712
 20
37.23495645070784
 30
0.0
 11
1012.147209831682
 21
37.23495645070784
 31
0.0
  0
LINE
  5
1B0
330
20
100
AcDbEntity
  8
STEMPEL
100
AcDbLine
 10
575.0
 20
275.0000000000001
 30
0.0
 11
575.0
 21
24.99999999999993
 31
0.0
  0
LINE
  5
1B1
330
20
100
AcDbEntity
  8
VOLL
100
AcDbLine
 10
475.0000000000002
 20
274.9999999999996
 30
0.0
 11
475.0
 21
99.99999999999992
 31
0.0
  0
LINE
  5
1B2
330
20
100
AcDbEntity
  8
VOLL
100
AcDbLine
 10
410.0000000000003
 20
199.9999999999998
 30
0.0
 11
410.0000000000003
 21
99.99999999999992
 31
0.0
  0
TEXT
  5
1B3
330
20
100
AcDbEntity
  8
TEXT
100
AcDbText
 10
425.9974927705902
 20
157.7691260206433
 30
0.0
 40
10.0
  1
05.04.
 41
0.8
  7
GREEKS
 72
     1
 11
443.5213022943996
 21
157.7691260206433
 31
0.0
100
AcDbText
  0
TEXT
  5
1B4
330
20
100
AcDbEntity
  8
TEXT
100
AcDbText
 10
511.0540121453142
 20
157.7240979930877
 30
0.0
 40
10.0
  1
Koeh
 41
0.8
  7
GREEKS
 72
     1
 11
524.1968692881714
 21
157.7240979930877
 31
0.0
100
AcDbText
  0
TEXT
  5
1B5
330
20
100
AcDbEntity
  8
TEXT
100
AcDbText
 10
485.7147386835128
 20
256.0460421087048
 30
0.0
 40
12.5
  1
Zul. Abw.
 41
0.8
  7
GREEKS
100
AcDbText
  0
TEXT
  5
1B6
330
20
100
AcDbEntity
  8
TEXT
100
AcDbText
 10
430.8279182884127
 20
183.2970125307481
 30
0.0
 40
10.0
  1
Tag
 41
0.8
  7
GREEKS
100
AcDbText
  0
TEXT
  5
1B7
330
20
100
AcDbEntity
  8
TEXT
100
AcDbText
 10
506.1566460565737
 20
183.2740272978806
 30
0.0
 40
10.0
  1
Name
 41
0.8
  7
GREEKS
100
AcDbText
  0
TEXT
  5
1B8
330
20
100
AcDbEntity
  8
TEXT
100
AcDbText
 10
587.4593753944567
 20
106.5743538255658
 30
0.0
 40
10.0
  1
02250HH0W.DWG
 41
0.8
  7
GREEKS
100
AcDbText
  0
TEXT
  5
1B9
330
20
100
AcDbEntity
  8
TEXT
100
AcDbText
 10
586.8555959778399
 20
77.11401425482641
 30
0.0
 40
12.5
  1
Bauvorhaben
 41
0.8
  7
GREEKS
100
AcDbText
  0
TEXT
  5
1BA
330
20
100
AcDbEntity
  8
TEXT
100
AcDbText
 10
587.1948509522525
 20
256.3723320029449
 30
0.0
 40
12.5
  1
Benennung
 41
0.8
  7
GREEKS
100
AcDbText
  0
TEXT
  5
1BB
330
20
100
AcDbEntity
  8
TEXT
100
AcDbText
 10
587.8240977813288
 20
178.7583604396322
 30
0.0
 40
12.5
  1
Muffenlos
 41
0.8
  7
GREEKS
100
AcDbText
  0
TEXT
  5
1BC
330
20
100
AcDbEntity
  8
TEXT
 62
     1
100
AcDbText
 10
865.3966576471146
 20
220.372535722849
 30
0.0
 40
17.5
  1
02250HH0W
 41
0.8
  7
GREEKS
 72
     1
 11
926.7299909804478
 21
220.372535722849
 31
0.0
100
AcDbText
  0
LINE
  5
1BD
330
20
100
AcDbEntity
  8
VOLL
100
AcDbLine
 10
830.0
 20
150.0
 30
0.0
 11
1025.0
 21
150.0
 31
0.0
  0
LINE
  5
1BE
330
20
100
AcDbEntity
  8
HILF
100
AcDbLine
 10
841.8096540742482
 20
209.4495909238957
 30
0.0
 11
1012.147209831682
 21
209.4495909238957
 31
0.0
  0
TEXT
  5
1BF
330
20
100
AcDbEntity
  8
TEXT
100
AcDbText
 10
840.4468873940851
 20
255.7830086342841
 30
0.0
 40
12.5
  1
Zeichnungs Nr.
 41
0.8
  7
GREEKS
100
AcDbText
  0
TEXT
  5
1C0
330
20
100
AcDbEntity
  8
TEXT
100
AcDbText
 10
841.8096540742482
 20
182.9529559274992
 30
0.0
 40
12.5
  1
Ersatz für:
 41
0.8
  7
GREEKS
100
AcDbText
  0
TEXT
  5
1C1
330
20
100
AcDbEntity
  8
TEXT
100
AcDbText
 10
843.1002153742515
 20
130.185404446965
 30
0.0
 40
12.5
  1
ersetzt durch:
 41
0.8
  7
GREEKS
100
AcDbText
  0
LINE
  5
1C2
330
20
100
AcDbEntity
  8
STEMPEL
100
AcDbLine
 10
830.0
 20
274.9999999999994
 30
0.0
 11
830.0
 21
100.0
 31
0.0
  0
TEXT
  5
1C3
330
20
100
AcDbEntity
  8
TEXT
 62
     1
100
AcDbText
 10
600.0373920362804
 20
323.4720666920996
 30
0.0
 40
17.5
  1
feuerverzinkt und innen beschichtet
 41
0.8
  7
GREEKS
100
AcDbText
  0
TEXT
  5
1C4
330
20
100
AcDbEntity
  8
TEXT
 62
     1
100
AcDbText
 10
480.0373920362803
 20
353.4720666920997
 30
0.0
 40
17.5
  1
Werkstoff: EN 10219 S235
 41
0.8
  7
GREEKS
100
AcDbText
  0
ARC
  5
1C5
330
20
100
AcDbEntity
  8
SCHRAFF
100
AcDbCircle
 10
580.9731217243823
 20
723.0726888741561
 30
0.0
 40
3.895075207125653
100
AcDbArc
 50
107.1278463605043
 51
207.8721536394997
  0
LINE
  5
1C7
330
20
100
AcDbEntity
  8
STEMPEL
100
AcDbLine
 10
477.0336349623931
 20
766.0786062872757
 30
0.0
 11
613.5336349623931
 21
709.5384550233482
 31
0.0
  0
POINT
  5
1C8
330
20
100
AcDbEntity
  8
DEFPOINTS
  6
ByBlock
 62
     0
100
AcDbPoint
 10
477.0336349623931
 20
616.0786062872757
 30
0.0
  0
ARC
  5
1C9
330
20
100
AcDbEntity
  8
SCHRAFF
100
AcDbCircle
 10
479.3288036670417
 20
765.127916281876
 30
0.0
 40
3.895075207125653
100
AcDbArc
 50
107.1278463605043
 51
207.8721536394997
  0
ARC
  5
1CA
330
20
100
AcDbEntity
  8
SCHRAFF
100
AcDbCircle
 10
488.5841705010425
 20
761.3414454842898
 30
0.0
 40
3.895075207125653
100
AcDbArc
 50
107.1278463605043
 51
207.8721536394997
  0
POINT
  5
1CB
330
20
100
AcDbEntity
  8
SCHRAFF
100
AcDbPoint
 10
477.0336349623931
 20
766.0786062872757
 30
0.0
  0
ARC
  5
1CC
330
20
100
AcDbEntity
  8
SCHRAFF
100
AcDbCircle
 10
482.0086297098896
 20
777.9752883984781
 30
0.0
 40
3.22008508024071
100
AcDbArc
 50
178.8061231207325
 51
316.1938768792653
  0
ARC
  5
1CD
330
20
100
AcDbEntity
  8
SCHRAFF
100
AcDbCircle
 10
485.8350920551457
 20
787.2131856883054
 30
0.0
 40
3.22008508024071
100
AcDbArc
 50
178.8061231207325
 51
316.1938768792653
  0
ARC
  5
1CE
330
20
100
AcDbEntity
  8
SCHRAFF
100
AcDbCircle
 10
489.6615544004019
 20
796.4510829781326
 30
0.0
 40
3.22008508024071
100
AcDbArc
 50
178.8061231207325
 51
316.1938768792653
  0
ARC
  5
1CF
330
20
100
AcDbEntity
  8
SCHRAFF
100
AcDbCircle
 10
553.2564363573803
 20
734.5533158571962
 30
0.0
 40
3.895075207125653
100
AcDbArc
 50
107.1278463605043
 51
207.8721536394997
  0
ARC
  5
1D0
330
20
100
AcDbEntity
  8
SCHRAFF
100
AcDbCircle
 10
562.4953314797144
 20
730.7264401961828
 30
0.0
 40
3.895075207125653
100
AcDbArc
 50
107.1278463605043
 51
207.8721536394997
  0
ARC
  5
1D1
330
20
100
AcDbEntity
  8
SCHRAFF
100
AcDbCircle
 10
571.7342266020482
 20
726.8995645351695
 30
0.0
 40
3.895075207125653
100
AcDbArc
 50
107.1278463605043
 51
207.8721536394997
  0
ARC
  5
1D2
330
20
100
AcDbEntity
  8
SCHRAFF
100
AcDbCircle
 10
516.3008558680444
 20
749.8608185012496
 30
0.0
 40
3.895075207125653
100
AcDbArc
 50
107.1278463605043
 51
207.8721536394997
  0
ARC
  5
1D3
330
20
100
AcDbEntity
  8
SCHRAFF
100
AcDbCircle
 10
507.0619607457106
 20
753.6876941622629
 30
0.0
 40
3.895075207125653
100
AcDbArc
 50
107.1278463605043
 51
207.8721536394997
  0
ARC
  5
1D4
330
20
100
AcDbEntity
  8
SCHRAFF
100
AcDbCircle
 10
497.8230656233765
 20
757.5145698232764
 30
0.0
 40
3.895075207125653
100
AcDbArc
 50
107.1278463605043
 51
207.8721536394997
  0
ARC
  5
1D5
330
20
100
AcDbEntity
  8
SCHRAFF
100
AcDbCircle
 10
525.5397509903785
 20
746.0339428402363
 30
0.0
 40
3.895075207125653
100
AcDbArc
 50
107.1278463605043
 51
207.8721536394997
  0
ARC
  5
1D6
330
20
100
AcDbEntity
  8
SCHRAFF
100
AcDbCircle
 10
534.7786461127125
 20
742.207067179223
 30
0.0
 40
3.895075207125653
100
AcDbArc
 50
107.1278463605043
 51
207.8721536394997
  0
ARC
  5
1D7
330
20
100
AcDbEntity
  8
SCHRAFF
100
AcDbCircle
 10
544.0175412350463
 20
738.3801915182096
 30
0.0
 40
3.895075207125653
100
AcDbArc
 50
107.1278463605043
 51
207.8721536394997
  0
LINE
  5
1DA
330
20
100
AcDbEntity
  8
STEMPEL
100
AcDbLine
 10
613.5336349623931
 20
709.5384550233482
 30
0.0
 11
613.5336349623931
 21
621.0786062872757
 31
0.0
  0
ARC
  5
1EA
330
20
100
AcDbEntity
  8
SCHRAFF
100
AcDbCircle
 10
590.2120168467162
 20
719.2458132131427
 30
0.0
 40
3.895075207125653
100
AcDbArc
 50
107.1278463605043
 51
207.8721536394997
  0
ARC
  5
1EB
330
20
100
AcDbEntity
  8
SCHRAFF
100
AcDbCircle
 10
599.4509119690501
 20
715.4189375521293
 30
0.0
 40
3.895075207125653
100
AcDbArc
 50
107.1278463605043
 51
207.8721536394997
  0
ARC
  5
1EC
330
20
100
AcDbEntity
  8
SCHRAFF
100
AcDbCircle
 10
608.6898070913841
 20
711.592061891116
 30
0.0
 40
3.895075207125653
100
AcDbArc
 50
107.1278463605043
 51
207.8721536394997
  0
ARC
  5
1ED
330
20
100
AcDbEntity
  8
SCHRAFF
100
AcDbCircle
 10
612.2446525767645
 20
710.0723690091357
 30
0.0
 40
3.994761771999016
100
AcDbArc
 50
288.8243601913492
 51
26.17563980864112
  0
LINE
  5
1EE
330
20
100
AcDbEntity
  8
STEMPEL
100
AcDbLine
 10
613.5336349623931
 20
1196.078606287276
 30
0.0
 11
340.5336349623931
 21
1196.078606287276
 31
0.0
  0
LINE
  5
1EF
330
20
100
AcDbEntity
  8
STEMPEL
100
AcDbLine
 10
1025.0
 20
1460.0
 30
0.0
 11
99.99999999999971
 21
1460.0
 31
0.0
  0
LINE
  5
1F0
330
20
100
AcDbEntity
  8
HILF
100
AcDbLine
 10
1050.0
 20
1485.0
 30
0.0
 11
0.0
 21
1485.0
 31
0.0
  0
LINE
  5
1F4
330
20
100
AcDbEntity
  8
STEMPEL
100
AcDbLine
 10
877.6096265045721
 20
973.6144465655272
 30
0.0
 11
684.5694752406448
 21
1166.654597829455
 31
0.0
  0
DIMENSION
  5
1F5
330
20
100
AcDbEntity
  8
BEM
100
AcDbDimension
  2
*D15
 10
709.8748602367769
 20
1191.959982825587
 30
0.0
 11
817.885421063022
 21
1106.930392387904
 31
0.0
 70
    33
  1
%%c<>
 71
     5
 42
272.9999999999999
  3
Standard
100
AcDbAlignedDimension
 13
877.6096265045721
 23
973.6144465655272
 33
0.0
 14
684.5694752406448
 24
1166.654597829455
 34
0.0
1001
ACAD
1000
DSTYLE
1002
{
1070
    40
1040
5.0
1070
    41
1040
3.5
1070
    42
1040
1.0
1070
    43
1040
7.0
1070
    44
1040
1.0
1070
    47
1040
6.0
1070
    48
1040
6.0
1070
    73
1070
     0
1070
    74
1070
     0
1070
    77
1070
     1
1070
    78
1070
     8
1070
    79
1070
     2
1070
   140
1040
3.5
1070
   141
1040
1.5
1070
   146
1040
0.5
1070
   147
1040
1.5
1070
   172
1070
     1
1070
   178
1070
     1
1070
   179
1070
     2
1070
   271
1070
     2
1070
   272
1070
     2
1070
   284
1070
     8
1070
   285
1070
     8
1070
   286
1070
     8
1070
   340
1005
33
1002
}
  0
ARC
  5
1F6
330
20
100
AcDbEntity
  8
SCHRAFF
100
AcDbCircle
 10
581.4966506865489
 20
1018.160617933987
 30
0.0
 40
3.22008508024071
100
AcDbArc
 50
178.8061231207325
 51
316.1938768792653
  0
ARC
  5
1F7
330
20
100
AcDbEntity
  8
SCHRAFF
100
AcDbCircle
 10
577.6701883412926
 20
1008.92272064416
 30
0.0
 40
3.22008508024071
100
AcDbArc
 50
178.8061231207325
 51
316.1938768792653
  0
ARC
  5
1F8
330
20
100
AcDbEntity
  8
SCHRAFF
100
AcDbCircle
 10
543.2320272339875
 20
925.7816450357147
 30
0.0
 40
3.22008508024071
100
AcDbArc
 50
178.8061231207325
 51
316.1938768792653
  0
ARC
  5
1F9
330
20
100
AcDbEntity
  8
SCHRAFF
100
AcDbCircle
 10
493.4880167456581
 20
805.68898026796
 30
0.0
 40
3.22008508024071
100
AcDbArc
 50
178.8061231207325
 51
316.1938768792653
  0
ARC
  5
1FA
330
20
100
AcDbEntity
  8
SCHRAFF
100
AcDbCircle
 10
516.4467908171945
 20
861.1163640069237
 30
0.0
 40
3.22008508024071
100
AcDbArc
 50
178.8061231207325
 51
316.1938768792653
  0
ARC
  5
1FB
330
20
100
AcDbEntity
  8
SCHRAFF
100
AcDbCircle
 10
497.3144790909141
 20
814.9268775577873
 30
0.0
 40
3.22008508024071
100
AcDbArc
 50
178.8061231207325
 51
316.1938768792653
  0
ARC
  5
1FC
330
20
100
AcDbEntity
  8
SCHRAFF
100
AcDbCircle
 10
501.14094143617
 20
824.1647748476145
 30
0.0
 40
3.22008508024071
100
AcDbArc
 50
178.8061231207325
 51
316.1938768792653
  0
ARC
  5
1FD
330
20
100
AcDbEntity
  8
SCHRAFF
100
AcDbCircle
 10
512.6203284719386
 20
851.8784667170963
 30
0.0
 40
3.22008508024071
100
AcDbArc
 50
178.8061231207325
 51
316.1938768792653
  0
ARC
  5
1FE
330
20
100
AcDbEntity
  8
SCHRAFF
100
AcDbCircle
 10
504.9674037814263
 20
833.4026721374419
 30
0.0
 40
3.22008508024071
100
AcDbArc
 50
178.8061231207325
 51
316.1938768792653
  0
ARC
  5
1FF
330
20
100
AcDbEntity
  8
SCHRAFF
100
AcDbCircle
 10
508.7938661266825
 20
842.6405694272691
 30
0.0
 40
3.22008508024071
100
AcDbArc
 50
178.8061231207325
 51
316.1938768792653
  0
ARC
  5
200
330
20
100
AcDbEntity
  8
SCHRAFF
100
AcDbCircle
 10
539.4055648887315
 20
916.5437477458874
 30
0.0
 40
3.22008508024071
100
AcDbArc
 50
178.8061231207325
 51
316.1938768792653
  0
ARC
  5
201
330
20
100
AcDbEntity
  8
SCHRAFF
100
AcDbCircle
 10
535.5791025434755
 20
907.3058504560602
 30
0.0
 40
3.22008508024071
100
AcDbArc
 50
178.8061231207325
 51
316.1938768792653
  0
ARC
  5
202
330
20
100
AcDbEntity
  8
SCHRAFF
100
AcDbCircle
 10
524.099715507707
 20
879.5921585865782
 30
0.0
 40
3.22008508024071
100
AcDbArc
 50
178.8061231207325
 51
316.1938768792653
  0
ARC
  5
203
330
20
100
AcDbEntity
  8
SCHRAFF
100
AcDbCircle
 10
527.926177852963
 20
888.8300558764056
 30
0.0
 40
3.22008508024071
100
AcDbArc
 50
178.8061231207325
 51
316.1938768792653
  0
ARC
  5
204
330
20
100
AcDbEntity
  8
SCHRAFF
100
AcDbCircle
 10
520.2732531624508
 20
870.354261296751
 30
0.0
 40
3.22008508024071
100
AcDbArc
 50
178.8061231207325
 51
316.1938768792653
  0
ARC
  5
205
330
20
100
AcDbEntity
  8
SCHRAFF
100
AcDbCircle
 10
531.7526401982193
 20
898.0679531662328
 30
0.0
 40
3.22008508024071
100
AcDbArc
 50
178.8061231207325
 51
316.1938768792653
  0
ARC
  5
206
330
20
100
AcDbEntity
  8
SCHRAFF
100
AcDbCircle
 10
554.711414269756
 20
953.4953369051965
 30
0.0
 40
3.22008508024071
100
AcDbArc
 50
178.8061231207325
 51
316.1938768792653
  0
ARC
  5
207
330
20
100
AcDbEntity
  8
SCHRAFF
100
AcDbCircle
 10
547.0584895792438
 20
935.0195423255421
 30
0.0
 40
3.22008508024071
100
AcDbArc
 50
178.8061231207325
 51
316.1938768792653
  0
ARC
  5
208
330
20
100
AcDbEntity
  8
SCHRAFF
100
AcDbCircle
 10
550.8849519245
 20
944.2574396153693
 30
0.0
 40
3.22008508024071
100
AcDbArc
 50
178.8061231207325
 51
316.1938768792653
  0
ARC
  5
209
330
20
100
AcDbEntity
  8
SCHRAFF
100
AcDbCircle
 10
558.537876615012
 20
962.7332341950239
 30
0.0
 40
3.22008508024071
100
AcDbArc
 50
178.8061231207325
 51
316.1938768792653
  0
ARC
  5
20A
330
20
100
AcDbEntity
  8
SCHRAFF
100
AcDbCircle
 10
562.3643389602682
 20
971.9711314848511
 30
0.0
 40
3.22008508024071
100
AcDbArc
 50
178.8061231207325
 51
316.1938768792653
  0
ARC
  5
20B
330
20
100
AcDbEntity
  8
SCHRAFF
100
AcDbCircle
 10
566.1908013055245
 20
981.2090287746784
 30
0.0
 40
3.22008508024071
100
AcDbArc
 50
178.8061231207325
 51
316.1938768792653
  0
ARC
  5
20C
330
20
100
AcDbEntity
  8
SCHRAFF
100
AcDbCircle
 10
573.8437259960364
 20
999.684823354333
 30
0.0
 40
3.22008508024071
100
AcDbArc
 50
178.8061231207325
 51
316.1938768792653
  0
ARC
  5
20D
330
20
100
AcDbEntity
  8
SCHRAFF
100
AcDbCircle
 10
570.0172636507804
 20
990.4469260645058
 30
0.0
 40
3.22008508024071
100
AcDbArc
 50
178.8061231207325
 51
316.1938768792653
  0
ARC
  5
20E
330
20
100
AcDbEntity
  8
SCHRAFF
100
AcDbCircle
 10
592.9760377223174
 20
1045.874309803469
 30
0.0
 40
3.22008508024071
100
AcDbArc
 50
178.8061231207325
 51
316.1938768792653
  0
ARC
  5
20F
330
20
100
AcDbEntity
  8
SCHRAFF
100
AcDbCircle
 10
585.3231130318049
 20
1027.398515223815
 30
0.0
 40
3.22008508024071
100
AcDbArc
 50
178.8061231207325
 51
316.1938768792653
  0
ARC
  5
210
330
20
100
AcDbEntity
  8
SCHRAFF
100
AcDbCircle
 10
589.1495753770612
 20
1036.636412513642
 30
0.0
 40
3.22008508024071
100
AcDbArc
 50
178.8061231207325
 51
316.1938768792653
  0
POINT
  5
211
330
20
100
AcDbEntity
  8
BEM
100
AcDbPoint
 10
477.0336349623931
 20
1206.078606287276
 30
0.0
  0
LINE
  5
212
330
20
100
AcDbEntity
  8
STEMPEL
100
AcDbLine
 10
613.5336349623931
 20
1196.078606287276
 30
0.0
 11
613.5336349623931
 21
1095.618757551203
 31
0.0
  0
LINE
  5
213
330
20
100
AcDbEntity
  8
STEMPEL
100
AcDbLine
 10
684.5694752406448
 20
1166.654597829455
 30
0.0
 11
613.5336349623933
 21
1095.618757551203
 31
0.0
  0
ARC
  5
214
330
20
100
AcDbEntity
  8
SCHRAFF
100
AcDbCircle
 10
600.6289624128294
 20
1064.350104383124
 30
0.0
 40
3.22008508024071
100
AcDbArc
 50
178.8061231207325
 51
316.1938768792653
  0
ARC
  5
215
330
20
100
AcDbEntity
  8
SCHRAFF
100
AcDbCircle
 10
596.8025000675734
 20
1055.112207093297
 30
0.0
 40
3.22008508024071
100
AcDbArc
 50
178.8061231207325
 51
316.1938768792653
  0
ARC
  5
216
330
20
100
AcDbEntity
  8
SCHRAFF
100
AcDbCircle
 10
604.4554247580856
 20
1073.588001672951
 30
0.0
 40
3.22008508024071
100
AcDbArc
 50
178.8061231207325
 51
316.1938768792653
  0
ARC
  5
217
330
20
100
AcDbEntity
  8
SCHRAFF
100
AcDbCircle
 10
615.3444995529859
 20
1099.990571405433
 30
0.0
 40
3.911934330861319
100
AcDbArc
 50
17.42510307609052
 51
117.574896923913
  0
ARC
  5
218
330
20
100
AcDbEntity
  8
SCHRAFF
100
AcDbCircle
 10
612.1083494485978
 20
1092.063796252606
 30
0.0
 40
3.22008508024071
100
AcDbArc
 50
178.8061231207325
 51
316.1938768792653
  0
ARC
  5
219
330
20
100
AcDbEntity
  8
SCHRAFF
100
AcDbCircle
 10
608.2818871033419
 20
1082.825898962779
 30
0.0
 40
3.22008508024071
100
AcDbArc
 50
178.8061231207325
 51
316.1938768792653
  0
LINE
  5
22D
102
{ACAD_REACTORS
330
404
102
}
330
20
100
AcDbEntity
  8
BEM
100
AcDbLine
 10
791.6961525904066
 20
1080.741123915289
 30
0.0
 11
802.8594019628078
 21
1091.90437328769
 31
0.0
  0
POINT
  5
22E
330
20
100
AcDbEntity
  8
BEM
100
AcDbPoint
 10
788.1606186844737
 20
1077.205590009356
 30
0.0
  0
POINT
  5
230
330
20
100
AcDbEntity
  8
DEFPOINTS
  6
ByBlock
 62
     0
100
AcDbPoint
 10
803.0670192701041
 20
1222.776300547247
 30
0.0
  0
LINE
  5
238
330
20
100
AcDbEntity
  8
HILF
100
AcDbLine
 10
613.5336349623931
 20
909.6496740991412
 30
0.0
 11
613.5336349623931
 21
895.5075384754103
 31
0.0
  0
TEXT
  5
23B
330
20
100
AcDbEntity
  8
TEXT
 62
     1
100
AcDbText
 10
468.4442071001894
 20
932.0122219341508
 30
0.0
 40
17.5
  1
DN250
 50
90.0
 41
0.8
  7
GREEKS
100
AcDbText
  0
TEXT
  5
23C
330
20
100
AcDbEntity
  8
TEXT
 62
     1
100
AcDbText
 10
718.0623466806999
 20
1020.364451179509
 30
0.0
 40
17.5
  1
DN250
 50
45.0
 41
0.8
  7
GREEKS
100
AcDbText
  0
TEXT
  5
247
330
20
100
AcDbEntity
  8
BEM
100
AcDbText
 10
1043.255730964291
 20
25.41975269997152
 30
0.0
 40
10.0
  1
Diese Zeichnung ist urheberrechtlich geschützt und bleibt unser Eigentum. Sie darf weder ganz noch teilweise verfielfältigt und nicht an Dritte weitergegeben werden.
 50
90.0
 41
0.8
  7
GREEKS
100
AcDbText
  0
TEXT
  5
254
330
20
100
AcDbEntity
  8
TEXT
100
AcDbText
 10
481.7206788119809
 20
220.9851337304469
 30
0.0
 40
10.0
  1
DIN EN1123-2
 41
0.8
  7
GREEKS
 72
     1
 11
524.1968692881714
 21
220.9851337304469
 31
0.0
100
AcDbText
  0
DIMENSION
  5
3E9
102
{ACAD_XDICTIONARY
360
3F8
102
}
102
{ACAD_REACTORS
330
404
102
}
330
20
100
AcDbEntity
  8
BEM
100
AcDbDimension
  2
*D19
 10
826.2615116187651
 20
1115.306482943648
 30
0.0
 11
677.9992626911221
 21
1251.252550320795
 31
0.0
 70
    34
 71
     5
 42
0.7853981633974497
  3
Standard
100
AcDb2LineAngularDimension
 13
477.0336349623931
 23
1206.078606287276
 33
0.0
 14
477.0336349623931
 24
616.0786062872757
 34
0.0
 15
791.6961525904066
 25
1080.741123915289
 35
0.0
 16
731.4828813658833
 26
1206.797629005733
 36
0.0
1001
ACAD
1000
DSTYLE
1002
{
1070
    40
1040
5.0
1070
    41
1040
3.5
1070
    42
1040
1.0
1070
    43
1040
7.0
1070
    44
1040
1.0
1070
    47
1040
6.0
1070
    48
1040
6.0
1070
    73
1070
     0
1070
    74
1070
     0
1070
    77
1070
     1
1070
    78
1070
     8
1070
    79
1070
     2
1070
   140
1040
3.5
1070
   141
1040
1.5
1070
   146
1040
0.5
1070
   147
1040
1.5
1070
   172
1070
     1
1070
   178
1070
     1
1070
   179
1070
     2
1070
   271
1070
     2
1070
   272
1070
     2
1070
   284
1070
     8
1070
   285
1070
     8
1070
   286
1070
     8
1070
   340
1005
33
1002
}
  0
ENDSEC
  0
SECTION
  2
OBJECTS
  0
DICTIONARY
  5
C
330
0
100
AcDbDictionary
281
     1
  3
ACAD_COLOR
350
1B
  3
ACAD_GROUP
350
D
  3
ACAD_LAYOUT
350
19
  3
ACAD_MATERIAL
350
1A
  3
ACAD_MLINESTYLE
350
16
  3
ACAD_PLOTSETTINGS
350
18
  3
ACAD_PLOTSTYLENAME
350
E
  3
AcDbVariableDictionary
350
269
  0
DICTIONARY
  5
3F8
330
3E9
100
AcDbDictionary
280
     1
281
     1
  3
ACAD_DIMASSOC
360
404
  0
DICTIONARY
  5
1B
102
{ACAD_REACTORS
330
C
102
}
330
C
100
AcDbDictionary
281
     1
  0
DICTIONARY
  5
D
102
{ACAD_REACTORS
330
C
102
}
330
C
100
AcDbDictionary
281
     1
  0
DICTIONARY
  5
19
102
{ACAD_REACTORS
330
C
102
}
330
C
100
AcDbDictionary
281
     1
  3
Layout1
350
1F
  3
Model
350
23
  0
DICTIONARY
  5
1A
102
{ACAD_REACTORS
330
C
102
}
330
C
100
AcDbDictionary
281
     1
  0
DICTIONARY
  5
16
102
{ACAD_REACTORS
330
C
102
}
330
C
100
AcDbDictionary
281
     1
  3
Standard
350
17
  0
DICTIONARY
  5
18
102
{ACAD_REACTORS
330
C
102
}
330
C
100
AcDbDictionary
281
     1
  0
ACDBDICTIONARYWDFLT
  5
E
102
{ACAD_REACTORS
330
C
102
}
330
C
100
AcDbDictionary
281
     1
  3
Normal
350
F
100
AcDbDictionaryWithDefault
340
F
  0
DICTIONARY
  5
269
102
{ACAD_REACTORS
330
C
102
}
330
C
100
AcDbDictionary
281
     1
  3
DIMASSOC
350
26B
  3
HIDETEXT
350
26A
  3
PROJECTNAME
350
26C
  0
DIMASSOC
  5
404
102
{ACAD_REACTORS
330
3F8
102
}
330
3F8
100
AcDbDimAssoc
330
3E9
 90
       15
 70
     0
 71
     0
  1
AcDbOsnapPointRef
 72
    13
331
175
 73
     2
 91
        0
 40
0.0
 10
0.0
 20
0.0
 30
2.000000000000000E+50
 75
     0
  1
AcDbOsnapPointRef
 72
     1
331
175
 73
     2
 91
        0
 40
1.0
 10
0.0
 20
0.0
 30
2.000000000000000E+50
 75
     0
  1
AcDbOsnapPointRef
 72
    13
331
22D
 73
     2
 91
        0
 40
0.0
 10
0.0
 20
0.0
 30
2.000000000000000E+50
 75
     0
  1
AcDbOsnapPointRef
 72
     1
331
22D
 73
     2
 91
        0
 40
1.0
 10
0.0
 20
0.0
 30
2.000000000000000E+50
 75
     0
  0
LAYOUT
  5
1F
102
{ACAD_REACTORS
330
19
102
}
330
19
100
AcDbPlotSettings
  1

  2
RICOH Aficio 2027 PCL 6
  4

  6

 40
0.0
 41
0.0
 42
0.0
 43
0.0
 44
0.0
 45
0.0
 46
0.0
 47
0.0
 48
0.0
 49
0.0
140
0.0
141
0.0
142
1.0
143
1.0
 70
   688
 72
     0
 73
     0
 74
     5
  7
monochrome1.ctb
 75
    16
147
1.0
 76
     0
 77
     2
 78
   300
148
0.0
149
0.0
100
AcDbLayout
  1
Layout1
 70
     0
 71
     1
 10
0.0
 20
0.0
 11
12.0
 21
9.0
 12
0.0
 22
0.0
 32
0.0
 14
1.000000000000000E+20
 24
1.000000000000000E+20
 34
1.000000000000000E+20
 15
-1.000000000000000E+20
 25
-1.000000000000000E+20
 35
-1.000000000000000E+20
146
0.0
 13
0.0
 23
0.0
 33
0.0
 16
1.0
 26
0.0
 36
0.0
 17
0.0
 27
1.0
 37
0.0
 76
     0
330
1C
  0
LAYOUT
  5
23
102
{ACAD_REACTORS
330
19
102
}
330
19
100
AcDbPlotSettings
  1

  2
RICOH Aficio 2027 PCL 6
  4
A4
  6

 40
5.027083396911621
 41
5.027085304260253
 42
5.027084350585937
 43
5.027069091796875
 44
209.9733276367187
 45
296.9259948730469
 46
0.0
 47
0.0
 48
0.0
 49
0.0
140
0.0
141
0.0
142
1.0
143
1.0
 70
 11952
 72
     0
 73
     1
 74
     0
  7
monochrome1.ctb
 75
     0
147
1.0
 76
     0
 77
     2
 78
   300
148
5749.737974108374
149
225.2379483828901
100
AcDbLayout
  1
Model
 70
     1
 71
     0
 10
0.0
 20
0.0
 11
12.0
 21
9.0
 12
0.0
 22
0.0
 32
0.0
 14
0.0
 24
0.0
 34
0.0
 15
0.0
 25
0.0
 35
0.0
146
0.0
 13
0.0
 23
0.0
 33
0.0
 16
1.0
 26
0.0
 36
0.0
 17
0.0
 27
1.0
 37
0.0
 76
     0
330
20
  0
MLINESTYLE
  5
17
102
{ACAD_REACTORS
330
16
102
}
330
16
100
AcDbMlineStyle
  2
STANDARD
 70
     0
  3

 62
   256
 51
90.0
 52
90.0
 71
     2
 49
0.5
 62
   256
  6
BYLAYER
 49
-0.5
 62
   256
  6
BYLAYER
  0
ACDBPLACEHOLDER
  5
F
102
{ACAD_REACTORS
330
E
102
}
330
E
  0
DICTIONARYVAR
  5
26B
102
{ACAD_REACTORS
330
269
102
}
330
269
100
DictionaryVariables
280
     0
  1
2
  0
DICTIONARYVAR
  5
26A
102
{ACAD_REACTORS
330
269
102
}
330
269
100
DictionaryVariables
280
     0
  1
1
  0
DICTIONARYVAR
  5
26C
102
{ACAD_REACTORS
330
269
102
}
330
269
100
DictionaryVariables
280
     0
  1

  0
ENDSEC
  0
EOF
