  0
SECTION
  2
HEADER
  9
$ACADVER
  1
AC1018
  9
$ACADMAINTVER
 70
     2
  9
$DWGCODEPAGE
  3
ANSI_1252
  9
$INSBASE
 10
0.0
 20
0.0
 30
0.0
  9
$EXTMIN
 10
-0.0512671842575401
 20
-0.0362532231533805
 30
-0.0000000349181948
  9
$EXTMAX
 10
840.0512750076059
 20
594.0362587553789
 30
0.0000000814935746
  9
$LIMMIN
 10
0.0
 20
0.0
  9
$LIMMAX
 10
839.9999999999998
 20
594.0000000000001
  9
$ORTHOMODE
 70
     0
  9
$REGENMODE
 70
     1
  9
$FILLMODE
 70
     1
  9
$QTEXTMODE
 70
     0
  9
$MIRRTEXT
 70
     1
  9
$LTSCALE
 40
20.0
  9
$ATTMODE
 70
     1
  9
$TEXTSIZE
 40
2.5
  9
$TRACEWID
 40
0.5
  9
$TEXTSTYLE
  7
GREEKS
  9
$CLAYER
  8
VOLL
  9
$CELTYPE
  6
ByLayer
  9
$CECOLOR
 62
   256
  9
$CELTSCALE
 40
1.0
  9
$DISPSILH
 70
     0
  9
$DIMSCALE
 40
2.0
  9
$DIMASZ
 40
3.5
  9
$DIMEXO
 40
1.0
  9
$DIMDLI
 40
0.38
  9
$DIMRND
 40
0.0
  9
$DIMDLE
 40
0.0
  9
$DIMEXE
 40
1.0
  9
$DIMTP
 40
0.0
  9
$DIMTM
 40
0.0
  9
$DIMTXT
 40
3.5
  9
$DIMCEN
 40
0.09
  9
$DIMTSZ
 40
0.0
  9
$DIMTOL
 70
     0
  9
$DIMLIM
 70
     0
  9
$DIMTIH
 70
     0
  9
$DIMTOH
 70
     0
  9
$DIMSE1
 70
     0
  9
$DIMSE2
 70
     0
  9
$DIMTAD
 70
     1
  9
$DIMZIN
 70
     8
  9
$DIMBLK
  1

  9
$DIMASO
 70
     1
  9
$DIMSHO
 70
     0
  9
$DIMPOST
  1

  9
$DIMAPOST
  1

  9
$DIMALT
 70
     0
  9
$DIMALTD
 70
     2
  9
$DIMALTF
 40
25.4
  9
$DIMLFAC
 40
1.0
  9
$DIMTOFL
 70
     1
  9
$DIMTVP
 40
0.0
  9
$DIMTIX
 70
     0
  9
$DIMSOXD
 70
     0
  9
$DIMSAH
 70
     0
  9
$DIMBLK1
  1

  9
$DIMBLK2
  1

  9
$DIMSTYLE
  2
STANDARD
  9
$DIMCLRD
 70
     0
  9
$DIMCLRE
 70
     0
  9
$DIMCLRT
 70
     1
  9
$DIMTFAC
 40
0.5142857142857144
  9
$DIMGAP
 40
1.5
  9
$DIMJUST
 70
     0
  9
$DIMSD1
 70
     0
  9
$DIMSD2
 70
     0
  9
$DIMTOLJ
 70
     1
  9
$DIMTZIN
 70
     8
  9
$DIMALTZ
 70
     8
  9
$DIMALTTZ
 70
     8
  9
$DIMUPT
 70
     0
  9
$DIMDEC
 70
     2
  9
$DIMTDEC
 70
     2
  9
$DIMALTU
 70
     2
  9
$DIMALTTD
 70
     2
  9
$DIMTXSTY
  7
GREEKS
  9
$DIMAUNIT
 70
     0
  9
$DIMADEC
 70
     0
  9
$DIMALTRND
 40
0.0
  9
$DIMAZIN
 70
     2
  9
$DIMDSEP
 70
    46
  9
$DIMATFIT
 70
     0
  9
$DIMFRAC
 70
     0
  9
$DIMLDRBLK
  1

  9
$DIMLUNIT
 70
     2
  9
$DIMLWD
 70
    -2
  9
$DIMLWE
 70
    -2
  9
$DIMTMOVE
 70
     0
  9
$LUNITS
 70
     2
  9
$LUPREC
 70
     2
  9
$SKETCHINC
 40
1.0
  9
$FILLETRAD
 40
5.0
  9
$AUNITS
 70
     0
  9
$AUPREC
 70
     0
  9
$MENU
  1
ACAD
  9
$ELEVATION
 40
0.0
  9
$PELEVATION
 40
0.0
  9
$THICKNESS
 40
0.0
  9
$LIMCHECK
 70
     0
  9
$CHAMFERA
 40
0.0
  9
$CHAMFERB
 40
0.0
  9
$CHAMFERC
 40
0.0
  9
$CHAMFERD
 40
0.0
  9
$SKPOLY
 70
     0
  9
$TDCREATE
 40
2452806.238020602
  9
$TDUCREATE
 40
2452806.154687269
  9
$TDUPDATE
 40
2455454.456501470
  9
$TDUUPDATE
 40
2455454.373168137
  9
$TDINDWG
 40
0.2325983912
  9
$TDUSRTIMER
 40
0.2325983912
  9
$USRTIMER
 70
     1
  9
$ANGBASE
 50
0.0
  9
$ANGDIR
 70
     0
  9
$PDMODE
 70
     0
  9
$PDSIZE
 40
0.0
  9
$PLINEWID
 40
0.0
  9
$SPLFRAME
 70
     0
  9
$SPLINETYPE
 70
     6
  9
$SPLINESEGS
 70
     8
  9
$HANDSEED
  5
228E
  9
$SURFTAB1
 70
     6
  9
$SURFTAB2
 70
     6
  9
$SURFTYPE
 70
     6
  9
$SURFU
 70
     6
  9
$SURFV
 70
     6
  9
$UCSBASE
  2

  9
$UCSNAME
  2

  9
$UCSORG
 10
0.0
 20
0.0
 30
0.0
  9
$UCSXDIR
 10
1.0
 20
0.0
 30
0.0
  9
$UCSYDIR
 10
0.0
 20
1.0
 30
0.0
  9
$UCSORTHOREF
  2

  9
$UCSORTHOVIEW
 70
     0
  9
$UCSORGTOP
 10
0.0
 20
0.0
 30
0.0
  9
$UCSORGBOTTOM
 10
0.0
 20
0.0
 30
0.0
  9
$UCSORGLEFT
 10
0.0
 20
0.0
 30
0.0
  9
$UCSORGRIGHT
 10
0.0
 20
0.0
 30
0.0
  9
$UCSORGFRONT
 10
0.0
 20
0.0
 30
0.0
  9
$UCSORGBACK
 10
0.0
 20
0.0
 30
0.0
  9
$PUCSBASE
  2

  9
$PUCSNAME
  2

  9
$PUCSORG
 10
0.0
 20
0.0
 30
0.0
  9
$PUCSXDIR
 10
1.0
 20
0.0
 30
0.0
  9
$PUCSYDIR
 10
0.0
 20
1.0
 30
0.0
  9
$PUCSORTHOREF
  2

  9
$PUCSORTHOVIEW
 70
     0
  9
$PUCSORGTOP
 10
0.0
 20
0.0
 30
0.0
  9
$PUCSORGBOTTOM
 10
0.0
 20
0.0
 30
0.0
  9
$PUCSORGLEFT
 10
0.0
 20
0.0
 30
0.0
  9
$PUCSORGRIGHT
 10
0.0
 20
0.0
 30
0.0
  9
$PUCSORGFRONT
 10
0.0
 20
0.0
 30
0.0
  9
$PUCSORGBACK
 10
0.0
 20
0.0
 30
0.0
  9
$USERI1
 70
     0
  9
$USERI2
 70
     0
  9
$USERI3
 70
     0
  9
$USERI4
 70
     0
  9
$USERI5
 70
     0
  9
$USERR1
 40
0.0
  9
$USERR2
 40
0.0
  9
$USERR3
 40
0.0
  9
$USERR4
 40
0.0
  9
$USERR5
 40
0.0
  9
$WORLDVIEW
 70
     1
  9
$SHADEDGE
 70
     3
  9
$SHADEDIF
 70
    70
  9
$TILEMODE
 70
     1
  9
$MAXACTVP
 70
    16
  9
$PINSBASE
 10
0.0
 20
0.0
 30
0.0
  9
$PLIMCHECK
 70
     0
  9
$PEXTMIN
 10
1.000000000000000E+20
 20
1.000000000000000E+20
 30
1.000000000000000E+20
  9
$PEXTMAX
 10
-1.000000000000000E+20
 20
-1.000000000000000E+20
 30
-1.000000000000000E+20
  9
$PLIMMIN
 10
0.0
 20
0.0
  9
$PLIMMAX
 10
12.0
 20
9.0
  9
$UNITMODE
 70
     0
  9
$VISRETAIN
 70
     0
  9
$PLINEGEN
 70
     0
  9
$PSLTSCALE
 70
     0
  9
$TREEDEPTH
 70
  3020
  9
$CMLSTYLE
  2
Standard
  9
$CMLJUST
 70
     0
  9
$CMLSCALE
 40
1.0
  9
$PROXYGRAPHICS
 70
     1
  9
$MEASUREMENT
 70
     0
  9
$CELWEIGHT
370
    -1
  9
$ENDCAPS
280
     0
  9
$JOINSTYLE
280
     0
  9
$LWDISPLAY
290
     0
  9
$INSUNITS
 70
     0
  9
$HYPERLINKBASE
  1

  9
$STYLESHEET
  1
monochrome1.ctb
  9
$XEDIT
290
     1
  9
$CEPSNTYPE
380
     0
  9
$PSTYLEMODE
290
     1
  9
$FINGERPRINTGUID
  2
{CEB2A312-A602-11D7-B633-000102183313}
  9
$VERSIONGUID
  2
{5E56CBF1-FEBF-482E-9838-E202203DC100}
  9
$EXTNAMES
290
     1
  9
$PSVPSCALE
 40
0.0
  9
$OLESTARTUP
290
     0
  9
$SORTENTS
280
    96
  9
$INDEXCTL
280
     0
  9
$HIDETEXT
280
     0
  9
$XCLIPFRAME
290
     0
  9
$HALOGAP
280
     0
  9
$OBSCOLOR
 70
   257
  9
$OBSLTYPE
280
     0
  9
$INTERSECTIONDISPLAY
280
     0
  9
$INTERSECTIONCOLOR
 70
   257
  9
$DIMASSOC
280
     1
  9
$PROJECTNAME
  1

  0
ENDSEC
  0
SECTION
  2
CLASSES
  0
CLASS
  1
ACDBDICTIONARYWDFLT
  2
AcDbDictionaryWithDefault
  3
ObjectDBX Classes
 90
        0
 91
        1
280
     0
281
     0
  0
CLASS
  1
DICTIONARYVAR
  2
AcDbDictionaryVar
  3
ObjectDBX Classes
 90
        0
 91
        3
280
     0
281
     0
  0
ENDSEC
  0
SECTION
  2
TABLES
  0
TABLE
  2
VPORT
  5
10EB
330
0
100
AcDbSymbolTable
 70
     2
  0
VPORT
  5
228D
330
10EB
100
AcDbSymbolTableRecord
100
AcDbViewportTableRecord
  2
*Active
 70
     0
 10
0.0
 20
0.0
 11
1.0
 21
1.0
 12
420.0000039116742
 22
297.0000027661128
 13
0.0
 23
0.0
 14
1.0
 24
1.0
 15
10.0
 25
10.0
 16
0.0
 26
0.0
 36
1.0
 17
0.0
 27
0.0
 37
0.0
 40
632.1787407146647
 41
1.336927223719676
 42
50.0
 43
0.0
 44
0.0
 50
0.0
 51
0.0
 71
     0
 72
  1500
 73
     1
 74
     0
 75
     0
 76
     0
 77
     0
 78
     0
281
     0
 65
     1
110
0.0
120
0.0
130
0.0
111
1.0
121
0.0
131
0.0
112
0.0
122
1.0
132
0.0
 79
     0
146
0.0
  0
ENDTAB
  0
TABLE
  2
LTYPE
  5
10E8
330
0
100
AcDbSymbolTable
 70
     3
  0
LTYPE
  5
10F6
330
10E8
100
AcDbSymbolTableRecord
100
AcDbLinetypeTableRecord
  2
ByBlock
 70
     0
  3

 72
    65
 73
     0
 40
0.0
  0
LTYPE
  5
10F7
330
10E8
100
AcDbSymbolTableRecord
100
AcDbLinetypeTableRecord
  2
ByLayer
 70
     0
  3

 72
    65
 73
     0
 40
0.0
  0
LTYPE
  5
10F8
330
10E8
100
AcDbSymbolTableRecord
100
AcDbLinetypeTableRecord
  2
AUSGEZOGEN
 70
     0
  3
Ausgezogene Linie
 72
    65
 73
     0
 40
0.0
  0
LTYPE
  5
1118
330
10E8
100
AcDbSymbolTableRecord
100
AcDbLinetypeTableRecord
  2
STRICHPUNKT
 70
     0
  3
__ . __ . __ . __ . __ . __ . __ . __ . __ . __
 72
    65
 73
     4
 40
1.0
 49
0.5
 74
     0
 49
-0.25
 74
     0
 49
0.0
 74
     0
 49
-0.25
 74
     0
  0
LTYPE
  5
1119
330
10E8
100
AcDbSymbolTableRecord
100
AcDbLinetypeTableRecord
  2
CONTINUOUS
 70
     0
  3
Solid line
 72
    65
 73
     0
 40
0.0
  0
ENDTAB
  0
TABLE
  2
LAYER
  5
10E5
102
{ACAD_XDICTIONARY
360
1945
102
}
330
0
100
AcDbSymbolTable
 70
     9
  0
LAYER
  5
10F3
330
10E5
100
AcDbSymbolTableRecord
100
AcDbLayerTableRecord
  2
0
 70
     0
 62
     7
  6
AUSGEZOGEN
370
    -3
390
10F2
  0
LAYER
  5
111D
330
10E5
100
AcDbSymbolTableRecord
100
AcDbLayerTableRecord
  2
VOLL
 70
     0
 62
     1
  6
AUSGEZOGEN
370
    -3
390
10F2
  0
LAYER
  5
111E
330
10E5
100
AcDbSymbolTableRecord
100
AcDbLayerTableRecord
  2
HILF
 70
     0
 62
     2
  6
AUSGEZOGEN
370
    -3
390
10F2
  0
LAYER
  5
111F
330
10E5
100
AcDbSymbolTableRecord
100
AcDbLayerTableRecord
  2
MITTEL
 70
     0
 62
     2
  6
STRICHPUNKT
370
    -3
390
10F2
  0
LAYER
  5
1120
330
10E5
100
AcDbSymbolTableRecord
100
AcDbLayerTableRecord
  2
BEM
 70
     0
 62
     7
  6
AUSGEZOGEN
370
    -3
390
10F2
  0
LAYER
  5
1121
330
10E5
100
AcDbSymbolTableRecord
100
AcDbLayerTableRecord
  2
STEMPEL
 70
     0
 62
     3
  6
AUSGEZOGEN
370
    -3
390
10F2
  0
LAYER
  5
1122
330
10E5
100
AcDbSymbolTableRecord
100
AcDbLayerTableRecord
  2
TEXT
 70
     0
 62
     7
  6
AUSGEZOGEN
370
    -3
390
10F2
  0
LAYER
  5
1123
330
10E5
100
AcDbSymbolTableRecord
100
AcDbLayerTableRecord
  2
SCHRAFF
 70
     0
 62
     7
  6
AUSGEZOGEN
370
    -3
390
10F2
  0
LAYER
  5
1124
330
10E5
100
AcDbSymbolTableRecord
100
AcDbLayerTableRecord
  2
DEFPOINTS
 70
     0
 62
     7
  6
AUSGEZOGEN
290
     0
370
    -3
390
10F2
  0
ENDTAB
  0
TABLE
  2
STYLE
  5
10E6
330
0
100
AcDbSymbolTable
 70
     2
  0
STYLE
  5
10F4
330
10E6
100
AcDbSymbolTableRecord
100
AcDbTextStyleTableRecord
  2
STANDARD
 70
     0
 40
0.0
 41
1.0
 50
0.0
 71
     0
 42
3.5
  3
txt
  4

  0
STYLE
  5
1117
330
10E6
100
AcDbSymbolTableRecord
100
AcDbTextStyleTableRecord
  2
GREEKS
 70
     0
 40
0.0
 41
0.8
 50
0.0
 71
     0
 42
2.5
  3
SIMPLEX.shx
  4

  0
ENDTAB
  0
TABLE
  2
VIEW
  5
10E9
330
0
100
AcDbSymbolTable
 70
     0
  0
ENDTAB
  0
TABLE
  2
UCS
  5
10EA
330
0
100
AcDbSymbolTable
 70
     0
  0
ENDTAB
  0
TABLE
  2
APPID
  5
10EC
330
0
100
AcDbSymbolTable
 70
     1
  0
APPID
  5
10F5
330
10EC
100
AcDbSymbolTableRecord
100
AcDbRegAppTableRecord
  2
ACAD
 70
     0
  0
ENDTAB
  0
TABLE
  2
DIMSTYLE
  5
10ED
330
0
100
AcDbSymbolTable
 70
     1
100
AcDbDimStyleTable
 71
     1
340
111C
  0
DIMSTYLE
105
111C
102
{ACAD_REACTORS
330
1E71
330
1E72
330
1E73
330
1E74
330
1E75
330
1E76
330
2045
330
2166
330
216A
330
216E
330
2187
102
}
330
10ED
100
AcDbSymbolTableRecord
100
AcDbDimStyleTableRecord
  2
STANDARD
 70
     0
 40
2.0
 41
3.5
 42
1.0
 44
1.0
 73
     0
 74
     0
 77
     1
 78
     8
 79
     2
140
3.5
146
0.5142857142857144
147
1.5
172
     1
178
     1
271
     2
272
     2
284
     8
285
     8
286
     8
289
     0
340
1117
  0
ENDTAB
  0
TABLE
  2
BLOCK_RECORD
  5
10E4
330
0
100
AcDbSymbolTable
 70
    14
  0
BLOCK_RECORD
  5
1101
102
{ACAD_XDICTIONARY
360
1561
102
}
330
10E4
100
AcDbSymbolTableRecord
100
AcDbBlockTableRecord
  2
*Model_Space
340
1104
  0
BLOCK_RECORD
  5
10FD
102
{ACAD_XDICTIONARY
360
1563
102
}
330
10E4
100
AcDbSymbolTableRecord
100
AcDbBlockTableRecord
  2
*Paper_Space
340
1100
  0
BLOCK_RECORD
  5
1105
330
10E4
100
AcDbSymbolTableRecord
100
AcDbBlockTableRecord
  2
LOGO
340
0
102
{BLKREFS
331
2FC
102
}
  0
BLOCK_RECORD
  5
1BAF
330
10E4
100
AcDbSymbolTableRecord
100
AcDbBlockTableRecord
  2
*X1
340
0
102
{BLKREFS
331
1CED
102
}
  0
BLOCK_RECORD
  5
1EC8
330
10E4
100
AcDbSymbolTableRecord
100
AcDbBlockTableRecord
  2
*D2
340
0
  0
BLOCK_RECORD
  5
1ED4
330
10E4
100
AcDbSymbolTableRecord
100
AcDbBlockTableRecord
  2
*D3
340
0
  0
BLOCK_RECORD
  5
1EE0
330
10E4
100
AcDbSymbolTableRecord
100
AcDbBlockTableRecord
  2
*D4
340
0
  0
BLOCK_RECORD
  5
1EEE
330
10E4
100
AcDbSymbolTableRecord
100
AcDbBlockTableRecord
  2
*D5
340
0
  0
BLOCK_RECORD
  5
1EFA
330
10E4
100
AcDbSymbolTableRecord
100
AcDbBlockTableRecord
  2
*D6
340
0
  0
BLOCK_RECORD
  5
1F06
330
10E4
100
AcDbSymbolTableRecord
100
AcDbBlockTableRecord
  2
*D7
340
0
  0
BLOCK_RECORD
  5
208C
330
10E4
100
AcDbSymbolTableRecord
100
AcDbBlockTableRecord
  2
*D8
340
0
  0
BLOCK_RECORD
  5
20BC
330
10E4
100
AcDbSymbolTableRecord
100
AcDbBlockTableRecord
  2
*X9
340
0
102
{BLKREFS
331
21AE
102
}
  0
BLOCK_RECORD
  5
21AF
330
10E4
100
AcDbSymbolTableRecord
100
AcDbBlockTableRecord
  2
*D10
340
0
  0
BLOCK_RECORD
  5
21BB
330
10E4
100
AcDbSymbolTableRecord
100
AcDbBlockTableRecord
  2
*D11
340
0
  0
BLOCK_RECORD
  5
21C7
330
10E4
100
AcDbSymbolTableRecord
100
AcDbBlockTableRecord
  2
*D12
340
0
  0
BLOCK_RECORD
  5
21D6
330
10E4
100
AcDbSymbolTableRecord
100
AcDbBlockTableRecord
  2
*D13
340
0
  0
ENDTAB
  0
ENDSEC
  0
SECTION
  2
BLOCKS
  0
BLOCK
  5
1127
330
1101
100
AcDbEntity
  8
0
100
AcDbBlockBegin
  2
*Model_Space
 70
     0
 10
0.0
 20
0.0
 30
0.0
  3
*Model_Space
  1

  0
ENDBLK
  5
1128
330
1101
100
AcDbEntity
  8
0
100
AcDbBlockEnd
  0
BLOCK
  5
1125
330
10FD
100
AcDbEntity
 67
     1
  8
0
100
AcDbBlockBegin
  2
*Paper_Space
 70
     0
 10
0.0
 20
0.0
 30
0.0
  3
*Paper_Space
  1

  0
ENDBLK
  5
1126
330
10FD
100
AcDbEntity
 67
     1
  8
0
100
AcDbBlockEnd
  0
BLOCK
  5
42
330
1105
100
AcDbEntity
  8
0
100
AcDbBlockBegin
  2
LOGO
 70
     0
 10
0.0
 20
0.0
 30
0.0
  3
LOGO
  1

  0
ARC
  5
43
330
1105
100
AcDbEntity
  8
0
100
AcDbCircle
 10
11.59973089678112
 20
-9.271599258481501
 30
0.0
 40
4.5
100
AcDbArc
 50
270.0
 51
231.0575587310159
  0
LINE
  5
44
330
1105
100
AcDbEntity
  8
0
100
AcDbLine
 10
3.599730896781125
 20
-4.771599258481529
 30
0.0
 11
3.599730896781153
 21
-11.77159925848133
 31
0.0
  0
LINE
  5
45
330
1105
100
AcDbEntity
  8
0
100
AcDbLine
 10
2.599730896781125
 20
-4.771599258481529
 30
0.0
 11
2.599730896781153
 21
-11.77159925848133
 31
0.0
  0
CIRCLE
  5
46
330
1105
100
AcDbEntity
  8
0
100
AcDbCircle
 10
11.59973089678112
 20
-9.271599258481501
 30
0.0
 40
3.5
  0
ARC
  5
47
330
1105
100
AcDbEntity
  8
0
100
AcDbCircle
 10
31.59973089678115
 20
-9.271599258481472
 30
0.0
 40
4.5
100
AcDbArc
 50
270.0
 51
231.0575587310182
  0
LINE
  5
48
330
1105
100
AcDbEntity
  8
0
100
AcDbLine
 10
17.59973089678112
 20
-4.771599258481472
 30
0.0
 11
17.59973089678115
 21
-13.77159925848147
 31
0.0
  0
ARC
  5
49
330
1105
100
AcDbEntity
  8
0
100
AcDbCircle
 10
22.59973089678116
 20
-7.271599258481472
 30
0.0
 40
2.5
100
AcDbArc
 50
293.1161887722295
 51
90.0
  0
CIRCLE
  5
4A
330
1105
100
AcDbEntity
  8
0
100
AcDbCircle
 10
31.59973089678115
 20
-9.271599258481472
 30
0.0
 40
3.5
  0
ARC
  5
4B
330
1105
100
AcDbEntity
  8
0
100
AcDbCircle
 10
4.599730896781153
 20
-11.77159925848133
 30
0.0
 40
1.0
100
AcDbArc
 50
180.0
 51
270.0
  0
ARC
  5
4C
330
1105
100
AcDbEntity
  8
0
100
AcDbCircle
 10
4.599730896781153
 20
-11.77159925848133
 30
0.0
 40
2.0
100
AcDbArc
 50
179.9999999999992
 51
270.0
  0
LINE
  5
4D
330
1105
100
AcDbEntity
  8
0
100
AcDbLine
 10
11.59973089678115
 20
-13.77159925848144
 30
0.0
 11
4.599730896781153
 21
-13.77159925848147
 31
0.0
  0
LINE
  5
4E
330
1105
100
AcDbEntity
  8
0
100
AcDbLine
 10
8.771303772034769
 20
-12.77159925848136
 30
0.0
 11
4.599730896781153
 21
-12.77159925848133
 31
0.0
  0
LINE
  5
4F
330
1105
100
AcDbEntity
  8
0
100
AcDbLine
 10
31.59973089678115
 20
-13.77159925848147
 30
0.0
 11
23.6715276665056
 21
-13.77159925848144
 31
0.0
  0
LINE
  5
50
330
1105
100
AcDbEntity
  8
0
100
AcDbLine
 10
23.56565672307022
 20
-9.51278021337896
 30
0.0
 11
24.4388546544846
 21
-12.77159925848144
 31
0.0
  0
LINE
  5
51
330
1105
100
AcDbEntity
  8
0
100
AcDbLine
 10
22.59973089678116
 20
-9.771599258481472
 30
0.0
 11
18.59973089678112
 21
-9.771599258481472
 31
0.0
  0
LINE
  5
52
330
1105
100
AcDbEntity
  8
0
100
AcDbLine
 10
18.59973089678115
 20
-13.77159925848144
 30
0.0
 11
17.59973089678115
 21
-13.77159925848144
 31
0.0
  0
LINE
  5
53
330
1105
100
AcDbEntity
  8
0
100
AcDbLine
 10
18.59973089678115
 20
-9.771599258481472
 30
0.0
 11
18.59973089678115
 21
-13.77159925848144
 31
0.0
  0
LINE
  5
54
330
1105
100
AcDbEntity
  8
0
100
AcDbLine
 10
22.59973089678116
 20
-9.771599258481472
 30
0.0
 11
23.67152766650562
 21
-13.77159925848147
 31
0.0
  0
ARC
  5
55
330
1105
100
AcDbEntity
  8
0
100
AcDbCircle
 10
22.59973089678116
 20
-7.271599258481472
 30
0.0
 40
2.5
100
AcDbArc
 50
270.0
 51
270.0000000000007
  0
LINE
  5
56
330
1105
100
AcDbEntity
  8
0
100
AcDbLine
 10
28.77130377203494
 20
-12.77159925848147
 30
0.0
 11
24.43885465448463
 21
-12.77159925848144
 31
0.0
  0
LINE
  5
57
330
1105
100
AcDbEntity
  8
0
100
AcDbLine
 10
3.599730896781125
 20
-4.771599258481472
 30
0.0
 11
2.599730896781125
 21
-4.771599258481472
 31
0.0
  0
LINE
  5
58
330
1105
100
AcDbEntity
  8
0
100
AcDbLine
 10
22.59973089678116
 20
-8.771599258481472
 30
0.0
 11
18.59973089678115
 21
-8.771599258481472
 31
0.0
  0
LINE
  5
59
330
1105
100
AcDbEntity
  8
0
100
AcDbLine
 10
22.59973089678116
 20
-5.771599258481472
 30
0.0
 11
18.59973089678115
 21
-5.771599258481472
 31
0.0
  0
LINE
  5
5A
330
1105
100
AcDbEntity
  8
0
100
AcDbLine
 10
22.59973089678116
 20
-4.771599258481472
 30
0.0
 11
17.59973089678115
 21
-4.771599258481472
 31
0.0
  0
LINE
  5
5B
330
1105
100
AcDbEntity
  8
0
100
AcDbLine
 10
18.59973089678115
 20
-5.771599258481472
 30
0.0
 11
18.59973089678115
 21
-8.771599258481472
 31
0.0
  0
ARC
  5
5C
330
1105
100
AcDbEntity
  8
0
100
AcDbCircle
 10
22.59973089678116
 20
-7.271599258481472
 30
0.0
 40
1.5
100
AcDbArc
 50
270.0
 51
90.0
  0
ENDBLK
  5
5D
330
1105
100
AcDbEntity
  8
0
100
AcDbBlockEnd
  0
BLOCK
  5
1BB0
330
1BAF
100
AcDbEntity
  8
0
100
AcDbBlockBegin
  2
*X1
 70
     1
 10
0.0
 20
0.0
 30
0.0
  3
*X1
  1

  0
LINE
  5
1BB1
330
1BAF
100
AcDbEntity
  8
SCHRAFF
 62
     0
100
AcDbLine
 10
367.3288756654553
 20
416.8263503485134
 30
0.0
 11
368.3288756654554
 21
417.8263503485136
 31
0.0
  0
LINE
  5
1BB2
330
1BAF
100
AcDbEntity
  8
SCHRAFF
 62
     0
100
AcDbLine
 10
364.4434715546751
 20
417.476480143666
 30
0.0
 11
364.7933417595226
 21
417.8263503485135
 31
0.0
  0
LINE
  5
1BB3
330
1BAF
100
AcDbEntity
  8
SCHRAFF
 62
     0
100
AcDbLine
 10
353.1920116959645
 20
416.8316220027536
 30
0.0
 11
354.1867400417247
 21
417.8263503485139
 31
0.0
  0
LINE
  5
1BB4
330
1BAF
100
AcDbEntity
  8
SCHRAFF
 62
     0
100
AcDbLine
 10
350.4508187360632
 20
417.6259629487852
 30
0.0
 11
351.1885478417868
 21
418.3636920545088
 31
0.0
  0
LINE
  5
1BB5
330
1BAF
100
AcDbEntity
  8
SCHRAFF
 62
     0
100
AcDbLine
 10
348.5891975368837
 20
419.2998756555383
 30
0.0
 11
349.3069306441315
 21
420.0176087627861
 31
0.0
  0
LINE
  5
1BB6
330
1BAF
100
AcDbEntity
  8
SCHRAFF
 62
     0
100
AcDbLine
 10
347.5351689975212
 20
421.7813810221086
 30
0.0
 11
348.4452902848183
 21
422.6915023094058
 31
0.0
  0
LINE
  5
1BB7
330
1BAF
100
AcDbEntity
  8
SCHRAFF
 62
     0
100
AcDbLine
 10
347.4434715546752
 20
425.2252174851953
 30
0.0
 11
348.4434715546753
 21
426.2252174851954
 31
0.0
  0
LINE
  5
1BB8
330
1BAF
100
AcDbEntity
  8
SCHRAFF
 62
     0
100
AcDbLine
 10
347.4434715546752
 20
428.7607513911281
 30
0.0
 11
348.4434715546753
 21
429.7607513911281
 31
0.0
  0
LINE
  5
1BB9
330
1BAF
100
AcDbEntity
  8
SCHRAFF
 62
     0
100
AcDbLine
 10
347.4434715546752
 20
432.2962852970608
 30
0.0
 11
348.4434715546753
 21
433.2962852970609
 31
0.0
  0
LINE
  5
1BBA
330
1BAF
100
AcDbEntity
  8
SCHRAFF
 62
     0
100
AcDbLine
 10
347.4434715546752
 20
435.8318192029935
 30
0.0
 11
348.4434715546753
 21
436.8318192029937
 31
0.0
  0
LINE
  5
1BBB
330
1BAF
100
AcDbEntity
  8
SCHRAFF
 62
     0
100
AcDbLine
 10
347.4434715546752
 20
439.3673531089262
 30
0.0
 11
348.4434715546753
 21
440.3673531089264
 31
0.0
  0
LINE
  5
1BBC
330
1BAF
100
AcDbEntity
  8
SCHRAFF
 62
     0
100
AcDbLine
 10
347.4434715546752
 20
442.9028870148591
 30
0.0
 11
348.4434715546753
 21
443.902887014859
 31
0.0
  0
LINE
  5
1BBD
330
1BAF
100
AcDbEntity
  8
SCHRAFF
 62
     0
100
AcDbLine
 10
347.4434715546752
 20
446.4384209207917
 30
0.0
 11
348.4434715546753
 21
447.4384209207919
 31
0.0
  0
LINE
  5
1BBE
330
1BAF
100
AcDbEntity
  8
SCHRAFF
 62
     0
100
AcDbLine
 10
347.4434715546752
 20
449.9739548267245
 30
0.0
 11
348.4434715546753
 21
450.9739548267246
 31
0.0
  0
LINE
  5
1BBF
330
1BAF
100
AcDbEntity
  8
SCHRAFF
 62
     0
100
AcDbLine
 10
347.4434715546752
 20
453.5094887326572
 30
0.0
 11
348.4434715546753
 21
454.5094887326573
 31
0.0
  0
LINE
  5
1BC0
330
1BAF
100
AcDbEntity
  8
SCHRAFF
 62
     0
100
AcDbLine
 10
347.4434715546752
 20
457.04502263859
 30
0.0
 11
348.4434715546753
 21
458.0450226385901
 31
0.0
  0
LINE
  5
1BC1
330
1BAF
100
AcDbEntity
  8
SCHRAFF
 62
     0
100
AcDbLine
 10
347.4434715546752
 20
460.5805565445227
 30
0.0
 11
348.4434715546753
 21
461.5805565445228
 31
0.0
  0
LINE
  5
1BC2
330
1BAF
100
AcDbEntity
  8
SCHRAFF
 62
     0
100
AcDbLine
 10
347.4434715546752
 20
464.1160904504554
 30
0.0
 11
348.4434715546753
 21
465.1160904504556
 31
0.0
  0
LINE
  5
1BC3
330
1BAF
100
AcDbEntity
  8
SCHRAFF
 62
     0
100
AcDbLine
 10
347.4434715546752
 20
467.6516243563882
 30
0.0
 11
348.4434715546754
 21
468.6516243563882
 31
0.0
  0
LINE
  5
1BC4
330
1BAF
100
AcDbEntity
  8
SCHRAFF
 62
     0
100
AcDbLine
 10
347.4434715546752
 20
471.1871582623209
 30
0.0
 11
348.4434715546753
 21
472.187158262321
 31
0.0
  0
LINE
  5
1BC5
330
1BAF
100
AcDbEntity
  8
SCHRAFF
 62
     0
100
AcDbLine
 10
347.4434715546752
 20
474.7226921682536
 30
0.0
 11
348.4434715546753
 21
475.7226921682537
 31
0.0
  0
LINE
  5
1BC6
330
1BAF
100
AcDbEntity
  8
SCHRAFF
 62
     0
100
AcDbLine
 10
347.4434715546752
 20
478.2582260741864
 30
0.0
 11
348.4434715546753
 21
479.2582260741865
 31
0.0
  0
LINE
  5
1BC7
330
1BAF
100
AcDbEntity
  8
SCHRAFF
 62
     0
100
AcDbLine
 10
347.4434715546752
 20
481.7937599801191
 30
0.0
 11
348.4434715546754
 21
482.7937599801193
 31
0.0
  0
LINE
  5
1BC8
330
1BAF
100
AcDbEntity
  8
SCHRAFF
 62
     0
100
AcDbLine
 10
347.4434715546752
 20
485.3292938860518
 30
0.0
 11
348.4434715546753
 21
486.3292938860519
 31
0.0
  0
LINE
  5
1BC9
330
1BAF
100
AcDbEntity
  8
SCHRAFF
 62
     0
100
AcDbLine
 10
347.134722790467
 20
488.5560790277764
 30
0.0
 11
347.9000599673662
 21
489.3214162046756
 31
0.0
  0
LINE
  5
1BCA
330
1BAF
100
AcDbEntity
  8
SCHRAFF
 62
     0
100
AcDbLine
 10
345.6802999902652
 20
490.6371901335074
 30
0.0
 11
346.3893568229029
 21
491.346246966145
 31
0.0
  0
LINE
  5
1BCB
330
1BAF
100
AcDbEntity
  8
SCHRAFF
 62
     0
100
AcDbLine
 10
343.5038385442753
 20
491.9962625934501
 30
0.0
 11
344.2350129235403
 21
492.7274369727151
 31
0.0
  0
LINE
  5
1BCC
330
1BAF
100
AcDbEntity
  8
SCHRAFF
 62
     0
100
AcDbLine
 10
341.2708690790599
 20
493.2988270341675
 30
0.0
 11
342.0020441408459
 21
494.0300020959535
 31
0.0
  0
LINE
  5
1BCD
330
1BAF
100
AcDbEntity
  8
SCHRAFF
 62
     0
100
AcDbLine
 10
339.0378996138445
 20
494.6013914748848
 30
0.0
 11
339.7690753581515
 21
495.3325672191919
 31
0.0
  0
LINE
  5
1BCE
330
1BAF
100
AcDbEntity
  8
SCHRAFF
 62
     0
100
AcDbLine
 10
336.8049301486292
 20
495.9039559156023
 30
0.0
 11
337.5361065754571
 21
496.6351323424302
 31
0.0
  0
LINE
  5
1BCF
330
1BAF
100
AcDbEntity
  8
SCHRAFF
 62
     0
100
AcDbLine
 10
334.5719606834137
 20
497.2065203563196
 30
0.0
 11
335.3031377927628
 21
497.9376974656686
 31
0.0
  0
LINE
  5
1BD0
330
1BAF
100
AcDbEntity
  8
SCHRAFF
 62
     0
100
AcDbLine
 10
332.3389912181984
 20
498.5090847970369
 30
0.0
 11
333.0701690100684
 21
499.2402625889069
 31
0.0
  0
LINE
  5
1BD1
330
1BAF
100
AcDbEntity
  8
SCHRAFF
 62
     0
100
AcDbLine
 10
330.106021752983
 20
499.8116492377543
 30
0.0
 11
330.8372002273739
 21
500.5428277121452
 31
0.0
  0
LINE
  5
1BD2
330
1BAF
100
AcDbEntity
  8
SCHRAFF
 62
     0
100
AcDbLine
 10
327.8730522877676
 20
501.1142136784717
 30
0.0
 11
328.6042314446796
 21
501.8453928353836
 31
0.0
  0
LINE
  5
1BD3
330
1BAF
100
AcDbEntity
  8
SCHRAFF
 62
     0
100
AcDbLine
 10
325.6400828225523
 20
502.4167781191891
 30
0.0
 11
326.3712626619851
 21
503.1479579586219
 31
0.0
  0
LINE
  5
1BD4
330
1BAF
100
AcDbEntity
  8
SCHRAFF
 62
     0
100
AcDbLine
 10
323.4071133573369
 20
503.7193425599063
 30
0.0
 11
324.1382938792908
 21
504.4505230818602
 31
0.0
  0
LINE
  5
1BD5
330
1BAF
100
AcDbEntity
  8
SCHRAFF
 62
     0
100
AcDbLine
 10
321.1741438921215
 20
505.0219070006238
 30
0.0
 11
321.9053250965964
 21
505.7530882050986
 31
0.0
  0
LINE
  5
1BD6
330
1BAF
100
AcDbEntity
  8
SCHRAFF
 62
     0
100
AcDbLine
 10
318.4430533340785
 20
505.8263503485135
 30
0.0
 11
319.3709372254464
 21
506.7542342398814
 31
0.0
  0
LINE
  5
1BD7
330
1BAF
100
AcDbEntity
  8
SCHRAFF
 62
     0
100
AcDbLine
 10
314.9075194281457
 20
505.8263503485135
 30
0.0
 11
315.9075194281458
 21
506.8263503485135
 31
0.0
  0
LINE
  5
1BD8
330
1BAF
100
AcDbEntity
  8
SCHRAFF
 62
     0
100
AcDbLine
 10
311.3719855222129
 20
505.8263503485134
 30
0.0
 11
312.371985522213
 21
506.8263503485134
 31
0.0
  0
LINE
  5
1BD9
330
1BAF
100
AcDbEntity
  8
SCHRAFF
 62
     0
100
AcDbLine
 10
307.8364516162803
 20
505.8263503485135
 30
0.0
 11
308.8364516162803
 21
506.8263503485135
 31
0.0
  0
LINE
  5
1BDA
330
1BAF
100
AcDbEntity
  8
SCHRAFF
 62
     0
100
AcDbLine
 10
304.3009177103475
 20
505.8263503485134
 30
0.0
 11
305.3009177103476
 21
506.8263503485135
 31
0.0
  0
LINE
  5
1BDB
330
1BAF
100
AcDbEntity
  8
SCHRAFF
 62
     0
100
AcDbLine
 10
300.7653838044147
 20
505.8263503485134
 30
0.0
 11
301.7653838044148
 21
506.8263503485135
 31
0.0
  0
LINE
  5
1BDC
330
1BAF
100
AcDbEntity
  8
SCHRAFF
 62
     0
100
AcDbLine
 10
297.2298498984821
 20
505.8263503485135
 30
0.0
 11
298.229849898482
 21
506.8263503485134
 31
0.0
  0
LINE
  5
1BDD
330
1BAF
100
AcDbEntity
  8
SCHRAFF
 62
     0
100
AcDbLine
 10
293.6943159925493
 20
505.8263503485135
 30
0.0
 11
294.6943159925492
 21
506.8263503485134
 31
0.0
  0
LINE
  5
1BDE
330
1BAF
100
AcDbEntity
  8
SCHRAFF
 62
     0
100
AcDbLine
 10
290.1587820866166
 20
505.8263503485135
 30
0.0
 11
291.1587820866165
 21
506.8263503485134
 31
0.0
  0
LINE
  5
1BDF
330
1BAF
100
AcDbEntity
  8
SCHRAFF
 62
     0
100
AcDbLine
 10
286.6232481806838
 20
505.8263503485135
 30
0.0
 11
287.6232481806838
 21
506.8263503485134
 31
0.0
  0
LINE
  5
1BE0
330
1BAF
100
AcDbEntity
  8
SCHRAFF
 62
     0
100
AcDbLine
 10
283.087714274751
 20
505.8263503485134
 30
0.0
 11
284.087714274751
 21
506.8263503485133
 31
0.0
  0
LINE
  5
1BE1
330
1BAF
100
AcDbEntity
  8
SCHRAFF
 62
     0
100
AcDbLine
 10
279.5521803688183
 20
505.8263503485134
 30
0.0
 11
280.5521803688182
 21
506.8263503485133
 31
0.0
  0
LINE
  5
1BE2
330
1BAF
100
AcDbEntity
  8
SCHRAFF
 62
     0
100
AcDbLine
 10
276.0166464628854
 20
505.8263503485133
 30
0.0
 11
277.0166464628854
 21
506.8263503485133
 31
0.0
  0
LINE
  5
1BE3
330
1BAF
100
AcDbEntity
  8
SCHRAFF
 62
     0
100
AcDbLine
 10
272.4811125569527
 20
505.8263503485132
 30
0.0
 11
273.4811125569528
 21
506.8263503485133
 31
0.0
  0
LINE
  5
1BE4
330
1BAF
100
AcDbEntity
  8
SCHRAFF
 62
     0
100
AcDbLine
 10
268.9455786510199
 20
505.8263503485132
 30
0.0
 11
269.9455786510199
 21
506.8263503485132
 31
0.0
  0
LINE
  5
1BE5
330
1BAF
100
AcDbEntity
  8
SCHRAFF
 62
     0
100
AcDbLine
 10
265.4100447450871
 20
505.8263503485131
 30
0.0
 11
266.4100447450871
 21
506.8263503485131
 31
0.0
  0
LINE
  5
1BE6
330
1BAF
100
AcDbEntity
  8
SCHRAFF
 62
     0
100
AcDbLine
 10
262.378148348801
 20
506.3299878581598
 30
0.0
 11
263.0969535196916
 21
507.0487930290505
 31
0.0
  0
LINE
  5
1BE7
330
1BAF
100
AcDbEntity
  8
SCHRAFF
 62
     0
100
AcDbLine
 10
258.3389769332216
 20
505.8263503485131
 30
0.0
 11
260.8143797273497
 21
508.3017531426412
 31
0.0
  0
LINE
  5
1BE8
330
1BAF
100
AcDbEntity
  8
SCHRAFF
 62
     0
100
AcDbLine
 10
254.8034430272889
 20
505.8263503485131
 30
0.0
 11
255.8034430272889
 21
506.8263503485131
 31
0.0
  0
LINE
  5
1BE9
330
1BAF
100
AcDbEntity
  8
SCHRAFF
 62
     0
100
AcDbLine
 10
251.3601520241003
 20
505.9185932512573
 30
0.0
 11
252.2679091213561
 21
506.8263503485131
 31
0.0
  0
LINE
  5
1BEA
330
1BAF
100
AcDbEntity
  8
SCHRAFF
 62
     0
100
AcDbLine
 10
249.2323687577829
 20
507.3263438908726
 30
0.0
 11
250.0844478730302
 21
508.17842300612
 31
0.0
  0
LINE
  5
1BEB
330
1BAF
100
AcDbEntity
  8
SCHRAFF
 62
     0
100
AcDbLine
 10
247.8295611879414
 20
505.9235363210312
 30
0.0
 11
248.7012322927559
 21
506.7952074258457
 31
0.0
  0
LINE
  5
1BEC
330
1BAF
100
AcDbEntity
  8
SCHRAFF
 62
     0
100
AcDbLine
 10
245.5383647066085
 20
507.167873745631
 30
0.0
 11
246.2456035299072
 21
507.8751125689296
 31
0.0
  0
LINE
  5
1BED
330
1BAF
100
AcDbEntity
  8
SCHRAFF
 62
     0
100
AcDbLine
 10
242.161307403558
 20
507.3263503485132
 30
0.0
 11
243.1613074035579
 21
508.3263503485132
 31
0.0
  0
LINE
  5
1BEE
330
1BAF
100
AcDbEntity
  8
SCHRAFF
 62
     0
100
AcDbLine
 10
238.6257734976253
 20
507.3263503485133
 30
0.0
 11
239.6257734976252
 21
508.3263503485132
 31
0.0
  0
LINE
  5
1BEF
330
1BAF
100
AcDbEntity
  8
SCHRAFF
 62
     0
100
AcDbLine
 10
235.0902395916925
 20
507.3263503485133
 30
0.0
 11
236.0902395916924
 21
508.3263503485131
 31
0.0
  0
LINE
  5
1BF0
330
1BAF
100
AcDbEntity
  8
SCHRAFF
 62
     0
100
AcDbLine
 10
230.0547056857596
 20
505.8263503485131
 30
0.0
 11
231.0547056857596
 21
506.826350348513
 31
0.0
  0
LINE
  5
1BF1
330
1BAF
100
AcDbEntity
  8
SCHRAFF
 62
     0
100
AcDbLine
 10
226.5191717798269
 20
505.8263503485131
 30
0.0
 11
227.5191717798269
 21
506.8263503485131
 31
0.0
  0
LINE
  5
1BF2
330
1BAF
100
AcDbEntity
  8
SCHRAFF
 62
     0
100
AcDbLine
 10
224.0120147524782
 20
506.854727227097
 30
0.0
 11
224.7338345013162
 21
507.5765469759351
 31
0.0
  0
LINE
  5
1BF3
330
1BAF
100
AcDbEntity
  8
SCHRAFF
 62
     0
100
AcDbLine
 10
219.4481039679614
 20
505.8263503485131
 30
0.0
 11
220.4481039679615
 21
506.8263503485131
 31
0.0
  0
LINE
  5
1BF4
330
1BAF
100
AcDbEntity
  8
SCHRAFF
 62
     0
100
AcDbLine
 10
216.729447032566
 20
506.6432273190504
 30
0.0
 11
217.4378475504856
 21
507.35162783697
 31
0.0
  0
LINE
  5
1BF5
330
1BAF
100
AcDbEntity
  8
SCHRAFF
 62
     0
100
AcDbLine
 10
128.3333250397648
 20
421.7826392321819
 30
0.0
 11
129.4434715546751
 21
422.8927857470923
 31
0.0
  0
LINE
  5
1BF6
330
1BAF
100
AcDbEntity
  8
SCHRAFF
 62
     0
100
AcDbLine
 10
212.3770361560959
 20
505.826350348513
 30
0.0
 11
213.3918048127884
 21
506.8411190052055
 31
0.0
  0
LINE
  5
1BF7
330
1BAF
100
AcDbEntity
  8
SCHRAFF
 62
     0
100
AcDbLine
 10
123.3770361560964
 20
416.8263503485134
 30
0.0
 11
124.4871826710069
 21
417.936496863424
 31
0.0
  0
LINE
  5
1BF8
330
1BAF
100
AcDbEntity
  8
SCHRAFF
 62
     0
100
AcDbLine
 10
128.4434715546751
 20
425.4283196530249
 30
0.0
 11
129.4434715546752
 21
426.4283196530251
 31
0.0
  0
LINE
  5
1BF9
330
1BAF
100
AcDbEntity
  8
SCHRAFF
 62
     0
100
AcDbLine
 10
208.8415022501631
 20
505.826350348513
 30
0.0
 11
209.8415022501631
 21
506.8263503485129
 31
0.0
  0
LINE
  5
1BFA
330
1BAF
100
AcDbEntity
  8
SCHRAFF
 62
     0
100
AcDbLine
 10
119.8415022501636
 20
416.8263503485134
 30
0.0
 11
120.8415022501639
 21
417.8263503485139
 31
0.0
  0
LINE
  5
1BFB
330
1BAF
100
AcDbEntity
  8
SCHRAFF
 62
     0
100
AcDbLine
 10
128.4434715546751
 20
428.9638535589577
 30
0.0
 11
129.4434715546751
 21
429.9638535589578
 31
0.0
  0
LINE
  5
1BFC
330
1BAF
100
AcDbEntity
  8
SCHRAFF
 62
     0
100
AcDbLine
 10
205.3059683442304
 20
505.826350348513
 30
0.0
 11
206.3059683442304
 21
506.826350348513
 31
0.0
  0
LINE
  5
1BFD
330
1BAF
100
AcDbEntity
  8
SCHRAFF
 62
     0
100
AcDbLine
 10
116.3059683442309
 20
416.8263503485134
 30
0.0
 11
117.3059683442311
 21
417.8263503485138
 31
0.0
  0
LINE
  5
1BFE
330
1BAF
100
AcDbEntity
  8
SCHRAFF
 62
     0
100
AcDbLine
 10
128.4434715546751
 20
432.4993874648904
 30
0.0
 11
129.4434715546752
 21
433.4993874648906
 31
0.0
  0
LINE
  5
1BFF
330
1BAF
100
AcDbEntity
  8
SCHRAFF
 62
     0
100
AcDbLine
 10
201.7704344382976
 20
505.8263503485129
 30
0.0
 11
202.7704344382977
 21
506.826350348513
 31
0.0
  0
LINE
  5
1C00
330
1BAF
100
AcDbEntity
  8
SCHRAFF
 62
     0
100
AcDbLine
 10
112.7704344382981
 20
416.8263503485134
 30
0.0
 11
113.7704344382982
 21
417.8263503485136
 31
0.0
  0
LINE
  5
1C01
330
1BAF
100
AcDbEntity
  8
SCHRAFF
 62
     0
100
AcDbLine
 10
128.443471554675
 20
436.0349213708231
 30
0.0
 11
129.4434715546751
 21
437.0349213708232
 31
0.0
  0
LINE
  5
1C02
330
1BAF
100
AcDbEntity
  8
SCHRAFF
 62
     0
100
AcDbLine
 10
198.2349005323648
 20
505.8263503485129
 30
0.0
 11
199.2349005323649
 21
506.8263503485129
 31
0.0
  0
LINE
  5
1C03
330
1BAF
100
AcDbEntity
  8
SCHRAFF
 62
     0
100
AcDbLine
 10
109.2349005323653
 20
416.8263503485134
 30
0.0
 11
110.2349005323655
 21
417.8263503485135
 31
0.0
  0
LINE
  5
1C04
330
1BAF
100
AcDbEntity
  8
SCHRAFF
 62
     0
100
AcDbLine
 10
194.6993666264321
 20
505.8263503485129
 30
0.0
 11
195.6993666264321
 21
506.8263503485129
 31
0.0
  0
LINE
  5
1C05
330
1BAF
100
AcDbEntity
  8
SCHRAFF
 62
     0
100
AcDbLine
 10
128.4434715546751
 20
439.5704552767559
 30
0.0
 11
129.4434715546752
 21
440.570455276756
 31
0.0
  0
LINE
  5
1C06
330
1BAF
100
AcDbEntity
  8
SCHRAFF
 62
     0
100
AcDbLine
 10
191.1638327204993
 20
505.8263503485129
 30
0.0
 11
192.1638327204993
 21
506.8263503485129
 31
0.0
  0
LINE
  5
1C07
330
1BAF
100
AcDbEntity
  8
SCHRAFF
 62
     0
100
AcDbLine
 10
128.4434715546751
 20
443.1059891826887
 30
0.0
 11
129.4434715546751
 21
444.1059891826887
 31
0.0
  0
LINE
  5
1C08
330
1BAF
100
AcDbEntity
  8
SCHRAFF
 62
     0
100
AcDbLine
 10
187.6282988145666
 20
505.8263503485129
 30
0.0
 11
188.6282988145666
 21
506.8263503485129
 31
0.0
  0
LINE
  5
1C09
330
1BAF
100
AcDbEntity
  8
SCHRAFF
 62
     0
100
AcDbLine
 10
128.4434715546751
 20
446.6415230886213
 30
0.0
 11
129.4434715546752
 21
447.6415230886215
 31
0.0
  0
LINE
  5
1C0A
330
1BAF
100
AcDbEntity
  8
SCHRAFF
 62
     0
100
AcDbLine
 10
184.0927649086338
 20
505.8263503485129
 30
0.0
 11
185.0927649086338
 21
506.8263503485128
 31
0.0
  0
LINE
  5
1C0B
330
1BAF
100
AcDbEntity
  8
SCHRAFF
 62
     0
100
AcDbLine
 10
128.4434715546751
 20
450.1770569945541
 30
0.0
 11
129.4434715546751
 21
451.1770569945542
 31
0.0
  0
LINE
  5
1C0C
330
1BAF
100
AcDbEntity
  8
SCHRAFF
 62
     0
100
AcDbLine
 10
180.557231002701
 20
505.8263503485128
 30
0.0
 11
181.5572310027011
 21
506.8263503485129
 31
0.0
  0
LINE
  5
1C0D
330
1BAF
100
AcDbEntity
  8
SCHRAFF
 62
     0
100
AcDbLine
 10
128.4434715546751
 20
453.7125909004869
 30
0.0
 11
129.4434715546752
 21
454.712590900487
 31
0.0
  0
LINE
  5
1C0E
330
1BAF
100
AcDbEntity
  8
SCHRAFF
 62
     0
100
AcDbLine
 10
177.0216970967683
 20
505.8263503485129
 30
0.0
 11
178.0216970967683
 21
506.8263503485129
 31
0.0
  0
LINE
  5
1C0F
330
1BAF
100
AcDbEntity
  8
SCHRAFF
 62
     0
100
AcDbLine
 10
128.4434715546751
 20
457.2481248064197
 30
0.0
 11
129.4434715546751
 21
458.2481248064197
 31
0.0
  0
LINE
  5
1C10
330
1BAF
100
AcDbEntity
  8
SCHRAFF
 62
     0
100
AcDbLine
 10
173.4861631908356
 20
505.8263503485128
 30
0.0
 11
174.4861631908355
 21
506.8263503485128
 31
0.0
  0
LINE
  5
1C11
330
1BAF
100
AcDbEntity
  8
SCHRAFF
 62
     0
100
AcDbLine
 10
128.4434715546751
 20
460.7836587123523
 30
0.0
 11
129.4434715546752
 21
461.7836587123524
 31
0.0
  0
LINE
  5
1C12
330
1BAF
100
AcDbEntity
  8
SCHRAFF
 62
     0
100
AcDbLine
 10
169.9506292849028
 20
505.8263503485128
 30
0.0
 11
170.9506292849028
 21
506.8263503485128
 31
0.0
  0
LINE
  5
1C13
330
1BAF
100
AcDbEntity
  8
SCHRAFF
 62
     0
100
AcDbLine
 10
128.4434715546751
 20
464.3191926182851
 30
0.0
 11
129.4434715546751
 21
465.3191926182851
 31
0.0
  0
LINE
  5
1C14
330
1BAF
100
AcDbEntity
  8
SCHRAFF
 62
     0
100
AcDbLine
 10
166.4150953789701
 20
505.8263503485128
 30
0.0
 11
167.41509537897
 21
506.8263503485128
 31
0.0
  0
LINE
  5
1C15
330
1BAF
100
AcDbEntity
  8
SCHRAFF
 62
     0
100
AcDbLine
 10
128.4434715546751
 20
467.8547265242178
 30
0.0
 11
129.4434715546752
 21
468.854726524218
 31
0.0
  0
LINE
  5
1C16
330
1BAF
100
AcDbEntity
  8
SCHRAFF
 62
     0
100
AcDbLine
 10
162.8795614730373
 20
505.8263503485128
 30
0.0
 11
163.8795614730373
 21
506.8263503485128
 31
0.0
  0
LINE
  5
1C17
330
1BAF
100
AcDbEntity
  8
SCHRAFF
 62
     0
100
AcDbLine
 10
128.4434715546751
 20
471.3902604301506
 30
0.0
 11
129.4434715546751
 21
472.3902604301507
 31
0.0
  0
LINE
  5
1C18
330
1BAF
100
AcDbEntity
  8
SCHRAFF
 62
     0
100
AcDbLine
 10
159.3440275671045
 20
505.8263503485128
 30
0.0
 11
160.3440275671046
 21
506.8263503485128
 31
0.0
  0
LINE
  5
1C19
330
1BAF
100
AcDbEntity
  8
SCHRAFF
 62
     0
100
AcDbLine
 10
128.4434715546751
 20
474.9257943360833
 30
0.0
 11
129.4434715546752
 21
475.9257943360834
 31
0.0
  0
LINE
  5
1C1A
330
1BAF
100
AcDbEntity
  8
SCHRAFF
 62
     0
100
AcDbLine
 10
154.0118038234536
 20
504.0296605107946
 30
0.0
 11
156.4771385012588
 21
506.4949951885997
 31
0.0
  0
LINE
  5
1C1B
330
1BAF
100
AcDbEntity
  8
SCHRAFF
 62
     0
100
AcDbLine
 10
128.4434715546751
 20
478.461328242016
 30
0.0
 11
129.4434715546751
 21
479.4613282420161
 31
0.0
  0
LINE
  5
1C1C
330
1BAF
100
AcDbEntity
  8
SCHRAFF
 62
     0
100
AcDbLine
 10
145.5265323048042
 20
499.0799228980779
 30
0.0
 11
148.3050090505245
 21
501.8583996437982
 31
0.0
  0
LINE
  5
1C1D
330
1BAF
100
AcDbEntity
  8
SCHRAFF
 62
     0
100
AcDbLine
 10
128.4434715546751
 20
481.9968621479487
 30
0.0
 11
129.4434715546752
 21
482.9968621479489
 31
0.0
  0
LINE
  5
1C1E
330
1BAF
100
AcDbEntity
  8
SCHRAFF
 62
     0
100
AcDbLine
 10
137.0412607861547
 20
494.1301852853611
 30
0.0
 11
139.8197276762864
 21
496.9086521754929
 31
0.0
  0
LINE
  5
1C1F
330
1BAF
100
AcDbEntity
  8
SCHRAFF
 62
     0
100
AcDbLine
 10
128.4434715546751
 20
485.5323960538815
 30
0.0
 11
129.4434715546752
 21
486.5323960538816
 31
0.0
  0
LINE
  5
1C20
330
1BAF
100
AcDbEntity
  8
SCHRAFF
 62
     0
100
AcDbLine
 10
129.3132705257347
 20
489.9377289308738
 30
0.0
 11
131.3320350049991
 21
491.9564934101382
 31
0.0
  0
ENDBLK
  5
1C21
330
1BAF
100
AcDbEntity
  8
0
100
AcDbBlockEnd
  0
BLOCK
  5
1ED2
330
1EC8
100
AcDbEntity
  8
0
100
AcDbBlockBegin
  2
*D2
 70
     1
 10
0.0
 20
0.0
 30
0.0
  3
*D2
  1

  0
LINE
  5
2209
330
1EC8
100
AcDbEntity
  8
BEM
 62
     0
370
    -2
100
AcDbLine
 10
197.2356792660537
 20
333.8667651608045
 30
0.0
 11
197.2356792660537
 21
219.9379393762783
 31
0.0
  0
LINE
  5
220A
330
1EC8
100
AcDbEntity
  8
BEM
 62
     0
370
    -2
100
AcDbLine
 10
477.9594382713777
 20
339.5667651608044
 30
0.0
 11
477.9594382713777
 21
219.9379393762783
 31
0.0
  0
LINE
  5
220B
330
1EC8
100
AcDbEntity
  8
BEM
 62
     0
370
    -2
100
AcDbLine
 10
204.2356792660537
 20
221.9379393762783
 30
0.0
 11
470.9594382713777
 21
221.9379393762783
 31
0.0
  0
SOLID
  5
220C
330
1EC8
100
AcDbEntity
  8
BEM
 62
     0
100
AcDbTrace
 10
204.2356792660537
 20
223.104606042945
 30
0.0
 11
204.2356792660537
 21
220.7712727096117
 31
0.0
 12
197.2356792660537
 22
221.9379393762783
 32
0.0
 13
197.2356792660537
 23
221.9379393762783
 33
0.0
  0
SOLID
  5
220D
330
1EC8
100
AcDbEntity
  8
BEM
 62
     0
100
AcDbTrace
 10
470.9594382713777
 20
223.104606042945
 30
0.0
 11
470.9594382713777
 21
220.7712727096117
 31
0.0
 12
477.9594382713777
 22
221.9379393762783
 32
0.0
 13
477.9594382713777
 23
221.9379393762783
 33
0.0
  0
MTEXT
  5
220E
330
1EC8
100
AcDbEntity
  8
BEM
 62
     1
100
AcDbMText
 10
337.5975587687157
 20
228.4379393762783
 30
0.0
 40
7.0
 41
0.0
 71
     5
 72
     1
  1
\A1;280
  7
GREEKS
 73
     1
 44
1.0
  0
POINT
  5
220F
330
1EC8
100
AcDbEntity
  8
DEFPOINTS
 62
     0
100
AcDbPoint
 10
197.2356792660537
 20
335.8667651608045
 30
0.0
  0
POINT
  5
2210
330
1EC8
100
AcDbEntity
  8
DEFPOINTS
 62
     0
100
AcDbPoint
 10
477.9594382713777
 20
341.5667651608044
 30
0.0
  0
POINT
  5
2211
330
1EC8
100
AcDbEntity
  8
DEFPOINTS
 62
     0
100
AcDbPoint
 10
477.9594382713777
 20
221.9379393762783
 30
0.0
  0
ENDBLK
  5
1ED3
330
1EC8
100
AcDbEntity
  8
0
100
AcDbBlockEnd
  0
BLOCK
  5
1EDE
330
1ED4
100
AcDbEntity
  8
0
100
AcDbBlockBegin
  2
*D3
 70
     1
 10
0.0
 20
0.0
 30
0.0
  3
*D3
  1

  0
LINE
  5
2212
330
1ED4
100
AcDbEntity
  8
BEM
 62
     0
370
    -2
100
AcDbLine
 10
276.2356792660537
 20
280.8667651608045
 30
0.0
 11
163.7565359771792
 21
280.8667651608045
 31
0.0
  0
LINE
  5
2213
330
1ED4
100
AcDbEntity
  8
BEM
 62
     0
370
    -2
100
AcDbLine
 10
195.2356792660537
 20
335.8667651608045
 30
0.0
 11
163.7565359771793
 21
335.8667651608045
 31
0.0
  0
LINE
  5
2214
330
1ED4
100
AcDbEntity
  8
BEM
 62
     0
370
    -2
100
AcDbLine
 10
165.7565359771792
 20
287.8667651608045
 30
0.0
 11
165.7565359771792
 21
328.8667651608045
 31
0.0
  0
SOLID
  5
2215
330
1ED4
100
AcDbEntity
  8
BEM
 62
     0
100
AcDbTrace
 10
164.5898693105126
 20
287.8667651608045
 30
0.0
 11
166.9232026438459
 21
287.8667651608045
 31
0.0
 12
165.7565359771792
 22
280.8667651608045
 32
0.0
 13
165.7565359771792
 23
280.8667651608045
 33
0.0
  0
SOLID
  5
2216
330
1ED4
100
AcDbEntity
  8
BEM
 62
     0
100
AcDbTrace
 10
164.5898693105126
 20
328.8667651608045
 30
0.0
 11
166.9232026438459
 21
328.8667651608045
 31
0.0
 12
165.7565359771792
 22
335.8667651608045
 32
0.0
 13
165.7565359771792
 23
335.8667651608045
 33
0.0
  0
MTEXT
  5
2217
330
1ED4
100
AcDbEntity
  8
BEM
 62
     1
100
AcDbMText
 10
159.2565359771792
 20
308.3667651608046
 30
0.0
 40
7.0
 41
0.0
 71
     5
 72
     1
  1
\A1;55
  7
GREEKS
 11
0.0000000000000001
 21
1.0
 31
0.0
 73
     1
 44
1.0
  0
POINT
  5
2218
330
1ED4
100
AcDbEntity
  8
DEFPOINTS
 62
     0
100
AcDbPoint
 10
278.2356792660537
 20
280.8667651608045
 30
0.0
  0
POINT
  5
2219
330
1ED4
100
AcDbEntity
  8
DEFPOINTS
 62
     0
100
AcDbPoint
 10
197.2356792660537
 20
335.8667651608045
 30
0.0
  0
POINT
  5
221A
330
1ED4
100
AcDbEntity
  8
DEFPOINTS
 62
     0
100
AcDbPoint
 10
165.7565359771792
 20
335.8667651608045
 30
0.0
  0
ENDBLK
  5
1EDF
330
1ED4
100
AcDbEntity
  8
0
100
AcDbBlockEnd
  0
BLOCK
  5
1EEC
330
1EE0
100
AcDbEntity
  8
0
100
AcDbBlockBegin
  2
*D4
 70
     1
 10
0.0
 20
0.0
 30
0.0
  3
*D4
  1

  0
LINE
  5
221B
330
1EE0
100
AcDbEntity
  8
BEM
 62
     0
370
    -2
100
AcDbLine
 10
195.2356792660537
 20
335.8667651608045
 30
0.0
 11
163.7565359771793
 21
335.8667651608045
 31
0.0
  0
LINE
  5
221C
330
1EE0
100
AcDbEntity
  8
BEM
 62
     0
370
    -2
100
AcDbLine
 10
195.2356792660537
 20
338.8667651608045
 30
0.0
 11
163.7565359771793
 21
338.8667651608045
 31
0.0
  0
LINE
  5
221D
330
1EE0
100
AcDbEntity
  8
BEM
 62
     0
370
    -2
100
AcDbLine
 10
165.7565359771792
 20
328.8667651608045
 30
0.0
 11
165.7565359771792
 21
321.8667651608045
 31
0.0
  0
LINE
  5
221E
330
1EE0
100
AcDbEntity
  8
BEM
 62
     0
370
    -2
100
AcDbLine
 10
165.7565359771792
 20
345.8667651608045
 30
0.0
 11
165.7565359771792
 21
362.6000984941379
 31
0.0
  0
LINE
  5
221F
330
1EE0
100
AcDbEntity
  8
BEM
 62
     0
370
    -2
100
AcDbLine
 10
165.7565359771792
 20
335.8667651608045
 30
0.0
 11
165.7565359771792
 21
338.8667651608045
 31
0.0
  0
SOLID
  5
2220
330
1EE0
100
AcDbEntity
  8
BEM
 62
     0
100
AcDbTrace
 10
164.5898693105126
 20
328.8667651608045
 30
0.0
 11
166.9232026438459
 21
328.8667651608045
 31
0.0
 12
165.7565359771792
 22
335.8667651608045
 32
0.0
 13
165.7565359771792
 23
335.8667651608045
 33
0.0
  0
SOLID
  5
2221
330
1EE0
100
AcDbEntity
  8
BEM
 62
     0
100
AcDbTrace
 10
164.5898693105126
 20
345.8667651608045
 30
0.0
 11
166.9232026438459
 21
345.8667651608045
 31
0.0
 12
165.7565359771792
 22
338.8667651608045
 32
0.0
 13
165.7565359771792
 23
338.8667651608045
 33
0.0
  0
MTEXT
  5
2222
330
1EE0
100
AcDbEntity
  8
BEM
 62
     1
100
AcDbMText
 10
159.2565359771792
 20
357.7334318274712
 30
0.0
 40
7.0
 41
0.0
 71
     5
 72
     1
  1
\A1;3
  7
GREEKS
 11
0.0000000000000001
 21
1.0
 31
0.0
 73
     1
 44
1.0
  0
POINT
  5
2223
330
1EE0
100
AcDbEntity
  8
DEFPOINTS
 62
     0
100
AcDbPoint
 10
197.2356792660537
 20
335.8667651608045
 30
0.0
  0
POINT
  5
2224
330
1EE0
100
AcDbEntity
  8
DEFPOINTS
 62
     0
100
AcDbPoint
 10
197.2356792660537
 20
338.8667651608045
 30
0.0
  0
POINT
  5
2225
330
1EE0
100
AcDbEntity
  8
DEFPOINTS
 62
     0
100
AcDbPoint
 10
165.7565359771792
 20
338.8667651608045
 30
0.0
  0
ENDBLK
  5
1EED
330
1EE0
100
AcDbEntity
  8
0
100
AcDbBlockEnd
  0
BLOCK
  5
1EF8
330
1EEE
100
AcDbEntity
  8
0
100
AcDbBlockBegin
  2
*D5
 70
     1
 10
0.0
 20
0.0
 30
0.0
  3
*D5
  1

  0
LINE
  5
2226
330
1EEE
100
AcDbEntity
  8
BEM
 62
     0
370
    -2
100
AcDbLine
 10
203.2356792660537
 20
344.3667651608045
 30
0.0
 11
177.7859188214238
 21
344.3667651608045
 31
0.0
  0
LINE
  5
2227
330
1EEE
100
AcDbEntity
  8
BEM
 62
     0
370
    -2
100
AcDbLine
 10
250.2356792660539
 20
455.3667651608064
 30
0.0
 11
177.7859188214238
 21
455.3667651608064
 31
0.0
  0
LINE
  5
2228
330
1EEE
100
AcDbEntity
  8
BEM
 62
     0
370
    -2
100
AcDbLine
 10
179.7859188214238
 20
351.3667651608045
 30
0.0
 11
179.7859188214238
 21
448.3667651608064
 31
0.0
  0
SOLID
  5
2229
330
1EEE
100
AcDbEntity
  8
BEM
 62
     0
100
AcDbTrace
 10
178.6192521547571
 20
351.3667651608045
 30
0.0
 11
180.9525854880904
 21
351.3667651608045
 31
0.0
 12
179.7859188214238
 22
344.3667651608045
 32
0.0
 13
179.7859188214238
 23
344.3667651608045
 33
0.0
  0
SOLID
  5
222A
330
1EEE
100
AcDbEntity
  8
BEM
 62
     0
100
AcDbTrace
 10
178.6192521547571
 20
448.3667651608064
 30
0.0
 11
180.9525854880904
 21
448.3667651608064
 31
0.0
 12
179.7859188214238
 22
455.3667651608064
 32
0.0
 13
179.7859188214238
 23
455.3667651608064
 33
0.0
  0
MTEXT
  5
222B
330
1EEE
100
AcDbEntity
  8
BEM
 62
     1
100
AcDbMText
 10
173.2859188214237
 20
399.8667651608055
 30
0.0
 40
7.0
 41
0.0
 71
     5
 72
     1
  1
\A1;110
  7
GREEKS
 11
0.0000000000000001
 21
1.0
 31
0.0
 73
     1
 44
1.0
  0
POINT
  5
222C
330
1EEE
100
AcDbEntity
  8
DEFPOINTS
 62
     0
100
AcDbPoint
 10
205.2356792660537
 20
344.3667651608045
 30
0.0
  0
POINT
  5
222D
330
1EEE
100
AcDbEntity
  8
DEFPOINTS
 62
     0
100
AcDbPoint
 10
252.2356792660539
 20
455.3667651608064
 30
0.0
  0
POINT
  5
222E
330
1EEE
100
AcDbEntity
  8
DEFPOINTS
 62
     0
100
AcDbPoint
 10
179.7859188214238
 20
455.3667651608064
 30
0.0
  0
ENDBLK
  5
1EF9
330
1EEE
100
AcDbEntity
  8
0
100
AcDbBlockEnd
  0
BLOCK
  5
1F04
330
1EFA
100
AcDbEntity
  8
0
100
AcDbBlockBegin
  2
*D6
 70
     1
 10
0.0
 20
0.0
 30
0.0
  3
*D6
  1

  0
LINE
  5
222F
330
1EFA
100
AcDbEntity
  8
BEM
 62
     0
370
    -2
100
AcDbLine
 10
222.2356792660538
 20
437.3667071934909
 30
0.0
 11
222.2356792660538
 21
471.7515195054947
 31
0.0
  0
LINE
  5
2230
330
1EFA
100
AcDbEntity
  8
BEM
 62
     0
370
    -2
100
AcDbLine
 10
442.2356792660539
 20
437.36670719349
 30
0.0
 11
442.2356792660539
 21
471.7515195054947
 31
0.0
  0
LINE
  5
2231
330
1EFA
100
AcDbEntity
  8
BEM
 62
     0
370
    -2
100
AcDbLine
 10
229.2356792660537
 20
469.7515195054948
 30
0.0
 11
435.235679266054
 21
469.7515195054948
 31
0.0
  0
SOLID
  5
2232
330
1EFA
100
AcDbEntity
  8
BEM
 62
     0
100
AcDbTrace
 10
229.2356792660537
 20
470.9181861721615
 30
0.0
 11
229.2356792660537
 21
468.5848528388281
 31
0.0
 12
222.2356792660538
 22
469.7515195054948
 32
0.0
 13
222.2356792660538
 23
469.7515195054948
 33
0.0
  0
SOLID
  5
2233
330
1EFA
100
AcDbEntity
  8
BEM
 62
     0
100
AcDbTrace
 10
435.235679266054
 20
470.9181861721615
 30
0.0
 11
435.235679266054
 21
468.5848528388281
 31
0.0
 12
442.2356792660539
 22
469.7515195054948
 32
0.0
 13
442.2356792660539
 23
469.7515195054948
 33
0.0
  0
MTEXT
  5
2234
330
1EFA
100
AcDbEntity
  8
BEM
 62
     1
100
AcDbMText
 10
332.2356792660539
 20
476.2515195054947
 30
0.0
 40
7.0
 41
0.0
 71
     5
 72
     1
  1
\A1;%%c220
  7
GREEKS
 73
     1
 44
1.0
  0
POINT
  5
2235
330
1EFA
100
AcDbEntity
  8
DEFPOINTS
 62
     0
100
AcDbPoint
 10
222.2356792660538
 20
435.366707193491
 30
0.0
  0
POINT
  5
2236
330
1EFA
100
AcDbEntity
  8
DEFPOINTS
 62
     0
100
AcDbPoint
 10
442.2356792660539
 20
435.36670719349
 30
0.0
  0
POINT
  5
2237
330
1EFA
100
AcDbEntity
  8
DEFPOINTS
 62
     0
100
AcDbPoint
 10
442.2356792660539
 20
469.7515195054948
 30
0.0
  0
ENDBLK
  5
1F05
330
1EFA
100
AcDbEntity
  8
0
100
AcDbBlockEnd
  0
BLOCK
  5
1F10
330
1F06
100
AcDbEntity
  8
0
100
AcDbBlockBegin
  2
*D7
 70
     1
 10
0.0
 20
0.0
 30
0.0
  3
*D7
  1

  0
LINE
  5
2238
330
1F06
100
AcDbEntity
  8
BEM
 62
     0
370
    -2
100
AcDbLine
 10
202.2356792660538
 20
368.3667651608069
 30
0.0
 11
202.2356792660538
 21
484.5287260057355
 31
0.0
  0
LINE
  5
2239
330
1F06
100
AcDbEntity
  8
BEM
 62
     0
370
    -2
100
AcDbLine
 10
462.2356792660538
 20
368.3667651608057
 30
0.0
 11
462.2356792660538
 21
484.5287260057355
 31
0.0
  0
LINE
  5
223A
330
1F06
100
AcDbEntity
  8
BEM
 62
     0
370
    -2
100
AcDbLine
 10
209.2356792660538
 20
482.5287260057355
 30
0.0
 11
455.2356792660538
 21
482.5287260057355
 31
0.0
  0
SOLID
  5
223B
330
1F06
100
AcDbEntity
  8
BEM
 62
     0
100
AcDbTrace
 10
209.2356792660538
 20
483.6953926724022
 30
0.0
 11
209.2356792660538
 21
481.3620593390687
 31
0.0
 12
202.2356792660538
 22
482.5287260057355
 32
0.0
 13
202.2356792660538
 23
482.5287260057355
 33
0.0
  0
SOLID
  5
223C
330
1F06
100
AcDbEntity
  8
BEM
 62
     0
100
AcDbTrace
 10
455.2356792660538
 20
483.6953926724022
 30
0.0
 11
455.2356792660538
 21
481.3620593390687
 31
0.0
 12
462.2356792660538
 22
482.5287260057355
 32
0.0
 13
462.2356792660538
 23
482.5287260057355
 33
0.0
  0
MTEXT
  5
223D
330
1F06
100
AcDbEntity
  8
BEM
 62
     1
100
AcDbMText
 10
332.2356792660538
 20
489.0287260057355
 30
0.0
 40
7.0
 41
0.0
 71
     5
 72
     1
  1
\A1;%%c260
  7
GREEKS
 73
     1
 44
1.0
  0
POINT
  5
223E
330
1F06
100
AcDbEntity
  8
DEFPOINTS
 62
     0
100
AcDbPoint
 10
202.2356792660538
 20
366.3667651608069
 30
0.0
  0
POINT
  5
223F
330
1F06
100
AcDbEntity
  8
DEFPOINTS
 62
     0
100
AcDbPoint
 10
462.2356792660538
 20
366.3667651608057
 30
0.0
  0
POINT
  5
2240
330
1F06
100
AcDbEntity
  8
DEFPOINTS
 62
     0
100
AcDbPoint
 10
462.2356792660538
 20
482.5287260057355
 30
0.0
  0
ENDBLK
  5
1F11
330
1F06
100
AcDbEntity
  8
0
100
AcDbBlockEnd
  0
BLOCK
  5
2096
330
208C
100
AcDbEntity
  8
0
100
AcDbBlockBegin
  2
*D8
 70
     1
 10
0.0
 20
0.0
 30
0.0
  3
*D8
  1

  0
LINE
  5
2241
330
208C
100
AcDbEntity
  8
BEM
 62
     0
370
    -2
100
AcDbLine
 10
474.2594382713776
 20
335.8667651608045
 30
0.0
 11
495.6572567824145
 21
335.8667651608045
 31
0.0
  0
LINE
  5
2242
330
208C
100
AcDbEntity
  8
BEM
 62
     0
370
    -2
100
AcDbLine
 10
479.9594382713769
 20
440.8657478552778
 30
0.0
 11
495.6572567824146
 21
440.8657478552778
 31
0.0
  0
LINE
  5
2243
330
208C
100
AcDbEntity
  8
BEM
 62
     0
370
    -2
100
AcDbLine
 10
493.6572567824145
 20
342.8667651608045
 30
0.0
 11
493.6572567824145
 21
433.8657478552778
 31
0.0
  0
SOLID
  5
2244
330
208C
100
AcDbEntity
  8
BEM
 62
     0
100
AcDbTrace
 10
492.4905901157479
 20
342.8667651608045
 30
0.0
 11
494.8239234490812
 21
342.8667651608045
 31
0.0
 12
493.6572567824145
 22
335.8667651608045
 32
0.0
 13
493.6572567824145
 23
335.8667651608045
 33
0.0
  0
SOLID
  5
2245
330
208C
100
AcDbEntity
  8
BEM
 62
     0
100
AcDbTrace
 10
492.4905901157479
 20
433.8657478552778
 30
0.0
 11
494.8239234490812
 21
433.8657478552778
 31
0.0
 12
493.6572567824145
 22
440.8657478552778
 32
0.0
 13
493.6572567824145
 23
440.8657478552778
 33
0.0
  0
MTEXT
  5
2246
330
208C
100
AcDbEntity
  8
BEM
 62
     1
100
AcDbMText
 10
487.1572567824144
 20
388.3662565080412
 30
0.0
 40
7.0
 41
0.0
 71
     5
 72
     1
  1
\A1;105
  7
GREEKS
 11
0.0000000000000001
 21
1.0
 31
0.0
 73
     1
 44
1.0
  0
POINT
  5
2247
330
208C
100
AcDbEntity
  8
DEFPOINTS
 62
     0
100
AcDbPoint
 10
472.2594382713776
 20
335.8667651608045
 30
0.0
  0
POINT
  5
2248
330
208C
100
AcDbEntity
  8
DEFPOINTS
 62
     0
100
AcDbPoint
 10
477.959438271377
 20
440.8657478552778
 30
0.0
  0
POINT
  5
2249
330
208C
100
AcDbEntity
  8
DEFPOINTS
 62
     0
100
AcDbPoint
 10
493.6572567824145
 20
440.8657478552778
 30
0.0
  0
ENDBLK
  5
2097
330
208C
100
AcDbEntity
  8
0
100
AcDbBlockEnd
  0
BLOCK
  5
20BD
330
20BC
100
AcDbEntity
  8
0
100
AcDbBlockBegin
  2
*X9
 70
     1
 10
0.0
 20
0.0
 30
0.0
  3
*X9
  1

  0
LINE
  5
20BE
330
20BC
100
AcDbEntity
  8
0
 62
     0
100
AcDbLine
 10
206.5172291092391
 20
441.4
 30
0.0
 11
209.0645566134967
 21
441.4
 31
0.0
  0
LINE
  5
20BF
330
20BC
100
AcDbEntity
  8
0
 62
     0
100
AcDbLine
 10
206.4576795827597
 20
441.5
 30
0.0
 11
209.0645566134967
 21
441.5
 31
0.0
  0
LINE
  5
20C0
330
20BC
100
AcDbEntity
  8
0
 62
     0
100
AcDbLine
 10
206.4032151673795
 20
441.6
 30
0.0
 11
209.0645566134967
 21
441.6
 31
0.0
  0
LINE
  5
20C1
330
20BC
100
AcDbEntity
  8
0
 62
     0
100
AcDbLine
 10
206.3535293668136
 20
441.7
 30
0.0
 11
209.0645566134967
 21
441.7
 31
0.0
  0
LINE
  5
20C2
330
20BC
100
AcDbEntity
  8
0
 62
     0
100
AcDbLine
 10
206.3083637371371
 20
441.8
 30
0.0
 11
209.0645566134967
 21
441.8
 31
0.0
  0
LINE
  5
20C3
330
20BC
100
AcDbEntity
  8
0
 62
     0
100
AcDbLine
 10
206.2674993006887
 20
441.9
 30
0.0
 11
209.0645566134967
 21
441.9
 31
0.0
  0
LINE
  5
20C4
330
20BC
100
AcDbEntity
  8
0
 62
     0
100
AcDbLine
 10
206.2307499774381
 20
442.0
 30
0.0
 11
209.0645566134967
 21
442.0
 31
0.0
  0
LINE
  5
20C5
330
20BC
100
AcDbEntity
  8
0
 62
     0
100
AcDbLine
 10
206.1979574978186
 20
442.1
 30
0.0
 11
209.0645566134967
 21
442.1
 31
0.0
  0
LINE
  5
20C6
330
20BC
100
AcDbEntity
  8
0
 62
     0
100
AcDbLine
 10
206.1689874242968
 20
442.2
 30
0.0
 11
209.0645566134967
 21
442.2
 31
0.0
  0
LINE
  5
20C7
330
20BC
100
AcDbEntity
  8
0
 62
     0
100
AcDbLine
 10
206.143726017779
 20
442.3
 30
0.0
 11
209.0645566134967
 21
442.3
 31
0.0
  0
LINE
  5
20C8
330
20BC
100
AcDbEntity
  8
0
 62
     0
100
AcDbLine
 10
206.1220777591431
 20
442.4
 30
0.0
 11
209.0645566134967
 21
442.4
 31
0.0
  0
LINE
  5
20C9
330
20BC
100
AcDbEntity
  8
0
 62
     0
100
AcDbLine
 10
206.1039633878483
 20
442.4999999999999
 30
0.0
 11
209.0645566134967
 21
442.4999999999999
 31
0.0
  0
LINE
  5
20CA
330
20BC
100
AcDbEntity
  8
0
 62
     0
100
AcDbLine
 10
206.0893183562823
 20
442.6
 30
0.0
 11
209.0645566134967
 21
442.6
 31
0.0
  0
LINE
  5
20CB
330
20BC
100
AcDbEntity
  8
0
 62
     0
100
AcDbLine
 10
206.0780916251486
 20
442.7
 30
0.0
 11
209.0645566134967
 21
442.7
 31
0.0
  0
LINE
  5
20CC
330
20BC
100
AcDbEntity
  8
0
 62
     0
100
AcDbLine
 10
206.0702447449588
 20
442.7999999999999
 30
0.0
 11
209.0645566134967
 21
442.7999999999999
 31
0.0
  0
LINE
  5
20CD
330
20BC
100
AcDbEntity
  8
0
 62
     0
100
AcDbLine
 10
206.0657511837458
 20
442.9
 30
0.0
 11
209.0645566134967
 21
442.9
 31
0.0
  0
LINE
  5
20CE
330
20BC
100
AcDbEntity
  8
0
 62
     0
100
AcDbLine
 10
206.5822296860938
 20
441.3
 30
0.0
 11
209.0645566134967
 21
441.3
 31
0.0
  0
LINE
  5
20CF
330
20BC
100
AcDbEntity
  8
0
 62
     0
100
AcDbLine
 10
206.6531220746645
 20
441.2
 30
0.0
 11
209.0645566134967
 21
441.2
 31
0.0
  0
LINE
  5
20D0
330
20BC
100
AcDbEntity
  8
0
 62
     0
100
AcDbLine
 10
206.7304430567828
 20
441.1
 30
0.0
 11
209.0645566134967
 21
441.1
 31
0.0
  0
LINE
  5
20D1
330
20BC
100
AcDbEntity
  8
0
 62
     0
100
AcDbLine
 10
206.8148553763991
 20
441.0
 30
0.0
 11
209.0645566134967
 21
441.0
 31
0.0
  0
LINE
  5
20D2
330
20BC
100
AcDbEntity
  8
0
 62
     0
100
AcDbLine
 10
206.9071912719837
 20
440.9
 30
0.0
 11
209.0645566134967
 21
440.9
 31
0.0
  0
LINE
  5
20D3
330
20BC
100
AcDbEntity
  8
0
 62
     0
100
AcDbLine
 10
207.0085180006968
 20
440.8
 30
0.0
 11
209.0645566134967
 21
440.8
 31
0.0
  0
LINE
  5
20D4
330
20BC
100
AcDbEntity
  8
0
 62
     0
100
AcDbLine
 10
207.1202407086378
 20
440.7
 30
0.0
 11
209.0645566134967
 21
440.7
 31
0.0
  0
LINE
  5
20D5
330
20BC
100
AcDbEntity
  8
0
 62
     0
100
AcDbLine
 10
207.2442725976217
 20
440.6
 30
0.0
 11
209.0645566134967
 21
440.6
 31
0.0
  0
LINE
  5
20D6
330
20BC
100
AcDbEntity
  8
0
 62
     0
100
AcDbLine
 10
207.3833357895081
 20
440.5
 30
0.0
 11
209.0645566134967
 21
440.5
 31
0.0
  0
LINE
  5
20D7
330
20BC
100
AcDbEntity
  8
0
 62
     0
100
AcDbLine
 10
207.5415421619645
 20
440.4
 30
0.0
 11
209.0645566134967
 21
440.4
 31
0.0
  0
LINE
  5
20D8
330
20BC
100
AcDbEntity
  8
0
 62
     0
100
AcDbLine
 10
207.7256605831274
 20
440.3
 30
0.0
 11
209.0645566134967
 21
440.3
 31
0.0
  0
LINE
  5
20D9
330
20BC
100
AcDbEntity
  8
0
 62
     0
100
AcDbLine
 10
207.9484418610175
 20
440.2
 30
0.0
 11
209.0645566134967
 21
440.2
 31
0.0
  0
LINE
  5
20DA
330
20BC
100
AcDbEntity
  8
0
 62
     0
100
AcDbLine
 10
208.2406745216507
 20
440.1
 30
0.0
 11
209.0645566134967
 21
440.1
 31
0.0
  0
LINE
  5
20DB
330
20BC
100
AcDbEntity
  8
0
 62
     0
100
AcDbLine
 10
208.7614868825315
 20
440.0
 30
0.0
 11
209.0645566134967
 21
440.0
 31
0.0
  0
ENDBLK
  5
20DC
330
20BC
100
AcDbEntity
  8
0
100
AcDbBlockEnd
  0
BLOCK
  5
21B9
330
21AF
100
AcDbEntity
  8
0
100
AcDbBlockBegin
  2
*D10
 70
     1
 10
0.0
 20
0.0
 30
0.0
  3
*D10
  1

  0
LINE
  5
224A
330
21AF
100
AcDbEntity
  8
BEM
 62
     0
370
    -2
100
AcDbLine
 10
332.2356792660536
 20
494.3770316586063
 30
0.0
 11
332.2356792660536
 21
506.0988322598196
 31
0.0
  0
LINE
  5
224B
330
21AF
100
AcDbEntity
  8
BEM
 62
     0
370
    -2
100
AcDbLine
 10
772.4568559561494
 20
247.0504178502541
 30
0.0
 11
772.4568559561494
 21
506.0988322598196
 31
0.0
  0
LINE
  5
224C
330
21AF
100
AcDbEntity
  8
BEM
 62
     0
370
    -2
100
AcDbLine
 10
339.2356792660536
 20
504.0988322598195
 30
0.0
 11
765.4568559561494
 21
504.0988322598195
 31
0.0
  0
SOLID
  5
224D
330
21AF
100
AcDbEntity
  8
BEM
 62
     0
100
AcDbTrace
 10
339.2356792660536
 20
505.2654989264862
 30
0.0
 11
339.2356792660536
 21
502.9321655931529
 31
0.0
 12
332.2356792660536
 22
504.0988322598195
 32
0.0
 13
332.2356792660536
 23
504.0988322598195
 33
0.0
  0
SOLID
  5
224E
330
21AF
100
AcDbEntity
  8
BEM
 62
     0
100
AcDbTrace
 10
765.4568559561494
 20
505.2654989264862
 30
0.0
 11
765.4568559561494
 21
502.9321655931529
 31
0.0
 12
772.4568559561494
 22
504.0988322598195
 32
0.0
 13
772.4568559561494
 23
504.0988322598195
 33
0.0
  0
MTEXT
  5
224F
330
21AF
100
AcDbEntity
  8
BEM
 62
     1
100
AcDbMText
 10
552.3462676111015
 20
510.5988322598196
 30
0.0
 40
7.0
 41
0.0
 71
     5
 72
     1
  1
\A1;800
  7
GREEKS
 73
     1
 44
1.0
  0
POINT
  5
2250
330
21AF
100
AcDbEntity
  8
DEFPOINTS
 62
     0
100
AcDbPoint
 10
332.2356792660536
 20
492.3770316586064
 30
0.0
  0
POINT
  5
2251
330
21AF
100
AcDbEntity
  8
DEFPOINTS
 62
     0
100
AcDbPoint
 10
772.4568559561494
 20
245.0504178502541
 30
0.0
  0
POINT
  5
2252
330
21AF
100
AcDbEntity
  8
DEFPOINTS
 62
     0
100
AcDbPoint
 10
772.4568559561494
 20
504.0988322598195
 30
0.0
  0
ENDBLK
  5
21BA
330
21AF
100
AcDbEntity
  8
0
100
AcDbBlockEnd
  0
BLOCK
  5
21C5
330
21BB
100
AcDbEntity
  8
0
100
AcDbBlockBegin
  2
*D11
 70
     1
 10
0.0
 20
0.0
 30
0.0
  3
*D11
  1

  0
LINE
  5
2253
330
21BB
100
AcDbEntity
  8
BEM
 62
     0
370
    -2
100
AcDbLine
 10
794.9863643309554
 20
245.0504178502541
 30
0.0
 11
816.4696733494517
 21
245.0504178502541
 31
0.0
  0
LINE
  5
2254
330
21BB
100
AcDbEntity
  8
BEM
 62
     0
370
    -2
100
AcDbLine
 10
474.2594382713776
 20
335.8667651608046
 30
0.0
 11
816.4696733494517
 21
335.8667651608045
 31
0.0
  0
LINE
  5
2255
330
21BB
100
AcDbEntity
  8
BEM
 62
     0
370
    -2
100
AcDbLine
 10
814.4696733494516
 20
252.0504178502541
 30
0.0
 11
814.4696733494518
 21
328.8667651608045
 31
0.0
  0
SOLID
  5
2256
330
21BB
100
AcDbEntity
  8
BEM
 62
     0
100
AcDbTrace
 10
813.3030066827851
 20
252.0504178502541
 30
0.0
 11
815.6363400161183
 21
252.0504178502541
 31
0.0
 12
814.4696733494516
 22
245.0504178502541
 32
0.0
 13
814.4696733494516
 23
245.0504178502541
 33
0.0
  0
SOLID
  5
2257
330
21BB
100
AcDbEntity
  8
BEM
 62
     0
100
AcDbTrace
 10
813.3030066827851
 20
328.8667651608045
 30
0.0
 11
815.6363400161184
 21
328.8667651608045
 31
0.0
 12
814.4696733494518
 22
335.8667651608045
 32
0.0
 13
814.4696733494518
 23
335.8667651608045
 33
0.0
  0
MTEXT
  5
2258
330
21BB
100
AcDbEntity
  8
BEM
 62
     1
100
AcDbMText
 10
807.9696733494516
 20
290.4585915055294
 30
0.0
 40
7.0
 41
0.0
 71
     5
 72
     1
  1
\A1;91
  7
GREEKS
 11
0.0000000000000001
 21
1.0
 31
0.0
 73
     1
 44
1.0
  0
POINT
  5
2259
330
21BB
100
AcDbEntity
  8
DEFPOINTS
 62
     0
100
AcDbPoint
 10
792.9863643309554
 20
245.0504178502541
 30
0.0
  0
POINT
  5
225A
330
21BB
100
AcDbEntity
  8
DEFPOINTS
 62
     0
100
AcDbPoint
 10
472.2594382713776
 20
335.8667651608046
 30
0.0
  0
POINT
  5
225B
330
21BB
100
AcDbEntity
  8
DEFPOINTS
 62
     0
100
AcDbPoint
 10
814.4696733494518
 20
335.8667651608045
 30
0.0
  0
ENDBLK
  5
21C6
330
21BB
100
AcDbEntity
  8
0
100
AcDbBlockEnd
  0
BLOCK
  5
21D4
330
21C7
100
AcDbEntity
  8
0
100
AcDbBlockBegin
  2
*D12
 70
     1
 10
0.0
 20
0.0
 30
0.0
  3
*D12
  1

  0
LINE
  5
225C
330
21C7
100
AcDbEntity
  8
BEM
 62
     0
370
    -2
100
AcDbLine
 10
770.4568559561489
 20
245.0504178502541
 30
0.0
 11
724.7798278813973
 21
245.0504178502545
 31
0.0
  0
ARC
  5
225D
330
21C7
100
AcDbEntity
  8
BEM
 62
     0
370
    -2
100
AcDbCircle
 10
772.4568559561488
 20
245.0504178502541
 30
0.0
 40
45.67702807475157
100
AcDbArc
 50
159.369379408687
 51
177.0
  0
LINE
  5
225E
330
21C7
100
AcDbEntity
  8
BEM
 62
     0
370
    -2
100
AcDbLine
 10
729.7090332380478
 20
261.1443467243186
 30
0.0
 11
734.0780722594089
 21
272.7491516787253
 31
0.0
  0
ARC
  5
225F
330
21C7
100
AcDbEntity
  8
BEM
 62
     0
370
    -2
100
AcDbCircle
 10
772.4568559561488
 20
245.0504178502541
 30
0.0
 40
45.67702807475157
100
AcDbArc
 50
159.4216247354097
 51
168.2108123677048
  0
ARC
  5
2260
330
21C7
100
AcDbEntity
  8
BEM
 62
     0
370
    -2
100
AcDbCircle
 10
772.4568559561488
 20
245.0504178502541
 30
0.0
 40
45.67702807475157
100
AcDbArc
 50
188.7891876322946
 51
197.5783752645898
  0
ARC
  5
2261
330
21C7
100
AcDbEntity
  8
BEM
 62
     0
370
    -2
100
AcDbCircle
 10
772.4568559561488
 20
245.0504178502541
 30
0.0
 40
45.67702807475157
100
AcDbArc
 50
177.0
 51
179.9999999999995
  0
SOLID
  5
2262
330
21C7
100
AcDbEntity
  8
BEM
 62
     0
100
AcDbTrace
 10
728.9003047064047
 20
254.2325996029962
 30
0.0
 11
726.5863769817451
 21
254.5329043307251
 31
0.0
 12
726.8424266608881
 22
247.440968792882
 32
0.0
 13
726.8424266608881
 23
247.440968792882
 33
0.0
  0
SOLID
  5
2263
330
21C7
100
AcDbEntity
  8
BEM
 62
     0
100
AcDbTrace
 10
726.1529658814544
 20
237.9816021683924
 30
0.0
 11
728.4794391836769
 21
238.1603937187819
 31
0.0
 12
726.7798278813974
 22
245.0504178502545
 32
0.0
 13
726.7798278813974
 23
245.0504178502545
 33
0.0
  0
MTEXT
  5
2264
330
21C7
100
AcDbEntity
  8
BEM
 62
     1
100
AcDbMText
 10
725.8103888613379
 20
269.236971269171
 30
0.0
 40
7.0
 41
0.0
 71
     5
 72
     1
  1
\A1;3°
  7
GREEKS
 11
0.3523418565613838
 21
0.9358713672908674
 31
0.0
 73
     1
 44
1.0
  0
POINT
  5
2265
330
21C7
100
AcDbEntity
  8
DEFPOINTS
 62
     0
100
AcDbPoint
 10
726.7867847140147
 20
245.8475919090621
 30
0.0
  0
POINT
  5
2266
330
21C7
100
AcDbEntity
  8
DEFPOINTS
 62
     0
100
AcDbPoint
 10
774.4568559561493
 20
245.050417850254
 30
0.0
  0
POINT
  5
2267
330
21C7
100
AcDbEntity
  8
DEFPOINTS
 62
     0
100
AcDbPoint
 10
639.4082244474555
 20
252.0232011642723
 30
0.0
  0
POINT
  5
2268
330
21C7
100
AcDbEntity
  8
DEFPOINTS
 62
     0
100
AcDbPoint
 10
777.4500033544945
 20
244.7887380834739
 30
0.0
  0
POINT
  5
2269
330
21C7
100
AcDbEntity
  8
DEFPOINTS
 62
     0
100
AcDbPoint
 10
782.2746561199983
 20
245.0504178502539
 30
0.0
  0
ENDBLK
  5
21D5
330
21C7
100
AcDbEntity
  8
0
100
AcDbBlockEnd
  0
BLOCK
  5
21E0
330
21D6
100
AcDbEntity
  8
0
100
AcDbBlockBegin
  2
*D13
 70
     1
 10
0.0
 20
0.0
 30
0.0
  3
*D13
  1

  0
LINE
  5
227A
330
21D6
100
AcDbEntity
  8
BEM
 62
     0
370
    -2
100
AcDbLine
 10
764.7014122270694
 20
194.382864472646
 30
0.0
 11
792.1799345383261
 21
192.9025315128443
 31
0.0
  0
LINE
  5
227B
330
21D6
100
AcDbEntity
  8
BEM
 62
     0
370
    -2
100
AcDbLine
 10
770.1884422746481
 20
296.23527313963
 30
0.0
 11
797.6669645859049
 21
294.7549401798283
 31
0.0
  0
LINE
  5
227C
330
21D6
100
AcDbEntity
  8
BEM
 62
     0
370
    -2
100
AcDbLine
 10
790.5593909798887
 20
199.9999844767749
 30
0.0
 11
795.2933000036336
 21
287.8726646512788
 31
0.0
  0
SOLID
  5
227D
330
21D6
100
AcDbEntity
  8
BEM
 62
     0
100
AcDbTrace
 10
789.3944136055154
 20
200.0627445620944
 30
0.0
 11
791.7243683542619
 21
199.9372243914554
 31
0.0
 12
790.1828304679718
 22
193.0101202305348
 32
0.0
 13
790.1828304679718
 23
193.0101202305348
 33
0.0
  0
SOLID
  5
227E
330
21D6
100
AcDbEntity
  8
BEM
 62
     0
100
AcDbTrace
 10
794.1283226292604
 20
287.9354247365983
 30
0.0
 11
796.458277378007
 21
287.8099045659594
 31
0.0
 12
795.6698605155507
 22
294.8625288975189
 32
0.0
 13
795.6698605155507
 23
294.8625288975189
 33
0.0
  0
MTEXT
  5
227F
330
21D6
100
AcDbEntity
  8
BEM
 62
     1
100
AcDbMText
 10
786.4357572631099
 20
244.2859878965212
 30
0.0
 40
7.0
 41
0.0
 71
     5
 72
     1
  1
\A1;%%c101.6
  7
GREEKS
 11
0.0537943588452819
 21
0.9985520351771484
 31
0.0
 73
     1
 44
1.0
  0
POINT
  5
2280
330
21D6
100
AcDbEntity
  8
DEFPOINTS
 62
     0
100
AcDbPoint
 10
762.7043081567152
 20
194.4904531903366
 30
0.0
  0
POINT
  5
2281
330
21D6
100
AcDbEntity
  8
DEFPOINTS
 62
     0
100
AcDbPoint
 10
768.191338204294
 20
296.3428618573206
 30
0.0
  0
POINT
  5
2282
330
21D6
100
AcDbEntity
  8
DEFPOINTS
 62
     0
100
AcDbPoint
 10
795.6698605155507
 20
294.8625288975189
 30
0.0
  0
ENDBLK
  5
21E1
330
21D6
100
AcDbEntity
  8
0
100
AcDbBlockEnd
  0
ENDSEC
  0
SECTION
  2
ENTITIES
  0
LINE
  5
2B9
330
1101
100
AcDbEntity
  8
STEMPEL
100
AcDbLine
 10
830.0
 20
109.9999999999999
 30
0.0
 11
470.0
 21
109.9999999999999
 31
0.0
  0
LINE
  5
2BA
330
1101
100
AcDbEntity
  8
STEMPEL
100
AcDbLine
 10
566.0
 20
109.9999999999996
 30
0.0
 11
566.0
 21
10.0
 31
0.0
  0
LINE
  5
2BB
330
1101
100
AcDbEntity
  8
STEMPEL
100
AcDbLine
 10
650.0
 20
109.9999999999999
 30
0.0
 11
650.0
 21
10.0
 31
0.0
  0
LINE
  5
2BC
330
1101
100
AcDbEntity
  8
STEMPEL
100
AcDbLine
 10
752.0
 20
109.9999999999996
 30
0.0
 11
752.0
 21
40.0
 31
0.0
  0
LINE
  5
2BD
330
1101
100
AcDbEntity
  8
STEMPEL
100
AcDbLine
 10
565.9999999999997
 20
30.0
 30
0.0
 11
470.0
 21
30.0
 31
0.0
  0
LINE
  5
2BE
330
1101
100
AcDbEntity
  8
STEMPEL
100
AcDbLine
 10
830.0
 20
40.0
 30
0.0
 11
566.0
 21
40.0
 31
0.0
  0
LINE
  5
2BF
330
1101
100
AcDbEntity
  8
STEMPEL
100
AcDbLine
 10
830.0
 20
80.0
 30
0.0
 11
566.0
 21
79.99999999999977
 31
0.0
  0
LINE
  5
2C0
330
1101
100
AcDbEntity
  8
VOLL
100
AcDbLine
 10
484.0000000000001
 20
109.9999999999999
 30
0.0
 11
484.0
 21
10.0
 31
0.0
  0
LINE
  5
2C1
330
1101
100
AcDbEntity
  8
VOLL
100
AcDbLine
 10
524.0
 20
109.9999999999996
 30
0.0
 11
524.0
 21
10.0
 31
0.0
  0
LINE
  5
2C2
330
1101
100
AcDbEntity
  8
VOLL
100
AcDbLine
 10
544.0
 20
109.9999999999996
 30
0.0
 11
544.0
 21
10.0
 31
0.0
  0
LINE
  5
2C3
330
1101
100
AcDbEntity
  8
VOLL
100
AcDbLine
 10
584.0
 20
79.99999999999977
 30
0.0
 11
584.0
 21
40.0
 31
0.0
  0
LINE
  5
2C4
330
1101
100
AcDbEntity
  8
VOLL
100
AcDbLine
 10
610.0
 20
109.9999999999996
 30
0.0
 11
610.0
 21
40.0
 31
0.0
  0
LINE
  5
2C5
330
1101
100
AcDbEntity
  8
HILF
100
AcDbLine
 10
470.0000000000001
 20
99.99999999999989
 30
0.0
 11
566.0
 21
99.99999999999989
 31
0.0
  0
LINE
  5
2C6
330
1101
100
AcDbEntity
  8
HILF
100
AcDbLine
 10
470.0000000000001
 20
89.99999999999989
 30
0.0
 11
566.0
 21
89.99999999999989
 31
0.0
  0
LINE
  5
2C7
330
1101
100
AcDbEntity
  8
HILF
100
AcDbLine
 10
470.0000000000001
 20
79.99999999999977
 30
0.0
 11
566.0
 21
79.99999999999977
 31
0.0
  0
LINE
  5
2C8
330
1101
100
AcDbEntity
  8
HILF
100
AcDbLine
 10
470.0000000000001
 20
69.99999999999977
 30
0.0
 11
566.0
 21
69.99999999999977
 31
0.0
  0
LINE
  5
2C9
330
1101
100
AcDbEntity
  8
HILF
100
AcDbLine
 10
470.0000000000001
 20
60.0
 30
0.0
 11
566.0
 21
60.0
 31
0.0
  0
LINE
  5
2CA
330
1101
100
AcDbEntity
  8
HILF
100
AcDbLine
 10
470.0000000000001
 20
50.0
 30
0.0
 11
566.0
 21
50.0
 31
0.0
  0
LINE
  5
2CB
330
1101
100
AcDbEntity
  8
HILF
100
AcDbLine
 10
470.0000000000001
 20
40.0
 30
0.0
 11
566.0
 21
40.0
 31
0.0
  0
LINE
  5
2CC
330
1101
100
AcDbEntity
  8
HILF
100
AcDbLine
 10
566.0
 20
69.99999999999977
 30
0.0
 11
650.0
 21
69.99999999999977
 31
0.0
  0
LINE
  5
2CD
330
1101
100
AcDbEntity
  8
HILF
100
AcDbLine
 10
566.0
 20
60.0
 30
0.0
 11
650.0
 21
60.0
 31
0.0
  0
LINE
  5
2CE
330
1101
100
AcDbEntity
  8
HILF
100
AcDbLine
 10
566.0
 20
50.0
 30
0.0
 11
650.0
 21
50.0
 31
0.0
  0
LINE
  5
2CF
330
1101
100
AcDbEntity
  8
HILF
100
AcDbLine
 10
654.7736801096946
 20
84.03758247564121
 30
0.0
 11
744.8353916556309
 21
84.03758247564121
 31
0.0
  0
LINE
  5
2D0
330
1101
100
AcDbEntity
  8
HILF
100
AcDbLine
 10
654.7736801096946
 20
69.99999999999977
 30
0.0
 11
744.8353916556309
 21
69.99999999999977
 31
0.0
  0
LINE
  5
2D1
330
1101
100
AcDbEntity
  8
HILF
100
AcDbLine
 10
654.7736801096946
 20
60.0
 30
0.0
 11
744.8353916556309
 21
60.0
 31
0.0
  0
LINE
  5
2D2
330
1101
100
AcDbEntity
  8
HILF
100
AcDbLine
 10
654.7736801096946
 20
50.0
 30
0.0
 11
744.8353916556309
 21
50.0
 31
0.0
  0
LINE
  5
2D3
330
1101
100
AcDbEntity
  8
VOLL
100
AcDbLine
 10
752.0
 20
60.0
 30
0.0
 11
830.0
 21
60.0
 31
0.0
  0
LINE
  5
2D4
330
1101
100
AcDbEntity
  8
HILF
100
AcDbLine
 10
756.7238616296992
 20
83.77983636955798
 30
0.0
 11
824.8588839326728
 21
83.77983636955798
 31
0.0
  0
LINE
  5
2D5
330
1101
100
AcDbEntity
  8
HILF
100
AcDbLine
 10
653.4909699289885
 20
14.89398258028314
 30
0.0
 11
824.8588839326728
 21
14.89398258028314
 31
0.0
  0
TEXT
  5
2D6
330
1101
100
AcDbEntity
  8
TEXT
100
AcDbText
 10
492.7826069847975
 20
18.67381894984123
 30
0.0
 40
4.0
  1
Änderung
 41
0.8
  7
GREEKS
 72
     1
 11
503.5254641276546
 21
18.67381894984123
 31
0.0
100
AcDbText
  0
TEXT
  5
2D7
330
1101
100
AcDbEntity
  8
TEXT
100
AcDbText
 10
573.5163572150376
 20
102.4620895087085
 30
0.0
 40
5.0
  1
Maßstab
 41
0.8
  7
GREEKS
100
AcDbText
  0
TEXT
  5
2D8
330
1101
100
AcDbEntity
  8
TEXT
100
AcDbText
 10
614.2858954734052
 20
102.4184168434816
 30
0.0
 40
5.0
  1
Zul. Abw.
 41
0.8
  7
GREEKS
100
AcDbText
  0
TEXT
  5
2D9
330
1101
100
AcDbEntity
  8
TEXT
100
AcDbText
 10
654.8779403809009
 20
102.5489328011778
 30
0.0
 40
5.0
  1
Benennung
 41
0.8
  7
GREEKS
100
AcDbText
  0
TEXT
  5
2DA
330
1101
100
AcDbEntity
  8
TEXT
100
AcDbText
 10
756.178754957634
 20
102.3132034537135
 30
0.0
 40
5.0
  1
Zeichnungs Nr.
 41
0.8
  7
GREEKS
100
AcDbText
  0
TEXT
  5
2DB
330
1101
100
AcDbEntity
  8
TEXT
100
AcDbText
 10
654.7422383911359
 20
30.84560570193048
 30
0.0
 40
5.0
  1
Bauvorhaben
 41
0.8
  7
GREEKS
100
AcDbText
  0
TEXT
  5
2DC
330
1101
100
AcDbEntity
  8
TEXT
100
AcDbText
 10
756.7238616296992
 20
73.18118237099952
 30
0.0
 40
5.0
  1
Ersatz für:
 41
0.8
  7
GREEKS
100
AcDbText
  0
TEXT
  5
2DD
330
1101
100
AcDbEntity
  8
TEXT
100
AcDbText
 10
478.2664110704575
 20
13.65465846027177
 30
0.0
 40
4.0
  1
Index
 50
90.0
 41
0.8
  7
GREEKS
100
AcDbText
  0
TEXT
  5
2DE
330
1101
100
AcDbEntity
  8
TEXT
100
AcDbText
 10
530.0571803261054
 20
18.67156269339807
 30
0.0
 40
4.0
  1
Tag
 41
0.8
  7
GREEKS
 72
     1
 11
533.7905136594388
 21
18.67156269339807
 31
0.0
100
AcDbText
  0
TEXT
  5
2DF
330
1101
100
AcDbEntity
  8
TEXT
100
AcDbText
 10
548.6614567187547
 20
18.59324216966411
 30
0.0
 40
4.0
  1
Name
 41
0.8
  7
GREEKS
 72
     1
 11
554.9852662425641
 21
18.59324216966411
 31
0.0
100
AcDbText
  0
TEXT
  5
2E0
330
1101
100
AcDbEntity
  8
TEXT
100
AcDbText
 10
592.3311673153651
 20
73.31880501229921
 30
0.0
 40
4.0
  1
Tag
 41
0.8
  7
GREEKS
100
AcDbText
  0
TEXT
  5
2E1
330
1101
100
AcDbEntity
  8
TEXT
100
AcDbText
 10
622.4626584226293
 20
73.30961091915219
 30
0.0
 40
4.0
  1
Name
 41
0.8
  7
GREEKS
100
AcDbText
  0
TEXT
  5
2E2
330
1101
100
AcDbEntity
  8
TEXT
100
AcDbText
 10
567.5836127167615
 20
63.62990369617955
 30
0.0
 40
4.0
  1
Gez.
 41
0.8
  7
GREEKS
100
AcDbText
  0
TEXT
  5
2E3
330
1101
100
AcDbEntity
  8
TEXT
100
AcDbText
 10
567.5515086571672
 20
53.68926291428374
 30
0.0
 40
4.0
  1
Gepr.
 41
0.8
  7
GREEKS
100
AcDbText
  0
TEXT
  5
2E4
330
1101
100
AcDbEntity
  8
TEXT
100
AcDbText
 10
567.6006777387303
 20
43.5294638964981
 30
0.0
 40
4.0
  1
Norm.
 41
0.8
  7
GREEKS
100
AcDbText
  0
LINE
  5
2E5
330
1101
100
AcDbEntity
  8
STEMPEL
100
AcDbLine
 10
479.9999999999998
 20
10.0
 30
0.0
 11
830.0
 21
10.0
 31
0.0
  0
TEXT
  5
2E6
330
1101
100
AcDbEntity
  8
TEXT
100
AcDbText
 10
757.2400861497006
 20
52.07416177878599
 30
0.0
 40
5.0
  1
ersetzt durch:
 41
0.8
  7
GREEKS
100
AcDbText
  0
LINE
  5
2E7
330
1101
100
AcDbEntity
  8
STEMPEL
100
AcDbLine
 10
830.0
 20
10.0
 30
0.0
 11
39.99999999999997
 21
10.0
 31
0.0
  0
LINE
  5
2E8
330
1101
100
AcDbEntity
  8
STEMPEL
100
AcDbLine
 10
830.0
 20
10.0
 30
0.0
 11
830.0
 21
583.9999999999998
 31
0.0
  0
LINE
  5
2E9
330
1101
100
AcDbEntity
  8
STEMPEL
100
AcDbLine
 10
470.0
 20
10.0
 30
0.0
 11
470.0
 21
109.9999999999999
 31
0.0
  0
LINE
  5
2EA
330
1101
100
AcDbEntity
  8
STEMPEL
100
AcDbLine
 10
830.0
 20
583.9999999999998
 30
0.0
 11
39.99999999999986
 21
583.9999999999998
 31
0.0
  0
LINE
  5
2EB
330
1101
100
AcDbEntity
  8
HILF
100
AcDbLine
 10
839.9999999999998
 20
594.0000000000001
 30
0.0
 11
-0.0000000000002274
 21
593.9999999999996
 31
0.0
  0
LINE
  5
2EC
330
1101
100
AcDbEntity
  8
HILF
100
AcDbLine
 10
840.0
 20
0.0
 30
0.0
 11
0.0
 21
0.0
 31
0.0
  0
LINE
  5
2ED
330
1101
100
AcDbEntity
  8
HILF
100
AcDbLine
 10
31.08767135713847
 20
296.9999999999998
 30
0.0
 11
0.0
 21
296.9999999999998
 31
0.0
  0
TEXT
  5
2EE
330
1101
100
AcDbEntity
  8
TEXT
100
AcDbText
 10
568.6221098221039
 20
73.14025471151649
 30
0.0
 40
4.0
  1
2010
 41
0.8
  7
GREEKS
100
AcDbText
  0
LINE
  5
2EF
330
1101
100
AcDbEntity
  8
HILF
100
AcDbLine
 10
840.0
 20
-0.0000000000002274
 30
0.0
 11
839.9999999999998
 21
593.9999999999998
 31
0.0
  0
TEXT
  5
2F0
330
1101
100
AcDbEntity
  8
VOLL
100
AcDbText
 10
78.07675471698113
 20
31.02594776470585
 30
0.0
 40
1.8
  1

  7
GREEKS
100
AcDbText
  0
TEXT
  5
2F1
330
1101
100
AcDbEntity
  8
TEXT
100
AcDbText
 10
471.8550995097768
 20
111.6719999999997
 30
0.0
 40
5.0
  1
Erstellt mit AUTOCAD 2004
 41
0.8
  7
GREEKS
100
AcDbText
  0
TEXT
  5
2F2
330
1101
100
AcDbEntity
  8
TEXT
100
AcDbText
 10
624.4216048581257
 20
63.0896391972351
 30
0.0
 40
4.0
  1
Koeh
 41
0.8
  7
GREEKS
 72
     1
 11
629.6787477152686
 21
63.0896391972351
 31
0.0
100
AcDbText
  0
TEXT
  5
2F3
330
1101
100
AcDbEntity
  8
TEXT
 62
     1
100
AcDbText
 10
767.8977935463263
 20
88.14901428913946
 30
0.0
 40
7.0
  1
01382100W
 41
0.8
  7
GREEKS
 72
     1
 11
790.8311268796597
 21
88.14901428913946
 31
0.0
100
AcDbText
  0
TEXT
  5
2F4
330
1101
100
AcDbEntity
  8
TEXT
 62
     1
100
AcDbText
 10
580.5006306481886
 20
88.14901428913946
 30
0.0
 40
7.0
  1
1:2
 41
0.8
  7
GREEKS
100
AcDbText
  0
TEXT
  5
2F5
330
1101
100
AcDbEntity
  8
TEXT
100
AcDbText
 10
590.703759012998
 20
63.10765040825732
 30
0.0
 40
4.0
  1
14.09.
 41
0.8
  7
GREEKS
 72
     1
 11
597.4085209177599
 21
63.10765040825732
 31
0.0
100
AcDbText
  0
TEXT
  5
2F6
330
1101
100
AcDbEntity
  8
TEXT
 62
     1
100
AcDbText
 10
655.0506768857031
 20
87.41748789253767
 30
0.0
 40
7.0
  1
Rainstar Attikaablauf
 41
0.8
  7
GREEKS
100
AcDbText
  0
TEXT
  5
2F7
330
1101
100
AcDbEntity
  8
TEXT
100
AcDbText
 10
655.1296391125315
 20
71.50334417585281
 30
0.0
 40
5.0
  1
DN100 Typ RC
 41
0.8
  7
GREEKS
100
AcDbText
  0
TEXT
  5
2F8
330
1101
100
AcDbEntity
  8
TEXT
100
AcDbText
 10
655.1296391125315
 20
62.11580706774862
 30
0.0
 40
5.0
  1
für Folienklemmung
 41
0.8
  7
GREEKS
100
AcDbText
  0
TEXT
  5
2F9
330
1101
100
AcDbEntity
  8
TEXT
100
AcDbText
 10
655.1296391125315
 20
51.64011943042146
 30
0.0
 40
5.0
  1
EDV-Art.Nr. 01382.100X
 41
0.8
  7
GREEKS
100
AcDbText
  0
TEXT
  5
2FA
330
1101
100
AcDbEntity
  8
TEXT
100
AcDbText
 10
654.9837501577826
 20
42.62974153022628
 30
0.0
 40
4.0
  1
01382100W.DWG
 41
0.8
  7
GREEKS
100
AcDbText
  0
TEXT
  5
2FB
330
1101
100
AcDbEntity
  8
TEXT
100
AcDbText
 10
610.7975607795125
 20
90.7636384102301
 30
0.0
 40
4.0
  1
DIN EN1124-3-
 41
0.8
  7
GREEKS
 72
     1
 11
629.6166083985601
 21
90.7636384102301
 31
0.0
100
AcDbText
  0
INSERT
  5
2FC
330
1101
100
AcDbEntity
  8
STEMPEL
100
AcDbBlockReference
  2
LOGO
 10
570.9955485457794
 20
45.0210527644831
 30
0.0
 41
2.0
 42
2.0
 43
2.0
  0
LINE
  5
2FD
330
1101
100
AcDbEntity
  8
HILF
100
AcDbLine
 10
0.0
 20
0.0
 30
0.0
 11
-0.0000000000002274
 21
593.9999999999996
 31
0.0
  0
LINE
  5
2FE
330
1101
100
AcDbEntity
  8
STEMPEL
100
AcDbLine
 10
39.99999999999997
 20
10.0
 30
0.0
 11
39.99999999999986
 21
583.9999999999998
 31
0.0
  0
LINE
  5
2FF
330
1101
100
AcDbEntity
  8
HILF
 62
     7
100
AcDbLine
 10
460.0
 20
-0.0000000000002274
 30
0.0
 11
460.0
 21
10.0
 31
0.0
  0
LINE
  5
300
330
1101
100
AcDbEntity
  8
HILF
 62
     7
100
AcDbLine
 10
459.9999999999998
 20
583.9999999999998
 30
0.0
 11
459.9999999999998
 21
593.9999999999996
 31
0.0
  0
TEXT
  5
301
330
1101
100
AcDbEntity
  8
TEXT
100
AcDbText
 10
836.5811541437437
 20
12.14804815338303
 30
0.0
 40
4.0
  1
Diese Zeichnung ist urheberrechtlich geschützt und bleibt unser Eigentum. Sie darf weder ganz noch teilweise vervielfältigt und nicht an Dritte weitergegeben werden.
 50
90.0
 41
0.8
  7
GREEKS
100
AcDbText
  0
TEXT
  5
1895
330
1101
100
AcDbEntity
  8
TEXT
 62
     1
100
AcDbText
 10
182.2186771577113
 20
143.6803049909653
 30
0.0
 40
7.0
  1
Spaltbreite zwischen Fest- und Losflansch ohne Dichtung max. 3.5mm
 41
0.8
  7
GREEKS
100
AcDbText
  0
LINE
  5
19E3
330
1101
100
AcDbEntity
  8
STEMPEL
100
AcDbLine
 10
271.2356792660537
 20
335.8667651608045
 30
0.0
 11
271.2356792660537
 21
338.8667651608045
 31
0.0
  0
ARC
  5
19F4
330
1101
100
AcDbEntity
  8
STEMPEL
100
AcDbCircle
 10
472.2594382713776
 20
341.5667651608044
 30
0.0
 40
5.7
100
AcDbArc
 50
270.0
 51
0.0000000000005714
  0
ARC
  5
19F5
330
1101
100
AcDbEntity
  8
STEMPEL
100
AcDbCircle
 10
472.2594382713776
 20
341.5667651608044
 30
0.0
 40
2.7
100
AcDbArc
 50
270.0
 51
0.0
  0
LINE
  5
19F7
330
1101
100
AcDbEntity
  8
STEMPEL
100
AcDbLine
 10
197.2356792660537
 20
338.8667651608045
 30
0.0
 11
472.2594382713776
 21
338.8667651608045
 31
0.0
  0
LINE
  5
19FE
330
1101
100
AcDbEntity
  8
STEMPEL
100
AcDbLine
 10
418.5080926255753
 20
363.8667651608041
 30
0.0
 11
419.5080926255752
 21
362.866765160804
 31
0.0
  0
LINE
  5
19FF
330
1101
100
AcDbEntity
  8
HILF
100
AcDbLine
 10
418.5080926255753
 20
363.8667651608041
 30
0.0
 11
418.5080926255753
 21
360.3667651608048
 31
0.0
  0
LINE
  5
1A00
330
1101
100
AcDbEntity
  8
STEMPEL
100
AcDbLine
 10
419.5080926255752
 20
362.866765160804
 30
0.0
 11
419.5080926255752
 21
360.3667651608048
 31
0.0
  0
LINE
  5
1A01
330
1101
100
AcDbEntity
  8
STEMPEL
100
AcDbLine
 10
409.5080926255752
 20
362.866765160804
 30
0.0
 11
410.5080926255753
 21
363.8667651608041
 31
0.0
  0
LINE
  5
1A02
330
1101
100
AcDbEntity
  8
HILF
100
AcDbLine
 10
410.5080926255753
 20
363.8667651608041
 30
0.0
 11
410.5080926255753
 21
360.3667651608048
 31
0.0
  0
LINE
  5
1A03
330
1101
100
AcDbEntity
  8
STEMPEL
100
AcDbLine
 10
409.5080926255752
 20
362.866765160804
 30
0.0
 11
409.5080926255752
 21
360.3667651608048
 31
0.0
  0
LINE
  5
1A04
330
1101
100
AcDbEntity
  8
STEMPEL
100
AcDbLine
 10
410.5080926255753
 20
363.8667651608041
 30
0.0
 11
418.5080926255753
 21
363.8667651608041
 31
0.0
  0
LINE
  5
1A05
330
1101
100
AcDbEntity
  8
STEMPEL
100
AcDbLine
 10
410.5080926255753
 20
363.8667651608041
 30
0.0
 11
418.5080926255753
 21
363.8667651608041
 31
0.0
  0
LINE
  5
1A06
330
1101
100
AcDbEntity
  8
STEMPEL
100
AcDbLine
 10
409.5080926255752
 20
362.866765160804
 30
0.0
 11
419.5080926255752
 21
362.866765160804
 31
0.0
  0
LINE
  5
1A07
330
1101
100
AcDbEntity
  8
MITTEL
100
AcDbLine
 10
414.5080926255753
 20
368.866765160804
 30
0.0
 11
414.5080926255753
 21
335.8667651608045
 31
0.0
  0
LINE
  5
1A08
330
1101
100
AcDbEntity
  8
STEMPEL
100
AcDbLine
 10
393.2356792660537
 20
335.8667651608045
 30
0.0
 11
393.2356792660537
 21
338.8667651608045
 31
0.0
  0
LINE
  5
1A09
330
1101
100
AcDbEntity
  8
STEMPEL
100
AcDbLine
 10
336.2356792660537
 20
363.8667651608041
 30
0.0
 11
337.2356792660537
 21
362.866765160804
 31
0.0
  0
LINE
  5
1A0A
330
1101
100
AcDbEntity
  8
HILF
100
AcDbLine
 10
336.2356792660537
 20
363.8667651608041
 30
0.0
 11
336.2356792660536
 21
360.3667651608049
 31
0.0
  0
LINE
  5
1A0B
330
1101
100
AcDbEntity
  8
STEMPEL
100
AcDbLine
 10
337.2356792660537
 20
362.866765160804
 30
0.0
 11
337.2356792660537
 21
360.3667651608049
 31
0.0
  0
LINE
  5
1A0C
330
1101
100
AcDbEntity
  8
STEMPEL
100
AcDbLine
 10
327.2356792660537
 20
362.866765160804
 30
0.0
 11
328.2356792660537
 21
363.8667651608041
 31
0.0
  0
LINE
  5
1A0D
330
1101
100
AcDbEntity
  8
HILF
100
AcDbLine
 10
328.2356792660537
 20
363.8667651608041
 30
0.0
 11
328.2356792660538
 21
360.3667651608049
 31
0.0
  0
LINE
  5
1A0E
330
1101
100
AcDbEntity
  8
STEMPEL
100
AcDbLine
 10
327.2356792660537
 20
362.866765160804
 30
0.0
 11
327.2356792660537
 21
360.3667651608049
 31
0.0
  0
LINE
  5
1A0F
330
1101
100
AcDbEntity
  8
STEMPEL
100
AcDbLine
 10
328.2356792660537
 20
363.8667651608041
 30
0.0
 11
336.2356792660537
 21
363.8667651608041
 31
0.0
  0
LINE
  5
1A10
330
1101
100
AcDbEntity
  8
STEMPEL
100
AcDbLine
 10
328.2356792660537
 20
363.8667651608041
 30
0.0
 11
336.2356792660537
 21
363.8667651608041
 31
0.0
  0
LINE
  5
1A11
330
1101
100
AcDbEntity
  8
STEMPEL
100
AcDbLine
 10
327.2356792660537
 20
362.866765160804
 30
0.0
 11
337.2356792660537
 21
362.866765160804
 31
0.0
  0
LINE
  5
1A12
330
1101
100
AcDbEntity
  8
MITTEL
100
AcDbLine
 10
332.2356792660536
 20
461.8667651608062
 30
0.0
 11
332.2356792660537
 21
330.8667651608045
 31
0.0
  0
LINE
  5
1A13
330
1101
100
AcDbEntity
  8
STEMPEL
100
AcDbLine
 10
253.9632659065321
 20
363.8667651608041
 30
0.0
 11
254.9632659065321
 21
362.866765160804
 31
0.0
  0
LINE
  5
1A14
330
1101
100
AcDbEntity
  8
STEMPEL
100
AcDbLine
 10
244.9632659065321
 20
362.866765160804
 30
0.0
 11
245.9632659065321
 21
363.8667651608041
 31
0.0
  0
LINE
  5
1A15
330
1101
100
AcDbEntity
  8
STEMPEL
100
AcDbLine
 10
245.9632659065321
 20
363.8667651608041
 30
0.0
 11
253.9632659065321
 21
363.8667651608041
 31
0.0
  0
LINE
  5
1A16
330
1101
100
AcDbEntity
  8
STEMPEL
100
AcDbLine
 10
245.9632659065321
 20
363.8667651608041
 30
0.0
 11
253.9632659065321
 21
363.8667651608041
 31
0.0
  0
LINE
  5
1A17
330
1101
100
AcDbEntity
  8
STEMPEL
100
AcDbLine
 10
244.9632659065321
 20
362.866765160804
 30
0.0
 11
254.9632659065321
 21
362.866765160804
 31
0.0
  0
LINE
  5
1A18
330
1101
100
AcDbEntity
  8
HILF
100
AcDbLine
 10
245.9632659065321
 20
363.8667651608041
 30
0.0
 11
245.9632659065321
 21
360.3667651608049
 31
0.0
  0
LINE
  5
1A19
330
1101
100
AcDbEntity
  8
STEMPEL
100
AcDbLine
 10
244.9632659065321
 20
362.866765160804
 30
0.0
 11
244.9632659065321
 21
360.3667651608049
 31
0.0
  0
LINE
  5
1A1A
330
1101
100
AcDbEntity
  8
HILF
100
AcDbLine
 10
253.9632659065321
 20
363.8667651608041
 30
0.0
 11
253.9632659065321
 21
360.3667651608049
 31
0.0
  0
LINE
  5
1A1B
330
1101
100
AcDbEntity
  8
STEMPEL
100
AcDbLine
 10
254.9632659065321
 20
362.866765160804
 30
0.0
 11
254.9632659065321
 21
360.3667651608049
 31
0.0
  0
LINE
  5
1A1C
330
1101
100
AcDbEntity
  8
MITTEL
100
AcDbLine
 10
249.9632659065321
 20
368.8667651608043
 30
0.0
 11
249.9632659065321
 21
335.8667651608045
 31
0.0
  0
LINE
  5
1A1D
330
1101
100
AcDbEntity
  8
STEMPEL
100
AcDbLine
 10
197.2356792660537
 20
335.8667651608045
 30
0.0
 11
197.2356792660537
 21
338.8667651608045
 31
0.0
  0
LINE
  5
1A1E
330
1101
100
AcDbEntity
  8
STEMPEL
100
AcDbLine
 10
197.2356792660537
 20
335.8667651608045
 30
0.0
 11
472.2594382713776
 21
335.8667651608045
 31
0.0
  0
HATCH
  5
1A7F
330
1101
100
AcDbEntity
  8
SCHRAFF
100
AcDbHatch
 10
0.0
 20
0.0
 30
0.0
210
0.0
220
0.0
230
1.0
  2
_USER
 70
     0
 71
     0
 91
        5
 92
        7
 72
     1
 73
     1
 93
        4
 10
459.2356792660536
 20
350.3667651608048
 42
0.0
 10
414.5080926255753
 20
350.3667651608048
 42
0.0
 10
414.5080926255753
 20
344.3667651608044
 42
0.0
 10
459.2356792660536
 20
344.3667651608045
 42
1.0
 97
        0
 92
        7
 72
     1
 73
     1
 93
        4
 10
414.5080926255753
 20
350.3667651608048
 42
0.0
 10
399.2356792660537
 20
350.3667651608048
 42
1.0
 10
399.2356792660537
 20
344.3667651608045
 42
0.0
 10
414.5080926255753
 20
344.3667651608044
 42
0.0
 97
        0
 92
        7
 72
     1
 73
     1
 93
        4
 10
265.2356792660537
 20
350.3667651608048
 42
0.0
 10
249.9632659065321
 20
350.3667651608048
 42
0.0
 10
249.9632659065321
 20
344.3667651608045
 42
0.0
 10
265.2356792660537
 20
344.3667651608045
 42
1.0
 97
        0
 92
        7
 72
     1
 73
     1
 93
       15
 10
249.9632659065321
 20
350.3667651608049
 42
0.0
 10
222.9109915555555
 20
350.3667651608049
 42
-0.4091108014277097
 10
217.9117530797735
 20
355.2795031286185
 42
0.0
 10
217.7356792660537
 20
365.3667651608065
 42
0.0
 10
214.2356792660537
 20
365.3667651608065
 42
0.0
 10
214.2356792660537
 20
361.3667651608043
 42
0.0
 10
213.7356792660537
 20
361.3667651608043
 42
0.0
 10
213.7356792660537
 20
358.3667651608044
 42
0.0
 10
214.2356792660537
 20
358.3667651608044
 42
0.0
 10
214.2356792660537
 20
350.3667651608046
 42
0.0
 10
213.7356792660537
 20
350.3667651608044
 42
0.0
 10
213.7356792660537
 20
347.3667651608045
 42
0.0
 10
214.2356792660537
 20
347.3667651608045
 42
0.0
 10
214.2356792660537
 20
344.3667651608045
 42
0.0
 10
249.9632659065321
 20
344.3667651608046
 42
0.0
 97
        0
 92
        7
 72
     1
 73
     1
 93
       14
 10
206.2356792660537
 20
358.3667651608044
 42
0.0
 10
206.7356792660537
 20
358.3667651608043
 42
0.0
 10
206.7356792660537
 20
361.3667651608044
 42
0.0
 10
206.2356792660537
 20
361.3667651608044
 42
0.0
 10
206.2356792660537
 20
365.3667651608065
 42
0.0
 10
202.7356792660537
 20
365.3667651608063
 42
0.0
 10
202.4522959241658
 20
349.1317443772489
 42
-0.0541019412914436
 10
202.3171960844274
 20
348.0613556290413
 42
0.4844268511314544
 10
205.2356792660537
 20
344.3667651608045
 42
0.0
 10
206.2356792660537
 20
344.3667651608045
 42
0.0
 10
206.2356792660537
 20
347.3667651608045
 42
0.0
 10
206.7356792660537
 20
347.3667651608046
 42
0.0
 10
206.7356792660537
 20
350.3667651608044
 42
0.0
 10
206.2356792660537
 20
350.3667651608044
 42
0.0
 97
        0
 75
     0
 76
     0
 52
45.0
 41
5.0
 77
     0
 78
     1
 53
45.0
 43
0.0
 44
-3.0
 45
-3.535533905932737
 46
3.535533905932737
 79
     0
 47
0.353366313367506
 98
        5
 10
427.2100427462423
 20
348.6736338236003
 10
403.163532607633
 20
348.3202675576292
 10
262.7743503357347
 20
347.613535025687
 10
235.8988408264236
 20
347.9669012916581
 10
204.7798278360192
 20
354.6808617446966
  0
LINE
  5
1A80
330
1101
100
AcDbEntity
  8
STEMPEL
100
AcDbLine
 10
205.2356792660537
 20
344.3667651608045
 30
0.0
 11
459.2356792660536
 21
344.3667651608045
 31
0.0
  0
LINE
  5
1A81
330
1101
100
AcDbEntity
  8
STEMPEL
100
AcDbLine
 10
459.2356792660536
 20
350.3667651608048
 30
0.0
 11
222.9109915555555
 21
350.3667651608049
 31
0.0
  0
LINE
  5
1A82
330
1101
100
AcDbEntity
  8
STEMPEL
100
AcDbLine
 10
202.7356792660537
 20
365.3667651608067
 30
0.0
 11
202.4522959241658
 21
349.1317443772489
 31
0.0
  0
LINE
  5
1A83
330
1101
100
AcDbEntity
  8
STEMPEL
100
AcDbLine
 10
217.7356792660537
 20
365.3667651608065
 30
0.0
 11
217.9117530797735
 21
355.2795031286185
 31
0.0
  0
LINE
  5
1A86
330
1101
100
AcDbEntity
  8
STEMPEL
100
AcDbLine
 10
206.2356792660537
 20
350.3667651608043
 30
0.0
 11
206.2356792660537
 21
358.3667651608044
 31
0.0
  0
LINE
  5
1A8B
330
1101
100
AcDbEntity
  8
STEMPEL
100
AcDbLine
 10
214.2356792660537
 20
350.3667651608045
 30
0.0
 11
214.2356792660537
 21
358.3667651608044
 31
0.0
  0
LINE
  5
1A8C
330
1101
100
AcDbEntity
  8
STEMPEL
100
AcDbLine
 10
206.7356792660537
 20
350.3667651608044
 30
0.0
 11
206.2356792660537
 21
350.3667651608044
 31
0.0
  0
LINE
  5
1A8D
330
1101
100
AcDbEntity
  8
STEMPEL
100
AcDbLine
 10
206.7356792660537
 20
347.3667651608045
 30
0.0
 11
206.2356792660537
 21
347.3667651608045
 31
0.0
  0
LINE
  5
1A8E
330
1101
100
AcDbEntity
  8
STEMPEL
100
AcDbLine
 10
206.2356792660537
 20
344.3667651608045
 30
0.0
 11
206.2356792660537
 21
347.3667651608045
 31
0.0
  0
ARC
  5
1A8F
330
1101
100
AcDbEntity
  8
STEMPEL
100
AcDbCircle
 10
205.2356792660537
 20
347.366765160805
 30
0.0
 40
3.0
100
AcDbArc
 50
166.6128248198285
 51
270.0
  0
ARC
  5
1A90
330
1101
100
AcDbEntity
  8
STEMPEL
100
AcDbCircle
 10
197.4530574483838
 20
349.2190064094353
 30
0.0
 40
5.0
100
AcDbArc
 50
346.612824819828
 51
359.0000000000008
  0
POINT
  5
1A91
330
1101
100
AcDbEntity
  8
STEMPEL
  6
ByBlock
 62
     0
100
AcDbPoint
 10
202.2356792660537
 20
347.3667651608045
 30
0.0
  0
LINE
  5
1A92
330
1101
100
AcDbEntity
  8
STEMPEL
100
AcDbLine
 10
214.2356792660537
 20
344.3667651608045
 30
0.0
 11
214.2356792660537
 21
347.3667651608045
 31
0.0
  0
LINE
  5
1A93
330
1101
100
AcDbEntity
  8
STEMPEL
100
AcDbLine
 10
214.2356792660537
 20
347.3667651608045
 30
0.0
 11
213.7356792660537
 21
347.3667651608045
 31
0.0
  0
LINE
  5
1A94
330
1101
100
AcDbEntity
  8
STEMPEL
100
AcDbLine
 10
213.7356792660537
 20
347.3667651608045
 30
0.0
 11
213.7356792660537
 21
350.3667651608046
 31
0.0
  0
LINE
  5
1A95
330
1101
100
AcDbEntity
  8
STEMPEL
100
AcDbLine
 10
214.2356792660537
 20
350.3667651608046
 30
0.0
 11
213.7356792660537
 21
350.3667651608045
 31
0.0
  0
LINE
  5
1A96
330
1101
100
AcDbEntity
  8
STEMPEL
100
AcDbLine
 10
206.7356792660537
 20
347.3667651608044
 30
0.0
 11
206.7356792660537
 21
350.3667651608044
 31
0.0
  0
ARC
  5
1A97
330
1101
100
AcDbEntity
  8
STEMPEL
100
AcDbCircle
 10
222.9109915555555
 20
355.3667651608049
 30
0.0
 40
5.0
100
AcDbArc
 50
181.0
 51
269.9999999999999
  0
LINE
  5
1A98
330
1101
100
AcDbEntity
  8
STEMPEL
100
AcDbLine
 10
217.7356792660535
 20
365.3667651608065
 30
0.0
 11
213.2356792660537
 21
365.3667651608066
 31
0.0
  0
LINE
  5
1A99
330
1101
100
AcDbEntity
  8
STEMPEL
100
AcDbLine
 10
206.7356792660537
 20
361.3667651608044
 30
0.0
 11
206.2356792660537
 21
361.3667651608044
 31
0.0
  0
LINE
  5
1A9A
330
1101
100
AcDbEntity
  8
STEMPEL
100
AcDbLine
 10
206.7356792660537
 20
358.3667651608044
 30
0.0
 11
206.2356792660537
 21
358.3667651608044
 31
0.0
  0
LINE
  5
1A9B
330
1101
100
AcDbEntity
  8
STEMPEL
100
AcDbLine
 10
206.2356792660537
 20
361.3667651608043
 30
0.0
 11
206.2356792660537
 21
365.3667651608066
 31
0.0
  0
LINE
  5
1AA0
330
1101
100
AcDbEntity
  8
STEMPEL
100
AcDbLine
 10
214.2356792660537
 20
361.3667651608044
 30
0.0
 11
214.2356792660537
 21
365.3667651608065
 31
0.0
  0
LINE
  5
1AA1
330
1101
100
AcDbEntity
  8
STEMPEL
100
AcDbLine
 10
214.2356792660537
 20
358.3667651608044
 30
0.0
 11
213.7356792660537
 21
358.3667651608044
 31
0.0
  0
LINE
  5
1AA2
330
1101
100
AcDbEntity
  8
STEMPEL
100
AcDbLine
 10
213.7356792660537
 20
358.3667651608044
 30
0.0
 11
213.7356792660537
 21
361.3667651608045
 31
0.0
  0
LINE
  5
1AA3
330
1101
100
AcDbEntity
  8
STEMPEL
100
AcDbLine
 10
214.2356792660537
 20
361.3667651608044
 30
0.0
 11
213.7356792660537
 21
361.3667651608044
 31
0.0
  0
LINE
  5
1AA5
330
1101
100
AcDbEntity
  8
STEMPEL
100
AcDbLine
 10
206.7356792660537
 20
358.3667651608044
 30
0.0
 11
206.7356792660537
 21
361.3667651608045
 31
0.0
  0
ARC
  5
1AA9
330
1101
100
AcDbEntity
  8
STEMPEL
100
AcDbCircle
 10
265.2356792660537
 20
347.366765160805
 30
0.0
 40
3.0
100
AcDbArc
 50
270.0
 51
90.0
  0
LINE
  5
1AAA
330
1101
100
AcDbEntity
  8
STEMPEL
100
AcDbLine
 10
400.7361011719836
 20
365.3667651608065
 30
0.0
 11
400.9121749857033
 21
355.2795031286185
 31
0.0
  0
LINE
  5
1AAB
330
1101
100
AcDbEntity
  8
STEMPEL
100
AcDbLine
 10
385.7361011719836
 20
365.3667651608065
 30
0.0
 11
385.5600273582638
 21
355.2795031286185
 31
0.0
  0
LINE
  5
1AAC
330
1101
100
AcDbEntity
  8
MITTEL
100
AcDbLine
 10
393.2361011719836
 20
377.0345084952037
 30
0.0
 11
393.2361011719836
 21
344.3667651608045
 31
0.0
  0
ARC
  5
1AAD
330
1101
100
AcDbEntity
  8
STEMPEL
100
AcDbCircle
 10
380.5607888824818
 20
355.3667651608049
 30
0.0
 40
5.0
100
AcDbArc
 50
270.0000000000001
 51
359.0000000000001
  0
ARC
  5
1AAE
330
1101
100
AcDbEntity
  8
STEMPEL
100
AcDbCircle
 10
405.9114134614853
 20
355.3667651608049
 30
0.0
 40
5.0
100
AcDbArc
 50
181.0
 51
242.9278855327882
  0
ARC
  5
1AAF
330
1101
100
AcDbEntity
  8
STEMPEL
100
AcDbCircle
 10
399.2356792660537
 20
347.3667651608047
 30
0.0
 40
3.000000000000227
100
AcDbArc
 50
90.00000000000433
 51
269.9999999999957
  0
ARC
  5
1AB0
330
1101
100
AcDbEntity
  8
STEMPEL
100
AcDbCircle
 10
459.2356792660536
 20
347.366765160805
 30
0.0
 40
3.0
100
AcDbArc
 50
270.0
 51
90.0
  0
LINE
  5
1AB1
330
1101
100
AcDbEntity
  8
STEMPEL
100
AcDbLine
 10
400.7361011719837
 20
365.3667651608027
 30
0.0
 11
385.7361011719834
 21
365.366765160803
 31
0.0
  0
LINE
  5
1AB5
330
1101
100
AcDbEntity
  8
STEMPEL
100
AcDbLine
 10
419.5080926255752
 20
344.3667651608046
 30
0.0
 11
419.5080926255752
 21
341.8667651608045
 31
0.0
  0
LINE
  5
1AB6
330
1101
100
AcDbEntity
  8
HILF
100
AcDbLine
 10
418.5080926255753
 20
344.3667651608044
 30
0.0
 11
418.5080926255752
 21
341.8667651608045
 31
0.0
  0
LINE
  5
1AB7
330
1101
100
AcDbEntity
  8
HILF
100
AcDbLine
 10
410.5080926255753
 20
344.3667651608044
 30
0.0
 11
410.5080926255752
 21
341.8667651608045
 31
0.0
  0
LINE
  5
1AB8
330
1101
100
AcDbEntity
  8
STEMPEL
100
AcDbLine
 10
409.5080926255752
 20
344.3667651608046
 30
0.0
 11
409.5080926255752
 21
341.8667651608045
 31
0.0
  0
LINE
  5
1AB9
330
1101
100
AcDbEntity
  8
HILF
100
AcDbLine
 10
336.2356792660538
 20
344.3667651608044
 30
0.0
 11
336.2356792660537
 21
341.8667651608045
 31
0.0
  0
LINE
  5
1ABA
330
1101
100
AcDbEntity
  8
STEMPEL
100
AcDbLine
 10
337.2356792660537
 20
344.3667651608046
 30
0.0
 11
337.2356792660537
 21
341.8667651608045
 31
0.0
  0
LINE
  5
1ABB
330
1101
100
AcDbEntity
  8
HILF
100
AcDbLine
 10
328.2356792660537
 20
344.3667651608044
 30
0.0
 11
328.2356792660536
 21
341.8667651608045
 31
0.0
  0
LINE
  5
1ABC
330
1101
100
AcDbEntity
  8
STEMPEL
100
AcDbLine
 10
327.2356792660537
 20
344.3667651608046
 30
0.0
 11
327.2356792660537
 21
341.8667651608045
 31
0.0
  0
LINE
  5
1ABD
330
1101
100
AcDbEntity
  8
STEMPEL
100
AcDbLine
 10
254.9632659065321
 20
344.3667651608046
 30
0.0
 11
254.9632659065321
 21
341.8667651608045
 31
0.0
  0
LINE
  5
1ABE
330
1101
100
AcDbEntity
  8
HILF
100
AcDbLine
 10
253.9632659065321
 20
344.3667651608044
 30
0.0
 11
253.9632659065321
 21
341.8667651608045
 31
0.0
  0
LINE
  5
1ABF
330
1101
100
AcDbEntity
  8
HILF
100
AcDbLine
 10
245.9632659065321
 20
344.3667651608044
 30
0.0
 11
245.9632659065321
 21
341.8667651608045
 31
0.0
  0
LINE
  5
1AC0
330
1101
100
AcDbEntity
  8
STEMPEL
100
AcDbLine
 10
244.9632659065321
 20
344.3667651608046
 30
0.0
 11
244.9632659065321
 21
341.8667651608045
 31
0.0
  0
TEXT
  5
1AFE
330
1101
100
AcDbEntity
  8
VOLL
100
AcDbText
 10
364.2669859905487
 20
410.1493348905401
 30
0.0
 40
1.8
  1

  7
GREEKS
100
AcDbText
  0
ARC
  5
1B00
330
1101
100
AcDbEntity
  8
STEMPEL
100
AcDbCircle
 10
424.6580926255752
 20
351.1167651608048
 30
0.0
 40
0.750000000000001
100
AcDbArc
 50
269.9999991462263
 51
70.00000000000047
  0
ARC
  5
1B01
330
1101
100
AcDbEntity
  8
STEMPEL
100
AcDbCircle
 10
404.3580926255753
 20
351.1167651608048
 30
0.0
 40
0.7500000000000013
100
AcDbArc
 50
109.9999999999995
 51
269.9999991462263
  0
LINE
  5
1B02
330
1101
100
AcDbEntity
  8
STEMPEL
100
AcDbLine
 10
405.8478385877308
 20
352.4571216770046
 30
0.0
 11
404.101577518081
 21
351.8215346263942
 31
0.0
  0
LINE
  5
1B03
330
1101
100
AcDbEntity
  8
STEMPEL
100
AcDbLine
 10
424.9146077330695
 20
351.8215346263942
 30
0.0
 11
423.1683466634196
 21
352.4571216770046
 31
0.0
  0
LINE
  5
1B04
330
1101
100
AcDbEntity
  8
STEMPEL
100
AcDbLine
 10
423.1683466634196
 20
360.0558760283494
 30
0.0
 11
422.0080926255752
 21
360.3667651608048
 31
0.0
  0
LINE
  5
1B05
330
1101
100
AcDbEntity
  8
STEMPEL
100
AcDbLine
 10
407.0080926255752
 20
360.3667651608048
 30
0.0
 11
405.8478385877308
 21
360.0558760283494
 31
0.0
  0
LINE
  5
1B06
330
1101
100
AcDbEntity
  8
STEMPEL
100
AcDbLine
 10
405.8478385877308
 20
352.4571216770046
 30
0.0
 11
405.8478385877308
 21
360.0558760283494
 31
0.0
  0
LINE
  5
1B07
330
1101
100
AcDbEntity
  8
STEMPEL
100
AcDbLine
 10
424.6580926255752
 20
350.3667651608048
 30
0.0
 11
404.3580926255753
 21
350.3667651608048
 31
0.0
  0
LINE
  5
1B08
330
1101
100
AcDbEntity
  8
STEMPEL
100
AcDbLine
 10
424.9146077330695
 20
351.8215346263942
 30
0.0
 11
404.101577518081
 21
351.8215346263942
 31
0.0
  0
LINE
  5
1B09
330
1101
100
AcDbEntity
  8
STEMPEL
100
AcDbLine
 10
410.177965606653
 20
352.4571216770046
 30
0.0
 11
410.177965606653
 21
360.0558760283494
 31
0.0
  0
LINE
  5
1B0A
330
1101
100
AcDbEntity
  8
STEMPEL
100
AcDbLine
 10
418.8382196444974
 20
352.4571216770046
 30
0.0
 11
418.8382196444974
 21
360.0558760283494
 31
0.0
  0
LINE
  5
1B0B
330
1101
100
AcDbEntity
  8
STEMPEL
100
AcDbLine
 10
423.1683466634196
 20
352.4571216770046
 30
0.0
 11
423.1683466634196
 21
360.0558760283494
 31
0.0
  0
LINE
  5
1B0C
330
1101
100
AcDbEntity
  8
STEMPEL
100
AcDbLine
 10
407.0080926255752
 20
360.3667651608048
 30
0.0
 11
422.0080926255752
 21
360.3667651608048
 31
0.0
  0
ARC
  5
1B0F
330
1101
100
AcDbEntity
  8
HILF
100
AcDbCircle
 10
408.012902097192
 20
347.1182790112751
 30
0.0
 40
5.761140599691502
100
AcDbArc
 50
67.92594526326054
 51
112.0740547367394
  0
ARC
  5
1B10
330
1101
100
AcDbEntity
  8
HILF
100
AcDbCircle
 10
421.0032831539585
 20
347.1182790112751
 30
0.0
 40
5.761140599691502
100
AcDbArc
 50
67.92594526326054
 51
112.0740547367394
  0
ARC
  5
1B11
330
1101
100
AcDbEntity
  8
HILF
100
AcDbCircle
 10
414.5080926255753
 20
330.4683041131436
 30
0.0
 40
22.41111549782308
100
AcDbArc
 50
78.85962783890455
 51
101.1403721610954
  0
ARC
  5
1B12
330
1101
100
AcDbEntity
  8
STEMPEL
100
AcDbCircle
 10
421.0032831539585
 20
352.6724594530203
 30
0.0
 40
7.694305707784447
100
AcDbArc
 50
73.65710669401345
 51
106.3428933059834
  0
ARC
  5
1B13
330
1101
100
AcDbEntity
  8
STEMPEL
100
AcDbCircle
 10
408.012902097192
 20
352.6724594530203
 30
0.0
 40
7.694305707784447
100
AcDbArc
 50
73.65710669401657
 51
106.3428933059865
  0
ARC
  5
1B14
330
1101
100
AcDbEntity
  8
STEMPEL
100
AcDbCircle
 10
414.5080926255753
 20
330.0558760283499
 30
0.0
 40
30.31088913245485
100
AcDbArc
 50
81.78678929826059
 51
98.2132107017394
  0
ARC
  5
1B15
330
1101
100
AcDbEntity
  8
STEMPEL
100
AcDbCircle
 10
239.8132659065321
 20
351.1167651608049
 30
0.0
 40
0.7500000000000013
100
AcDbArc
 50
109.9999999999995
 51
269.9999991462263
  0
ARC
  5
1B16
330
1101
100
AcDbEntity
  8
STEMPEL
100
AcDbCircle
 10
260.1132659065321
 20
351.1167651608049
 30
0.0
 40
0.750000000000001
100
AcDbArc
 50
269.9999991462263
 51
70.00000000000047
  0
LINE
  5
1B17
330
1101
100
AcDbEntity
  8
STEMPEL
100
AcDbLine
 10
260.1132659065321
 20
350.3667651608049
 30
0.0
 11
239.8132659065321
 21
350.3667651608049
 31
0.0
  0
ARC
  5
1B18
330
1101
100
AcDbEntity
  8
STEMPEL
100
AcDbCircle
 10
249.9632659065321
 20
330.0558760283501
 30
0.0
 40
30.31088913245485
100
AcDbArc
 50
81.78678929826059
 51
98.2132107017394
  0
ARC
  5
1B19
330
1101
100
AcDbEntity
  8
HILF
100
AcDbCircle
 10
249.9632659065321
 20
330.4683041131437
 30
0.0
 40
22.41111549782308
100
AcDbArc
 50
78.85962783890455
 51
101.1403721610954
  0
LINE
  5
1B1A
330
1101
100
AcDbEntity
  8
STEMPEL
100
AcDbLine
 10
242.4632659065321
 20
360.3667651608049
 30
0.0
 11
257.4632659065321
 21
360.3667651608049
 31
0.0
  0
LINE
  5
1B1B
330
1101
100
AcDbEntity
  8
STEMPEL
100
AcDbLine
 10
260.3697810140264
 20
351.8215346263943
 30
0.0
 11
239.5567507990378
 21
351.8215346263943
 31
0.0
  0
ARC
  5
1B1C
330
1101
100
AcDbEntity
  8
STEMPEL
100
AcDbCircle
 10
243.4680753781488
 20
352.6724594530204
 30
0.0
 40
7.694305707784447
100
AcDbArc
 50
73.65710669401657
 51
106.3428933059865
  0
ARC
  5
1B1D
330
1101
100
AcDbEntity
  8
HILF
100
AcDbCircle
 10
243.4680753781488
 20
347.1182790112753
 30
0.0
 40
5.761140599691502
100
AcDbArc
 50
67.92594526326054
 51
112.0740547367394
  0
LINE
  5
1B1E
330
1101
100
AcDbEntity
  8
STEMPEL
100
AcDbLine
 10
241.3030118686878
 20
352.4571216770048
 30
0.0
 11
241.3030118686878
 21
360.0558760283495
 31
0.0
  0
LINE
  5
1B1F
330
1101
100
AcDbEntity
  8
STEMPEL
100
AcDbLine
 10
242.4632659065321
 20
360.3667651608049
 30
0.0
 11
241.3030118686878
 21
360.0558760283495
 31
0.0
  0
LINE
  5
1B20
330
1101
100
AcDbEntity
  8
STEMPEL
100
AcDbLine
 10
241.3030118686878
 20
352.4571216770048
 30
0.0
 11
239.5567507990379
 21
351.8215346263943
 31
0.0
  0
LINE
  5
1B21
330
1101
100
AcDbEntity
  8
STEMPEL
100
AcDbLine
 10
245.6331388876099
 20
352.4571216770048
 30
0.0
 11
245.6331388876099
 21
360.0558760283495
 31
0.0
  0
LINE
  5
1B22
330
1101
100
AcDbEntity
  8
STEMPEL
100
AcDbLine
 10
260.3697810140264
 20
351.8215346263943
 30
0.0
 11
258.6235199443765
 21
352.4571216770048
 31
0.0
  0
ARC
  5
1B23
330
1101
100
AcDbEntity
  8
STEMPEL
100
AcDbCircle
 10
256.4584564349154
 20
352.6724594530204
 30
0.0
 40
7.694305707784447
100
AcDbArc
 50
73.65710669401345
 51
106.3428933059834
  0
ARC
  5
1B24
330
1101
100
AcDbEntity
  8
HILF
100
AcDbCircle
 10
256.4584564349154
 20
347.1182790112753
 30
0.0
 40
5.761140599691502
100
AcDbArc
 50
67.92594526326054
 51
112.0740547367394
  0
LINE
  5
1B25
330
1101
100
AcDbEntity
  8
STEMPEL
100
AcDbLine
 10
258.6235199443765
 20
352.4571216770048
 30
0.0
 11
258.6235199443765
 21
360.0558760283495
 31
0.0
  0
LINE
  5
1B26
330
1101
100
AcDbEntity
  8
STEMPEL
100
AcDbLine
 10
254.2933929254543
 20
352.4571216770048
 30
0.0
 11
254.2933929254543
 21
360.0558760283495
 31
0.0
  0
LINE
  5
1B27
330
1101
100
AcDbEntity
  8
STEMPEL
100
AcDbLine
 10
258.6235199443765
 20
360.0558760283495
 30
0.0
 11
257.4632659065321
 21
360.3667651608049
 31
0.0
  0
ARC
  5
1B3B
330
1101
100
AcDbEntity
  8
STEMPEL
100
AcDbCircle
 10
322.0856792660537
 20
351.1167651608048
 30
0.0
 40
0.7500000000000013
100
AcDbArc
 50
109.9999999999995
 51
269.9999991462263
  0
ARC
  5
1B3C
330
1101
100
AcDbEntity
  8
STEMPEL
100
AcDbCircle
 10
342.3856792660537
 20
351.1167651608048
 30
0.0
 40
0.750000000000001
100
AcDbArc
 50
269.9999991462263
 51
70.00000000000047
  0
LINE
  5
1B3D
330
1101
100
AcDbEntity
  8
STEMPEL
100
AcDbLine
 10
342.3856792660537
 20
350.3667651608048
 30
0.0
 11
322.0856792660537
 21
350.3667651608048
 31
0.0
  0
ARC
  5
1B3E
330
1101
100
AcDbEntity
  8
STEMPEL
100
AcDbCircle
 10
332.2356792660537
 20
330.05587602835
 30
0.0
 40
30.31088913245485
100
AcDbArc
 50
81.78678929826059
 51
98.2132107017394
  0
ARC
  5
1B3F
330
1101
100
AcDbEntity
  8
HILF
100
AcDbCircle
 10
332.2356792660537
 20
330.4683041131436
 30
0.0
 40
22.41111549782308
100
AcDbArc
 50
78.85962783890455
 51
101.1403721610954
  0
LINE
  5
1B40
330
1101
100
AcDbEntity
  8
STEMPEL
100
AcDbLine
 10
324.7356792660537
 20
360.3667651608049
 30
0.0
 11
339.7356792660537
 21
360.3667651608049
 31
0.0
  0
LINE
  5
1B41
330
1101
100
AcDbEntity
  8
STEMPEL
100
AcDbLine
 10
342.642194373548
 20
351.8215346263943
 30
0.0
 11
321.8291641585594
 21
351.8215346263943
 31
0.0
  0
ARC
  5
1B42
330
1101
100
AcDbEntity
  8
STEMPEL
100
AcDbCircle
 10
325.7404887376704
 20
352.6724594530204
 30
0.0
 40
7.694305707784447
100
AcDbArc
 50
73.65710669401657
 51
106.3428933059865
  0
ARC
  5
1B43
330
1101
100
AcDbEntity
  8
HILF
100
AcDbCircle
 10
325.7404887376704
 20
347.1182790112752
 30
0.0
 40
5.761140599691502
100
AcDbArc
 50
67.92594526326054
 51
112.0740547367394
  0
LINE
  5
1B44
330
1101
100
AcDbEntity
  8
STEMPEL
100
AcDbLine
 10
323.5754252282093
 20
352.4571216770047
 30
0.0
 11
323.5754252282093
 21
360.0558760283495
 31
0.0
  0
LINE
  5
1B45
330
1101
100
AcDbEntity
  8
STEMPEL
100
AcDbLine
 10
324.7356792660537
 20
360.3667651608049
 30
0.0
 11
323.5754252282093
 21
360.0558760283495
 31
0.0
  0
LINE
  5
1B46
330
1101
100
AcDbEntity
  8
STEMPEL
100
AcDbLine
 10
323.5754252282093
 20
352.4571216770047
 30
0.0
 11
321.8291641585595
 21
351.8215346263943
 31
0.0
  0
LINE
  5
1B47
330
1101
100
AcDbEntity
  8
STEMPEL
100
AcDbLine
 10
327.9055522471315
 20
352.4571216770047
 30
0.0
 11
327.9055522471315
 21
360.0558760283495
 31
0.0
  0
LINE
  5
1B48
330
1101
100
AcDbEntity
  8
STEMPEL
100
AcDbLine
 10
342.642194373548
 20
351.8215346263943
 30
0.0
 11
340.8959333038981
 21
352.4571216770047
 31
0.0
  0
ARC
  5
1B49
330
1101
100
AcDbEntity
  8
STEMPEL
100
AcDbCircle
 10
338.730869794437
 20
352.6724594530204
 30
0.0
 40
7.694305707784447
100
AcDbArc
 50
73.65710669401345
 51
106.3428933059834
  0
ARC
  5
1B4A
330
1101
100
AcDbEntity
  8
HILF
100
AcDbCircle
 10
338.730869794437
 20
347.1182790112752
 30
0.0
 40
5.761140599691502
100
AcDbArc
 50
67.92594526326054
 51
112.0740547367394
  0
LINE
  5
1B4B
330
1101
100
AcDbEntity
  8
STEMPEL
100
AcDbLine
 10
340.8959333038981
 20
352.4571216770047
 30
0.0
 11
340.8959333038981
 21
360.0558760283495
 31
0.0
  0
LINE
  5
1B4C
330
1101
100
AcDbEntity
  8
STEMPEL
100
AcDbLine
 10
336.5658062849759
 20
352.4571216770047
 30
0.0
 11
336.5658062849759
 21
360.0558760283495
 31
0.0
  0
LINE
  5
1B4D
330
1101
100
AcDbEntity
  8
STEMPEL
100
AcDbLine
 10
340.8959333038981
 20
360.0558760283495
 30
0.0
 11
339.7356792660537
 21
360.3667651608049
 31
0.0
  0
INSERT
  5
1CED
330
1101
100
AcDbEntity
  8
SCHRAFF
  6
CONTINUOUS
100
AcDbBlockReference
  2
*X1
 10
570.6791508207286
 20
-51.45958518770697
 30
0.0
 41
-1.0
1001
ACAD
1000
HATCH
1002
{
1070
    19
1000
ANSI31
1040
20.0
1040
0.0
1000
R14_HATCH_DATA
1000
956
1011
569.6791508207286
1021
-51.45958518770697
1031
0.0
1011
570.6791508207286
1021
-50.45958518770698
1031
0.0
1011
570.6791508207286
1021
-51.45958518770697
1031
1.0
1040
0.0
1010
0.0
1020
0.0
1030
1.0
1000
ANSI31
1070
     0
1070
     0
1071
        4
1071
        7
1070
     1
1070
     1
1071
       44
1040
129.4434715546751
1040
486.8262923811981
1040
-0.266750395150088
1040
131.924117986548
1040
491.1451877953942
1040
0.0
1040
155.902971879489
1040
505.1328409615737
1040
-0.134038508411906
1040
158.443471554675
1040
505.8263503485128
1040
0.0
1040
213.1818337270245
1040
505.8263503485131
1040
0.2679491924311371
1040
215.3468972364856
1040
507.0763503485132
1040
-0.2679491924311204
1040
215.7799099383778
1040
507.3263503485132
1040
0.0
1040
215.979909938378
1040
507.3263503485132
1040
-0.2679491924312574
1040
216.4129226402705
1040
507.0763503485133
1040
0.2679491924311556
1040
218.5779861497318
1040
505.8263503485131
1040
0.0
1040
220.6368337270242
1040
505.8263503485131
1040
0.2679491924311518
1040
222.8018972364854
1040
507.0763503485133
1040
-0.2679491924310975
1040
223.2349099383776
1040
507.3263503485133
1040
0.0
1040
223.4349099383779
1040
507.3263503485133
1040
-0.2679491924309788
1040
223.8679226402698
1040
507.0763503485132
1040
0.2679491924311251
1040
226.0329861497309
1040
505.8263503485131
1040
0.0
1040
232.4868337270251
1040
505.8263503485131
1040
0.2679491924310973
1040
234.651897236486
1040
507.076350348513
1040
-0.2679491924312862
1040
235.0849099383784
1040
507.3263503485133
1040
0.0
1040
238.4434715546752
1040
507.3263503485133
1040
0.0
1040
238.4434715546752
1040
508.3263503485132
1040
0.0
1040
235.0849099383778
1040
508.3263503485132
1040
0.2679491924310756
1040
233.7858718327014
1040
507.5763503485132
1040
-0.2679491924311246
1040
232.4868337270248
1040
506.8263503485131
1040
0.0
1040
226.0329861497309
1040
506.8263503485131
1040
-0.2679491924310962
1040
224.7339480440544
1040
507.5763503485132
1040
0.2859076546238575
1040
223.3349099383777
1040
508.3230133032228
1040
0.2859076546238756
1040
221.935871832701
1040
507.5763503485132
1040
-0.2679491924311237
1040
220.6368337270244
1040
506.8263503485131
1040
0.0
1040
218.5779861497318
1040
506.8263503485131
1040
-0.2679491924311723
1040
217.2789480440549
1040
507.5763503485132
1040
0.2859076546238861
1040
215.8799099383781
1040
508.3230133032228
1040
0.2859076546239122
1040
214.4808718327012
1040
507.5763503485132
1040
-0.2679491924311319
1040
213.1818337270246
1040
506.8263503485131
1040
0.0
1040
158.443471554675
1040
506.8263503485128
1040
0.1316524975837886
1040
155.4434715547486
1040
506.0225027712622
1040
0.0
1040
131.4107769329778
1040
492.0034309085631
1040
0.2662608607109036
1040
128.443471554675
1040
486.826292381198
1040
0.0
1040
128.443471554675
1040
422.826350348514
1040
-0.4142135623730909
1040
123.4434715546752
1040
417.826350348514
1040
0.0
1040
108.4434715546749
1040
417.8263503485135
1040
0.0
1040
108.4434715546748
1040
416.8263503485135
1040
0.0
1040
123.4434715546751
1040
416.8263503485135
1040
0.4142135623730952
1040
129.4434715546751
1040
422.8263503485136
1040
0.0
1071
        0
1071
        7
1070
     1
1070
     1
1071
       31
1040
298.5858159001642
1040
506.8263503485135
1040
0.0
1040
263.8829861497319
1040
506.8263503485133
1040
-0.2679491924311948
1040
262.5839480440549
1040
507.5763503485132
1040
0.2859076546239628
1040
261.1849099383777
1040
508.3230133032228
1040
0.2859076546237491
1040
259.7858718327016
1040
507.5763503485132
1040
-0.2679491924311143
1040
258.486833727025
1040
506.8263503485131
1040
0.0
1040
252.0329861497314
1040
506.8263503485131
1040
-0.2679491924311449
1040
250.7339480440547
1040
507.5763503485132
1040
0.2859076546238161
1040
249.3349099383783
1040
508.3230133032229
1040
0.3607372083888945
1040
247.78254118355
1040
507.2013503485131
1040
-0.3419987131196436
1040
247.2984182652741
1040
506.8263503485131
1040
0.0
1040
247.1096690726747
1040
506.8263503485131
1040
-0.3419987131195289
1040
246.625546154399
1040
507.2013503485132
1040
0.3419987131196487
1040
245.1731773995713
1040
508.3263503485132
1040
0.0
1040
238.4434715546751
1040
508.3263503485132
1040
0.0
1040
238.4434715546751
1040
507.3263503485133
1040
0.0
1040
245.1731773995714
1040
507.3263503485133
1040
-0.3419987131195064
1040
245.657300317847
1040
506.9513503485132
1040
0.3596757619904947
1040
247.2040436689743
1040
505.8293221471845
1040
0.3596757619905158
1040
248.7507870201017
1040
506.9513503485132
1040
-0.3419987131196715
1040
249.2349099383777
1040
507.3263503485133
1040
0.0
1040
249.4349099383779
1040
507.3263503485133
1040
-0.2679491924311643
1040
249.8679226402702
1040
507.0763503485133
1040
0.2679491924311343
1040
252.0329861497314
1040
505.8263503485132
1040
0.0
1040
258.4868337270255
1040
505.8263503485132
1040
0.2679491924310781
1040
260.6518972364863
1040
507.076350348513
1040
-0.2679491924312612
1040
261.0849099383786
1040
507.3263503485132
1040
0.0
1040
261.2849099383778
1040
507.3263503485132
1040
-0.2679491924313018
1040
261.7179226402705
1040
507.0763503485133
1040
0.2679491924311476
1040
263.8829861497318
1040
505.8263503485132
1040
0.0
1040
299.086519226358
1040
505.8263503485136
1040
0.0
1071
        0
1071
        7
1070
     1
1070
     1
1071
       16
1040
318.4434715546753
1040
506.8263503485135
1040
0.0
1040
298.5858159001642
1040
506.8263503485136
1040
0.0
1040
299.086519226358
1040
505.8263503485134
1040
0.0
1040
318.4434715546753
1040
505.8263503485135
1040
-0.1340385084118612
1040
320.9839712298604
1040
505.1328409615743
1040
0.0
1040
344.9628251228023
1040
491.1451877953942
1040
-0.2667503951500871
1040
347.4434715546752
1040
486.8262923811981
1040
0.0
1040
347.4434715546752
1040
422.826350348514
1040
0.4142135623731166
1040
353.4434715546752
1040
416.8263503485135
1040
0.0
1040
356.4434715546751
1040
416.8263503485135
1040
0.0
1040
356.4434715546751
1040
417.8263503485139
1040
0.0
1040
353.443471554675
1040
417.826350348514
1040
-0.4142135623730784
1040
348.4434715546753
1040
422.8263503485139
1040
0.0
1040
348.4434715546753
1040
486.8262923811981
1040
0.2662608607107455
1040
345.4761661763756
1040
492.0034309085613
1040
0.0
1040
321.4434715545986
1040
506.022502771264
1040
0.131652497583648
1071
        0
1071
        7
1070
     0
1070
     1
1071
        4
1040
368.4434715546751
1040
417.8263503485135
1040
364.4434715546751
1040
417.8263503485137
1040
364.4434715546751
1040
416.8263503485135
1040
368.4434715546751
1040
416.8263503485134
1071
        0
1070
     0
1070
     1
1040
0.0
1040
20.0
1070
     0
1070
     1
1040
0.7853981633974483
1040
0.0
1040
0.0
1040
-1.767766952966368
1040
1.767766952966368
1070
     0
1040
0.4197568243763778
1071
        4
1040
129.1388785612744
1040
455.9018382284814
1040
0.0
1040
283.3062822790985
1040
506.2726584028207
1040
0.0
1040
315.6520304372616
1040
506.2726584028207
1040
0.0
1040
365.6409167832017
1040
417.2842100735611
1040
0.0
1002
}
  0
ARC
  5
1CEE
330
1101
100
AcDbEntity
  8
STEMPEL
100
AcDbCircle
 10
228.2356792660536
 20
435.366707193491
 30
0.0
 40
6.0
100
AcDbArc
 50
120.2564164748144
 51
180.0
  0
ARC
  5
1CEF
330
1101
100
AcDbEntity
  8
STEMPEL
100
AcDbCircle
 10
222.7245356617419
 20
444.8866021432684
 30
0.0
 40
5.0
100
AcDbArc
 50
300.0670458384858
 51
300.2564371635302
  0
ARC
  5
1CF0
330
1101
100
AcDbEntity
  8
STEMPEL
100
AcDbCircle
 10
228.2356792660536
 20
435.366707193491
 30
0.0
 40
5.0
100
AcDbArc
 50
120.2564164748144
 51
180.0
  0
LINE
  5
1CF1
330
1101
100
AcDbEntity
  8
STEMPEL
100
AcDbLine
 10
202.2356792660538
 20
366.3667651608069
 30
0.0
 11
202.2356792660537
 21
365.3667651608066
 31
0.0
  0
LINE
  5
1CF2
330
1101
100
AcDbEntity
  8
STEMPEL
100
AcDbLine
 10
206.2356792660537
 20
366.3667651608066
 30
0.0
 11
206.2356792660537
 21
365.3667651608066
 31
0.0
  0
LINE
  5
1CF4
330
1101
100
AcDbEntity
  8
STEMPEL
100
AcDbLine
 10
214.2356792660537
 20
366.3667651608071
 30
0.0
 11
214.2356792660537
 21
365.3667651608066
 31
0.0
  0
LWPOLYLINE
  5
1CF5
330
1101
100
AcDbEntity
  8
STEMPEL
100
AcDbPolyline
 90
        7
 70
   128
 43
0.0
 10
223.92742359197
 20
384.3288192166446
 10
224.0652526015402
 20
383.5767129797061
 10
224.1841168785064
 20
382.6539993689913
 10
224.2804648804076
 20
381.588248119087
 10
224.3514178279458
 20
380.4113027822659
 10
224.3948557199537
 20
379.1583292758641
 10
224.4094806768513
 20
377.8667651608048
  0
LWPOLYLINE
  5
1CF6
330
1101
100
AcDbEntity
  8
STEMPEL
100
AcDbPolyline
 90
        7
 70
   128
 43
0.0
 10
-221.7890214931806
 20
366.3667651608071
 10
-222.465723368258
 20
366.9763658886661
 10
-223.065272791892
 20
367.7039249725778
 10
-223.5715614650416
 20
368.5298948342579
 10
-223.9709867570872
 20
369.432083859461
 10
-224.2528171723501
 20
370.3862526276548
 10
-224.4094806768516
 20
371.3667651608071
210
0.0
220
0.0
230
-1.0
  0
LWPOLYLINE
  5
1CF7
330
1101
100
AcDbEntity
  8
STEMPEL
100
AcDbPolyline
 90
       10
 70
   128
 43
0.0
 10
-224.0859891272487
 20
365.3667651608066
 10
-224.9221684020903
 20
365.4579186427334
 10
-225.7329407927929
 20
365.7286094360912
 10
-226.4936713905357
 20
366.1706127381
 10
-227.1812457810545
 20
366.7704985020928
 10
-227.7747723644229
 20
367.5100395026876
 10
-228.2562171357441
 20
368.3667651608069
 10
-228.6109516392645
 20
369.3146443008529
 10
-228.8281974465987
 20
370.3248760948054
 10
-228.9013536538226
 20
371.3667651608071
210
0.0
220
0.0
230
-1.0
  0
LINE
  5
1CF8
330
1101
100
AcDbEntity
  8
STEMPEL
100
AcDbLine
 10
224.4094806768515
 20
377.8667651608048
 30
0.0
 11
224.4094806768515
 21
371.3667651608071
 31
0.0
  0
LINE
  5
1CF9
330
1101
100
AcDbEntity
  8
STEMPEL
100
AcDbLine
 10
225.4032593903893
 20
377.8667651608048
 30
0.0
 11
225.4032593903893
 21
371.3667651608059
 31
0.0
  0
LINE
  5
1CFA
330
1101
100
AcDbEntity
  8
STEMPEL
100
AcDbLine
 10
228.9013536538226
 20
377.8667651608048
 30
0.0
 11
228.9013536538226
 21
371.3667651608082
 31
0.0
  0
LINE
  5
1CFB
330
1101
100
AcDbEntity
  8
STEMPEL
100
AcDbLine
 10
223.4453665070888
 20
377.8667651608048
 30
0.0
 11
223.4453665070888
 21
371.3667651608071
 31
0.0
  0
LWPOLYLINE
  5
1CFC
330
1101
100
AcDbEntity
  8
STEMPEL
100
AcDbPolyline
 90
       10
 70
   128
 43
0.0
 10
-219.8972706593585
 20
365.3667651608066
 10
-220.7553436556312
 20
365.4328923753793
 10
-221.6081558552535
 20
365.6854461251095
 10
-222.4289141621705
 20
366.116491841427
 10
-223.1918325285696
 20
366.712487211867
 10
-223.8729420840686
 20
367.4547076435876
 10
-224.4508441740144
 20
368.319834540385
 10
-224.9073826484206
 20
369.2806879111011
 10
-225.2282142800182
 20
370.3070802928133
 10
-225.4032593903893
 20
371.3667651608059
210
0.0
220
0.0
230
-1.0
  0
ARC
  5
1CFD
330
1101
100
AcDbEntity
  8
STEMPEL
100
AcDbCircle
 10
217.2356792660536
 20
371.3667651608071
 30
0.0
 40
6.0
100
AcDbArc
 50
270.0000000000017
 51
0.000000000000007
  0
LWPOLYLINE
  5
1CFE
330
1101
100
AcDbEntity
  8
STEMPEL
100
AcDbPolyline
 90
       10
 70
   128
 43
0.0
 10
-217.939377776058
 20
365.3667651608078
 10
-218.7974507723307
 20
365.4328923753804
 10
-219.650262971953
 20
365.6854461251106
 10
-220.47102127887
 20
366.1164918414282
 10
-221.2339396452691
 20
366.7124872118681
 10
-221.9150492007682
 20
367.4547076435887
 10
-222.4929512907139
 20
368.3198345403862
 10
-222.9494897651201
 20
369.2806879111022
 10
-223.2703213967177
 20
370.3070802928144
 10
-223.4453665070888
 20
371.3667651608071
210
0.0
220
0.0
230
-1.0
  0
ARC
  5
1CFF
330
1101
100
AcDbEntity
  8
STEMPEL
100
AcDbCircle
 10
217.2356792660536
 20
371.3667651608071
 30
0.0
 40
5.0
100
AcDbArc
 50
270.0000000000017
 51
0.000000000000007
  0
LINE
  5
1D00
330
1101
100
AcDbEntity
  8
STEMPEL
100
AcDbLine
 10
220.8249073234182
 20
366.3667651608066
 30
0.0
 11
221.7890214931808
 21
366.3667651608066
 31
0.0
  0
LINE
  5
1D01
330
1101
100
AcDbEntity
  8
STEMPEL
100
AcDbLine
 10
202.2356792660539
 20
366.3667651608066
 30
0.0
 11
217.2356792660538
 21
366.366765160807
 31
0.0
  0
LWPOLYLINE
  5
1D02
330
1101
100
AcDbEntity
  8
STEMPEL
100
AcDbPolyline
 90
       18
 70
   128
 43
0.0
 10
223.4453665070888
 20
377.8667651608048
 10
223.4620349305657
 20
379.2448865444293
 10
223.511472577826
 20
380.576077657209
 10
223.5919959090864
 20
381.8150063823858
 10
223.7008627988781
 20
382.919482488155
 10
223.8343659158404
 20
383.8518943654079
 10
223.9879589714445
 20
384.5804898459692
 10
224.1564115383966
 20
385.0804574846025
 10
224.3339871665655
 20
385.3347714830192
 10
224.5146387309126
 20
385.3347714830192
 10
224.6922143590815
 20
385.0804574846025
 10
224.8606669260336
 20
384.5804898459692
 10
225.0142599816377
 20
383.8518943654079
 10
225.1477630986
 20
382.919482488155
 10
225.2566299883916
 20
381.8150063823858
 10
225.3371533196521
 20
380.576077657209
 10
225.3865909669124
 20
379.2448865444293
 10
225.4032593903893
 20
377.8667651608048
  0
LINE
  5
1D03
330
1101
100
AcDbEntity
  8
STEMPEL
100
AcDbLine
 10
222.2356792660534
 20
435.366707193491
 30
0.0
 11
222.2356792660534
 21
371.3667651608071
 31
0.0
  0
LINE
  5
1D04
330
1101
100
AcDbEntity
  8
STEMPEL
100
AcDbLine
 10
223.2356792660536
 20
435.366707193491
 30
0.0
 11
223.2356792660536
 21
371.3667651608071
 31
0.0
  0
ARC
  5
1D05
330
1101
100
AcDbEntity
  8
STEMPEL
100
AcDbCircle
 10
252.2356792660535
 20
449.3667651608062
 30
0.0
 40
6.0
100
AcDbArc
 50
90.0
 51
90.0
  0
ARC
  5
1D06
330
1101
100
AcDbEntity
  8
STEMPEL
100
AcDbCircle
 10
252.2356792660535
 20
449.3667651608062
 30
0.0
 40
6.0
100
AcDbArc
 50
90.0
 51
120.512874327618
  0
ARC
  5
1D07
330
1101
100
AcDbEntity
  8
STEMPEL
100
AcDbCircle
 10
252.2356792660535
 20
449.3667651608062
 30
0.0
 40
5.0
100
AcDbArc
 50
90.0
 51
120.5373500483005
  0
ARC
  5
1D08
330
1101
100
AcDbEntity
  8
STEMPEL
100
AcDbCircle
 10
309.3942408823509
 20
455.3667651608062
 30
0.0
 40
1.5
100
AcDbArc
 50
90.0
 51
150.0000000000075
  0
ARC
  5
1D09
330
1101
100
AcDbEntity
  8
STEMPEL
100
AcDbCircle
 10
309.3942408823509
 20
455.3667651608062
 30
0.0
 40
0.5
100
AcDbArc
 50
90.0
 51
150.0000000000075
  0
LINE
  5
1D0A
330
1101
100
AcDbEntity
  8
STEMPEL
100
AcDbLine
 10
309.5942408823509
 20
455.8667651608062
 30
0.0
 11
309.3942408823509
 21
455.8667651608062
 31
0.0
  0
ARC
  5
1D0B
330
1101
100
AcDbEntity
  8
STEMPEL
100
AcDbCircle
 10
309.5942408823509
 20
455.3667651608062
 30
0.0
 40
0.5
100
AcDbArc
 50
30.00000000000782
 51
90.0
  0
ARC
  5
1D0C
330
1101
100
AcDbEntity
  8
STEMPEL
100
AcDbCircle
 10
309.5942408823509
 20
455.3667651608062
 30
0.0
 40
1.5
100
AcDbArc
 50
30.00000000000782
 51
90.0
  0
ARC
  5
1D0D
330
1101
100
AcDbEntity
  8
STEMPEL
100
AcDbCircle
 10
306.7961646709968
 20
456.8667651608062
 30
0.0
 40
1.5
100
AcDbArc
 50
270.0
 51
330.0000000000076
  0
ARC
  5
1D0E
330
1101
100
AcDbEntity
  8
STEMPEL
100
AcDbCircle
 10
306.7961646709968
 20
456.8667651608062
 30
0.0
 40
2.5
100
AcDbArc
 50
270.0
 51
330.0000000000076
  0
LINE
  5
1D0F
330
1101
100
AcDbEntity
  8
STEMPEL
100
AcDbLine
 10
318.6461646709973
 20
455.3667651608062
 30
0.0
 11
312.1923170937033
 21
455.3667651608062
 31
0.0
  0
LINE
  5
1D10
330
1101
100
AcDbEntity
  8
STEMPEL
100
AcDbLine
 10
318.6461646709973
 20
455.3667651608063
 30
0.0
 11
312.1923170937033
 21
455.3667651608063
 31
0.0
  0
ARC
  5
1D11
330
1101
100
AcDbEntity
  8
STEMPEL
100
AcDbCircle
 10
321.2442408823508
 20
455.3667651608062
 30
0.0
 40
0.5
100
AcDbArc
 50
90.0
 51
150.0000000000039
  0
LINE
  5
1D12
330
1101
100
AcDbEntity
  8
STEMPEL
100
AcDbLine
 10
321.4442408823508
 20
455.8667651608063
 30
0.0
 11
321.2442408823508
 21
455.8667651608063
 31
0.0
  0
ARC
  5
1D13
330
1101
100
AcDbEntity
  8
STEMPEL
100
AcDbCircle
 10
321.4442408823508
 20
455.3667651608062
 30
0.0
 40
0.5
100
AcDbArc
 50
14.47751218592671
 51
90.0
  0
LINE
  5
1D14
330
1101
100
AcDbEntity
  8
STEMPEL
100
AcDbLine
 10
323.569481748054
 20
455.3667651608062
 30
0.0
 11
323.3807325554548
 21
455.3667651608062
 31
0.0
  0
ARC
  5
1D15
330
1101
100
AcDbEntity
  8
STEMPEL
100
AcDbCircle
 10
323.3807325554548
 20
455.8667651608062
 30
0.0
 40
0.5
100
AcDbArc
 50
194.4775121859267
 51
270.0
  0
ARC
  5
1D16
330
1101
100
AcDbEntity
  8
STEMPEL
100
AcDbCircle
 10
321.4442408823508
 20
455.3667651608062
 30
0.0
 40
1.5
100
AcDbArc
 50
14.47751218592671
 51
90.0
  0
ARC
  5
1D17
330
1101
100
AcDbEntity
  8
STEMPEL
100
AcDbCircle
 10
321.2442408823508
 20
455.3667651608062
 30
0.0
 40
1.5
100
AcDbArc
 50
90.0
 51
150.0000000000039
  0
ARC
  5
1D18
330
1101
100
AcDbEntity
  8
STEMPEL
100
AcDbCircle
 10
325.5059734211573
 20
455.3667651608062
 30
0.0
 40
1.5
100
AcDbArc
 50
90.0
 51
165.5224878140701
  0
ARC
  5
1D19
330
1101
100
AcDbEntity
  8
STEMPEL
100
AcDbCircle
 10
325.5059734211573
 20
455.3667651608062
 30
0.0
 40
0.5
100
AcDbArc
 50
90.0
 51
165.5224878140701
  0
ARC
  5
1D1A
330
1101
100
AcDbEntity
  8
STEMPEL
100
AcDbCircle
 10
323.569481748054
 20
455.8667651608062
 30
0.0
 40
0.5
100
AcDbArc
 50
270.0
 51
345.5224878140702
  0
ARC
  5
1D1B
330
1101
100
AcDbEntity
  8
STEMPEL
100
AcDbCircle
 10
318.6461646709973
 20
456.8667651608062
 30
0.0
 40
1.5
100
AcDbArc
 50
270.0
 51
330.0000000000039
  0
ARC
  5
1D1C
330
1101
100
AcDbEntity
  8
STEMPEL
100
AcDbCircle
 10
318.6461646709973
 20
456.8667651608062
 30
0.0
 40
2.5
100
AcDbArc
 50
270.0
 51
330.0000000000039
  0
ARC
  5
1D1D
330
1101
100
AcDbEntity
  8
STEMPEL
100
AcDbCircle
 10
323.3807325554548
 20
455.8667651608062
 30
0.0
 40
1.5
100
AcDbArc
 50
194.4775121859267
 51
270.0
  0
ARC
  5
1D1E
330
1101
100
AcDbEntity
  8
STEMPEL
100
AcDbCircle
 10
323.569481748054
 20
455.8667651608062
 30
0.0
 40
1.5
100
AcDbArc
 50
270.0
 51
345.5224878140702
  0
ARC
  5
1D1F
330
1101
100
AcDbEntity
  8
STEMPEL
100
AcDbCircle
 10
312.1923170937033
 20
456.8667651608062
 30
0.0
 40
2.5
100
AcDbArc
 50
210.0000000000079
 51
270.0
  0
ARC
  5
1D20
330
1101
100
AcDbEntity
  8
STEMPEL
100
AcDbCircle
 10
312.1923170937033
 20
456.8667651608062
 30
0.0
 40
1.5
100
AcDbArc
 50
210.0000000000079
 51
270.0
  0
ARC
  5
1D21
330
1101
100
AcDbEntity
  8
STEMPEL
100
AcDbCircle
 10
335.5942408823509
 20
455.3667651608062
 30
0.0
 40
0.5
100
AcDbArc
 50
30.00000000000339
 51
90.0
  0
ARC
  5
1D22
330
1101
100
AcDbEntity
  8
STEMPEL
100
AcDbCircle
 10
338.1923170937036
 20
456.8667651608062
 30
0.0
 40
1.5
100
AcDbArc
 50
210.0000000000034
 51
270.0
  0
ARC
  5
1D23
330
1101
100
AcDbEntity
  8
STEMPEL
100
AcDbCircle
 10
335.5942408823509
 20
455.3667651608062
 30
0.0
 40
1.5
100
AcDbArc
 50
30.00000000000339
 51
90.0
  0
ARC
  5
1D24
330
1101
100
AcDbEntity
  8
STEMPEL
100
AcDbCircle
 10
338.1923170937036
 20
456.8667651608062
 30
0.0
 40
2.5
100
AcDbArc
 50
210.0000000000034
 51
270.0
  0
ARC
  5
1D25
330
1101
100
AcDbEntity
  8
STEMPEL
100
AcDbCircle
 10
347.2442408823507
 20
455.3667651608062
 30
0.0
 40
1.5
100
AcDbArc
 50
90.0
 51
149.9999999999966
  0
ARC
  5
1D26
330
1101
100
AcDbEntity
  8
STEMPEL
100
AcDbCircle
 10
347.2442408823507
 20
455.3667651608062
 30
0.0
 40
0.5
100
AcDbArc
 50
90.0
 51
149.9999999999966
  0
LINE
  5
1D27
330
1101
100
AcDbEntity
  8
STEMPEL
100
AcDbLine
 10
347.4442408823508
 20
455.8667651608063
 30
0.0
 11
347.2442408823507
 21
455.8667651608063
 31
0.0
  0
ARC
  5
1D28
330
1101
100
AcDbEntity
  8
STEMPEL
100
AcDbCircle
 10
347.4442408823508
 20
455.3667651608062
 30
0.0
 40
0.5
100
AcDbArc
 50
29.99999999999611
 51
90.0
  0
ARC
  5
1D29
330
1101
100
AcDbEntity
  8
STEMPEL
100
AcDbCircle
 10
344.6461646709979
 20
456.8667651608062
 30
0.0
 40
1.5
100
AcDbArc
 50
270.0
 51
329.9999999999994
  0
LINE
  5
1D2A
330
1101
100
AcDbEntity
  8
STEMPEL
100
AcDbLine
 10
352.1011646709969
 20
455.3667651608062
 30
0.0
 11
350.0423170937045
 21
455.3667651608062
 31
0.0
  0
LINE
  5
1D2B
330
1101
100
AcDbEntity
  8
STEMPEL
100
AcDbLine
 10
352.1011646709969
 20
455.3667651608062
 30
0.0
 11
350.0423170937045
 21
455.3667651608062
 31
0.0
  0
ARC
  5
1D2C
330
1101
100
AcDbEntity
  8
STEMPEL
100
AcDbCircle
 10
350.0423170937045
 20
456.8667651608062
 30
0.0
 40
1.5
100
AcDbArc
 50
209.9999999999961
 51
270.0
  0
ARC
  5
1D2D
330
1101
100
AcDbEntity
  8
STEMPEL
100
AcDbCircle
 10
347.4442408823508
 20
455.3667651608062
 30
0.0
 40
1.5
100
AcDbArc
 50
29.99999999999611
 51
90.0
  0
ARC
  5
1D2E
330
1101
100
AcDbEntity
  8
STEMPEL
100
AcDbCircle
 10
354.8992408823508
 20
455.3667651608062
 30
0.0
 40
1.5
100
AcDbArc
 50
29.99999999999611
 51
90.0
  0
ARC
  5
1D2F
330
1101
100
AcDbEntity
  8
STEMPEL
100
AcDbCircle
 10
354.6992408823507
 20
455.3667651608062
 30
0.0
 40
1.5
100
AcDbArc
 50
90.0
 51
150.0000000000075
  0
ARC
  5
1D30
330
1101
100
AcDbEntity
  8
STEMPEL
100
AcDbCircle
 10
354.6992408823507
 20
455.3667651608062
 30
0.0
 40
0.5
100
AcDbArc
 50
90.0
 51
150.0000000000002
  0
LINE
  5
1D31
330
1101
100
AcDbEntity
  8
STEMPEL
100
AcDbLine
 10
354.8992408823508
 20
455.8667651608062
 30
0.0
 11
354.6992408823507
 21
455.8667651608062
 31
0.0
  0
ARC
  5
1D32
330
1101
100
AcDbEntity
  8
STEMPEL
100
AcDbCircle
 10
354.8992408823508
 20
455.3667651608062
 30
0.0
 40
0.5
100
AcDbArc
 50
29.99999999999975
 51
90.0
  0
ARC
  5
1D33
330
1101
100
AcDbEntity
  8
STEMPEL
100
AcDbCircle
 10
357.4973170937042
 20
456.8667651608062
 30
0.0
 40
1.5
100
AcDbArc
 50
209.9999999999961
 51
270.0
  0
ARC
  5
1D34
330
1101
100
AcDbEntity
  8
STEMPEL
100
AcDbCircle
 10
352.1011646709969
 20
456.8667651608062
 30
0.0
 40
1.5
100
AcDbArc
 50
270.0
 51
330.0000000000039
  0
ARC
  5
1D35
330
1101
100
AcDbEntity
  8
STEMPEL
100
AcDbCircle
 10
344.6461646709979
 20
456.8667651608062
 30
0.0
 40
2.5
100
AcDbArc
 50
270.0
 51
329.9999999999994
  0
ARC
  5
1D36
330
1101
100
AcDbEntity
  8
STEMPEL
100
AcDbCircle
 10
350.0423170937045
 20
456.8667651608062
 30
0.0
 40
2.5
100
AcDbArc
 50
209.9999999999961
 51
270.0
  0
ARC
  5
1D37
330
1101
100
AcDbEntity
  8
STEMPEL
100
AcDbCircle
 10
352.1011646709969
 20
456.8667651608062
 30
0.0
 40
2.5
100
AcDbArc
 50
270.0
 51
330.0000000000076
  0
ARC
  5
1D38
330
1101
100
AcDbEntity
  8
STEMPEL
100
AcDbCircle
 10
357.4973170937042
 20
456.8667651608062
 30
0.0
 40
2.5
100
AcDbArc
 50
209.9999999999997
 51
270.0
  0
LINE
  5
1D39
330
1101
100
AcDbEntity
  8
STEMPEL
100
AcDbLine
 10
344.6461646709979
 20
455.3667651608062
 30
0.0
 11
338.1923170937036
 21
455.3667651608062
 31
0.0
  0
LINE
  5
1D3A
330
1101
100
AcDbEntity
  8
STEMPEL
100
AcDbLine
 10
344.6461646709979
 20
455.3667651608062
 30
0.0
 11
338.1923170937036
 21
455.3667651608062
 31
0.0
  0
LINE
  5
1D3B
330
1101
100
AcDbEntity
  8
STEMPEL
100
AcDbLine
 10
354.8992408823508
 20
456.8667651608062
 30
0.0
 11
309.3942408823509
 21
456.8667651608062
 31
0.0
  0
LINE
  5
1D3C
330
1101
100
AcDbEntity
  8
STEMPEL
100
AcDbLine
 10
335.5942408823509
 20
455.8667651608063
 30
0.0
 11
325.5059734211573
 21
455.8667651608063
 31
0.0
  0
LINE
  5
1D3D
330
1101
100
AcDbEntity
  8
STEMPEL
100
AcDbLine
 10
306.7961646709968
 20
455.3667651608063
 30
0.0
 11
252.2356792660535
 21
455.3667651608065
 31
0.0
  0
LWPOLYLINE
  5
1D3E
330
1101
100
AcDbEntity
  8
STEMPEL
100
AcDbPolyline
 90
       10
 70
   128
 43
0.0
 10
-229.8262406127264
 20
365.3667651608066
 10
-230.6624198875681
 20
365.4579186427334
 10
-231.4731922782706
 20
365.7286094360912
 10
-232.2339228760135
 20
366.1706127381
 10
-232.9214972665322
 20
366.7704985020928
 10
-233.5150238499007
 20
367.5100395026876
 10
-233.9964686212219
 20
368.3667651608069
 10
-234.3512031247422
 20
369.3146443008529
 10
-234.5684489320764
 20
370.3248760948054
 10
-234.6416051393004
 20
371.3667651608071
210
0.0
220
0.0
230
-1.0
  0
LWPOLYLINE
  5
1D3F
330
1101
100
AcDbEntity
  8
STEMPEL
100
AcDbPolyline
 90
        7
 70
   128
 43
0.0
 10
-231.5619791701244
 20
366.3667651608066
 10
-232.1820696931887
 20
366.9761030626474
 10
-232.7138898399722
 20
367.7035333359367
 10
-233.1431356397035
 20
368.5294908298804
 10
-233.4582619875008
 20
369.4317603803427
 10
-233.6507931644667
 20
370.3860743145859
 10
-233.715550802793
 20
371.3667651608071
210
0.0
220
0.0
230
-1.0
  0
LINE
  5
1D40
330
1101
100
AcDbEntity
  8
STEMPEL
100
AcDbLine
 10
234.6416051393004
 20
377.8667651608048
 30
0.0
 11
234.6416051393004
 21
371.3667651608082
 31
0.0
  0
LINE
  5
1D41
330
1101
100
AcDbEntity
  8
STEMPEL
100
AcDbLine
 10
233.7155508027931
 20
377.8667651608048
 30
0.0
 11
233.7155508027931
 21
371.3667651608082
 31
0.0
  0
LINE
  5
1D42
330
1101
100
AcDbEntity
  8
STEMPEL
100
AcDbLine
 10
241.3994043229822
 20
377.8667651608048
 30
0.0
 11
241.3994043229822
 21
371.3667651608082
 31
0.0
  0
LWPOLYLINE
  5
1D43
330
1101
100
AcDbEntity
  8
STEMPEL
100
AcDbPolyline
 90
       10
 70
   128
 43
0.0
 10
-237.0356981483762
 20
365.3667651608066
 10
-237.7934477734704
 20
365.4579186427334
 10
-238.528173559646
 20
365.7286094360912
 10
-239.2175512356792
 20
366.1706127381
 10
-239.8406344097256
 20
366.7704985020928
 10
-240.378491014837
 20
367.5100395026876
 10
-240.8147785502359
 20
368.3667651608069
 10
-241.1362406399312
 20
369.3146443008529
 10
-241.3331098209952
 20
370.3248760948054
 10
-241.399404322982
 20
371.3667651608071
210
0.0
220
0.0
230
-1.0
  0
LWPOLYLINE
  5
1D44
330
1101
100
AcDbEntity
  8
STEMPEL
100
AcDbPolyline
 90
        7
 70
   128
 43
0.0
 10
-247.7840280427749
 20
366.3667651608066
 10
-248.3459570160391
 20
366.9761030626474
 10
-248.8278949556262
 20
367.7035333359368
 10
-249.2168795353761
 20
368.5294908298804
 10
-249.5024485264825
 20
369.4317603803427
 10
-249.6769211922784
 20
370.3860743145859
 10
-249.7356048712934
 20
371.3667651608071
210
0.0
220
0.0
230
-1.0
  0
LWPOLYLINE
  5
1D45
330
1101
100
AcDbEntity
  8
STEMPEL
100
AcDbPolyline
 90
       10
 70
   128
 43
0.0
 10
-246.1671195835081
 20
365.3667651608066
 10
-246.9248692086023
 20
365.4579186427334
 10
-247.6595949947779
 20
365.7286094360912
 10
-248.348972670811
 20
366.1706127381
 10
-248.9720558448574
 20
366.7704985020928
 10
-249.5099124499688
 20
367.5100395026876
 10
-249.9461999853678
 20
368.3667651608069
 10
-250.2676620750631
 20
369.3146443008529
 10
-250.4645312561271
 20
370.3248760948054
 10
-250.5308257581139
 20
371.3667651608071
210
0.0
220
0.0
230
-1.0
  0
LINE
  5
1D46
330
1101
100
AcDbEntity
  8
STEMPEL
100
AcDbLine
 10
250.530825758114
 20
377.8667651608048
 30
0.0
 11
250.530825758114
 21
371.3667651608082
 31
0.0
  0
LINE
  5
1D47
330
1101
100
AcDbEntity
  8
STEMPEL
100
AcDbLine
 10
249.7356048712933
 20
377.8667651608048
 30
0.0
 11
249.7356048712933
 21
371.3667651608082
 31
0.0
  0
LWPOLYLINE
  5
1D48
330
1101
100
AcDbEntity
  8
STEMPEL
100
AcDbPolyline
 90
       10
 70
   128
 43
0.0
 10
-256.4251938799416
 20
365.3667651608066
 10
-257.0611982399425
 20
365.4579186427334
 10
-257.6778779292987
 20
365.7286094360912
 10
-258.2564954477037
 20
366.1706127381
 10
-258.7794697946556
 20
366.7704985020928
 10
-259.2309106592601
 20
367.5100395026876
 10
-259.5971012392861
 20
368.3667651608069
 10
-259.866915019261
 20
369.3146443008529
 10
-260.0321538440127
 20
370.3248760948054
 10
-260.0877970154658
 20
371.3667651608071
210
0.0
220
0.0
230
-1.0
  0
LINE
  5
1D49
330
1101
100
AcDbEntity
  8
STEMPEL
100
AcDbLine
 10
260.0877970154658
 20
377.8667651608048
 30
0.0
 11
260.0877970154658
 21
371.3667651608082
 31
0.0
  0
LINE
  5
1D4A
330
1101
100
AcDbEntity
  8
STEMPEL
100
AcDbLine
 10
239.4478274944637
 20
366.3667651608066
 30
0.0
 11
247.7840280427756
 21
366.3667651608066
 31
0.0
  0
LWPOLYLINE
  5
1D4B
330
1101
100
AcDbEntity
  8
STEMPEL
100
AcDbPolyline
 90
       10
 70
   128
 43
0.0
 10
245.1698941537272
 20
385.366765160808
 10
245.9627214995869
 20
385.2528233083995
 10
246.7314591877326
 20
384.9144598167022
 10
247.4527495125102
 20
384.3619556891911
 10
248.1046764323917
 20
383.6120984841999
 10
248.6674314778073
 20
382.6876722334564
 10
249.1239156214703
 20
381.6167651608072
 10
249.460258823667
 20
380.4319162357495
 10
249.6662414663971
 20
379.1691264933086
 10
249.7356048712932
 20
377.8667651608064
  0
LWPOLYLINE
  5
1D4C
330
1101
100
AcDbEntity
  8
STEMPEL
100
AcDbPolyline
 90
       18
 70
   128
 43
0.0
 10
241.3994043229823
 20
377.8667651608048
 10
241.4771442242424
 20
379.2448865444293
 10
241.7077165889242
 20
380.576077657209
 10
242.0832695516893
 20
381.8150063823858
 10
242.591014106817
 20
382.919482488155
 10
243.213659622455
 20
383.8518943654079
 10
243.9300026523491
 20
384.5804898459692
 10
244.715648993775
 20
385.0804574846025
 10
245.5438444028544
 20
385.3347714830192
 10
246.386385678242
 20
385.3347714830192
 10
247.2145810873215
 20
385.0804574846025
 10
248.0002274287473
 20
384.5804898459692
 10
248.7165704586414
 20
383.8518943654079
 10
249.3392159742793
 20
382.919482488155
 10
249.846960529407
 20
381.8150063823858
 10
250.2225134921722
 20
380.576077657209
 10
250.4530858568541
 20
379.2448865444293
 10
250.5308257581141
 20
377.8667651608048
  0
LWPOLYLINE
  5
1D4D
330
1101
100
AcDbEntity
  8
STEMPEL
100
AcDbPolyline
 90
        9
 70
   128
 43
0.0
 10
231.3084522283094
 20
385.2685234054699
 10
231.7975127715782
 20
384.9420905077124
 10
232.2571257394792
 20
384.3968214944553
 10
232.6730755431035
 20
383.6495812513273
 10
233.032497072395
 20
382.7234815285497
 10
233.3242736072825
 20
381.6471661065794
 10
233.5393806520207
 20
380.4539248589486
 10
233.6711650581282
 20
379.1806641138728
 10
233.715550802793
 20
377.8667651608064
  0
LINE
  5
1D4E
330
1101
100
AcDbEntity
  8
STEMPEL
100
AcDbLine
 10
271.9880971198346
 20
377.8667651608048
 30
0.0
 11
271.9880971198346
 21
371.3667651608082
 31
0.0
  0
LINE
  5
1D4F
330
1101
100
AcDbEntity
  8
STEMPEL
100
AcDbLine
 10
271.3779026719723
 20
377.8667651608048
 30
0.0
 11
271.3779026719723
 21
371.3667651608082
 31
0.0
  0
LWPOLYLINE
  5
1D50
330
1101
100
AcDbEntity
  8
STEMPEL
100
AcDbPolyline
 90
       10
 70
   128
 43
0.0
 10
-268.3254939843105
 20
365.3667651608066
 10
-268.9614983443114
 20
365.4579186427334
 10
-269.5781780336675
 20
365.7286094360912
 10
-270.1567955520726
 20
366.1706127381
 10
-270.6797698990245
 20
366.7704985020928
 10
-271.1312107636289
 20
367.5100395026876
 10
-271.4974013436549
 20
368.3667651608069
 10
-271.7672151236298
 20
369.3146443008529
 10
-271.9324539483815
 20
370.3248760948054
 10
-271.9880971198346
 20
371.3667651608071
210
0.0
220
0.0
230
-1.0
  0
LWPOLYLINE
  5
1D51
330
1101
100
AcDbEntity
  8
STEMPEL
100
AcDbPolyline
 90
        7
 70
   128
 43
0.0
 10
-269.7398795958669
 20
366.3667651608066
 10
-270.2115251964337
 20
366.9761030626475
 10
-270.6160316728166
 20
367.7035333359368
 10
-270.9425193153056
 20
368.5294908298804
 10
-271.1822068287139
 20
369.4317603803427
 10
-271.3286475163398
 20
370.3860743145859
 10
-271.3779026719723
 20
371.3667651608071
210
0.0
220
0.0
230
-1.0
  0
LWPOLYLINE
  5
1D52
330
1101
100
AcDbEntity
  8
STEMPEL
100
AcDbPolyline
 90
       10
 70
   128
 43
0.0
 10
-280.9706053261067
 20
365.3667651608066
 10
-281.4433352838603
 20
365.4579186427334
 10
-281.9017015810605
 20
365.7286094360912
 10
-282.3317769897112
 20
366.1706127381
 10
-282.7204938861495
 20
366.7704985020928
 10
-283.0560413041772
 20
367.5100395026876
 10
-283.3282238052928
 20
368.3667651608069
 10
-283.5287712619309
 20
369.3146443008529
 10
-283.6515901411033
 20
370.3248760948054
 10
-283.6929486533158
 20
371.3667651608071
210
0.0
220
0.0
230
-1.0
  0
LINE
  5
1D53
330
1101
100
AcDbEntity
  8
STEMPEL
100
AcDbLine
 10
283.6929486533158
 20
377.8667651608048
 30
0.0
 11
283.6929486533158
 21
371.3667651608082
 31
0.0
  0
LWPOLYLINE
  5
1D54
330
1101
100
AcDbEntity
  8
STEMPEL
100
AcDbPolyline
 90
        9
 70
   128
 43
0.0
 10
265.7328498437306
 20
385.3568992386285
 10
266.8492575651018
 20
385.1495921022214
 10
267.914536816844
 20
384.6803373747676
 10
268.8903717998824
 20
383.966013137599
 10
269.7416638327403
 20
383.0323120942026
 10
270.4377937754767
 20
381.9128174590422
 10
270.9537233341681
 20
380.6477950417035
 10
271.2708956343839
 20
379.2827449724943
 10
271.3779026719722
 20
377.8667651608064
  0
LWPOLYLINE
  5
1D55
330
1101
100
AcDbEntity
  8
STEMPEL
100
AcDbPolyline
 90
       18
 70
   128
 43
0.0
 10
260.0877970154656
 20
377.8667651608048
 10
260.18910962727
 20
379.2448865444293
 10
260.4895973831992
 20
380.576077657209
 10
260.9790275331204
 20
381.8150063823858
 10
261.6407331202848
 20
382.919482488155
 10
262.45218055455
 20
383.8518943654079
 10
263.3857369667656
 20
384.5804898459692
 10
264.4096112129918
 20
385.0804574846025
 10
265.4889364837745
 20
385.3347714830192
 10
266.5869576515256
 20
385.3347714830192
 10
267.6662829223084
 20
385.0804574846025
 10
268.6901571685345
 20
384.5804898459692
 10
269.6237135807502
 20
383.8518943654079
 10
270.4351610150153
 20
382.919482488155
 10
271.0968666021797
 20
381.8150063823858
 10
271.5862967521009
 20
380.576077657209
 10
271.8867845080301
 20
379.2448865444293
 10
271.9880971198345
 20
377.8667651608048
  0
LINE
  5
1D56
330
1101
100
AcDbEntity
  8
STEMPEL
100
AcDbLine
 10
258.4497739393604
 20
366.3667651608066
 30
0.0
 11
269.7398795958675
 21
366.3667651608066
 31
0.0
  0
LWPOLYLINE
  5
1D57
330
1101
100
AcDbEntity
  8
STEMPEL
100
AcDbPolyline
 90
        7
 70
   128
 43
0.0
 10
-295.9500459425806
 20
366.3667651608066
 10
-296.3006111569926
 20
366.9761030626474
 10
-296.6012731359313
 20
367.7035333359367
 10
-296.8439451978659
 20
368.5294908298804
 10
-297.0221003729144
 20
369.4317603803427
 10
-297.1309469538949
 20
370.3860743145859
 10
-297.1675573753097
 20
371.3667651608071
210
0.0
220
0.0
230
-1.0
  0
LINE
  5
1D58
330
1101
100
AcDbEntity
  8
STEMPEL
100
AcDbLine
 10
297.5511416409867
 20
377.8667651608032
 30
0.0
 11
297.5511416409867
 21
371.3667651608082
 31
0.0
  0
LINE
  5
1D59
330
1101
100
AcDbEntity
  8
STEMPEL
100
AcDbLine
 10
297.1675573753097
 20
377.8667651608048
 30
0.0
 11
297.1675573753097
 21
371.3667651608082
 31
0.0
  0
LWPOLYLINE
  5
1D5A
330
1101
100
AcDbEntity
  8
STEMPEL
100
AcDbPolyline
 90
       10
 70
   128
 43
0.0
 10
-309.2946324252586
 20
365.3667651608066
 10
-309.5223849881272
 20
365.4579186427334
 10
-309.7432174046214
 20
365.7286094360912
 10
-309.9504197935126
 20
366.1706127381
 10
-310.1376964150638
 20
366.7704985020928
 10
-310.2993569638957
 20
367.5100395026876
 10
-310.4304894660363
 20
368.3667651608069
 10
-310.5271095267643
 20
369.3146443008529
 10
-310.5862813944264
 20
370.3248760948054
 10
-310.6062071617665
 20
371.3667651608071
210
0.0
220
0.0
230
-1.0
  0
LINE
  5
1D5B
330
1101
100
AcDbEntity
  8
STEMPEL
100
AcDbLine
 10
310.6062071617663
 20
377.8667651608064
 30
0.0
 11
310.6062071617663
 21
371.3667651608082
 31
0.0
  0
LWPOLYLINE
  5
1D5C
330
1101
100
AcDbEntity
  8
STEMPEL
100
AcDbPolyline
 90
        7
 70
   128
 43
0.0
 10
-324.7604721104305
 20
366.3667651608066
 10
-324.929367956199
 20
366.9761030626474
 10
-325.0742213447716
 20
367.7035333359368
 10
-325.1911362623387
 20
368.5294908298804
 10
-325.2769681353564
 20
369.4317603803427
 10
-325.3294084078021
 20
370.3860743145859
 10
-325.3470466326874
 20
371.3667651608071
210
0.0
220
0.0
230
-1.0
  0
LWPOLYLINE
  5
1D5D
330
1101
100
AcDbEntity
  8
STEMPEL
100
AcDbPolyline
 90
       10
 70
   128
 43
0.0
 10
-324.1663053458662
 20
365.3667651608066
 10
-324.3940579087347
 20
365.4579186427334
 10
-324.614890325229
 20
365.7286094360912
 10
-324.8220927141202
 20
366.1706127381
 10
-325.0093693356713
 20
366.7704985020928
 10
-325.1710298845033
 20
367.5100395026876
 10
-325.3021623866439
 20
368.3667651608069
 10
-325.3987824473719
 20
369.3146443008529
 10
-325.4579543150341
 20
370.3248760948054
 10
-325.4778800823741
 20
371.3667651608071
210
0.0
220
0.0
230
-1.0
  0
LINE
  5
1D5E
330
1101
100
AcDbEntity
  8
STEMPEL
100
AcDbLine
 10
325.4778800823741
 20
377.8667651608032
 30
0.0
 11
325.4778800823741
 21
371.3667651608082
 31
0.0
  0
LINE
  5
1D5F
330
1101
100
AcDbEntity
  8
STEMPEL
100
AcDbLine
 10
325.3470466326875
 20
377.8667651608048
 30
0.0
 11
325.3470466326875
 21
371.3667651608082
 31
0.0
  0
LINE
  5
1D60
330
1101
100
AcDbEntity
  8
STEMPEL
100
AcDbLine
 10
310.0196326395094
 20
366.3667651608066
 30
0.0
 11
324.7604721104309
 21
366.3667651608066
 31
0.0
  0
LWPOLYLINE
  5
1D61
330
1101
100
AcDbEntity
  8
STEMPEL
100
AcDbPolyline
 90
        9
 70
   128
 43
0.0
 10
317.9766268973269
 20
385.3664749205795
 10
319.4179668812047
 20
385.2111735266559
 10
320.8020477846542
 20
384.7767732796415
 10
322.0762723971862
 20
384.0797820593664
 10
323.1922182169161
 20
383.1466866079206
 10
324.1074775803691
 20
382.0129459925772
 10
324.7872692191442
 20
380.7216441065078
 10
325.2057600017936
 20
379.3218524143482
 10
325.3470466326875
 20
377.8667651608064
  0
LWPOLYLINE
  5
1D62
330
1101
100
AcDbEntity
  8
STEMPEL
100
AcDbPolyline
 90
       18
 70
   128
 43
0.0
 10
310.6062071617666
 20
377.8667651608048
 10
310.7328164079429
 20
379.2448865444293
 10
311.1083326204446
 20
380.576077657209
 10
311.719968045037
 20
381.8150063823858
 10
312.5468941709113
 20
382.919482488155
 10
313.5609510206396
 20
383.8518943654079
 10
314.7276061044313
 20
384.5804898459692
 10
316.0071303826566
 20
385.0804574846025
 10
317.3559511906407
 20
385.3347714830192
 10
318.7281360535
 20
385.3347714830192
 10
320.0769568614841
 20
385.0804574846025
 10
321.3564811397094
 20
384.5804898459692
 10
322.5231362235011
 20
383.8518943654079
 10
323.5371930732294
 20
382.919482488155
 10
324.3641191991037
 20
381.8150063823858
 10
324.9757546236961
 20
380.576077657209
 10
325.3512708361978
 20
379.2448865444293
 10
325.4778800823741
 20
377.8667651608048
  0
LWPOLYLINE
  5
1D63
330
1101
100
AcDbEntity
  8
STEMPEL
100
AcDbPolyline
 90
        7
 70
   128
 43
0.0
 10
339.7108864216765
 20
366.3667651608066
 10
339.5419905759081
 20
366.9761030626474
 10
339.3971371873354
 20
367.7035333359368
 10
339.2802222697683
 20
368.5294908298804
 10
339.1943903967507
 20
369.4317603803427
 10
339.141950124305
 20
370.3860743145859
 10
339.1243118994196
 20
371.3667651608071
  0
LWPOLYLINE
  5
1D64
330
1101
100
AcDbEntity
  8
STEMPEL
100
AcDbPolyline
 90
       10
 70
   128
 43
0.0
 10
340.3050531862409
 20
365.3667651608066
 10
340.0773006233723
 20
365.4579186427334
 10
339.8564682068781
 20
365.7286094360912
 10
339.6492658179869
 20
366.1706127381
 10
339.4619891964357
 20
366.7704985020928
 10
339.3003286476038
 20
367.5100395026876
 10
339.1691961454631
 20
368.3667651608069
 10
339.0725760847352
 20
369.3146443008529
 10
339.0134042170729
 20
370.3248760948054
 10
338.993478449733
 20
371.3667651608071
  0
LINE
  5
1D65
330
1101
100
AcDbEntity
  8
STEMPEL
100
AcDbLine
 10
339.1243118994195
 20
377.8667651608048
 30
0.0
 11
339.1243118994195
 21
371.3667651608082
 31
0.0
  0
LINE
  5
1D66
330
1101
100
AcDbEntity
  8
STEMPEL
100
AcDbLine
 10
338.993478449733
 20
377.8667651608032
 30
0.0
 11
338.993478449733
 21
371.3667651608082
 31
0.0
  0
LWPOLYLINE
  5
1D67
330
1101
100
AcDbEntity
  8
STEMPEL
100
AcDbPolyline
 90
       10
 70
   128
 43
0.0
 10
355.1767261068484
 20
365.3667651608066
 10
354.9489735439799
 20
365.4579186427334
 10
354.7281411274857
 20
365.7286094360912
 10
354.5209387385944
 20
366.1706127381
 10
354.3336621170433
 20
366.7704985020928
 10
354.1720015682113
 20
367.5100395026876
 10
354.0408690660707
 20
368.3667651608069
 10
353.9442490053428
 20
369.3146443008529
 10
353.8850771376805
 20
370.3248760948054
 10
353.8651513703406
 20
371.3667651608071
  0
LINE
  5
1D68
330
1101
100
AcDbEntity
  8
STEMPEL
100
AcDbLine
 10
353.8651513703407
 20
377.8667651608064
 30
0.0
 11
353.8651513703407
 21
371.3667651608082
 31
0.0
  0
LINE
  5
1D69
330
1101
100
AcDbEntity
  8
STEMPEL
100
AcDbLine
 10
354.4517258925976
 20
366.3667651608066
 30
0.0
 11
339.7108864216762
 21
366.3667651608066
 31
0.0
  0
LWPOLYLINE
  5
1D6A
330
1101
100
AcDbEntity
  8
STEMPEL
100
AcDbPolyline
 90
       18
 70
   128
 43
0.0
 10
-353.8651513703405
 20
377.8667651608048
 10
-353.7385421241641
 20
379.2448865444293
 10
-353.3630259116624
 20
380.576077657209
 10
-352.7513904870701
 20
381.8150063823858
 10
-351.9244643611957
 20
382.919482488155
 10
-350.9104075114674
 20
383.8518943654079
 10
-349.7437524276757
 20
384.5804898459692
 10
-348.4642281494505
 20
385.0804574846025
 10
-347.1154073414663
 20
385.3347714830192
 10
-345.743222478607
 20
385.3347714830192
 10
-344.3944016706229
 20
385.0804574846025
 10
-343.1148773923977
 20
384.5804898459692
 10
-341.9482223086059
 20
383.8518943654079
 10
-340.9341654588776
 20
382.919482488155
 10
-340.1072393330033
 20
381.8150063823858
 10
-339.4956039084109
 20
380.576077657209
 10
-339.1200876959093
 20
379.2448865444293
 10
-338.9934784497329
 20
377.8667651608048
210
0.0
220
0.0
230
-1.0
  0
LWPOLYLINE
  5
1D6B
330
1101
100
AcDbEntity
  8
STEMPEL
100
AcDbPolyline
 90
        9
 70
   128
 43
0.0
 10
-346.4947316347802
 20
385.3664749205795
 10
-345.0533916509024
 20
385.2111735266559
 10
-343.6693107474528
 20
384.7767732796415
 10
-342.3950861349208
 20
384.0797820593664
 10
-341.279140315191
 20
383.1466866079206
 10
-340.3638809517379
 20
382.0129459925772
 10
-339.6840893129629
 20
380.7216441065078
 10
-339.2655985303134
 20
379.3218524143482
 10
-339.1243118994195
 20
377.8667651608064
210
0.0
220
0.0
230
-1.0
  0
LWPOLYLINE
  5
1D6C
330
1101
100
AcDbEntity
  8
STEMPEL
100
AcDbPolyline
 90
       18
 70
   128
 43
0.0
 10
283.6929486533158
 20
377.8667651608048
 10
283.8109296885969
 20
379.2448865444293
 10
284.1608550917866
 20
380.576077657209
 10
284.7308085729683
 20
381.8150063823858
 10
285.5013810499244
 20
382.919482488155
 10
286.4463316011519
 20
383.8518943654079
 10
287.533481068972
 20
384.5804898459692
 10
288.7258078821503
 20
385.0804574846025
 10
289.9827087811021
 20
385.3347714830192
 10
291.2613815132004
 20
385.3347714830192
 10
292.5182824121522
 20
385.0804574846025
 10
293.7106092253305
 20
384.5804898459692
 10
294.7977586931506
 20
383.8518943654079
 10
295.7427092443781
 20
382.919482488155
 10
296.5132817213342
 20
381.8150063823858
 10
297.0832352025159
 20
380.576077657209
 10
297.4331606057056
 20
379.2448865444293
 10
297.5511416409867
 20
377.8667651608048
  0
LWPOLYLINE
  5
1D6D
330
1101
100
AcDbEntity
  8
STEMPEL
100
AcDbPolyline
 90
        9
 70
   128
 43
0.0
 10
290.4302530143393
 20
385.363891583845
 10
291.7544624646692
 20
385.1850586767971
 10
293.0224418618553
 20
384.734782759473
 10
294.1871605499409
 20
384.0297650273338
 10
295.2054179185475
 20
383.0961553109503
 10
296.0394457578098
 20
381.9685821519742
 10
296.6583091200037
 20
380.6888683950224
 10
297.0390537284779
 20
379.3044799354869
 10
297.1675573753097
 20
377.8667651608064
  0
LINE
  5
1D6E
330
1101
100
AcDbEntity
  8
STEMPEL
100
AcDbLine
 10
282.4754372205867
 20
366.3667651608066
 30
0.0
 11
295.9500459425811
 21
366.3667651608066
 31
0.0
  0
LWPOLYLINE
  5
1D6F
330
1101
100
AcDbEntity
  8
STEMPEL
100
AcDbPolyline
 90
       10
 70
   128
 43
0.0
 10
-294.8287983137777
 20
365.3667651608066
 10
-295.3015282715313
 20
365.4579186427334
 10
-295.7598945687315
 20
365.7286094360912
 10
-296.1899699773822
 20
366.1706127381
 10
-296.5786868738204
 20
366.7704985020928
 10
-296.9142342918481
 20
367.5100395026876
 10
-297.1864167929637
 20
368.3667651608069
 10
-297.3869642496018
 20
369.3146443008529
 10
-297.5097831287742
 20
370.3248760948054
 10
-297.5511416409867
 20
371.3667651608071
210
0.0
220
0.0
230
-1.0
  0
LWPOLYLINE
  5
1D71
330
1101
100
AcDbEntity
  8
STEMPEL
100
AcDbPolyline
 90
       18
 70
   128
 43
0.0
 10
228.9013536538226
 20
377.8667651608048
 10
228.9502229987389
 20
379.2448865444293
 10
229.095166846559
 20
380.576077657209
 10
229.3312493083862
 20
381.8150063823858
 10
229.6504308791329
 20
382.919482488155
 10
230.0418422132233
 20
383.8518943654079
 10
230.4921542671213
 20
384.5804898459692
 10
230.9860322039207
 20
385.0804574846025
 10
231.5066576028256
 20
385.3347714830192
 10
232.0363011902974
 20
385.3347714830192
 10
232.5569265892024
 20
385.0804574846025
 10
233.0508045260018
 20
384.5804898459692
 10
233.5011165798998
 20
383.8518943654079
 10
233.8925279139902
 20
382.919482488155
 10
234.2117094847369
 20
381.8150063823858
 10
234.447791946564
 20
380.576077657209
 10
234.5927357943841
 20
379.2448865444293
 10
234.6416051393004
 20
377.8667651608048
  0
LINE
  5
1D72
330
1101
100
AcDbEntity
  8
STEMPEL
100
AcDbLine
 10
226.7477820211541
 20
366.3667651608066
 30
0.0
 11
231.5619791701255
 21
366.3667651608066
 31
0.0
  0
LINE
  5
1D73
330
1101
100
AcDbEntity
  8
STEMPEL
100
AcDbLine
 10
225.2029846443456
 20
440.54384572085
 30
0.0
 11
249.1892875198125
 21
454.5358557315384
 31
0.0
  0
LINE
  5
1D74
330
1101
100
AcDbEntity
  8
STEMPEL
100
AcDbLine
 10
225.7163256979264
 20
439.6856026076873
 30
0.0
 11
249.6951795908776
 21
453.6732557738727
 31
0.0
  0
ARC
  5
1D75
330
1101
100
AcDbEntity
  8
STEMPEL
100
AcDbCircle
 10
412.2356792660536
 20
449.3667651608062
 30
0.0
 40
6.0
100
AcDbArc
 50
90.0
 51
90.0
  0
ARC
  5
1D76
330
1101
100
AcDbEntity
  8
STEMPEL
100
AcDbCircle
 10
412.2356792660536
 20
449.3667651608062
 30
0.0
 40
6.0
100
AcDbArc
 50
59.48712567238196
 51
90.0
  0
ARC
  5
1D77
330
1101
100
AcDbEntity
  8
STEMPEL
100
AcDbCircle
 10
412.2356792660536
 20
449.3667651608062
 30
0.0
 40
5.0
100
AcDbArc
 50
59.46264995169953
 51
90.0
  0
ARC
  5
1D78
330
1101
100
AcDbEntity
  8
STEMPEL
100
AcDbCircle
 10
441.7468228703651
 20
444.8866021432684
 30
0.0
 40
5.0
100
AcDbArc
 50
239.7435628364698
 51
239.9329541615142
  0
ARC
  5
1D79
330
1101
100
AcDbEntity
  8
STEMPEL
100
AcDbCircle
 10
436.2356792660535
 20
435.366707193491
 30
0.0
 40
5.0
100
AcDbArc
 50
0.000000000000007
 51
59.74358352518558
  0
ARC
  5
1D7A
330
1101
100
AcDbEntity
  8
STEMPEL
100
AcDbCircle
 10
436.2356792660535
 20
435.366707193491
 30
0.0
 40
6.0
100
AcDbArc
 50
0.000000000000007
 51
59.74358352518558
  0
LINE
  5
1D7B
330
1101
100
AcDbEntity
  8
STEMPEL
100
AcDbLine
 10
438.7550328341807
 20
439.6856026076873
 30
0.0
 11
414.7761789412294
 21
453.6732557738727
 31
0.0
  0
LINE
  5
1D7C
330
1101
100
AcDbEntity
  8
STEMPEL
100
AcDbLine
 10
439.2683738877614
 20
440.54384572085
 30
0.0
 11
415.2820710122945
 21
454.5358557315384
 31
0.0
  0
LWPOLYLINE
  5
1D7D
330
1101
100
AcDbEntity
  8
STEMPEL
100
AcDbPolyline
 90
        7
 70
   128
 43
0.0
 10
368.5213125895264
 20
366.3667651608066
 10
368.1707473751144
 20
366.9761030626474
 10
367.8700853961757
 20
367.7035333359367
 10
367.6274133342411
 20
368.5294908298804
 10
367.4492581591926
 20
369.4317603803427
 10
367.3404115782121
 20
370.3860743145859
 10
367.3038011567973
 20
371.3667651608071
  0
LINE
  5
1D7E
330
1101
100
AcDbEntity
  8
STEMPEL
100
AcDbLine
 10
367.3038011567973
 20
377.8667651608048
 30
0.0
 11
367.3038011567973
 21
371.3667651608082
 31
0.0
  0
LINE
  5
1D7F
330
1101
100
AcDbEntity
  8
STEMPEL
100
AcDbLine
 10
366.9202168911203
 20
377.8667651608032
 30
0.0
 11
366.9202168911203
 21
371.3667651608082
 31
0.0
  0
LWPOLYLINE
  5
1D80
330
1101
100
AcDbEntity
  8
STEMPEL
100
AcDbPolyline
 90
       10
 70
   128
 43
0.0
 10
369.6425602183294
 20
365.3667651608066
 10
369.1698302605758
 20
365.4579186427334
 10
368.7114639633756
 20
365.7286094360912
 10
368.2813885547249
 20
366.1706127381
 10
367.8926716582866
 20
366.7704985020928
 10
367.5571242402589
 20
367.5100395026876
 10
367.2849417391433
 20
368.3667651608069
 10
367.0843942825052
 20
369.3146443008529
 10
366.9615754033328
 20
370.3248760948054
 10
366.9202168911203
 20
371.3667651608071
  0
LWPOLYLINE
  5
1D81
330
1101
100
AcDbEntity
  8
STEMPEL
100
AcDbPolyline
 90
       10
 70
   128
 43
0.0
 10
383.5007532060003
 20
365.3667651608066
 10
383.0280232482467
 20
365.4579186427334
 10
382.5696569510465
 20
365.7286094360912
 10
382.1395815423958
 20
366.1706127381
 10
381.7508646459575
 20
366.7704985020928
 10
381.4153172279299
 20
367.5100395026876
 10
381.1431347268142
 20
368.3667651608069
 10
380.9425872701762
 20
369.3146443008529
 10
380.8197683910037
 20
370.3248760948054
 10
380.7784098787913
 20
371.3667651608071
  0
LINE
  5
1D82
330
1101
100
AcDbEntity
  8
STEMPEL
100
AcDbLine
 10
380.7784098787913
 20
377.8667651608048
 30
0.0
 11
380.7784098787913
 21
371.3667651608082
 31
0.0
  0
LINE
  5
1D83
330
1101
100
AcDbEntity
  8
STEMPEL
100
AcDbLine
 10
393.0934558601348
 20
377.8667651608048
 30
0.0
 11
393.0934558601348
 21
371.3667651608082
 31
0.0
  0
LINE
  5
1D84
330
1101
100
AcDbEntity
  8
STEMPEL
100
AcDbLine
 10
392.4832614122725
 20
377.8667651608048
 30
0.0
 11
392.4832614122725
 21
371.3667651608082
 31
0.0
  0
LINE
  5
1D85
330
1101
100
AcDbEntity
  8
STEMPEL
100
AcDbLine
 10
381.9959213115204
 20
366.3667651608066
 30
0.0
 11
368.521312589526
 21
366.3667651608066
 31
0.0
  0
LWPOLYLINE
  5
1D86
330
1101
100
AcDbEntity
  8
STEMPEL
100
AcDbPolyline
 90
       18
 70
   128
 43
0.0
 10
-380.7784098787913
 20
377.8667651608048
 10
-380.6604288435102
 20
379.2448865444293
 10
-380.3105034403205
 20
380.576077657209
 10
-379.7405499591387
 20
381.8150063823858
 10
-378.9699774821826
 20
382.919482488155
 10
-378.0250269309551
 20
383.8518943654079
 10
-376.9378774631349
 20
384.5804898459692
 10
-375.7455506499568
 20
385.0804574846025
 10
-374.488649751005
 20
385.3347714830192
 10
-373.2099770189066
 20
385.3347714830192
 10
-371.9530761199548
 20
385.0804574846025
 10
-370.7607493067766
 20
384.5804898459692
 10
-369.6735998389565
 20
383.8518943654079
 10
-368.7286492877289
 20
382.919482488155
 10
-367.9580768107729
 20
381.8150063823858
 10
-367.3881233295911
 20
380.576077657209
 10
-367.0381979264015
 20
379.2448865444293
 10
-366.9202168911203
 20
377.8667651608048
210
0.0
220
0.0
230
-1.0
  0
LWPOLYLINE
  5
1D87
330
1101
100
AcDbEntity
  8
STEMPEL
100
AcDbPolyline
 90
        9
 70
   128
 43
0.0
 10
-374.0411055177677
 20
385.363891583845
 10
-372.7168960674378
 20
385.1850586767971
 10
-371.4489166702518
 20
384.734782759473
 10
-370.2841979821662
 20
384.0297650273338
 10
-369.2659406135595
 20
383.0961553109503
 10
-368.4319127742972
 20
381.9685821519742
 10
-367.8130494121033
 20
380.6888683950224
 10
-367.4323048036292
 20
379.3044799354869
 10
-367.3038011567973
 20
377.8667651608064
210
0.0
220
0.0
230
-1.0
  0
LWPOLYLINE
  5
1D88
330
1101
100
AcDbEntity
  8
STEMPEL
100
AcDbPolyline
 90
       10
 70
   128
 43
0.0
 10
408.0461646521654
 20
365.3667651608066
 10
407.4101602921645
 20
365.4579186427334
 10
406.7934806028084
 20
365.7286094360912
 10
406.2148630844033
 20
366.1706127381
 10
405.6918887374514
 20
366.7704985020928
 10
405.240447872847
 20
367.5100395026876
 10
404.874257292821
 20
368.3667651608069
 10
404.6044435128461
 20
369.3146443008529
 10
404.4392046880944
 20
370.3248760948054
 10
404.3835615166413
 20
371.3667651608071
  0
LINE
  5
1D89
330
1101
100
AcDbEntity
  8
STEMPEL
100
AcDbLine
 10
404.3835615166413
 20
377.8667651608048
 30
0.0
 11
404.3835615166413
 21
371.3667651608082
 31
0.0
  0
LINE
  5
1D8A
330
1101
100
AcDbEntity
  8
STEMPEL
100
AcDbLine
 10
406.0215845927467
 20
366.3667651608066
 30
0.0
 11
394.7314789362396
 21
366.3667651608066
 31
0.0
  0
LWPOLYLINE
  5
1D8B
330
1101
100
AcDbEntity
  8
STEMPEL
100
AcDbPolyline
 90
        7
 70
   128
 43
0.0
 10
416.6873304893321
 20
366.3667651608066
 10
416.125401516068
 20
366.9761030626474
 10
415.6434635764808
 20
367.7035333359368
 10
415.254478996731
 20
368.5294908298804
 10
414.9689100056245
 20
369.4317603803427
 10
414.7944373398287
 20
370.3860743145859
 10
414.7357536608136
 20
371.3667651608071
  0
LINE
  5
1D8C
330
1101
100
AcDbEntity
  8
STEMPEL
100
AcDbLine
 10
414.7357536608138
 20
377.8667651608048
 30
0.0
 11
414.7357536608138
 21
371.3667651608082
 31
0.0
  0
LINE
  5
1D8D
330
1101
100
AcDbEntity
  8
STEMPEL
100
AcDbLine
 10
413.9405327739931
 20
377.8667651608048
 30
0.0
 11
413.9405327739931
 21
371.3667651608082
 31
0.0
  0
LINE
  5
1D8E
330
1101
100
AcDbEntity
  8
STEMPEL
100
AcDbLine
 10
423.0719542091249
 20
377.8667651608048
 30
0.0
 11
423.0719542091249
 21
371.3667651608082
 31
0.0
  0
LWPOLYLINE
  5
1D8F
330
1101
100
AcDbEntity
  8
STEMPEL
100
AcDbPolyline
 90
       10
 70
   128
 43
0.0
 10
418.3042389485989
 20
365.3667651608066
 10
417.5464893235047
 20
365.4579186427334
 10
416.8117635373292
 20
365.7286094360912
 10
416.122385861296
 20
366.1706127381
 10
415.4993026872498
 20
366.7704985020928
 10
414.9614460821382
 20
367.5100395026876
 10
414.5251585467392
 20
368.3667651608069
 10
414.203696457044
 20
369.3146443008529
 10
414.0068272759799
 20
370.3248760948054
 10
413.9405327739932
 20
371.3667651608071
  0
LINE
  5
1D90
330
1101
100
AcDbEntity
  8
STEMPEL
100
AcDbLine
 10
425.0235310376433
 20
366.3667651608066
 30
0.0
 11
416.6873304893314
 21
366.3667651608066
 31
0.0
  0
LWPOLYLINE
  5
1D91
330
1101
100
AcDbEntity
  8
STEMPEL
100
AcDbPolyline
 90
       18
 70
   128
 43
0.0
 10
-423.0719542091248
 20
377.8667651608048
 10
-422.9942143078647
 20
379.2448865444293
 10
-422.7636419431829
 20
380.576077657209
 10
-422.3880889804177
 20
381.8150063823858
 10
-421.88034442529
 20
382.919482488155
 10
-421.2576989096521
 20
383.8518943654079
 10
-420.541355879758
 20
384.5804898459692
 10
-419.7557095383321
 20
385.0804574846025
 10
-418.9275141292527
 20
385.3347714830192
 10
-418.0849728538651
 20
385.3347714830192
 10
-417.2567774447856
 20
385.0804574846025
 10
-416.4711311033597
 20
384.5804898459692
 10
-415.7547880734656
 20
383.8518943654079
 10
-415.1321425578277
 20
382.919482488155
 10
-414.6243980027
 20
381.8150063823858
 10
-414.2488450399349
 20
380.576077657209
 10
-414.018272675253
 20
379.2448865444293
 10
-413.9405327739929
 20
377.8667651608048
210
0.0
220
0.0
230
-1.0
  0
LWPOLYLINE
  5
1D92
330
1101
100
AcDbEntity
  8
STEMPEL
100
AcDbPolyline
 90
       10
 70
   128
 43
0.0
 10
-419.3014643783798
 20
385.366765160808
 10
-418.5086370325201
 20
385.2528233083995
 10
-417.7398993443744
 20
384.9144598167022
 10
-417.0186090195969
 20
384.3619556891911
 10
-416.3666820997154
 20
383.6120984841999
 10
-415.8039270542998
 20
382.6876722334564
 10
-415.3474429106368
 20
381.6167651608072
 10
-415.0110997084401
 20
380.4319162357495
 10
-414.80511706571
 20
379.1691264933086
 10
-414.7357536608139
 20
377.8667651608064
210
0.0
220
0.0
230
-1.0
  0
LWPOLYLINE
  5
1D93
330
1101
100
AcDbEntity
  8
STEMPEL
100
AcDbPolyline
 90
       18
 70
   128
 43
0.0
 10
-404.3835615166414
 20
377.8667651608048
 10
-404.282248904837
 20
379.2448865444293
 10
-403.9817611489079
 20
380.576077657209
 10
-403.4923309989866
 20
381.8150063823858
 10
-402.8306254118223
 20
382.919482488155
 10
-402.0191779775571
 20
383.8518943654079
 10
-401.0856215653414
 20
384.5804898459692
 10
-400.0617473191153
 20
385.0804574846025
 10
-398.9824220483326
 20
385.3347714830192
 10
-397.8844008805815
 20
385.3347714830192
 10
-396.8050756097987
 20
385.0804574846025
 10
-395.7812013635726
 20
384.5804898459692
 10
-394.8476449513569
 20
383.8518943654079
 10
-394.0361975170918
 20
382.919482488155
 10
-393.3744919299274
 20
381.8150063823858
 10
-392.8850617800062
 20
380.576077657209
 10
-392.584574024077
 20
379.2448865444293
 10
-392.4832614122726
 20
377.8667651608048
210
0.0
220
0.0
230
-1.0
  0
LWPOLYLINE
  5
1D94
330
1101
100
AcDbEntity
  8
STEMPEL
100
AcDbPolyline
 90
        9
 70
   128
 43
0.0
 10
-398.7385086883765
 20
385.3568992386285
 10
-397.6221009670053
 20
385.1495921022214
 10
-396.5568217152631
 20
384.6803373747676
 10
-395.5809867322248
 20
383.966013137599
 10
-394.7296946993668
 20
383.0323120942026
 10
-394.0335647566304
 20
381.9128174590422
 10
-393.517635197939
 20
380.6477950417035
 10
-393.2004628977231
 20
379.2827449724943
 10
-393.093455860135
 20
377.8667651608064
210
0.0
220
0.0
230
-1.0
  0
LWPOLYLINE
  5
1D95
330
1101
100
AcDbEntity
  8
STEMPEL
100
AcDbPolyline
 90
       10
 70
   128
 43
0.0
 10
396.1458645477966
 20
365.3667651608066
 10
395.5098601877957
 20
365.4579186427334
 10
394.8931804984395
 20
365.7286094360912
 10
394.3145629800345
 20
366.1706127381
 10
393.7915886330827
 20
366.7704985020928
 10
393.3401477684782
 20
367.5100395026876
 10
392.9739571884522
 20
368.3667651608069
 10
392.7041434084772
 20
369.3146443008529
 10
392.5389045837256
 20
370.3248760948054
 10
392.4832614122725
 20
371.3667651608071
  0
LWPOLYLINE
  5
1D96
330
1101
100
AcDbEntity
  8
STEMPEL
100
AcDbPolyline
 90
        7
 70
   128
 43
0.0
 10
394.7314789362402
 20
366.3667651608066
 10
394.2598333356734
 20
366.9761030626475
 10
393.8553268592905
 20
367.7035333359368
 10
393.5288392168015
 20
368.5294908298804
 10
393.2891517033933
 20
369.4317603803427
 10
393.1427110157672
 20
370.3860743145859
 10
393.0934558601348
 20
371.3667651608071
  0
LWPOLYLINE
  5
1D97
330
1101
100
AcDbEntity
  8
STEMPEL
100
AcDbPolyline
 90
        7
 70
   128
 43
0.0
 10
432.9093793619826
 20
366.3667651608066
 10
432.2892888389183
 20
366.9761030626474
 10
431.7574686921348
 20
367.7035333359367
 10
431.3282228924036
 20
368.5294908298804
 10
431.0130965446062
 20
369.4317603803427
 10
430.8205653676404
 20
370.3860743145859
 10
430.755807729314
 20
371.3667651608071
  0
LINE
  5
1D98
330
1101
100
AcDbEntity
  8
STEMPEL
100
AcDbLine
 10
430.755807729314
 20
377.8667651608048
 30
0.0
 11
430.755807729314
 21
371.3667651608082
 31
0.0
  0
LINE
  5
1D99
330
1101
100
AcDbEntity
  8
STEMPEL
100
AcDbLine
 10
429.8297533928066
 20
377.8667651608048
 30
0.0
 11
429.8297533928066
 21
371.3667651608082
 31
0.0
  0
LWPOLYLINE
  5
1D9A
330
1101
100
AcDbEntity
  8
STEMPEL
100
AcDbPolyline
 90
        7
 70
   128
 43
0.0
 10
-440.5439349401371
 20
384.3288192166446
 10
-440.4061059305668
 20
383.5767129797061
 10
-440.2872416536006
 20
382.6539993689913
 10
-440.1908936516995
 20
381.588248119087
 10
-440.1199407041612
 20
380.4113027822659
 10
-440.0765028121533
 20
379.1583292758641
 10
-440.0618778552558
 20
377.8667651608048
210
0.0
220
0.0
230
-1.0
  0
LWPOLYLINE
  5
1D9B
330
1101
100
AcDbEntity
  8
STEMPEL
100
AcDbPolyline
 90
        7
 70
   128
 43
0.0
 10
442.6823370389264
 20
366.3667651608071
 10
442.005635163849
 20
366.9763658886661
 10
441.4060857402151
 20
367.7039249725778
 10
440.8997970670654
 20
368.5298948342579
 10
440.5003717750199
 20
369.432083859461
 10
440.218541359757
 20
370.3862526276548
 10
440.0618778552555
 20
371.3667651608071
  0
LWPOLYLINE
  5
1D9C
330
1101
100
AcDbEntity
  8
STEMPEL
100
AcDbPolyline
 90
       10
 70
   128
 43
0.0
 10
440.3853694048584
 20
365.3667651608066
 10
439.5491901300168
 20
365.4579186427334
 10
438.7384177393142
 20
365.7286094360912
 10
437.9776871415713
 20
366.1706127381
 10
437.2901127510526
 20
366.7704985020928
 10
436.6965861676842
 20
367.5100395026876
 10
436.2151413963629
 20
368.3667651608069
 10
435.8604068928426
 20
369.3146443008529
 10
435.6431610855084
 20
370.3248760948054
 10
435.5700048782845
 20
371.3667651608071
  0
LINE
  5
1D9D
330
1101
100
AcDbEntity
  8
STEMPEL
100
AcDbLine
 10
439.0680991417178
 20
377.8667651608048
 30
0.0
 11
439.0680991417178
 21
371.3667651608059
 31
0.0
  0
LINE
  5
1D9E
330
1101
100
AcDbEntity
  8
STEMPEL
100
AcDbLine
 10
440.0618778552556
 20
377.8667651608048
 30
0.0
 11
440.0618778552556
 21
371.3667651608071
 31
0.0
  0
LINE
  5
1D9F
330
1101
100
AcDbEntity
  8
STEMPEL
100
AcDbLine
 10
441.0259920250182
 20
377.8667651608048
 30
0.0
 11
441.0259920250182
 21
371.3667651608071
 31
0.0
  0
LINE
  5
1DA0
330
1101
100
AcDbEntity
  8
STEMPEL
100
AcDbLine
 10
435.5700048782845
 20
377.8667651608048
 30
0.0
 11
435.5700048782845
 21
371.3667651608082
 31
0.0
  0
LINE
  5
1DA1
330
1101
100
AcDbEntity
  8
STEMPEL
100
AcDbLine
 10
437.723576510953
 20
366.3667651608066
 30
0.0
 11
432.9093793619816
 21
366.3667651608066
 31
0.0
  0
LWPOLYLINE
  5
1DA2
330
1101
100
AcDbEntity
  8
STEMPEL
100
AcDbPolyline
 90
       10
 70
   128
 43
0.0
 10
434.6451179193806
 20
365.3667651608066
 10
433.808938644539
 20
365.4579186427334
 10
432.9981662538364
 20
365.7286094360912
 10
432.2374356560936
 20
366.1706127381
 10
431.5498612655749
 20
366.7704985020928
 10
430.9563346822064
 20
367.5100395026876
 10
430.4748899108852
 20
368.3667651608069
 10
430.1201554073649
 20
369.3146443008529
 10
429.9029096000307
 20
370.3248760948054
 10
429.8297533928066
 20
371.3667651608071
  0
ARC
  5
1DA3
330
1101
100
AcDbEntity
  8
STEMPEL
100
AcDbCircle
 10
447.2356792660534
 20
371.3667651608071
 30
0.0
 40
6.0
100
AcDbArc
 50
180.0
 51
269.9999999999984
  0
ARC
  5
1DA4
330
1101
100
AcDbEntity
  8
STEMPEL
100
AcDbCircle
 10
447.2356792660534
 20
371.3667651608071
 30
0.0
 40
5.0
100
AcDbArc
 50
180.0
 51
269.9999999999984
  0
LWPOLYLINE
  5
1DA5
330
1101
100
AcDbEntity
  8
STEMPEL
100
AcDbPolyline
 90
       10
 70
   128
 43
0.0
 10
446.5319807560491
 20
365.3667651608078
 10
445.6739077597763
 20
365.4328923753804
 10
444.8210955601541
 20
365.6854461251106
 10
444.0003372532371
 20
366.1164918414282
 10
443.2374188868381
 20
366.7124872118681
 10
442.5563093313389
 20
367.4547076435887
 10
441.9784072413931
 20
368.3198345403862
 10
441.5218687669869
 20
369.2806879111022
 10
441.2010371353893
 20
370.3070802928144
 10
441.0259920250182
 20
371.3667651608071
  0
LWPOLYLINE
  5
1DA6
330
1101
100
AcDbEntity
  8
STEMPEL
100
AcDbPolyline
 90
       10
 70
   128
 43
0.0
 10
444.5740878727486
 20
365.3667651608066
 10
443.7160148764759
 20
365.4328923753793
 10
442.8632026768536
 20
365.6854461251095
 10
442.0424443699366
 20
366.116491841427
 10
441.2795260035377
 20
366.712487211867
 10
440.5984164480384
 20
367.4547076435876
 10
440.0205143580927
 20
368.319834540385
 10
439.5639758836865
 20
369.2806879111011
 10
439.2431442520889
 20
370.3070802928133
 10
439.0680991417178
 20
371.3667651608059
  0
LINE
  5
1DA7
330
1101
100
AcDbEntity
  8
STEMPEL
100
AcDbLine
 10
443.6464512086889
 20
366.3667651608066
 30
0.0
 11
442.6823370389262
 21
366.3667651608066
 31
0.0
  0
LWPOLYLINE
  5
1DA8
330
1101
100
AcDbEntity
  8
STEMPEL
100
AcDbPolyline
 90
       18
 70
   128
 43
0.0
 10
-441.0259920250182
 20
377.8667651608048
 10
-441.0093236015415
 20
379.2448865444293
 10
-440.9598859542811
 20
380.576077657209
 10
-440.8793626230206
 20
381.8150063823858
 10
-440.7704957332289
 20
382.919482488155
 10
-440.6369926162667
 20
383.8518943654079
 10
-440.4833995606625
 20
384.5804898459692
 10
-440.3149469937105
 20
385.0804574846025
 10
-440.1373713655416
 20
385.3347714830192
 10
-439.9567198011945
 20
385.3347714830192
 10
-439.7791441730255
 20
385.0804574846025
 10
-439.6106916060735
 20
384.5804898459692
 10
-439.4570985504694
 20
383.8518943654079
 10
-439.3235954335071
 20
382.919482488155
 10
-439.2147285437154
 20
381.8150063823858
 10
-439.1342052124549
 20
380.576077657209
 10
-439.0847675651945
 20
379.2448865444293
 10
-439.0680991417178
 20
377.8667651608048
210
0.0
220
0.0
230
-1.0
  0
LWPOLYLINE
  5
1DA9
330
1101
100
AcDbEntity
  8
STEMPEL
100
AcDbPolyline
 90
        9
 70
   128
 43
0.0
 10
-433.1629063037976
 20
385.2685234054699
 10
-432.6738457605288
 20
384.9420905077124
 10
-432.2142327926279
 20
384.3968214944553
 10
-431.7982829890036
 20
383.6495812513273
 10
-431.438861459712
 20
382.7234815285497
 10
-431.1470849248245
 20
381.6471661065794
 10
-430.9319778800864
 20
380.4539248589486
 10
-430.8001934739789
 20
379.1806641138728
 10
-430.755807729314
 20
377.8667651608064
210
0.0
220
0.0
230
-1.0
  0
LWPOLYLINE
  5
1DAA
330
1101
100
AcDbEntity
  8
STEMPEL
100
AcDbPolyline
 90
       18
 70
   128
 43
0.0
 10
-435.5700048782845
 20
377.8667651608048
 10
-435.5211355333682
 20
379.2448865444293
 10
-435.3761916855481
 20
380.576077657209
 10
-435.1401092237209
 20
381.8150063823858
 10
-434.8209276529741
 20
382.919482488155
 10
-434.4295163188838
 20
383.8518943654079
 10
-433.9792042649858
 20
384.5804898459692
 10
-433.4853263281864
 20
385.0804574846025
 10
-432.9647009292814
 20
385.3347714830192
 10
-432.4350573418096
 20
385.3347714830192
 10
-431.9144319429047
 20
385.0804574846025
 10
-431.4205540061053
 20
384.5804898459692
 10
-430.9702419522073
 20
383.8518943654079
 10
-430.5788306181169
 20
382.919482488155
 10
-430.2596490473702
 20
381.8150063823858
 10
-430.0235665855431
 20
380.576077657209
 10
-429.8786227377229
 20
379.2448865444293
 10
-429.8297533928066
 20
377.8667651608048
210
0.0
220
0.0
230
-1.0
  0
LINE
  5
1DAB
330
1101
100
AcDbEntity
  8
STEMPEL
100
AcDbLine
 10
462.2356792660538
 20
366.3667651608069
 30
0.0
 11
462.2356792660538
 21
365.3667651608066
 31
0.0
  0
LINE
  5
1DAC
330
1101
100
AcDbEntity
  8
STEMPEL
100
AcDbLine
 10
462.2356792660536
 20
366.3667651608066
 30
0.0
 11
447.2356792660534
 21
366.366765160807
 31
0.0
  0
LWPOLYLINE
  5
1DAD
330
1101
100
AcDbEntity
  8
STEMPEL
100
AcDbPolyline
 90
       10
 70
   128
 43
0.0
 10
427.4356603837309
 20
365.3667651608066
 10
426.6779107586366
 20
365.4579186427334
 10
425.943184972461
 20
365.7286094360912
 10
425.2538072964279
 20
366.1706127381
 10
424.6307241223816
 20
366.7704985020928
 10
424.0928675172701
 20
367.5100395026876
 10
423.6565799818711
 20
368.3667651608069
 10
423.3351178921759
 20
369.3146443008529
 10
423.1382487111118
 20
370.3248760948054
 10
423.071954209125
 20
371.3667651608071
  0
LINE
  5
1DAE
330
1101
100
AcDbEntity
  8
STEMPEL
100
AcDbLine
 10
441.2356792660535
 20
435.366707193491
 30
0.0
 11
441.2356792660535
 21
371.366765160807
 31
0.0
  0
LINE
  5
1DAF
330
1101
100
AcDbEntity
  8
STEMPEL
100
AcDbLine
 10
442.2356792660536
 20
435.366707193491
 30
0.0
 11
442.2356792660536
 21
371.366765160807
 31
0.0
  0
LINE
  5
1DB0
330
1101
100
AcDbEntity
  8
STEMPEL
100
AcDbLine
 10
462.2356792660536
 20
365.3667651608066
 30
0.0
 11
213.2356792660537
 21
365.3667651608066
 31
0.0
  0
LINE
  5
1DB1
330
1101
100
AcDbEntity
  8
STEMPEL
100
AcDbLine
 10
412.2356792660536
 20
454.3667651608059
 30
0.0
 11
252.2356792660535
 21
454.3667651608065
 31
0.0
  0
LINE
  5
1DB2
330
1101
100
AcDbEntity
  8
HILF
100
AcDbLine
 10
229.9093462085231
 20
438.3667651608093
 30
0.0
 11
435.0620123235843
 21
438.3667651608091
 31
0.0
  0
LINE
  5
1DB3
330
1101
100
AcDbEntity
  8
STEMPEL
100
AcDbLine
 10
412.2356792660536
 20
455.3667651608058
 30
0.0
 11
357.4973170937042
 21
455.3667651608062
 31
0.0
  0
DIMENSION
  5
1E71
330
1101
100
AcDbEntity
  8
BEM
100
AcDbDimension
  2
*D2
 10
477.9594382713777
 20
221.9379393762783
 30
0.0
 11
337.5975587687157
 21
228.4379393762783
 31
0.0
 70
    32
  1
280
 71
     5
 42
280.723759005324
  3
STANDARD
100
AcDbAlignedDimension
 13
197.2356792660537
 23
335.8667651608045
 33
0.0
 14
477.9594382713777
 24
341.5667651608044
 34
0.0
100
AcDbRotatedDimension
  0
DIMENSION
  5
1E72
330
1101
100
AcDbEntity
  8
BEM
100
AcDbDimension
  2
*D3
 10
165.7565359771792
 20
335.8667651608045
 30
0.0
 11
159.2565359771792
 21
308.3667651608046
 31
0.0
 70
    32
 71
     5
 42
55.0
  3
STANDARD
100
AcDbAlignedDimension
 13
278.2356792660537
 23
280.8667651608045
 33
0.0
 14
197.2356792660537
 24
335.8667651608045
 34
0.0
 50
90.0
100
AcDbRotatedDimension
  0
DIMENSION
  5
1E73
330
1101
100
AcDbEntity
  8
BEM
100
AcDbDimension
  2
*D4
 10
165.7565359771792
 20
338.8667651608045
 30
0.0
 11
159.2565359771792
 21
357.7334318274712
 31
0.0
 70
    32
 71
     5
 42
3.0
  3
STANDARD
100
AcDbAlignedDimension
 13
197.2356792660537
 23
335.8667651608045
 33
0.0
 14
197.2356792660537
 24
338.8667651608045
 34
0.0
 50
90.0
100
AcDbRotatedDimension
  0
DIMENSION
  5
1E74
330
1101
100
AcDbEntity
  8
BEM
100
AcDbDimension
  2
*D5
 10
179.7859188214238
 20
455.3667651608064
 30
0.0
 11
173.2859188214237
 21
399.8667651608055
 31
0.0
 70
    32
  1
110
 71
     5
 42
111.0000000000018
  3
STANDARD
100
AcDbAlignedDimension
 13
205.2356792660537
 23
344.3667651608045
 33
0.0
 14
252.2356792660539
 24
455.3667651608064
 34
0.0
 50
90.0
100
AcDbRotatedDimension
  0
DIMENSION
  5
1E75
330
1101
100
AcDbEntity
  8
BEM
100
AcDbDimension
  2
*D6
 10
442.2356792660539
 20
469.7515195054948
 30
0.0
 11
332.2356792660539
 21
476.2515195054947
 31
0.0
 70
    32
  1
%%c<>
 71
     5
 42
220.0000000000002
  3
STANDARD
100
AcDbAlignedDimension
 13
222.2356792660538
 23
435.366707193491
 33
0.0
 14
442.2356792660539
 24
435.36670719349
 34
0.0
100
AcDbRotatedDimension
  0
DIMENSION
  5
1E76
330
1101
100
AcDbEntity
  8
BEM
100
AcDbDimension
  2
*D7
 10
462.2356792660538
 20
482.5287260057355
 30
0.0
 11
332.2356792660538
 21
489.0287260057355
 31
0.0
 70
    32
  1
%%c<>
 71
     5
 42
260.0
  3
STANDARD
100
AcDbAlignedDimension
 13
202.2356792660538
 23
366.3667651608069
 33
0.0
 14
462.2356792660538
 24
366.3667651608057
 34
0.0
100
AcDbRotatedDimension
  0
TEXT
  5
1E77
330
1101
100
AcDbEntity
  8
TEXT
 62
     1
100
AcDbText
 10
60.07749583984332
 20
497.4405996258089
 30
0.0
 40
7.0
  1
EDV-Art.Nr. 21000.000X
 41
0.8
  7
GREEKS
100
AcDbText
  0
LINE
  5
1E78
330
1101
100
AcDbEntity
  8
TEXT
 62
     2
100
AcDbLine
 10
60.05701377037667
 20
505.9127872032812
 30
0.0
 11
166.4204970244987
 21
505.9127872032812
 31
0.0
  0
TEXT
  5
1E79
330
1101
100
AcDbEntity
  8
TEXT
 62
     1
100
AcDbText
 10
60.07749583984332
 20
508.9732895373646
 30
0.0
 40
7.0
  1
Drainjethaube
 41
0.8
  7
GREEKS
100
AcDbText
  0
LINE
  5
1E7A
330
1101
100
AcDbEntity
  8
TEXT
 62
     2
100
AcDbLine
 10
166.4204970244987
 20
505.9127872032812
 30
0.0
 11
228.480639166176
 21
441.1028297382606
 31
0.0
  0
LINE
  5
1E80
330
1101
100
AcDbEntity
  8
TEXT
 62
     2
100
AcDbLine
 10
181.2589798137824
 20
355.8135431577559
 30
0.0
 11
204.8785281441209
 21
350.9594427097113
 31
0.0
  0
LINE
  5
1E81
330
1101
100
AcDbEntity
  8
TEXT
 62
     2
100
AcDbLine
 10
155.1875331600162
 20
361.1715381165613
 30
0.0
 11
178.6296500554923
 21
356.3539019562931
 31
0.0
  0
LINE
  5
1E82
330
1101
100
AcDbEntity
  8
TEXT
 62
     2
100
AcDbLine
 10
48.27531226151529
 20
361.1715381165613
 30
0.0
 11
155.1875331600162
 21
361.1715381165613
 31
0.0
  0
TEXT
  5
1E83
330
1101
100
AcDbEntity
  8
TEXT
 62
     1
100
AcDbText
 10
48.79928000185294
 20
352.2138336234281
 30
0.0
 40
7.0
  1
EDV-Art.Nr. 19929.100X
 41
0.8
  7
GREEKS
100
AcDbText
  0
TEXT
  5
1E84
330
1101
100
AcDbEntity
  8
TEXT
 62
     1
100
AcDbText
 10
48.79928000185294
 20
364.2320404506447
 30
0.0
 40
7.0
  1
Losflansch
 41
0.8
  7
GREEKS
100
AcDbText
  0
LINE
  5
1FC0
330
1101
100
AcDbEntity
  8
MITTEL
100
AcDbLine
 10
210.2356792660537
 20
377.9667651608068
 30
0.0
 11
210.2356792660537
 21
344.3667651608044
 31
0.0
  0
ARC
  5
1FC1
330
1101
100
AcDbEntity
  8
STEMPEL
100
AcDbCircle
 10
216.7856792660537
 20
366.9167651608068
 30
0.0
 40
0.5500000000000009
100
AcDbArc
 50
270.0
 51
70.00000000000047
  0
ARC
  5
1FC2
330
1101
100
AcDbEntity
  8
STEMPEL
100
AcDbCircle
 10
203.6856792660537
 20
366.9167651608068
 30
0.0
 40
0.5500000000000003
100
AcDbArc
 50
109.9999999999995
 51
270.0
  0
LINE
  5
1FC3
330
1101
100
AcDbEntity
  8
STEMPEL
100
AcDbLine
 10
216.7856792660537
 20
366.3667651608068
 30
0.0
 11
203.6856792660537
 21
366.3667651608068
 31
0.0
  0
ARC
  5
1FC4
330
1101
100
AcDbEntity
  8
HILF
100
AcDbCircle
 10
205.9055522471315
 20
364.2254563989904
 30
0.0
 40
3.840760399790701
100
AcDbArc
 50
67.92594526323878
 51
112.0740547367612
  0
ARC
  5
1FC5
330
1101
100
AcDbEntity
  8
STEMPEL
100
AcDbCircle
 10
205.9055522471315
 20
367.8372280222837
 30
0.0
 40
5.129537138523076
100
AcDbArc
 50
73.65710669401501
 51
106.342893305985
  0
LINE
  5
1FC6
330
1101
100
AcDbEntity
  8
STEMPEL
100
AcDbLine
 10
216.9737903448828
 20
367.4335961022391
 30
0.0
 11
203.4975681872246
 21
367.4335961022391
 31
0.0
  0
LINE
  5
1FC7
330
1101
100
AcDbEntity
  8
STEMPEL
100
AcDbLine
 10
215.2356792660537
 20
372.9667651608068
 30
0.0
 11
205.2356792660537
 21
372.9667651608068
 31
0.0
  0
LINE
  5
1FC8
330
1101
100
AcDbEntity
  8
STEMPEL
100
AcDbLine
 10
205.2356792660537
 20
372.9667651608068
 30
0.0
 11
204.4621765741574
 21
372.7595057391699
 31
0.0
  0
LINE
  5
1FC9
330
1101
100
AcDbEntity
  8
STEMPEL
100
AcDbLine
 10
204.4621765741574
 20
372.7595057391699
 30
0.0
 11
204.4621765741574
 21
367.7846848428061
 31
0.0
  0
LINE
  5
1FCA
330
1101
100
AcDbEntity
  8
STEMPEL
100
AcDbLine
 10
204.4621765741574
 20
367.7846848428061
 30
0.0
 11
203.4975681872246
 21
367.4335961022391
 31
0.0
  0
ARC
  5
1FCB
330
1101
100
AcDbEntity
  8
HILF
100
AcDbCircle
 10
214.5658062849759
 20
364.2242918371021
 30
0.0
 40
3.841839622940954
100
AcDbArc
 50
67.93247218101093
 51
112.067527818989
  0
ARC
  5
1FCC
330
1101
100
AcDbEntity
  8
STEMPEL
100
AcDbCircle
 10
214.5658062849759
 20
367.8372280222837
 30
0.0
 40
5.129537138523076
100
AcDbArc
 50
73.65710669401501
 51
106.342893305985
  0
ARC
  5
1FCD
330
1101
100
AcDbEntity
  8
HILF
100
AcDbCircle
 10
210.2356792660537
 20
353.1254731335806
 30
0.0
 40
14.94074366520046
100
AcDbArc
 50
78.85962783889434
 51
101.1403721611056
  0
ARC
  5
1FCE
330
1101
100
AcDbEntity
  8
STEMPEL
100
AcDbCircle
 10
210.2356792660537
 20
352.7595057391699
 30
0.0
 40
20.20725942163691
100
AcDbArc
 50
81.78678929826221
 51
98.2132107017378
  0
LINE
  5
1FCF
330
1101
100
AcDbEntity
  8
STEMPEL
100
AcDbLine
 10
207.3489279201055
 20
372.7595057391699
 30
0.0
 11
207.3489279201055
 21
367.7846848428061
 31
0.0
  0
LINE
  5
1FD0
330
1101
100
AcDbEntity
  8
STEMPEL
100
AcDbLine
 10
213.1224306120018
 20
372.7595057391699
 30
0.0
 11
213.1224306120018
 21
367.7846848428061
 31
0.0
  0
LINE
  5
1FD1
330
1101
100
AcDbEntity
  8
STEMPEL
100
AcDbLine
 10
215.2356792660537
 20
372.9667651608068
 30
0.0
 11
216.0091819579499
 21
372.7595057391699
 31
0.0
  0
LINE
  5
1FD2
330
1101
100
AcDbEntity
  8
STEMPEL
100
AcDbLine
 10
216.0091819579499
 20
372.7595057391699
 30
0.0
 11
216.0091819579499
 21
367.7846848428061
 31
0.0
  0
LINE
  5
1FD3
330
1101
100
AcDbEntity
  8
STEMPEL
100
AcDbLine
 10
216.9737903448828
 20
367.4335961022391
 30
0.0
 11
216.0091819579499
 21
367.7846848428061
 31
0.0
  0
HATCH
  5
1FD4
330
1101
100
AcDbEntity
  8
SCHRAFF
100
AcDbHatch
 10
0.0
 20
0.0
 30
0.0
210
0.0
220
0.0
230
1.0
  2
_USER
 70
     0
 71
     0
 91
        4
 92
        7
 72
     0
 73
     1
 93
       13
 10
214.2356792660537
 20
365.3667651608067
 10
213.2356792660537
 20
365.3667651608067
 10
213.2356792660537
 20
354.9802651608068
 10
213.2356792660537
 20
344.3667651608044
 10
214.2356792660537
 20
344.3667651608044
 10
214.2356792660537
 20
347.3667651608044
 10
213.7356792660537
 20
347.3667651608044
 10
213.7356792660537
 20
350.3667651608044
 10
214.2356792660537
 20
350.3667651608045
 10
214.2356792660537
 20
358.3667651608043
 10
213.7356792660537
 20
358.3667651608043
 10
213.7356792660537
 20
361.3667651608043
 10
214.2356792660537
 20
361.3667651608044
 97
        0
 92
        7
 72
     0
 73
     1
 93
       13
 10
206.7356792660536
 20
361.3667651608043
 10
206.7356792660536
 20
358.3667651608043
 10
206.2356792660537
 20
358.3667651608043
 10
206.2356792660537
 20
350.3667651608044
 10
206.7356792660537
 20
350.3667651608044
 10
206.7356792660537
 20
347.3667651608044
 10
206.2356792660537
 20
347.3667651608044
 10
206.2356792660537
 20
344.3667651608045
 10
207.2356792660538
 20
344.3667651608046
 10
207.2356792660537
 20
354.9802651608067
 10
207.2356792660537
 20
365.3667651608065
 10
206.2356792660537
 20
365.3667651608065
 10
206.2356792660537
 20
361.3667651608043
 97
        0
 92
        7
 72
     0
 73
     1
 93
        4
 10
207.2356792660537
 20
344.3667651608044
 10
207.8491792660536
 20
344.3667651608044
 10
207.8491792660536
 20
354.3667651608068
 10
207.2356792660537
 20
354.9802651608068
 97
        0
 92
        7
 72
     0
 73
     1
 93
        4
 10
213.2356792660537
 20
354.9802651608067
 10
212.6221792660537
 20
354.3667651608067
 10
212.6221792660537
 20
344.3667651608044
 10
213.2356792660537
 20
344.3667651608045
 97
        0
 75
     0
 76
     0
 52
135.0
 41
1.0
 77
     0
 78
     1
 53
135.0
 43
0.0
 44
-0.0000000000000568
 45
-0.7071067811865476
 46
-0.7071067811865475
 79
     0
 47
0.0511637282481671
 98
        4
 10
214.0744778454737
 20
363.1777532290334
 10
206.7046011280581
 20
361.694004180789
 10
207.3187583526474
 20
352.7915159005936
 10
212.999704573253
 20
352.7403514668565
  0
LINE
  5
1FD5
330
1101
100
AcDbEntity
  8
STEMPEL
100
AcDbLine
 10
213.2356792660537
 20
354.9802651608068
 30
0.0
 11
213.2356792660537
 21
366.3667651608068
 31
0.0
  0
LINE
  5
1FD6
330
1101
100
AcDbEntity
  8
HILF
100
AcDbLine
 10
212.6221792660537
 20
363.3667651608068
 30
0.0
 11
212.6221792660537
 21
354.3667651608068
 31
0.0
  0
LINE
  5
1FD7
330
1101
100
AcDbEntity
  8
HILF
100
AcDbLine
 10
213.2356792660537
 20
344.3667651608042
 30
0.0
 11
213.2356792660536
 21
354.9802651608068
 31
0.0
  0
LINE
  5
1FD8
330
1101
100
AcDbEntity
  8
STEMPEL
100
AcDbLine
 10
212.6221792660537
 20
354.3667651608068
 30
0.0
 11
213.2356792660537
 21
354.9802651608068
 31
0.0
  0
LINE
  5
1FD9
330
1101
100
AcDbEntity
  8
STEMPEL
100
AcDbLine
 10
212.6221792660537
 20
344.3667651608042
 30
0.0
 11
212.6221792660537
 21
354.3667651608068
 31
0.0
  0
LINE
  5
1FDA
330
1101
100
AcDbEntity
  8
STEMPEL
100
AcDbLine
 10
212.6221792660537
 20
354.3667651608068
 30
0.0
 11
207.8491792660537
 21
354.3667651608068
 31
0.0
  0
LINE
  5
1FDB
330
1101
100
AcDbEntity
  8
STEMPEL
100
AcDbLine
 10
213.2356792660536
 20
354.9802651608068
 30
0.0
 11
207.2356792660537
 21
354.9802651608067
 31
0.0
  0
LINE
  5
1FDC
330
1101
100
AcDbEntity
  8
STEMPEL
100
AcDbLine
 10
207.2356792660537
 20
366.3667651608068
 30
0.0
 11
207.2356792660537
 21
354.9802651608068
 31
0.0
  0
LINE
  5
1FDD
330
1101
100
AcDbEntity
  8
HILF
100
AcDbLine
 10
207.8491792660537
 20
363.3667651608068
 30
0.0
 11
207.8491792660537
 21
354.3667651608068
 31
0.0
  0
LINE
  5
1FDE
330
1101
100
AcDbEntity
  8
HILF
100
AcDbLine
 10
207.2356792660537
 20
344.3667651608042
 30
0.0
 11
207.2356792660537
 21
354.9802651608067
 31
0.0
  0
LINE
  5
1FDF
330
1101
100
AcDbEntity
  8
STEMPEL
100
AcDbLine
 10
207.2356792660537
 20
354.9802651608068
 30
0.0
 11
207.8491792660537
 21
354.3667651608068
 31
0.0
  0
LINE
  5
1FE0
330
1101
100
AcDbEntity
  8
STEMPEL
100
AcDbLine
 10
207.8491792660537
 20
344.3667651608042
 30
0.0
 11
207.8491792660537
 21
354.3667651608068
 31
0.0
  0
LINE
  5
1FE1
330
1101
100
AcDbEntity
  8
HILF
100
AcDbLine
 10
207.8491792660537
 20
363.3667651608068
 30
0.0
 11
207.2356792660537
 21
366.3667651608068
 31
0.0
  0
LINE
  5
1FE2
330
1101
100
AcDbEntity
  8
HILF
100
AcDbLine
 10
207.2356792660537
 20
363.3667651608068
 30
0.0
 11
213.2356792660537
 21
363.3667651608068
 31
0.0
  0
LINE
  5
1FE3
330
1101
100
AcDbEntity
  8
HILF
100
AcDbLine
 10
212.6221792660537
 20
363.3667651608068
 30
0.0
 11
213.2356792660537
 21
366.3667651608068
 31
0.0
  0
LINE
  5
1FE4
330
1101
100
AcDbEntity
  8
STEMPEL
100
AcDbLine
 10
207.2356792660537
 20
365.3667651608066
 30
0.0
 11
202.2356792660536
 21
365.3667651608066
 31
0.0
  0
LINE
  5
1FE5
330
1101
100
AcDbEntity
  8
STEMPEL
100
AcDbLine
 10
207.2356792660537
 20
365.3667651608066
 30
0.0
 11
202.7356792660537
 21
365.3667651608067
 31
0.0
  0
HATCH
  5
2044
330
1101
100
AcDbEntity
  8
SCHRAFF
100
AcDbHatch
 10
0.0
 20
0.0
 30
0.0
210
0.0
220
0.0
230
1.0
  2
_USER
 70
     0
 71
     0
 91
        5
 92
        7
 72
     0
 73
     1
 93
        4
 10
477.959438271377
 20
440.8657478552778
 10
474.9594382713769
 20
440.8657478552781
 10
474.9594382713771
 20
405.8657478552807
 10
477.9594382713772
 20
405.8657478552807
 97
        0
 92
        7
 72
     1
 73
     1
 93
        8
 10
474.9594382713777
 20
341.5667651608044
 42
-0.4142135623731012
 10
472.2594382713776
 20
338.8667651608045
 42
0.0
 10
414.5080926255753
 20
338.8667651608044
 42
0.0
 10
414.5080926255753
 20
335.8667651608046
 42
0.0
 10
472.2594382713776
 20
335.8667651608045
 42
0.414213562373098
 10
477.9594382713777
 20
341.5667651608044
 42
0.0
 10
477.9594382713772
 20
405.8657478552808
 42
0.0
 10
474.9594382713771
 20
405.8657478552807
 42
0.0
 97
        0
 92
        7
 72
     0
 73
     1
 93
        4
 10
414.5080926255752
 20
335.8667651608044
 10
414.5080926255752
 20
338.8667651608045
 10
393.2356792660537
 20
338.8667651608044
 10
393.2356792660537
 20
335.8667651608046
 97
        0
 92
        7
 72
     0
 73
     1
 93
        4
 10
249.9632659065321
 20
338.8667651608044
 10
249.9632659065321
 20
335.8667651608046
 10
271.2356792660537
 20
335.8667651608046
 10
271.2356792660537
 20
338.8667651608044
 97
        0
 92
        7
 72
     0
 73
     1
 93
        4
 10
197.2356792660537
 20
338.8667651608045
 10
197.2356792660537
 20
335.8667651608046
 10
249.9632659065321
 20
335.8667651608045
 10
249.9632659065321
 20
338.8667651608044
 97
        0
 75
     0
 76
     0
 52
135.0
 41
2.0
 77
     0
 78
     1
 53
135.0
 43
97.86798935151086
 44
-110.4323157756603
 45
-1.414213562373095
 46
-1.414213562373094
 79
     0
 47
0.3575882173722964
 98
        5
 10
477.3404399582645
 20
420.1959108503226
 10
475.9092602825644
 20
372.2790894942802
 10
398.2678199428282
 20
336.1626794606111
 10
264.0948230813705
 20
337.950620318574
 10
244.4161189390556
 20
337.5930315937083
  0
DIMENSION
  5
2045
330
1101
100
AcDbEntity
  8
BEM
100
AcDbDimension
  2
*D8
 10
493.6572567824145
 20
440.8657478552778
 30
0.0
 11
487.1572567824144
 21
388.3662565080412
 31
0.0
 70
    32
 71
     5
 42
104.9989826944733
  3
STANDARD
100
AcDbAlignedDimension
 13
472.2594382713776
 23
335.8667651608045
 33
0.0
 14
477.959438271377
 24
440.8657478552778
 34
0.0
 50
90.0
100
AcDbRotatedDimension
  0
HATCH
  5
2046
330
1101
100
AcDbEntity
  8
SCHRAFF
100
AcDbHatch
 10
0.0
 20
0.0
 30
0.0
210
0.0
220
0.0
230
1.0
  2
NET
 70
     0
 71
     1
 91
        2
 92
        7
 72
     0
 73
     1
 93
        4
 10
471.9594382713773
 20
405.8657478552808
 10
474.9594382713771
 20
405.8657478552808
 10
474.959438271377
 20
435.8657478552808
 10
471.9594382713769
 20
435.8657478552808
 97
        4
330
2072
330
2047
330
2052
330
2048
 92
        7
 72
     0
 73
     1
 93
        4
 10
471.9594382713773
 20
375.8657478552807
 10
474.9594382713773
 20
375.8657478552808
 10
474.9594382713772
 20
405.8657478552807
 10
471.9594382713771
 20
405.8657478552808
 97
        4
330
2052
330
2047
330
204F
330
2048
 75
     0
 76
     1
 52
45.0
 41
15.0
 77
     0
 78
     2
 53
45.0
 43
0.0
 44
0.0
 45
-1.325825214724776
 46
1.325825214724776
 79
     0
 53
135.0
 43
0.0
 44
0.0
 45
-1.325825214724776
 46
-1.325825214724776
 79
     0
 47
0.1058480791974207
 98
        2
 10
472.6129382992716
 20
427.9305593827337
 10
472.8246991837417
 20
399.0340340226771
  0
LINE
  5
2047
102
{ACAD_REACTORS
330
2046
102
}
330
1101
100
AcDbEntity
  8
STEMPEL
100
AcDbLine
 10
471.9594382713769
 20
435.8657478552808
 30
0.0
 11
471.9594382713773
 21
375.8657478552809
 31
0.0
  0
LINE
  5
2048
102
{ACAD_REACTORS
330
2046
102
}
330
1101
100
AcDbEntity
  8
STEMPEL
100
AcDbLine
 10
474.9594382713769
 20
440.8657478552781
 30
0.0
 11
474.9594382713776
 21
341.5667651608044
 31
0.0
  0
HATCH
  5
2049
330
1101
100
AcDbEntity
  8
SCHRAFF
100
AcDbHatch
 10
0.0
 20
0.0
 30
0.0
210
0.0
220
0.0
230
1.0
  2
_USER
 70
     0
 71
     1
 91
        2
 92
        7
 72
     0
 73
     1
 93
        5
 10
469.4594382713773
 20
436.3657478552816
 10
467.4594382713785
 20
438.3657478552804
 10
463.4594382713772
 20
438.3657478552804
 10
463.4594382713771
 20
405.8657478552807
 10
469.4594382713772
 20
405.8657478552807
 97
        5
330
2073
330
2074
330
204B
330
2052
330
204A
 92
        7
 72
     0
 73
     1
 93
        5
 10
463.4594382713772
 20
373.3657478552804
 10
467.4594382713772
 20
373.3657478552804
 10
469.4594382713773
 20
375.3657478552804
 10
469.4594382713773
 20
405.8657478552808
 10
463.4594382713772
 20
405.8657478552808
 97
        5
330
2052
330
204B
330
204E
330
204D
330
204A
 75
     0
 76
     0
 52
135.0
 41
5.0
 77
     0
 78
     1
 53
135.0
 43
379.8457628634947
 44
-237.2352619933942
 45
-3.535533905932737
 46
-3.535533905932737
 79
     0
 47
0.1488260208780745
 98
        2
 10
467.5355578488058
 20
415.6947005491877
 10
465.5321657110481
 20
392.64413063341
  0
LINE
  5
204A
102
{ACAD_REACTORS
330
2049
102
}
330
1101
100
AcDbEntity
  8
STEMPEL
100
AcDbLine
 10
469.4594382713773
 20
436.3657478552811
 30
0.0
 11
469.4594382713772
 21
375.3657478552804
 31
0.0
  0
LINE
  5
204B
102
{ACAD_REACTORS
330
2049
102
}
330
1101
100
AcDbEntity
  8
STEMPEL
100
AcDbLine
 10
463.4594382713772
 20
438.3657478552804
 30
0.0
 11
463.4594382713772
 21
373.3657478552804
 31
0.0
  0
LINE
  5
204C
330
1101
100
AcDbEntity
  8
STEMPEL
100
AcDbLine
 10
477.959438271377
 20
440.8657478552778
 30
0.0
 11
477.9594382713777
 21
341.5667651608044
 31
0.0
  0
LINE
  5
204D
102
{ACAD_REACTORS
330
2049
102
}
330
1101
100
AcDbEntity
  8
STEMPEL
100
AcDbLine
 10
467.4594382713772
 20
373.3657478552804
 30
0.0
 11
469.4594382713772
 21
375.3657478552804
 31
0.0
  0
LINE
  5
204E
102
{ACAD_REACTORS
330
2049
102
}
330
1101
100
AcDbEntity
  8
STEMPEL
100
AcDbLine
 10
467.4594382713772
 20
373.3657478552804
 30
0.0
 11
463.4594382713768
 21
373.3657478552804
 31
0.0
  0
LINE
  5
204F
102
{ACAD_REACTORS
330
2046
102
}
330
1101
100
AcDbEntity
  8
STEMPEL
100
AcDbLine
 10
471.9594382713773
 20
375.8657478552808
 30
0.0
 11
474.9594382713774
 21
375.8657478552808
 31
0.0
  0
LINE
  5
2050
330
1101
100
AcDbEntity
  8
HILF
100
AcDbLine
 10
491.1542890452564
 20
422.0192300804392
 30
0.0
 11
473.0585089348489
 21
419.3894038446207
 31
0.0
  0
LINE
  5
2051
330
1101
100
AcDbEntity
  8
TEXT
 62
     2
100
AcDbLine
 10
506.5976393331747
 20
460.0673376619271
 30
0.0
 11
467.0379136068674
 21
435.7547204070101
 31
0.0
  0
LINE
  5
2052
102
{ACAD_REACTORS
330
2049
330
2046
102
}
330
1101
100
AcDbEntity
  8
MITTEL
100
AcDbLine
 10
444.9594382713772
 20
405.8657478552807
 30
0.0
 11
477.9594382713772
 21
405.8657478552808
 31
0.0
  0
LINE
  5
2053
330
1101
100
AcDbEntity
  8
HILF
100
AcDbLine
 10
449.9594382713772
 20
409.8657478552809
 30
0.0
 11
453.4594382713773
 21
409.8657478552809
 31
0.0
  0
LINE
  5
2054
330
1101
100
AcDbEntity
  8
STEMPEL
100
AcDbLine
 10
450.9594382713768
 20
410.8657478552808
 30
0.0
 11
453.4594382713773
 21
410.865747855281
 31
0.0
  0
LINE
  5
2055
330
1101
100
AcDbEntity
  8
HILF
100
AcDbLine
 10
449.9594382713772
 20
401.8657478552808
 30
0.0
 11
453.4594382713774
 21
401.8657478552807
 31
0.0
  0
LINE
  5
2056
330
1101
100
AcDbEntity
  8
STEMPEL
100
AcDbLine
 10
450.9594382713769
 20
400.8657478552805
 30
0.0
 11
453.4594382713774
 21
400.8657478552806
 31
0.0
  0
LINE
  5
2057
330
1101
100
AcDbEntity
  8
STEMPEL
100
AcDbLine
 10
450.9594382713769
 20
400.8657478552805
 30
0.0
 11
449.9594382713772
 21
401.8657478552808
 31
0.0
  0
LINE
  5
2058
330
1101
100
AcDbEntity
  8
STEMPEL
100
AcDbLine
 10
450.9594382713769
 20
400.8657478552805
 30
0.0
 11
450.9594382713768
 21
410.8657478552808
 31
0.0
  0
LINE
  5
2059
330
1101
100
AcDbEntity
  8
STEMPEL
100
AcDbLine
 10
449.9594382713772
 20
409.8657478552809
 30
0.0
 11
450.9594382713768
 21
410.8657478552808
 31
0.0
  0
LINE
  5
205A
330
1101
100
AcDbEntity
  8
STEMPEL
100
AcDbLine
 10
449.9594382713772
 20
409.8657478552809
 30
0.0
 11
449.9594382713772
 21
401.8657478552808
 31
0.0
  0
ARC
  5
205B
330
1101
100
AcDbEntity
  8
STEMPEL
100
AcDbCircle
 10
461.1537439791617
 20
412.3609383836642
 30
0.0
 40
7.694305707784447
100
AcDbArc
 50
163.6571066940134
 51
196.3428933059829
  0
ARC
  5
205C
330
1101
100
AcDbEntity
  8
HILF
100
AcDbCircle
 10
466.707924420907
 20
412.3609383836642
 30
0.0
 40
5.761140599691502
100
AcDbArc
 50
157.9259452632599
 51
202.0740547367401
  0
LINE
  5
205D
330
1101
100
AcDbEntity
  8
STEMPEL
100
AcDbLine
 10
453.4594382713774
 20
398.3657478552809
 30
0.0
 11
453.4594382713773
 21
413.3657478552808
 31
0.0
  0
LINE
  5
205E
330
1101
100
AcDbEntity
  8
STEMPEL
100
AcDbLine
 10
462.0046688057878
 20
416.2722629627751
 30
0.0
 11
462.0046688057878
 21
395.4592327477865
 31
0.0
  0
LINE
  5
205F
330
1101
100
AcDbEntity
  8
STEMPEL
100
AcDbLine
 10
463.4594382713772
 20
416.0157478552807
 30
0.0
 11
463.4594382713772
 21
395.7157478552808
 31
0.0
  0
ARC
  5
2060
330
1101
100
AcDbEntity
  8
HILF
100
AcDbCircle
 10
466.7079244209067
 20
399.3705573268976
 30
0.0
 40
5.761140599691502
100
AcDbArc
 50
157.9259452632599
 51
202.0740547367401
  0
ARC
  5
2061
330
1101
100
AcDbEntity
  8
STEMPEL
100
AcDbCircle
 10
461.1537439791615
 20
399.3705573268976
 30
0.0
 40
7.694305707784447
100
AcDbArc
 50
163.657106694017
 51
196.3428933059866
  0
LINE
  5
2062
330
1101
100
AcDbEntity
  8
STEMPEL
100
AcDbLine
 10
461.3690817551774
 20
397.2054938174365
 30
0.0
 11
453.7703274038325
 21
397.2054938174365
 31
0.0
  0
LINE
  5
2063
330
1101
100
AcDbEntity
  8
STEMPEL
100
AcDbLine
 10
453.4594382713774
 20
398.3657478552809
 30
0.0
 11
453.7703274038325
 21
397.2054938174365
 31
0.0
  0
ARC
  5
2064
330
1101
100
AcDbEntity
  8
STEMPEL
100
AcDbCircle
 10
462.7094382713772
 20
395.7157478552809
 30
0.0
 40
0.7500000000000013
100
AcDbArc
 50
200.0000000000001
 51
359.9999991462263
  0
LINE
  5
2065
330
1101
100
AcDbEntity
  8
STEMPEL
100
AcDbLine
 10
461.3690817551774
 20
397.2054938174365
 30
0.0
 11
462.0046688057878
 21
395.4592327477866
 31
0.0
  0
LINE
  5
2066
330
1101
100
AcDbEntity
  8
STEMPEL
100
AcDbLine
 10
461.3690817551774
 20
410.1958748742029
 30
0.0
 11
453.7703274038327
 21
410.1958748742031
 31
0.0
  0
LINE
  5
2067
330
1101
100
AcDbEntity
  8
STEMPEL
100
AcDbLine
 10
461.3690817551774
 20
401.5356208363587
 30
0.0
 11
453.7703274038327
 21
401.5356208363587
 31
0.0
  0
ARC
  5
2068
330
1101
100
AcDbEntity
  8
HILF
100
AcDbCircle
 10
483.3578993190385
 20
405.8657478552808
 30
0.0
 40
22.41111549782308
100
AcDbArc
 50
168.8596278389042
 51
191.1403721610957
  0
ARC
  5
2069
330
1101
100
AcDbEntity
  8
STEMPEL
100
AcDbCircle
 10
483.770327403832
 20
405.8657478552808
 30
0.0
 40
30.31088913245485
100
AcDbArc
 50
171.7867892982603
 51
188.2132107017396
  0
LINE
  5
206A
330
1101
100
AcDbEntity
  8
STEMPEL
100
AcDbLine
 10
469.4594382713773
 20
400.8657478552802
 30
0.0
 11
471.9594382713772
 21
400.8657478552803
 31
0.0
  0
LINE
  5
206B
330
1101
100
AcDbEntity
  8
HILF
100
AcDbLine
 10
469.4594382713773
 20
401.8657478552809
 30
0.0
 11
471.9594382713772
 21
401.8657478552809
 31
0.0
  0
LINE
  5
206C
330
1101
100
AcDbEntity
  8
HILF
100
AcDbLine
 10
469.4594382713774
 20
409.8657478552799
 30
0.0
 11
471.9594382713771
 21
409.8657478552796
 31
0.0
  0
LINE
  5
206D
330
1101
100
AcDbEntity
  8
STEMPEL
100
AcDbLine
 10
469.4594382713774
 20
410.8657478552811
 30
0.0
 11
471.9594382713771
 21
410.865747855281
 31
0.0
  0
LINE
  5
206E
330
1101
100
AcDbEntity
  8
STEMPEL
100
AcDbLine
 10
461.3690817551774
 20
414.5260018931252
 30
0.0
 11
453.7703274038325
 21
414.5260018931252
 31
0.0
  0
LINE
  5
206F
330
1101
100
AcDbEntity
  8
STEMPEL
100
AcDbLine
 10
453.7703274038325
 20
414.5260018931252
 30
0.0
 11
453.4594382713773
 21
413.3657478552808
 31
0.0
  0
LINE
  5
2070
330
1101
100
AcDbEntity
  8
STEMPEL
100
AcDbLine
 10
462.0046688057878
 20
416.2722629627751
 30
0.0
 11
461.3690817551774
 21
414.5260018931252
 31
0.0
  0
ARC
  5
2071
330
1101
100
AcDbEntity
  8
STEMPEL
100
AcDbCircle
 10
462.7094382713772
 20
416.0157478552808
 30
0.0
 40
0.750000000000001
100
AcDbArc
 50
359.9999991462263
 51
159.9999999999999
  0
LINE
  5
2072
102
{ACAD_REACTORS
330
2046
102
}
330
1101
100
AcDbEntity
  8
STEMPEL
100
AcDbLine
 10
471.959438271377
 20
435.8657478552808
 30
0.0
 11
474.959438271377
 21
435.8657478552808
 31
0.0
  0
LINE
  5
2073
102
{ACAD_REACTORS
330
2049
102
}
330
1101
100
AcDbEntity
  8
STEMPEL
100
AcDbLine
 10
467.4594382713785
 20
438.3657478552805
 30
0.0
 11
469.4594382713786
 21
436.3657478552804
 31
0.0
  0
LINE
  5
2074
102
{ACAD_REACTORS
330
2049
102
}
330
1101
100
AcDbEntity
  8
STEMPEL
100
AcDbLine
 10
467.4594382713773
 20
438.3657478552804
 30
0.0
 11
463.4594382713772
 21
438.3657478552804
 31
0.0
  0
LINE
  5
2075
330
1101
100
AcDbEntity
  8
STEMPEL
100
AcDbLine
 10
477.959438271377
 20
440.8657478552778
 30
0.0
 11
474.9594382713769
 21
440.8657478552781
 31
0.0
  0
LINE
  5
2076
330
1101
100
AcDbEntity
  8
HILF
100
AcDbLine
 10
534.9669159341583
 20
428.3864380675816
 30
0.0
 11
497.7234569344341
 21
422.973915093025
 31
0.0
  0
TEXT
  5
2077
330
1101
100
AcDbEntity
  8
TEXT
 62
     1
100
AcDbText
 10
535.1794471041691
 20
419.3256636752542
 30
0.0
 40
7.0
  1
EDV-Art.Nr. 21811.000X
 41
0.8
  7
GREEKS
100
AcDbText
  0
LINE
  5
2078
330
1101
100
AcDbEntity
  8
TEXT
 62
     2
100
AcDbLine
 10
534.9669159341583
 20
428.3864380675816
 30
0.0
 11
639.3093325102285
 21
428.3864380675816
 31
0.0
  0
TEXT
  5
2079
330
1101
100
AcDbEntity
  8
TEXT
 62
     1
100
AcDbText
 10
535.3145891936926
 20
431.5979480175775
 30
0.0
 40
7.0
  1
Kompressionsdichtung
 41
0.8
  7
GREEKS
100
AcDbText
  0
TEXT
  5
207A
330
1101
100
AcDbEntity
  8
TEXT
 62
     1
100
AcDbText
 10
507.1216070735124
 20
451.1096331687938
 30
0.0
 40
7.0
  1
EDV-Art.Nr. 01378.000X
 41
0.8
  7
GREEKS
100
AcDbText
  0
LINE
  5
207B
330
1101
100
AcDbEntity
  8
TEXT
 62
     2
100
AcDbLine
 10
506.5976393331747
 20
460.0673376619271
 30
0.0
 11
613.5098602316757
 21
460.0673376619271
 31
0.0
  0
TEXT
  5
207C
330
1101
100
AcDbEntity
  8
TEXT
 62
     1
100
AcDbText
 10
507.1216070735124
 20
463.1278399960105
 30
0.0
 40
7.0
  1
Losflansch
 41
0.8
  7
GREEKS
100
AcDbText
  0
TEXT
  5
207D
330
1101
100
AcDbEntity
  8
TEXT
 62
     1
100
AcDbText
 10
534.8099431691023
 20
351.4008902254527
 30
0.0
 40
7.0
  1
EDV-Art.Nr. 21810.100X
 41
0.8
  7
GREEKS
100
AcDbText
  0
TEXT
  5
207E
330
1101
100
AcDbEntity
  8
TEXT
 62
     1
100
AcDbText
 10
534.9450852586257
 20
363.673174567776
 30
0.0
 40
7.0
  1
Kompressionsdichtung
 41
0.8
  7
GREEKS
100
AcDbText
  0
LINE
  5
207F
330
1101
100
AcDbEntity
  8
TEXT
 62
     2
100
AcDbLine
 10
534.5974119990914
 20
360.4616646177802
 30
0.0
 11
638.9398285751617
 21
360.4616646177802
 31
0.0
  0
LINE
  5
2080
330
1101
100
AcDbEntity
  8
HILF
100
AcDbLine
 10
534.5974119990914
 20
360.4616646177802
 30
0.0
 11
496.1361371884378
 21
349.9876880691366
 31
0.0
  0
LINE
  5
2081
330
1101
100
AcDbEntity
  8
HILF
100
AcDbLine
 10
491.6304721195996
 20
348.7606816711588
 30
0.0
 11
461.2767002172836
 21
340.4945829359273
 31
0.0
  0
HATCH
  5
2082
330
1101
100
AcDbEntity
  8
SCHRAFF
100
AcDbHatch
 10
0.0
 20
0.0
 30
0.0
210
0.0
220
0.0
230
1.0
  2
NET
 70
     0
 71
     0
 91
        4
 92
        7
 72
     0
 73
     1
 93
        4
 10
414.5080926255753
 20
341.8667651608045
 10
414.5080926255752
 20
338.8667651608044
 10
467.2356792660537
 20
338.8667651608045
 10
467.2356792660537
 20
341.8667651608045
 97
        0
 92
        7
 72
     0
 73
     1
 93
        4
 10
397.2356792660538
 20
341.8667651608045
 10
397.2356792660537
 20
338.8667651608044
 10
414.5080926255753
 20
338.8667651608045
 10
414.5080926255752
 20
341.8667651608045
 97
        0
 92
        7
 72
     0
 73
     1
 93
        4
 10
267.2356792660537
 20
338.8667651608045
 10
267.2356792660537
 20
341.8667651608045
 10
249.9632659065321
 20
341.8667651608046
 10
249.9632659065321
 20
338.8667651608045
 97
        0
 92
        7
 72
     0
 73
     1
 93
        4
 10
249.9632659065321
 20
338.8667651608045
 10
249.9632659065321
 20
341.8667651608045
 10
197.2356792660537
 20
341.8667651608046
 10
197.2356792660537
 20
338.8667651608046
 97
        0
 75
     0
 76
     1
 52
45.0
 41
15.0
 77
     0
 78
     2
 53
45.0
 43
0.0
 44
0.0
 45
-1.325825214724776
 46
1.325825214724776
 79
     0
 53
135.0
 43
0.0
 44
0.0
 45
-1.325825214724776
 46
-1.325825214724776
 79
     0
 47
0.3367606837783143
 98
        4
 10
421.945078202741
 20
340.4055920478811
 10
406.7853167398939
 20
340.4055920478811
 10
256.87211561712
 20
340.0688304647918
 10
242.3861215521306
 20
340.0688304647918
  0
LINE
  5
2083
330
1101
100
AcDbEntity
  8
STEMPEL
100
AcDbLine
 10
467.2356792660537
 20
341.8667651608045
 30
0.0
 11
197.2356792660537
 21
341.8667651608045
 31
0.0
  0
LINE
  5
2084
330
1101
100
AcDbEntity
  8
STEMPEL
100
AcDbLine
 10
467.2356792660537
 20
338.8667651608045
 30
0.0
 11
467.2356792660537
 21
341.8667651608045
 31
0.0
  0
LINE
  5
2085
330
1101
100
AcDbEntity
  8
STEMPEL
100
AcDbLine
 10
467.2356792660537
 20
338.8667651608045
 30
0.0
 11
467.2356792660537
 21
341.8667651608045
 31
0.0
  0
LINE
  5
2086
330
1101
100
AcDbEntity
  8
STEMPEL
100
AcDbLine
 10
397.2356792660538
 20
338.8667651608045
 30
0.0
 11
397.2356792660538
 21
341.8667651608045
 31
0.0
  0
LINE
  5
2087
330
1101
100
AcDbEntity
  8
STEMPEL
100
AcDbLine
 10
397.2356792660538
 20
338.8667651608045
 30
0.0
 11
397.2356792660538
 21
341.8667651608045
 31
0.0
  0
LINE
  5
2088
330
1101
100
AcDbEntity
  8
STEMPEL
100
AcDbLine
 10
267.2356792660537
 20
338.8667651608045
 30
0.0
 11
267.2356792660537
 21
341.8667651608045
 31
0.0
  0
LINE
  5
2089
330
1101
100
AcDbEntity
  8
STEMPEL
100
AcDbLine
 10
267.2356792660537
 20
338.8667651608045
 30
0.0
 11
267.2356792660537
 21
341.8667651608045
 31
0.0
  0
LINE
  5
208A
330
1101
100
AcDbEntity
  8
STEMPEL
100
AcDbLine
 10
197.2356792660537
 20
338.8667651608045
 30
0.0
 11
197.2356792660537
 21
341.8667651608045
 31
0.0
  0
LINE
  5
208B
330
1101
100
AcDbEntity
  8
STEMPEL
100
AcDbLine
 10
197.2356792660537
 20
338.8667651608045
 30
0.0
 11
197.2356792660537
 21
341.8667651608045
 31
0.0
  0
HATCH
  5
2163
330
1101
100
AcDbEntity
  8
SCHRAFF
100
AcDbHatch
 10
0.0
 20
0.0
 30
0.0
210
0.0
220
0.0
230
1.0
  2
_USER
 70
     0
 71
     0
 91
        4
 92
        7
 72
     0
 73
     1
 93
        4
 10
469.2356792660537
 20
330.8667651608048
 10
469.2356792660536
 20
328.8640204688087
 10
633.0277613653656
 20
320.2800411818382
 10
632.6048780113876
 20
322.3049482513119
 97
        0
 92
        7
 72
     0
 73
     1
 93
        4
 10
395.476381647038
 20
234.5950915507021
 10
395.3717097345521
 20
232.597832481193
 10
627.9731970779872
 20
220.4077050715906
 10
627.4901174661303
 20
222.4357668932608
 97
        0
 92
        7
 72
     0
 73
     1
 93
        6
 10
649.2831860891674
 20
302.5811032382543
 10
649.7060689509896
 20
300.5561985253883
 10
767.9994138154486
 20
294.3501799260915
 10
774.9890651964693
 20
293.367848486724
 10
775.0941369386564
 20
295.3727367614106
 10
768.1913382042937
 20
296.3428618573207
 97
        0
 92
        7
 72
     0
 73
     1
 93
        6
 10
644.1684259630155
 20
202.7119201207185
 10
644.6515051557669
 20
200.6838600585333
 10
762.7043081567149
 20
194.4904531903366
 10
769.8201433197994
 20
194.7389436298079
 10
769.9252150619863
 20
196.7438319044946
 10
762.7218281454179
 20
196.4922840904211
 97
        0
 75
     0
 76
     0
 52
135.0
 41
2.0
 77
     0
 78
     1
 53
135.0
 43
0.0
 44
0.0
 45
-1.414213562373095
 46
-1.414213562373094
 79
     0
 47
0.5638809181514346
 98
        4
 10
568.7212314697028
 20
324.79057868575
 10
551.2354648371422
 20
225.5475377037767
 10
693.9418758348813
 20
298.8520562182489
 10
656.1500587647245
 20
201.300657254706
  0
LINE
  5
2164
102
{ACAD_REACTORS
330
219E
102
}
330
1101
100
AcDbEntity
  8
STEMPEL
100
AcDbLine
 10
395.3717097345522
 20
232.597832481193
 30
0.0
 11
627.9731970779871
 21
220.4077050715907
 31
0.0
  0
LINE
  5
2165
330
1101
100
AcDbEntity
  8
STEMPEL
100
AcDbLine
 10
395.4763816470381
 20
234.5950915507021
 30
0.0
 11
627.4585026429799
 21
222.4374237559345
 31
0.0
  0
DIMENSION
  5
2166
330
1101
100
AcDbEntity
  8
BEM
100
AcDbDimension
  2
*D10
 10
772.4568559561494
 20
504.0988322598195
 30
0.0
 11
552.3462676111015
 21
510.5988322598196
 31
0.0
 70
    32
  1
800
 71
     5
 42
440.2211766900958
  3
STANDARD
100
AcDbAlignedDimension
 13
332.2356792660536
 23
492.3770316586064
 33
0.0
 14
772.4568559561494
 24
245.0504178502541
 34
0.0
100
AcDbRotatedDimension
  0
LINE
  5
2167
330
1101
100
AcDbEntity
  8
HILF
100
AcDbLine
 10
652.0736049652192
 20
289.2196434982206
 30
0.0
 11
649.2831860891674
 21
302.5811032382541
 31
0.0
210
0.0
220
0.0
230
-1.0
  0
LINE
  5
2168
330
1101
100
AcDbEntity
  8
STEMPEL
100
AcDbLine
 10
649.7483113349844
 20
300.5539823650366
 30
0.0
 11
767.9994138154486
 21
294.3501799260914
 31
0.0
  0
LINE
  5
2169
330
1101
100
AcDbEntity
  8
STEMPEL
100
AcDbLine
 10
649.2831860891674
 20
302.5811032382543
 30
0.0
 11
768.191338204294
 21
296.3428618573206
 31
0.0
  0
DIMENSION
  5
216A
330
1101
100
AcDbEntity
  8
BEM
100
AcDbDimension
  2
*D11
 10
814.4696733494518
 20
335.8667651608045
 30
0.0
 11
807.9696733494516
 21
290.4585915055294
 31
0.0
 70
    32
  1
91
 71
     5
 42
90.81634731055041
  3
STANDARD
100
AcDbAlignedDimension
 13
792.9863643309554
 23
245.0504178502541
 33
0.0
 14
472.2594382713776
 24
335.8667651608046
 34
0.0
 50
90.0
100
AcDbRotatedDimension
  0
LINE
  5
216B
330
1101
100
AcDbEntity
  8
HILF
100
AcDbLine
 10
636.4209614022266
 20
295.9038227919446
 30
0.0
 11
636.23902058757
 21
302.3633192727301
 31
0.0
210
0.0
220
0.0
230
-1.0
  0
LINE
  5
216C
330
1101
100
AcDbEntity
  8
STEMPEL
100
AcDbLine
 10
644.6515051557671
 20
200.6838600585333
 30
0.0
 11
762.7043081567151
 21
194.4904531903366
 31
0.0
  0
LINE
  5
216D
330
1101
100
AcDbEntity
  8
STEMPEL
100
AcDbLine
 10
644.1368107207599
 20
202.7135787428771
 30
0.0
 11
762.7218281454181
 21
196.4922840904212
 31
0.0
  0
DIMENSION
  5
216E
330
1101
100
AcDbEntity
  8
BEM
100
AcDbDimension
  2
*D12
 10
782.2746561199984
 20
245.0504178502541
 30
0.0
 11
725.8103888613379
 21
269.236971269171
 31
0.0
 70
    34
 71
     5
 42
0.0523598775598206
  3
STANDARD
100
AcDb2LineAngularDimension
 13
639.4082244474557
 23
252.0232011642723
 33
0.0
 14
777.4500033544946
 24
244.7887380834739
 34
0.0
 15
774.4568559561494
 25
245.0504178502541
 35
0.0
 16
726.7867847140147
 26
245.8475919090621
 36
0.0
  0
LINE
  5
216F
330
1101
100
AcDbEntity
  8
MITTEL
100
AcDbLine
 10
639.4082244474557
 20
252.0232011642723
 30
0.0
 11
777.4500033544946
 21
244.7887380834739
 31
0.0
  0
LINE
  5
2170
330
1101
100
AcDbEntity
  8
MITTEL
100
AcDbLine
 10
448.819060578292
 20
280.8667651608049
 30
0.0
 11
633.1751889304491
 21
271.2050698766493
 31
0.0
  0
LINE
  5
2171
330
1101
100
AcDbEntity
  8
HILF
100
AcDbLine
 10
644.651505155767
 20
200.6838600585332
 30
0.0
 11
641.4577913305541
 21
214.091689574164
 31
0.0
210
0.0
220
0.0
230
-1.0
  0
TEXT
  5
2172
330
1101
100
AcDbEntity
  8
TEXT
 62
     1
100
AcDbText
 10
564.5972314060673
 20
289.5009042994302
 30
0.0
 40
7.0
  1
DN100
 50
357.0000000000009
 41
0.8
  7
GREEKS
100
AcDbText
  0
LINE
  5
2173
330
1101
100
AcDbEntity
  8
HILF
100
AcDbLine
 10
622.9125688410022
 20
246.9845760058784
 30
0.0
 11
622.8912862318568
 21
253.404929898537
 31
0.0
210
0.0
220
0.0
230
-1.0
  0
LINE
  5
2174
330
1101
100
AcDbEntity
  8
HILF
100
AcDbLine
 10
642.1782611234935
 20
246.0446447612987
 30
0.0
 11
644.8779926636335
 21
251.9755491669709
 31
0.0
210
0.0
220
0.0
230
-1.0
  0
LINE
  5
2175
330
1101
100
AcDbEntity
  8
HILF
100
AcDbLine
 10
627.9731970779871
 20
220.4077050715907
 30
0.0
 11
624.7794832527743
 21
233.8155345872215
 31
0.0
210
0.0
220
0.0
230
-1.0
  0
LINE
  5
2176
330
1101
100
AcDbEntity
  8
HILF
100
AcDbLine
 10
639.5908769187821
 20
227.2607309928209
 30
0.0
 11
639.5695943096367
 21
233.6810848854795
 31
0.0
210
0.0
220
0.0
230
-1.0
  0
LINE
  5
2177
330
1101
100
AcDbEntity
  8
HILF
100
AcDbLine
 10
641.4577913305541
 20
214.091689574164
 30
0.0
 11
639.5908769187821
 21
227.2607309928209
 31
0.0
210
0.0
220
0.0
230
-1.0
  0
LINE
  5
2178
330
1101
100
AcDbEntity
  8
HILF
100
AcDbLine
 10
624.7794832527743
 20
233.8155345872215
 30
0.0
 11
622.9125688410022
 21
246.9845760058784
 31
0.0
210
0.0
220
0.0
230
-1.0
  0
LINE
  5
2179
330
1101
100
AcDbEntity
  8
HILF
100
AcDbLine
 10
639.5695943096367
 20
233.6810848854795
 30
0.0
 11
640.3775613338917
 21
239.952196217529
 31
0.0
210
0.0
220
0.0
230
-1.0
  0
LINE
  5
217A
330
1101
100
AcDbEntity
  8
HILF
100
AcDbLine
 10
640.3775613338917
 20
239.952196217529
 30
0.0
 11
642.1782611234935
 21
246.0446447612987
 31
0.0
210
0.0
220
0.0
230
-1.0
  0
LINE
  5
217B
330
1101
100
AcDbEntity
  8
HILF
100
AcDbLine
 10
644.8779926636335
 20
251.9755491669709
 30
0.0
 11
650.608081199151
 21
263.7816029719833
 31
0.0
210
0.0
220
0.0
230
-1.0
  0
LINE
  5
217C
330
1101
100
AcDbEntity
  8
HILF
100
AcDbLine
 10
628.1996845858536
 20
271.6993941800284
 30
0.0
 11
633.9297731213711
 21
283.5054479850408
 31
0.0
210
0.0
220
0.0
230
-1.0
  0
LINE
  5
217D
330
1101
100
AcDbEntity
  8
HILF
100
AcDbLine
 10
623.6992532561118
 20
259.6760412305865
 30
0.0
 11
625.4999530457137
 21
265.7684897743562
 31
0.0
210
0.0
220
0.0
230
-1.0
  0
LINE
  5
217E
330
1101
100
AcDbEntity
  8
HILF
100
AcDbLine
 10
622.8912862318568
 20
253.404929898537
 30
0.0
 11
623.6992532561118
 21
259.6760412305865
 31
0.0
210
0.0
220
0.0
230
-1.0
  0
LINE
  5
217F
330
1101
100
AcDbEntity
  8
HILF
100
AcDbLine
 10
625.4999530457137
 20
265.7684897743562
 30
0.0
 11
628.1996845858536
 21
271.6993941800284
 31
0.0
210
0.0
220
0.0
230
-1.0
  0
LINE
  5
2180
330
1101
100
AcDbEntity
  8
HILF
100
AcDbLine
 10
633.9297731213711
 20
283.5054479850408
 30
0.0
 11
635.7205250362504
 21
289.6052233215099
 31
0.0
210
0.0
220
0.0
230
-1.0
  0
LINE
  5
2181
330
1101
100
AcDbEntity
  8
HILF
100
AcDbLine
 10
635.7205250362504
 20
289.6052233215099
 30
0.0
 11
636.4209614022266
 21
295.9038227919446
 31
0.0
210
0.0
220
0.0
230
-1.0
  0
LINE
  5
2182
330
1101
100
AcDbEntity
  8
HILF
100
AcDbLine
 10
652.3988331140303
 20
269.8813783084523
 30
0.0
 11
653.0992694800065
 21
276.179977778887
 31
0.0
210
0.0
220
0.0
230
-1.0
  0
LINE
  5
2183
330
1101
100
AcDbEntity
  8
HILF
100
AcDbLine
 10
650.608081199151
 20
263.7816029719833
 30
0.0
 11
652.3988331140303
 21
269.8813783084523
 31
0.0
210
0.0
220
0.0
230
-1.0
  0
LINE
  5
2184
330
1101
100
AcDbEntity
  8
HILF
100
AcDbLine
 10
652.9173286653499
 20
282.6394742596725
 30
0.0
 11
652.0736049652192
 21
289.2196434982206
 31
0.0
210
0.0
220
0.0
230
-1.0
  0
LINE
  5
2185
330
1101
100
AcDbEntity
  8
HILF
100
AcDbLine
 10
653.0992694800065
 20
276.179977778887
 30
0.0
 11
652.9173286653499
 21
282.6394742596725
 31
0.0
210
0.0
220
0.0
230
-1.0
  0
LINE
  5
2186
330
1101
100
AcDbEntity
  8
STEMPEL
100
AcDbLine
 10
775.0941369386564
 20
295.3727367614107
 30
0.0
 11
769.8201433197996
 21
194.7389436298079
 31
0.0
  0
DIMENSION
  5
2187
330
1101
100
AcDbEntity
  8
BEM
100
AcDbDimension
  2
*D13
 10
795.6698605155507
 20
294.8625288975189
 30
0.0
 11
786.4357572631099
 21
244.2859878965212
 31
0.0
 70
    33
  1
%%c101.6
 71
     5
 42
102.0001012254858
  3
STANDARD
100
AcDbAlignedDimension
 13
762.7043081567151
 23
194.4904531903366
 33
0.0
 14
768.191338204294
 24
296.3428618573206
 34
0.0
  0
LINE
  5
2188
330
1101
100
AcDbEntity
  8
HILF
100
AcDbLine
 10
767.8956245936322
 20
292.3451114049214
 30
0.0
 11
763.038115271506
 21
198.5045481688422
 31
0.0
  0
LINE
  5
2189
330
1101
100
AcDbEntity
  8
STEMPEL
100
AcDbLine
 10
762.7043081567151
 20
194.4904531903366
 30
0.0
 11
769.8201433197996
 21
194.7389436298079
 31
0.0
  0
LINE
  5
218A
330
1101
100
AcDbEntity
  8
STEMPEL
100
AcDbLine
 10
762.7218281454181
 20
196.4922840904212
 30
0.0
 11
769.9252150619863
 21
196.7438319044946
 31
0.0
  0
LINE
  5
218B
330
1101
100
AcDbEntity
  8
BEM
100
AcDbLine
 10
774.4568559561494
 20
245.0504178502541
 30
0.0
 11
782.2746561199984
 21
245.0504178502541
 31
0.0
  0
LINE
  5
218C
330
1101
100
AcDbEntity
  8
STEMPEL
100
AcDbLine
 10
767.9994138154486
 20
294.3501799260914
 30
0.0
 11
774.9890651964695
 21
293.367848486724
 31
0.0
  0
LINE
  5
218D
330
1101
100
AcDbEntity
  8
STEMPEL
100
AcDbLine
 10
768.191338204294
 20
296.3428618573206
 30
0.0
 11
775.0941369386564
 21
295.3727367614107
 31
0.0
  0
LINE
  5
218E
102
{ACAD_REACTORS
330
21A7
102
}
330
1101
100
AcDbEntity
  8
STEMPEL
100
AcDbLine
 10
469.2356792660537
 20
330.8667651608047
 30
0.0
 11
632.6048780113875
 21
322.3049482513118
 31
0.0
  0
LINE
  5
218F
330
1101
100
AcDbEntity
  8
STEMPEL
100
AcDbLine
 10
469.2356792660537
 20
328.8640204688087
 30
0.0
 11
633.0700032572045
 21
320.2778273780942
 31
0.0
  0
LINE
  5
2190
330
1101
100
AcDbEntity
  8
HILF
100
AcDbLine
 10
635.3952968874392
 20
308.9434885112781
 30
0.0
 11
632.6048780113875
 21
322.3049482513116
 31
0.0
210
0.0
220
0.0
230
-1.0
  0
LINE
  5
2191
330
1101
100
AcDbEntity
  8
HILF
100
AcDbLine
 10
636.23902058757
 20
302.3633192727301
 30
0.0
 11
635.3952968874392
 21
308.9434885112781
 31
0.0
210
0.0
220
0.0
230
-1.0
  0
TEXT
  5
2192
330
1101
100
AcDbEntity
  8
TEXT
 62
     1
100
AcDbText
 10
69.04343498566209
 20
238.470043284248
 30
0.0
 40
7.0
  1
EDV-Art.Nr. 01377.100X
 41
0.8
  7
GREEKS
100
AcDbText
  0
LINE
  5
2193
330
1101
100
AcDbEntity
  8
TEXT
 62
     2
100
AcDbLine
 10
67.43539496309598
 20
246.9422308617206
 30
0.0
 11
173.7610901411028
 21
246.9422308617206
 31
0.0
  0
TEXT
  5
2194
330
1101
100
AcDbEntity
  8
TEXT
 62
     1
100
AcDbText
 10
68.79288197497283
 20
250.0027331958037
 30
0.0
 40
7.0
  1
Ablaufkörper DN100
 41
0.8
  7
GREEKS
100
AcDbText
  0
LINE
  5
2195
330
1101
100
AcDbEntity
  8
TEXT
 62
     2
100
AcDbLine
 10
270.5568851899425
 20
286.4131286335547
 30
0.0
 11
173.7610901411028
 21
246.9422308617206
 31
0.0
  0
LINE
  5
2196
330
1101
100
AcDbEntity
  8
STEMPEL
100
AcDbLine
 10
460.2356792660536
 20
282.366765160805
 30
0.0
 11
278.2356792660537
 21
282.3667651608045
 31
0.0
  0
LINE
  5
2197
330
1101
100
AcDbEntity
  8
STEMPEL
100
AcDbLine
 10
460.2356792660536
 20
280.8667651608049
 30
0.0
 11
369.2356792660538
 21
280.8667651608047
 31
0.0
  0
LINE
  5
2198
330
1101
100
AcDbEntity
  8
STEMPEL
100
AcDbLine
 10
367.5036284584848
 20
280.8667651608047
 30
0.0
 11
278.2356792660537
 21
280.8667651608045
 31
0.0
  0
ARC
  5
2199
330
1101
100
AcDbEntity
  8
STEMPEL
100
AcDbCircle
 10
278.2356792660537
 20
289.8667651608045
 30
0.0
 40
7.5
100
AcDbArc
 50
180.0
 51
270.0
  0
ARC
  5
219A
330
1101
100
AcDbEntity
  8
STEMPEL
100
AcDbCircle
 10
278.2356792660537
 20
289.8667651608045
 30
0.0
 40
9.0
100
AcDbArc
 50
180.0
 51
270.0
  0
LINE
  5
219B
102
{ACAD_REACTORS
330
219E
102
}
330
1101
100
AcDbEntity
  8
STEMPEL
100
AcDbLine
 10
367.5036284584848
 20
280.8667651608047
 30
0.0
 11
394.5330391666069
 21
234.0504525156871
 31
0.0
  0
LINE
  5
219C
330
1101
100
AcDbEntity
  8
STEMPEL
100
AcDbLine
 10
368.3696538622693
 20
282.3667651608048
 30
0.0
 11
395.8320772722835
 21
234.8004525156871
 31
0.0
  0
LINE
  5
219D
102
{ACAD_REACTORS
330
219E
102
}
330
1101
100
AcDbEntity
  8
STEMPEL
100
AcDbLine
 10
394.5330391666069
 20
234.0504525156871
 30
0.0
 11
395.8320772722835
 21
234.8004525156871
 31
0.0
  0
HATCH
  5
219E
330
1101
100
AcDbEntity
  8
SCHRAFF
100
AcDbHatch
 10
0.0
 20
0.0
 30
0.0
210
0.0
220
0.0
230
1.0
  2
_USER
 70
     0
 71
     1
 91
        1
 92
        7
 72
     1
 73
     1
 93
        5
 10
395.4763816470381
 20
234.5950915507021
 42
0.0
 10
394.5330391666069
 20
234.0504525156871
 42
0.0
 10
393.1354096300209
 20
236.4712178832134
 42
0.9481309597513883
 10
397.6047132586025
 20
232.4808057253663
 42
0.0
 10
395.3717097345521
 20
232.597832481193
 42
0.0
 97
        5
330
219D
330
219B
330
219F
330
2164
330
21A0
 75
     0
 76
     0
 52
0.0
 41
0.1
 77
     0
 78
     1
 53
0.0
 43
97.86798935151086
 44
-110.4323157756603
 45
0.0
 46
0.1
 79
     0
 47
0.02519085598864
 98
        1
 10
394.7765774326271
 20
233.2009421954801
  0
ARC
  5
219F
102
{ACAD_REACTORS
330
219E
102
}
330
1101
100
AcDbEntity
  8
SCHRAFF
100
AcDbCircle
 10
395.4763816470381
 20
234.5950915507021
 30
0.0
 40
3.0
100
AcDbArc
 50
141.2902506346705
 51
315.1896851042222
  0
LINE
  5
21A0
102
{ACAD_REACTORS
330
219E
102
}
330
1101
100
AcDbEntity
  8
STEMPEL
100
AcDbLine
 10
395.3717097345522
 20
232.597832481193
 30
0.0
 11
395.4763816470381
 21
234.5950915507021
 31
0.0
  0
ARC
  5
21A1
330
1101
100
AcDbEntity
  8
STEMPEL
100
AcDbCircle
 10
460.2356792660536
 20
289.866765160805
 30
0.0
 40
7.5
100
AcDbArc
 50
270.0
 51
0.0
  0
ARC
  5
21A2
330
1101
100
AcDbEntity
  8
STEMPEL
100
AcDbCircle
 10
460.2356792660536
 20
289.866765160805
 30
0.0
 40
9.0
100
AcDbArc
 50
270.0
 51
0.0
  0
HATCH
  5
21A3
330
1101
100
AcDbEntity
  8
SCHRAFF
100
AcDbHatch
 10
0.0
 20
0.0
 30
0.0
210
0.0
220
0.0
230
1.0
  2
_USER
 70
     0
 71
     0
 91
        2
 92
        7
 72
     0
 73
     1
 93
        4
 10
469.2356792660537
 20
335.8667651608045
 10
467.7356792660537
 20
335.8667651608045
 10
467.7356792660537
 20
328.8640204688087
 10
469.2356792660537
 20
328.8640204688087
 97
        0
 92
        7
 72
     1
 73
     1
 93
       10
 10
278.2356792660537
 20
282.3667651608045
 42
-0.4142135623730951
 10
270.7356792660537
 20
289.8667651608045
 42
0.0
 10
270.7356792660537
 20
335.8667651608045
 42
0.0
 10
269.2356792660536
 20
335.8667651608044
 42
0.0
 10
269.2356792660537
 20
289.8667651608045
 42
0.4142135623730951
 10
278.2356792660537
 20
280.8667651608045
 42
0.0
 10
367.5036284584848
 20
280.8667651608047
 42
0.0
 10
394.5330391666069
 20
234.0504525156872
 42
0.0
 10
395.8320772722835
 20
234.8004525156871
 42
0.0
 10
368.3696538622694
 20
282.3667651608047
 42
0.0
 97
        0
 75
     0
 76
     0
 52
45.0
 41
2.0
 77
     0
 78
     1
 53
45.0
 43
0.0
 44
0.0
 45
-1.414213562373094
 46
1.414213562373095
 79
     0
 47
0.5638809181514346
 98
        2
 10
468.8831491735566
 20
330.9932695922112
 10
352.1233581794131
 20
281.9356285220526
  0
LINE
  5
21A4
102
{ACAD_REACTORS
330
21A7
102
}
330
1101
100
AcDbEntity
  8
STEMPEL
100
AcDbLine
 10
469.2356792660537
 20
335.8667651608045
 30
0.0
 11
469.2356792660537
 21
289.866765160805
 31
0.0
  0
LINE
  5
21A5
330
1101
100
AcDbEntity
  8
STEMPEL
100
AcDbLine
 10
467.7356792660536
 20
335.8667651608045
 30
0.0
 11
467.7356792660536
 21
289.866765160805
 31
0.0
  0
LINE
  5
21A6
330
1101
100
AcDbEntity
  8
STEMPEL
100
AcDbLine
 10
469.2356792660537
 20
328.8640204688087
 30
0.0
 11
467.7356792660537
 21
328.8640204688087
 31
0.0
  0
HATCH
  5
21A7
330
1101
100
AcDbEntity
  8
SCHRAFF
100
AcDbHatch
 10
0.0
 20
0.0
 30
0.0
210
0.0
220
0.0
230
1.0
  2
_USER
 70
     0
 71
     1
 91
        2
 92
        7
 72
     1
 73
     1
 93
        3
 10
470.8939916612314
 20
333.3667651608046
 42
0.1474768247823666
 10
469.2356792660537
 20
333.8667651608048
 42
0.0
 10
469.2356792660537
 20
332.8667651608045
 42
0.1474768247823664
 97
        3
330
21A8
330
21A4
330
21A9
 92
        7
 72
     1
 73
     1
 93
        4
 10
469.2356792660537
 20
332.8667651608045
 42
0.0
 10
469.2356792660537
 20
330.8667651608047
 42
0.0
 10
472.2315678703173
 20
330.7097572920759
 42
0.265344572010292
 10
470.8939916612315
 20
333.3667651608046
 42
-0.1474768247823712
 97
        4
330
21A9
330
21A4
330
218E
330
21A8
 75
     0
 76
     0
 52
0.0
 41
0.1
 77
     0
 78
     1
 53
0.0
 43
0.0
 44
0.0
 45
0.0
 46
0.1
 79
     0
 47
0.0359532495994012
 98
        2
 10
469.9699695645274
 20
333.3356968610585
 10
470.0059351427174
 20
332.2570988453231
  0
ARC
  5
21A8
102
{ACAD_REACTORS
330
21A7
102
}
330
1101
100
AcDbEntity
  8
SCHRAFF
100
AcDbCircle
 10
469.2356792660537
 20
330.8667651608047
 30
0.0
 40
3.0
100
AcDbArc
 50
357.0000000000009
 51
90.0
  0
ARC
  5
21A9
102
{ACAD_REACTORS
330
21A7
102
}
330
1101
100
AcDbEntity
  8
SCHRAFF
100
AcDbCircle
 10
469.2356792660537
 20
335.8667651608045
 30
0.0
 40
3.0
100
AcDbArc
 50
270.0
 51
0.0
  0
HATCH
  5
21AA
330
1101
100
AcDbEntity
  8
SCHRAFF
100
AcDbHatch
 10
0.0
 20
0.0
 30
0.0
210
0.0
220
0.0
230
1.0
  2
_USER
 70
     0
 71
     0
 91
        1
 92
        7
 72
     1
 73
     1
 93
        3
 10
469.2356792660536
 20
335.8667651608044
 42
0.0
 10
469.2356792660536
 20
332.8667651608045
 42
0.4142135623731117
 10
472.2356792660537
 20
335.8667651608046
 42
0.0
 97
        0
 75
     0
 76
     0
 52
0.0
 41
0.1
 77
     0
 78
     1
 53
0.0
 43
97.86798935151086
 44
-110.4323157756603
 45
0.0
 46
0.1
 79
     0
 47
0.0112272238088987
 98
        1
 10
471.6045734547396
 20
335.7155460531583
  0
LINE
  5
21AB
330
1101
100
AcDbEntity
  8
STEMPEL
100
AcDbLine
 10
270.7356792660537
 20
335.8667651608045
 30
0.0
 11
270.7356792660537
 21
289.8667651608045
 31
0.0
  0
LINE
  5
21AC
330
1101
100
AcDbEntity
  8
STEMPEL
100
AcDbLine
 10
269.2356792660537
 20
335.8667651608045
 30
0.0
 11
269.2356792660537
 21
289.8667651608045
 31
0.0
  0
ARC
  5
21AD
330
1101
100
AcDbEntity
  8
SCHRAFF
100
AcDbCircle
 10
269.2356792660537
 20
335.8667651608045
 30
0.0
 40
3.0
100
AcDbArc
 50
180.0
 51
270.0
  0
INSERT
  5
21AE
330
1101
100
AcDbEntity
  8
SCHRAFF
100
AcDbBlockReference
  2
*X9
 10
60.17112265255696
 20
-107.1178870363811
 30
0.0
1001
ACAD
1000
HATCH
1002
{
1070
    16
1000
_U,I
1040
0.1
1040
0.0
1070
     0
1002
}
  0
ENDSEC
  0
SECTION
  2
OBJECTS
  0
DICTIONARY
  5
10EF
330
0
100
AcDbDictionary
281
     1
  3
ACAD_COLOR
350
1802
  3
ACAD_GROUP
350
10F0
  3
ACAD_LAYOUT
350
10FC
  3
ACAD_MATERIAL
350
1801
  3
ACAD_MLINESTYLE
350
10F9
  3
ACAD_PLOTSETTINGS
350
10FB
  3
ACAD_PLOTSTYLENAME
350
10F1
  3
AcDbVariableDictionary
350
112B
  0
DICTIONARY
  5
1945
330
10E5
100
AcDbDictionary
280
     1
281
     1
  3
ACAD_LAYERSTATES
360
1946
  0
DICTIONARY
  5
1561
330
1101
100
AcDbDictionary
280
     1
281
     1
  3
ACAD_LAYOUTSELFREF
360
17A3
  0
DICTIONARY
  5
1563
330
10FD
100
AcDbDictionary
280
     1
281
     1
  3
ACAD_LAYOUTSELFREF
360
17A2
  0
DICTIONARY
  5
1802
102
{ACAD_REACTORS
330
10EF
102
}
330
10EF
100
AcDbDictionary
281
     1
  0
DICTIONARY
  5
10F0
102
{ACAD_REACTORS
330
10EF
102
}
330
10EF
100
AcDbDictionary
281
     1
  0
DICTIONARY
  5
10FC
102
{ACAD_REACTORS
330
10EF
102
}
330
10EF
100
AcDbDictionary
281
     1
  3
Layout1
350
1100
  3
Model
350
1104
  0
DICTIONARY
  5
1801
102
{ACAD_REACTORS
330
10EF
102
}
330
10EF
100
AcDbDictionary
281
     1
  0
DICTIONARY
  5
10F9
102
{ACAD_REACTORS
330
10EF
102
}
330
10EF
100
AcDbDictionary
281
     1
  3
Standard
350
10FA
  0
DICTIONARY
  5
10FB
102
{ACAD_REACTORS
330
10EF
102
}
330
10EF
100
AcDbDictionary
281
     1
  0
ACDBDICTIONARYWDFLT
  5
10F1
102
{ACAD_REACTORS
330
10EF
102
}
330
10EF
100
AcDbDictionary
281
     1
  3
Normal
350
10F2
100
AcDbDictionaryWithDefault
340
10F2
  0
DICTIONARY
  5
112B
102
{ACAD_REACTORS
330
10EF
102
}
330
10EF
100
AcDbDictionary
281
     1
  3
DIMASSOC
350
180D
  3
PROJECTNAME
350
180E
  3
SORTENTS
350
112C
  0
DICTIONARY
  5
1946
102
{ACAD_REACTORS
330
1945
102
}
330
1945
100
AcDbDictionary
281
     1
  0
XRECORD
  5
17A3
102
{ACAD_REACTORS
330
1561
102
}
330
1561
100
AcDbXrecord
280
     1
340
1101
  0
XRECORD
  5
17A2
102
{ACAD_REACTORS
330
1563
102
}
330
1563
100
AcDbXrecord
280
     1
340
10FD
  0
LAYOUT
  5
1100
102
{ACAD_REACTORS
330
10FC
102
}
330
10FC
100
AcDbPlotSettings
  1

  2
\\NT_WORK01\HP LaserJet 5000 PCL 6
  4

  6

 40
0.0
 41
0.0
 42
0.0
 43
0.0
 44
0.0
 45
0.0
 46
0.0
 47
0.0
 48
0.0
 49
0.0
140
0.0
141
0.0
142
1.0
143
1.0
 70
   688
 72
     0
 73
     0
 74
     5
  7
monochrome.ctb
 75
    16
147
1.0
 76
     0
 77
     2
 78
   300
148
0.0
149
0.0
100
AcDbLayout
  1
Layout1
 70
     0
 71
     1
 10
0.0
 20
0.0
 11
12.0
 21
9.0
 12
0.0
 22
0.0
 32
0.0
 14
1.000000000000000E+20
 24
1.000000000000000E+20
 34
1.000000000000000E+20
 15
-1.000000000000000E+20
 25
-1.000000000000000E+20
 35
-1.000000000000000E+20
146
0.0
 13
0.0
 23
0.0
 33
0.0
 16
1.0
 26
0.0
 36
0.0
 17
0.0
 27
1.0
 37
0.0
 76
     0
330
10FD
  0
LAYOUT
  5
1104
102
{ACAD_REACTORS
330
10FC
102
}
330
10FC
100
AcDbPlotSettings
  1

  2
none_device
  4
Letter_(8.50_x_11.00_Inches)
  6

 40
6.349999904632568
 41
6.349999904632568
 42
6.350006103515625
 43
6.350006103515625
 44
215.8999938964844
 45
279.3999938964844
 46
0.0
 47
0.0
 48
0.0
 49
0.0
140
0.0
141
0.0
142
1.0
143
1.0
 70
 11952
 72
     0
 73
     1
 74
     0
  7

 75
     0
147
1.0
 76
     0
 77
     2
 78
   300
148
-3439.080930369972
149
89.86823476943103
100
AcDbLayout
  1
Model
 70
     1
 71
     0
 10
0.0
 20
0.0
 11
12.0
 21
9.0
 12
0.0
 22
0.0
 32
0.0
 14
0.0
 24
0.0
 34
0.0
 15
0.0
 25
0.0
 35
0.0
146
0.0
 13
0.0
 23
0.0
 33
0.0
 16
1.0
 26
0.0
 36
0.0
 17
0.0
 27
1.0
 37
0.0
 76
     0
330
1101
  0
MLINESTYLE
  5
10FA
102
{ACAD_REACTORS
330
10F9
102
}
330
10F9
100
AcDbMlineStyle
  2
STANDARD
 70
     0
  3

 62
   256
 51
90.0
 52
90.0
 71
     2
 49
0.5
 62
   256
  6
BYLAYER
 49
-0.5
 62
   256
  6
BYLAYER
  0
ACDBPLACEHOLDER
  5
10F2
102
{ACAD_REACTORS
330
10F1
102
}
330
10F1
  0
DICTIONARYVAR
  5
180D
102
{ACAD_REACTORS
330
112B
102
}
330
112B
100
DictionaryVariables
280
     0
  1
1
  0
DICTIONARYVAR
  5
180E
102
{ACAD_REACTORS
330
112B
102
}
330
112B
100
DictionaryVariables
280
     0
  1

  0
DICTIONARYVAR
  5
112C
102
{ACAD_REACTORS
330
112B
102
}
330
112B
100
DictionaryVariables
280
     0
  1
96
  0
ENDSEC
  0
EOF
