  0
SECTION
  2
HEADER
  9
$ACADVER
  1
AC1018
  9
$ACADMAINTVER
 70
     2
  9
$DWGCODEPAGE
  3
ANSI_1252
  9
$INSBASE
 10
0.0
 20
0.0
 30
0.0
  9
$EXTMIN
 10
-0.0512671842570853
 20
-0.0362532231540627
 30
-0.0000000349181948
  9
$EXTMAX
 10
840.0512750076064
 20
594.0362587553784
 30
0.0000000814935746
  9
$LIMMIN
 10
0.0
 20
0.0
  9
$LIMMAX
 10
839.9999999999998
 20
594.0000000000001
  9
$ORTHOMODE
 70
     1
  9
$REGENMODE
 70
     1
  9
$FILLMODE
 70
     1
  9
$QTEXTMODE
 70
     0
  9
$MIRRTEXT
 70
     1
  9
$LTSCALE
 40
20.0
  9
$ATTMODE
 70
     1
  9
$TEXTSIZE
 40
2.5
  9
$TRACEWID
 40
0.5
  9
$TEXTSTYLE
  7
GREEKS
  9
$CLAYER
  8
VOLL
  9
$CELTYPE
  6
ByLayer
  9
$CECOLOR
 62
   256
  9
$CELTSCALE
 40
1.0
  9
$DISPSILH
 70
     0
  9
$DIMSCALE
 40
2.0
  9
$DIMASZ
 40
3.5
  9
$DIMEXO
 40
1.0
  9
$DIMDLI
 40
1.0
  9
$DIMRND
 40
0.0
  9
$DIMDLE
 40
0.0
  9
$DIMEXE
 40
1.0
  9
$DIMTP
 40
0.0
  9
$DIMTM
 40
2.0
  9
$DIMTXT
 40
3.5
  9
$DIMCEN
 40
0.09
  9
$DIMTSZ
 40
0.0
  9
$DIMTOL
 70
     0
  9
$DIMLIM
 70
     0
  9
$DIMTIH
 70
     0
  9
$DIMTOH
 70
     0
  9
$DIMSE1
 70
     0
  9
$DIMSE2
 70
     0
  9
$DIMTAD
 70
     1
  9
$DIMZIN
 70
     8
  9
$DIMBLK
  1

  9
$DIMASO
 70
     1
  9
$DIMSHO
 70
     0
  9
$DIMPOST
  1

  9
$DIMAPOST
  1

  9
$DIMALT
 70
     0
  9
$DIMALTD
 70
     2
  9
$DIMALTF
 40
25.4
  9
$DIMLFAC
 40
1.0
  9
$DIMTOFL
 70
     1
  9
$DIMTVP
 40
0.0
  9
$DIMTIX
 70
     0
  9
$DIMSOXD
 70
     0
  9
$DIMSAH
 70
     0
  9
$DIMBLK1
  1

  9
$DIMBLK2
  1

  9
$DIMSTYLE
  2
STANDARD
  9
$DIMCLRD
 70
   256
  9
$DIMCLRE
 70
     0
  9
$DIMCLRT
 70
     1
  9
$DIMTFAC
 40
0.5
  9
$DIMGAP
 40
1.199999999999999
  9
$DIMJUST
 70
     0
  9
$DIMSD1
 70
     0
  9
$DIMSD2
 70
     0
  9
$DIMTOLJ
 70
     1
  9
$DIMTZIN
 70
     0
  9
$DIMALTZ
 70
     0
  9
$DIMALTTZ
 70
     0
  9
$DIMUPT
 70
     0
  9
$DIMDEC
 70
     2
  9
$DIMTDEC
 70
     2
  9
$DIMALTU
 70
     2
  9
$DIMALTTD
 70
     2
  9
$DIMTXSTY
  7
GREEKS
  9
$DIMAUNIT
 70
     0
  9
$DIMADEC
 70
     0
  9
$DIMALTRND
 40
0.0
  9
$DIMAZIN
 70
     2
  9
$DIMDSEP
 70
    46
  9
$DIMATFIT
 70
     3
  9
$DIMFRAC
 70
     0
  9
$DIMLDRBLK
  1

  9
$DIMLUNIT
 70
     2
  9
$DIMLWD
 70
    -1
  9
$DIMLWE
 70
    -2
  9
$DIMTMOVE
 70
     0
  9
$LUNITS
 70
     2
  9
$LUPREC
 70
     2
  9
$SKETCHINC
 40
1.0
  9
$FILLETRAD
 40
38.8
  9
$AUNITS
 70
     0
  9
$AUPREC
 70
     0
  9
$MENU
  1
ACAD
  9
$ELEVATION
 40
0.0
  9
$PELEVATION
 40
0.0
  9
$THICKNESS
 40
0.0
  9
$LIMCHECK
 70
     0
  9
$CHAMFERA
 40
0.0
  9
$CHAMFERB
 40
0.0
  9
$CHAMFERC
 40
0.0
  9
$CHAMFERD
 40
0.0
  9
$SKPOLY
 70
     0
  9
$TDCREATE
 40
2452806.236912291
  9
$TDUCREATE
 40
2452806.153578959
  9
$TDUPDATE
 40
2455803.480749919
  9
$TDUUPDATE
 40
2455803.397416586
  9
$TDINDWG
 40
0.5425301157
  9
$TDUSRTIMER
 40
0.5425301157
  9
$USRTIMER
 70
     1
  9
$ANGBASE
 50
0.0
  9
$ANGDIR
 70
     0
  9
$PDMODE
 70
     0
  9
$PDSIZE
 40
0.0
  9
$PLINEWID
 40
0.0
  9
$SPLFRAME
 70
     0
  9
$SPLINETYPE
 70
     6
  9
$SPLINESEGS
 70
     8
  9
$HANDSEED
  5
3879
  9
$SURFTAB1
 70
     6
  9
$SURFTAB2
 70
     6
  9
$SURFTYPE
 70
     6
  9
$SURFU
 70
     6
  9
$SURFV
 70
     6
  9
$UCSBASE
  2

  9
$UCSNAME
  2

  9
$UCSORG
 10
0.0
 20
0.0
 30
0.0
  9
$UCSXDIR
 10
1.0
 20
0.0
 30
0.0
  9
$UCSYDIR
 10
0.0
 20
1.0
 30
0.0
  9
$UCSORTHOREF
  2

  9
$UCSORTHOVIEW
 70
     0
  9
$UCSORGTOP
 10
0.0
 20
0.0
 30
0.0
  9
$UCSORGBOTTOM
 10
0.0
 20
0.0
 30
0.0
  9
$UCSORGLEFT
 10
0.0
 20
0.0
 30
0.0
  9
$UCSORGRIGHT
 10
0.0
 20
0.0
 30
0.0
  9
$UCSORGFRONT
 10
0.0
 20
0.0
 30
0.0
  9
$UCSORGBACK
 10
0.0
 20
0.0
 30
0.0
  9
$PUCSBASE
  2

  9
$PUCSNAME
  2

  9
$PUCSORG
 10
0.0
 20
0.0
 30
0.0
  9
$PUCSXDIR
 10
1.0
 20
0.0
 30
0.0
  9
$PUCSYDIR
 10
0.0
 20
1.0
 30
0.0
  9
$PUCSORTHOREF
  2

  9
$PUCSORTHOVIEW
 70
     0
  9
$PUCSORGTOP
 10
0.0
 20
0.0
 30
0.0
  9
$PUCSORGBOTTOM
 10
0.0
 20
0.0
 30
0.0
  9
$PUCSORGLEFT
 10
0.0
 20
0.0
 30
0.0
  9
$PUCSORGRIGHT
 10
0.0
 20
0.0
 30
0.0
  9
$PUCSORGFRONT
 10
0.0
 20
0.0
 30
0.0
  9
$PUCSORGBACK
 10
0.0
 20
0.0
 30
0.0
  9
$USERI1
 70
     0
  9
$USERI2
 70
     0
  9
$USERI3
 70
     0
  9
$USERI4
 70
     0
  9
$USERI5
 70
     0
  9
$USERR1
 40
0.0
  9
$USERR2
 40
0.0
  9
$USERR3
 40
0.0
  9
$USERR4
 40
0.0
  9
$USERR5
 40
0.0
  9
$WORLDVIEW
 70
     1
  9
$SHADEDGE
 70
     3
  9
$SHADEDIF
 70
    70
  9
$TILEMODE
 70
     1
  9
$MAXACTVP
 70
    16
  9
$PINSBASE
 10
0.0
 20
0.0
 30
0.0
  9
$PLIMCHECK
 70
     0
  9
$PEXTMIN
 10
1.000000000000000E+20
 20
1.000000000000000E+20
 30
1.000000000000000E+20
  9
$PEXTMAX
 10
-1.000000000000000E+20
 20
-1.000000000000000E+20
 30
-1.000000000000000E+20
  9
$PLIMMIN
 10
0.0
 20
0.0
  9
$PLIMMAX
 10
12.0
 20
9.0
  9
$UNITMODE
 70
     0
  9
$VISRETAIN
 70
     0
  9
$PLINEGEN
 70
     0
  9
$PSLTSCALE
 70
     0
  9
$TREEDEPTH
 70
  3020
  9
$CMLSTYLE
  2
Standard
  9
$CMLJUST
 70
     0
  9
$CMLSCALE
 40
1.0
  9
$PROXYGRAPHICS
 70
     1
  9
$MEASUREMENT
 70
     0
  9
$CELWEIGHT
370
    -1
  9
$ENDCAPS
280
     0
  9
$JOINSTYLE
280
     0
  9
$LWDISPLAY
290
     0
  9
$INSUNITS
 70
     0
  9
$HYPERLINKBASE
  1

  9
$STYLESHEET
  1
monochrome 1.ctb
  9
$XEDIT
290
     1
  9
$CEPSNTYPE
380
     0
  9
$PSTYLEMODE
290
     1
  9
$FINGERPRINTGUID
  2
{CF1A4752-A575-11D7-B632-000102183313}
  9
$VERSIONGUID
  2
{1389C82B-8A5C-47FF-A096-73C1F825F259}
  9
$EXTNAMES
290
     1
  9
$PSVPSCALE
 40
0.0
  9
$OLESTARTUP
290
     0
  9
$SORTENTS
280
    96
  9
$INDEXCTL
280
     0
  9
$HIDETEXT
280
     0
  9
$XCLIPFRAME
290
     0
  9
$HALOGAP
280
     0
  9
$OBSCOLOR
 70
   257
  9
$OBSLTYPE
280
     0
  9
$INTERSECTIONDISPLAY
280
     0
  9
$INTERSECTIONCOLOR
 70
   257
  9
$DIMASSOC
280
     1
  9
$PROJECTNAME
  1

  0
ENDSEC
  0
SECTION
  2
CLASSES
  0
CLASS
  1
ACDBDICTIONARYWDFLT
  2
AcDbDictionaryWithDefault
  3
ObjectDBX Classes
 90
        0
 91
        1
280
     0
281
     0
  0
CLASS
  1
DICTIONARYVAR
  2
AcDbDictionaryVar
  3
ObjectDBX Classes
 90
        0
 91
        3
280
     0
281
     0
  0
CLASS
  1
SORTENTSTABLE
  2
AcDbSortentsTable
  3
ObjectDBX Classes
 90
        0
 91
        0
280
     0
281
     0
  0
ENDSEC
  0
SECTION
  2
TABLES
  0
TABLE
  2
VPORT
  5
1058
330
0
100
AcDbSymbolTable
 70
     3
  0
VPORT
  5
3878
330
1058
100
AcDbSymbolTableRecord
100
AcDbViewportTableRecord
  2
*Active
 70
     0
 10
0.0
 20
0.0
 11
1.0
 21
1.0
 12
420.0000000000001
 22
296.9999999999998
 13
0.0
 23
0.0
 14
1.0
 24
1.0
 15
10.0
 25
10.0
 16
0.0
 26
0.0
 36
1.0
 17
0.0
 27
0.0
 37
0.0
 40
627.1050946474621
 41
1.339622641509433
 42
50.0
 43
0.0
 44
0.0
 50
0.0
 51
0.0
 71
     0
 72
  1500
 73
     1
 74
     0
 75
     0
 76
     0
 77
     0
 78
     0
281
     0
 65
     1
110
0.0
120
0.0
130
0.0
111
1.0
121
0.0
131
0.0
112
0.0
122
1.0
132
0.0
 79
     0
146
0.0
  0
ENDTAB
  0
TABLE
  2
LTYPE
  5
1055
330
0
100
AcDbSymbolTable
 70
     3
  0
LTYPE
  5
1063
330
1055
100
AcDbSymbolTableRecord
100
AcDbLinetypeTableRecord
  2
ByBlock
 70
     0
  3

 72
    65
 73
     0
 40
0.0
  0
LTYPE
  5
1064
330
1055
100
AcDbSymbolTableRecord
100
AcDbLinetypeTableRecord
  2
ByLayer
 70
     0
  3

 72
    65
 73
     0
 40
0.0
  0
LTYPE
  5
1065
330
1055
100
AcDbSymbolTableRecord
100
AcDbLinetypeTableRecord
  2
AUSGEZOGEN
 70
     0
  3
Ausgezogene Linie
 72
    65
 73
     0
 40
0.0
  0
LTYPE
  5
1088
330
1055
100
AcDbSymbolTableRecord
100
AcDbLinetypeTableRecord
  2
STRICHPUNKT
 70
     0
  3
__ . __ . __ . __ . __ . __ . __ . __ . __ . __
 72
    65
 73
     4
 40
1.0
 49
0.5
 74
     0
 49
-0.25
 74
     0
 49
0.0
 74
     0
 49
-0.25
 74
     0
  0
LTYPE
  5
1089
330
1055
100
AcDbSymbolTableRecord
100
AcDbLinetypeTableRecord
  2
CONTINUOUS
 70
     0
  3
Solid line
 72
    65
 73
     0
 40
0.0
  0
ENDTAB
  0
TABLE
  2
LAYER
  5
1052
102
{ACAD_XDICTIONARY
360
21FF
102
}
330
0
100
AcDbSymbolTable
 70
     9
  0
LAYER
  5
1060
330
1052
100
AcDbSymbolTableRecord
100
AcDbLayerTableRecord
  2
0
 70
     0
 62
     7
  6
AUSGEZOGEN
370
    -3
390
105F
  0
LAYER
  5
108D
330
1052
100
AcDbSymbolTableRecord
100
AcDbLayerTableRecord
  2
VOLL
 70
     0
 62
     1
  6
AUSGEZOGEN
370
    -3
390
105F
  0
LAYER
  5
108E
330
1052
100
AcDbSymbolTableRecord
100
AcDbLayerTableRecord
  2
HILF
 70
     0
 62
     2
  6
AUSGEZOGEN
370
    -3
390
105F
  0
LAYER
  5
108F
330
1052
100
AcDbSymbolTableRecord
100
AcDbLayerTableRecord
  2
MITTEL
 70
     0
 62
     2
  6
STRICHPUNKT
370
    -3
390
105F
  0
LAYER
  5
1090
330
1052
100
AcDbSymbolTableRecord
100
AcDbLayerTableRecord
  2
BEM
 70
     0
 62
     7
  6
AUSGEZOGEN
370
    -3
390
105F
  0
LAYER
  5
1091
330
1052
100
AcDbSymbolTableRecord
100
AcDbLayerTableRecord
  2
STEMPEL
 70
     0
 62
     3
  6
AUSGEZOGEN
370
    -3
390
105F
  0
LAYER
  5
1092
330
1052
100
AcDbSymbolTableRecord
100
AcDbLayerTableRecord
  2
TEXT
 70
     0
 62
     7
  6
AUSGEZOGEN
370
    -3
390
105F
  0
LAYER
  5
1093
330
1052
100
AcDbSymbolTableRecord
100
AcDbLayerTableRecord
  2
SCHRAFF
 70
     0
 62
     7
  6
AUSGEZOGEN
370
    -3
390
105F
  0
LAYER
  5
1094
330
1052
100
AcDbSymbolTableRecord
100
AcDbLayerTableRecord
  2
DEFPOINTS
 70
     0
 62
     7
  6
AUSGEZOGEN
290
     0
370
    -3
390
105F
  0
ENDTAB
  0
TABLE
  2
STYLE
  5
1053
330
0
100
AcDbSymbolTable
 70
     2
  0
STYLE
  5
1061
330
1053
100
AcDbSymbolTableRecord
100
AcDbTextStyleTableRecord
  2
STANDARD
 70
     0
 40
0.0
 41
1.0
 50
0.0
 71
     0
 42
3.5
  3
txt
  4

  0
STYLE
  5
1087
330
1053
100
AcDbSymbolTableRecord
100
AcDbTextStyleTableRecord
  2
GREEKS
 70
     0
 40
0.0
 41
0.8
 50
0.0
 71
     0
 42
2.5
  3
SIMPLEX.shx
  4

  0
ENDTAB
  0
TABLE
  2
VIEW
  5
1056
330
0
100
AcDbSymbolTable
 70
     0
  0
ENDTAB
  0
TABLE
  2
UCS
  5
1057
330
0
100
AcDbSymbolTable
 70
     0
  0
ENDTAB
  0
TABLE
  2
APPID
  5
1059
330
0
100
AcDbSymbolTable
 70
     2
  0
APPID
  5
1062
330
1059
100
AcDbSymbolTableRecord
100
AcDbRegAppTableRecord
  2
ACAD
 70
     0
  0
APPID
  5
2B25
330
1059
100
AcDbSymbolTableRecord
100
AcDbRegAppTableRecord
  2
ACAD_PSEXT
 70
     0
  0
ENDTAB
  0
TABLE
  2
DIMSTYLE
  5
105A
330
0
100
AcDbSymbolTable
 70
     1
100
AcDbDimStyleTable
 71
     1
340
108C
  0
DIMSTYLE
105
108C
102
{ACAD_REACTORS
330
2424
330
2915
330
2DD2
330
3224
330
3458
330
3632
330
3633
330
36E8
330
3801
330
3859
102
}
330
105A
100
AcDbSymbolTableRecord
100
AcDbDimStyleTableRecord
  2
STANDARD
 70
     0
 40
2.0
 41
3.5
 42
1.0
 43
1.0
 44
1.0
 48
2.0
 73
     0
 74
     0
 77
     1
 78
     8
 79
     2
140
3.5
146
0.5
147
1.199999999999999
172
     1
176
   256
178
     1
271
     2
272
     2
340
1087
371
    -1
  0
ENDTAB
  0
TABLE
  2
BLOCK_RECORD
  5
1051
330
0
100
AcDbSymbolTable
 70
    11
  0
BLOCK_RECORD
  5
106E
102
{ACAD_XDICTIONARY
360
1232
102
}
330
1051
100
AcDbSymbolTableRecord
100
AcDbBlockTableRecord
  2
*Model_Space
340
1071
  0
BLOCK_RECORD
  5
106A
102
{ACAD_XDICTIONARY
360
1234
102
}
330
1051
100
AcDbSymbolTableRecord
100
AcDbBlockTableRecord
  2
*Paper_Space
340
106D
  0
BLOCK_RECORD
  5
1072
330
1051
100
AcDbSymbolTableRecord
100
AcDbBlockTableRecord
  2
LOGO
340
0
102
{BLKREFS
331
322
102
}
  0
BLOCK_RECORD
  5
2425
330
1051
100
AcDbSymbolTableRecord
100
AcDbBlockTableRecord
  2
*D1
340
0
  0
BLOCK_RECORD
  5
2916
330
1051
100
AcDbSymbolTableRecord
100
AcDbBlockTableRecord
  2
*D2
340
0
  0
BLOCK_RECORD
  5
2DD3
330
1051
100
AcDbSymbolTableRecord
100
AcDbBlockTableRecord
  2
*D3
340
0
  0
BLOCK_RECORD
  5
33F4
330
1051
100
AcDbSymbolTableRecord
100
AcDbBlockTableRecord
  2
*D4
340
0
  0
BLOCK_RECORD
  5
3459
330
1051
100
AcDbSymbolTableRecord
100
AcDbBlockTableRecord
  2
*D5
340
0
  0
BLOCK_RECORD
  5
3791
330
1051
100
AcDbSymbolTableRecord
100
AcDbBlockTableRecord
  2
*D6
340
0
  0
BLOCK_RECORD
  5
379D
330
1051
100
AcDbSymbolTableRecord
100
AcDbBlockTableRecord
  2
*D7
340
0
  0
BLOCK_RECORD
  5
37A9
330
1051
100
AcDbSymbolTableRecord
100
AcDbBlockTableRecord
  2
*D8
340
0
  0
BLOCK_RECORD
  5
3802
330
1051
100
AcDbSymbolTableRecord
100
AcDbBlockTableRecord
  2
*D9
340
0
  0
BLOCK_RECORD
  5
385D
330
1051
100
AcDbSymbolTableRecord
100
AcDbBlockTableRecord
  2
*D10
340
0
  0
ENDTAB
  0
ENDSEC
  0
SECTION
  2
BLOCKS
  0
BLOCK
  5
1097
330
106E
100
AcDbEntity
  8
0
100
AcDbBlockBegin
  2
*Model_Space
 70
     0
 10
0.0
 20
0.0
 30
0.0
  3
*Model_Space
  1

  0
ENDBLK
  5
1098
330
106E
100
AcDbEntity
  8
0
100
AcDbBlockEnd
  0
BLOCK
  5
1095
330
106A
100
AcDbEntity
 67
     1
  8
0
100
AcDbBlockBegin
  2
*Paper_Space
 70
     0
 10
0.0
 20
0.0
 30
0.0
  3
*Paper_Space
  1

  0
ENDBLK
  5
1096
330
106A
100
AcDbEntity
 67
     1
  8
0
100
AcDbBlockEnd
  0
BLOCK
  5
43
330
1072
100
AcDbEntity
  8
0
100
AcDbBlockBegin
  2
LOGO
 70
     0
 10
0.0
 20
0.0
 30
0.0
  3
LOGO
  1

  0
ARC
  5
44
330
1072
100
AcDbEntity
  8
0
100
AcDbCircle
 10
11.59973089678112
 20
-9.271599258481501
 30
0.0
 40
4.5
100
AcDbArc
 50
270.0
 51
231.0575587310159
  0
LINE
  5
45
330
1072
100
AcDbEntity
  8
0
100
AcDbLine
 10
3.599730896781125
 20
-4.771599258481529
 30
0.0
 11
3.599730896781153
 21
-11.77159925848133
 31
0.0
  0
LINE
  5
46
330
1072
100
AcDbEntity
  8
0
100
AcDbLine
 10
2.599730896781125
 20
-4.771599258481529
 30
0.0
 11
2.599730896781153
 21
-11.77159925848133
 31
0.0
  0
CIRCLE
  5
47
330
1072
100
AcDbEntity
  8
0
100
AcDbCircle
 10
11.59973089678112
 20
-9.271599258481501
 30
0.0
 40
3.5
  0
ARC
  5
48
330
1072
100
AcDbEntity
  8
0
100
AcDbCircle
 10
31.59973089678115
 20
-9.271599258481472
 30
0.0
 40
4.5
100
AcDbArc
 50
270.0
 51
231.0575587310182
  0
LINE
  5
49
330
1072
100
AcDbEntity
  8
0
100
AcDbLine
 10
17.59973089678112
 20
-4.771599258481472
 30
0.0
 11
17.59973089678115
 21
-13.77159925848147
 31
0.0
  0
ARC
  5
4A
330
1072
100
AcDbEntity
  8
0
100
AcDbCircle
 10
22.59973089678116
 20
-7.271599258481472
 30
0.0
 40
2.5
100
AcDbArc
 50
293.1161887722295
 51
90.0
  0
CIRCLE
  5
4B
330
1072
100
AcDbEntity
  8
0
100
AcDbCircle
 10
31.59973089678115
 20
-9.271599258481472
 30
0.0
 40
3.5
  0
ARC
  5
4C
330
1072
100
AcDbEntity
  8
0
100
AcDbCircle
 10
4.599730896781153
 20
-11.77159925848133
 30
0.0
 40
1.0
100
AcDbArc
 50
180.0
 51
270.0
  0
ARC
  5
4D
330
1072
100
AcDbEntity
  8
0
100
AcDbCircle
 10
4.599730896781153
 20
-11.77159925848133
 30
0.0
 40
2.0
100
AcDbArc
 50
179.9999999999992
 51
270.0
  0
LINE
  5
4E
330
1072
100
AcDbEntity
  8
0
100
AcDbLine
 10
11.59973089678115
 20
-13.77159925848144
 30
0.0
 11
4.599730896781153
 21
-13.77159925848147
 31
0.0
  0
LINE
  5
4F
330
1072
100
AcDbEntity
  8
0
100
AcDbLine
 10
8.771303772034769
 20
-12.77159925848136
 30
0.0
 11
4.599730896781153
 21
-12.77159925848133
 31
0.0
  0
LINE
  5
50
330
1072
100
AcDbEntity
  8
0
100
AcDbLine
 10
31.59973089678115
 20
-13.77159925848147
 30
0.0
 11
23.6715276665056
 21
-13.77159925848144
 31
0.0
  0
LINE
  5
51
330
1072
100
AcDbEntity
  8
0
100
AcDbLine
 10
23.56565672307022
 20
-9.51278021337896
 30
0.0
 11
24.4388546544846
 21
-12.77159925848144
 31
0.0
  0
LINE
  5
52
330
1072
100
AcDbEntity
  8
0
100
AcDbLine
 10
22.59973089678116
 20
-9.771599258481472
 30
0.0
 11
18.59973089678112
 21
-9.771599258481472
 31
0.0
  0
LINE
  5
53
330
1072
100
AcDbEntity
  8
0
100
AcDbLine
 10
18.59973089678115
 20
-13.77159925848144
 30
0.0
 11
17.59973089678115
 21
-13.77159925848144
 31
0.0
  0
LINE
  5
54
330
1072
100
AcDbEntity
  8
0
100
AcDbLine
 10
18.59973089678115
 20
-9.771599258481472
 30
0.0
 11
18.59973089678115
 21
-13.77159925848144
 31
0.0
  0
LINE
  5
55
330
1072
100
AcDbEntity
  8
0
100
AcDbLine
 10
22.59973089678116
 20
-9.771599258481472
 30
0.0
 11
23.67152766650562
 21
-13.77159925848147
 31
0.0
  0
ARC
  5
56
330
1072
100
AcDbEntity
  8
0
100
AcDbCircle
 10
22.59973089678116
 20
-7.271599258481472
 30
0.0
 40
2.5
100
AcDbArc
 50
270.0
 51
270.0000000000007
  0
LINE
  5
57
330
1072
100
AcDbEntity
  8
0
100
AcDbLine
 10
28.77130377203494
 20
-12.77159925848147
 30
0.0
 11
24.43885465448463
 21
-12.77159925848144
 31
0.0
  0
LINE
  5
58
330
1072
100
AcDbEntity
  8
0
100
AcDbLine
 10
3.599730896781125
 20
-4.771599258481472
 30
0.0
 11
2.599730896781125
 21
-4.771599258481472
 31
0.0
  0
LINE
  5
59
330
1072
100
AcDbEntity
  8
0
100
AcDbLine
 10
22.59973089678116
 20
-8.771599258481472
 30
0.0
 11
18.59973089678115
 21
-8.771599258481472
 31
0.0
  0
LINE
  5
5A
330
1072
100
AcDbEntity
  8
0
100
AcDbLine
 10
22.59973089678116
 20
-5.771599258481472
 30
0.0
 11
18.59973089678115
 21
-5.771599258481472
 31
0.0
  0
LINE
  5
5B
330
1072
100
AcDbEntity
  8
0
100
AcDbLine
 10
22.59973089678116
 20
-4.771599258481472
 30
0.0
 11
17.59973089678115
 21
-4.771599258481472
 31
0.0
  0
LINE
  5
5C
330
1072
100
AcDbEntity
  8
0
100
AcDbLine
 10
18.59973089678115
 20
-5.771599258481472
 30
0.0
 11
18.59973089678115
 21
-8.771599258481472
 31
0.0
  0
ARC
  5
5D
330
1072
100
AcDbEntity
  8
0
100
AcDbCircle
 10
22.59973089678116
 20
-7.271599258481472
 30
0.0
 40
1.5
100
AcDbArc
 50
270.0
 51
90.0
  0
ENDBLK
  5
5E
330
1072
100
AcDbEntity
  8
0
100
AcDbBlockEnd
  0
BLOCK
  5
242F
330
2425
100
AcDbEntity
  8
0
100
AcDbBlockBegin
  2
*D1
 70
     1
 10
0.0
 20
0.0
 30
0.0
  3
*D1
  1

  0
LINE
  5
2FDF
330
2425
100
AcDbEntity
  8
BEM
 62
     0
370
    -2
100
AcDbLine
 10
420.5378357475761
 20
410.6234511456521
 30
0.0
 11
431.2202136838857
 21
399.9410732093425
 31
0.0
  0
LINE
  5
2FE0
330
2425
100
AcDbEntity
  8
BEM
 62
     0
370
    -2
100
AcDbLine
 10
346.2916237229886
 20
336.3772391210646
 30
0.0
 11
356.9740016592982
 21
325.694861184755
 31
0.0
  0
LINE
  5
2FE1
330
2425
100
AcDbEntity
  8
BEM
100
AcDbLine
 10
424.8562526532068
 20
396.4055393034097
 30
0.0
 11
360.5095355652309
 21
332.058822215434
 31
0.0
  0
SOLID
  5
2FE2
330
2425
100
AcDbEntity
  8
BEM
100
AcDbTrace
 10
424.0312947418225
 20
397.230497214794
 30
0.0
 11
425.6812105645911
 21
395.5805813920254
 31
0.0
 12
429.8060001215127
 22
401.3552867717156
 32
0.0
 13
429.8060001215127
 23
401.3552867717156
 33
0.0
  0
SOLID
  5
2FE3
330
2425
100
AcDbEntity
  8
BEM
100
AcDbTrace
 10
359.6845776538466
 20
332.8837801268182
 30
0.0
 11
361.3344934766152
 21
331.2338643040496
 31
0.0
 12
355.5597880969251
 22
327.1090747471281
 32
0.0
 13
355.5597880969251
 23
327.1090747471281
 33
0.0
  0
MTEXT
  5
2FE4
330
2425
100
AcDbEntity
  8
BEM
 62
     1
100
AcDbMText
 10
388.5109641002183
 20
368.4041107684225
 30
0.0
 40
7.0
 41
0.0
 71
     5
 72
     1
  1
\A1;105
  7
GREEKS
 11
0.7071067811865481
 21
0.707106781186547
 31
0.0
 73
     1
 44
1.0
  0
POINT
  5
2FE5
330
2425
100
AcDbEntity
  8
DEFPOINTS
 62
     0
100
AcDbPoint
 10
419.123622185203
 20
412.0376647080251
 30
0.0
  0
POINT
  5
2FE6
330
2425
100
AcDbEntity
  8
DEFPOINTS
 62
     0
100
AcDbPoint
 10
344.8774101606155
 20
337.7914526834377
 30
0.0
  0
POINT
  5
2FE7
330
2425
100
AcDbEntity
  8
DEFPOINTS
 62
     0
100
AcDbPoint
 10
355.5597880969251
 20
327.1090747471281
 30
0.0
  0
ENDBLK
  5
2430
330
2425
100
AcDbEntity
  8
0
100
AcDbBlockEnd
  0
BLOCK
  5
2920
330
2916
100
AcDbEntity
  8
0
100
AcDbBlockBegin
  2
*D2
 70
     1
 10
0.0
 20
0.0
 30
0.0
  3
*D2
  1

  0
LINE
  5
2FE8
330
2916
100
AcDbEntity
  8
BEM
 62
     0
370
    -2
100
AcDbLine
 10
69.87741016061528
 20
335.791452683438
 30
0.0
 11
69.87741016061528
 21
247.044878007459
 31
0.0
  0
LINE
  5
2FE9
330
2916
100
AcDbEntity
  8
BEM
 62
     0
370
    -2
100
AcDbLine
 10
344.8774101606155
 20
335.7914526834377
 30
0.0
 11
344.8774101606155
 21
247.044878007459
 31
0.0
  0
LINE
  5
2FEA
330
2916
100
AcDbEntity
  8
BEM
100
AcDbLine
 10
76.87741016061528
 20
249.044878007459
 30
0.0
 11
337.8774101606155
 21
249.044878007459
 31
0.0
  0
SOLID
  5
2FEB
330
2916
100
AcDbEntity
  8
BEM
100
AcDbTrace
 10
76.87741016061528
 20
250.2115446741256
 30
0.0
 11
76.87741016061528
 21
247.8782113407923
 31
0.0
 12
69.87741016061528
 22
249.044878007459
 32
0.0
 13
69.87741016061528
 23
249.044878007459
 33
0.0
  0
SOLID
  5
2FEC
330
2916
100
AcDbEntity
  8
BEM
100
AcDbTrace
 10
337.8774101606155
 20
250.2115446741256
 30
0.0
 11
337.8774101606155
 21
247.8782113407923
 31
0.0
 12
344.8774101606155
 22
249.044878007459
 32
0.0
 13
344.8774101606155
 23
249.044878007459
 33
0.0
  0
MTEXT
  5
2FED
330
2916
100
AcDbEntity
  8
BEM
 62
     1
100
AcDbMText
 10
207.3774101606154
 20
254.944878007459
 30
0.0
 40
7.0
 41
0.0
 71
     5
 72
     1
  1
\A1;275
  7
GREEKS
 73
     1
 44
1.0
  0
POINT
  5
2FEE
330
2916
100
AcDbEntity
  8
DEFPOINTS
 62
     0
100
AcDbPoint
 10
69.87741016061528
 20
337.791452683438
 30
0.0
  0
POINT
  5
2FEF
330
2916
100
AcDbEntity
  8
DEFPOINTS
 62
     0
100
AcDbPoint
 10
344.8774101606155
 20
337.7914526834377
 30
0.0
  0
POINT
  5
2FF0
330
2916
100
AcDbEntity
  8
DEFPOINTS
 62
     0
100
AcDbPoint
 10
344.8774101606155
 20
249.044878007459
 30
0.0
  0
ENDBLK
  5
2921
330
2916
100
AcDbEntity
  8
0
100
AcDbBlockEnd
  0
BLOCK
  5
2DDD
330
2DD3
100
AcDbEntity
  8
0
100
AcDbBlockBegin
  2
*D3
 70
     1
 10
0.0
 20
0.0
 30
0.0
  3
*D3
  1

  0
LINE
  5
300E
330
2DD3
100
AcDbEntity
  8
BEM
 62
     0
370
    -2
100
AcDbLine
 10
795.2283368402206
 20
241.9959713281684
 30
0.0
 11
821.5839591349741
 21
240.6147316920778
 31
0.0
  0
LINE
  5
300F
330
2DD3
100
AcDbEntity
  8
BEM
 62
     0
370
    -2
100
AcDbLine
 10
800.5456699944863
 20
343.4567320592268
 30
0.0
 11
826.9012922892567
 21
342.0754924231352
 31
0.0
  0
LINE
  5
3010
330
2DD3
100
AcDbEntity
  8
BEM
100
AcDbLine
 10
819.9530517591655
 20
247.7098103478457
 30
0.0
 11
824.5376815260469
 21
335.1897575923391
 31
0.0
  0
SOLID
  5
3011
330
2DD3
100
AcDbEntity
  8
BEM
100
AcDbTrace
 10
818.7879839686186
 20
247.7708689634624
 30
0.0
 11
821.1181195497125
 21
247.6487517322289
 31
0.0
 12
819.5867000654649
 22
240.7194036045637
 32
0.0
 13
819.5867000654649
 23
240.7194036045637
 33
0.0
  0
SOLID
  5
3012
330
2DD3
100
AcDbEntity
  8
BEM
100
AcDbTrace
 10
823.3726137355001
 20
335.2508162079558
 30
0.0
 11
825.702749316594
 21
335.1286989767223
 31
0.0
 12
824.9040332197475
 22
342.1801643356212
 32
0.0
 13
824.9040332197475
 23
342.1801643356212
 33
0.0
  0
MTEXT
  5
3013
330
2DD3
100
AcDbEntity
  8
BEM
 62
     1
100
AcDbMText
 10
816.3534523875544
 20
291.7585661119259
 30
0.0
 40
7.0
 41
0.0
 71
     5
 72
     1
  1
\A1;%%c101.6
  7
GREEKS
 11
0.052335956242944
 21
0.9986295347545739
 31
0.0
 73
     1
 44
1.0
  0
POINT
  5
3014
330
2DD3
100
AcDbEntity
  8
DEFPOINTS
 62
     0
100
AcDbPoint
 10
793.2310777707115
 20
242.1006432406543
 30
0.0
  0
POINT
  5
3015
330
2DD3
100
AcDbEntity
  8
DEFPOINTS
 62
     0
100
AcDbPoint
 10
798.5484109249772
 20
343.5614039717127
 30
0.0
  0
POINT
  5
3016
330
2DD3
100
AcDbEntity
  8
DEFPOINTS
 62
     0
100
AcDbPoint
 10
824.9040332197475
 20
342.1801643356212
 30
0.0
  0
ENDBLK
  5
2DDE
330
2DD3
100
AcDbEntity
  8
0
100
AcDbBlockEnd
  0
BLOCK
  5
33FE
330
33F4
100
AcDbEntity
  8
0
100
AcDbBlockBegin
  2
*D4
 70
     1
 10
0.0
 20
0.0
 30
0.0
  3
*D4
  1

  0
LINE
  5
344F
330
33F4
100
AcDbEntity
  8
BEM
 62
     0
370
    -2
100
AcDbLine
 10
204.8774101606147
 20
496.0303689974243
 30
0.0
 11
204.8774101606147
 21
507.8837869427413
 31
0.0
  0
LINE
  5
3450
330
33F4
100
AcDbEntity
  8
BEM
 62
     0
370
    -2
100
AcDbLine
 10
804.8774101606156
 20
294.3600000000062
 30
0.0
 11
804.8774101606156
 21
507.8837869427413
 31
0.0
  0
LINE
  5
3451
330
33F4
100
AcDbEntity
  8
BEM
100
AcDbLine
 10
211.8774101606147
 20
505.8837869427413
 30
0.0
 11
797.8774101606156
 21
505.8837869427413
 31
0.0
  0
SOLID
  5
3452
330
33F4
100
AcDbEntity
  8
BEM
100
AcDbTrace
 10
211.8774101606147
 20
507.0504536094079
 30
0.0
 11
211.8774101606147
 21
504.7171202760746
 31
0.0
 12
204.8774101606147
 22
505.8837869427413
 32
0.0
 13
204.8774101606147
 23
505.8837869427413
 33
0.0
  0
SOLID
  5
3453
330
33F4
100
AcDbEntity
  8
BEM
100
AcDbTrace
 10
797.8774101606156
 20
507.0504536094079
 30
0.0
 11
797.8774101606156
 21
504.7171202760746
 31
0.0
 12
804.8774101606156
 22
505.8837869427413
 32
0.0
 13
804.8774101606156
 23
505.8837869427413
 33
0.0
  0
MTEXT
  5
3454
330
33F4
100
AcDbEntity
  8
BEM
 62
     1
100
AcDbMText
 10
504.8774101606151
 20
511.7837869427413
 30
0.0
 40
7.0
 41
0.0
 71
     5
 72
     1
  1
\A1;600
  7
GREEKS
 73
     1
 44
1.0
  0
POINT
  5
3455
330
33F4
100
AcDbEntity
  8
DEFPOINTS
 62
     0
100
AcDbPoint
 10
204.8774101606147
 20
494.0303689974243
 30
0.0
  0
POINT
  5
3456
330
33F4
100
AcDbEntity
  8
DEFPOINTS
 62
     0
100
AcDbPoint
 10
804.8774101606156
 20
292.3600000000062
 30
0.0
  0
POINT
  5
3457
330
33F4
100
AcDbEntity
  8
DEFPOINTS
 62
     0
100
AcDbPoint
 10
804.8774101606156
 20
505.8837869427413
 30
0.0
  0
ENDBLK
  5
33FF
330
33F4
100
AcDbEntity
  8
0
100
AcDbBlockEnd
  0
BLOCK
  5
3463
330
3459
100
AcDbEntity
  8
0
100
AcDbBlockBegin
  2
*D5
 70
     1
 10
0.0
 20
0.0
 30
0.0
  3
*D5
  1

  0
LINE
  5
3465
330
3459
100
AcDbEntity
  8
BEM
 62
     0
370
    -2
100
AcDbLine
 10
148.8965552678308
 20
282.7914526834379
 30
0.0
 11
55.7632428172776
 21
282.791452683438
 31
0.0
  0
LINE
  5
3466
330
3459
100
AcDbEntity
  8
BEM
 62
     0
370
    -2
100
AcDbLine
 10
67.87741016061523
 20
340.791452683438
 30
0.0
 11
55.76324281727762
 21
340.791452683438
 31
0.0
  0
LINE
  5
3467
330
3459
100
AcDbEntity
  8
BEM
100
AcDbLine
 10
57.7632428172776
 20
289.791452683438
 30
0.0
 11
57.76324281727761
 21
333.791452683438
 31
0.0
  0
SOLID
  5
3468
330
3459
100
AcDbEntity
  8
BEM
100
AcDbTrace
 10
56.59657615061094
 20
289.791452683438
 30
0.0
 11
58.92990948394427
 21
289.791452683438
 31
0.0
 12
57.7632428172776
 22
282.791452683438
 32
0.0
 13
57.7632428172776
 23
282.791452683438
 33
0.0
  0
SOLID
  5
3469
330
3459
100
AcDbEntity
  8
BEM
100
AcDbTrace
 10
56.59657615061095
 20
333.791452683438
 30
0.0
 11
58.92990948394428
 21
333.791452683438
 31
0.0
 12
57.76324281727762
 22
340.791452683438
 32
0.0
 13
57.76324281727762
 23
340.791452683438
 33
0.0
  0
MTEXT
  5
346A
330
3459
100
AcDbEntity
  8
BEM
 62
     1
100
AcDbMText
 10
51.86324281727756
 20
311.7914526834379
 30
0.0
 40
7.0
 41
0.0
 71
     5
 72
     1
  1
\A1;58
  7
GREEKS
 11
0.0000000000000001
 21
1.0
 31
0.0
 73
     1
 44
1.0
  0
POINT
  5
346B
330
3459
100
AcDbEntity
  8
DEFPOINTS
 62
     0
100
AcDbPoint
 10
150.8965552678308
 20
282.7914526834379
 30
0.0
  0
POINT
  5
346C
330
3459
100
AcDbEntity
  8
DEFPOINTS
 62
     0
100
AcDbPoint
 10
69.87741016061523
 20
340.791452683438
 30
0.0
  0
POINT
  5
346D
330
3459
100
AcDbEntity
  8
DEFPOINTS
 62
     0
100
AcDbPoint
 10
57.76324281727762
 20
340.791452683438
 30
0.0
  0
ENDBLK
  5
3464
330
3459
100
AcDbEntity
  8
0
100
AcDbBlockEnd
  0
BLOCK
  5
379B
330
3791
100
AcDbEntity
  8
0
100
AcDbBlockBegin
  2
*D6
 70
     1
 10
0.0
 20
0.0
 30
0.0
  3
*D6
  1

  0
LINE
  5
37C1
330
3791
100
AcDbEntity
  8
BEM
 62
     0
370
    -2
100
AcDbLine
 10
74.87741016061562
 20
368.7914526834382
 30
0.0
 11
74.87741016061564
 21
486.0899302931756
 31
0.0
  0
LINE
  5
37C2
330
3791
100
AcDbEntity
  8
BEM
 62
     0
370
    -2
100
AcDbLine
 10
334.8774101606156
 20
368.7914526834371
 30
0.0
 11
334.8774101606156
 21
486.0899302931756
 31
0.0
  0
LINE
  5
37C3
330
3791
100
AcDbEntity
  8
BEM
100
AcDbLine
 10
81.87741016061563
 20
484.0899302931756
 30
0.0
 11
327.8774101606156
 21
484.0899302931756
 31
0.0
  0
SOLID
  5
37C4
330
3791
100
AcDbEntity
  8
BEM
100
AcDbTrace
 10
81.87741016061563
 20
485.2565969598423
 30
0.0
 11
81.87741016061563
 21
482.9232636265089
 31
0.0
 12
74.87741016061564
 22
484.0899302931756
 32
0.0
 13
74.87741016061564
 23
484.0899302931756
 33
0.0
  0
SOLID
  5
37C5
330
3791
100
AcDbEntity
  8
BEM
100
AcDbTrace
 10
327.8774101606156
 20
485.2565969598423
 30
0.0
 11
327.8774101606156
 21
482.9232636265089
 31
0.0
 12
334.8774101606156
 22
484.0899302931756
 32
0.0
 13
334.8774101606156
 23
484.0899302931756
 33
0.0
  0
MTEXT
  5
37C6
330
3791
100
AcDbEntity
  8
BEM
 62
     1
100
AcDbMText
 10
204.8774101606156
 20
489.9899302931756
 30
0.0
 40
7.0
 41
0.0
 71
     5
 72
     1
  1
\A1;260
  7
GREEKS
 73
     1
 44
1.0
  0
POINT
  5
37C7
330
3791
100
AcDbEntity
  8
DEFPOINTS
 62
     0
100
AcDbPoint
 10
74.87741016061562
 20
366.7914526834382
 30
0.0
  0
POINT
  5
37C8
330
3791
100
AcDbEntity
  8
DEFPOINTS
 62
     0
100
AcDbPoint
 10
334.8774101606156
 20
366.7914526834371
 30
0.0
  0
POINT
  5
37C9
330
3791
100
AcDbEntity
  8
DEFPOINTS
 62
     0
100
AcDbPoint
 10
334.8774101606156
 20
484.0899302931756
 30
0.0
  0
ENDBLK
  5
379C
330
3791
100
AcDbEntity
  8
0
100
AcDbBlockEnd
  0
BLOCK
  5
37A7
330
379D
100
AcDbEntity
  8
0
100
AcDbBlockBegin
  2
*D7
 70
     1
 10
0.0
 20
0.0
 30
0.0
  3
*D7
  1

  0
LINE
  5
37CA
330
379D
100
AcDbEntity
  8
BEM
 62
     0
370
    -2
100
AcDbLine
 10
94.87741016061557
 20
437.7913947161227
 30
0.0
 11
94.87741016061557
 21
472.0649765386412
 31
0.0
  0
LINE
  5
37CB
330
379D
100
AcDbEntity
  8
BEM
 62
     0
370
    -2
100
AcDbLine
 10
314.8774101606158
 20
437.7913947161216
 30
0.0
 11
314.8774101606158
 21
472.0649765386412
 31
0.0
  0
LINE
  5
37CC
330
379D
100
AcDbEntity
  8
BEM
100
AcDbLine
 10
101.8774101606156
 20
470.0649765386412
 30
0.0
 11
307.8774101606158
 21
470.0649765386412
 31
0.0
  0
SOLID
  5
37CD
330
379D
100
AcDbEntity
  8
BEM
100
AcDbTrace
 10
101.8774101606156
 20
471.2316432053079
 30
0.0
 11
101.8774101606156
 21
468.8983098719745
 31
0.0
 12
94.87741016061557
 22
470.0649765386412
 32
0.0
 13
94.87741016061557
 23
470.0649765386412
 33
0.0
  0
SOLID
  5
37CE
330
379D
100
AcDbEntity
  8
BEM
100
AcDbTrace
 10
307.8774101606158
 20
471.2316432053079
 30
0.0
 11
307.8774101606158
 21
468.8983098719745
 31
0.0
 12
314.8774101606158
 22
470.0649765386412
 32
0.0
 13
314.8774101606158
 23
470.0649765386412
 33
0.0
  0
MTEXT
  5
37CF
330
379D
100
AcDbEntity
  8
BEM
 62
     1
100
AcDbMText
 10
204.8774101606157
 20
475.9649765386412
 30
0.0
 40
7.0
 41
0.0
 71
     5
 72
     1
  1
\A1;220
  7
GREEKS
 73
     1
 44
1.0
  0
POINT
  5
37D0
330
379D
100
AcDbEntity
  8
DEFPOINTS
 62
     0
100
AcDbPoint
 10
94.87741016061557
 20
435.7913947161226
 30
0.0
  0
POINT
  5
37D1
330
379D
100
AcDbEntity
  8
DEFPOINTS
 62
     0
100
AcDbPoint
 10
314.8774101606158
 20
435.7913947161216
 30
0.0
  0
POINT
  5
37D2
330
379D
100
AcDbEntity
  8
DEFPOINTS
 62
     0
100
AcDbPoint
 10
314.8774101606158
 20
470.0649765386412
 30
0.0
  0
ENDBLK
  5
37A8
330
379D
100
AcDbEntity
  8
0
100
AcDbBlockEnd
  0
BLOCK
  5
37B3
330
37A9
100
AcDbEntity
  8
0
100
AcDbBlockBegin
  2
*D8
 70
     1
 10
0.0
 20
0.0
 30
0.0
  3
*D8
  1

  0
LINE
  5
37D3
330
37A9
100
AcDbEntity
  8
BEM
 62
     0
370
    -2
100
AcDbLine
 10
75.87741016061539
 20
345.7914526834383
 30
0.0
 11
55.76324281727762
 21
345.7914526834383
 31
0.0
  0
LINE
  5
37D4
330
37A9
100
AcDbEntity
  8
BEM
 62
     0
370
    -2
100
AcDbLine
 10
122.8774101606157
 20
455.7914526834379
 30
0.0
 11
55.76324281727764
 21
455.7914526834379
 31
0.0
  0
LINE
  5
37D5
330
37A9
100
AcDbEntity
  8
BEM
100
AcDbLine
 10
57.76324281727762
 20
352.7914526834383
 30
0.0
 11
57.76324281727764
 21
448.791452683438
 31
0.0
  0
SOLID
  5
37D6
330
37A9
100
AcDbEntity
  8
BEM
100
AcDbTrace
 10
56.59657615061096
 20
352.7914526834383
 30
0.0
 11
58.92990948394428
 21
352.7914526834383
 31
0.0
 12
57.76324281727762
 22
345.7914526834383
 32
0.0
 13
57.76324281727762
 23
345.7914526834383
 33
0.0
  0
SOLID
  5
37D7
330
37A9
100
AcDbEntity
  8
BEM
100
AcDbTrace
 10
56.59657615061098
 20
448.791452683438
 30
0.0
 11
58.9299094839443
 21
448.791452683438
 31
0.0
 12
57.76324281727764
 22
455.7914526834379
 32
0.0
 13
57.76324281727764
 23
455.7914526834379
 33
0.0
  0
MTEXT
  5
37D8
330
37A9
100
AcDbEntity
  8
BEM
 62
     1
100
AcDbMText
 10
51.86324281727756
 20
400.7914526834381
 30
0.0
 40
7.0
 41
0.0
 71
     5
 72
     1
  1
\A1;110
  7
GREEKS
 11
0.0000000000000001
 21
1.0
 31
0.0
 73
     1
 44
1.0
  0
POINT
  5
37D9
330
37A9
100
AcDbEntity
  8
DEFPOINTS
 62
     0
100
AcDbPoint
 10
77.8774101606154
 20
345.7914526834383
 30
0.0
  0
POINT
  5
37DA
330
37A9
100
AcDbEntity
  8
DEFPOINTS
 62
     0
100
AcDbPoint
 10
124.8774101606157
 20
455.7914526834379
 30
0.0
  0
POINT
  5
37DB
330
37A9
100
AcDbEntity
  8
DEFPOINTS
 62
     0
100
AcDbPoint
 10
57.76324281727764
 20
455.7914526834379
 30
0.0
  0
ENDBLK
  5
37B4
330
37A9
100
AcDbEntity
  8
0
100
AcDbBlockEnd
  0
BLOCK
  5
3811
330
3802
100
AcDbEntity
  8
0
100
AcDbBlockBegin
  2
*D9
 70
     1
 10
0.0
 20
0.0
 30
0.0
  3
*D9
  1

  0
LINE
  5
3821
330
3802
100
AcDbEntity
  8
BEM
 62
     0
370
    -2
100
AcDbLine
 10
322.542085804649
 20
317.7429387778277
 30
0.0
 11
463.5418263576636
 21
317.7429387778286
 31
0.0
  0
ARC
  5
3822
330
3802
100
AcDbEntity
  8
BEM
100
AcDbCircle
 10
320.542085804649
 20
317.7429387778276
 30
0.0
 40
140.9997405530146
100
AcDbArc
 50
351.3087073873745
 51
356.9999999999998
  0
LINE
  5
3823
330
3802
100
AcDbEntity
  8
BEM
100
AcDbLine
 10
459.9227070045004
 20
296.4363841534643
 30
0.0
 11
458.2302683456991
 21
285.3649952890898
 31
0.0
  0
ARC
  5
3824
330
3802
100
AcDbEntity
  8
BEM
100
AcDbCircle
 10
320.542085804649
 20
317.7429387778276
 30
0.0
 40
140.9997405530146
100
AcDbArc
 50
351.3104624977277
 51
354.1552312488637
  0
ARC
  5
3825
330
3802
100
AcDbEntity
  8
BEM
100
AcDbCircle
 10
320.542085804649
 20
317.7429387778276
 30
0.0
 40
140.9997405530146
100
AcDbArc
 50
2.844768751136514
 51
5.68953750227255
  0
ARC
  5
3826
330
3802
100
AcDbEntity
  8
BEM
100
AcDbCircle
 10
320.542085804649
 20
317.7429387778276
 30
0.0
 40
140.9997405530146
100
AcDbArc
 50
356.9999999999998
 51
0.0000000000003997
  0
SOLID
  5
3827
330
3802
100
AcDbEntity
  8
BEM
100
AcDbTrace
 10
459.6456380963982
 20
303.4743835789131
 30
0.0
 11
461.9720244044854
 21
303.29446362452
 31
0.0
 12
461.3485911136216
 22
310.3635825259781
 32
0.0
 13
461.3485911136216
 23
310.3635825259781
 33
0.0
  0
SOLID
  5
3828
330
3802
100
AcDbEntity
  8
BEM
100
AcDbTrace
 10
462.5343743523723
 20
324.7697417200855
 30
0.0
 11
460.2017599930074
 21
324.7118219917609
 31
0.0
 12
461.5418263576636
 22
317.7429387778285
 32
0.0
 13
461.5418263576636
 23
317.7429387778285
 33
0.0
  0
MTEXT
  5
3829
330
3802
100
AcDbEntity
  8
BEM
 62
     1
100
AcDbMText
 10
453.2442381840454
 20
291.7922422290384
 30
0.0
 40
7.0
 41
0.0
 71
     5
 72
     1
  1
\A1;3°
  7
GREEKS
 11
0.1511105945358312
 21
0.988516862890577
 31
0.0
 73
     1
 44
1.0
  0
POINT
  5
382A
330
3802
100
AcDbEntity
  8
DEFPOINTS
 62
     0
100
AcDbPoint
 10
461.5203514142298
 20
315.2821539981453
 30
0.0
  0
POINT
  5
382B
330
3802
100
AcDbEntity
  8
DEFPOINTS
 62
     0
100
AcDbPoint
 10
320.5420858046478
 20
317.7429387778276
 30
0.0
  0
POINT
  5
382C
330
3802
100
AcDbEntity
  8
DEFPOINTS
 62
     0
100
AcDbPoint
 10
315.548938130875
 20
318.0046185590424
 30
0.0
  0
POINT
  5
382D
330
3802
100
AcDbEntity
  8
DEFPOINTS
 62
     0
100
AcDbPoint
 10
809.8705578343892
 20
292.0983202187836
 30
0.0
  0
POINT
  5
382E
330
3802
100
AcDbEntity
  8
DEFPOINTS
 62
     0
100
AcDbPoint
 10
315.5420858046481
 20
317.7429387778276
 30
0.0
  0
ENDBLK
  5
3812
330
3802
100
AcDbEntity
  8
0
100
AcDbBlockEnd
  0
BLOCK
  5
3867
330
385D
100
AcDbEntity
  8
0
100
AcDbBlockBegin
  2
*D10
 70
     1
 10
0.0
 20
0.0
 30
0.0
  3
*D10
  1

  0
LINE
  5
3869
330
385D
100
AcDbEntity
  8
BEM
 62
     0
370
    -2
100
AcDbLine
 10
134.9396122259728
 20
400.7914526834382
 30
0.0
 11
68.20576637909723
 21
400.7914526834382
 31
0.0
  0
LINE
  5
386A
330
385D
100
AcDbEntity
  8
BEM
 62
     0
370
    -2
100
AcDbLine
 10
75.87741016061539
 20
345.7914526834378
 30
0.0
 11
68.20576637909721
 21
345.7914526834378
 31
0.0
  0
LINE
  5
386B
330
385D
100
AcDbEntity
  8
BEM
100
AcDbLine
 10
70.20576637909723
 20
393.7914526834383
 30
0.0
 11
70.20576637909723
 21
352.7914526834379
 31
0.0
  0
SOLID
  5
386C
330
385D
100
AcDbEntity
  8
BEM
100
AcDbTrace
 10
69.03909971243056
 20
393.7914526834383
 30
0.0
 11
71.3724330457639
 21
393.7914526834383
 31
0.0
 12
70.20576637909723
 22
400.7914526834382
 32
0.0
 13
70.20576637909723
 23
400.7914526834382
 33
0.0
  0
SOLID
  5
386D
330
385D
100
AcDbEntity
  8
BEM
100
AcDbTrace
 10
69.03909971243056
 20
352.7914526834379
 30
0.0
 11
71.3724330457639
 21
352.7914526834379
 31
0.0
 12
70.20576637909721
 22
345.7914526834378
 32
0.0
 13
70.20576637909721
 23
345.7914526834378
 33
0.0
  0
MTEXT
  5
386E
330
385D
100
AcDbEntity
  8
BEM
 62
     1
100
AcDbMText
 10
64.30576637909716
 20
373.2914526834381
 30
0.0
 40
7.0
 41
0.0
 71
     5
 72
     1
  1
\A1;55
  7
GREEKS
 11
0.0000000000000001
 21
1.0
 31
0.0
 73
     1
 44
1.0
  0
POINT
  5
386F
330
385D
100
AcDbEntity
  8
DEFPOINTS
 62
     0
100
AcDbPoint
 10
136.9396122259727
 20
400.7914526834382
 30
0.0
  0
POINT
  5
3870
330
385D
100
AcDbEntity
  8
DEFPOINTS
 62
     0
100
AcDbPoint
 10
77.87741016061538
 20
345.7914526834378
 30
0.0
  0
POINT
  5
3871
330
385D
100
AcDbEntity
  8
DEFPOINTS
 62
     0
100
AcDbPoint
 10
70.20576637909721
 20
345.7914526834378
 30
0.0
  0
ENDBLK
  5
3868
330
385D
100
AcDbEntity
  8
0
100
AcDbBlockEnd
  0
ENDSEC
  0
SECTION
  2
ENTITIES
  0
LINE
  5
2DF
330
106E
100
AcDbEntity
  8
STEMPEL
100
AcDbLine
 10
830.0000000000004
 20
109.9999999999994
 30
0.0
 11
470.0000000000001
 21
109.9999999999996
 31
0.0
  0
LINE
  5
2E0
330
106E
100
AcDbEntity
  8
STEMPEL
100
AcDbLine
 10
566.0000000000002
 20
109.9999999999994
 30
0.0
 11
566.0000000000001
 21
9.999999999999715
 31
0.0
  0
LINE
  5
2E1
330
106E
100
AcDbEntity
  8
STEMPEL
100
AcDbLine
 10
650.0000000000002
 20
109.9999999999995
 30
0.0
 11
650.0
 21
9.999999999999658
 31
0.0
  0
LINE
  5
2E2
330
106E
100
AcDbEntity
  8
STEMPEL
100
AcDbLine
 10
752.0000000000001
 20
109.9999999999992
 30
0.0
 11
752.0
 21
39.9999999999996
 31
0.0
  0
LINE
  5
2E3
330
106E
100
AcDbEntity
  8
STEMPEL
100
AcDbLine
 10
565.9999999999999
 20
29.99999999999966
 30
0.0
 11
470.0000000000001
 21
29.99999999999977
 31
0.0
  0
LINE
  5
2E4
330
106E
100
AcDbEntity
  8
STEMPEL
100
AcDbLine
 10
830.0
 20
39.99999999999955
 30
0.0
 11
565.9999999999999
 21
39.99999999999966
 31
0.0
  0
LINE
  5
2E5
330
106E
100
AcDbEntity
  8
STEMPEL
100
AcDbLine
 10
830.0000000000002
 20
79.99999999999952
 30
0.0
 11
566.0000000000001
 21
79.99999999999949
 31
0.0
  0
LINE
  5
2E6
330
106E
100
AcDbEntity
  8
VOLL
100
AcDbLine
 10
484.0000000000002
 20
109.9999999999996
 30
0.0
 11
484.0
 21
9.999999999999715
 31
0.0
  0
LINE
  5
2E7
330
106E
100
AcDbEntity
  8
VOLL
100
AcDbLine
 10
524.0000000000001
 20
109.9999999999994
 30
0.0
 11
524.0000000000001
 21
9.999999999999715
 31
0.0
  0
LINE
  5
2E8
330
106E
100
AcDbEntity
  8
VOLL
100
AcDbLine
 10
544.0000000000001
 20
109.9999999999993
 30
0.0
 11
544.0000000000001
 21
9.999999999999715
 31
0.0
  0
LINE
  5
2E9
330
106E
100
AcDbEntity
  8
VOLL
100
AcDbLine
 10
584.0000000000001
 20
79.99999999999946
 30
0.0
 11
584.0
 21
39.99999999999966
 31
0.0
  0
LINE
  5
2EA
330
106E
100
AcDbEntity
  8
VOLL
100
AcDbLine
 10
610.0
 20
109.9999999999993
 30
0.0
 11
610.0
 21
39.99999999999969
 31
0.0
  0
LINE
  5
2EB
330
106E
100
AcDbEntity
  8
HILF
100
AcDbLine
 10
470.0000000000001
 20
99.99999999999964
 30
0.0
 11
566.0
 21
99.9999999999996
 31
0.0
  0
LINE
  5
2EC
330
106E
100
AcDbEntity
  8
HILF
100
AcDbLine
 10
470.0000000000001
 20
89.9999999999996
 30
0.0
 11
566.0000000000001
 21
89.99999999999955
 31
0.0
  0
LINE
  5
2ED
330
106E
100
AcDbEntity
  8
HILF
100
AcDbLine
 10
470.0000000000001
 20
79.99999999999949
 30
0.0
 11
566.0000000000001
 21
79.99999999999949
 31
0.0
  0
LINE
  5
2EE
330
106E
100
AcDbEntity
  8
HILF
100
AcDbLine
 10
470.0000000000001
 20
69.99999999999949
 30
0.0
 11
566.0
 21
69.99999999999946
 31
0.0
  0
LINE
  5
2EF
330
106E
100
AcDbEntity
  8
HILF
100
AcDbLine
 10
470.0000000000001
 20
59.99999999999977
 30
0.0
 11
566.0000000000001
 21
59.99999999999966
 31
0.0
  0
LINE
  5
2F0
330
106E
100
AcDbEntity
  8
HILF
100
AcDbLine
 10
470.0000000000001
 20
49.99999999999975
 30
0.0
 11
566.0000000000001
 21
49.99999999999968
 31
0.0
  0
LINE
  5
2F1
330
106E
100
AcDbEntity
  8
HILF
100
AcDbLine
 10
470.0000000000001
 20
39.99999999999971
 30
0.0
 11
565.9999999999999
 21
39.99999999999966
 31
0.0
  0
LINE
  5
2F2
330
106E
100
AcDbEntity
  8
HILF
100
AcDbLine
 10
566.0
 20
69.99999999999946
 30
0.0
 11
650.0
 21
69.99999999999943
 31
0.0
  0
LINE
  5
2F3
330
106E
100
AcDbEntity
  8
HILF
100
AcDbLine
 10
566.0000000000001
 20
59.99999999999966
 30
0.0
 11
650.0
 21
59.99999999999963
 31
0.0
  0
LINE
  5
2F4
330
106E
100
AcDbEntity
  8
HILF
100
AcDbLine
 10
566.0000000000001
 20
49.99999999999968
 30
0.0
 11
650.0
 21
49.99999999999966
 31
0.0
  0
LINE
  5
2F5
330
106E
100
AcDbEntity
  8
HILF
100
AcDbLine
 10
654.7736801096946
 20
84.03758247564088
 30
0.0
 11
744.8353916556309
 21
84.03758247564079
 31
0.0
  0
LINE
  5
2F6
330
106E
100
AcDbEntity
  8
HILF
100
AcDbLine
 10
654.7736801096946
 20
69.99999999999937
 30
0.0
 11
744.8353916556309
 21
69.99999999999937
 31
0.0
  0
LINE
  5
2F7
330
106E
100
AcDbEntity
  8
HILF
100
AcDbLine
 10
654.7736801096948
 20
59.99999999999963
 30
0.0
 11
744.8353916556311
 21
59.99999999999954
 31
0.0
  0
LINE
  5
2F8
330
106E
100
AcDbEntity
  8
HILF
100
AcDbLine
 10
654.7736801096946
 20
49.99999999999966
 30
0.0
 11
744.8353916556309
 21
49.9999999999996
 31
0.0
  0
LINE
  5
2F9
330
106E
100
AcDbEntity
  8
VOLL
100
AcDbLine
 10
752.0
 20
59.99999999999957
 30
0.0
 11
830.0
 21
59.99999999999954
 31
0.0
  0
LINE
  5
2FA
330
106E
100
AcDbEntity
  8
HILF
100
AcDbLine
 10
756.7238616296994
 20
83.77983636955759
 30
0.0
 11
824.8588839326728
 21
83.77983636955756
 31
0.0
  0
LINE
  5
2FB
330
106E
100
AcDbEntity
  8
HILF
100
AcDbLine
 10
653.4909699289885
 20
14.89398258028279
 30
0.0
 11
824.8588839326728
 21
14.89398258028268
 31
0.0
  0
TEXT
  5
2FC
330
106E
100
AcDbEntity
  8
TEXT
100
AcDbText
 10
492.7826069847976
 20
18.67381894984096
 30
0.0
 40
4.0
  1
Änderung
 50
360.0
 41
0.8
  7
GREEKS
 72
     1
 11
503.5254641276548
 21
18.67381894984095
 31
0.0
100
AcDbText
  0
TEXT
  5
2FD
330
106E
100
AcDbEntity
  8
TEXT
100
AcDbText
 10
573.5163572150376
 20
102.4620895087083
 30
0.0
 40
5.0
  1
Maßstab
 50
360.0
 41
0.8
  7
GREEKS
100
AcDbText
  0
TEXT
  5
2FE
330
106E
100
AcDbEntity
  8
TEXT
100
AcDbText
 10
614.2858954734053
 20
102.4184168434812
 30
0.0
 40
5.0
  1
Zul. Abw.
 50
360.0
 41
0.8
  7
GREEKS
100
AcDbText
  0
TEXT
  5
2FF
330
106E
100
AcDbEntity
  8
TEXT
100
AcDbText
 10
654.8779403809011
 20
102.5489328011774
 30
0.0
 40
5.0
  1
Benennung
 50
360.0
 41
0.8
  7
GREEKS
100
AcDbText
  0
TEXT
  5
300
330
106E
100
AcDbEntity
  8
TEXT
100
AcDbText
 10
756.1787549576341
 20
102.3132034537131
 30
0.0
 40
5.0
  1
Zeichnungs Nr.
 50
360.0
 41
0.8
  7
GREEKS
100
AcDbText
  0
TEXT
  5
301
330
106E
100
AcDbEntity
  8
TEXT
100
AcDbText
 10
654.7422383911359
 20
30.84560570193014
 30
0.0
 40
5.0
  1
Bauvorhaben
 50
360.0
 41
0.8
  7
GREEKS
100
AcDbText
  0
TEXT
  5
302
330
106E
100
AcDbEntity
  8
TEXT
100
AcDbText
 10
756.7238616296994
 20
73.18118237099913
 30
0.0
 40
5.0
  1
Ersatz für:
 50
360.0
 41
0.8
  7
GREEKS
100
AcDbText
  0
TEXT
  5
303
330
106E
100
AcDbEntity
  8
TEXT
100
AcDbText
 10
478.2664110704575
 20
13.65465846027149
 30
0.0
 40
4.0
  1
Index
 50
89.99999999999998
 41
0.8
  7
GREEKS
100
AcDbText
  0
TEXT
  5
304
330
106E
100
AcDbEntity
  8
TEXT
100
AcDbText
 10
530.0571803261054
 20
18.67156269339779
 30
0.0
 40
4.0
  1
Tag
 50
360.0
 41
0.8
  7
GREEKS
 72
     1
 11
533.7905136594388
 21
18.67156269339779
 31
0.0
100
AcDbText
  0
TEXT
  5
305
330
106E
100
AcDbEntity
  8
TEXT
100
AcDbText
 10
548.6614567187548
 20
18.59324216966377
 30
0.0
 40
4.0
  1
Name
 50
360.0
 41
0.8
  7
GREEKS
 72
     1
 11
554.9852662425642
 21
18.59324216966377
 31
0.0
100
AcDbText
  0
TEXT
  5
306
330
106E
100
AcDbEntity
  8
TEXT
100
AcDbText
 10
592.3311673153651
 20
73.31880501229893
 30
0.0
 40
4.0
  1
Tag
 50
360.0
 41
0.8
  7
GREEKS
100
AcDbText
  0
TEXT
  5
307
330
106E
100
AcDbEntity
  8
TEXT
100
AcDbText
 10
622.4626584226293
 20
73.30961091915182
 30
0.0
 40
4.0
  1
Name
 50
360.0
 41
0.8
  7
GREEKS
100
AcDbText
  0
TEXT
  5
308
330
106E
100
AcDbEntity
  8
TEXT
100
AcDbText
 10
567.5836127167616
 20
63.62990369617927
 30
0.0
 40
4.0
  1
Gez.
 50
360.0
 41
0.8
  7
GREEKS
100
AcDbText
  0
TEXT
  5
309
330
106E
100
AcDbEntity
  8
TEXT
100
AcDbText
 10
567.5515086571672
 20
53.68926291428346
 30
0.0
 40
4.0
  1
Gepr.
 50
360.0
 41
0.8
  7
GREEKS
100
AcDbText
  0
TEXT
  5
30A
330
106E
100
AcDbEntity
  8
TEXT
100
AcDbText
 10
567.6006777387304
 20
43.52946389649781
 30
0.0
 40
4.0
  1
Norm.
 50
360.0
 41
0.8
  7
GREEKS
100
AcDbText
  0
LINE
  5
30B
330
106E
100
AcDbEntity
  8
STEMPEL
100
AcDbLine
 10
479.9999999999998
 20
9.999999999999715
 30
0.0
 11
830.0000000000002
 21
9.999999999999545
 31
0.0
  0
TEXT
  5
30C
330
106E
100
AcDbEntity
  8
TEXT
100
AcDbText
 10
757.2400861497007
 20
52.07416177878553
 30
0.0
 40
5.0
  1
ersetzt durch:
 50
360.0
 41
0.8
  7
GREEKS
100
AcDbText
  0
LINE
  5
30D
330
106E
100
AcDbEntity
  8
STEMPEL
100
AcDbLine
 10
830.0000000000002
 20
9.999999999999545
 30
0.0
 11
40.00000000000006
 21
10.0
 31
0.0
  0
LINE
  5
30E
330
106E
100
AcDbEntity
  8
STEMPEL
100
AcDbLine
 10
830.0000000000002
 20
9.999999999999545
 30
0.0
 11
830.0000000000004
 21
583.9999999999993
 31
0.0
  0
LINE
  5
30F
330
106E
100
AcDbEntity
  8
STEMPEL
100
AcDbLine
 10
470.0000000000001
 20
9.999999999999715
 30
0.0
 11
470.0000000000001
 21
109.9999999999996
 31
0.0
  0
LINE
  5
310
330
106E
100
AcDbEntity
  8
STEMPEL
100
AcDbLine
 10
830.0000000000004
 20
583.9999999999993
 30
0.0
 11
40.00000000000023
 21
584.0
 31
0.0
  0
LINE
  5
311
330
106E
100
AcDbEntity
  8
HILF
100
AcDbLine
 10
840.0000000000002
 20
593.9999999999997
 30
0.0
 11
0.0000000000001137
 21
593.9999999999995
 31
0.0
  0
LINE
  5
312
330
106E
100
AcDbEntity
  8
HILF
100
AcDbLine
 10
840.0000000000002
 20
-0.0000000000004547
 30
0.0
 11
0.0
 21
0.0
 31
0.0
  0
LINE
  5
313
330
106E
100
AcDbEntity
  8
HILF
100
AcDbLine
 10
31.08767135713867
 20
296.9999999999998
 30
0.0
 11
0.0000000000002274
 21
296.9999999999998
 31
0.0
  0
TEXT
  5
314
330
106E
100
AcDbEntity
  8
TEXT
100
AcDbText
 10
568.622109822104
 20
73.14025471151615
 30
0.0
 40
4.0
  1
2011
 50
360.0
 41
0.8
  7
GREEKS
100
AcDbText
  0
LINE
  5
315
330
106E
100
AcDbEntity
  8
HILF
100
AcDbLine
 10
840.0000000000002
 20
-0.0000000000006821
 30
0.0
 11
840.0000000000002
 21
593.9999999999995
 31
0.0
  0
TEXT
  5
316
330
106E
100
AcDbEntity
  8
VOLL
100
AcDbText
 10
78.07675471698113
 20
31.02594776470585
 30
0.0
 40
1.8
  1

  7
GREEKS
100
AcDbText
  0
TEXT
  5
317
330
106E
100
AcDbEntity
  8
TEXT
100
AcDbText
 10
471.8550995097769
 20
111.6719999999994
 30
0.0
 40
5.0
  1
Erstellt mit AUTOCAD 2004
 50
360.0
 41
0.8
  7
GREEKS
100
AcDbText
  0
TEXT
  5
318
330
106E
100
AcDbEntity
  8
TEXT
100
AcDbText
 10
624.4216048581257
 20
63.08963919723477
 30
0.0
 40
4.0
  1
Koeh
 50
360.0
 41
0.8
  7
GREEKS
 72
     1
 11
629.6787477152686
 21
63.08963919723476
 31
0.0
100
AcDbText
  0
TEXT
  5
319
330
106E
100
AcDbEntity
  8
TEXT
 62
     1
100
AcDbText
 10
767.8977935463263
 20
88.14901428913907
 30
0.0
 40
7.0
  1
01365100W
 50
360.0
 41
0.8
  7
GREEKS
 72
     1
 11
790.8311268796597
 21
88.14901428913904
 31
0.0
100
AcDbText
  0
TEXT
  5
31A
330
106E
100
AcDbEntity
  8
TEXT
 62
     1
100
AcDbText
 10
580.5006306481886
 20
88.14901428913916
 30
0.0
 40
7.0
  1
1:2
 50
360.0
 41
0.8
  7
GREEKS
100
AcDbText
  0
TEXT
  5
31B
330
106E
100
AcDbEntity
  8
TEXT
100
AcDbText
 10
590.3989971082362
 20
63.10765040825698
 30
0.0
 40
4.0
  1
29.08.
 50
360.0
 41
0.8
  7
GREEKS
 72
     1
 11
597.40852091776
 21
63.10765040825697
 31
0.0
100
AcDbText
  0
TEXT
  5
31C
330
106E
100
AcDbEntity
  8
TEXT
 62
     1
100
AcDbText
 10
655.0506768857031
 20
87.41748789253733
 30
0.0
 40
7.0
  1
Rainstar Attika Notablauf
 50
360.0
 41
0.6800000000000001
  7
GREEKS
100
AcDbText
  0
TEXT
  5
31D
330
106E
100
AcDbEntity
  8
TEXT
100
AcDbText
 10
655.1296391125316
 20
71.50334417585245
 30
0.0
 40
5.0
  1
DN100 für Bitumenklemmung
 50
360.0
 41
0.8
  7
GREEKS
100
AcDbText
  0
TEXT
  5
31F
330
106E
100
AcDbEntity
  8
TEXT
100
AcDbText
 10
655.1296391125315
 20
51.64011943042112
 30
0.0
 40
5.0
  1
EDV-Art.Nr. 01365.100X
 50
360.0
 41
0.8
  7
GREEKS
100
AcDbText
  0
TEXT
  5
320
330
106E
100
AcDbEntity
  8
TEXT
100
AcDbText
 10
654.9837501577826
 20
42.62974153022591
 30
0.0
 40
4.0
  1
01365100W.DWG
 50
360.0
 41
0.8
  7
GREEKS
100
AcDbText
  0
TEXT
  5
321
330
106E
100
AcDbEntity
  8
TEXT
100
AcDbText
 10
612.6261322080842
 20
90.76363841022979
 30
0.0
 40
4.0
  1
DIN EN1124-3
 50
360.0
 41
0.8
  7
GREEKS
 72
     1
 11
629.6166083985603
 21
90.76363841022979
 31
0.0
100
AcDbText
  0
INSERT
  5
322
330
106E
100
AcDbEntity
  8
STEMPEL
100
AcDbBlockReference
  2
LOGO
 10
570.9955485457795
 20
45.02105276448282
 30
0.0
 41
2.0
 42
2.0
 43
2.0
 50
360.0
  0
LINE
  5
323
330
106E
100
AcDbEntity
  8
HILF
100
AcDbLine
 10
0.0
 20
0.0
 30
0.0
 11
0.0000000000001137
 21
593.9999999999995
 31
0.0
  0
LINE
  5
324
330
106E
100
AcDbEntity
  8
STEMPEL
100
AcDbLine
 10
40.00000000000006
 20
10.0
 30
0.0
 11
40.00000000000023
 21
584.0
 31
0.0
  0
LINE
  5
325
330
106E
100
AcDbEntity
  8
HILF
 62
     7
100
AcDbLine
 10
460.0
 20
-0.0000000000005116
 30
0.0
 11
460.0
 21
9.999999999999772
 31
0.0
  0
LINE
  5
326
330
106E
100
AcDbEntity
  8
HILF
 62
     7
100
AcDbLine
 10
460.0000000000003
 20
583.9999999999995
 30
0.0
 11
460.0000000000002
 21
593.9999999999995
 31
0.0
  0
TEXT
  5
327
330
106E
100
AcDbEntity
  8
TEXT
100
AcDbText
 10
836.5811541437437
 20
12.14804815338254
 30
0.0
 40
4.0
  1
Diese Zeichnung ist urheberrechtlich geschützt und bleibt unser Eigentum. Sie darf weder ganz noch teilweise vervielfältigt und nicht an Dritte weitergegeben werden.
 50
89.99999999999998
 41
0.8
  7
GREEKS
100
AcDbText
  0
TEXT
  5
1C0B
330
106E
100
AcDbEntity
  8
TEXT
 62
     1
100
AcDbText
 10
790.8311268796597
 20
62.65843508889031
 30
0.0
 40
7.0
  1

 41
0.8
  7
GREEKS
 72
     1
 11
790.8311268796597
 21
62.65843508889031
 31
0.0
100
AcDbText
  0
TEXT
  5
206F
330
106E
100
AcDbEntity
  8
TEXT
 62
     1
100
AcDbText
 10
664.6057658946467
 20
115.5115488980132
 30
0.0
 40
7.0
  1

 41
0.8
  7
GREEKS
100
AcDbText
  0
MTEXT
  5
2105
330
106E
100
AcDbEntity
  8
BEM
 62
     1
100
AcDbMText
 10
168.1670985835575
 20
494.7121253266709
 30
0.0
 40
7.0
 41
0.0
 71
     1
 72
     1
  1
\A1;
  7
GREEKS
 73
     1
 44
1.0
  0
LINE
  5
222A
330
106E
100
AcDbEntity
  8
STEMPEL
100
AcDbLine
 10
69.87741016061534
 20
337.791452683438
 30
0.0
 11
344.8774101606156
 21
337.7914526834377
 31
0.0
  0
LINE
  5
222C
330
106E
100
AcDbEntity
  8
STEMPEL
100
AcDbLine
 10
141.8774101606153
 20
337.791452683438
 30
0.0
 11
141.8774101606152
 21
291.791452683438
 31
0.0
  0
LINE
  5
222D
330
106E
100
AcDbEntity
  8
STEMPEL
100
AcDbLine
 10
318.7103560357984
 20
282.7914526834383
 30
0.0
 11
150.8774101606152
 21
282.7914526834379
 31
0.0
  0
ARC
  5
222F
330
106E
100
AcDbEntity
  8
STEMPEL
100
AcDbCircle
 10
150.8774101606152
 20
291.791452683438
 30
0.0
 40
9.0
100
AcDbArc
 50
179.9999999999999
 51
270.0
  0
LINE
  5
2238
330
106E
100
AcDbEntity
  8
STEMPEL
100
AcDbLine
 10
143.3774101606152
 20
337.7914526834379
 30
0.0
 11
143.3774101606152
 21
291.791452683438
 31
0.0
  0
LINE
  5
223B
330
106E
100
AcDbEntity
  8
STEMPEL
100
AcDbLine
 10
318.7889677047231
 20
284.2914526834384
 30
0.0
 11
150.8774101606152
 21
284.2914526834379
 31
0.0
  0
ARC
  5
223C
330
106E
100
AcDbEntity
  8
STEMPEL
100
AcDbCircle
 10
150.8774101606152
 20
291.791452683438
 30
0.0
 40
7.5
100
AcDbArc
 50
179.9999999999999
 51
270.0
  0
LINE
  5
2249
330
106E
100
AcDbEntity
  8
STEMPEL
100
AcDbLine
 10
69.87741016061534
 20
337.791452683438
 30
0.0
 11
69.87741016061523
 21
340.791452683438
 31
0.0
  0
LINE
  5
224A
330
106E
100
AcDbEntity
  8
STEMPEL
100
AcDbLine
 10
69.87741016061523
 20
340.791452683438
 30
0.0
 11
342.5163928550888
 21
340.7914526834378
 31
0.0
  0
LINE
  5
224D
330
106E
100
AcDbEntity
  8
STEMPEL
100
AcDbLine
 10
419.123622185203
 20
412.0376647080251
 30
0.0
 11
417.0023018416433
 21
414.1589850515848
 31
0.0
  0
LINE
  5
224E
330
106E
100
AcDbEntity
  8
STEMPEL
100
AcDbLine
 10
344.4255811642925
 20
341.5822643742341
 30
0.0
 11
417.0023018416433
 21
414.1589850515851
 31
0.0
  0
ARC
  5
224F
330
106E
100
AcDbEntity
  8
STEMPEL
100
AcDbCircle
 10
342.5163928550888
 20
343.4914526834378
 30
0.0
 40
5.7
100
AcDbArc
 50
270.0
 51
314.9999999999999
  0
ARC
  5
2250
330
106E
100
AcDbEntity
  8
STEMPEL
100
AcDbCircle
 10
342.5163928550888
 20
343.4914526834378
 30
0.0
 40
2.7
100
AcDbArc
 50
270.0
 51
314.9999999999999
  0
LINE
  5
2252
102
{ACAD_REACTORS
330
2C97
102
}
330
106E
100
AcDbEntity
  8
STEMPEL
100
AcDbLine
 10
344.8774101606156
 20
337.7914526834377
 30
0.0
 11
419.123622185203
 21
412.0376647080251
 31
0.0
  0
LINE
  5
23BD
330
106E
100
AcDbEntity
  8
STEMPEL
100
AcDbLine
 10
143.8774101606154
 20
337.7914526834378
 30
0.0
 11
143.8774101606154
 21
340.7914526834379
 31
0.0
  0
LINE
  5
23BE
330
106E
100
AcDbEntity
  8
STEMPEL
100
AcDbLine
 10
265.8774101606153
 20
337.7914526834377
 30
0.0
 11
265.8774101606156
 21
340.7914526834379
 31
0.0
  0
ARC
  5
23BF
330
106E
100
AcDbEntity
  8
SCHRAFF
100
AcDbCircle
 10
141.8774101606153
 20
337.7914526834379
 30
0.0
 40
3.0
100
AcDbArc
 50
179.9999999999999
 51
270.0
  0
HATCH
  5
23C8
330
106E
100
AcDbEntity
  8
SCHRAFF
100
AcDbHatch
 10
0.0
 20
0.0
 30
0.0
210
0.0
220
0.0
230
1.0
  2
_USER
 70
     0
 71
     0
 91
        1
 92
        7
 72
     1
 73
     1
 93
        3
 10
141.8774101606151
 20
337.7914526834379
 42
0.0
 10
138.8774101606152
 20
337.7914526834378
 42
0.4142135623730896
 10
141.8774101606152
 20
334.7914526834379
 42
0.0
 97
        0
 75
     0
 76
     0
 52
-0.000000000000031
 41
0.1
 77
     0
 78
     1
 53
360.0
 43
-865.2323200399685
 44
-109.3699999999995
 45
0.0000000000000001
 46
0.1
 79
     0
 47
0.2469670591095711
 98
        1
 10
140.55055372324
 20
336.3755607144014
  0
HATCH
  5
23F0
330
106E
100
AcDbEntity
  8
SCHRAFF
100
AcDbHatch
 10
0.0
 20
0.0
 30
0.0
210
0.0
220
0.0
230
1.0
  2
_USER
 70
     0
 71
     0
 91
        2
 92
        7
 72
     1
 73
     1
 93
        8
 10
344.4255811642925
 20
341.5822643742341
 42
-0.1989123673796531
 10
342.5163928550888
 20
340.7914526834378
 42
0.0
 10
265.8774101606156
 20
340.7914526834379
 42
0.0
 10
265.8774101606155
 20
337.7914526834377
 42
0.0
 10
342.5163928550888
 20
337.7914526834377
 42
0.1989123673796565
 10
346.5469015078521
 20
339.4609440306743
 42
0.0
 10
419.1236221852033
 20
412.0376647080251
 42
0.0
 10
417.0023018416433
 20
414.1589850515851
 42
0.0
 97
        0
 92
        7
 72
     0
 73
     1
 93
        4
 10
69.8774101606154
 20
340.791452683438
 10
69.8774101606154
 20
337.791452683438
 10
143.8774101606154
 20
337.791452683438
 10
143.8774101606156
 20
340.791452683438
 97
        0
 75
     0
 76
     0
 52
134.9999999999999
 41
4.999999999999998
 77
     0
 78
     1
 53
134.9999999999999
 43
0.0000000000000568
 44
-109.37
 45
-3.535533905932739
 46
-3.535533905932735
 79
     0
 47
0.4629735784415539
 98
        2
 10
371.3407375571313
 20
367.693143683177
 10
132.3648265000091
 20
340.3777012870989
  0
DIMENSION
  5
2424
330
106E
100
AcDbEntity
  8
BEM
100
AcDbDimension
  2
*D1
 10
355.5597880969251
 20
327.1090747471281
 30
0.0
 11
388.5109641002183
 21
368.4041107684225
 31
0.0
 70
    33
 71
     5
 42
105.0
  3
STANDARD
100
AcDbAlignedDimension
 13
419.123622185203
 23
412.0376647080251
 33
0.0
 14
344.8774101606155
 24
337.7914526834377
 34
0.0
  0
DIMENSION
  5
2915
330
106E
100
AcDbEntity
  8
BEM
100
AcDbDimension
  2
*D2
 10
344.8774101606155
 20
249.044878007459
 30
0.0
 11
207.3774101606154
 21
254.944878007459
 31
0.0
 70
    32
 71
     5
 42
275.0000000000002
  3
STANDARD
100
AcDbAlignedDimension
 13
69.87741016061528
 23
337.791452683438
 33
0.0
 14
344.8774101606155
 24
337.7914526834377
 34
0.0
100
AcDbRotatedDimension
  0
LINE
  5
2B53
330
106E
100
AcDbEntity
  8
MITTEL
100
AcDbLine
 10
809.8705578343892
 20
292.0983202187847
 30
0.0
 11
315.5489381308747
 21
318.0046185590424
 31
0.0
  0
LINE
  5
2B54
330
106E
100
AcDbEntity
  8
STEMPEL
100
AcDbLine
 10
798.5484109249653
 20
343.5614039717145
 30
0.0
 11
807.4948675119625
 21
342.3040614953495
 31
0.0
  0
LINE
  5
2B55
330
106E
100
AcDbEntity
  8
STEMPEL
100
AcDbLine
 10
793.2310777706826
 20
242.1006432406533
 30
0.0
 11
802.259952809268
 21
242.4159385046454
 31
0.0
  0
LINE
  5
2B56
330
106E
100
AcDbEntity
  8
STEMPEL
100
AcDbLine
 10
802.259952809268
 20
242.4159385046454
 30
0.0
 11
807.4948675119625
 21
342.3040614953495
 31
0.0
  0
LINE
  5
2B57
330
106E
100
AcDbEntity
  8
HILF
100
AcDbLine
 10
793.3571638613067
 20
244.5065091702772
 30
0.0
 11
798.4223248343405
 21
341.1555380420908
 31
0.0
  0
LINE
  5
2B58
330
106E
100
AcDbEntity
  8
STEMPEL
100
AcDbLine
 10
422.5861164383899
 20
261.5253225665285
 30
0.0
 11
793.2310777707116
 21
242.1006432406544
 31
0.0
  0
LINE
  5
2B59
330
106E
100
AcDbEntity
  8
STEMPEL
100
AcDbLine
 10
427.9034495926743
 20
362.9860832975916
 30
0.0
 11
798.5484109249775
 21
343.5614039717127
 31
0.0
  0
ARC
  5
2B5B
330
106E
100
AcDbEntity
  8
STEMPEL
100
AcDbCircle
 10
348.5065317490523
 20
251.1881817771357
 30
0.0
 40
30.0
100
AcDbArc
 50
73.34958086527383
 51
86.99999999999993
  0
ARC
  5
2B5C
330
106E
100
AcDbEntity
  8
HILF
100
AcDbCircle
 10
386.8465350442029
 20
314.2628952387771
 30
0.0
 40
42.99410568964912
100
AcDbArc
 50
193.8530527322113
 51
222.359090956457
  0
LINE
  5
2B5D
330
106E
100
AcDbEntity
  8
STEMPEL
100
AcDbLine
 10
318.7103273361444
 20
282.7909050614177
 30
0.0
 11
350.0766104363409
 21
281.147067819773
 31
0.0
  0
ARC
  5
2B5E
330
106E
100
AcDbEntity
  8
HILF
100
AcDbCircle
 10
357.9136322620195
 20
158.2502117304605
 30
0.0
 40
124.7152057292721
100
AcDbArc
 50
63.95042500776746
 51
89.85957938964132
  0
ARC
  5
2B5F
330
106E
100
AcDbEntity
  8
HILF
100
AcDbCircle
 10
370.9460106933647
 20
351.2444172598482
 30
0.0
 40
66.58535855428207
100
AcDbArc
 50
259.1138784382333
 51
302.2543141912659
  0
LINE
  5
2B60
330
106E
100
AcDbEntity
  8
STEMPEL
100
AcDbLine
 10
357.1024785878462
 20
279.9303058800034
 30
0.0
 11
413.2182922363837
 21
263.1476718195546
 31
0.0
  0
ARC
  5
2B61
330
106E
100
AcDbEntity
  8
HILF
100
AcDbCircle
 10
386.8470759369619
 20
314.2732160874286
 30
0.0
 40
42.99410568964912
100
AcDbArc
 50
131.6409090435427
 51
160.1469472677698
  0
ARC
  5
2B62
330
106E
100
AcDbEntity
  8
HILF
100
AcDbCircle
 10
367.1680346560541
 20
279.1563400889729
 30
0.0
 40
66.58535855428207
100
AcDbArc
 50
51.74568580876279
 51
94.88612156180632
  0
LINE
  5
2B63
102
{ACAD_REACTORS
330
2C97
102
}
330
106E
100
AcDbEntity
  8
STEMPEL
100
AcDbLine
 10
360.8546933397165
 20
351.5268284421464
 30
0.0
 11
418.4173616375162
 21
362.3518257115202
 31
0.0
  0
ARC
  5
2B64
330
106E
100
AcDbEntity
  8
HILF
100
AcDbCircle
 10
374.3804366809072
 20
472.4555576573039
 30
0.0
 40
124.7152057292721
100
AcDbArc
 50
264.1404206103715
 51
290.049574992206
  0
ARC
  5
2B65
102
{ACAD_REACTORS
330
2C97
102
}
330
106E
100
AcDbEntity
  8
STEMPEL
100
AcDbCircle
 10
355.3102060606361
 20
381.0100212952299
 30
0.0
 40
30.0
100
AcDbArc
 50
275.6031143630957
 51
280.6504191347522
  0
TEXT
  5
2B74
330
106E
100
AcDbEntity
  8
TEXT
 62
     1
100
AcDbText
 10
634.1506992316159
 20
319.4221048318594
 30
0.0
 40
6.999999999999999
  1
DN100
 50
357.0
 41
0.8
  7
GREEKS
100
AcDbText
  0
LINE
  5
2B75
330
106E
100
AcDbEntity
  8
STEMPEL
100
AcDbLine
 10
318.7103273361444
 20
282.7909050614179
 30
0.0
 11
321.5927551967125
 21
337.7909050614184
 31
0.0
  0
LINE
  5
2B76
330
106E
100
AcDbEntity
  8
STEMPEL
100
AcDbLine
 10
321.5927551967125
 20
337.7909050614182
 30
0.0
 11
333.095103646995
 21
337.7909050614184
 31
0.0
  0
LINE
  5
2B7A
330
106E
100
AcDbEntity
  8
STEMPEL
100
AcDbLine
 10
798.4332864489632
 20
342.3657905746444
 30
0.0
 11
807.43182446665
 21
341.1011285305375
 31
0.0
  0
LINE
  5
2B7B
330
106E
100
AcDbEntity
  8
STEMPEL
100
AcDbLine
 10
427.8406464451828
 20
361.7877278558859
 30
0.0
 11
798.4332864489632
 21
342.3657905746444
 31
0.0
  0
LINE
  5
2B7D
330
106E
100
AcDbEntity
  8
STEMPEL
100
AcDbLine
 10
422.6489195858815
 20
262.723678008234
 30
0.0
 11
793.2415595896799
 21
243.3017407269968
 31
0.0
  0
LINE
  5
2B7E
330
106E
100
AcDbEntity
  8
STEMPEL
100
AcDbLine
 10
793.2415595896799
 20
243.3017407269968
 30
0.0
 11
802.3229958545801
 21
243.6188714694575
 31
0.0
  0
LINE
  5
2B81
330
106E
100
AcDbEntity
  8
STEMPEL
100
AcDbLine
 10
361.0764728308797
 20
350.347500728023
 30
0.0
 11
418.6391411286795
 21
361.1724979973967
 31
0.0
  0
ARC
  5
2B82
330
106E
100
AcDbEntity
  8
STEMPEL
100
AcDbCircle
 10
355.3102060606361
 20
381.0100212952299
 30
0.0
 40
31.2
100
AcDbArc
 50
272.9915577831549
 51
280.6504191347522
  0
LINE
  5
2B84
330
106E
100
AcDbEntity
  8
STEMPEL
100
AcDbLine
 10
318.773130483636
 20
283.9892605031232
 30
0.0
 11
350.1394135838324
 21
282.3454232614783
 31
0.0
  0
ARC
  5
2B85
330
106E
100
AcDbEntity
  8
STEMPEL
100
AcDbCircle
 10
348.5065317490523
 20
251.1881817771357
 30
0.0
 40
31.2
100
AcDbArc
 50
73.34958086527383
 51
86.99999999999993
  0
LINE
  5
2B86
330
106E
100
AcDbEntity
  8
STEMPEL
100
AcDbLine
 10
357.4463164613979
 20
281.0799908441181
 30
0.0
 11
413.5621301099355
 21
264.2973567836693
 31
0.0
  0
ARC
  5
2C92
102
{ACAD_REACTORS
330
2C97
102
}
330
106E
100
AcDbEntity
  8
SCHRAFF
100
AcDbCircle
 10
358.2393159432211
 20
351.1533584660432
 30
0.0
 40
5.0
100
AcDbArc
 50
9.317278398524313
 51
45.00000000000043
  0
HATCH
  5
2C97
330
106E
100
AcDbEntity
  8
SCHRAFF
100
AcDbHatch
 10
0.0
 20
0.0
 30
0.0
210
0.0
220
0.0
230
1.0
  2
_USER
 70
     0
 71
     1
 91
        1
 92
        7
 72
     1
 73
     1
 93
        4
 10
358.2393159432211
 20
351.1533584660432
 42
0.0220265828326461
 10
360.8546933397168
 20
351.5268284421464
 42
0.0
 10
363.1733506306576
 20
351.9628655402392
 42
0.1569656340877077
 10
361.7748498491538
 20
354.6888923719759
 42
0.0
 97
        4
330
2252
330
2B65
330
2B63
330
2C92
 75
     0
 76
     0
 52
-0.000000000000031
 41
0.1
 77
     0
 78
     1
 53
360.0
 43
0.0000000000000568
 44
-109.37
 45
0.0000000000000001
 46
0.1
 79
     0
 47
0.0159898518035752
 98
        1
 10
360.9009884182268
 20
352.4929798984148
  0
ARC
  5
2C9A
330
106E
100
AcDbEntity
  8
SCHRAFF
100
AcDbCircle
 10
318.7673232685368
 20
284.9599266362724
 30
0.0
 40
3.747999881162811
100
AcDbArc
 50
215.3499079897581
 51
321.6396331999981
  0
HATCH
  5
2C9E
330
106E
100
AcDbEntity
  8
SCHRAFF
100
AcDbHatch
 10
0.0
 20
0.0
 30
0.0
210
0.0
220
0.0
230
1.0
  2
_USER
 70
     0
 71
     0
 91
        1
 92
        7
 72
     1
 73
     1
 93
        3
 10
321.7062159404081
 20
282.6338971926888
 42
0.0
 10
318.699878085514
 20
282.7914526834383
 42
0.0
 10
315.7103273861259
 20
282.7914526834384
 42
0.5001610197322537
 97
        0
 75
     0
 76
     0
 52
-0.000000000000031
 41
0.1
 77
     0
 78
     1
 53
360.0
 43
0.0000000000000568
 44
-109.37
 45
0.0000000000000001
 46
0.1
 79
     0
 47
0.0242623787803581
 98
        1
 10
317.2610587512225
 20
281.9962893340102
  0
HATCH
  5
2CC0
330
106E
100
AcDbEntity
  8
SCHRAFF
100
AcDbHatch
 10
0.0
 20
0.0
 30
0.0
210
0.0
220
0.0
230
1.0
  2
_USER
 70
     0
 71
     0
 91
        1
 92
        7
 72
     1
 73
     1
 93
        8
 10
318.788967704723
 20
284.2914526834385
 42
0.0
 10
150.8774101606152
 20
284.2914526834379
 42
-0.4142135623730951
 10
143.3774101606152
 20
291.791452683438
 42
0.0
 10
143.3774101606153
 20
337.7914526834378
 42
0.0
 10
141.8774101606152
 20
337.791452683438
 42
0.0
 10
141.8774101606152
 20
291.791452683438
 42
0.4142135623730951
 10
150.8774101606152
 20
282.7914526834379
 42
0.0
 10
318.7103560357984
 20
282.7914526834385
 42
0.0
 97
        0
 75
     0
 76
     0
 52
134.9999999999999
 41
1.999999999999999
 77
     0
 78
     1
 53
134.9999999999999
 43
0.0000000000000568
 44
-109.37
 45
-1.414213562373095
 46
-1.414213562373094
 79
     0
 47
0.323427873639144
 98
        1
 10
233.8044803997378
 20
283.6526474970339
  0
DIMENSION
  5
2DD2
330
106E
100
AcDbEntity
  8
BEM
100
AcDbDimension
  2
*D3
 10
824.9040332197475
 20
342.1801643356212
 30
0.0
 11
816.3534523875544
 21
291.7585661119259
 31
0.0
 70
    32
  1
%%c<>
 71
     5
 42
101.5999999999927
  3
STANDARD
100
AcDbAlignedDimension
 13
793.2310777707116
 23
242.1006432406544
 33
0.0
 14
798.5484109249775
 24
343.5614039717127
 34
0.0
 50
87.0
100
AcDbRotatedDimension
  0
ARC
  5
2DE8
330
106E
100
AcDbEntity
  8
STEMPEL
100
AcDbCircle
 10
425.8100113429562
 20
323.0409019074086
 30
0.0
 40
40.0
100
AcDbArc
 50
86.99999999999938
 51
100.6504191347556
  0
ARC
  5
2DE9
330
106E
100
AcDbEntity
  8
STEMPEL
100
AcDbCircle
 10
425.8100113429562
 20
323.0409019074086
 30
0.0
 40
38.8
100
AcDbArc
 50
86.99999999999938
 51
100.6504191347556
  0
ARC
  5
2DEA
330
106E
100
AcDbEntity
  8
STEMPEL
100
AcDbCircle
 10
424.6795546881076
 20
301.4705039567115
 30
0.0
 40
40.0
100
AcDbArc
 50
253.3495808652439
 51
267.0000000000002
  0
ARC
  5
2DEB
330
106E
100
AcDbEntity
  8
STEMPEL
100
AcDbCircle
 10
424.6795546881076
 20
301.4705039567115
 30
0.0
 40
38.8
100
AcDbArc
 50
253.3495808652439
 51
267.0000000000002
  0
HATCH
  5
2F21
330
106E
100
AcDbEntity
  8
BEM
100
AcDbHatch
 10
0.0
 20
0.0
 30
0.0
210
0.0
220
0.0
230
1.0
  2
_USER
 70
     0
 71
     0
 91
        3
 92
        7
 72
     1
 73
     1
 93
       10
 10
427.9034495926743
 20
362.9860832975916
 42
0.0596317214396014
 10
418.4173616375162
 20
362.3518257115202
 42
0.0
 10
360.8546933397165
 20
351.5268284421464
 42
-0.0220265828326436
 10
358.239315943221
 20
351.1533584660432
 42
0.0
 10
356.9384970301589
 20
349.852539552981
 42
0.0334305325336526
 10
361.0764728308789
 20
350.3475007280229
 42
0.0
 10
418.6391411286795
 20
361.1724979973967
 42
-0.0596317214396036
 10
427.8406464451832
 20
361.7877278558859
 42
0.0
 10
569.5597244037807
 20
354.3605456980341
 42
0.0
 10
570.4645448775274
 20
355.5147728815528
 42
0.0
 97
        0
 92
        7
 72
     0
 73
     1
 93
        6
 10
570.4645448775274
 20
355.5147728815527
 10
569.559724403781
 20
354.3605456980342
 10
798.4332864489633
 20
342.3657905746444
 10
807.4318244666503
 20
341.1011285305374
 10
807.4948675119625
 20
342.3040614953495
 10
798.5484109249778
 20
343.5614039717127
 97
        0
 92
        7
 72
     1
 73
     1
 93
       14
 10
422.6489195858815
 20
262.723678008234
 42
-0.0596317214396024
 10
413.5621301099355
 20
264.2973567836693
 42
0.0
 10
357.4463164613979
 20
281.0799908441181
 42
0.0596317214396081
 10
350.1394135838324
 20
282.3454232614783
 42
0.0
 10
318.773130483636
 20
283.9892605031232
 42
0.0
 10
318.7103273361444
 20
282.7909050614177
 42
0.0
 10
350.0766104363409
 20
281.147067819773
 42
-0.0596317214395973
 10
357.1024785878449
 20
279.9303058800038
 42
0.0
 10
413.2182922363837
 20
263.1476718195546
 42
0.0596317214396034
 10
422.5861164383901
 20
261.5253225665285
 42
0.0
 10
793.2310777707118
 20
242.1006432406543
 42
0.0
 10
802.259952809268
 20
242.4159385046453
 42
0.0
 10
802.3229958545803
 20
243.6188714694575
 42
0.0
 10
793.24155958968
 20
243.3017407269968
 42
0.0
 97
        0
 75
     0
 76
     0
 52
45.0
 41
2.0
 77
     0
 78
     1
 53
45.0
 43
0.0
 44
-109.37
 45
-1.414213562373094
 46
1.414213562373095
 79
     0
 47
0.5051460233366678
 98
        3
 10
552.7822139946531
 20
355.8259965251001
 10
578.0481374079702
 20
354.8157041579622
 10
546.7183930799335
 20
255.8070828545739
  0
LINE
  5
3220
330
106E
100
AcDbEntity
  8
TEXT
 62
     2
100
AcDbLine
 10
599.6522278129507
 20
389.6571289318051
 30
0.0
 11
706.0868189305194
 21
389.6571289318051
 31
0.0
  0
TEXT
  5
3221
330
106E
100
AcDbEntity
  8
TEXT
 62
     1
100
AcDbText
 10
601.5719036096681
 20
378.4851327772241
 30
0.0
 40
7.0
  1
EDV-Art.Nr. 01368.100X
 41
0.8
  7
GREEKS
100
AcDbText
  0
TEXT
  5
3222
330
106E
100
AcDbEntity
  8
TEXT
 62
     1
100
AcDbText
 10
602.3014114320014
 20
392.9276565326542
 30
0.0
 40
7.0
  1
Auslaufkörper DN100
 41
0.8
  7
GREEKS
100
AcDbText
  0
LINE
  5
3223
330
106E
100
AcDbEntity
  8
TEXT
 62
     2
100
AcDbLine
 10
599.6522278129507
 20
389.6571289318051
 30
0.0
 11
569.4903593992667
 21
351.3677501423811
 31
0.0
  0
DIMENSION
  5
3224
330
106E
100
AcDbEntity
  8
BEM
100
AcDbDimension
  2
*D4
 10
804.8774101606156
 20
505.8837869427413
 30
0.0
 11
504.8774101606151
 21
511.7837869427413
 31
0.0
 70
    32
 71
     5
 42
600.000000000001
  3
STANDARD
100
AcDbAlignedDimension
 13
204.8774101606147
 23
494.0303689974243
 33
0.0
 14
804.8774101606156
 24
292.3600000000062
 34
0.0
100
AcDbRotatedDimension
  0
LINE
  5
3225
330
106E
100
AcDbEntity
  8
TEXT
 62
     2
100
AcDbLine
 10
433.1671173314086
 20
432.0872618606006
 30
0.0
 11
405.5534916928422
 21
414.1768582983914
 31
0.0
  0
LINE
  5
3226
330
106E
100
AcDbEntity
  8
TEXT
 62
     2
100
AcDbLine
 10
433.1671173314086
 20
432.0872618606006
 30
0.0
 11
539.6017084489774
 21
432.0872618606006
 31
0.0
  0
TEXT
  5
3227
330
106E
100
AcDbEntity
  8
TEXT
 62
     1
100
AcDbText
 10
435.8163009504594
 20
435.3577894614497
 30
0.0
 40
7.0
  1
Losflansch
 41
0.8
  7
GREEKS
100
AcDbText
  0
HATCH
  5
322C
330
106E
100
AcDbEntity
  8
SCHRAFF
100
AcDbHatch
 10
0.0
 20
0.0
 30
0.0
210
0.0
220
0.0
230
1.0
  2
_USER
 70
     0
 71
     1
 91
        2
 92
        7
 72
     0
 73
     1
 93
        5
 10
410.2847874203709
 20
414.5125384421783
 10
410.2847874203709
 20
417.3409655669247
 10
407.4563602956248
 20
420.1693926916708
 10
384.4753899070619
 20
397.1884223031079
 10
388.7180305941813
 20
392.9457816159885
 97
        5
330
322F
330
3230
330
322D
330
3231
330
322E
 92
        7
 72
     0
 73
     1
 93
        5
 10
388.7180305941813
 20
392.9457816159885
 10
384.4753899070618
 20
397.1884223031078
 10
361.4944195184992
 20
374.2074519145451
 10
364.3228466432453
 20
371.3790247897986
 10
367.1512737679915
 20
371.3790247897988
 97
        5
330
3231
330
322D
330
3235
330
3236
330
322E
 75
     0
 76
     0
 52
90.0
 41
5.0
 77
     0
 78
     1
 53
90.0
 43
0.0000000000002274
 44
-0.000719721076905
 45
-5.0
 46
0.0000000000000003
 79
     0
 47
0.2048183592830846
 98
        2
 10
396.7055272877544
 20
403.4739956946181
 10
380.3144650554111
 20
387.9078005600572
  0
LINE
  5
322D
102
{ACAD_REACTORS
330
322C
102
}
330
106E
100
AcDbEntity
  8
STEMPEL
100
AcDbLine
 10
407.4563602956247
 20
420.1693926916707
 30
0.0
 11
361.4944195184991
 21
374.207451914545
 31
0.0
  0
LINE
  5
322E
102
{ACAD_REACTORS
330
322C
102
}
330
106E
100
AcDbEntity
  8
STEMPEL
100
AcDbLine
 10
410.2847874203709
 20
414.5125384421783
 30
0.0
 11
367.1512737679915
 21
371.3790247897988
 31
0.0
  0
LINE
  5
322F
102
{ACAD_REACTORS
330
322C
102
}
330
106E
100
AcDbEntity
  8
STEMPEL
100
AcDbLine
 10
410.2847874203709
 20
417.3409655669245
 30
0.0
 11
410.2847874203709
 21
414.5125384421783
 31
0.0
  0
LINE
  5
3230
102
{ACAD_REACTORS
330
322C
102
}
330
106E
100
AcDbEntity
  8
STEMPEL
100
AcDbLine
 10
407.4563602956247
 20
420.1693926916707
 30
0.0
 11
410.2847874203709
 21
417.3409655669245
 31
0.0
  0
LINE
  5
3231
102
{ACAD_REACTORS
330
322C
102
}
330
106E
100
AcDbEntity
  8
MITTEL
100
AcDbLine
 10
392.2535645001137
 20
389.410247710056
 30
0.0
 11
371.0403610645176
 21
410.623451145652
 31
0.0
  0
ARC
  5
3232
330
106E
100
AcDbEntity
  8
STEMPEL
100
AcDbCircle
 10
376.7679259921286
 20
390.5416185599543
 30
0.0
 40
0.7500000000000013
100
AcDbArc
 50
155.0000000000006
 51
314.9999991462254
  0
LINE
  5
3233
330
106E
100
AcDbEntity
  8
HILF
100
AcDbLine
 10
389.4251373753675
 20
386.5818205853098
 30
0.0
 11
385.8896034694351
 21
390.1173544912423
 31
0.0
  0
LINE
  5
3234
330
106E
100
AcDbEntity
  8
STEMPEL
100
AcDbLine
 10
388.7180305941811
 20
385.8747138041232
 30
0.0
 11
385.1824966882485
 21
389.4102477100558
 31
0.0
  0
LINE
  5
3235
102
{ACAD_REACTORS
330
322C
102
}
330
106E
100
AcDbEntity
  8
STEMPEL
100
AcDbLine
 10
361.4944195184992
 20
374.2074519145451
 30
0.0
 11
364.3228466432454
 21
371.3790247897987
 31
0.0
  0
LINE
  5
3236
102
{ACAD_REACTORS
330
322C
102
}
330
106E
100
AcDbEntity
  8
STEMPEL
100
AcDbLine
 10
367.1512737679915
 20
371.3790247897988
 30
0.0
 11
364.3228466432454
 21
371.3790247897987
 31
0.0
  0
ARC
  5
3237
330
106E
100
AcDbEntity
  8
HILF
100
AcDbCircle
 10
391.3652097597034
 20
399.4841889859032
 30
0.0
 40
5.761140599691502
100
AcDbArc
 50
112.9259452632616
 51
157.0740547367377
  0
LINE
  5
3238
330
106E
100
AcDbEntity
  8
STEMPEL
100
AcDbLine
 10
389.1210089963175
 20
404.7902519277681
 30
0.0
 11
383.7478782659108
 21
410.1633826581748
 31
0.0
  0
LINE
  5
3239
330
106E
100
AcDbEntity
  8
STEMPEL
100
AcDbLine
 10
390.8052299539099
 20
405.5756170583186
 30
0.0
 11
376.0881951518511
 21
390.8585822562598
 31
0.0
  0
LINE
  5
323A
330
106E
100
AcDbEntity
  8
STEMPEL
100
AcDbLine
 10
391.6525237361054
 20
404.3655561321513
 30
0.0
 11
377.2982560780184
 21
390.0112884740644
 31
0.0
  0
LINE
  5
323B
330
106E
100
AcDbEntity
  8
STEMPEL
100
AcDbLine
 10
373.8687881892636
 20
400.7239562090405
 30
0.0
 11
371.747467845704
 21
402.8452765526002
 31
0.0
  0
ARC
  5
323C
330
106E
100
AcDbEntity
  8
HILF
100
AcDbCircle
 10
398.5457266490395
 20
383.1180855611302
 30
0.0
 40
22.41111549782308
100
AcDbArc
 50
123.8596278389052
 51
146.1403721610947
  0
ARC
  5
323D
330
106E
100
AcDbEntity
  8
STEMPEL
100
AcDbCircle
 10
398.8373573445489
 20
382.8264548656208
 30
0.0
 40
30.31088913245485
100
AcDbArc
 50
126.7867892982606
 51
143.2132107017393
  0
LINE
  5
323E
330
106E
100
AcDbEntity
  8
STEMPEL
100
AcDbLine
 10
372.1010212362974
 20
398.9561892560742
 30
0.0
 11
382.7076229540955
 21
409.5627909738723
 31
0.0
  0
LINE
  5
323F
330
106E
100
AcDbEntity
  8
STEMPEL
100
AcDbLine
 10
379.9354224608805
 20
395.6046653923312
 30
0.0
 11
374.5622917304738
 21
400.9777961227379
 31
0.0
  0
ARC
  5
3240
330
106E
100
AcDbEntity
  8
HILF
100
AcDbCircle
 10
382.1796232242665
 20
390.2986024504663
 30
0.0
 40
5.761140599691502
100
AcDbArc
 50
112.9259452632616
 51
157.0740547367377
  0
LINE
  5
3241
330
106E
100
AcDbEntity
  8
STEMPEL
100
AcDbLine
 10
372.1010212362974
 20
398.9561892560742
 30
0.0
 11
371.5004295519948
 21
397.9159339442589
 31
0.0
  0
ARC
  5
3242
330
106E
100
AcDbEntity
  8
STEMPEL
100
AcDbCircle
 10
378.2522245699747
 20
394.2260011047581
 30
0.0
 40
7.694305707784447
100
AcDbArc
 50
118.6571066940175
 51
151.3428933059861
  0
LINE
  5
3243
330
106E
100
AcDbEntity
  8
STEMPEL
100
AcDbLine
 10
376.8735602824016
 20
392.5428032138523
 30
0.0
 11
376.0881951518511
 21
390.8585822562598
 31
0.0
  0
LINE
  5
3244
330
106E
100
AcDbEntity
  8
STEMPEL
100
AcDbLine
 10
376.8735602824016
 20
392.5428032138523
 30
0.0
 11
371.5004295519948
 21
397.9159339442589
 31
0.0
  0
POINT
  5
3245
330
106E
100
AcDbEntity
  8
0
100
AcDbPoint
 10
384.4753899070619
 20
397.1884223031078
 30
0.0
210
-0.7071067811865475
220
0.7071067811865476
230
0.0
  0
LINE
  5
3246
330
106E
100
AcDbEntity
  8
HILF
100
AcDbLine
 10
380.2327492199424
 20
407.0879172397193
 30
0.0
 11
377.4043220951962
 21
409.9163443644656
 31
0.0
  0
LINE
  5
3247
330
106E
100
AcDbEntity
  8
STEMPEL
100
AcDbLine
 10
380.939856001129
 20
407.795024020906
 30
0.0
 11
378.8185356575693
 21
409.9163443644656
 31
0.0
  0
LINE
  5
3248
330
106E
100
AcDbEntity
  8
HILF
100
AcDbLine
 10
374.5758949704501
 20
401.4310629902269
 30
0.0
 11
371.7474678457038
 21
404.2594901149732
 31
0.0
  0
LINE
  5
3249
330
106E
100
AcDbEntity
  8
STEMPEL
100
AcDbLine
 10
378.8185356575693
 20
409.9163443644656
 30
0.0
 11
377.4043220951962
 21
409.9163443644655
 31
0.0
  0
LINE
  5
324A
330
106E
100
AcDbEntity
  8
STEMPEL
100
AcDbLine
 10
371.747467845704
 20
402.8452765526002
 30
0.0
 11
371.747467845704
 21
404.2594901149731
 31
0.0
  0
LINE
  5
324B
330
106E
100
AcDbEntity
  8
STEMPEL
100
AcDbLine
 10
371.747467845704
 20
404.2594901149732
 30
0.0
 11
377.404322095196
 21
409.9163443644655
 31
0.0
  0
LINE
  5
324C
330
106E
100
AcDbEntity
  8
STEMPEL
100
AcDbLine
 10
371.747467845704
 20
402.8452765526003
 30
0.0
 11
378.8185356575695
 21
409.9163443644656
 31
0.0
  0
LINE
  5
324D
330
106E
100
AcDbEntity
  8
STEMPEL
100
AcDbLine
 10
383.7478782659108
 20
410.1633826581748
 30
0.0
 11
382.7076229540955
 21
409.5627909738723
 31
0.0
  0
ARC
  5
324E
330
106E
100
AcDbEntity
  8
STEMPEL
100
AcDbCircle
 10
387.4378111054117
 20
403.411587640195
 30
0.0
 40
7.694305707784447
100
AcDbArc
 50
118.6571066940145
 51
151.3428933059825
  0
LINE
  5
324F
330
106E
100
AcDbEntity
  8
STEMPEL
100
AcDbLine
 10
386.0591468178385
 20
401.7283897492892
 30
0.0
 11
380.6860160874318
 21
407.1015204796958
 31
0.0
  0
LINE
  5
3250
330
106E
100
AcDbEntity
  8
STEMPEL
100
AcDbLine
 10
395.7890984060464
 20
392.9457816159888
 30
0.0
 11
392.253564500114
 21
396.4813155219212
 31
0.0
  0
LINE
  5
3251
330
106E
100
AcDbEntity
  8
HILF
100
AcDbLine
 10
395.0819916248599
 20
392.2386748348022
 30
0.0
 11
391.5464577189274
 21
395.7742087407347
 31
0.0
  0
ARC
  5
3252
330
106E
100
AcDbEntity
  8
STEMPEL
100
AcDbCircle
 10
391.1221936502154
 20
404.8958862180412
 30
0.0
 40
0.750000000000001
100
AcDbArc
 50
314.9999991462254
 51
114.9999999999993
  0
LINE
  5
3253
330
106E
100
AcDbEntity
  8
STEMPEL
100
AcDbLine
 10
390.8052299539099
 20
405.5756170583186
 30
0.0
 11
389.1210089963175
 21
404.7902519277681
 31
0.0
  0
LINE
  5
33E9
330
106E
100
AcDbEntity
  8
MITTEL
100
AcDbLine
 10
204.8774101606154
 20
332.7914526834379
 30
0.0
 11
204.8774101606147
 21
462.2914526834374
 31
0.0
  0
TEXT
  5
344E
330
106E
100
AcDbEntity
  8
TEXT
 62
     1
100
AcDbText
 10
435.0867931281261
 20
420.9152657060196
 30
0.0
 40
7.0
  1
EDV-Art.Nr. 01378.000X
 41
0.8
  7
GREEKS
100
AcDbText
  0
DIMENSION
  5
3458
330
106E
100
AcDbEntity
  8
BEM
100
AcDbDimension
  2
*D5
 10
57.76324281727762
 20
340.791452683438
 30
0.0
 11
51.86324281727756
 21
311.7914526834379
 31
0.0
 70
    32
 71
     5
 42
58.0
  3
STANDARD
100
AcDbAlignedDimension
 13
150.8965552678308
 23
282.7914526834379
 33
0.0
 14
69.87741016061523
 24
340.791452683438
 34
0.0
 50
90.0
100
AcDbRotatedDimension
  0
TEXT
  5
362E
330
106E
100
AcDbEntity
  8
TEXT
 62
     1
100
AcDbText
 10
384.7054460682205
 20
465.4339267573474
 30
0.0
 40
7.0
  1
Losflansch
 41
0.8
  7
GREEKS
100
AcDbText
  0
TEXT
  5
362F
330
106E
100
AcDbEntity
  8
TEXT
 62
     1
100
AcDbText
 10
383.9759382458872
 20
450.9914030019174
 30
0.0
 40
7.0
  1
EDV-Art.Nr. 19928.100X
 41
0.8
  7
GREEKS
100
AcDbText
  0
LINE
  5
3630
330
106E
100
AcDbEntity
  8
TEXT
 62
     2
100
AcDbLine
 10
382.0562624491697
 20
462.1633991564983
 30
0.0
 11
488.4908535667384
 21
462.1633991564983
 31
0.0
  0
LINE
  5
3631
330
106E
100
AcDbEntity
  8
TEXT
 62
     2
100
AcDbLine
 10
382.0562624491697
 20
462.1633991564983
 30
0.0
 11
333.3533143850782
 21
347.9451862549755
 31
0.0
  0
DIMENSION
  5
3632
330
106E
100
AcDbEntity
  8
BEM
100
AcDbDimension
  2
*D6
 10
334.8774101606156
 20
484.0899302931756
 30
0.0
 11
204.8774101606156
 21
489.9899302931756
 31
0.0
 70
    32
 71
     5
 42
260.0
  3
STANDARD
100
AcDbAlignedDimension
 13
74.87741016061562
 23
366.7914526834382
 33
0.0
 14
334.8774101606156
 24
366.7914526834371
 34
0.0
100
AcDbRotatedDimension
  0
DIMENSION
  5
3633
330
106E
100
AcDbEntity
  8
BEM
100
AcDbDimension
  2
*D7
 10
314.8774101606158
 20
470.0649765386412
 30
0.0
 11
204.8774101606157
 21
475.9649765386412
 31
0.0
 70
    32
 71
     5
 42
220.0000000000002
  3
STANDARD
100
AcDbAlignedDimension
 13
94.87741016061557
 23
435.7913947161226
 33
0.0
 14
314.8774101606158
 24
435.7913947161216
 34
0.0
100
AcDbRotatedDimension
  0
LINE
  5
3635
330
106E
100
AcDbEntity
  8
STEMPEL
100
AcDbLine
 10
284.8774101606159
 20
454.791452683437
 30
0.0
 11
124.8774101606157
 21
454.791452683438
 31
0.0
  0
LINE
  5
3636
330
106E
100
AcDbEntity
  8
HILF
100
AcDbLine
 10
102.5510771030851
 20
438.791452683441
 30
0.0
 11
307.7037432181465
 21
438.7914526834398
 31
0.0
  0
LINE
  5
3637
330
106E
100
AcDbEntity
  8
STEMPEL
100
AcDbLine
 10
284.8774101606159
 20
455.7914526834366
 30
0.0
 11
230.1390479882665
 21
455.7914526834372
 31
0.0
  0
LINE
  5
363A
102
{ACAD_REACTORS
330
36FE
102
}
330
106E
100
AcDbEntity
  8
STEMPEL
100
AcDbLine
 10
77.8774101606154
 20
345.7914526834383
 30
0.0
 11
331.8774101606154
 21
345.7914526834375
 31
0.0
  0
LINE
  5
363B
330
106E
100
AcDbEntity
  8
STEMPEL
100
AcDbLine
 10
275.9748589625643
 20
351.7914526834374
 30
0.0
 11
331.8774101606154
 21
351.7914526834372
 31
0.0
  0
LINE
  5
363C
102
{ACAD_REACTORS
330
36FE
102
}
330
106E
100
AcDbEntity
  8
STEMPEL
100
AcDbLine
 10
334.8774101606155
 20
365.7914526834371
 30
0.0
 11
274.5202794148728
 21
365.7914526834373
 31
0.0
  0
LWPOLYLINE
  5
363D
330
106E
100
AcDbEntity
  8
STEMPEL
100
AcDbPolyline
 90
       18
 70
   128
 43
0.0
 10
-295.7136851036868
 20
378.2914526834355
 10
-295.6359452024267
 20
379.66957406706
 10
-295.4053728377449
 20
381.0007651798397
 10
-295.0298198749797
 20
382.2396939050165
 10
-294.522075319852
 20
383.3441700107857
 10
-293.899429804214
 20
384.2765818880386
 10
-293.1830867743201
 20
385.0051773685999
 10
-292.3974404328941
 20
385.5051450072331
 10
-291.5692450238147
 20
385.7594590056498
 10
-290.726703748427
 20
385.7594590056499
 10
-289.8985083393476
 20
385.5051450072332
 10
-289.1128619979216
 20
385.0051773685999
 10
-288.3965189680276
 20
384.2765818880386
 10
-287.7738734523897
 20
383.3441700107858
 10
-287.266128897262
 20
382.2396939050165
 10
-286.8905759344968
 20
381.0007651798397
 10
-286.660003569815
 20
379.6695740670601
 10
-286.5822636685549
 20
378.2914526834355
210
0.0
220
0.0
230
-1.0
  0
LWPOLYLINE
  5
363E
330
106E
100
AcDbEntity
  8
STEMPEL
100
AcDbPolyline
 90
       10
 70
   128
 43
0.0
 10
-291.9431952729418
 20
385.7914526834386
 10
-291.1503679270822
 20
385.6775108310302
 10
-290.3816302389364
 20
385.3391473393329
 10
-289.6603399141588
 20
384.7866432118218
 10
-289.0084129942774
 20
384.0367860068306
 10
-288.4456579488617
 20
383.1123597560872
 10
-287.9891738051988
 20
382.0414526834379
 10
-287.652830603002
 20
380.8566037583802
 10
-287.446847960272
 20
379.5938140159393
 10
-287.3774845553759
 20
378.2914526834371
210
0.0
220
0.0
230
-1.0
  0
LWPOLYLINE
  5
363F
330
106E
100
AcDbEntity
  8
STEMPEL
100
AcDbPolyline
 90
       10
 70
   128
 43
0.0
 10
290.9459698431608
 20
365.7914526834373
 10
290.1882202180666
 20
365.8826061653641
 10
289.453494431891
 20
366.1532969587219
 10
288.7641167558579
 20
366.5953002607308
 10
288.1410335818116
 20
367.1951860247236
 10
287.6031769767001
 20
367.9347270253183
 10
287.1668894413012
 20
368.7914526834376
 10
286.8454273516059
 20
369.7393318234836
 10
286.6485581705419
 20
370.7495636174361
 10
286.5822636685551
 20
371.7914526834378
  0
LWPOLYLINE
  5
3640
330
106E
100
AcDbEntity
  8
STEMPEL
100
AcDbPolyline
 90
        7
 70
   128
 43
0.0
 10
289.329061383894
 20
366.7914526834374
 10
288.7671324106299
 20
367.4007905852782
 10
288.2851944710428
 20
368.1282208585675
 10
287.8962098912929
 20
368.9541783525111
 10
287.6106409001864
 20
369.8564479029734
 10
287.4361682343906
 20
370.8107618372167
 10
287.3774845553756
 20
371.7914526834378
  0
ARC
  5
3641
330
106E
100
AcDbEntity
  8
STEMPEL
100
AcDbCircle
 10
287.1498235201367
 20
331.4805635509825
 30
0.0
 40
30.31088913245485
100
AcDbArc
 50
81.78678929826221
 51
98.2132107017378
  0
LINE
  5
3642
330
106E
100
AcDbEntity
  8
STEMPEL
100
AcDbLine
 10
279.6498235201367
 20
361.7914526834373
 30
0.0
 11
294.6498235201367
 21
361.7914526834373
 31
0.0
  0
ARC
  5
3643
330
106E
100
AcDbEntity
  8
HILF
100
AcDbCircle
 10
287.1498235201367
 20
331.8929916357761
 30
0.0
 40
22.41111549782308
100
AcDbArc
 50
78.85962783890615
 51
101.1403721610938
  0
LINE
  5
3645
330
106E
100
AcDbEntity
  8
STEMPEL
100
AcDbLine
 10
297.556338627631
 20
353.2462221490268
 30
0.0
 11
276.7433084126425
 21
353.2462221490268
 31
0.0
  0
LINE
  5
3646
330
106E
100
AcDbEntity
  8
STEMPEL
100
AcDbLine
 10
282.149823520137
 20
364.7914526834377
 30
0.0
 11
292.1498235201368
 21
364.7914526834376
 31
0.0
  0
LINE
  5
3647
330
106E
100
AcDbEntity
  8
STEMPEL
100
AcDbLine
 10
283.1498235201368
 20
365.7914526834377
 30
0.0
 11
291.1498235201364
 21
365.7914526834379
 31
0.0
  0
LINE
  5
3648
330
106E
100
AcDbEntity
  8
MITTEL
100
AcDbLine
 10
265.8774101606153
 20
340.7914526834371
 30
0.0
 11
265.8774101606155
 21
370.791452683437
 31
0.0
  0
LINE
  5
3649
330
106E
100
AcDbEntity
  8
HILF
100
AcDbLine
 10
283.1498235201368
 20
340.7914526834379
 30
0.0
 11
283.1498235201367
 21
345.7914526834378
 31
0.0
  0
LINE
  5
364A
330
106E
100
AcDbEntity
  8
STEMPEL
100
AcDbLine
 10
282.1498235201368
 20
340.7914526834379
 30
0.0
 11
282.1498235201368
 21
345.7914526834377
 31
0.0
  0
LINE
  5
364B
330
106E
100
AcDbEntity
  8
MITTEL
100
AcDbLine
 10
287.1498235201368
 20
340.7914526834379
 30
0.0
 11
287.1498235201366
 21
370.7914526834374
 31
0.0
  0
LWPOLYLINE
  5
364F
330
106E
100
AcDbEntity
  8
STEMPEL
100
AcDbPolyline
 90
       10
 70
   128
 43
0.0
 10
280.6878955467273
 20
365.7914526834373
 10
280.0518911867264
 20
365.8826061653641
 10
279.4352114973702
 20
366.1532969587219
 10
278.8565939789652
 20
366.5953002607308
 10
278.3336196320133
 20
367.1951860247236
 10
277.8821787674088
 20
367.9347270253184
 10
277.5159881873829
 20
368.7914526834376
 10
277.246174407408
 20
369.7393318234837
 10
277.0809355826563
 20
370.7495636174362
 10
277.0252924112032
 20
371.7914526834379
  0
LINE
  5
3650
330
106E
100
AcDbEntity
  8
STEMPEL
100
AcDbLine
 10
278.4895694822923
 20
353.8818091996372
 30
0.0
 11
278.4895694822923
 21
361.480563550982
 31
0.0
  0
LINE
  5
3651
330
106E
100
AcDbEntity
  8
STEMPEL
100
AcDbLine
 10
282.8196965012145
 20
353.8818091996372
 30
0.0
 11
282.8196965012145
 21
361.480563550982
 31
0.0
  0
ARC
  5
3652
330
106E
100
AcDbEntity
  8
HILF
100
AcDbCircle
 10
280.6546329917534
 20
348.5429665339077
 30
0.0
 40
5.761140599691502
100
AcDbArc
 50
67.92594526326206
 51
112.0740547367379
  0
ARC
  5
3654
330
106E
100
AcDbEntity
  8
STEMPEL
100
AcDbCircle
 10
276.9998235201367
 20
352.5414526834373
 30
0.0
 40
0.7500000000000013
100
AcDbArc
 50
109.9999999999995
 51
269.9999991462263
  0
LINE
  5
3655
330
106E
100
AcDbEntity
  8
STEMPEL
100
AcDbLine
 10
278.4895694822923
 20
353.8818091996372
 30
0.0
 11
276.7433084126425
 21
353.2462221490268
 31
0.0
  0
ARC
  5
3657
330
106E
100
AcDbEntity
  8
STEMPEL
100
AcDbCircle
 10
280.6546329917534
 20
354.0971469756529
 30
0.0
 40
7.694305707784447
100
AcDbArc
 50
73.65710669401501
 51
106.342893305985
  0
LINE
  5
3658
330
106E
100
AcDbEntity
  8
STEMPEL
100
AcDbLine
 10
279.6498235201367
 20
361.7914526834373
 30
0.0
 11
278.4895694822923
 21
361.480563550982
 31
0.0
  0
LINE
  5
365A
330
106E
100
AcDbEntity
  8
STEMPEL
100
AcDbLine
 10
282.1498235201368
 20
361.7914526834373
 30
0.0
 11
282.1498235201368
 21
364.7914526834377
 31
0.0
  0
LINE
  5
365B
330
106E
100
AcDbEntity
  8
HILF
100
AcDbLine
 10
283.1498235201366
 20
361.7914526834373
 30
0.0
 11
283.1498235201366
 21
365.7914526834379
 31
0.0
  0
LINE
  5
365C
330
106E
100
AcDbEntity
  8
STEMPEL
100
AcDbLine
 10
282.1498235201368
 20
364.7914526834377
 30
0.0
 11
283.1498235201368
 21
365.7914526834376
 31
0.0
  0
LWPOLYLINE
  5
365E
330
106E
100
AcDbEntity
  8
STEMPEL
100
AcDbPolyline
 90
        7
 70
   128
 43
0.0
 10
-277.0252924112034
 20
378.2914526834356
 10
-276.923979799399
 20
379.6695740670601
 10
-276.6234920434698
 20
381.0007651798398
 10
-276.1340618935486
 20
382.2396939050165
 10
-275.4723563063842
 20
383.3441700107858
 10
-274.6609088721191
 20
384.2765818880387
 10
-273.852738634622
 20
384.9073195433743
210
0.0
220
0.0
230
-1.0
  0
LINE
  5
3660
330
106E
100
AcDbEntity
  8
STEMPEL
100
AcDbLine
 10
287.3774845553758
 20
378.2914526834355
 30
0.0
 11
287.3774845553757
 21
371.7914526834389
 31
0.0
  0
LINE
  5
3661
330
106E
100
AcDbEntity
  8
STEMPEL
100
AcDbLine
 10
286.582263668555
 20
378.2914526834355
 30
0.0
 11
286.582263668555
 21
371.7914526834389
 31
0.0
  0
LINE
  5
3662
330
106E
100
AcDbEntity
  8
STEMPEL
100
AcDbLine
 10
277.0252924112033
 20
378.2914526834356
 30
0.0
 11
277.0252924112032
 21
371.791452683439
 31
0.0
  0
LINE
  5
3663
330
106E
100
AcDbEntity
  8
STEMPEL
100
AcDbLine
 10
278.6633154873085
 20
366.7914526834374
 30
0.0
 11
274.4853586453811
 21
366.7914526834372
 31
0.0
  0
LINE
  5
3664
330
106E
100
AcDbEntity
  8
STEMPEL
100
AcDbLine
 10
313.8774101606157
 20
435.7913947161216
 30
0.0
 11
313.8774101606154
 21
371.7914526834376
 31
0.0
  0
LINE
  5
3665
330
106E
100
AcDbEntity
  8
STEMPEL
100
AcDbLine
 10
314.8774101606158
 20
435.7913947161216
 30
0.0
 11
314.8774101606155
 21
371.7914526834376
 31
0.0
  0
LINE
  5
3666
330
106E
100
AcDbEntity
  8
HILF
100
AcDbLine
 10
291.1498235201368
 20
340.7914526834379
 30
0.0
 11
291.1498235201367
 21
345.7914526834377
 31
0.0
  0
LINE
  5
3667
330
106E
100
AcDbEntity
  8
STEMPEL
100
AcDbLine
 10
292.1498235201368
 20
340.791452683438
 30
0.0
 11
292.1498235201367
 21
345.7914526834376
 31
0.0
  0
LINE
  5
3668
330
106E
100
AcDbEntity
  8
STEMPEL
100
AcDbLine
 10
334.8774101606155
 20
366.7914526834371
 30
0.0
 11
319.8774101606153
 21
366.7914526834376
 31
0.0
  0
LWPOLYLINE
  5
3669
330
106E
100
AcDbEntity
  8
STEMPEL
100
AcDbPolyline
 90
       10
 70
   128
 43
0.0
 10
300.0773912782927
 20
365.7914526834373
 10
299.3196416531985
 20
365.8826061653641
 10
298.5849158670229
 20
366.1532969587219
 10
297.8955381909898
 20
366.5953002607307
 10
297.2724550169435
 20
367.1951860247235
 10
296.734598411832
 20
367.9347270253182
 10
296.298310876433
 20
368.7914526834375
 10
295.9768487867378
 20
369.7393318234836
 10
295.7799796056738
 20
370.7495636174361
 10
295.7136851036869
 20
371.7914526834377
  0
ARC
  5
366A
330
106E
100
AcDbEntity
  8
STEMPEL
100
AcDbCircle
 10
319.8774101606154
 20
371.7914526834376
 30
0.0
 40
6.0
100
AcDbArc
 50
180.0
 51
269.9999999999984
  0
ARC
  5
366B
330
106E
100
AcDbEntity
  8
STEMPEL
100
AcDbCircle
 10
319.8774101606154
 20
371.7914526834376
 30
0.0
 40
5.0
100
AcDbArc
 50
180.0
 51
269.9999999999984
  0
LWPOLYLINE
  5
366C
330
106E
100
AcDbEntity
  8
STEMPEL
100
AcDbPolyline
 90
       10
 70
   128
 43
0.0
 10
319.1737116506109
 20
365.7914526834383
 10
318.3156386543382
 20
365.8575798980109
 10
317.4628264547159
 20
366.1101336477412
 10
316.642068147799
 20
366.5411793640588
 10
315.8791497814001
 20
367.1371747344987
 10
315.1980402259008
 20
367.8793951662194
 10
314.6201381359551
 20
368.7445220630168
 10
314.1635996615489
 20
369.7053754337328
 10
313.8427680299513
 20
370.7317678154451
 10
313.6677229195802
 20
371.7914526834377
  0
LWPOLYLINE
  5
366D
330
106E
100
AcDbEntity
  8
STEMPEL
100
AcDbPolyline
 90
       10
 70
   128
 43
0.0
 10
317.2158187673105
 20
365.7914526834372
 10
316.3577457710377
 20
365.8575798980099
 10
315.5049335714155
 20
366.1101336477401
 10
314.6841752644985
 20
366.5411793640577
 10
313.9212568980996
 20
367.1371747344976
 10
313.2401473426003
 20
367.8793951662182
 10
312.6622452526546
 20
368.7445220630157
 10
312.2057067782484
 20
369.7053754337317
 10
311.8848751466508
 20
370.7317678154439
 10
311.7098300362797
 20
371.7914526834365
  0
LWPOLYLINE
  5
366E
330
106E
100
AcDbEntity
  8
STEMPEL
100
AcDbPolyline
 90
       10
 70
   128
 43
0.0
 10
307.2868488139425
 20
365.7914526834372
 10
306.4506695391009
 20
365.882606165364
 10
305.6398971483983
 20
366.1532969587218
 10
304.8791665506555
 20
366.5953002607306
 10
304.1915921601368
 20
367.1951860247235
 10
303.5980655767683
 20
367.9347270253182
 10
303.1166208054471
 20
368.7914526834375
 10
302.7618863019267
 20
369.7393318234836
 10
302.5446404945926
 20
370.7495636174361
 10
302.4714842873686
 20
371.7914526834377
  0
LWPOLYLINE
  5
366F
330
106E
100
AcDbEntity
  8
STEMPEL
100
AcDbPolyline
 90
       10
 70
   128
 43
0.0
 10
313.0271002994202
 20
365.7914526834372
 10
312.1909210245787
 20
365.882606165364
 10
311.380148633876
 20
366.1532969587218
 10
310.6194180361332
 20
366.5953002607306
 10
309.9318436456145
 20
367.1951860247235
 10
309.3383170622461
 20
367.9347270253182
 10
308.8568722909248
 20
368.7914526834374
 10
308.5021377874045
 20
369.7393318234835
 10
308.2848919800703
 20
370.749563617436
 10
308.2117357728463
 20
371.7914526834377
  0
LINE
  5
3670
330
106E
100
AcDbEntity
  8
STEMPEL
100
AcDbLine
 10
291.4799505390589
 20
353.8818091996372
 30
0.0
 11
291.4799505390589
 21
361.480563550982
 31
0.0
  0
LINE
  5
3671
330
106E
100
AcDbEntity
  8
STEMPEL
100
AcDbLine
 10
295.8100775579811
 20
353.8818091996372
 30
0.0
 11
295.8100775579811
 21
361.480563550982
 31
0.0
  0
LINE
  5
3672
330
106E
100
AcDbEntity
  8
STEMPEL
100
AcDbLine
 10
297.556338627631
 20
353.2462221490268
 30
0.0
 11
295.8100775579811
 21
353.8818091996372
 31
0.0
  0
ARC
  5
3673
330
106E
100
AcDbEntity
  8
HILF
100
AcDbCircle
 10
293.64501404852
 20
348.5429665339077
 30
0.0
 40
5.761140599691502
100
AcDbArc
 50
67.92594526326206
 51
112.0740547367379
  0
ARC
  5
3674
330
106E
100
AcDbEntity
  8
STEMPEL
100
AcDbCircle
 10
297.2998235201367
 20
352.5414526834373
 30
0.0
 40
0.750000000000001
100
AcDbArc
 50
269.9999991462263
 51
70.00000000000047
  0
LINE
  5
3675
330
106E
100
AcDbEntity
  8
STEMPEL
100
AcDbLine
 10
295.8100775579811
 20
361.480563550982
 30
0.0
 11
294.6498235201367
 21
361.7914526834373
 31
0.0
  0
ARC
  5
3676
330
106E
100
AcDbEntity
  8
STEMPEL
100
AcDbCircle
 10
293.64501404852
 20
354.0971469756529
 30
0.0
 40
7.694305707784447
100
AcDbArc
 50
73.65710669401501
 51
106.342893305985
  0
LINE
  5
3677
330
106E
100
AcDbEntity
  8
HILF
100
AcDbLine
 10
291.1498235201366
 20
361.7914526834373
 30
0.0
 11
291.1498235201366
 21
365.7914526834377
 31
0.0
  0
LINE
  5
3678
330
106E
100
AcDbEntity
  8
STEMPEL
100
AcDbLine
 10
292.1498235201366
 20
361.7914526834373
 30
0.0
 11
292.1498235201366
 21
364.7914526834377
 31
0.0
  0
LINE
  5
3679
330
106E
100
AcDbEntity
  8
STEMPEL
100
AcDbLine
 10
292.1498235201366
 20
364.7914526834377
 30
0.0
 11
291.1498235201366
 21
365.7914526834377
 31
0.0
  0
LWPOLYLINE
  5
367A
330
106E
100
AcDbEntity
  8
STEMPEL
100
AcDbPolyline
 90
        9
 70
   128
 43
0.0
 10
-305.8046371983595
 20
385.6932109281006
 10
-305.3155766550908
 20
385.3667780303431
 10
-304.8559636871898
 20
384.8215090170859
 10
-304.4400138835656
 20
384.0742687739579
 10
-304.080592354274
 20
383.1481690511804
 10
-303.7888158193865
 20
382.0718536292101
 10
-303.5737087746483
 20
380.8786123815793
 10
-303.4419243685409
 20
379.6053516365034
 10
-303.397538623876
 20
378.2914526834371
210
0.0
220
0.0
230
-1.0
  0
LWPOLYLINE
  5
367B
330
106E
100
AcDbEntity
  8
STEMPEL
100
AcDbPolyline
 90
       18
 70
   128
 43
0.0
 10
-308.2117357728464
 20
378.2914526834354
 10
-308.1628664279301
 20
379.66957406706
 10
-308.0179225801101
 20
381.0007651798396
 10
-307.7818401182828
 20
382.2396939050164
 10
-307.4626585475361
 20
383.3441700107857
 10
-307.0712472134458
 20
384.2765818880385
 10
-306.6209351595478
 20
385.0051773685998
 10
-306.1270572227483
 20
385.5051450072331
 10
-305.6064318238434
 20
385.7594590056498
 10
-305.0767882363716
 20
385.7594590056498
 10
-304.5561628374667
 20
385.5051450072331
 10
-304.0622849006672
 20
385.0051773685999
 10
-303.6119728467693
 20
384.2765818880386
 10
-303.220561512679
 20
383.3441700107857
 10
-302.9013799419322
 20
382.2396939050165
 10
-302.665297480105
 20
381.0007651798397
 10
-302.5203536322849
 20
379.66957406706
 10
-302.4714842873686
 20
378.2914526834355
210
0.0
220
0.0
230
-1.0
  0
LWPOLYLINE
  5
367C
330
106E
100
AcDbEntity
  8
STEMPEL
100
AcDbPolyline
 90
        7
 70
   128
 43
0.0
 10
305.5511102565445
 20
366.7914526834372
 10
304.9310197334801
 20
367.4007905852781
 10
304.3991995866968
 20
368.1282208585673
 10
303.9699537869655
 20
368.9541783525111
 10
303.6548274391682
 20
369.8564479029733
 10
303.4622962622023
 20
370.8107618372165
 10
303.3975386238759
 20
371.7914526834377
  0
LINE
  5
367D
330
106E
100
AcDbEntity
  8
STEMPEL
100
AcDbLine
 10
303.3975386238759
 20
378.2914526834355
 30
0.0
 11
303.3975386238759
 21
371.7914526834389
 31
0.0
  0
LINE
  5
367E
330
106E
100
AcDbEntity
  8
STEMPEL
100
AcDbLine
 10
302.4714842873686
 20
378.2914526834355
 30
0.0
 11
302.4714842873686
 21
371.7914526834389
 31
0.0
  0
LINE
  5
367F
330
106E
100
AcDbEntity
  8
STEMPEL
100
AcDbLine
 10
295.7136851036869
 20
378.2914526834355
 30
0.0
 11
295.7136851036868
 21
371.7914526834389
 31
0.0
  0
LINE
  5
3680
330
106E
100
AcDbEntity
  8
STEMPEL
100
AcDbLine
 10
297.6652619322053
 20
366.7914526834373
 30
0.0
 11
289.3290613838933
 21
366.7914526834374
 31
0.0
  0
LINE
  5
3681
330
106E
100
AcDbEntity
  8
STEMPEL
100
AcDbLine
 10
311.7098300362798
 20
378.2914526834354
 30
0.0
 11
311.7098300362797
 21
371.7914526834365
 31
0.0
  0
LINE
  5
3682
330
106E
100
AcDbEntity
  8
STEMPEL
100
AcDbLine
 10
312.7036087498176
 20
378.2914526834354
 30
0.0
 11
312.7036087498175
 21
371.7914526834377
 31
0.0
  0
LINE
  5
3683
330
106E
100
AcDbEntity
  8
STEMPEL
100
AcDbLine
 10
313.6677229195802
 20
378.2914526834354
 30
0.0
 11
313.6677229195802
 21
371.7914526834377
 31
0.0
  0
LINE
  5
3684
330
106E
100
AcDbEntity
  8
STEMPEL
100
AcDbLine
 10
308.2117357728464
 20
378.2914526834354
 30
0.0
 11
308.2117357728463
 21
371.7914526834388
 31
0.0
  0
LWPOLYLINE
  5
3685
330
106E
100
AcDbEntity
  8
STEMPEL
100
AcDbPolyline
 90
        7
 70
   128
 43
0.0
 10
315.3240679334884
 20
366.7914526834377
 10
314.6473660584109
 20
367.4010534112968
 10
314.047816634777
 20
368.1286124952084
 10
313.5415279616273
 20
368.9545823568886
 10
313.1421026695818
 20
369.8567713820917
 10
312.8602722543189
 20
370.8109401502854
 10
312.7036087498174
 20
371.7914526834377
  0
LINE
  5
3686
330
106E
100
AcDbEntity
  8
STEMPEL
100
AcDbLine
 10
310.3653074055149
 20
366.7914526834372
 30
0.0
 11
305.5511102565435
 21
366.7914526834372
 31
0.0
  0
LINE
  5
3687
330
106E
100
AcDbEntity
  8
STEMPEL
100
AcDbLine
 10
316.2881821032508
 20
366.7914526834372
 30
0.0
 11
315.3240679334881
 21
366.7914526834372
 31
0.0
  0
LWPOLYLINE
  5
3688
330
106E
100
AcDbEntity
  8
STEMPEL
100
AcDbPolyline
 90
       18
 70
   128
 43
0.0
 10
-313.6677229195802
 20
378.2914526834354
 10
-313.6510544961035
 20
379.66957406706
 10
-313.601616848843
 20
381.0007651798396
 10
-313.5210935175826
 20
382.2396939050164
 10
-313.4122266277909
 20
383.3441700107857
 10
-313.2787235108286
 20
384.2765818880385
 10
-313.1251304552245
 20
385.0051773685998
 10
-312.9566778882725
 20
385.5051450072331
 10
-312.7791022601035
 20
385.7594590056498
 10
-312.5984506957565
 20
385.7594590056498
 10
-312.4208750675876
 20
385.5051450072331
 10
-312.2524225006355
 20
385.0051773685998
 10
-312.0988294450314
 20
384.2765818880385
 10
-311.9653263280691
 20
383.3441700107857
 10
-311.8564594382774
 20
382.2396939050164
 10
-311.775936107017
 20
381.0007651798396
 10
-311.7264984597565
 20
379.66957406706
 10
-311.7098300362798
 20
378.2914526834354
210
0.0
220
0.0
230
-1.0
  0
LWPOLYLINE
  5
3689
330
106E
100
AcDbEntity
  8
STEMPEL
100
AcDbPolyline
 90
        7
 70
   128
 43
0.0
 10
-313.1856658346991
 20
384.7535067392752
 10
-313.0478368251288
 20
384.0014005023367
 10
-312.9289725481626
 20
383.0786868916219
 10
-312.8326245462614
 20
382.0129356417177
 10
-312.7616715987232
 20
380.8359903048966
 10
-312.7182337067153
 20
379.5830167984947
 10
-312.7036087498177
 20
378.2914526834354
210
0.0
220
0.0
230
-1.0
  0
LINE
  5
368A
330
106E
100
AcDbEntity
  8
STEMPEL
100
AcDbLine
 10
334.8774101606156
 20
366.7914526834374
 30
0.0
 11
334.8774101606157
 21
365.7914526834371
 31
0.0
  0
ARC
  5
368B
330
106E
100
AcDbEntity
  8
STEMPEL
100
AcDbCircle
 10
331.8774101606154
 20
348.7914526834374
 30
0.0
 40
3.0
100
AcDbArc
 50
270.0
 51
90.0
  0
LINE
  5
368C
330
106E
100
AcDbEntity
  8
STEMPEL
100
AcDbLine
 10
179.437895565559
 20
455.7914526834375
 30
0.0
 11
124.8774101606157
 21
455.7914526834379
 31
0.0
  0
LINE
  5
368D
330
106E
100
AcDbEntity
  8
STEMPEL
100
AcDbLine
 10
311.3967637287428
 20
440.1102901303179
 30
0.0
 11
287.4179098357918
 21
454.0979432965034
 31
0.0
  0
LINE
  5
368E
330
106E
100
AcDbEntity
  8
STEMPEL
100
AcDbLine
 10
311.9101047823236
 20
440.9685332434805
 30
0.0
 11
287.9238019068568
 21
454.9605432541691
 31
0.0
  0
LINE
  5
3694
330
106E
100
AcDbEntity
  8
STEMPEL
100
AcDbLine
 10
227.540971776913
 20
457.2914526834372
 30
0.0
 11
182.0359717769131
 21
457.2914526834374
 31
0.0
  0
LINE
  5
3695
330
106E
100
AcDbEntity
  8
STEMPEL
100
AcDbLine
 10
224.7428955655591
 20
455.7914526834372
 30
0.0
 11
222.6840479882667
 21
455.7914526834372
 31
0.0
  0
LINE
  5
3696
330
106E
100
AcDbEntity
  8
STEMPEL
100
AcDbLine
 10
224.7428955655591
 20
455.7914526834372
 30
0.0
 11
222.6840479882667
 21
455.7914526834372
 31
0.0
  0
LINE
  5
369B
330
106E
100
AcDbEntity
  8
STEMPEL
100
AcDbLine
 10
191.2878955655595
 20
455.7914526834373
 30
0.0
 11
184.8340479882655
 21
455.7914526834373
 31
0.0
  0
LINE
  5
369C
330
106E
100
AcDbEntity
  8
STEMPEL
100
AcDbLine
 10
191.2878955655595
 20
455.7914526834374
 30
0.0
 11
184.8340479882655
 21
455.7914526834374
 31
0.0
  0
LINE
  5
369D
330
106E
100
AcDbEntity
  8
TEXT
 62
     2
100
AcDbLine
 10
171.9709254018667
 20
468.3146285175182
 30
0.0
 11
179.2216763182696
 21
455.1985471501946
 31
0.0
  0
LINE
  5
369E
330
106E
100
AcDbEntity
  8
STEMPEL
100
AcDbLine
 10
182.2359717769131
 20
456.2914526834374
 30
0.0
 11
182.0359717769131
 21
456.2914526834374
 31
0.0
  0
ARC
  5
369F
330
106E
100
AcDbEntity
  8
STEMPEL
100
AcDbCircle
 10
179.437895565559
 20
457.2914526834374
 30
0.0
 40
2.5
100
AcDbArc
 50
270.0
 51
330.0000000000076
  0
ARC
  5
36A0
330
106E
100
AcDbEntity
  8
STEMPEL
100
AcDbCircle
 10
179.437895565559
 20
457.2914526834374
 30
0.0
 40
1.5
100
AcDbArc
 50
270.0
 51
330.0000000000076
  0
ARC
  5
36A1
330
106E
100
AcDbEntity
  8
STEMPEL
100
AcDbCircle
 10
182.0359717769131
 20
455.7914526834374
 30
0.0
 40
1.5
100
AcDbArc
 50
90.0
 51
150.0000000000075
  0
ARC
  5
36A2
330
106E
100
AcDbEntity
  8
STEMPEL
100
AcDbCircle
 10
182.0359717769131
 20
455.7914526834374
 30
0.0
 40
0.5
100
AcDbArc
 50
90.0
 51
150.0000000000075
  0
ARC
  5
36A3
330
106E
100
AcDbEntity
  8
STEMPEL
100
AcDbCircle
 10
184.8340479882655
 20
457.2914526834373
 30
0.0
 40
2.5
100
AcDbArc
 50
210.0000000000078
 51
270.0
  0
ARC
  5
36A4
330
106E
100
AcDbEntity
  8
STEMPEL
100
AcDbCircle
 10
184.8340479882655
 20
457.2914526834373
 30
0.0
 40
1.5
100
AcDbArc
 50
210.0000000000078
 51
270.0
  0
ARC
  5
36A5
330
106E
100
AcDbEntity
  8
STEMPEL
100
AcDbCircle
 10
182.2359717769131
 20
455.7914526834374
 30
0.0
 40
0.5
100
AcDbArc
 50
30.00000000000782
 51
90.0
  0
ARC
  5
36A6
330
106E
100
AcDbEntity
  8
STEMPEL
100
AcDbCircle
 10
182.2359717769131
 20
455.7914526834374
 30
0.0
 40
1.5
100
AcDbArc
 50
30.00000000000782
 51
90.0
  0
LINE
  5
36A7
330
106E
100
AcDbEntity
  8
STEMPEL
100
AcDbLine
 10
208.2359717769131
 20
456.2914526834374
 30
0.0
 11
198.1477043157195
 21
456.2914526834374
 31
0.0
  0
ARC
  5
36A8
330
106E
100
AcDbEntity
  8
STEMPEL
100
AcDbCircle
 10
191.2878955655595
 20
457.2914526834373
 30
0.0
 40
2.5
100
AcDbArc
 50
270.0
 51
330.0000000000039
  0
ARC
  5
36A9
330
106E
100
AcDbEntity
  8
STEMPEL
100
AcDbCircle
 10
196.022463450017
 20
456.2914526834373
 30
0.0
 40
1.5
100
AcDbArc
 50
194.4775121859267
 51
270.0
  0
ARC
  5
36AA
330
106E
100
AcDbEntity
  8
STEMPEL
100
AcDbCircle
 10
196.2112126426162
 20
456.2914526834373
 30
0.0
 40
1.5
100
AcDbArc
 50
270.0
 51
345.5224878140701
  0
ARC
  5
36AB
330
106E
100
AcDbEntity
  8
STEMPEL
100
AcDbCircle
 10
191.2878955655595
 20
457.2914526834373
 30
0.0
 40
1.5
100
AcDbArc
 50
270.0
 51
330.0000000000039
  0
ARC
  5
36AC
330
106E
100
AcDbEntity
  8
STEMPEL
100
AcDbCircle
 10
196.2112126426162
 20
456.2914526834373
 30
0.0
 40
0.5
100
AcDbArc
 50
270.0
 51
345.5224878140701
  0
ARC
  5
36AD
330
106E
100
AcDbEntity
  8
STEMPEL
100
AcDbCircle
 10
198.1477043157195
 20
455.7914526834373
 30
0.0
 40
1.5
100
AcDbArc
 50
90.0
 51
165.5224878140701
  0
ARC
  5
36AE
330
106E
100
AcDbEntity
  8
STEMPEL
100
AcDbCircle
 10
198.1477043157195
 20
455.7914526834373
 30
0.0
 40
0.5
100
AcDbArc
 50
90.0
 51
165.5224878140701
  0
ARC
  5
36AF
330
106E
100
AcDbEntity
  8
STEMPEL
100
AcDbCircle
 10
193.885971776913
 20
455.7914526834373
 30
0.0
 40
0.5
100
AcDbArc
 50
90.0
 51
150.0000000000039
  0
LINE
  5
36B0
330
106E
100
AcDbEntity
  8
STEMPEL
100
AcDbLine
 10
194.085971776913
 20
456.2914526834374
 30
0.0
 11
193.885971776913
 21
456.2914526834374
 31
0.0
  0
ARC
  5
36B1
330
106E
100
AcDbEntity
  8
STEMPEL
100
AcDbCircle
 10
194.085971776913
 20
455.7914526834373
 30
0.0
 40
0.5
100
AcDbArc
 50
14.47751218592671
 51
90.0
  0
LINE
  5
36B2
330
106E
100
AcDbEntity
  8
STEMPEL
100
AcDbLine
 10
196.2112126426162
 20
455.7914526834373
 30
0.0
 11
196.022463450017
 21
455.7914526834373
 31
0.0
  0
ARC
  5
36B3
330
106E
100
AcDbEntity
  8
STEMPEL
100
AcDbCircle
 10
196.022463450017
 20
456.2914526834373
 30
0.0
 40
0.5
100
AcDbArc
 50
194.4775121859267
 51
270.0
  0
ARC
  5
36B4
330
106E
100
AcDbEntity
  8
STEMPEL
100
AcDbCircle
 10
194.085971776913
 20
455.7914526834373
 30
0.0
 40
1.5
100
AcDbArc
 50
14.47751218592671
 51
90.0
  0
ARC
  5
36B5
330
106E
100
AcDbEntity
  8
STEMPEL
100
AcDbCircle
 10
193.885971776913
 20
455.7914526834373
 30
0.0
 40
1.5
100
AcDbArc
 50
90.0
 51
150.0000000000039
  0
LINE
  5
36B6
330
106E
100
AcDbEntity
  8
STEMPEL
100
AcDbLine
 10
217.2878955655601
 20
455.7914526834372
 30
0.0
 11
210.8340479882659
 21
455.7914526834372
 31
0.0
  0
LINE
  5
36B7
330
106E
100
AcDbEntity
  8
STEMPEL
100
AcDbLine
 10
217.2878955655601
 20
455.7914526834372
 30
0.0
 11
210.8340479882659
 21
455.7914526834372
 31
0.0
  0
ARC
  5
36B8
330
106E
100
AcDbEntity
  8
STEMPEL
100
AcDbCircle
 10
210.8340479882659
 20
457.2914526834372
 30
0.0
 40
2.5
100
AcDbArc
 50
210.0000000000034
 51
270.0
  0
ARC
  5
36B9
330
106E
100
AcDbEntity
  8
STEMPEL
100
AcDbCircle
 10
208.2359717769131
 20
455.7914526834373
 30
0.0
 40
1.5
100
AcDbArc
 50
30.00000000000337
 51
90.0
  0
ARC
  5
36BA
330
106E
100
AcDbEntity
  8
STEMPEL
100
AcDbCircle
 10
210.8340479882659
 20
457.2914526834372
 30
0.0
 40
1.5
100
AcDbArc
 50
210.0000000000034
 51
270.0
  0
ARC
  5
36BB
330
106E
100
AcDbEntity
  8
STEMPEL
100
AcDbCircle
 10
208.2359717769131
 20
455.7914526834373
 30
0.0
 40
0.5
100
AcDbArc
 50
30.00000000000337
 51
90.0
  0
ARC
  5
36BC
330
106E
100
AcDbEntity
  8
STEMPEL
100
AcDbCircle
 10
217.2878955655601
 20
457.2914526834372
 30
0.0
 40
2.5
100
AcDbArc
 50
270.0
 51
330.0000000000003
  0
ARC
  5
36BD
330
106E
100
AcDbEntity
  8
STEMPEL
100
AcDbCircle
 10
222.6840479882667
 20
457.2914526834372
 30
0.0
 40
2.5
100
AcDbArc
 50
209.9999999999961
 51
270.0
  0
ARC
  5
36BE
330
106E
100
AcDbEntity
  8
STEMPEL
100
AcDbCircle
 10
220.0859717769131
 20
455.7914526834372
 30
0.0
 40
1.5
100
AcDbArc
 50
29.99999999999609
 51
90.0
  0
ARC
  5
36BF
330
106E
100
AcDbEntity
  8
STEMPEL
100
AcDbCircle
 10
222.6840479882667
 20
457.2914526834372
 30
0.0
 40
1.5
100
AcDbArc
 50
209.9999999999961
 51
270.0
  0
ARC
  5
36C0
330
106E
100
AcDbEntity
  8
STEMPEL
100
AcDbCircle
 10
219.885971776913
 20
455.7914526834372
 30
0.0
 40
1.5
100
AcDbArc
 50
90.0
 51
149.9999999999958
  0
ARC
  5
36C1
330
106E
100
AcDbEntity
  8
STEMPEL
100
AcDbCircle
 10
219.885971776913
 20
455.7914526834372
 30
0.0
 40
0.5
100
AcDbArc
 50
90.0
 51
149.9999999999958
  0
LINE
  5
36C2
330
106E
100
AcDbEntity
  8
STEMPEL
100
AcDbLine
 10
220.0859717769131
 20
456.2914526834373
 30
0.0
 11
219.885971776913
 21
456.2914526834373
 31
0.0
  0
ARC
  5
36C3
330
106E
100
AcDbEntity
  8
STEMPEL
100
AcDbCircle
 10
220.0859717769131
 20
455.7914526834372
 30
0.0
 40
0.5
100
AcDbArc
 50
29.99999999999609
 51
90.0
  0
ARC
  5
36C4
330
106E
100
AcDbEntity
  8
STEMPEL
100
AcDbCircle
 10
217.2878955655601
 20
457.2914526834372
 30
0.0
 40
1.5
100
AcDbArc
 50
270.0
 51
330.0000000000003
  0
ARC
  5
36CC
330
106E
100
AcDbEntity
  8
STEMPEL
100
AcDbCircle
 10
224.7428955655591
 20
457.2914526834372
 30
0.0
 40
2.5
100
AcDbArc
 50
270.0
 51
330.0000000000076
  0
ARC
  5
36CD
330
106E
100
AcDbEntity
  8
STEMPEL
100
AcDbCircle
 10
230.1390479882665
 20
457.2914526834372
 30
0.0
 40
2.5
100
AcDbArc
 50
209.9999999999997
 51
270.0
  0
ARC
  5
36CE
330
106E
100
AcDbEntity
  8
STEMPEL
100
AcDbCircle
 10
224.7428955655591
 20
457.2914526834372
 30
0.0
 40
1.5
100
AcDbArc
 50
270.0
 51
330.0000000000039
  0
ARC
  5
36CF
330
106E
100
AcDbEntity
  8
STEMPEL
100
AcDbCircle
 10
230.1390479882665
 20
457.2914526834372
 30
0.0
 40
1.5
100
AcDbArc
 50
209.9999999999961
 51
270.0
  0
ARC
  5
36D0
330
106E
100
AcDbEntity
  8
STEMPEL
100
AcDbCircle
 10
227.540971776913
 20
455.7914526834372
 30
0.0
 40
1.5
100
AcDbArc
 50
29.99999999999609
 51
90.0
  0
ARC
  5
36D1
330
106E
100
AcDbEntity
  8
STEMPEL
100
AcDbCircle
 10
227.3409717769129
 20
455.7914526834372
 30
0.0
 40
1.5
100
AcDbArc
 50
90.0
 51
150.0000000000075
  0
ARC
  5
36D2
330
106E
100
AcDbEntity
  8
STEMPEL
100
AcDbCircle
 10
227.3409717769129
 20
455.7914526834372
 30
0.0
 40
0.5
100
AcDbArc
 50
90.0
 51
150.0000000000002
  0
LINE
  5
36D3
330
106E
100
AcDbEntity
  8
STEMPEL
100
AcDbLine
 10
227.540971776913
 20
456.2914526834372
 30
0.0
 11
227.3409717769129
 21
456.2914526834372
 31
0.0
  0
ARC
  5
36D4
330
106E
100
AcDbEntity
  8
STEMPEL
100
AcDbCircle
 10
227.540971776913
 20
455.7914526834372
 30
0.0
 40
0.5
100
AcDbArc
 50
29.99999999999973
 51
90.0
  0
ARC
  5
36D5
330
106E
100
AcDbEntity
  8
STEMPEL
100
AcDbCircle
 10
284.8774101606159
 20
449.791452683437
 30
0.0
 40
5.0
100
AcDbArc
 50
59.46264995169952
 51
90.0
  0
ARC
  5
36D6
330
106E
100
AcDbEntity
  8
STEMPEL
100
AcDbCircle
 10
284.8774101606159
 20
449.791452683437
 30
0.0
 40
6.0
100
AcDbArc
 50
59.48712567238334
 51
90.0
  0
ARC
  5
36D7
330
106E
100
AcDbEntity
  8
STEMPEL
100
AcDbCircle
 10
284.8774101606159
 20
449.791452683437
 30
0.0
 40
6.0
100
AcDbArc
 50
90.0
 51
90.0
  0
ARC
  5
36D8
330
106E
100
AcDbEntity
  8
STEMPEL
100
AcDbCircle
 10
308.8774101606157
 20
435.7913947161217
 30
0.0
 40
6.0
100
AcDbArc
 50
0.0
 51
59.74358352518418
  0
ARC
  5
36D9
330
106E
100
AcDbEntity
  8
STEMPEL
100
AcDbCircle
 10
308.8774101606157
 20
435.7913947161217
 30
0.0
 40
5.0
100
AcDbArc
 50
0.0
 51
59.74358352518418
  0
ARC
  5
36E3
330
106E
100
AcDbEntity
  8
STEMPEL
100
AcDbCircle
 10
314.3885537649274
 20
445.311289665899
 30
0.0
 40
5.0
100
AcDbArc
 50
239.7435628364684
 51
239.9329541615128
  0
LINE
  5
36E4
330
106E
100
AcDbEntity
  8
STEMPEL
100
AcDbLine
 10
209.8774101606155
 20
340.791452683438
 30
0.0
 11
209.8774101606154
 21
345.7914526834378
 31
0.0
  0
LINE
  5
36E5
330
106E
100
AcDbEntity
  8
STEMPEL
100
AcDbLine
 10
199.8774101606154
 20
340.7914526834379
 30
0.0
 11
199.8774101606154
 21
345.791452683438
 31
0.0
  0
LINE
  5
36E6
330
106E
100
AcDbEntity
  8
HILF
100
AcDbLine
 10
208.8774101606154
 20
340.7914526834379
 30
0.0
 11
208.8774101606154
 21
345.7914526834379
 31
0.0
  0
LINE
  5
36E7
330
106E
100
AcDbEntity
  8
HILF
100
AcDbLine
 10
200.8774101606154
 20
340.7914526834379
 30
0.0
 11
200.8774101606154
 21
345.791452683438
 31
0.0
  0
DIMENSION
  5
36E8
330
106E
100
AcDbEntity
  8
BEM
100
AcDbDimension
  2
*D8
 10
57.76324281727764
 20
455.7914526834379
 30
0.0
 11
51.86324281727756
 21
400.7914526834381
 31
0.0
 70
    32
 71
     5
 42
109.9999999999997
  3
STANDARD
100
AcDbAlignedDimension
 13
77.8774101606154
 23
345.7914526834383
 33
0.0
 14
124.8774101606157
 24
455.7914526834379
 34
0.0
 50
90.0
100
AcDbRotatedDimension
  0
LINE
  5
36EA
330
106E
100
AcDbEntity
  8
STEMPEL
100
AcDbLine
 10
94.87741016061557
 20
435.7913947161226
 30
0.0
 11
94.87741016061528
 21
371.7914526834387
 31
0.0
  0
LINE
  5
36EB
330
106E
100
AcDbEntity
  8
STEMPEL
100
AcDbLine
 10
95.87741016061569
 20
435.7913947161226
 30
0.0
 11
95.8774101606154
 21
371.7914526834387
 31
0.0
  0
LINE
  5
36ED
330
106E
100
AcDbEntity
  8
STEMPEL
100
AcDbLine
 10
135.2345409063581
 20
365.791452683438
 30
0.0
 11
85.87741016061547
 21
365.7914526834381
 31
0.0
  0
ARC
  5
36EE
330
106E
100
AcDbEntity
  8
STEMPEL
100
AcDbCircle
 10
89.87741016061539
 20
371.7914526834387
 30
0.0
 40
6.0
100
AcDbArc
 50
270.0000000000017
 51
0.0
  0
LWPOLYLINE
  5
36EF
330
106E
100
AcDbEntity
  8
STEMPEL
100
AcDbPolyline
 90
       10
 70
   128
 43
0.0
 10
-90.58110867061982
 20
365.7914526834393
 10
-91.43918166689259
 20
365.857579898012
 10
-92.29199386651481
 20
366.1101336477422
 10
-93.11275217343183
 20
366.5411793640597
 10
-93.87567053983088
 20
367.1371747344997
 10
-94.55678009533
 20
367.8793951662203
 10
-95.13468218527572
 20
368.7445220630177
 10
-95.59122065968194
 20
369.7053754337338
 10
-95.9120522912795
 20
370.731767815446
 10
-96.08709740165062
 20
371.7914526834387
210
0.0
220
0.0
230
-1.0
  0
ARC
  5
36F0
330
106E
100
AcDbEntity
  8
STEMPEL
100
AcDbCircle
 10
89.87741016061539
 20
371.7914526834387
 30
0.0
 40
5.0
100
AcDbArc
 50
270.0000000000017
 51
0.0
  0
ARC
  5
36F1
330
106E
100
AcDbEntity
  8
STEMPEL
100
AcDbCircle
 10
95.53526738518888
 20
356.791452683438
 30
0.0
 40
5.0
100
AcDbArc
 50
180.9999999999985
 51
270.0
  0
LINE
  5
36F2
330
106E
100
AcDbEntity
  8
HILF
100
AcDbLine
 10
80.49091016061549
 20
363.7914526834384
 30
0.0
 11
79.87741016061548
 21
366.7914526834384
 31
0.0
  0
LINE
  5
36F3
330
106E
100
AcDbEntity
  8
HILF
100
AcDbLine
 10
85.26391016061548
 20
363.7914526834384
 30
0.0
 11
85.87741016061547
 21
366.7914526834384
 31
0.0
  0
LINE
  5
36F4
330
106E
100
AcDbEntity
  8
STEMPEL
100
AcDbLine
 10
79.87741016061548
 20
366.7914526834384
 30
0.0
 11
79.87741016061548
 21
355.4049526834384
 31
0.0
  0
LINE
  5
36F5
102
{ACAD_REACTORS
330
36FE
102
}
330
106E
100
AcDbEntity
  8
STEMPEL
100
AcDbLine
 10
85.87741016061547
 20
355.4049526834384
 30
0.0
 11
85.87741016061547
 21
366.7914526834384
 31
0.0
  0
LINE
  5
36F6
330
106E
100
AcDbEntity
  8
STEMPEL
100
AcDbLine
 10
86.87741016061551
 20
366.7914526834387
 30
0.0
 11
86.87741016061551
 21
365.7914526834383
 31
0.0
  0
LINE
  5
36F7
330
106E
100
AcDbEntity
  8
STEMPEL
100
AcDbLine
 10
78.87741016061551
 20
366.7914526834382
 30
0.0
 11
78.87741016061551
 21
365.7914526834383
 31
0.0
  0
LINE
  5
36F8
330
106E
100
AcDbEntity
  8
STEMPEL
100
AcDbLine
 10
74.87741016061562
 20
366.7914526834385
 30
0.0
 11
74.87741016061551
 21
365.7914526834383
 31
0.0
  0
LINE
  5
36F9
330
106E
100
AcDbEntity
  8
STEMPEL
100
AcDbLine
 10
79.87741016061547
 20
365.7914526834382
 30
0.0
 11
74.8774101606154
 21
365.7914526834383
 31
0.0
  0
ARC
  5
36FA
330
106E
100
AcDbEntity
  8
STEMPEL
100
AcDbCircle
 10
77.8774101606154
 20
348.7914526834379
 30
0.0
 40
3.0
100
AcDbArc
 50
166.0430393971034
 51
270.0
  0
LINE
  5
36FB
330
106E
100
AcDbEntity
  8
STEMPEL
100
AcDbLine
 10
75.37741016061545
 20
365.7914526834382
 30
0.0
 11
79.87741016061547
 21
365.7914526834382
 31
0.0
  0
LINE
  5
36FC
330
106E
100
AcDbEntity
  8
STEMPEL
100
AcDbLine
 10
75.11283120281792
 20
350.6337343429174
 30
0.0
 11
75.37741016061545
 21
365.7914526834382
 31
0.0
  0
ARC
  5
36FD
330
106E
100
AcDbEntity
  8
STEMPEL
100
AcDbCircle
 10
70.11359272703595
 20
350.7209963751039
 30
0.0
 40
5.0
100
AcDbArc
 50
346.0430393971034
 51
358.9999999999982
  0
HATCH
  5
36FE
330
106E
100
AcDbEntity
  8
BEM
100
AcDbHatch
 10
0.0
 20
0.0
 30
0.0
210
0.0
220
0.0
230
1.0
  2
_USER
 70
     0
 71
     1
 91
        4
 92
        7
 72
     0
 73
     1
 93
       13
 10
85.87741016061547
 20
355.4049526834384
 10
85.8774101606154
 20
345.7914526834383
 10
86.87741016061529
 20
345.7914526834384
 10
86.87741016061528
 20
348.7914526834383
 10
86.37741016061534
 20
348.7914526834383
 10
86.37741016061527
 20
351.7914526834382
 10
86.87741016061535
 20
351.7914526834382
 10
86.87741016061551
 20
359.7914526834382
 10
86.37741016061541
 20
359.7914526834382
 10
86.37741016061539
 20
362.7914526834382
 10
86.87741016061551
 20
362.7914526834382
 10
86.87741016061544
 20
365.7914526834381
 10
85.87741016061547
 20
365.7914526834382
 97
       13
330
371C
330
371D
330
371B
330
371A
330
363C
330
36F5
330
3706
330
363A
330
370F
330
3710
330
3711
330
370E
330
3704
 92
        7
 72
     0
 73
     1
 93
        5
 10
85.87741016061546
 20
355.4049526834384
 10
85.26391016061545
 20
354.7914526834384
 10
84.87741016061546
 20
354.7914526834384
 10
84.87741016061541
 20
345.7914526834383
 10
85.87741016061539
 20
345.7914526834383
 97
        5
330
3702
330
3707
330
3712
330
363A
330
3706
 92
        7
 72
     0
 73
     1
 93
        5
 10
79.87741016061541
 20
345.7914526834383
 10
80.8774101606154
 20
345.7914526834383
 10
80.8774101606154
 20
354.7914526834384
 10
80.49091016061543
 20
354.7914526834384
 10
79.87741016061542
 20
355.4049526834384
 97
        5
330
3707
330
3701
330
3705
330
363A
330
370D
 92
        7
 72
     0
 73
     1
 93
       12
 10
78.87741016061534
 20
351.7914526834384
 10
79.37741016061528
 20
351.7914526834382
 10
79.37741016061534
 20
348.7914526834383
 10
78.87741016061536
 20
348.7914526834383
 10
78.87741016061537
 20
345.7914526834384
 10
79.8774101606154
 20
345.7914526834384
 10
79.87741016061547
 20
365.7914526834383
 10
78.87741016061545
 20
365.7914526834383
 10
78.87741016061551
 20
362.7914526834382
 10
79.3774101606154
 20
362.7914526834382
 10
79.3774101606154
 20
359.7914526834381
 10
78.87741016061551
 20
359.7914526834382
 97
       12
330
363C
330
3716
330
3715
330
3718
330
3717
330
3703
330
3709
330
370C
330
370B
330
370A
330
363A
330
3705
 75
     0
 76
     0
 52
135.0
 41
1.0
 77
     0
 78
     1
 53
135.0
 43
0.0000000000002274
 44
-0.000719721076905
 45
-0.7071067811865476
 46
-0.7071067811865475
 79
     0
 47
0.0494045119447598
 98
        4
 10
86.32581614176501
 20
359.0310148854511
 10
85.53507342097759
 20
354.2387767355639
 10
80.34582926636835
 20
353.8929464861734
 10
79.3574008653843
 20
354.8316315116253
  0
LINE
  5
36FF
330
106E
100
AcDbEntity
  8
HILF
100
AcDbLine
 10
80.49091016061549
 20
363.7914526834384
 30
0.0
 11
80.49091016061547
 21
354.7914526834384
 31
0.0
  0
LINE
  5
3700
330
106E
100
AcDbEntity
  8
HILF
100
AcDbLine
 10
85.26391016061548
 20
363.7914526834384
 30
0.0
 11
85.26391016061548
 21
354.7914526834384
 31
0.0
  0
LINE
  5
3701
102
{ACAD_REACTORS
330
36FE
102
}
330
106E
100
AcDbEntity
  8
STEMPEL
100
AcDbLine
 10
79.87741016061548
 20
355.4049526834384
 30
0.0
 11
80.49091016061549
 21
354.7914526834384
 31
0.0
  0
LINE
  5
3702
102
{ACAD_REACTORS
330
36FE
102
}
330
106E
100
AcDbEntity
  8
STEMPEL
100
AcDbLine
 10
85.26391016061548
 20
354.7914526834384
 30
0.0
 11
85.87741016061547
 21
355.4049526834384
 31
0.0
  0
LINE
  5
3703
102
{ACAD_REACTORS
330
36FE
102
}
330
106E
100
AcDbEntity
  8
STEMPEL
100
AcDbLine
 10
78.87741016061534
 20
351.7914526834383
 30
0.0
 11
78.87741016061551
 21
359.7914526834382
 31
0.0
  0
LINE
  5
3704
102
{ACAD_REACTORS
330
36FE
102
}
330
106E
100
AcDbEntity
  8
STEMPEL
100
AcDbLine
 10
86.87741016061535
 20
351.7914526834381
 30
0.0
 11
86.87741016061551
 21
359.7914526834382
 31
0.0
  0
LINE
  5
3705
102
{ACAD_REACTORS
330
36FE
102
}
330
106E
100
AcDbEntity
  8
HILF
100
AcDbLine
 10
79.8774101606154
 20
345.7914526834381
 30
0.0
 11
79.87741016061545
 21
365.7914526834382
 31
0.0
  0
LINE
  5
3706
102
{ACAD_REACTORS
330
36FE
102
}
330
106E
100
AcDbEntity
  8
HILF
100
AcDbLine
 10
85.8774101606154
 20
345.7914526834381
 30
0.0
 11
85.87741016061546
 21
365.7914526834382
 31
0.0
  0
LINE
  5
3707
102
{ACAD_REACTORS
330
36FE
102
}
330
106E
100
AcDbEntity
  8
STEMPEL
100
AcDbLine
 10
85.26391016061548
 20
354.7914526834384
 30
0.0
 11
80.49091016061547
 21
354.7914526834384
 31
0.0
  0
POINT
  5
3708
330
106E
100
AcDbEntity
  8
0
100
AcDbPoint
 10
82.87741016061549
 20
354.7914526834384
 30
0.0
210
-0.0000000000000002
220
-1.0
230
0.0
  0
LINE
  5
3709
102
{ACAD_REACTORS
330
36FE
102
}
330
106E
100
AcDbEntity
  8
STEMPEL
100
AcDbLine
 10
78.87741016061529
 20
351.7914526834384
 30
0.0
 11
79.37741016061528
 21
351.7914526834383
 31
0.0
  0
LINE
  5
370A
102
{ACAD_REACTORS
330
36FE
102
}
330
106E
100
AcDbEntity
  8
STEMPEL
100
AcDbLine
 10
78.87741016061534
 20
345.7914526834383
 30
0.0
 11
78.87741016061534
 21
348.7914526834383
 31
0.0
  0
LINE
  5
370B
102
{ACAD_REACTORS
330
36FE
102
}
330
106E
100
AcDbEntity
  8
STEMPEL
100
AcDbLine
 10
78.87741016061529
 20
348.7914526834383
 30
0.0
 11
79.3774101606154
 21
348.7914526834383
 31
0.0
  0
LINE
  5
370C
102
{ACAD_REACTORS
330
36FE
102
}
330
106E
100
AcDbEntity
  8
STEMPEL
100
AcDbLine
 10
79.37741016061534
 20
348.7914526834383
 30
0.0
 11
79.37741016061528
 21
351.7914526834384
 31
0.0
  0
LINE
  5
370D
102
{ACAD_REACTORS
330
36FE
102
}
330
106E
100
AcDbEntity
  8
STEMPEL
100
AcDbLine
 10
80.8774101606154
 20
345.7914526834381
 30
0.0
 11
80.87741016061542
 21
354.7914526834385
 31
0.0
  0
LINE
  5
370E
102
{ACAD_REACTORS
330
36FE
102
}
330
106E
100
AcDbEntity
  8
STEMPEL
100
AcDbLine
 10
86.37741016061529
 20
351.7914526834382
 30
0.0
 11
86.87741016061535
 21
351.7914526834382
 31
0.0
  0
LINE
  5
370F
102
{ACAD_REACTORS
330
36FE
102
}
330
106E
100
AcDbEntity
  8
STEMPEL
100
AcDbLine
 10
86.87741016061528
 20
345.7914526834383
 30
0.0
 11
86.87741016061528
 21
348.7914526834383
 31
0.0
  0
LINE
  5
3710
102
{ACAD_REACTORS
330
36FE
102
}
330
106E
100
AcDbEntity
  8
STEMPEL
100
AcDbLine
 10
86.37741016061534
 20
348.7914526834383
 30
0.0
 11
86.87741016061535
 21
348.7914526834383
 31
0.0
  0
LINE
  5
3711
102
{ACAD_REACTORS
330
36FE
102
}
330
106E
100
AcDbEntity
  8
STEMPEL
100
AcDbLine
 10
86.37741016061534
 20
348.7914526834382
 30
0.0
 11
86.37741016061529
 21
351.7914526834382
 31
0.0
  0
LINE
  5
3712
102
{ACAD_REACTORS
330
36FE
102
}
330
106E
100
AcDbEntity
  8
STEMPEL
100
AcDbLine
 10
84.87741016061539
 20
345.7914526834381
 30
0.0
 11
84.87741016061542
 21
354.7914526834385
 31
0.0
  0
LINE
  5
3713
330
106E
100
AcDbEntity
  8
HILF
100
AcDbLine
 10
79.87741016061548
 20
363.7914526834384
 30
0.0
 11
85.87741016061547
 21
363.7914526834384
 31
0.0
  0
LINE
  5
3714
330
106E
100
AcDbEntity
  8
STEMPEL
100
AcDbLine
 10
85.87741016061547
 20
355.4049526834384
 30
0.0
 11
79.87741016061548
 21
355.4049526834384
 31
0.0
  0
LINE
  5
3715
102
{ACAD_REACTORS
330
36FE
102
}
330
106E
100
AcDbEntity
  8
STEMPEL
100
AcDbLine
 10
78.87741016061545
 20
362.7914526834382
 30
0.0
 11
79.3774101606154
 21
362.7914526834382
 31
0.0
  0
LINE
  5
3716
102
{ACAD_REACTORS
330
36FE
102
}
330
106E
100
AcDbEntity
  8
STEMPEL
100
AcDbLine
 10
78.87741016061551
 20
362.7914526834382
 30
0.0
 11
78.87741016061545
 21
365.7914526834382
 31
0.0
  0
LINE
  5
3717
102
{ACAD_REACTORS
330
36FE
102
}
330
106E
100
AcDbEntity
  8
STEMPEL
100
AcDbLine
 10
78.87741016061545
 20
359.7914526834382
 30
0.0
 11
79.3774101606154
 21
359.7914526834382
 31
0.0
  0
LINE
  5
3718
102
{ACAD_REACTORS
330
36FE
102
}
330
106E
100
AcDbEntity
  8
STEMPEL
100
AcDbLine
 10
79.3774101606154
 20
359.7914526834382
 30
0.0
 11
79.3774101606154
 21
362.7914526834383
 31
0.0
  0
LINE
  5
3719
330
106E
100
AcDbEntity
  8
STEMPEL
100
AcDbLine
 10
85.87741016061547
 20
365.7914526834381
 30
0.0
 11
90.37741016061545
 21
365.7914526834381
 31
0.0
  0
LINE
  5
371A
102
{ACAD_REACTORS
330
36FE
102
}
330
106E
100
AcDbEntity
  8
STEMPEL
100
AcDbLine
 10
86.87741016061551
 20
362.7914526834381
 30
0.0
 11
86.87741016061545
 21
365.7914526834382
 31
0.0
  0
LINE
  5
371B
102
{ACAD_REACTORS
330
36FE
102
}
330
106E
100
AcDbEntity
  8
STEMPEL
100
AcDbLine
 10
86.37741016061539
 20
362.7914526834382
 30
0.0
 11
86.87741016061545
 21
362.7914526834382
 31
0.0
  0
LINE
  5
371C
102
{ACAD_REACTORS
330
36FE
102
}
330
106E
100
AcDbEntity
  8
STEMPEL
100
AcDbLine
 10
86.37741016061539
 20
359.7914526834382
 30
0.0
 11
86.87741016061545
 21
359.7914526834382
 31
0.0
  0
LINE
  5
371D
102
{ACAD_REACTORS
330
36FE
102
}
330
106E
100
AcDbEntity
  8
STEMPEL
100
AcDbLine
 10
86.37741016061539
 20
359.7914526834382
 30
0.0
 11
86.37741016061539
 21
362.7914526834383
 31
0.0
  0
LINE
  5
371E
330
106E
100
AcDbEntity
  8
STEMPEL
100
AcDbLine
 10
90.53602890940693
 20
356.7041906512516
 30
0.0
 11
90.37741016061545
 21
365.7914526834381
 31
0.0
  0
LINE
  5
371F
330
106E
100
AcDbEntity
  8
STEMPEL
100
AcDbLine
 10
74.87741016061574
 20
366.7914526834382
 30
0.0
 11
89.87741016061562
 21
366.7914526834386
 31
0.0
  0
ARC
  5
3720
330
106E
100
AcDbEntity
  8
HILF
100
AcDbCircle
 10
82.87741016061549
 20
353.5501606562123
 30
0.0
 40
14.94074366520046
100
AcDbArc
 50
78.85962783889434
 51
101.1403721611056
  0
ARC
  5
3721
330
106E
100
AcDbEntity
  8
STEMPEL
100
AcDbCircle
 10
82.87741016061549
 20
353.1841932618015
 30
0.0
 40
20.20725942163691
100
AcDbArc
 50
81.78678929826221
 51
98.2132107017378
  0
LINE
  5
3722
330
106E
100
AcDbEntity
  8
STEMPEL
100
AcDbLine
 10
89.61552123944461
 20
367.8582836248707
 30
0.0
 11
76.13929908178636
 21
367.8582836248707
 31
0.0
  0
LINE
  5
3723
330
106E
100
AcDbEntity
  8
STEMPEL
100
AcDbLine
 10
89.42741016061548
 20
366.7914526834384
 30
0.0
 11
76.3274101606155
 21
366.7914526834384
 31
0.0
  0
LINE
  5
3724
330
106E
100
AcDbEntity
  8
STEMPEL
100
AcDbLine
 10
87.87741016061549
 20
373.3914526834384
 30
0.0
 11
77.87741016061549
 21
373.3914526834384
 31
0.0
  0
ARC
  5
3725
330
106E
100
AcDbEntity
  8
HILF
100
AcDbCircle
 10
78.54728314169328
 20
364.650143921622
 30
0.0
 40
3.840760399790701
100
AcDbArc
 50
67.92594526323878
 51
112.0740547367612
  0
ARC
  5
3726
330
106E
100
AcDbEntity
  8
STEMPEL
100
AcDbCircle
 10
78.54728314169328
 20
368.2619155449153
 30
0.0
 40
5.129537138523076
100
AcDbArc
 50
73.65710669401501
 51
106.342893305985
  0
LINE
  5
3727
330
106E
100
AcDbEntity
  8
STEMPEL
100
AcDbLine
 10
77.87741016061549
 20
373.3914526834384
 30
0.0
 11
77.10390746871921
 21
373.1841932618015
 31
0.0
  0
LINE
  5
3728
330
106E
100
AcDbEntity
  8
STEMPEL
100
AcDbLine
 10
77.10390746871922
 20
373.1841932618015
 30
0.0
 11
77.10390746871922
 21
368.2093723654378
 31
0.0
  0
LINE
  5
3729
330
106E
100
AcDbEntity
  8
STEMPEL
100
AcDbLine
 10
79.99065881466735
 20
373.1841932618015
 30
0.0
 11
79.99065881466735
 21
368.2093723654378
 31
0.0
  0
LINE
  5
372A
330
106E
100
AcDbEntity
  8
STEMPEL
100
AcDbLine
 10
77.10390746871922
 20
368.2093723654378
 30
0.0
 11
76.13929908178636
 21
367.8582836248707
 31
0.0
  0
ARC
  5
372B
330
106E
100
AcDbEntity
  8
STEMPEL
100
AcDbCircle
 10
76.3274101606155
 20
367.3414526834384
 30
0.0
 40
0.5500000000000003
100
AcDbArc
 50
109.9999999999995
 51
270.0
  0
ARC
  5
372C
330
106E
100
AcDbEntity
  8
HILF
100
AcDbCircle
 10
87.20753717953767
 20
364.6489793597338
 30
0.0
 40
3.841839622940954
100
AcDbArc
 50
67.93247218101093
 51
112.067527818989
  0
LINE
  5
372D
330
106E
100
AcDbEntity
  8
STEMPEL
100
AcDbLine
 10
87.87741016061549
 20
373.3914526834384
 30
0.0
 11
88.65091285251173
 21
373.1841932618015
 31
0.0
  0
ARC
  5
372E
330
106E
100
AcDbEntity
  8
STEMPEL
100
AcDbCircle
 10
87.20753717953767
 20
368.2619155449153
 30
0.0
 40
5.129537138523076
100
AcDbArc
 50
73.65710669401501
 51
106.342893305985
  0
LINE
  5
372F
330
106E
100
AcDbEntity
  8
STEMPEL
100
AcDbLine
 10
85.76416150656362
 20
373.1841932618015
 30
0.0
 11
85.76416150656362
 21
368.2093723654378
 31
0.0
  0
LINE
  5
3730
330
106E
100
AcDbEntity
  8
STEMPEL
100
AcDbLine
 10
88.65091285251173
 20
373.1841932618015
 30
0.0
 11
88.65091285251173
 21
368.2093723654378
 31
0.0
  0
LINE
  5
3731
330
106E
100
AcDbEntity
  8
STEMPEL
100
AcDbLine
 10
89.61552123944461
 20
367.8582836248707
 30
0.0
 11
88.65091285251173
 21
368.2093723654378
 31
0.0
  0
ARC
  5
3732
330
106E
100
AcDbEntity
  8
STEMPEL
100
AcDbCircle
 10
89.42741016061548
 20
367.3414526834384
 30
0.0
 40
0.5500000000000009
100
AcDbArc
 50
270.0
 51
70.00000000000047
  0
ARC
  5
3733
330
106E
100
AcDbEntity
  8
STEMPEL
100
AcDbCircle
 10
122.6049968010935
 20
331.4805635509831
 30
0.0
 40
30.31088913245485
100
AcDbArc
 50
81.78678929826221
 51
98.2132107017378
  0
ARC
  5
3734
330
106E
100
AcDbEntity
  8
HILF
100
AcDbCircle
 10
122.6049968010935
 20
331.8929916357768
 30
0.0
 40
22.41111549782308
100
AcDbArc
 50
78.85962783890615
 51
101.1403721610938
  0
LINE
  5
3735
330
106E
100
AcDbEntity
  8
STEMPEL
100
AcDbLine
 10
115.1049968010936
 20
361.7914526834379
 30
0.0
 11
130.1049968010935
 21
361.7914526834379
 31
0.0
  0
LINE
  5
3736
330
106E
100
AcDbEntity
  8
STEMPEL
100
AcDbLine
 10
133.0115119085878
 20
353.2462221490274
 30
0.0
 11
112.1984816935993
 21
353.2462221490274
 31
0.0
  0
LINE
  5
3738
330
106E
100
AcDbEntity
  8
STEMPEL
100
AcDbLine
 10
95.53526738518883
 20
351.791452683438
 30
0.0
 11
135.1767921383365
 21
351.7914526834379
 31
0.0
  0
LINE
  5
3739
330
106E
100
AcDbEntity
  8
STEMPEL
100
AcDbLine
 10
117.6049968010939
 20
364.7914526834377
 30
0.0
 11
127.6049968010936
 21
364.7914526834376
 31
0.0
  0
LINE
  5
373A
330
106E
100
AcDbEntity
  8
STEMPEL
100
AcDbLine
 10
118.6049968010936
 20
365.7914526834377
 30
0.0
 11
126.6049968010932
 21
365.7914526834379
 31
0.0
  0
LWPOLYLINE
  5
373B
330
106E
100
AcDbEntity
  8
STEMPEL
100
AcDbPolyline
 90
       10
 70
   128
 43
0.0
 10
-118.8088504780699
 20
365.7914526834381
 10
-119.5666001031641
 20
365.8826061653649
 10
-120.3013258893397
 20
366.1532969587227
 10
-120.9907035653728
 20
366.5953002607315
 10
-121.6137867394192
 20
367.1951860247243
 10
-122.1516433445307
 20
367.934727025319
 10
-122.5879308799296
 20
368.7914526834383
 10
-122.9093929696249
 20
369.7393318234844
 10
-123.1062621506889
 20
370.7495636174369
 10
-123.1725566526757
 20
371.7914526834385
210
0.0
220
0.0
230
-1.0
  0
LWPOLYLINE
  5
373C
330
106E
100
AcDbEntity
  8
STEMPEL
100
AcDbPolyline
 90
       10
 70
   128
 43
0.0
 10
-109.677429042938
 20
365.7914526834381
 10
-110.4351786680322
 20
365.8826061653649
 10
-111.1699044542078
 20
366.1532969587227
 10
-111.8592821302409
 20
366.5953002607316
 10
-112.4823653042874
 20
367.1951860247244
 10
-113.0202219093988
 20
367.934727025319
 10
-113.4565094447977
 20
368.7914526834383
 10
-113.777971534493
 20
369.7393318234844
 10
-113.974840715557
 20
370.7495636174369
 10
-114.0411352175438
 20
371.7914526834385
210
0.0
220
0.0
230
-1.0
  0
LWPOLYLINE
  5
373D
330
106E
100
AcDbEntity
  8
STEMPEL
100
AcDbPolyline
 90
       10
 70
   128
 43
0.0
 10
-102.4679715072883
 20
365.7914526834381
 10
-103.3041507821298
 20
365.8826061653649
 10
-104.1149231728324
 20
366.1532969587227
 10
-104.8756537705753
 20
366.5953002607316
 10
-105.563228161094
 20
367.1951860247244
 10
-106.1567547444625
 20
367.9347270253191
 10
-106.6381995157837
 20
368.7914526834384
 10
-106.992934019304
 20
369.7393318234844
 10
-107.2101798266382
 20
370.7495636174369
 10
-107.2833360338622
 20
371.7914526834386
210
0.0
220
0.0
230
-1.0
  0
LWPOLYLINE
  5
373E
330
106E
100
AcDbEntity
  8
STEMPEL
100
AcDbPolyline
 90
       10
 70
   128
 43
0.0
 10
-92.53900155392029
 20
365.7914526834382
 10
-93.39707455019306
 20
365.8575798980109
 10
-94.24988674981529
 20
366.1101336477411
 10
-95.07064505673231
 20
366.5411793640586
 10
-95.83356342313136
 20
367.1371747344986
 10
-96.51467297863048
 20
367.8793951662192
 10
-97.09257506857619
 20
368.7445220630166
 10
-97.54911354298242
 20
369.7053754337327
 10
-97.86994517457998
 20
370.7317678154449
 10
-98.0449902849511
 20
371.7914526834375
210
0.0
220
0.0
230
-1.0
  0
LWPOLYLINE
  5
373F
330
106E
100
AcDbEntity
  8
STEMPEL
100
AcDbPolyline
 90
       10
 70
   128
 43
0.0
 10
-96.72772002181051
 20
365.7914526834382
 10
-97.56389929665211
 20
365.882606165365
 10
-98.3746716873547
 20
366.1532969587228
 10
-99.13540228509754
 20
366.5953002607316
 10
-99.82297667561631
 20
367.1951860247244
 10
-100.4165032589847
 20
367.9347270253191
 10
-100.8979480303059
 20
368.7914526834384
 10
-101.2526825338263
 20
369.7393318234844
 10
-101.4699283411605
 20
370.7495636174369
 10
-101.5430845483844
 20
371.7914526834386
210
0.0
220
0.0
230
-1.0
  0
LINE
  5
3740
330
106E
100
AcDbEntity
  8
STEMPEL
100
AcDbLine
 10
118.2748697821714
 20
353.8818091996378
 30
0.0
 11
118.2748697821714
 21
361.4805635509826
 31
0.0
  0
LINE
  5
3741
330
106E
100
AcDbEntity
  8
STEMPEL
100
AcDbLine
 10
113.9447427632491
 20
353.8818091996378
 30
0.0
 11
113.9447427632491
 21
361.4805635509826
 31
0.0
  0
ARC
  5
3742
330
106E
100
AcDbEntity
  8
HILF
100
AcDbCircle
 10
116.1098062727103
 20
348.5429665339083
 30
0.0
 40
5.761140599691502
100
AcDbArc
 50
67.92594526326206
 51
112.0740547367379
  0
LINE
  5
3743
330
106E
100
AcDbEntity
  8
STEMPEL
100
AcDbLine
 10
113.9447427632492
 20
353.8818091996378
 30
0.0
 11
112.1984816935993
 21
353.2462221490274
 31
0.0
  0
ARC
  5
3744
330
106E
100
AcDbEntity
  8
STEMPEL
100
AcDbCircle
 10
112.4549968010935
 20
352.541452683438
 30
0.0
 40
0.7500000000000013
100
AcDbArc
 50
109.9999999999995
 51
269.9999991462263
  0
ARC
  5
3746
330
106E
100
AcDbEntity
  8
STEMPEL
100
AcDbCircle
 10
116.1098062727103
 20
354.0971469756535
 30
0.0
 40
7.694305707784447
100
AcDbArc
 50
73.65710669401501
 51
106.342893305985
  0
LINE
  5
3747
330
106E
100
AcDbEntity
  8
STEMPEL
100
AcDbLine
 10
115.1049968010936
 20
361.7914526834379
 30
0.0
 11
113.9447427632491
 21
361.4805635509826
 31
0.0
  0
LINE
  5
3748
330
106E
100
AcDbEntity
  8
STEMPEL
100
AcDbLine
 10
117.6049968010936
 20
361.7914526834379
 30
0.0
 11
117.6049968010936
 21
364.7914526834377
 31
0.0
  0
LINE
  5
3749
330
106E
100
AcDbEntity
  8
HILF
100
AcDbLine
 10
118.6049968010934
 20
361.7914526834379
 30
0.0
 11
118.6049968010934
 21
365.7914526834379
 31
0.0
  0
LINE
  5
374A
330
106E
100
AcDbEntity
  8
STEMPEL
100
AcDbLine
 10
117.6049968010936
 20
364.7914526834377
 30
0.0
 11
118.6049968010936
 21
365.7914526834376
 31
0.0
  0
LINE
  5
374B
330
106E
100
AcDbEntity
  8
STEMPEL
100
AcDbLine
 10
107.2833360338622
 20
378.2914526834363
 30
0.0
 11
107.2833360338622
 21
371.7914526834397
 31
0.0
  0
LINE
  5
374C
330
106E
100
AcDbEntity
  8
STEMPEL
100
AcDbLine
 10
106.357281697355
 20
378.2914526834363
 30
0.0
 11
106.3572816973549
 21
371.7914526834397
 31
0.0
  0
LINE
  5
374D
330
106E
100
AcDbEntity
  8
STEMPEL
100
AcDbLine
 10
97.05121157141332
 20
378.2914526834364
 30
0.0
 11
97.05121157141327
 21
371.7914526834387
 31
0.0
  0
LINE
  5
374E
330
106E
100
AcDbEntity
  8
STEMPEL
100
AcDbLine
 10
98.04499028495115
 20
378.2914526834364
 30
0.0
 11
98.0449902849511
 21
371.7914526834375
 31
0.0
  0
LINE
  5
374F
330
106E
100
AcDbEntity
  8
STEMPEL
100
AcDbLine
 10
101.5430845483845
 20
378.2914526834363
 30
0.0
 11
101.5430845483844
 21
371.7914526834397
 31
0.0
  0
LINE
  5
3750
330
106E
100
AcDbEntity
  8
STEMPEL
100
AcDbLine
 10
96.08709740165068
 20
378.2914526834364
 30
0.0
 11
96.08709740165062
 21
371.7914526834387
 31
0.0
  0
LINE
  5
3751
330
106E
100
AcDbEntity
  8
STEMPEL
100
AcDbLine
 10
99.38951291571591
 20
366.7914526834382
 30
0.0
 11
104.2037100646873
 21
366.7914526834382
 31
0.0
  0
LINE
  5
3752
330
106E
100
AcDbEntity
  8
STEMPEL
100
AcDbLine
 10
93.46663821798001
 20
366.7914526834382
 30
0.0
 11
94.43075238774264
 21
366.7914526834382
 31
0.0
  0
LWPOLYLINE
  5
3753
330
106E
100
AcDbEntity
  8
STEMPEL
100
AcDbPolyline
 90
        7
 70
   128
 43
0.0
 10
-94.43075238774241
 20
366.7914526834386
 10
-95.10745426281976
 20
367.4010534112977
 10
-95.70700368645379
 20
368.1286124952093
 10
-96.21329235960338
 20
368.9545823568896
 10
-96.61271765164901
 20
369.8567713820926
 10
-96.89454806691191
 20
370.8109401502863
 10
-97.05121157141338
 20
371.7914526834387
210
0.0
220
0.0
230
-1.0
  0
LWPOLYLINE
  5
3754
330
106E
100
AcDbEntity
  8
STEMPEL
100
AcDbPolyline
 90
        7
 70
   128
 43
0.0
 10
-104.2037100646862
 20
366.7914526834382
 10
-104.8238005877505
 20
367.400790585279
 10
-105.355620734534
 20
368.1282208585682
 10
-105.7848665342653
 20
368.9541783525119
 10
-106.0999928820626
 20
369.8564479029742
 10
-106.2925240590285
 20
370.8107618372174
 10
-106.3572816973548
 20
371.7914526834386
210
0.0
220
0.0
230
-1.0
  0
LWPOLYLINE
  5
3755
330
106E
100
AcDbEntity
  8
STEMPEL
100
AcDbPolyline
 90
       18
 70
   128
 43
0.0
 10
96.08709740165068
 20
378.2914526834364
 10
96.10376582512754
 20
379.6695740670609
 10
96.15320347238787
 20
381.0007651798406
 10
96.23372680364832
 20
382.2396939050173
 10
96.34259369344
 20
383.3441700107866
 10
96.47609681040229
 20
384.2765818880394
 10
96.6296898660064
 20
385.0051773686008
 10
96.79814243295846
 20
385.505145007234
 10
96.9757180611274
 20
385.7594590056507
 10
97.15636962547444
 20
385.7594590056507
 10
97.33394525364339
 20
385.505145007234
 10
97.50239782059544
 20
385.0051773686008
 10
97.65599087619955
 20
384.2765818880394
 10
97.78949399316184
 20
383.3441700107866
 10
97.89836088295352
 20
382.2396939050173
 10
97.97888421421397
 20
381.0007651798406
 10
98.0283218614743
 20
379.6695740670609
 10
98.04499028495115
 20
378.2914526834364
  0
LWPOLYLINE
  5
3756
330
106E
100
AcDbEntity
  8
STEMPEL
100
AcDbPolyline
 90
        7
 70
   128
 43
0.0
 10
96.56915448653183
 20
384.7535067392762
 10
96.70698349610212
 20
384.0014005023377
 10
96.82584777306828
 20
383.0786868916229
 10
96.92219577496951
 20
382.0129356417186
 10
96.99314872250761
 20
380.8359903048975
 10
97.03658661451562
 20
379.5830167984957
 10
97.0512115714132
 20
378.2914526834364
  0
LWPOLYLINE
  5
3757
330
106E
100
AcDbEntity
  8
STEMPEL
100
AcDbPolyline
 90
       18
 70
   128
 43
0.0
 10
101.5430845483845
 20
378.2914526834363
 10
101.5919538933008
 20
379.6695740670608
 10
101.7368977411208
 20
381.0007651798405
 10
101.972980202948
 20
382.2396939050173
 10
102.2921617736947
 20
383.3441700107865
 10
102.6835731077851
 20
384.2765818880394
 10
103.1338851616831
 20
385.0051773686007
 10
103.6277630984825
 20
385.505145007234
 10
104.1483884973875
 20
385.7594590056507
 10
104.6780320848593
 20
385.7594590056507
 10
105.1986574837642
 20
385.505145007234
 10
105.6925354205636
 20
385.0051773686007
 10
106.1428474744616
 20
384.2765818880394
 10
106.534258808552
 20
383.3441700107865
 10
106.8534403792987
 20
382.2396939050173
 10
107.0895228411259
 20
381.0007651798405
 10
107.234466688946
 20
379.6695740670608
 10
107.2833360338622
 20
378.2914526834363
  0
LWPOLYLINE
  5
3758
330
106E
100
AcDbEntity
  8
STEMPEL
100
AcDbPolyline
 90
        9
 70
   128
 43
0.0
 10
103.9501831228713
 20
385.6932109281014
 10
104.4392436661401
 20
385.366778030344
 10
104.898856634041
 20
384.8215090170868
 10
105.3148064376653
 20
384.0742687739588
 10
105.6742279669569
 20
383.1481690511812
 10
105.9660045018444
 20
382.071853629211
 10
106.1811115465825
 20
380.8786123815801
 10
106.31289595269
 20
379.6053516365043
 10
106.3572816973549
 20
378.2914526834379
  0
LINE
  5
3759
330
106E
100
AcDbEntity
  8
STEMPEL
100
AcDbLine
 10
123.1725566526759
 20
378.2914526834363
 30
0.0
 11
123.1725566526758
 21
371.7914526834397
 31
0.0
  0
LINE
  5
375A
330
106E
100
AcDbEntity
  8
STEMPEL
100
AcDbLine
 10
122.3773357658551
 20
378.2914526834363
 30
0.0
 11
122.3773357658551
 21
371.7914526834397
 31
0.0
  0
LINE
  5
375B
330
106E
100
AcDbEntity
  8
STEMPEL
100
AcDbLine
 10
114.041135217544
 20
378.2914526834363
 30
0.0
 11
114.0411352175439
 21
371.7914526834397
 31
0.0
  0
LINE
  5
375C
330
106E
100
AcDbEntity
  8
STEMPEL
100
AcDbLine
 10
112.0895583890255
 20
366.7914526834382
 30
0.0
 11
120.4257589373374
 21
366.7914526834381
 31
0.0
  0
LWPOLYLINE
  5
375D
330
106E
100
AcDbEntity
  8
STEMPEL
100
AcDbPolyline
 90
        7
 70
   128
 43
0.0
 10
-120.4257589373367
 20
366.7914526834381
 10
-120.9876879106008
 20
367.4007905852789
 10
-121.469625850188
 20
368.1282208585682
 10
-121.8586104299378
 20
368.9541783525119
 10
-122.1441794210442
 20
369.8564479029741
 10
-122.3186520868402
 20
370.8107618372174
 10
-122.3773357658552
 20
371.7914526834385
210
0.0
220
0.0
230
-1.0
  0
LWPOLYLINE
  5
375E
330
106E
100
AcDbEntity
  8
STEMPEL
100
AcDbPolyline
 90
       18
 70
   128
 43
0.0
 10
114.0411352175441
 20
378.2914526834363
 10
114.1188751188042
 20
379.6695740670608
 10
114.349447483486
 20
381.0007651798405
 10
114.7250004462512
 20
382.2396939050173
 10
115.2327450013789
 20
383.3441700107865
 10
115.8553905170168
 20
384.2765818880394
 10
116.571733546911
 20
385.0051773686006
 10
117.3573798883368
 20
385.5051450072339
 10
118.1855752974162
 20
385.7594590056507
 10
119.0281165728039
 20
385.7594590056507
 10
119.8563119818833
 20
385.5051450072339
 10
120.6419583233091
 20
385.0051773686006
 10
121.3583013532032
 20
384.2765818880394
 10
121.9809468688412
 20
383.3441700107865
 10
122.4886914239689
 20
382.2396939050173
 10
122.864244386734
 20
381.0007651798405
 10
123.0948167514159
 20
379.6695740670608
 10
123.172556652676
 20
378.2914526834363
  0
LWPOLYLINE
  5
375F
330
106E
100
AcDbEntity
  8
STEMPEL
100
AcDbPolyline
 90
       10
 70
   128
 43
0.0
 10
117.8116250482891
 20
385.7914526834394
 10
118.6044523941488
 20
385.677510831031
 10
119.3731900822945
 20
385.3391473393336
 10
120.094480407072
 20
384.7866432118225
 10
120.7464073269535
 20
384.0367860068314
 10
121.3091623723692
 20
383.1123597560879
 10
121.7656465160321
 20
382.0414526834387
 10
122.1019897182288
 20
380.8566037583809
 10
122.3079723609589
 20
379.5938140159401
 10
122.377335765855
 20
378.2914526834379
  0
LWPOLYLINE
  5
3762
330
106E
100
AcDbEntity
  8
STEMPEL
100
AcDbPolyline
 90
       10
 70
   128
 43
0.0
 10
-129.0669247745034
 20
365.791452683438
 10
-129.7029291345043
 20
365.8826061653648
 10
-130.3196088238605
 20
366.1532969587226
 10
-130.8982263422655
 20
366.5953002607314
 10
-131.4212006892174
 20
367.1951860247243
 10
-131.8726415538219
 20
367.934727025319
 10
-132.2388321338479
 20
368.7914526834382
 10
-132.5086459138228
 20
369.7393318234843
 10
-132.6738847385745
 20
370.7495636174368
 10
-132.7295279100275
 20
371.7914526834385
210
0.0
220
0.0
230
-1.0
  0
LINE
  5
3763
330
106E
100
AcDbEntity
  8
STEMPEL
100
AcDbLine
 10
131.2652508389379
 20
353.8818091996378
 30
0.0
 11
131.2652508389379
 21
361.4805635509826
 31
0.0
  0
LINE
  5
3764
330
106E
100
AcDbEntity
  8
STEMPEL
100
AcDbLine
 10
126.9351238200157
 20
353.8818091996378
 30
0.0
 11
126.9351238200157
 21
361.4805635509826
 31
0.0
  0
LINE
  5
3765
330
106E
100
AcDbEntity
  8
STEMPEL
100
AcDbLine
 10
133.0115119085878
 20
353.2462221490274
 30
0.0
 11
131.2652508389379
 21
353.8818091996378
 31
0.0
  0
ARC
  5
3766
330
106E
100
AcDbEntity
  8
STEMPEL
100
AcDbCircle
 10
132.7549968010935
 20
352.541452683438
 30
0.0
 40
0.750000000000001
100
AcDbArc
 50
269.9999991462263
 51
70.00000000000047
  0
ARC
  5
3767
330
106E
100
AcDbEntity
  8
HILF
100
AcDbCircle
 10
129.1001873294768
 20
348.5429665339083
 30
0.0
 40
5.761140599691502
100
AcDbArc
 50
67.92594526326206
 51
112.0740547367379
  0
ARC
  5
3769
330
106E
100
AcDbEntity
  8
STEMPEL
100
AcDbCircle
 10
129.1001873294768
 20
354.0971469756535
 30
0.0
 40
7.694305707784447
100
AcDbArc
 50
73.65710669401501
 51
106.342893305985
  0
LINE
  5
376A
330
106E
100
AcDbEntity
  8
STEMPEL
100
AcDbLine
 10
131.2652508389379
 20
361.4805635509826
 30
0.0
 11
130.1049968010935
 21
361.7914526834379
 31
0.0
  0
LINE
  5
376B
330
106E
100
AcDbEntity
  8
HILF
100
AcDbLine
 10
126.6049968010934
 20
361.7914526834379
 30
0.0
 11
126.6049968010934
 21
365.7914526834377
 31
0.0
  0
LINE
  5
376C
330
106E
100
AcDbEntity
  8
STEMPEL
100
AcDbLine
 10
127.6049968010934
 20
361.7914526834379
 30
0.0
 11
127.6049968010934
 21
364.7914526834377
 31
0.0
  0
LINE
  5
376D
330
106E
100
AcDbEntity
  8
STEMPEL
100
AcDbLine
 10
127.6049968010934
 20
364.7914526834377
 30
0.0
 11
126.6049968010934
 21
365.7914526834377
 31
0.0
  0
LWPOLYLINE
  5
376E
330
106E
100
AcDbEntity
  8
STEMPEL
100
AcDbPolyline
 90
        7
 70
   128
 43
0.0
 10
132.7295279100275
 20
378.2914526834362
 10
132.8308405218318
 20
379.6695740670608
 10
133.1313282777611
 20
381.0007651798404
 10
133.6207584276823
 20
382.2396939050172
 10
134.2824640148467
 20
383.3441700107865
 10
135.0939114491118
 20
384.2765818880393
 10
135.9020816866089
 20
384.907319543375
  0
LINE
  5
3770
330
106E
100
AcDbEntity
  8
STEMPEL
100
AcDbLine
 10
132.7295279100276
 20
378.2914526834362
 30
0.0
 11
132.7295279100275
 21
371.7914526834396
 31
0.0
  0
LINE
  5
3771
330
106E
100
AcDbEntity
  8
STEMPEL
100
AcDbLine
 10
131.0915048339222
 20
366.791452683438
 30
0.0
 11
135.2694616758499
 21
366.791452683438
 31
0.0
  0
ARC
  5
3773
330
106E
100
AcDbEntity
  8
STEMPEL
100
AcDbCircle
 10
100.8774101606162
 20
435.7913947161223
 30
0.0
 40
5.000000000000511
100
AcDbArc
 50
120.2564164748203
 51
179.9999999999967
  0
ARC
  5
3774
330
106E
100
AcDbEntity
  8
STEMPEL
100
AcDbCircle
 10
100.877410160616
 20
435.7913947161222
 30
0.0
 40
6.000000000000454
100
AcDbArc
 50
120.2564164748158
 51
179.9999999999967
  0
ARC
  5
3785
330
106E
100
AcDbEntity
  8
STEMPEL
100
AcDbCircle
 10
124.8774101606177
 20
449.7914526834331
 30
0.0
 40
5.000000000004884
100
AcDbArc
 50
90.00000000002442
 51
120.5373500482946
  0
ARC
  5
3786
330
106E
100
AcDbEntity
  8
STEMPEL
100
AcDbCircle
 10
124.8774101606157
 20
449.7914526834383
 30
0.0
 40
5.999999999999263
100
AcDbArc
 50
90.0
 51
120.5128743276239
  0
LINE
  5
3787
330
106E
100
AcDbEntity
  8
STEMPEL
100
AcDbLine
 10
97.84471553890774
 20
440.9685332434816
 30
0.0
 11
121.8310184143747
 21
454.9605432541699
 31
0.0
  0
LINE
  5
3788
330
106E
100
AcDbEntity
  8
STEMPEL
100
AcDbLine
 10
98.35805659248855
 20
440.1102901303189
 30
0.0
 11
122.3369104854397
 21
454.0979432965042
 31
0.0
  0
ARC
  5
3789
330
106E
100
AcDbEntity
  8
STEMPEL
100
AcDbCircle
 10
95.36626655630408
 20
445.3112896659
 30
0.0
 40
5.0
100
AcDbArc
 50
300.0670458384872
 51
300.2564371635316
  0
ARC
  5
378A
330
106E
100
AcDbEntity
  8
STEMPEL
100
AcDbCircle
 10
124.8774101606156
 20
449.7914526834376
 30
0.0
 40
6.0
100
AcDbArc
 50
90.0
 51
90.0
  0
LINE
  5
378C
330
106E
100
AcDbEntity
  8
TEXT
 62
     2
100
AcDbLine
 10
150.9573741258625
 20
506.3266153489776
 30
0.0
 11
162.282504160356
 21
485.8402783142985
 31
0.0
  0
TEXT
  5
378D
330
106E
100
AcDbEntity
  8
TEXT
 62
     1
100
AcDbText
 10
46.44245880501125
 20
495.1546191943966
 30
0.0
 40
7.0
  1
EDV-Art.Nr. 21009.000X
 41
0.8
  7
GREEKS
100
AcDbText
  0
LINE
  5
378E
330
106E
100
AcDbEntity
  8
TEXT
 62
     2
100
AcDbLine
 10
44.52278300829379
 20
506.3266153489776
 30
0.0
 11
150.9573741258625
 21
506.3266153489776
 31
0.0
  0
TEXT
  5
378F
330
106E
100
AcDbEntity
  8
TEXT
 62
     1
100
AcDbText
 10
47.17196662734454
 20
509.5971429498267
 30
0.0
 40
7.0
  1
Drainjethaube
 41
0.8
  7
GREEKS
100
AcDbText
  0
LINE
  5
3790
330
106E
100
AcDbEntity
  8
TEXT
 62
     2
100
AcDbLine
 10
164.217737278046
 20
482.3395822720526
 30
0.0
 11
170.0356922841766
 21
471.8153245597641
 31
0.0
  0
DIMENSION
  5
3801
330
106E
100
AcDbEntity
  8
BEM
100
AcDbDimension
  2
*D9
 10
315.5420858046481
 20
317.7429387778277
 30
0.0
 11
453.2442381840453
 21
291.7922422290384
 31
0.0
 70
    34
 71
     5
 42
0.05235987755984
  3
STANDARD
100
AcDb2LineAngularDimension
 13
315.548938130875
 23
318.0046185590424
 33
0.0
 14
809.8705578343894
 24
292.0983202187836
 34
0.0
 15
320.5420858046479
 25
317.7429387778277
 35
0.0
 16
461.5203514142298
 26
315.2821539981453
 36
0.0
1001
ACAD
1000
DSTYLE
1002
{
1070
    48
1040
2.000000002
1070
   147
1040
1.199999999999999
1070
    72
1070
     0
1070
    71
1070
     0
1002
}
  0
HATCH
  5
3851
330
106E
100
AcDbEntity
  8
SCHRAFF
100
AcDbHatch
 10
0.0
 20
0.0
 30
0.0
210
0.0
220
0.0
230
1.0
  2
_USER
 70
     0
 71
     0
 91
        5
 92
        7
 72
     1
 73
     1
 93
        4
 10
331.8774101606154
 20
345.7914526834375
 42
1.0
 10
331.8774101606154
 20
351.7914526834372
 42
0.0
 10
287.1498235201368
 20
351.7914526834374
 42
0.0
 10
287.1498235201368
 20
345.7914526834376
 42
0.0
 97
        0
 92
        7
 72
     1
 73
     1
 93
        8
 10
274.9754681355453
 20
352.7565531867356
 42
0.0
 10
273.3149035087677
 20
400.3089024317895
 42
0.4040262258351548
 10
272.8152080952581
 20
400.7914526834382
 42
0.0
 10
270.7980524826616
 20
400.7914526834381
 42
0.0
 10
268.8774101606156
 20
345.7914526834377
 42
0.0
 10
287.1498235201368
 20
345.7914526834376
 42
0.0
 10
287.1498235201367
 20
351.7914526834374
 42
0.0
 10
275.9748589625643
 20
351.7914526834374
 42
-0.4040262258353299
 97
        0
 92
        7
 72
     1
 73
     1
 93
        8
 10
122.6049968010935
 20
351.7914526834379
 42
0.0
 10
122.6049968010935
 20
345.7914526834382
 42
0.0
 10
140.8774101606154
 20
345.7914526834381
 42
0.0
 10
138.9567678385692
 20
400.7914526834382
 42
0.0
 10
136.9396122259727
 20
400.7914526834382
 42
0.4040262258351711
 10
136.4399168124632
 20
400.3089024317895
 42
0.0
 10
134.7793521856857
 20
352.7565531867356
 42
-0.4040262258351948
 10
133.7799613586666
 20
351.791452683438
 42
0.0
 97
        0
 92
        7
 72
     1
 73
     1
 93
       16
 10
112.4549968010935
 20
351.791452683438
 42
0.0
 10
95.53526738518883
 20
351.791452683438
 42
-0.4091108014277082
 10
90.53602890940693
 20
356.7041906512516
 42
0.0
 10
90.37741016061545
 20
365.791452683438
 42
0.0
 10
86.87741016061547
 20
365.7914526834381
 42
0.0
 10
86.87741016061551
 20
362.7914526834382
 42
0.0
 10
86.37741016061541
 20
362.7914526834381
 42
0.0
 10
86.37741016061537
 20
359.7914526834383
 42
0.0
 10
86.87741016061552
 20
359.7914526834382
 42
0.0
 10
86.87741016061535
 20
351.7914526834382
 42
0.0
 10
86.37741016061529
 20
351.7914526834382
 42
0.0
 10
86.37741016061534
 20
348.7914526834383
 42
0.0
 10
86.87741016061528
 20
348.7914526834383
 42
0.0
 10
86.87741016061528
 20
345.7914526834383
 42
0.0
 10
122.6049968010936
 20
345.7914526834382
 42
0.0
 10
122.6049968010935
 20
351.7914526834379
 42
0.0
 97
        0
 92
        7
 72
     1
 73
     1
 93
       14
 10
78.87741016061553
 20
362.7914526834382
 42
0.0
 10
78.87741016061545
 20
365.7914526834382
 42
0.0
 10
75.37741016061545
 20
365.7914526834383
 42
0.0
 10
75.11283120281792
 20
350.6337343429174
 42
-0.0565957168052928
 10
74.96597862302309
 20
349.5150315678127
 42
0.4875001418525418
 10
77.87741016061534
 20
345.7914526834383
 42
0.0
 10
78.87741016061534
 20
345.7914526834384
 42
0.0
 10
78.87741016061534
 20
348.7914526834383
 42
0.0
 10
79.37741016061536
 20
348.7914526834383
 42
0.0
 10
79.37741016061529
 20
351.7914526834383
 42
0.0
 10
78.87741016061534
 20
351.7914526834384
 42
0.0
 10
78.87741016061551
 20
359.7914526834381
 42
0.0
 10
79.3774101606154
 20
359.7914526834382
 42
0.0
 10
79.3774101606154
 20
362.7914526834381
 42
0.0
 97
        0
 75
     0
 76
     0
 52
45.0
 41
5.0
 77
     0
 78
     1
 53
45.0
 43
0.0000000000002274
 44
-0.000719721076905
 45
-3.535533905932737
 46
3.535533905932737
 79
     0
 47
0.2858346110447716
 98
        5
 10
306.6516516155384
 20
347.4868317953948
 10
273.1975864461626
 20
349.7735092123366
 10
129.6596341577915
 20
350.9168471908121
 10
115.0770928298157
 20
349.7735092123366
 10
77.6199767930209
 20
362.0643972259176
  0
LINE
  5
3852
330
106E
100
AcDbEntity
  8
STEMPEL
100
AcDbLine
 10
272.8152080952582
 20
400.7914526834382
 30
0.0
 11
136.9396122259727
 21
400.7914526834382
 31
0.0
  0
LINE
  5
3853
330
106E
100
AcDbEntity
  8
STEMPEL
100
AcDbLine
 10
274.9754681355453
 20
352.7565531867356
 30
0.0
 11
273.3149035087677
 21
400.3089024317895
 31
0.0
  0
LINE
  5
3854
330
106E
100
AcDbEntity
  8
STEMPEL
100
AcDbLine
 10
268.8774101606156
 20
345.7914526834381
 30
0.0
 11
270.7980524826616
 21
400.7914526834382
 31
0.0
  0
ARC
  5
3855
330
106E
100
AcDbEntity
  8
STEMPEL
100
AcDbCircle
 10
272.8152080952582
 20
400.2914526834383
 30
0.0
 40
0.5
100
AcDbArc
 50
2.000000000000414
 51
90.0
  0
ARC
  5
3856
330
106E
100
AcDbEntity
  8
STEMPEL
100
AcDbCircle
 10
136.9396122259727
 20
400.2914526834383
 30
0.0
 40
0.5
100
AcDbArc
 50
90.0
 51
177.9999999999996
  0
LINE
  5
3857
330
106E
100
AcDbEntity
  8
STEMPEL
100
AcDbLine
 10
140.8774101606154
 20
345.7914526834381
 30
0.0
 11
138.9567678385692
 21
400.7914526834382
 31
0.0
  0
LINE
  5
3858
330
106E
100
AcDbEntity
  8
STEMPEL
100
AcDbLine
 10
134.7793521856857
 20
352.7565531867356
 30
0.0
 11
136.4399168124632
 21
400.3089024317895
 31
0.0
  0
DIMENSION
  5
3859
330
106E
100
AcDbEntity
  8
BEM
100
AcDbDimension
  2
*D10
 10
70.20576637909721
 20
345.7914526834378
 30
0.0
 11
64.30576637909716
 21
373.2914526834381
 31
0.0
 70
    32
 71
     5
 42
55.00000000000046
  3
STANDARD
100
AcDbAlignedDimension
 13
136.9396122259727
 23
400.7914526834382
 33
0.0
 14
77.87741016061538
 24
345.7914526834378
 34
0.0
 50
90.0
100
AcDbRotatedDimension
  0
ARC
  5
385A
330
106E
100
AcDbEntity
  8
STEMPEL
100
AcDbCircle
 10
275.9748589625643
 20
352.7914526834381
 30
0.0
 40
1.0
100
AcDbArc
 50
182.0000000000004
 51
270.0
  0
ARC
  5
385B
330
106E
100
AcDbEntity
  8
STEMPEL
100
AcDbCircle
 10
133.7799613586666
 20
352.7914526834381
 30
0.0
 40
1.0
100
AcDbArc
 50
270.0
 51
357.9999999999996
  0
HATCH
  5
385C
330
106E
100
AcDbEntity
  8
SCHRAFF
100
AcDbHatch
 10
0.0
 20
0.0
 30
0.0
210
0.0
220
0.0
230
1.0
  2
_USER
 70
     0
 71
     0
 91
        3
 92
        7
 72
     1
 73
     1
 93
       46
 10
313.8774101606154
 20
371.7914526834376
 42
0.4142135623731197
 10
319.8774101606155
 20
365.7914526834372
 42
0.0
 10
334.8774101606157
 20
365.7914526834372
 42
0.0
 10
334.8774101606157
 20
366.7914526834371
 42
0.0
 10
319.8774101606153
 20
366.7914526834376
 42
-0.4142135623730866
 10
314.8774101606155
 20
371.7914526834376
 42
0.0
 10
314.8774101606158
 20
435.7913947161216
 42
0.2662608607092526
 10
311.9101047823452
 20
440.968533243468
 42
0.0
 10
287.9238019068568
 20
454.9605432541691
 42
0.1339297957670169
 10
284.8774101606155
 20
455.7914526834366
 42
0.0
 10
230.1390479882665
 20
455.7914526834372
 42
-0.2679491924311388
 10
228.8400098825897
 20
456.5414526834373
 42
0.2679491924311121
 10
227.5409717769131
 20
457.2914526834372
 42
0.0
 10
227.3409717769129
 20
457.2914526834372
 42
0.2679491924311658
 10
226.041933671236
 20
456.5414526834372
 42
-0.2679491924311199
 10
224.7428955655594
 20
455.7914526834372
 42
0.0
 10
222.6840479882667
 20
455.7914526834372
 42
-0.267949192431141
 10
221.3850098825901
 20
456.5414526834373
 42
0.2679491924311081
 10
220.0859717769134
 20
457.2914526834373
 42
0.0
 10
219.885971776913
 20
457.2914526834373
 42
0.2679491924310921
 10
218.5869336712365
 20
456.5414526834372
 42
-0.2679491924311222
 10
217.2878955655599
 20
455.7914526834372
 42
0.0
 10
210.8340479882659
 20
455.7914526834372
 42
-0.2679491924311049
 10
209.5350098825892
 20
456.5414526834372
 42
0.267949192431159
 10
208.2359717769125
 20
457.2914526834373
 42
0.0
 10
204.8774101606147
 20
457.2914526834373
 42
0.0
 10
204.8774101606146
 20
456.2914526834374
 42
0.0
 10
208.2359717769131
 20
456.2914526834374
 42
-0.2679491924311403
 10
208.6689844788053
 20
456.0414526834373
 42
0.2679491924311169
 10
210.8340479882665
 20
454.7914526834374
 42
0.0
 10
217.28789556556
 20
454.7914526834373
 42
0.2679491924310984
 10
219.4529590750211
 20
456.0414526834371
 42
-0.2679491924310558
 10
219.885971776913
 20
456.2914526834373
 42
0.0
 10
220.0859717769131
 20
456.2914526834373
 42
-0.2679491924311761
 10
220.5189844788053
 20
456.0414526834371
 42
0.267949192431098
 10
222.6840479882663
 20
454.7914526834373
 42
0.0
 10
224.7428955655591
 20
454.7914526834373
 42
0.2679491924311464
 10
226.9079590750204
 20
456.0414526834374
 42
-0.2679491924312539
 10
227.3409717769129
 20
456.2914526834372
 42
0.0
 10
227.540971776913
 20
456.2914526834372
 42
-0.267949192431122
 10
227.9739844788052
 20
456.0414526834372
 42
0.2679491924311139
 10
230.1390479882662
 20
454.7914526834373
 42
0.0
 10
284.8774101606159
 20
454.791452683437
 42
-0.134038508411308
 10
287.4179098357918
 20
454.0979432965034
 42
0.0
 10
311.3967637287428
 20
440.1102901303179
 42
-0.2667503951500878
 10
313.8774101606157
 20
435.7913947161216
 42
0.0
 97
        0
 92
        7
 72
     1
 73
     1
 93
       46
 10
124.8774101606157
 20
455.7914526834379
 42
0.1339297957670218
 10
121.8310184143747
 20
454.9605432541699
 42
0.0
 10
97.84471553899317
 20
440.9685332435314
 42
0.2662608607147694
 10
94.87741016061557
 20
435.7913947161221
 42
0.0
 10
94.87741016061528
 20
371.7914526834387
 42
-0.4142135623730767
 10
89.87741016061562
 20
366.7914526834386
 42
0.0
 10
86.87741016061551
 20
366.7914526834386
 42
0.0
 10
86.87741016061551
 20
365.7914526834381
 42
0.0
 10
89.87741016061539
 20
365.7914526834381
 42
0.4142135623731191
 10
95.8774101606154
 20
371.7914526834387
 42
0.0
 10
95.87741016061569
 20
435.7913947161226
 42
-0.2667503951500736
 10
98.35805659248876
 20
440.1102901303191
 42
0.0
 10
122.3369104854397
 20
454.0979432965042
 42
-0.1340385084111803
 10
124.8774101606157
 20
454.791452683438
 42
0.0
 10
179.437895565559
 20
454.7914526834376
 42
0.2679491924311593
 10
181.6029590750204
 20
456.0414526834377
 42
-0.2679491924312961
 10
182.0359717769131
 20
456.2914526834374
 42
0.0
 10
182.2359717769131
 20
456.2914526834374
 42
-0.2679491924310882
 10
182.6689844788053
 20
456.0414526834374
 42
0.267949192431126
 10
184.8340479882665
 20
454.7914526834376
 42
0.0
 10
191.2878955655595
 20
454.7914526834375
 42
0.2679491924311275
 10
193.4529590750207
 20
456.0414526834374
 42
-0.267949192431187
 10
193.885971776913
 20
456.2914526834374
 42
0.0
 10
194.085971776913
 20
456.2914526834374
 42
-0.3419987131197122
 10
194.570094695189
 20
455.9164526834372
 42
0.3419987131196003
 10
196.0224634500167
 20
454.7914526834375
 42
0.0
 10
196.2112126426162
 20
454.7914526834375
 42
0.3419987131195982
 10
197.6635813974439
 20
455.9164526834373
 42
-0.3419987131195372
 10
198.1477043157195
 20
456.2914526834374
 42
0.0
 10
204.8774101606146
 20
456.2914526834373
 42
0.0
 10
204.8774101606146
 20
457.2914526834373
 42
0.0
 10
198.1477043157195
 20
457.2914526834373
 42
0.3419987131196226
 10
196.6953355608918
 20
456.1664526834373
 42
-0.3419987131196716
 10
196.2112126426159
 20
455.7914526834373
 42
0.0
 10
196.022463450017
 20
455.7914526834373
 42
-0.341998713119663
 10
195.5383405317411
 20
456.1664526834373
 42
0.3419987131196414
 10
194.0859717769133
 20
457.2914526834374
 42
0.0
 10
193.885971776913
 20
457.2914526834374
 42
0.2679491924311441
 10
192.5869336712363
 20
456.5414526834373
 42
-0.2679491924311281
 10
191.2878955655596
 20
455.7914526834373
 42
0.0
 10
184.8340479882655
 20
455.7914526834373
 42
-0.267949192431088
 10
183.5350098825889
 20
456.5414526834372
 42
0.2679491924311808
 10
182.2359717769121
 20
457.2914526834374
 42
0.0
 10
182.0359717769131
 20
457.2914526834374
 42
0.2679491924311911
 10
180.736933671236
 20
456.5414526834374
 42
-0.2679491924311135
 10
179.4378955655594
 20
455.7914526834375
 42
0.0
 97
        0
 92
        7
 72
     0
 73
     1
 93
        5
 10
78.87741016061551
 20
365.7914526834383
 10
78.87741016061551
 20
366.7914526834384
 10
76.3274101606155
 20
366.7914526834384
 10
74.87741016061562
 20
366.7914526834383
 10
74.87741016061551
 20
365.7914526834383
 97
        0
 75
     0
 76
     0
 52
135.0
 41
2.0
 77
     0
 78
     1
 53
135.0
 43
0.0000000000002274
 44
-0.000719721076905
 45
-1.414213562373095
 46
-1.414213562373094
 79
     0
 47
0.2706587939105027
 98
        3
 10
314.2648589303285
 20
394.9454062905879
 10
150.1896452558476
 20
455.5729775020367
 10
78.16983105037502
 20
366.2555745801632
  0
ENDSEC
  0
SECTION
  2
OBJECTS
  0
DICTIONARY
  5
105C
330
0
100
AcDbDictionary
281
     1
  3
ACAD_COLOR
350
16CF
  3
ACAD_GROUP
350
105D
  3
ACAD_LAYOUT
350
1069
  3
ACAD_MATERIAL
350
16CE
  3
ACAD_MLINESTYLE
350
1066
  3
ACAD_PLOTSETTINGS
350
1068
  3
ACAD_PLOTSTYLENAME
350
105E
  3
AcDbVariableDictionary
350
1114
  0
DICTIONARY
  5
21FF
330
1052
100
AcDbDictionary
280
     1
281
     1
  3
ACAD_LAYERSTATES
360
2200
  0
DICTIONARY
  5
1232
330
106E
100
AcDbDictionary
280
     1
281
     1
  3
ACAD_LAYOUTSELFREF
360
167B
  0
DICTIONARY
  5
1234
330
106A
100
AcDbDictionary
280
     1
281
     1
  3
ACAD_LAYOUTSELFREF
360
167A
  0
DICTIONARY
  5
16CF
102
{ACAD_REACTORS
330
105C
102
}
330
105C
100
AcDbDictionary
281
     1
  0
DICTIONARY
  5
105D
102
{ACAD_REACTORS
330
105C
102
}
330
105C
100
AcDbDictionary
281
     1
  0
DICTIONARY
  5
1069
102
{ACAD_REACTORS
330
105C
102
}
330
105C
100
AcDbDictionary
281
     1
  3
Layout1
350
106D
  3
Model
350
1071
  0
DICTIONARY
  5
16CE
102
{ACAD_REACTORS
330
105C
102
}
330
105C
100
AcDbDictionary
281
     1
  0
DICTIONARY
  5
1066
102
{ACAD_REACTORS
330
105C
102
}
330
105C
100
AcDbDictionary
281
     1
  3
Standard
350
1067
  0
DICTIONARY
  5
1068
102
{ACAD_REACTORS
330
105C
102
}
330
105C
100
AcDbDictionary
281
     1
  0
ACDBDICTIONARYWDFLT
  5
105E
102
{ACAD_REACTORS
330
105C
102
}
330
105C
100
AcDbDictionary
281
     1
  3
Normal
350
105F
100
AcDbDictionaryWithDefault
340
105F
  0
DICTIONARY
  5
1114
102
{ACAD_REACTORS
330
105C
102
}
330
105C
100
AcDbDictionary
281
     1
  3
DIMASSOC
350
1A5D
  3
PROJECTNAME
350
1A5E
  3
SORTENTS
350
1115
  0
DICTIONARY
  5
2200
102
{ACAD_REACTORS
330
21FF
102
}
330
21FF
100
AcDbDictionary
281
     1
  0
XRECORD
  5
167B
102
{ACAD_REACTORS
330
1232
102
}
330
1232
100
AcDbXrecord
280
     1
340
106E
  0
XRECORD
  5
167A
102
{ACAD_REACTORS
330
1234
102
}
330
1234
100
AcDbXrecord
280
     1
340
106A
  0
LAYOUT
  5
106D
102
{ACAD_REACTORS
330
1069
102
}
330
1069
100
AcDbPlotSettings
  1

  2
\\NT_WORK01\HP LaserJet 5000 PCL 6
  4

  6

 40
0.0
 41
0.0
 42
0.0
 43
0.0
 44
0.0
 45
0.0
 46
0.0
 47
0.0
 48
0.0
 49
0.0
140
0.0
141
0.0
142
1.0
143
1.0
 70
   688
 72
     0
 73
     0
 74
     5
  7
monochrome.ctb
 75
    16
147
1.0
 76
     0
 77
     2
 78
   300
148
0.0
149
0.0
100
AcDbLayout
  1
Layout1
 70
     0
 71
     1
 10
0.0
 20
0.0
 11
12.0
 21
9.0
 12
0.0
 22
0.0
 32
0.0
 14
1.000000000000000E+20
 24
1.000000000000000E+20
 34
1.000000000000000E+20
 15
-1.000000000000000E+20
 25
-1.000000000000000E+20
 35
-1.000000000000000E+20
146
0.0
 13
0.0
 23
0.0
 33
0.0
 16
1.0
 26
0.0
 36
0.0
 17
0.0
 27
1.0
 37
0.0
 76
     0
330
106A
  0
LAYOUT
  5
1071
102
{ACAD_REACTORS
330
1069
102
}
330
1069
100
AcDbPlotSettings
  1

  2
none_device
  4
Letter_(8.50_x_11.00_Inches)
  6

 40
6.349999904632568
 41
6.349999904632568
 42
6.350006103515625
 43
6.350006103515625
 44
215.8999938964844
 45
279.3999938964844
 46
0.0
 47
0.0
 48
0.0
 49
0.0
140
0.0
141
0.0
142
1.0
143
1.0
 70
 11952
 72
     0
 73
     1
 74
     0
  7

 75
     0
147
1.0
 76
     0
 77
     2
 78
   300
148
-3034.281979024021
149
89.91803552416191
100
AcDbLayout
  1
Model
 70
     1
 71
     0
 10
0.0
 20
0.0
 11
12.0
 21
9.0
 12
0.0
 22
0.0
 32
0.0
 14
0.0
 24
0.0
 34
0.0
 15
0.0
 25
0.0
 35
0.0
146
0.0
 13
0.0
 23
0.0
 33
0.0
 16
1.0
 26
0.0
 36
0.0
 17
0.0
 27
1.0
 37
0.0
 76
     0
330
106E
  0
MLINESTYLE
  5
1067
102
{ACAD_REACTORS
330
1066
102
}
330
1066
100
AcDbMlineStyle
  2
STANDARD
 70
     0
  3

 62
   256
 51
90.0
 52
90.0
 71
     2
 49
0.5
 62
   256
  6
BYLAYER
 49
-0.5
 62
   256
  6
BYLAYER
  0
ACDBPLACEHOLDER
  5
105F
102
{ACAD_REACTORS
330
105E
102
}
330
105E
  0
DICTIONARYVAR
  5
1A5D
102
{ACAD_REACTORS
330
1114
102
}
330
1114
100
DictionaryVariables
280
     0
  1
1
  0
DICTIONARYVAR
  5
1A5E
102
{ACAD_REACTORS
330
1114
102
}
330
1114
100
DictionaryVariables
280
     0
  1

  0
DICTIONARYVAR
  5
1115
102
{ACAD_REACTORS
330
1114
102
}
330
1114
100
DictionaryVariables
280
     0
  1
96
  0
ENDSEC
  0
EOF
