  0
SECTION
  2
HEADER
  9
$ACADVER
  1
AC1018
  9
$ACADMAINTVER
 70
     2
  9
$DWGCODEPAGE
  3
ANSI_1252
  9
$INSBASE
 10
0.0
 20
0.0
 30
0.0
  9
$EXTMIN
 10
-0.0640771341752498
 20
-0.0453116877386037
 30
-0.000000000000013
  9
$EXTMAX
 10
840.0000039120326
 20
594.0000027663659
 30
0.0000000000000023
  9
$LIMMIN
 10
0.0
 20
0.0
  9
$LIMMAX
 10
839.9999999999998
 20
594.0000000000001
  9
$ORTHOMODE
 70
     1
  9
$REGENMODE
 70
     1
  9
$FILLMODE
 70
     1
  9
$QTEXTMODE
 70
     0
  9
$MIRRTEXT
 70
     1
  9
$LTSCALE
 40
20.0
  9
$ATTMODE
 70
     1
  9
$TEXTSIZE
 40
2.5
  9
$TRACEWID
 40
0.5
  9
$TEXTSTYLE
  7
GREEKS
  9
$CLAYER
  8
BEM
  9
$CELTYPE
  6
ByLayer
  9
$CECOLOR
 62
   256
  9
$CELTSCALE
 40
1.0
  9
$DISPSILH
 70
     0
  9
$DIMSCALE
 40
2.0
  9
$DIMASZ
 40
3.5
  9
$DIMEXO
 40
1.0
  9
$DIMDLI
 40
1.0
  9
$DIMRND
 40
0.0
  9
$DIMDLE
 40
0.0
  9
$DIMEXE
 40
1.0
  9
$DIMTP
 40
0.0
  9
$DIMTM
 40
2.0
  9
$DIMTXT
 40
3.5
  9
$DIMCEN
 40
0.09
  9
$DIMTSZ
 40
0.0
  9
$DIMTOL
 70
     0
  9
$DIMLIM
 70
     0
  9
$DIMTIH
 70
     0
  9
$DIMTOH
 70
     0
  9
$DIMSE1
 70
     0
  9
$DIMSE2
 70
     0
  9
$DIMTAD
 70
     1
  9
$DIMZIN
 70
     8
  9
$DIMBLK
  1

  9
$DIMASO
 70
     1
  9
$DIMSHO
 70
     0
  9
$DIMPOST
  1

  9
$DIMAPOST
  1

  9
$DIMALT
 70
     0
  9
$DIMALTD
 70
     2
  9
$DIMALTF
 40
25.4
  9
$DIMLFAC
 40
1.0
  9
$DIMTOFL
 70
     1
  9
$DIMTVP
 40
0.0
  9
$DIMTIX
 70
     0
  9
$DIMSOXD
 70
     0
  9
$DIMSAH
 70
     0
  9
$DIMBLK1
  1

  9
$DIMBLK2
  1

  9
$DIMSTYLE
  2
STANDARD
  9
$DIMCLRD
 70
   256
  9
$DIMCLRE
 70
     0
  9
$DIMCLRT
 70
     1
  9
$DIMTFAC
 40
0.5
  9
$DIMGAP
 40
1.199999999999999
  9
$DIMJUST
 70
     0
  9
$DIMSD1
 70
     0
  9
$DIMSD2
 70
     0
  9
$DIMTOLJ
 70
     1
  9
$DIMTZIN
 70
     0
  9
$DIMALTZ
 70
     0
  9
$DIMALTTZ
 70
     0
  9
$DIMUPT
 70
     0
  9
$DIMDEC
 70
     2
  9
$DIMTDEC
 70
     2
  9
$DIMALTU
 70
     2
  9
$DIMALTTD
 70
     2
  9
$DIMTXSTY
  7
GREEKS
  9
$DIMAUNIT
 70
     0
  9
$DIMADEC
 70
     0
  9
$DIMALTRND
 40
0.0
  9
$DIMAZIN
 70
     2
  9
$DIMDSEP
 70
    46
  9
$DIMATFIT
 70
     3
  9
$DIMFRAC
 70
     0
  9
$DIMLDRBLK
  1

  9
$DIMLUNIT
 70
     2
  9
$DIMLWD
 70
    -1
  9
$DIMLWE
 70
    -2
  9
$DIMTMOVE
 70
     0
  9
$LUNITS
 70
     2
  9
$LUPREC
 70
     2
  9
$SKETCHINC
 40
1.0
  9
$FILLETRAD
 40
5.7
  9
$AUNITS
 70
     0
  9
$AUPREC
 70
     0
  9
$MENU
  1
ACAD
  9
$ELEVATION
 40
0.0
  9
$PELEVATION
 40
0.0
  9
$THICKNESS
 40
0.0
  9
$LIMCHECK
 70
     0
  9
$CHAMFERA
 40
0.0
  9
$CHAMFERB
 40
0.0
  9
$CHAMFERC
 40
0.0
  9
$CHAMFERD
 40
0.0
  9
$SKPOLY
 70
     0
  9
$TDCREATE
 40
2452806.236912291
  9
$TDUCREATE
 40
2452806.153578959
  9
$TDUPDATE
 40
2455803.477179966
  9
$TDUUPDATE
 40
2455803.393846632
  9
$TDINDWG
 40
0.4392989931
  9
$TDUSRTIMER
 40
0.4392989931
  9
$USRTIMER
 70
     1
  9
$ANGBASE
 50
0.0
  9
$ANGDIR
 70
     0
  9
$PDMODE
 70
     0
  9
$PDSIZE
 40
0.0
  9
$PLINEWID
 40
0.0
  9
$SPLFRAME
 70
     0
  9
$SPLINETYPE
 70
     6
  9
$SPLINESEGS
 70
     8
  9
$HANDSEED
  5
327C
  9
$SURFTAB1
 70
     6
  9
$SURFTAB2
 70
     6
  9
$SURFTYPE
 70
     6
  9
$SURFU
 70
     6
  9
$SURFV
 70
     6
  9
$UCSBASE
  2

  9
$UCSNAME
  2

  9
$UCSORG
 10
0.0
 20
0.0
 30
0.0
  9
$UCSXDIR
 10
1.0
 20
0.0
 30
0.0
  9
$UCSYDIR
 10
0.0
 20
1.0
 30
0.0
  9
$UCSORTHOREF
  2

  9
$UCSORTHOVIEW
 70
     0
  9
$UCSORGTOP
 10
0.0
 20
0.0
 30
0.0
  9
$UCSORGBOTTOM
 10
0.0
 20
0.0
 30
0.0
  9
$UCSORGLEFT
 10
0.0
 20
0.0
 30
0.0
  9
$UCSORGRIGHT
 10
0.0
 20
0.0
 30
0.0
  9
$UCSORGFRONT
 10
0.0
 20
0.0
 30
0.0
  9
$UCSORGBACK
 10
0.0
 20
0.0
 30
0.0
  9
$PUCSBASE
  2

  9
$PUCSNAME
  2

  9
$PUCSORG
 10
0.0
 20
0.0
 30
0.0
  9
$PUCSXDIR
 10
1.0
 20
0.0
 30
0.0
  9
$PUCSYDIR
 10
0.0
 20
1.0
 30
0.0
  9
$PUCSORTHOREF
  2

  9
$PUCSORTHOVIEW
 70
     0
  9
$PUCSORGTOP
 10
0.0
 20
0.0
 30
0.0
  9
$PUCSORGBOTTOM
 10
0.0
 20
0.0
 30
0.0
  9
$PUCSORGLEFT
 10
0.0
 20
0.0
 30
0.0
  9
$PUCSORGRIGHT
 10
0.0
 20
0.0
 30
0.0
  9
$PUCSORGFRONT
 10
0.0
 20
0.0
 30
0.0
  9
$PUCSORGBACK
 10
0.0
 20
0.0
 30
0.0
  9
$USERI1
 70
     0
  9
$USERI2
 70
     0
  9
$USERI3
 70
     0
  9
$USERI4
 70
     0
  9
$USERI5
 70
     0
  9
$USERR1
 40
0.0
  9
$USERR2
 40
0.0
  9
$USERR3
 40
0.0
  9
$USERR4
 40
0.0
  9
$USERR5
 40
0.0
  9
$WORLDVIEW
 70
     1
  9
$SHADEDGE
 70
     3
  9
$SHADEDIF
 70
    70
  9
$TILEMODE
 70
     1
  9
$MAXACTVP
 70
    16
  9
$PINSBASE
 10
0.0
 20
0.0
 30
0.0
  9
$PLIMCHECK
 70
     0
  9
$PEXTMIN
 10
1.000000000000000E+20
 20
1.000000000000000E+20
 30
1.000000000000000E+20
  9
$PEXTMAX
 10
-1.000000000000000E+20
 20
-1.000000000000000E+20
 30
-1.000000000000000E+20
  9
$PLIMMIN
 10
0.0
 20
0.0
  9
$PLIMMAX
 10
12.0
 20
9.0
  9
$UNITMODE
 70
     0
  9
$VISRETAIN
 70
     0
  9
$PLINEGEN
 70
     0
  9
$PSLTSCALE
 70
     0
  9
$TREEDEPTH
 70
  3020
  9
$CMLSTYLE
  2
Standard
  9
$CMLJUST
 70
     0
  9
$CMLSCALE
 40
1.0
  9
$PROXYGRAPHICS
 70
     1
  9
$MEASUREMENT
 70
     0
  9
$CELWEIGHT
370
    -1
  9
$ENDCAPS
280
     0
  9
$JOINSTYLE
280
     0
  9
$LWDISPLAY
290
     0
  9
$INSUNITS
 70
     0
  9
$HYPERLINKBASE
  1

  9
$STYLESHEET
  1
monochrome 1.ctb
  9
$XEDIT
290
     1
  9
$CEPSNTYPE
380
     0
  9
$PSTYLEMODE
290
     1
  9
$FINGERPRINTGUID
  2
{CF1A4752-A575-11D7-B632-000102183313}
  9
$VERSIONGUID
  2
{750B4B8C-EB87-4B88-814F-0A5970352931}
  9
$EXTNAMES
290
     1
  9
$PSVPSCALE
 40
0.0
  9
$OLESTARTUP
290
     0
  9
$SORTENTS
280
    96
  9
$INDEXCTL
280
     0
  9
$HIDETEXT
280
     0
  9
$XCLIPFRAME
290
     0
  9
$HALOGAP
280
     0
  9
$OBSCOLOR
 70
   257
  9
$OBSLTYPE
280
     0
  9
$INTERSECTIONDISPLAY
280
     0
  9
$INTERSECTIONCOLOR
 70
   257
  9
$DIMASSOC
280
     1
  9
$PROJECTNAME
  1

  0
ENDSEC
  0
SECTION
  2
CLASSES
  0
CLASS
  1
ACDBDICTIONARYWDFLT
  2
AcDbDictionaryWithDefault
  3
ObjectDBX Classes
 90
        0
 91
        1
280
     0
281
     0
  0
CLASS
  1
DICTIONARYVAR
  2
AcDbDictionaryVar
  3
ObjectDBX Classes
 90
        0
 91
        3
280
     0
281
     0
  0
CLASS
  1
SORTENTSTABLE
  2
AcDbSortentsTable
  3
ObjectDBX Classes
 90
        0
 91
        0
280
     0
281
     0
  0
ENDSEC
  0
SECTION
  2
TABLES
  0
TABLE
  2
VPORT
  5
1058
330
0
100
AcDbSymbolTable
 70
     3
  0
VPORT
  5
327B
330
1058
100
AcDbSymbolTableRecord
100
AcDbViewportTableRecord
  2
*Active
 70
     0
 10
0.0
 20
0.0
 11
1.0
 21
1.0
 12
419.9999999999999
 22
297.0
 13
0.0
 23
0.0
 14
1.0
 24
1.0
 15
10.0
 25
10.0
 16
0.0
 26
0.0
 36
1.0
 17
0.0
 27
0.0
 37
0.0
 40
627.2187606087389
 41
1.339622641509433
 42
50.0
 43
0.0
 44
0.0
 50
0.0
 51
0.0
 71
     0
 72
  1500
 73
     1
 74
     0
 75
     0
 76
     0
 77
     0
 78
     0
281
     0
 65
     1
110
0.0
120
0.0
130
0.0
111
1.0
121
0.0
131
0.0
112
0.0
122
1.0
132
0.0
 79
     0
146
0.0
  0
ENDTAB
  0
TABLE
  2
LTYPE
  5
1055
330
0
100
AcDbSymbolTable
 70
     3
  0
LTYPE
  5
1063
330
1055
100
AcDbSymbolTableRecord
100
AcDbLinetypeTableRecord
  2
ByBlock
 70
     0
  3

 72
    65
 73
     0
 40
0.0
  0
LTYPE
  5
1064
330
1055
100
AcDbSymbolTableRecord
100
AcDbLinetypeTableRecord
  2
ByLayer
 70
     0
  3

 72
    65
 73
     0
 40
0.0
  0
LTYPE
  5
1065
330
1055
100
AcDbSymbolTableRecord
100
AcDbLinetypeTableRecord
  2
AUSGEZOGEN
 70
     0
  3
Ausgezogene Linie
 72
    65
 73
     0
 40
0.0
  0
LTYPE
  5
1088
330
1055
100
AcDbSymbolTableRecord
100
AcDbLinetypeTableRecord
  2
STRICHPUNKT
 70
     0
  3
__ . __ . __ . __ . __ . __ . __ . __ . __ . __
 72
    65
 73
     4
 40
1.0
 49
0.5
 74
     0
 49
-0.25
 74
     0
 49
0.0
 74
     0
 49
-0.25
 74
     0
  0
LTYPE
  5
1089
330
1055
100
AcDbSymbolTableRecord
100
AcDbLinetypeTableRecord
  2
CONTINUOUS
 70
     0
  3
Solid line
 72
    65
 73
     0
 40
0.0
  0
ENDTAB
  0
TABLE
  2
LAYER
  5
1052
102
{ACAD_XDICTIONARY
360
21FF
102
}
330
0
100
AcDbSymbolTable
 70
     9
  0
LAYER
  5
1060
330
1052
100
AcDbSymbolTableRecord
100
AcDbLayerTableRecord
  2
0
 70
     0
 62
     7
  6
AUSGEZOGEN
370
    -3
390
105F
  0
LAYER
  5
108D
330
1052
100
AcDbSymbolTableRecord
100
AcDbLayerTableRecord
  2
VOLL
 70
     0
 62
     1
  6
AUSGEZOGEN
370
    -3
390
105F
  0
LAYER
  5
108E
330
1052
100
AcDbSymbolTableRecord
100
AcDbLayerTableRecord
  2
HILF
 70
     0
 62
     2
  6
AUSGEZOGEN
370
    -3
390
105F
  0
LAYER
  5
108F
330
1052
100
AcDbSymbolTableRecord
100
AcDbLayerTableRecord
  2
MITTEL
 70
     0
 62
     2
  6
STRICHPUNKT
370
    -3
390
105F
  0
LAYER
  5
1090
330
1052
100
AcDbSymbolTableRecord
100
AcDbLayerTableRecord
  2
BEM
 70
     0
 62
     7
  6
AUSGEZOGEN
370
    -3
390
105F
  0
LAYER
  5
1091
330
1052
100
AcDbSymbolTableRecord
100
AcDbLayerTableRecord
  2
STEMPEL
 70
     0
 62
     3
  6
AUSGEZOGEN
370
    -3
390
105F
  0
LAYER
  5
1092
330
1052
100
AcDbSymbolTableRecord
100
AcDbLayerTableRecord
  2
TEXT
 70
     0
 62
     7
  6
AUSGEZOGEN
370
    -3
390
105F
  0
LAYER
  5
1093
330
1052
100
AcDbSymbolTableRecord
100
AcDbLayerTableRecord
  2
SCHRAFF
 70
     0
 62
     7
  6
AUSGEZOGEN
370
    -3
390
105F
  0
LAYER
  5
1094
330
1052
100
AcDbSymbolTableRecord
100
AcDbLayerTableRecord
  2
DEFPOINTS
 70
     0
 62
     7
  6
AUSGEZOGEN
290
     0
370
    -3
390
105F
  0
ENDTAB
  0
TABLE
  2
STYLE
  5
1053
330
0
100
AcDbSymbolTable
 70
     2
  0
STYLE
  5
1061
330
1053
100
AcDbSymbolTableRecord
100
AcDbTextStyleTableRecord
  2
STANDARD
 70
     0
 40
0.0
 41
1.0
 50
0.0
 71
     0
 42
3.5
  3
txt
  4

  0
STYLE
  5
1087
330
1053
100
AcDbSymbolTableRecord
100
AcDbTextStyleTableRecord
  2
GREEKS
 70
     0
 40
0.0
 41
0.8
 50
0.0
 71
     0
 42
2.5
  3
SIMPLEX.shx
  4

  0
ENDTAB
  0
TABLE
  2
VIEW
  5
1056
330
0
100
AcDbSymbolTable
 70
     0
  0
ENDTAB
  0
TABLE
  2
UCS
  5
1057
330
0
100
AcDbSymbolTable
 70
     0
  0
ENDTAB
  0
TABLE
  2
APPID
  5
1059
330
0
100
AcDbSymbolTable
 70
     1
  0
APPID
  5
1062
330
1059
100
AcDbSymbolTableRecord
100
AcDbRegAppTableRecord
  2
ACAD
 70
     0
  0
ENDTAB
  0
TABLE
  2
DIMSTYLE
  5
105A
330
0
100
AcDbSymbolTable
 70
     1
100
AcDbDimStyleTable
 71
     1
340
108C
  0
DIMSTYLE
105
108C
102
{ACAD_REACTORS
330
22DB
330
2424
330
2434
330
2915
330
2BA0
330
310D
330
311A
330
3127
330
3134
102
}
330
105A
100
AcDbSymbolTableRecord
100
AcDbDimStyleTableRecord
  2
STANDARD
 70
     0
 40
2.0
 41
3.5
 42
1.0
 43
1.0
 44
1.0
 48
2.0
 73
     0
 74
     0
 77
     1
 78
     8
 79
     2
140
3.5
146
0.5
147
1.199999999999999
172
     1
176
   256
178
     1
271
     2
272
     2
340
1087
371
    -1
  0
ENDTAB
  0
TABLE
  2
BLOCK_RECORD
  5
1051
330
0
100
AcDbSymbolTable
 70
    10
  0
BLOCK_RECORD
  5
106E
102
{ACAD_XDICTIONARY
360
1232
102
}
330
1051
100
AcDbSymbolTableRecord
100
AcDbBlockTableRecord
  2
*Model_Space
340
1071
  0
BLOCK_RECORD
  5
106A
102
{ACAD_XDICTIONARY
360
1234
102
}
330
1051
100
AcDbSymbolTableRecord
100
AcDbBlockTableRecord
  2
*Paper_Space
340
106D
  0
BLOCK_RECORD
  5
1072
330
1051
100
AcDbSymbolTableRecord
100
AcDbBlockTableRecord
  2
LOGO
340
0
102
{BLKREFS
331
322
102
}
  0
BLOCK_RECORD
  5
22FD
330
1051
100
AcDbSymbolTableRecord
100
AcDbBlockTableRecord
  2
*D1
340
0
  0
BLOCK_RECORD
  5
2425
330
1051
100
AcDbSymbolTableRecord
100
AcDbBlockTableRecord
  2
*D2
340
0
  0
BLOCK_RECORD
  5
2435
330
1051
100
AcDbSymbolTableRecord
100
AcDbBlockTableRecord
  2
*D3
340
0
  0
BLOCK_RECORD
  5
2916
330
1051
100
AcDbSymbolTableRecord
100
AcDbBlockTableRecord
  2
*D4
340
0
  0
BLOCK_RECORD
  5
2BA1
330
1051
100
AcDbSymbolTableRecord
100
AcDbBlockTableRecord
  2
*D5
340
0
  0
BLOCK_RECORD
  5
310E
330
1051
100
AcDbSymbolTableRecord
100
AcDbBlockTableRecord
  2
*D6
340
0
  0
BLOCK_RECORD
  5
311B
330
1051
100
AcDbSymbolTableRecord
100
AcDbBlockTableRecord
  2
*D7
340
0
  0
BLOCK_RECORD
  5
3128
330
1051
100
AcDbSymbolTableRecord
100
AcDbBlockTableRecord
  2
*D8
340
0
  0
BLOCK_RECORD
  5
3135
330
1051
100
AcDbSymbolTableRecord
100
AcDbBlockTableRecord
  2
*D9
340
0
  0
ENDTAB
  0
ENDSEC
  0
SECTION
  2
BLOCKS
  0
BLOCK
  5
1097
330
106E
100
AcDbEntity
  8
0
100
AcDbBlockBegin
  2
*Model_Space
 70
     0
 10
0.0
 20
0.0
 30
0.0
  3
*Model_Space
  1

  0
ENDBLK
  5
1098
330
106E
100
AcDbEntity
  8
0
100
AcDbBlockEnd
  0
BLOCK
  5
1095
330
106A
100
AcDbEntity
 67
     1
  8
0
100
AcDbBlockBegin
  2
*Paper_Space
 70
     0
 10
0.0
 20
0.0
 30
0.0
  3
*Paper_Space
  1

  0
ENDBLK
  5
1096
330
106A
100
AcDbEntity
 67
     1
  8
0
100
AcDbBlockEnd
  0
BLOCK
  5
43
330
1072
100
AcDbEntity
  8
0
100
AcDbBlockBegin
  2
LOGO
 70
     0
 10
0.0
 20
0.0
 30
0.0
  3
LOGO
  1

  0
ARC
  5
44
330
1072
100
AcDbEntity
  8
0
100
AcDbCircle
 10
11.59973089678112
 20
-9.271599258481501
 30
0.0
 40
4.5
100
AcDbArc
 50
270.0
 51
231.0575587310159
  0
LINE
  5
45
330
1072
100
AcDbEntity
  8
0
100
AcDbLine
 10
3.599730896781125
 20
-4.771599258481529
 30
0.0
 11
3.599730896781153
 21
-11.77159925848133
 31
0.0
  0
LINE
  5
46
330
1072
100
AcDbEntity
  8
0
100
AcDbLine
 10
2.599730896781125
 20
-4.771599258481529
 30
0.0
 11
2.599730896781153
 21
-11.77159925848133
 31
0.0
  0
CIRCLE
  5
47
330
1072
100
AcDbEntity
  8
0
100
AcDbCircle
 10
11.59973089678112
 20
-9.271599258481501
 30
0.0
 40
3.5
  0
ARC
  5
48
330
1072
100
AcDbEntity
  8
0
100
AcDbCircle
 10
31.59973089678115
 20
-9.271599258481472
 30
0.0
 40
4.5
100
AcDbArc
 50
270.0
 51
231.0575587310182
  0
LINE
  5
49
330
1072
100
AcDbEntity
  8
0
100
AcDbLine
 10
17.59973089678112
 20
-4.771599258481472
 30
0.0
 11
17.59973089678115
 21
-13.77159925848147
 31
0.0
  0
ARC
  5
4A
330
1072
100
AcDbEntity
  8
0
100
AcDbCircle
 10
22.59973089678116
 20
-7.271599258481472
 30
0.0
 40
2.5
100
AcDbArc
 50
293.1161887722295
 51
90.0
  0
CIRCLE
  5
4B
330
1072
100
AcDbEntity
  8
0
100
AcDbCircle
 10
31.59973089678115
 20
-9.271599258481472
 30
0.0
 40
3.5
  0
ARC
  5
4C
330
1072
100
AcDbEntity
  8
0
100
AcDbCircle
 10
4.599730896781153
 20
-11.77159925848133
 30
0.0
 40
1.0
100
AcDbArc
 50
180.0
 51
270.0
  0
ARC
  5
4D
330
1072
100
AcDbEntity
  8
0
100
AcDbCircle
 10
4.599730896781153
 20
-11.77159925848133
 30
0.0
 40
2.0
100
AcDbArc
 50
179.9999999999992
 51
270.0
  0
LINE
  5
4E
330
1072
100
AcDbEntity
  8
0
100
AcDbLine
 10
11.59973089678115
 20
-13.77159925848144
 30
0.0
 11
4.599730896781153
 21
-13.77159925848147
 31
0.0
  0
LINE
  5
4F
330
1072
100
AcDbEntity
  8
0
100
AcDbLine
 10
8.771303772034769
 20
-12.77159925848136
 30
0.0
 11
4.599730896781153
 21
-12.77159925848133
 31
0.0
  0
LINE
  5
50
330
1072
100
AcDbEntity
  8
0
100
AcDbLine
 10
31.59973089678115
 20
-13.77159925848147
 30
0.0
 11
23.6715276665056
 21
-13.77159925848144
 31
0.0
  0
LINE
  5
51
330
1072
100
AcDbEntity
  8
0
100
AcDbLine
 10
23.56565672307022
 20
-9.51278021337896
 30
0.0
 11
24.4388546544846
 21
-12.77159925848144
 31
0.0
  0
LINE
  5
52
330
1072
100
AcDbEntity
  8
0
100
AcDbLine
 10
22.59973089678116
 20
-9.771599258481472
 30
0.0
 11
18.59973089678112
 21
-9.771599258481472
 31
0.0
  0
LINE
  5
53
330
1072
100
AcDbEntity
  8
0
100
AcDbLine
 10
18.59973089678115
 20
-13.77159925848144
 30
0.0
 11
17.59973089678115
 21
-13.77159925848144
 31
0.0
  0
LINE
  5
54
330
1072
100
AcDbEntity
  8
0
100
AcDbLine
 10
18.59973089678115
 20
-9.771599258481472
 30
0.0
 11
18.59973089678115
 21
-13.77159925848144
 31
0.0
  0
LINE
  5
55
330
1072
100
AcDbEntity
  8
0
100
AcDbLine
 10
22.59973089678116
 20
-9.771599258481472
 30
0.0
 11
23.67152766650562
 21
-13.77159925848147
 31
0.0
  0
ARC
  5
56
330
1072
100
AcDbEntity
  8
0
100
AcDbCircle
 10
22.59973089678116
 20
-7.271599258481472
 30
0.0
 40
2.5
100
AcDbArc
 50
270.0
 51
270.0000000000007
  0
LINE
  5
57
330
1072
100
AcDbEntity
  8
0
100
AcDbLine
 10
28.77130377203494
 20
-12.77159925848147
 30
0.0
 11
24.43885465448463
 21
-12.77159925848144
 31
0.0
  0
LINE
  5
58
330
1072
100
AcDbEntity
  8
0
100
AcDbLine
 10
3.599730896781125
 20
-4.771599258481472
 30
0.0
 11
2.599730896781125
 21
-4.771599258481472
 31
0.0
  0
LINE
  5
59
330
1072
100
AcDbEntity
  8
0
100
AcDbLine
 10
22.59973089678116
 20
-8.771599258481472
 30
0.0
 11
18.59973089678115
 21
-8.771599258481472
 31
0.0
  0
LINE
  5
5A
330
1072
100
AcDbEntity
  8
0
100
AcDbLine
 10
22.59973089678116
 20
-5.771599258481472
 30
0.0
 11
18.59973089678115
 21
-5.771599258481472
 31
0.0
  0
LINE
  5
5B
330
1072
100
AcDbEntity
  8
0
100
AcDbLine
 10
22.59973089678116
 20
-4.771599258481472
 30
0.0
 11
17.59973089678115
 21
-4.771599258481472
 31
0.0
  0
LINE
  5
5C
330
1072
100
AcDbEntity
  8
0
100
AcDbLine
 10
18.59973089678115
 20
-5.771599258481472
 30
0.0
 11
18.59973089678115
 21
-8.771599258481472
 31
0.0
  0
ARC
  5
5D
330
1072
100
AcDbEntity
  8
0
100
AcDbCircle
 10
22.59973089678116
 20
-7.271599258481472
 30
0.0
 40
1.5
100
AcDbArc
 50
270.0
 51
90.0
  0
ENDBLK
  5
5E
330
1072
100
AcDbEntity
  8
0
100
AcDbBlockEnd
  0
BLOCK
  5
2307
330
22FD
100
AcDbEntity
  8
0
100
AcDbBlockBegin
  2
*D1
 70
     1
 10
0.0
 20
0.0
 30
0.0
  3
*D1
  1

  0
LINE
  5
2B97
330
22FD
100
AcDbEntity
  8
BEM
 62
     0
370
    -2
100
AcDbLine
 10
799.7972658202006
 20
316.1885607773054
 30
0.0
 11
828.6792140262969
 21
314.6749220104563
 31
0.0
  0
LINE
  5
2B98
330
22FD
100
AcDbEntity
  8
BEM
 62
     0
370
    -2
100
AcDbLine
 10
795.9767410144661
 20
243.2886047402217
 30
0.0
 11
824.8586892205624
 21
241.7749659733725
 31
0.0
  0
LINE
  5
2B99
330
22FD
100
AcDbEntity
  8
BEM
100
AcDbLine
 10
826.315603263087
 20
307.7891871796601
 30
0.0
 11
823.2277818447538
 21
248.8700446291404
 31
0.0
  0
SOLID
  5
2B9A
330
22FD
100
AcDbEntity
  8
BEM
100
AcDbTrace
 10
825.1505354725402
 20
307.8502457952768
 30
0.0
 11
827.4806710536342
 21
307.7281285640434
 31
0.0
 12
826.6819549567877
 22
314.7795939229421
 32
0.0
 13
826.6819549567877
 23
314.7795939229421
 33
0.0
  0
SOLID
  5
2B9B
330
22FD
100
AcDbEntity
  8
BEM
100
AcDbTrace
 10
822.0627140542069
 20
248.9311032447572
 30
0.0
 11
824.3928496353008
 21
248.8089860135236
 31
0.0
 12
822.8614301510532
 22
241.8796378858584
 32
0.0
 13
822.8614301510532
 23
241.8796378858584
 33
0.0
  0
MTEXT
  5
2B9C
330
22FD
100
AcDbEntity
  8
BEM
 62
     1
100
AcDbMText
 10
818.2806005780157
 20
278.6697996199793
 30
0.0
 40
7.0
 41
0.0
 71
     5
 72
     1
  1
\A1;%%c73
  7
GREEKS
 11
0.0523359562429389
 21
0.9986295347545741
 31
0.0
 73
     1
 44
1.0
  0
POINT
  5
2B9D
330
22FD
100
AcDbEntity
  8
DEFPOINTS
 62
     0
100
AcDbPoint
 10
797.8000067506914
 20
316.2932326897913
 30
0.0
  0
POINT
  5
2B9E
330
22FD
100
AcDbEntity
  8
DEFPOINTS
 62
     0
100
AcDbPoint
 10
793.9794819449568
 20
243.3932766527075
 30
0.0
  0
POINT
  5
2B9F
330
22FD
100
AcDbEntity
  8
DEFPOINTS
 62
     0
100
AcDbPoint
 10
822.8614301510532
 20
241.8796378858584
 30
0.0
  0
ENDBLK
  5
2308
330
22FD
100
AcDbEntity
  8
0
100
AcDbBlockEnd
  0
BLOCK
  5
242F
330
2425
100
AcDbEntity
  8
0
100
AcDbBlockBegin
  2
*D2
 70
     1
 10
0.0
 20
0.0
 30
0.0
  3
*D2
  1

  0
LINE
  5
2B3F
330
2425
100
AcDbEntity
  8
BEM
 62
     0
370
    -2
100
AcDbLine
 10
420.5378357475758
 20
410.6241708667291
 30
0.0
 11
431.2202136838855
 21
399.9417929304196
 31
0.0
  0
LINE
  5
2B40
330
2425
100
AcDbEntity
  8
BEM
 62
     0
370
    -2
100
AcDbLine
 10
346.2916237229884
 20
336.3779588421416
 30
0.0
 11
356.974001659298
 21
325.695580905832
 31
0.0
  0
LINE
  5
2B41
330
2425
100
AcDbEntity
  8
BEM
100
AcDbLine
 10
424.8562526532065
 20
396.4062590244868
 30
0.0
 11
360.5095355652307
 21
332.0595419365109
 31
0.0
  0
SOLID
  5
2B42
330
2425
100
AcDbEntity
  8
BEM
100
AcDbTrace
 10
424.0312947418222
 20
397.2312169358712
 30
0.0
 11
425.6812105645908
 21
395.5813011131025
 31
0.0
 12
429.8060001215124
 22
401.3560064927926
 32
0.0
 13
429.8060001215124
 23
401.3560064927926
 33
0.0
  0
SOLID
  5
2B43
330
2425
100
AcDbEntity
  8
BEM
100
AcDbTrace
 10
359.6845776538464
 20
332.8844998478952
 30
0.0
 11
361.334493476615
 21
331.2345840251266
 31
0.0
 12
355.5597880969249
 22
327.109794468205
 32
0.0
 13
355.5597880969249
 23
327.109794468205
 33
0.0
  0
MTEXT
  5
2B44
330
2425
100
AcDbEntity
  8
BEM
 62
     1
100
AcDbMText
 10
388.5109641002181
 20
368.4048304894996
 30
0.0
 40
7.0
 41
0.0
 71
     5
 72
     1
  1
\A1;105
  7
GREEKS
 11
0.7071067811865472
 21
0.7071067811865479
 31
0.0
 73
     1
 44
1.0
  0
POINT
  5
2B45
330
2425
100
AcDbEntity
  8
DEFPOINTS
 62
     0
100
AcDbPoint
 10
419.1236221852027
 20
412.0383844291023
 30
0.0
  0
POINT
  5
2B46
330
2425
100
AcDbEntity
  8
DEFPOINTS
 62
     0
100
AcDbPoint
 10
344.8774101606152
 20
337.7921724045147
 30
0.0
  0
POINT
  5
2B47
330
2425
100
AcDbEntity
  8
DEFPOINTS
 62
     0
100
AcDbPoint
 10
355.5597880969249
 20
327.109794468205
 30
0.0
  0
ENDBLK
  5
2430
330
2425
100
AcDbEntity
  8
0
100
AcDbBlockEnd
  0
BLOCK
  5
2444
330
2435
100
AcDbEntity
  8
0
100
AcDbBlockBegin
  2
*D3
 70
     1
 10
0.0
 20
0.0
 30
0.0
  3
*D3
  1

  0
LINE
  5
2BB6
330
2435
100
AcDbEntity
  8
BEM
 62
     0
370
    -2
100
AcDbLine
 10
322.542085804647
 20
304.7551698428886
 30
0.0
 11
463.5418263576627
 21
304.7551698428896
 31
0.0
  0
ARC
  5
2BB7
330
2435
100
AcDbEntity
  8
BEM
100
AcDbCircle
 10
320.542085804646
 20
304.7551698428886
 30
0.0
 40
140.9997405530168
100
AcDbArc
 50
351.3087073873746
 51
356.9999999999998
  0
LINE
  5
2BB8
330
2435
100
AcDbEntity
  8
BEM
100
AcDbLine
 10
459.9227070044995
 20
283.448615218525
 30
0.0
 11
458.2302683456982
 21
272.3772263541505
 31
0.0
  0
ARC
  5
2BB9
330
2435
100
AcDbEntity
  8
BEM
100
AcDbCircle
 10
320.542085804646
 20
304.7551698428886
 30
0.0
 40
140.9997405530168
100
AcDbArc
 50
351.3104624977278
 51
354.1552312488638
  0
ARC
  5
2BBA
330
2435
100
AcDbEntity
  8
BEM
100
AcDbCircle
 10
320.542085804646
 20
304.7551698428886
 30
0.0
 40
140.9997405530168
100
AcDbArc
 50
2.844768751136435
 51
5.68953750227247
  0
ARC
  5
2BBB
330
2435
100
AcDbEntity
  8
BEM
100
AcDbCircle
 10
320.542085804646
 20
304.7551698428886
 30
0.0
 40
140.9997405530168
100
AcDbArc
 50
356.9999999999998
 51
0.0000000000003997
  0
SOLID
  5
2BBC
330
2435
100
AcDbEntity
  8
BEM
100
AcDbTrace
 10
459.6456380963973
 20
290.486614643974
 30
0.0
 11
461.9720244044845
 21
290.3066946895808
 31
0.0
 12
461.3485911136208
 22
297.375813591039
 32
0.0
 13
461.3485911136208
 23
297.375813591039
 33
0.0
  0
SOLID
  5
2BBD
330
2435
100
AcDbEntity
  8
BEM
100
AcDbTrace
 10
462.5343743523715
 20
311.7819727851465
 30
0.0
 11
460.2017599930065
 21
311.7240530568218
 31
0.0
 12
461.5418263576628
 22
304.7551698428895
 32
0.0
 13
461.5418263576628
 23
304.7551698428895
 33
0.0
  0
MTEXT
  5
2BBE
330
2435
100
AcDbEntity
  8
BEM
 62
     1
100
AcDbMText
 10
453.2442381840446
 20
278.8044732940991
 30
0.0
 40
7.0
 41
0.0
 71
     5
 72
     1
  1
\A1;3°
  7
GREEKS
 11
0.1511105945358303
 21
0.988516862890577
 31
0.0
 73
     1
 44
1.0
  0
POINT
  5
2BBF
330
2435
100
AcDbEntity
  8
DEFPOINTS
 62
     0
100
AcDbPoint
 10
461.5203514142289
 20
302.2943850632064
 30
0.0
  0
POINT
  5
2BC0
330
2435
100
AcDbEntity
  8
DEFPOINTS
 62
     0
100
AcDbPoint
 10
320.542085804647
 20
304.7551698428886
 30
0.0
  0
POINT
  5
2BC1
330
2435
100
AcDbEntity
  8
DEFPOINTS
 62
     0
100
AcDbPoint
 10
315.5489381308741
 20
305.0168496241032
 30
0.0
  0
POINT
  5
2BC2
330
2435
100
AcDbEntity
  8
DEFPOINTS
 62
     0
100
AcDbPoint
 10
809.8705578343883
 20
279.1105512838445
 30
0.0
  0
POINT
  5
2BC3
330
2435
100
AcDbEntity
  8
DEFPOINTS
 62
     0
100
AcDbPoint
 10
315.5420858046472
 20
304.7551698428885
 30
0.0
  0
ENDBLK
  5
2445
330
2435
100
AcDbEntity
  8
0
100
AcDbBlockEnd
  0
BLOCK
  5
2920
330
2916
100
AcDbEntity
  8
0
100
AcDbBlockBegin
  2
*D4
 70
     1
 10
0.0
 20
0.0
 30
0.0
  3
*D4
  1

  0
LINE
  5
2BAD
330
2916
100
AcDbEntity
  8
BEM
 62
     0
370
    -2
100
AcDbLine
 10
69.877410160615
 20
335.7921724045148
 30
0.0
 11
69.877410160615
 21
256.9927941944186
 31
0.0
  0
LINE
  5
2BAE
330
2916
100
AcDbEntity
  8
BEM
 62
     0
370
    -2
100
AcDbLine
 10
344.8774101606152
 20
335.7921724045147
 30
0.0
 11
344.8774101606152
 21
256.9927941944186
 31
0.0
  0
LINE
  5
2BAF
330
2916
100
AcDbEntity
  8
BEM
100
AcDbLine
 10
76.877410160615
 20
258.9927941944186
 30
0.0
 11
337.8774101606152
 21
258.9927941944186
 31
0.0
  0
SOLID
  5
2BB0
330
2916
100
AcDbEntity
  8
BEM
100
AcDbTrace
 10
76.877410160615
 20
260.1594608610853
 30
0.0
 11
76.877410160615
 21
257.8261275277519
 31
0.0
 12
69.877410160615
 22
258.9927941944186
 32
0.0
 13
69.877410160615
 23
258.9927941944186
 33
0.0
  0
SOLID
  5
2BB1
330
2916
100
AcDbEntity
  8
BEM
100
AcDbTrace
 10
337.8774101606152
 20
260.1594608610853
 30
0.0
 11
337.8774101606152
 21
257.8261275277519
 31
0.0
 12
344.8774101606152
 22
258.9927941944186
 32
0.0
 13
344.8774101606152
 23
258.9927941944186
 33
0.0
  0
MTEXT
  5
2BB2
330
2916
100
AcDbEntity
  8
BEM
 62
     1
100
AcDbMText
 10
207.3774101606151
 20
264.8927941944186
 30
0.0
 40
7.0
 41
0.0
 71
     5
 72
     1
  1
\A1;275
  7
GREEKS
 73
     1
 44
1.0
  0
POINT
  5
2BB3
330
2916
100
AcDbEntity
  8
DEFPOINTS
 62
     0
100
AcDbPoint
 10
69.877410160615
 20
337.7921724045148
 30
0.0
  0
POINT
  5
2BB4
330
2916
100
AcDbEntity
  8
DEFPOINTS
 62
     0
100
AcDbPoint
 10
344.8774101606152
 20
337.7921724045147
 30
0.0
  0
POINT
  5
2BB5
330
2916
100
AcDbEntity
  8
DEFPOINTS
 62
     0
100
AcDbPoint
 10
344.8774101606152
 20
258.9927941944186
 30
0.0
  0
ENDBLK
  5
2921
330
2916
100
AcDbEntity
  8
0
100
AcDbBlockEnd
  0
BLOCK
  5
2BAB
330
2BA1
100
AcDbEntity
  8
0
100
AcDbBlockBegin
  2
*D5
 70
     1
 10
0.0
 20
0.0
 30
0.0
  3
*D5
  1

  0
LINE
  5
2BA2
330
2BA1
100
AcDbEntity
  8
BEM
 62
     0
370
    -2
100
AcDbLine
 10
67.877410160615
 20
340.7921724045148
 30
0.0
 11
55.7632428172774
 21
340.7921724045148
 31
0.0
  0
LINE
  5
2BA3
330
2BA1
100
AcDbEntity
  8
BEM
 62
     0
370
    -2
100
AcDbLine
 10
148.877410160615
 20
277.7921724045147
 30
0.0
 11
55.76324281727739
 21
277.7921724045148
 31
0.0
  0
LINE
  5
2BA4
330
2BA1
100
AcDbEntity
  8
BEM
100
AcDbLine
 10
57.76324281727739
 20
333.7921724045148
 30
0.0
 11
57.76324281727738
 21
284.7921724045148
 31
0.0
  0
SOLID
  5
2BA5
330
2BA1
100
AcDbEntity
  8
BEM
100
AcDbTrace
 10
56.59657615061073
 20
333.7921724045148
 30
0.0
 11
58.92990948394405
 21
333.7921724045148
 31
0.0
 12
57.7632428172774
 22
340.7921724045148
 32
0.0
 13
57.7632428172774
 23
340.7921724045148
 33
0.0
  0
SOLID
  5
2BA6
330
2BA1
100
AcDbEntity
  8
BEM
100
AcDbTrace
 10
56.59657615061072
 20
284.7921724045148
 30
0.0
 11
58.92990948394405
 21
284.7921724045148
 31
0.0
 12
57.76324281727738
 22
277.7921724045148
 32
0.0
 13
57.76324281727738
 23
277.7921724045148
 33
0.0
  0
MTEXT
  5
2BA7
330
2BA1
100
AcDbEntity
  8
BEM
 62
     1
100
AcDbMText
 10
51.86324281727735
 20
309.2921724045148
 30
0.0
 40
7.0
 41
0.0
 71
     5
 72
     1
  1
\A1;63
  7
GREEKS
 11
0.0000000000000001
 21
1.0
 31
0.0
 73
     1
 44
1.0
  0
POINT
  5
2BA8
330
2BA1
100
AcDbEntity
  8
DEFPOINTS
 62
     0
100
AcDbPoint
 10
69.877410160615
 20
340.7921724045148
 30
0.0
  0
POINT
  5
2BA9
330
2BA1
100
AcDbEntity
  8
DEFPOINTS
 62
     0
100
AcDbPoint
 10
150.877410160615
 20
277.7921724045147
 30
0.0
  0
POINT
  5
2BAA
330
2BA1
100
AcDbEntity
  8
DEFPOINTS
 62
     0
100
AcDbPoint
 10
57.76324281727738
 20
277.7921724045148
 30
0.0
  0
ENDBLK
  5
2BAC
330
2BA1
100
AcDbEntity
  8
0
100
AcDbBlockEnd
  0
BLOCK
  5
3118
330
310E
100
AcDbEntity
  8
0
100
AcDbBlockBegin
  2
*D6
 70
     1
 10
0.0
 20
0.0
 30
0.0
  3
*D6
  1

  0
LINE
  5
310F
330
310E
100
AcDbEntity
  8
BEM
 62
     0
370
    -2
100
AcDbLine
 10
75.87741016061517
 20
345.7921724045152
 30
0.0
 11
55.7632428172774
 21
345.7921724045152
 31
0.0
  0
LINE
  5
3110
330
310E
100
AcDbEntity
  8
BEM
 62
     0
370
    -2
100
AcDbLine
 10
122.8774101606154
 20
455.7921724045149
 30
0.0
 11
55.76324281727742
 21
455.7921724045149
 31
0.0
  0
LINE
  5
3111
330
310E
100
AcDbEntity
  8
BEM
100
AcDbLine
 10
57.7632428172774
 20
352.7921724045152
 30
0.0
 11
57.76324281727742
 21
448.7921724045149
 31
0.0
  0
SOLID
  5
3112
330
310E
100
AcDbEntity
  8
BEM
100
AcDbTrace
 10
56.59657615061074
 20
352.7921724045152
 30
0.0
 11
58.92990948394406
 21
352.7921724045152
 31
0.0
 12
57.7632428172774
 22
345.7921724045152
 32
0.0
 13
57.7632428172774
 23
345.7921724045152
 33
0.0
  0
SOLID
  5
3113
330
310E
100
AcDbEntity
  8
BEM
100
AcDbTrace
 10
56.59657615061076
 20
448.7921724045149
 30
0.0
 11
58.92990948394409
 21
448.7921724045149
 31
0.0
 12
57.76324281727742
 22
455.7921724045149
 32
0.0
 13
57.76324281727742
 23
455.7921724045149
 33
0.0
  0
MTEXT
  5
3114
330
310E
100
AcDbEntity
  8
BEM
 62
     1
100
AcDbMText
 10
51.86324281727735
 20
400.7921724045151
 30
0.0
 40
7.0
 41
0.0
 71
     5
 72
     1
  1
\A1;110
  7
GREEKS
 11
0.0000000000000001
 21
1.0
 31
0.0
 73
     1
 44
1.0
  0
POINT
  5
3115
330
310E
100
AcDbEntity
  8
DEFPOINTS
 62
     0
100
AcDbPoint
 10
77.87741016061517
 20
345.7921724045152
 30
0.0
  0
POINT
  5
3116
330
310E
100
AcDbEntity
  8
DEFPOINTS
 62
     0
100
AcDbPoint
 10
124.8774101606154
 20
455.7921724045149
 30
0.0
  0
POINT
  5
3117
330
310E
100
AcDbEntity
  8
DEFPOINTS
 62
     0
100
AcDbPoint
 10
57.76324281727742
 20
455.7921724045149
 30
0.0
  0
ENDBLK
  5
3119
330
310E
100
AcDbEntity
  8
0
100
AcDbBlockEnd
  0
BLOCK
  5
3125
330
311B
100
AcDbEntity
  8
0
100
AcDbBlockBegin
  2
*D7
 70
     1
 10
0.0
 20
0.0
 30
0.0
  3
*D7
  1

  0
LINE
  5
311C
330
311B
100
AcDbEntity
  8
BEM
 62
     0
370
    -2
100
AcDbLine
 10
94.87741016061534
 20
437.7921144371995
 30
0.0
 11
94.87741016061534
 21
472.0656962597181
 31
0.0
  0
LINE
  5
311D
330
311B
100
AcDbEntity
  8
BEM
 62
     0
370
    -2
100
AcDbLine
 10
314.8774101606156
 20
437.7921144371986
 30
0.0
 11
314.8774101606156
 21
472.0656962597181
 31
0.0
  0
LINE
  5
311E
330
311B
100
AcDbEntity
  8
BEM
100
AcDbLine
 10
101.8774101606153
 20
470.0656962597181
 30
0.0
 11
307.8774101606156
 21
470.0656962597181
 31
0.0
  0
SOLID
  5
311F
330
311B
100
AcDbEntity
  8
BEM
100
AcDbTrace
 10
101.8774101606153
 20
471.2323629263848
 30
0.0
 11
101.8774101606153
 21
468.8990295930515
 31
0.0
 12
94.87741016061534
 22
470.0656962597181
 32
0.0
 13
94.87741016061534
 23
470.0656962597181
 33
0.0
  0
SOLID
  5
3120
330
311B
100
AcDbEntity
  8
BEM
100
AcDbTrace
 10
307.8774101606156
 20
471.2323629263848
 30
0.0
 11
307.8774101606156
 21
468.8990295930515
 31
0.0
 12
314.8774101606156
 22
470.0656962597181
 32
0.0
 13
314.8774101606156
 23
470.0656962597181
 33
0.0
  0
MTEXT
  5
3121
330
311B
100
AcDbEntity
  8
BEM
 62
     1
100
AcDbMText
 10
204.8774101606154
 20
475.9656962597181
 30
0.0
 40
7.0
 41
0.0
 71
     5
 72
     1
  1
\A1;220
  7
GREEKS
 73
     1
 44
1.0
  0
POINT
  5
3122
330
311B
100
AcDbEntity
  8
DEFPOINTS
 62
     0
100
AcDbPoint
 10
94.87741016061534
 20
435.7921144371996
 30
0.0
  0
POINT
  5
3123
330
311B
100
AcDbEntity
  8
DEFPOINTS
 62
     0
100
AcDbPoint
 10
314.8774101606156
 20
435.7921144371985
 30
0.0
  0
POINT
  5
3124
330
311B
100
AcDbEntity
  8
DEFPOINTS
 62
     0
100
AcDbPoint
 10
314.8774101606156
 20
470.0656962597181
 30
0.0
  0
ENDBLK
  5
3126
330
311B
100
AcDbEntity
  8
0
100
AcDbBlockEnd
  0
BLOCK
  5
3132
330
3128
100
AcDbEntity
  8
0
100
AcDbBlockBegin
  2
*D8
 70
     1
 10
0.0
 20
0.0
 30
0.0
  3
*D8
  1

  0
LINE
  5
3129
330
3128
100
AcDbEntity
  8
BEM
 62
     0
370
    -2
100
AcDbLine
 10
74.8774101606154
 20
368.7921724045152
 30
0.0
 11
74.87741016061541
 21
486.0906500142525
 31
0.0
  0
LINE
  5
312A
330
3128
100
AcDbEntity
  8
BEM
 62
     0
370
    -2
100
AcDbLine
 10
334.8774101606154
 20
368.792172404514
 30
0.0
 11
334.8774101606154
 21
486.0906500142525
 31
0.0
  0
LINE
  5
312B
330
3128
100
AcDbEntity
  8
BEM
100
AcDbLine
 10
81.87741016061542
 20
484.0906500142525
 30
0.0
 11
327.8774101606154
 21
484.0906500142525
 31
0.0
  0
SOLID
  5
312C
330
3128
100
AcDbEntity
  8
BEM
100
AcDbTrace
 10
81.87741016061542
 20
485.2573166809192
 30
0.0
 11
81.87741016061542
 21
482.9239833475859
 31
0.0
 12
74.87741016061541
 22
484.0906500142525
 32
0.0
 13
74.87741016061541
 23
484.0906500142525
 33
0.0
  0
SOLID
  5
312D
330
3128
100
AcDbEntity
  8
BEM
100
AcDbTrace
 10
327.8774101606154
 20
485.2573166809192
 30
0.0
 11
327.8774101606154
 21
482.9239833475859
 31
0.0
 12
334.8774101606154
 22
484.0906500142525
 32
0.0
 13
334.8774101606154
 23
484.0906500142525
 33
0.0
  0
MTEXT
  5
312E
330
3128
100
AcDbEntity
  8
BEM
 62
     1
100
AcDbMText
 10
204.8774101606154
 20
489.9906500142525
 30
0.0
 40
7.0
 41
0.0
 71
     5
 72
     1
  1
\A1;260
  7
GREEKS
 73
     1
 44
1.0
  0
POINT
  5
312F
330
3128
100
AcDbEntity
  8
DEFPOINTS
 62
     0
100
AcDbPoint
 10
74.8774101606154
 20
366.7921724045152
 30
0.0
  0
POINT
  5
3130
330
3128
100
AcDbEntity
  8
DEFPOINTS
 62
     0
100
AcDbPoint
 10
334.8774101606154
 20
366.792172404514
 30
0.0
  0
POINT
  5
3131
330
3128
100
AcDbEntity
  8
DEFPOINTS
 62
     0
100
AcDbPoint
 10
334.8774101606154
 20
484.0906500142525
 30
0.0
  0
ENDBLK
  5
3133
330
3128
100
AcDbEntity
  8
0
100
AcDbBlockEnd
  0
BLOCK
  5
313F
330
3135
100
AcDbEntity
  8
0
100
AcDbBlockBegin
  2
*D9
 70
     1
 10
0.0
 20
0.0
 30
0.0
  3
*D9
  1

  0
LINE
  5
3152
330
3135
100
AcDbEntity
  8
BEM
 62
     0
370
    -2
100
AcDbLine
 10
204.8774101606145
 20
496.0310887185012
 30
0.0
 11
204.8774101606145
 21
507.8845066638182
 31
0.0
  0
LINE
  5
3153
330
3135
100
AcDbEntity
  8
BEM
 62
     0
370
    -2
100
AcDbLine
 10
804.8774101606154
 20
281.3722310650593
 30
0.0
 11
804.8774101606154
 21
507.8845066638182
 31
0.0
  0
LINE
  5
3154
330
3135
100
AcDbEntity
  8
BEM
100
AcDbLine
 10
211.8774101606144
 20
505.8845066638182
 30
0.0
 11
797.8774101606155
 21
505.8845066638182
 31
0.0
  0
SOLID
  5
3155
330
3135
100
AcDbEntity
  8
BEM
100
AcDbTrace
 10
211.8774101606144
 20
507.0511733304849
 30
0.0
 11
211.8774101606144
 21
504.7178399971515
 31
0.0
 12
204.8774101606145
 22
505.8845066638182
 32
0.0
 13
204.8774101606145
 23
505.8845066638182
 33
0.0
  0
SOLID
  5
3156
330
3135
100
AcDbEntity
  8
BEM
100
AcDbTrace
 10
797.8774101606155
 20
507.0511733304849
 30
0.0
 11
797.8774101606155
 21
504.7178399971515
 31
0.0
 12
804.8774101606154
 22
505.8845066638182
 32
0.0
 13
804.8774101606154
 23
505.8845066638182
 33
0.0
  0
MTEXT
  5
3157
330
3135
100
AcDbEntity
  8
BEM
 62
     1
100
AcDbMText
 10
504.8774101606149
 20
511.7845066638182
 30
0.0
 40
7.0
 41
0.0
 71
     5
 72
     1
  1
\A1;600
  7
GREEKS
 73
     1
 44
1.0
  0
POINT
  5
3158
330
3135
100
AcDbEntity
  8
DEFPOINTS
 62
     0
100
AcDbPoint
 10
204.8774101606145
 20
494.0310887185012
 30
0.0
  0
POINT
  5
3159
330
3135
100
AcDbEntity
  8
DEFPOINTS
 62
     0
100
AcDbPoint
 10
804.8774101606154
 20
279.3722310650593
 30
0.0
  0
POINT
  5
315A
330
3135
100
AcDbEntity
  8
DEFPOINTS
 62
     0
100
AcDbPoint
 10
804.8774101606154
 20
505.8845066638182
 30
0.0
  0
ENDBLK
  5
3140
330
3135
100
AcDbEntity
  8
0
100
AcDbBlockEnd
  0
ENDSEC
  0
SECTION
  2
ENTITIES
  0
LINE
  5
2DF
330
106E
100
AcDbEntity
  8
STEMPEL
100
AcDbLine
 10
830.0
 20
109.9999999999999
 30
0.0
 11
470.0
 21
109.9999999999999
 31
0.0
  0
LINE
  5
2E0
330
106E
100
AcDbEntity
  8
STEMPEL
100
AcDbLine
 10
566.0
 20
109.9999999999996
 30
0.0
 11
566.0
 21
10.0
 31
0.0
  0
LINE
  5
2E1
330
106E
100
AcDbEntity
  8
STEMPEL
100
AcDbLine
 10
650.0
 20
109.9999999999999
 30
0.0
 11
650.0
 21
10.0
 31
0.0
  0
LINE
  5
2E2
330
106E
100
AcDbEntity
  8
STEMPEL
100
AcDbLine
 10
752.0
 20
109.9999999999996
 30
0.0
 11
752.0
 21
40.0
 31
0.0
  0
LINE
  5
2E3
330
106E
100
AcDbEntity
  8
STEMPEL
100
AcDbLine
 10
565.9999999999997
 20
30.0
 30
0.0
 11
470.0
 21
30.0
 31
0.0
  0
LINE
  5
2E4
330
106E
100
AcDbEntity
  8
STEMPEL
100
AcDbLine
 10
830.0
 20
40.0
 30
0.0
 11
566.0
 21
40.0
 31
0.0
  0
LINE
  5
2E5
330
106E
100
AcDbEntity
  8
STEMPEL
100
AcDbLine
 10
830.0
 20
80.0
 30
0.0
 11
566.0
 21
79.99999999999977
 31
0.0
  0
LINE
  5
2E6
330
106E
100
AcDbEntity
  8
VOLL
100
AcDbLine
 10
484.0000000000001
 20
109.9999999999999
 30
0.0
 11
484.0
 21
10.0
 31
0.0
  0
LINE
  5
2E7
330
106E
100
AcDbEntity
  8
VOLL
100
AcDbLine
 10
524.0
 20
109.9999999999996
 30
0.0
 11
524.0
 21
10.0
 31
0.0
  0
LINE
  5
2E8
330
106E
100
AcDbEntity
  8
VOLL
100
AcDbLine
 10
544.0
 20
109.9999999999996
 30
0.0
 11
544.0
 21
10.0
 31
0.0
  0
LINE
  5
2E9
330
106E
100
AcDbEntity
  8
VOLL
100
AcDbLine
 10
584.0
 20
79.99999999999977
 30
0.0
 11
584.0
 21
40.0
 31
0.0
  0
LINE
  5
2EA
330
106E
100
AcDbEntity
  8
VOLL
100
AcDbLine
 10
610.0
 20
109.9999999999996
 30
0.0
 11
610.0
 21
40.0
 31
0.0
  0
LINE
  5
2EB
330
106E
100
AcDbEntity
  8
HILF
100
AcDbLine
 10
470.0000000000001
 20
99.99999999999989
 30
0.0
 11
566.0
 21
99.99999999999989
 31
0.0
  0
LINE
  5
2EC
330
106E
100
AcDbEntity
  8
HILF
100
AcDbLine
 10
470.0000000000001
 20
89.99999999999989
 30
0.0
 11
566.0
 21
89.99999999999989
 31
0.0
  0
LINE
  5
2ED
330
106E
100
AcDbEntity
  8
HILF
100
AcDbLine
 10
470.0000000000001
 20
79.99999999999977
 30
0.0
 11
566.0
 21
79.99999999999977
 31
0.0
  0
LINE
  5
2EE
330
106E
100
AcDbEntity
  8
HILF
100
AcDbLine
 10
470.0000000000001
 20
69.99999999999977
 30
0.0
 11
566.0
 21
69.99999999999977
 31
0.0
  0
LINE
  5
2EF
330
106E
100
AcDbEntity
  8
HILF
100
AcDbLine
 10
470.0000000000001
 20
60.0
 30
0.0
 11
566.0
 21
60.0
 31
0.0
  0
LINE
  5
2F0
330
106E
100
AcDbEntity
  8
HILF
100
AcDbLine
 10
470.0000000000001
 20
50.0
 30
0.0
 11
566.0
 21
50.0
 31
0.0
  0
LINE
  5
2F1
330
106E
100
AcDbEntity
  8
HILF
100
AcDbLine
 10
470.0000000000001
 20
40.0
 30
0.0
 11
566.0
 21
40.0
 31
0.0
  0
LINE
  5
2F2
330
106E
100
AcDbEntity
  8
HILF
100
AcDbLine
 10
566.0
 20
69.99999999999977
 30
0.0
 11
650.0
 21
69.99999999999977
 31
0.0
  0
LINE
  5
2F3
330
106E
100
AcDbEntity
  8
HILF
100
AcDbLine
 10
566.0
 20
60.0
 30
0.0
 11
650.0
 21
60.0
 31
0.0
  0
LINE
  5
2F4
330
106E
100
AcDbEntity
  8
HILF
100
AcDbLine
 10
566.0
 20
50.0
 30
0.0
 11
650.0
 21
50.0
 31
0.0
  0
LINE
  5
2F5
330
106E
100
AcDbEntity
  8
HILF
100
AcDbLine
 10
654.7736801096946
 20
84.03758247564121
 30
0.0
 11
744.8353916556309
 21
84.03758247564121
 31
0.0
  0
LINE
  5
2F6
330
106E
100
AcDbEntity
  8
HILF
100
AcDbLine
 10
654.7736801096946
 20
69.99999999999977
 30
0.0
 11
744.8353916556309
 21
69.99999999999977
 31
0.0
  0
LINE
  5
2F7
330
106E
100
AcDbEntity
  8
HILF
100
AcDbLine
 10
654.7736801096946
 20
60.0
 30
0.0
 11
744.8353916556309
 21
60.0
 31
0.0
  0
LINE
  5
2F8
330
106E
100
AcDbEntity
  8
HILF
100
AcDbLine
 10
654.7736801096946
 20
50.0
 30
0.0
 11
744.8353916556309
 21
50.0
 31
0.0
  0
LINE
  5
2F9
330
106E
100
AcDbEntity
  8
VOLL
100
AcDbLine
 10
752.0
 20
60.0
 30
0.0
 11
830.0
 21
60.0
 31
0.0
  0
LINE
  5
2FA
330
106E
100
AcDbEntity
  8
HILF
100
AcDbLine
 10
756.7238616296992
 20
83.77983636955798
 30
0.0
 11
824.8588839326728
 21
83.77983636955798
 31
0.0
  0
LINE
  5
2FB
330
106E
100
AcDbEntity
  8
HILF
100
AcDbLine
 10
653.4909699289885
 20
14.89398258028314
 30
0.0
 11
824.8588839326728
 21
14.89398258028314
 31
0.0
  0
TEXT
  5
2FC
330
106E
100
AcDbEntity
  8
TEXT
100
AcDbText
 10
492.7826069847975
 20
18.67381894984123
 30
0.0
 40
4.0
  1
Änderung
 41
0.8
  7
GREEKS
 72
     1
 11
503.5254641276546
 21
18.67381894984123
 31
0.0
100
AcDbText
  0
TEXT
  5
2FD
330
106E
100
AcDbEntity
  8
TEXT
100
AcDbText
 10
573.5163572150376
 20
102.4620895087085
 30
0.0
 40
5.0
  1
Maßstab
 41
0.8
  7
GREEKS
100
AcDbText
  0
TEXT
  5
2FE
330
106E
100
AcDbEntity
  8
TEXT
100
AcDbText
 10
614.2858954734052
 20
102.4184168434816
 30
0.0
 40
5.0
  1
Zul. Abw.
 41
0.8
  7
GREEKS
100
AcDbText
  0
TEXT
  5
2FF
330
106E
100
AcDbEntity
  8
TEXT
100
AcDbText
 10
654.8779403809009
 20
102.5489328011778
 30
0.0
 40
5.0
  1
Benennung
 41
0.8
  7
GREEKS
100
AcDbText
  0
TEXT
  5
300
330
106E
100
AcDbEntity
  8
TEXT
100
AcDbText
 10
756.178754957634
 20
102.3132034537135
 30
0.0
 40
5.0
  1
Zeichnungs Nr.
 41
0.8
  7
GREEKS
100
AcDbText
  0
TEXT
  5
301
330
106E
100
AcDbEntity
  8
TEXT
100
AcDbText
 10
654.7422383911359
 20
30.84560570193048
 30
0.0
 40
5.0
  1
Bauvorhaben
 41
0.8
  7
GREEKS
100
AcDbText
  0
TEXT
  5
302
330
106E
100
AcDbEntity
  8
TEXT
100
AcDbText
 10
756.7238616296992
 20
73.18118237099952
 30
0.0
 40
5.0
  1
Ersatz für:
 41
0.8
  7
GREEKS
100
AcDbText
  0
TEXT
  5
303
330
106E
100
AcDbEntity
  8
TEXT
100
AcDbText
 10
478.2664110704575
 20
13.65465846027177
 30
0.0
 40
4.0
  1
Index
 50
90.0
 41
0.8
  7
GREEKS
100
AcDbText
  0
TEXT
  5
304
330
106E
100
AcDbEntity
  8
TEXT
100
AcDbText
 10
530.0571803261054
 20
18.67156269339807
 30
0.0
 40
4.0
  1
Tag
 41
0.8
  7
GREEKS
 72
     1
 11
533.7905136594388
 21
18.67156269339807
 31
0.0
100
AcDbText
  0
TEXT
  5
305
330
106E
100
AcDbEntity
  8
TEXT
100
AcDbText
 10
548.6614567187547
 20
18.59324216966411
 30
0.0
 40
4.0
  1
Name
 41
0.8
  7
GREEKS
 72
     1
 11
554.9852662425641
 21
18.59324216966411
 31
0.0
100
AcDbText
  0
TEXT
  5
306
330
106E
100
AcDbEntity
  8
TEXT
100
AcDbText
 10
592.3311673153651
 20
73.31880501229921
 30
0.0
 40
4.0
  1
Tag
 41
0.8
  7
GREEKS
100
AcDbText
  0
TEXT
  5
307
330
106E
100
AcDbEntity
  8
TEXT
100
AcDbText
 10
622.4626584226293
 20
73.30961091915219
 30
0.0
 40
4.0
  1
Name
 41
0.8
  7
GREEKS
100
AcDbText
  0
TEXT
  5
308
330
106E
100
AcDbEntity
  8
TEXT
100
AcDbText
 10
567.5836127167615
 20
63.62990369617955
 30
0.0
 40
4.0
  1
Gez.
 41
0.8
  7
GREEKS
100
AcDbText
  0
TEXT
  5
309
330
106E
100
AcDbEntity
  8
TEXT
100
AcDbText
 10
567.5515086571672
 20
53.68926291428374
 30
0.0
 40
4.0
  1
Gepr.
 41
0.8
  7
GREEKS
100
AcDbText
  0
TEXT
  5
30A
330
106E
100
AcDbEntity
  8
TEXT
100
AcDbText
 10
567.6006777387303
 20
43.5294638964981
 30
0.0
 40
4.0
  1
Norm.
 41
0.8
  7
GREEKS
100
AcDbText
  0
LINE
  5
30B
330
106E
100
AcDbEntity
  8
STEMPEL
100
AcDbLine
 10
479.9999999999998
 20
10.0
 30
0.0
 11
830.0
 21
10.0
 31
0.0
  0
TEXT
  5
30C
330
106E
100
AcDbEntity
  8
TEXT
100
AcDbText
 10
757.2400861497006
 20
52.07416177878599
 30
0.0
 40
5.0
  1
ersetzt durch:
 41
0.8
  7
GREEKS
100
AcDbText
  0
LINE
  5
30D
330
106E
100
AcDbEntity
  8
STEMPEL
100
AcDbLine
 10
830.0
 20
10.0
 30
0.0
 11
39.99999999999997
 21
10.0
 31
0.0
  0
LINE
  5
30E
330
106E
100
AcDbEntity
  8
STEMPEL
100
AcDbLine
 10
830.0
 20
10.0
 30
0.0
 11
830.0
 21
583.9999999999998
 31
0.0
  0
LINE
  5
30F
330
106E
100
AcDbEntity
  8
STEMPEL
100
AcDbLine
 10
470.0
 20
10.0
 30
0.0
 11
470.0
 21
109.9999999999999
 31
0.0
  0
LINE
  5
310
330
106E
100
AcDbEntity
  8
STEMPEL
100
AcDbLine
 10
830.0
 20
583.9999999999998
 30
0.0
 11
39.99999999999986
 21
583.9999999999998
 31
0.0
  0
LINE
  5
311
330
106E
100
AcDbEntity
  8
HILF
100
AcDbLine
 10
839.9999999999998
 20
594.0000000000001
 30
0.0
 11
-0.0000000000002274
 21
593.9999999999996
 31
0.0
  0
LINE
  5
312
330
106E
100
AcDbEntity
  8
HILF
100
AcDbLine
 10
840.0
 20
0.0
 30
0.0
 11
0.0
 21
0.0
 31
0.0
  0
LINE
  5
313
330
106E
100
AcDbEntity
  8
HILF
100
AcDbLine
 10
31.08767135713847
 20
296.9999999999998
 30
0.0
 11
0.0
 21
296.9999999999998
 31
0.0
  0
TEXT
  5
314
330
106E
100
AcDbEntity
  8
TEXT
100
AcDbText
 10
568.6221098221039
 20
73.14025471151649
 30
0.0
 40
4.0
  1
2011
 41
0.8
  7
GREEKS
100
AcDbText
  0
LINE
  5
315
330
106E
100
AcDbEntity
  8
HILF
100
AcDbLine
 10
840.0
 20
-0.0000000000002274
 30
0.0
 11
839.9999999999998
 21
593.9999999999998
 31
0.0
  0
TEXT
  5
316
330
106E
100
AcDbEntity
  8
VOLL
100
AcDbText
 10
78.07675471698113
 20
31.02594776470585
 30
0.0
 40
1.8
  1

  7
GREEKS
100
AcDbText
  0
TEXT
  5
317
330
106E
100
AcDbEntity
  8
TEXT
100
AcDbText
 10
471.8550995097768
 20
111.6719999999997
 30
0.0
 40
5.0
  1
Erstellt mit AUTOCAD 2004
 41
0.8
  7
GREEKS
100
AcDbText
  0
TEXT
  5
318
330
106E
100
AcDbEntity
  8
TEXT
100
AcDbText
 10
624.4216048581257
 20
63.0896391972351
 30
0.0
 40
4.0
  1
Koeh
 41
0.8
  7
GREEKS
 72
     1
 11
629.6787477152686
 21
63.0896391972351
 31
0.0
100
AcDbText
  0
TEXT
  5
319
330
106E
100
AcDbEntity
  8
TEXT
 62
     1
100
AcDbText
 10
767.3644602129931
 20
88.14901428913946
 30
0.0
 40
7.0
  1
01364070W
 41
0.8
  7
GREEKS
 72
     1
 11
790.8311268796597
 21
88.14901428913946
 31
0.0
100
AcDbText
  0
TEXT
  5
31A
330
106E
100
AcDbEntity
  8
TEXT
 62
     1
100
AcDbText
 10
580.5006306481886
 20
88.14901428913946
 30
0.0
 40
7.0
  1
1:2
 41
0.8
  7
GREEKS
100
AcDbText
  0
TEXT
  5
31B
330
106E
100
AcDbEntity
  8
TEXT
100
AcDbText
 10
590.3989971082361
 20
63.10765040825732
 30
0.0
 40
4.0
  1
29.08.
 41
0.8
  7
GREEKS
 72
     1
 11
597.4085209177599
 21
63.10765040825732
 31
0.0
100
AcDbText
  0
TEXT
  5
31C
330
106E
100
AcDbEntity
  8
TEXT
 62
     1
100
AcDbText
 10
655.0506768857031
 20
87.41748789253767
 30
0.0
 40
7.0
  1
Rainstar Attikaablauf
 41
0.8
  7
GREEKS
100
AcDbText
  0
TEXT
  5
31D
330
106E
100
AcDbEntity
  8
TEXT
100
AcDbText
 10
655.1296391125315
 20
71.50334417585281
 30
0.0
 40
5.0
  1
DN70 für Bitumenklemmung
 41
0.8
  7
GREEKS
100
AcDbText
  0
TEXT
  5
31F
330
106E
100
AcDbEntity
  8
TEXT
100
AcDbText
 10
655.1296391125315
 20
51.64011943042146
 30
0.0
 40
5.0
  1
EDV-Art.Nr. 01364.070X
 41
0.8
  7
GREEKS
100
AcDbText
  0
TEXT
  5
320
330
106E
100
AcDbEntity
  8
TEXT
100
AcDbText
 10
654.9837501577826
 20
42.62974153022628
 30
0.0
 40
4.0
  1
01364070W.DWG
 41
0.8
  7
GREEKS
100
AcDbText
  0
TEXT
  5
321
330
106E
100
AcDbEntity
  8
TEXT
100
AcDbText
 10
612.6261322080839
 20
90.7636384102301
 30
0.0
 40
4.0
  1
DIN EN1124-3
 41
0.8
  7
GREEKS
 72
     1
 11
629.6166083985601
 21
90.7636384102301
 31
0.0
100
AcDbText
  0
INSERT
  5
322
330
106E
100
AcDbEntity
  8
STEMPEL
100
AcDbBlockReference
  2
LOGO
 10
570.9955485457794
 20
45.0210527644831
 30
0.0
 41
2.0
 42
2.0
 43
2.0
  0
LINE
  5
323
330
106E
100
AcDbEntity
  8
HILF
100
AcDbLine
 10
0.0
 20
0.0
 30
0.0
 11
-0.0000000000002274
 21
593.9999999999996
 31
0.0
  0
LINE
  5
324
330
106E
100
AcDbEntity
  8
STEMPEL
100
AcDbLine
 10
39.99999999999997
 20
10.0
 30
0.0
 11
39.99999999999986
 21
583.9999999999998
 31
0.0
  0
LINE
  5
325
330
106E
100
AcDbEntity
  8
HILF
 62
     7
100
AcDbLine
 10
460.0
 20
-0.0000000000002274
 30
0.0
 11
460.0
 21
10.0
 31
0.0
  0
LINE
  5
326
330
106E
100
AcDbEntity
  8
HILF
 62
     7
100
AcDbLine
 10
459.9999999999998
 20
583.9999999999998
 30
0.0
 11
459.9999999999998
 21
593.9999999999996
 31
0.0
  0
TEXT
  5
327
330
106E
100
AcDbEntity
  8
TEXT
100
AcDbText
 10
836.5811541437437
 20
12.14804815338303
 30
0.0
 40
4.0
  1
Diese Zeichnung ist urheberrechtlich geschützt und bleibt unser Eigentum. Sie darf weder ganz noch teilweise vervielfältigt und nicht an Dritte weitergegeben werden.
 50
90.0
 41
0.8
  7
GREEKS
100
AcDbText
  0
TEXT
  5
1C0B
330
106E
100
AcDbEntity
  8
TEXT
 62
     1
100
AcDbText
 10
790.8311268796597
 20
62.65843508889031
 30
0.0
 40
7.0
  1

 41
0.8
  7
GREEKS
 72
     1
 11
790.8311268796597
 21
62.65843508889031
 31
0.0
100
AcDbText
  0
TEXT
  5
206F
330
106E
100
AcDbEntity
  8
TEXT
 62
     1
100
AcDbText
 10
664.6057658946467
 20
115.5115488980132
 30
0.0
 40
7.0
  1

 41
0.8
  7
GREEKS
100
AcDbText
  0
MTEXT
  5
2105
330
106E
100
AcDbEntity
  8
BEM
 62
     1
100
AcDbMText
 10
168.1670985835575
 20
494.7121253266709
 30
0.0
 40
7.0
 41
0.0
 71
     1
 72
     1
  1
\A1;
  7
GREEKS
 73
     1
 44
1.0
  0
LINE
  5
222A
330
106E
100
AcDbEntity
  8
STEMPEL
100
AcDbLine
 10
69.877410160615
 20
337.7921724045148
 30
0.0
 11
342.5163928550885
 21
337.7921724045147
 31
0.0
  0
LINE
  5
222B
102
{ACAD_REACTORS
330
23D7
102
}
330
106E
100
AcDbEntity
  8
STEMPEL
100
AcDbLine
 10
341.877410160615
 20
337.7921724045148
 30
0.0
 11
341.877410160615
 21
330.6740862150528
 31
0.0
  0
LINE
  5
222C
330
106E
100
AcDbEntity
  8
STEMPEL
100
AcDbLine
 10
141.877410160615
 20
337.7921724045148
 30
0.0
 11
141.877410160615
 21
286.7921724045148
 31
0.0
  0
LINE
  5
222D
330
106E
100
AcDbEntity
  8
STEMPEL
100
AcDbLine
 10
319.1290149860879
 20
277.7921724045153
 30
0.0
 11
150.877410160615
 21
277.7921724045147
 31
0.0
  0
LINE
  5
222E
330
106E
100
AcDbEntity
  8
STEMPEL
100
AcDbLine
 10
341.877410160615
 20
332.2921724045153
 30
0.0
 11
340.377410160615
 21
332.2921724045152
 31
0.0
  0
ARC
  5
222F
330
106E
100
AcDbEntity
  8
STEMPEL
100
AcDbCircle
 10
150.877410160615
 20
286.7921724045148
 30
0.0
 40
9.0
100
AcDbArc
 50
180.0
 51
270.0
  0
LINE
  5
2238
330
106E
100
AcDbEntity
  8
STEMPEL
100
AcDbLine
 10
143.377410160615
 20
337.7921724045148
 30
0.0
 11
143.377410160615
 21
286.7921724045148
 31
0.0
  0
LINE
  5
2239
330
106E
100
AcDbEntity
  8
STEMPEL
100
AcDbLine
 10
340.377410160615
 20
337.7921724045148
 30
0.0
 11
340.3774101606148
 21
330.7526978839772
 31
0.0
  0
LINE
  5
223B
330
106E
100
AcDbEntity
  8
STEMPEL
100
AcDbLine
 10
319.2076266550123
 20
279.2921724045153
 30
0.0
 11
150.877410160615
 21
279.2921724045148
 31
0.0
  0
ARC
  5
223C
330
106E
100
AcDbEntity
  8
STEMPEL
100
AcDbCircle
 10
150.877410160615
 20
286.7921724045148
 30
0.0
 40
7.5
100
AcDbArc
 50
180.0
 51
270.0
  0
LINE
  5
2249
330
106E
100
AcDbEntity
  8
STEMPEL
100
AcDbLine
 10
69.877410160615
 20
337.7921724045148
 30
0.0
 11
69.877410160615
 21
340.7921724045148
 31
0.0
  0
LINE
  5
224A
330
106E
100
AcDbEntity
  8
STEMPEL
100
AcDbLine
 10
69.877410160615
 20
340.7921724045148
 30
0.0
 11
342.5163928550885
 21
340.7921724045148
 31
0.0
  0
LINE
  5
224C
330
106E
100
AcDbEntity
  8
BEM
100
AcDbLine
 10
344.8774101606152
 20
337.7921724045147
 30
0.0
 11
346.546901507852
 21
339.4616637517514
 31
0.0
  0
LINE
  5
224D
330
106E
100
AcDbEntity
  8
STEMPEL
100
AcDbLine
 10
419.1236221852027
 20
412.0383844291023
 30
0.0
 11
417.0023018416429
 21
414.1597047726618
 31
0.0
  0
LINE
  5
224E
330
106E
100
AcDbEntity
  8
STEMPEL
100
AcDbLine
 10
344.4255811642922
 20
341.582984095311
 30
0.0
 11
417.0023018416429
 21
414.159704772662
 31
0.0
  0
ARC
  5
224F
330
106E
100
AcDbEntity
  8
STEMPEL
100
AcDbCircle
 10
342.5163928550885
 20
343.4921724045147
 30
0.0
 40
5.7
100
AcDbArc
 50
270.0
 51
314.9999999999999
  0
ARC
  5
2250
330
106E
100
AcDbEntity
  8
STEMPEL
100
AcDbCircle
 10
342.5163928550885
 20
343.4921724045147
 30
0.0
 40
2.7
100
AcDbArc
 50
270.0
 51
314.9999999999999
  0
LINE
  5
2251
330
106E
100
AcDbEntity
  8
BEM
100
AcDbLine
 10
342.5163928550885
 20
337.7921724045147
 30
0.0
 11
344.8774101606152
 21
337.7921724045147
 31
0.0
  0
LINE
  5
2252
330
106E
100
AcDbEntity
  8
STEMPEL
100
AcDbLine
 10
346.546901507852
 20
339.4616637517514
 30
0.0
 11
419.1236221852027
 21
412.0383844291023
 31
0.0
  0
LINE
  5
2254
102
{ACAD_REACTORS
330
2CBB
102
}
330
106E
100
AcDbEntity
  8
MITTEL
100
AcDbLine
 10
392.2535645001135
 20
389.4109674311329
 30
0.0
 11
371.0403610645173
 21
410.6241708667289
 31
0.0
  0
LINE
  5
2255
330
106E
100
AcDbEntity
  8
STEMPEL
100
AcDbLine
 10
371.7474678457038
 20
404.2602098360502
 30
0.0
 11
377.4043220951958
 21
409.9170640855423
 31
0.0
  0
LINE
  5
2257
330
106E
100
AcDbEntity
  8
STEMPEL
100
AcDbLine
 10
395.7890984060462
 20
392.9465013370657
 30
0.0
 11
392.2535645001137
 21
396.4820352429981
 31
0.0
  0
LINE
  5
2258
330
106E
100
AcDbEntity
  8
STEMPEL
100
AcDbLine
 10
388.7180305941809
 20
385.8754335252001
 30
0.0
 11
385.1824966882483
 21
389.4109674311327
 31
0.0
  0
LINE
  5
2259
330
106E
100
AcDbEntity
  8
HILF
100
AcDbLine
 10
395.0819916248597
 20
392.2393945558791
 30
0.0
 11
391.5464577189272
 21
395.7749284618115
 31
0.0
  0
LINE
  5
225A
330
106E
100
AcDbEntity
  8
HILF
100
AcDbLine
 10
389.4251373753673
 20
386.5825403063867
 30
0.0
 11
385.8896034694348
 21
390.1180742123192
 31
0.0
  0
LINE
  5
225B
330
106E
100
AcDbEntity
  8
STEMPEL
100
AcDbLine
 10
371.7474678457038
 20
402.8459962736771
 30
0.0
 11
378.8185356575693
 21
409.9170640855424
 31
0.0
  0
LINE
  5
225D
330
106E
100
AcDbEntity
  8
STEMPEL
100
AcDbLine
 10
378.8185356575691
 20
409.9170640855424
 30
0.0
 11
377.404322095196
 21
409.9170640855423
 31
0.0
  0
LINE
  5
225E
330
106E
100
AcDbEntity
  8
STEMPEL
100
AcDbLine
 10
371.7474678457038
 20
402.845996273677
 30
0.0
 11
371.7474678457038
 21
404.26020983605
 31
0.0
  0
LINE
  5
2282
102
{ACAD_REACTORS
330
3274
102
}
330
106E
100
AcDbEntity
  8
MITTEL
100
AcDbLine
 10
204.8774101606152
 20
332.7921724045148
 30
0.0
 11
204.8774101606145
 21
462.2921724045142
 31
0.0
  0
LINE
  5
2283
330
106E
100
AcDbEntity
  8
HILF
100
AcDbLine
 10
200.8774101606152
 20
340.7921724045148
 30
0.0
 11
200.8774101606152
 21
345.7921724045149
 31
0.0
  0
LINE
  5
2284
330
106E
100
AcDbEntity
  8
HILF
100
AcDbLine
 10
208.8774101606152
 20
340.7921724045148
 30
0.0
 11
208.8774101606151
 21
345.7921724045148
 31
0.0
  0
LINE
  5
2285
330
106E
100
AcDbEntity
  8
STEMPEL
100
AcDbLine
 10
199.8774101606152
 20
340.7921724045148
 30
0.0
 11
199.8774101606152
 21
345.7921724045149
 31
0.0
  0
LINE
  5
2286
330
106E
100
AcDbEntity
  8
STEMPEL
100
AcDbLine
 10
209.8774101606152
 20
340.7921724045149
 30
0.0
 11
209.8774101606152
 21
345.7921724045148
 31
0.0
  0
LINE
  5
2287
330
106E
100
AcDbEntity
  8
STEMPEL
100
AcDbLine
 10
199.8774101606154
 20
364.7921724045146
 30
0.0
 11
209.8774101606152
 21
364.7921724045145
 31
0.0
  0
LINE
  5
2288
330
106E
100
AcDbEntity
  8
STEMPEL
100
AcDbLine
 10
200.8774101606152
 20
365.7921724045146
 30
0.0
 11
208.8774101606148
 21
365.7921724045148
 31
0.0
  0
LINE
  5
2289
330
106E
100
AcDbEntity
  8
STEMPEL
100
AcDbLine
 10
199.8774101606152
 20
364.7921724045146
 30
0.0
 11
200.8774101606152
 21
365.7921724045145
 31
0.0
  0
LINE
  5
228A
330
106E
100
AcDbEntity
  8
STEMPEL
100
AcDbLine
 10
209.877410160615
 20
364.7921724045146
 30
0.0
 11
208.877410160615
 21
365.7921724045146
 31
0.0
  0
LINE
  5
228E
330
106E
100
AcDbEntity
  8
MITTEL
100
AcDbLine
 10
287.1498235201366
 20
340.7921724045148
 30
0.0
 11
287.1498235201364
 21
370.7921724045144
 31
0.0
  0
LINE
  5
228F
330
106E
100
AcDbEntity
  8
STEMPEL
100
AcDbLine
 10
292.1498235201366
 20
340.7921724045149
 30
0.0
 11
292.1498235201365
 21
345.7921724045145
 31
0.0
  0
LINE
  5
2290
330
106E
100
AcDbEntity
  8
STEMPEL
100
AcDbLine
 10
282.1498235201366
 20
340.7921724045148
 30
0.0
 11
282.1498235201366
 21
345.7921724045146
 31
0.0
  0
LINE
  5
2291
330
106E
100
AcDbEntity
  8
HILF
100
AcDbLine
 10
291.1498235201366
 20
340.7921724045148
 30
0.0
 11
291.1498235201365
 21
345.7921724045146
 31
0.0
  0
LINE
  5
2292
330
106E
100
AcDbEntity
  8
HILF
100
AcDbLine
 10
283.1498235201366
 20
340.7921724045148
 30
0.0
 11
283.1498235201365
 21
345.7921724045146
 31
0.0
  0
LINE
  5
2293
330
106E
100
AcDbEntity
  8
STEMPEL
100
AcDbLine
 10
283.1498235201366
 20
365.7921724045146
 30
0.0
 11
291.1498235201361
 21
365.7921724045148
 31
0.0
  0
LINE
  5
2294
330
106E
100
AcDbEntity
  8
STEMPEL
100
AcDbLine
 10
282.1498235201368
 20
364.7921724045146
 30
0.0
 11
292.1498235201366
 21
364.7921724045145
 31
0.0
  0
LINE
  5
2295
330
106E
100
AcDbEntity
  8
STEMPEL
100
AcDbLine
 10
282.1498235201366
 20
364.7921724045146
 30
0.0
 11
283.1498235201366
 21
365.7921724045145
 31
0.0
  0
LINE
  5
2296
330
106E
100
AcDbEntity
  8
STEMPEL
100
AcDbLine
 10
292.1498235201363
 20
364.7921724045146
 30
0.0
 11
291.1498235201364
 21
365.7921724045146
 31
0.0
  0
LINE
  5
2297
330
106E
100
AcDbEntity
  8
MITTEL
100
AcDbLine
 10
122.6049968010934
 20
340.7921724045148
 30
0.0
 11
122.6049968010932
 21
370.7921724045144
 31
0.0
  0
LINE
  5
2298
330
106E
100
AcDbEntity
  8
STEMPEL
100
AcDbLine
 10
127.6049968010934
 20
340.7921724045149
 30
0.0
 11
127.6049968010933
 21
345.7921724045151
 31
0.0
  0
LINE
  5
2299
330
106E
100
AcDbEntity
  8
STEMPEL
100
AcDbLine
 10
117.6049968010934
 20
340.7921724045148
 30
0.0
 11
117.6049968010934
 21
345.7921724045151
 31
0.0
  0
LINE
  5
229A
330
106E
100
AcDbEntity
  8
HILF
100
AcDbLine
 10
126.6049968010934
 20
340.7921724045148
 30
0.0
 11
126.6049968010933
 21
345.7921724045151
 31
0.0
  0
LINE
  5
229B
330
106E
100
AcDbEntity
  8
HILF
100
AcDbLine
 10
118.6049968010934
 20
340.7921724045148
 30
0.0
 11
118.6049968010933
 21
345.7921724045152
 31
0.0
  0
LINE
  5
229C
330
106E
100
AcDbEntity
  8
STEMPEL
100
AcDbLine
 10
118.6049968010934
 20
365.7921724045146
 30
0.0
 11
126.6049968010929
 21
365.7921724045148
 31
0.0
  0
LINE
  5
229D
330
106E
100
AcDbEntity
  8
STEMPEL
100
AcDbLine
 10
117.6049968010936
 20
364.7921724045146
 30
0.0
 11
127.6049968010934
 21
364.7921724045145
 31
0.0
  0
LINE
  5
229E
330
106E
100
AcDbEntity
  8
STEMPEL
100
AcDbLine
 10
117.6049968010934
 20
364.7921724045146
 30
0.0
 11
118.6049968010934
 21
365.7921724045145
 31
0.0
  0
LINE
  5
229F
330
106E
100
AcDbEntity
  8
STEMPEL
100
AcDbLine
 10
127.6049968010932
 20
364.7921724045146
 30
0.0
 11
126.6049968010932
 21
365.7921724045146
 31
0.0
  0
LINE
  5
22D9
330
106E
100
AcDbEntity
  8
MITTEL
100
AcDbLine
 10
315.5489381308742
 20
305.0168496241033
 30
0.0
 11
809.8705578343885
 21
279.1105512838445
 31
0.0
  0
DIMENSION
  5
22DB
330
106E
100
AcDbEntity
  8
BEM
100
AcDbDimension
  2
*D1
 10
822.8614301510532
 20
241.8796378858584
 30
0.0
 11
818.2806005780157
 21
278.6697996199793
 31
0.0
 70
    33
  1
%%c<>
 71
     5
 42
72.99999999999982
  3
STANDARD
100
AcDbAlignedDimension
 13
797.8000067506914
 23
316.2932326897913
 33
0.0
 14
793.9794819449568
 24
243.3932766527075
 34
0.0
1001
ACAD
1000
DSTYLE
1002
{
1070
    40
1040
2.0
1070
    41
1040
3.5
1070
    42
1040
1.0
1070
    43
1040
7.0
1070
    44
1040
1.0
1070
    73
1070
     0
1070
    74
1070
     0
1070
    77
1070
     1
1070
    78
1070
     8
1070
    79
1070
     2
1070
   140
1040
3.5
1070
   141
1040
1.5
1070
   146
1040
0.5142857142857144
1070
   147
1040
1.5
1070
   172
1070
     1
1070
   178
1070
     1
1070
   179
1070
     2
1070
   271
1070
     2
1070
   272
1070
     2
1070
   284
1070
     8
1070
   285
1070
     8
1070
   286
1070
     8
1002
}
  0
LINE
  5
22DC
330
106E
100
AcDbEntity
  8
STEMPEL
100
AcDbLine
 10
405.0051111727521
 20
336.8787408807432
 30
0.0
 11
797.8000067507155
 21
316.2932326897859
 31
0.0
  0
LINE
  5
22DD
330
106E
100
AcDbEntity
  8
STEMPEL
100
AcDbLine
 10
401.1845863670169
 20
263.9787848436589
 30
0.0
 11
793.9794819449383
 21
243.3932766527052
 31
0.0
  0
LINE
  5
22DE
330
106E
100
AcDbEntity
  8
STEMPEL
100
AcDbLine
 10
803.0083569835428
 20
243.708571916698
 30
0.0
 11
806.7464633376884
 21
315.0358902134264
 31
0.0
  0
LINE
  5
22DF
330
106E
100
AcDbEntity
  8
HILF
100
AcDbLine
 10
794.1055680355812
 20
245.7991425823298
 30
0.0
 11
797.6739206600669
 21
313.8873667601672
 31
0.0
  0
LINE
  5
22E0
330
106E
100
AcDbEntity
  8
STEMPEL
100
AcDbLine
 10
793.9794819449568
 20
243.3932766527059
 30
0.0
 11
803.0083569835428
 21
243.708571916698
 31
0.0
  0
LINE
  5
22E1
330
106E
100
AcDbEntity
  8
STEMPEL
100
AcDbLine
 10
797.8000067506914
 20
316.2932326897913
 30
0.0
 11
806.7464633376884
 21
315.0358902134264
 31
0.0
  0
LINE
  5
22E2
102
{ACAD_REACTORS
330
23D7
102
}
330
106E
100
AcDbEntity
  8
STEMPEL
100
AcDbLine
 10
321.9551566232069
 20
331.7181672812622
 30
0.0
 11
364.4440775170808
 21
329.491417293081
 31
0.0
  0
LINE
  5
22E3
330
106E
100
AcDbEntity
  8
STEMPEL
100
AcDbLine
 10
319.1290149860877
 20
277.7921724045151
 30
0.0
 11
321.9551566232064
 21
331.7181672812622
 31
0.0
  0
LWPOLYLINE
  5
22E4
330
106E
100
AcDbEntity
  8
HILF
100
AcDbPolyline
 90
       18
 70
   128
 43
0.0
 10
-372.4606358766084
 20
327.5217632173997
 10
-374.9890395978771
 20
327.467600142303
 10
-377.6031697337907
 20
327.3324808939949
 10
-382.9276352775962
 20
326.8438432905544
 10
-385.5574836995097
 20
326.5025596418265
 10
-388.112084564111
 20
326.1047892326971
 10
-390.5511943784116
 20
325.656649416368
 10
-392.8345696494218
 20
325.1642575460421
 10
-394.9219668841524
 20
324.6337309749214
 10
-396.778877654722
 20
324.0681926177448
 10
-398.4347191664852
 20
323.4373880218778
 10
-399.9588841040484
 20
322.6901904149412
 10
-401.4213767373785
 20
321.7751536986728
 10
-402.8922013364426
 20
320.6408317748103
 10
-403.6526144574893
 20
319.9753619543242
 10
-404.4413621712071
 20
319.2357785450913
 10
-405.267195011342
 20
318.4156507848288
 10
-406.1388635116395
 20
317.5085479112539
210
0.0
220
0.0
230
-1.0
  0
LWPOLYLINE
  5
22E5
330
106E
100
AcDbEntity
  8
HILF
100
AcDbPolyline
 90
       15
 70
   128
 43
0.0
 10
372.4492710687136
 20
327.7492945127309
 10
373.6883132055646
 20
327.7680685971987
 10
374.7141623705618
 20
327.8059410637702
 10
376.5164944933319
 20
327.9176062793475
 10
378.3936031830294
 20
328.0540602096963
 10
380.3784867515572
 20
328.2110476520969
 10
384.5546850791475
 20
328.5824206025762
 10
388.8113025841922
 20
329.0233201898324
 10
392.9145523747798
 20
329.5253414729119
 10
394.8356059734299
 20
329.7966462063377
 10
396.6306475589993
 20
330.0800795108618
 10
398.2704537699981
 20
330.3745907688651
 10
399.7258012449381
 20
330.6791293627286
 10
400.9674666223302
 20
330.992644674833
 10
401.9662265406859
 20
331.3140860875591
  0
LWPOLYLINE
  5
22E6
330
106E
100
AcDbEntity
  8
HILF
100
AcDbPolyline
 90
       15
 70
   128
 43
0.0
 10
-369.7613775607747
 20
276.4612310857003
 10
-370.9916696689581
 20
276.3130446771426
 10
-372.007940374162
 20
276.1681492431441
 10
-373.7887269395981
 20
275.8687007342103
 10
-375.641289311842
 20
275.536783026049
 10
-377.5988898243929
 20
275.1731787481002
 10
-381.7133914567694
 20
274.367308624017
 10
-385.9006042094329
 20
273.4838866443113
 10
-389.9289004550896
 20
272.5557090913344
 10
-391.8110712542609
 20
272.0850858131038
 10
-393.5666525664453
 20
271.6155722474369
 10
-395.1666909382302
 20
271.1512679296276
 10
-396.5822329162051
 20
270.6962723949697
 10
-397.7843250469571
 20
270.2546851787572
 10
-398.7440138770751
 20
269.8306058162838
210
0.0
220
0.0
230
-1.0
  0
LWPOLYLINE
  5
22E7
330
106E
100
AcDbEntity
  8
HILF
100
AcDbPolyline
 90
       18
 70
   128
 43
0.0
 10
369.7964636077088
 20
276.6863279948841
 10
372.316678051847
 20
276.4759042034838
 10
374.9306115167387
 20
276.337032248523
 10
380.2769856189696
 20
276.2664348430293
 10
382.9281013114021
 20
276.3309548900507
 10
385.5102861347745
 20
276.4595177686206
 10
387.9828776166339
 20
276.6502462275162
 10
390.3052132845266
 20
276.9012630155146
 10
392.4366306659995
 20
277.2106908813932
 10
394.3424839404706
 20
277.5790311310033
 10
396.0551916142069
 20
278.0332975446526
 10
397.6491104343765
 20
278.6170833062276
 10
399.1992387618234
 20
279.3742352481203
 10
400.780574957391
 20
280.3486002027215
 10
401.6063829934837
 20
280.93093969491
 10
402.4681173819232
 20
281.5840250024224
 10
403.3751529178148
 20
282.3133369793076
 10
404.3368643962639
 20
283.1243564796143
  0
ARC
  5
22E8
330
106E
100
AcDbEntity
  8
HILF
100
AcDbCircle
 10
440.4002528284625
 20
298.4736694802344
 30
0.0
 40
80.94787580997081
100
AcDbArc
 50
162.4032761251204
 51
191.5967238748794
  0
LINE
  5
22E9
330
106E
100
AcDbEntity
  8
STEMPEL
100
AcDbLine
 10
369.2909897358227
 20
329.8807876733956
 30
0.0
 11
399.7367283262931
 21
336.4555122064882
 31
0.0
  0
ARC
  5
22EA
330
106E
100
AcDbEntity
  8
STEMPEL
100
AcDbCircle
 10
403.9583920478929
 20
316.9061501856516
 30
0.0
 40
20.0
100
AcDbArc
 50
86.99999999999997
 51
102.185837262203
  0
ARC
  5
22EB
330
106E
100
AcDbEntity
  8
STEMPEL
100
AcDbCircle
 10
365.4070591119512
 20
347.8662007325652
 30
0.0
 40
18.4
100
AcDbArc
 50
267.0
 51
282.1858372622031
  0
LINE
  5
22EC
330
106E
100
AcDbEntity
  8
STEMPEL
100
AcDbLine
 10
319.1290149860879
 20
277.792172404515
 30
0.0
 11
361.6179358799618
 21
275.5654224163346
 31
0.0
  0
ARC
  5
22ED
330
106E
100
AcDbEntity
  8
STEMPEL
100
AcDbCircle
 10
360.6549542850919
 20
257.1906389768504
 30
0.0
 40
18.4
100
AcDbArc
 50
71.8141627377969
 51
86.99999999999997
  0
LINE
  5
22EE
330
106E
100
AcDbEntity
  8
STEMPEL
100
AcDbLine
 10
366.3975959189325
 20
274.6715447618855
 30
0.0
 11
395.9893037159618
 21
264.9503909897995
 31
0.0
  0
ARC
  5
22EF
330
106E
100
AcDbEntity
  8
STEMPEL
100
AcDbCircle
 10
402.2313054918757
 20
283.9513755387507
 30
0.0
 40
20.0
100
AcDbArc
 50
251.8141627377969
 51
267.0
  0
TEXT
  5
22F0
330
106E
100
AcDbEntity
  8
TEXT
 62
     1
100
AcDbText
 10
617.320138836262
 20
301.9254539750033
 30
0.0
 40
7.0
  1
DN70
 50
357.0
 41
0.8
  7
GREEKS
100
AcDbText
  0
LINE
  5
237B
330
106E
100
AcDbEntity
  8
STEMPEL
100
AcDbLine
 10
321.8923534757152
 20
330.5198118395567
 30
0.0
 11
364.3812743695892
 21
328.2930618513756
 31
0.0
  0
LINE
  5
237C
330
106E
100
AcDbEntity
  8
STEMPEL
100
AcDbLine
 10
319.1918181335793
 20
278.9905278462204
 30
0.0
 11
361.6807390274532
 21
276.7637778580401
 31
0.0
  0
ARC
  5
237D
330
106E
100
AcDbEntity
  8
STEMPEL
100
AcDbCircle
 10
360.6549542850919
 20
257.1906389768504
 30
0.0
 40
19.6
100
AcDbArc
 50
71.8141627377969
 51
86.99999999999997
  0
LINE
  5
237E
330
106E
100
AcDbEntity
  8
STEMPEL
100
AcDbLine
 10
366.7721160254873
 20
275.8116038348226
 30
0.0
 11
396.3638238225167
 21
266.0904500627366
 31
0.0
  0
ARC
  5
237F
330
106E
100
AcDbEntity
  8
STEMPEL
100
AcDbCircle
 10
402.2313054918757
 20
283.9513755387507
 30
0.0
 40
18.8
100
AcDbArc
 50
251.8141627377969
 51
267.0
  0
LINE
  5
2380
330
106E
100
AcDbEntity
  8
STEMPEL
100
AcDbLine
 10
401.2473895145083
 20
265.1771402853644
 30
0.0
 11
793.9899637639059
 21
244.5943741390478
 31
0.0
  0
ARC
  5
2381
330
106E
100
AcDbEntity
  8
STEMPEL
100
AcDbCircle
 10
365.4070591119512
 20
347.8662007325652
 30
0.0
 40
19.6
100
AcDbArc
 50
267.0
 51
282.1858372622031
  0
LINE
  5
2382
330
106E
100
AcDbEntity
  8
STEMPEL
100
AcDbLine
 10
369.5442895591186
 20
328.7078259521454
 30
0.0
 11
399.9900281495891
 21
335.282550485238
 31
0.0
  0
ARC
  5
2383
330
106E
100
AcDbEntity
  8
STEMPEL
100
AcDbCircle
 10
403.9583920478929
 20
316.9061501856516
 30
0.0
 40
18.8
100
AcDbArc
 50
86.99999999999997
 51
102.185837262203
  0
LINE
  5
2384
330
106E
100
AcDbEntity
  8
STEMPEL
100
AcDbLine
 10
404.9423080252604
 20
335.6803854390377
 30
0.0
 11
797.7372036032238
 21
315.0948772480804
 31
0.0
  0
LINE
  5
2385
330
106E
100
AcDbEntity
  8
STEMPEL
100
AcDbLine
 10
793.9899637639059
 20
244.5943741390478
 30
0.0
 11
803.0714000288549
 21
244.9115048815099
 31
0.0
  0
LINE
  5
2387
330
106E
100
AcDbEntity
  8
STEMPEL
100
AcDbLine
 10
797.6329990295393
 20
315.1049110073014
 30
0.0
 11
806.6834202923764
 21
313.8329572486144
 31
0.0
  0
LINE
  5
23BD
330
106E
100
AcDbEntity
  8
STEMPEL
100
AcDbLine
 10
143.8774101606151
 20
337.7921724045147
 30
0.0
 11
143.8774101606152
 21
340.7921724045148
 31
0.0
  0
LINE
  5
23BE
330
106E
100
AcDbEntity
  8
STEMPEL
100
AcDbLine
 10
265.877410160615
 20
337.7921724045147
 30
0.0
 11
265.8774101606152
 21
340.7921724045148
 31
0.0
  0
ARC
  5
23BF
330
106E
100
AcDbEntity
  8
SCHRAFF
100
AcDbCircle
 10
141.877410160615
 20
337.7921724045148
 30
0.0
 40
3.0
100
AcDbArc
 50
180.0
 51
270.0
  0
ARC
  5
23C0
330
106E
100
AcDbEntity
  8
SCHRAFF
100
AcDbCircle
 10
341.877410160615
 20
337.7921724045148
 30
0.0
 40
3.0
100
AcDbArc
 50
270.0
 51
9.469455898747815
  0
HATCH
  5
23C8
330
106E
100
AcDbEntity
  8
SCHRAFF
100
AcDbHatch
 10
0.0
 20
0.0
 30
0.0
210
0.0
220
0.0
230
1.0
  2
_USER
 70
     0
 71
     0
 91
        1
 92
        7
 72
     1
 73
     1
 93
        3
 10
141.8774101606149
 20
337.7921724045147
 42
0.0
 10
138.877410160615
 20
337.7921724045147
 42
0.4142135623730896
 10
141.877410160615
 20
334.7921724045148
 42
0.0
 97
        0
 75
     0
 76
     0
 52
0.0
 41
0.1
 77
     0
 78
     1
 53
0.0
 43
-865.2323200399687
 44
-109.3692802789232
 45
0.0
 46
0.1
 79
     0
 47
0.2469670591095711
 98
        1
 10
140.5505537232397
 20
336.3762804354783
  0
HATCH
  5
23D1
330
106E
100
AcDbEntity
  8
SCHRAFF
100
AcDbHatch
 10
0.0
 20
0.0
 30
0.0
210
0.0
220
0.0
230
1.0
  2
_USER
 70
     0
 71
     0
 91
        2
 92
        7
 72
     1
 73
     1
 93
        3
 10
344.8365305030015
 20
338.2857377996497
 42
-0.1051886440470163
 10
342.5163928550885
 20
337.7921724045147
 42
0.0
 10
344.877410160615
 20
337.7921724045147
 42
0.041341824905714
 97
        0
 92
        7
 72
     1
 73
     1
 93
        4
 10
344.8774101606148
 20
337.7921724045147
 42
0.0
 10
342.5163928550885
 20
337.7921724045147
 42
0.0
 10
341.877410160615
 20
337.7921724045147
 42
0.0
 10
341.877410160615
 20
334.7921724045148
 42
0.4142135623730543
 97
        0
 75
     0
 76
     0
 52
0.0
 41
0.1
 77
     0
 78
     1
 53
0.0
 43
-865.2323200399687
 44
-109.3692802789232
 45
0.0
 46
0.1
 79
     0
 47
0.0205038396427668
 98
        2
 10
344.5686275340718
 20
337.9553071976634
 10
343.8917700279422
 20
337.3196900271892
  0
ARC
  5
23D2
102
{ACAD_REACTORS
330
23D7
102
}
330
106E
100
AcDbEntity
  8
SCHRAFF
100
AcDbCircle
 10
341.877410160615
 20
330.6740862150528
 30
0.0
 40
3.0
100
AcDbArc
 50
356.9999999999976
 51
90.0
  0
HATCH
  5
23D7
330
106E
100
AcDbEntity
  8
SCHRAFF
100
AcDbHatch
 10
0.0
 20
0.0
 30
0.0
210
0.0
220
0.0
230
1.0
  2
_USER
 70
     0
 71
     1
 91
        1
 92
        7
 72
     1
 73
     1
 93
        3
 10
341.877410160615
 20
330.6740862150527
 42
0.0
 10
344.8732987648787
 20
330.5170783463239
 42
0.4296339059668426
 10
341.877410160615
 20
333.6740862150528
 42
0.0
 97
        3
330
222B
330
22E2
330
23D2
 75
     0
 76
     0
 52
0.0
 41
0.1
 77
     0
 78
     1
 53
0.0
 43
-865.2323200399687
 44
-109.3692802789232
 45
0.0
 46
0.1
 79
     0
 47
0.0180573888333888
 98
        1
 10
342.7533484906694
 20
332.0359662550868
  0
ARC
  5
23D9
330
106E
100
AcDbEntity
  8
SCHRAFF
100
AcDbCircle
 10
319.206009869994
 20
280.7324883946448
 30
0.0
 40
4.255978810731716
100
AcDbArc
 50
223.698791279093
 51
313.3012087209035
  0
HATCH
  5
23DD
330
106E
100
AcDbEntity
  8
SCHRAFF
100
AcDbHatch
 10
0.0
 20
0.0
 30
0.0
210
0.0
220
0.0
230
1.0
  2
_USER
 70
     0
 71
     0
 91
        1
 92
        7
 72
     1
 73
     1
 93
        3
 10
322.1249035903515
 20
277.6351645357862
 42
0.0
 10
319.1290149860809
 20
277.7921724045153
 42
0.0
 10
316.1290149860877
 20
277.7921724045153
 42
0.4121825971602874
 97
        0
 75
     0
 76
     0
 52
0.0
 41
0.1
 77
     0
 78
     1
 53
0.0
 43
-865.2323200399687
 44
-109.3692802789232
 45
0.0
 46
0.1
 79
     0
 47
0.0251139634578438
 98
        1
 10
319.9654732570348
 20
277.1996235003558
  0
HATCH
  5
23F0
330
106E
100
AcDbEntity
  8
SCHRAFF
100
AcDbHatch
 10
0.0
 20
0.0
 30
0.0
210
0.0
220
0.0
230
1.0
  2
_USER
 70
     0
 71
     0
 91
        2
 92
        7
 72
     1
 73
     1
 93
        8
 10
344.4255811642922
 20
341.582984095311
 42
-0.1989123673796531
 10
342.5163928550885
 20
340.7921724045148
 42
0.0
 10
265.8774101606152
 20
340.7921724045148
 42
0.0
 10
265.8774101606152
 20
337.7921724045147
 42
0.0
 10
342.5163928550885
 20
337.7921724045147
 42
0.1989123673796565
 10
346.5469015078518
 20
339.4616637517513
 42
0.0
 10
419.123622185203
 20
412.0383844291023
 42
0.0
 10
417.0023018416429
 20
414.159704772662
 42
0.0
 97
        0
 92
        7
 72
     0
 73
     1
 93
        4
 10
69.87741016061511
 20
340.7921724045149
 10
69.87741016061511
 20
337.7921724045149
 10
143.8774101606151
 20
337.7921724045148
 10
143.8774101606153
 20
340.7921724045148
 97
        0
 75
     0
 76
     0
 52
135.0
 41
3.0
 77
     0
 78
     1
 53
135.0
 43
-865.2323200399687
 44
-109.3692802789232
 45
-2.121320343559642
 46
-2.121320343559642
 79
     0
 47
0.4629735784415539
 98
        2
 10
371.340737557131
 20
367.693863404254
 10
132.3648265000088
 20
340.3784210081758
  0
HATCH
  5
2402
330
106E
100
AcDbEntity
  8
SCHRAFF
100
AcDbHatch
 10
0.0
 20
0.0
 30
0.0
210
0.0
220
0.0
230
1.0
  2
_USER
 70
     0
 71
     0
 91
        2
 92
        7
 72
     1
 73
     1
 93
        8
 10
319.2076266550125
 20
279.2921724045153
 42
0.0
 10
150.877410160615
 20
279.2921724045148
 42
-0.4142135623730951
 10
143.377410160615
 20
286.7921724045148
 42
0.0
 10
143.3774101606149
 20
337.7921724045148
 42
0.0
 10
141.8774101606151
 20
337.7921724045148
 42
0.0
 10
141.877410160615
 20
286.7921724045148
 42
0.4142135623730951
 10
150.877410160615
 20
277.7921724045147
 42
0.0
 10
319.1290149860879
 20
277.7921724045153
 42
0.0
 97
        0
 92
        7
 72
     0
 73
     1
 93
        4
 10
341.877410160615
 20
337.7921724045146
 10
340.3774101606148
 20
337.7921724045146
 10
340.3774101606148
 20
332.2921724045152
 10
341.877410160615
 20
332.2921724045152
 97
        0
 75
     0
 76
     0
 52
45.0
 41
2.0
 77
     0
 78
     1
 53
45.0
 43
-865.2323200399687
 44
-109.3692802789232
 45
-1.414213562373094
 46
1.414213562373095
 79
     0
 47
0.4629735784415539
 98
        2
 10
205.5396220258094
 20
278.8029340134772
 10
340.7740494705163
 20
335.2857109597917
  0
HATCH
  5
2422
330
106E
100
AcDbEntity
  8
SCHRAFF
100
AcDbHatch
 10
0.0
 20
0.0
 30
0.0
210
0.0
220
0.0
230
1.0
  2
_USER
 70
     0
 71
     0
 91
        2
 92
        7
 72
     1
 73
     1
 93
       14
 10
405.0051111727521
 20
336.8787408807432
 42
0.0663578577458924
 10
399.7367283262931
 20
336.4555122064882
 42
0.0
 10
369.2909897358227
 20
329.8807876733956
 42
-0.066357857745886
 10
364.4440775170808
 20
329.491417293081
 42
0.0
 10
321.9551566232069
 20
331.7181672812623
 42
0.0
 10
321.8923534757155
 20
330.5198118395567
 42
0.0
 10
364.3812743695892
 20
328.2930618513756
 42
0.0663578577458865
 10
369.5442895591186
 20
328.7078259521454
 42
0.0
 10
399.9900281495891
 20
335.282550485238
 42
-0.0663578577458862
 10
404.9423080252601
 20
335.6803854390377
 42
0.0
 10
797.6848822747224
 20
315.0976192927162
 42
0.0
 10
806.6834202923763
 20
313.8329572486144
 42
0.0
 10
806.7464633376879
 20
315.0358902134263
 42
0.0
 10
797.8000067507386
 20
316.2932326897845
 42
0.0
 97
        0
 92
        7
 72
     1
 73
     1
 93
       14
 10
401.2473895145083
 20
265.1771402853644
 42
-0.066357857745887
 10
396.3638238225167
 20
266.0904500627366
 42
0.0
 10
366.7721160254873
 20
275.8116038348226
 42
0.0663578577458893
 10
361.6807390274532
 20
276.7637778580401
 42
0.0
 10
319.1918181335795
 20
278.9905278462206
 42
0.0
 10
319.1290149860877
 20
277.7921724045149
 42
0.0
 10
361.6179358799618
 20
275.5654224163346
 42
-0.0663578577458895
 10
366.3975959189327
 20
274.6715447618854
 42
0.0
 10
395.9893037159618
 20
264.9503909897995
 42
0.0663578577458902
 10
401.1845863670171
 20
263.9787848436589
 42
0.0
 10
793.9794819449375
 20
243.3932766527052
 42
0.0
 10
803.0083569835424
 20
243.7085719166979
 42
0.0
 10
803.0714000288547
 20
244.91150488151
 42
0.0
 10
793.9899637639053
 20
244.5943741390478
 42
0.0
 97
        0
 75
     0
 76
     0
 52
132.0
 41
2.0
 77
     0
 78
     1
 53
132.0
 43
-865.2323200399687
 44
-109.3692802789232
 45
-1.486289650954788
 46
-1.338261212717716
 79
     0
 47
0.5250409723884668
 98
        2
 10
409.8129274226425
 20
335.8573860227461
 10
422.9434313748356
 20
263.4017334181708
  0
DIMENSION
  5
2424
330
106E
100
AcDbEntity
  8
BEM
100
AcDbDimension
  2
*D2
 10
355.5597880969249
 20
327.109794468205
 30
0.0
 11
388.5109641002181
 21
368.4048304894996
 31
0.0
 70
    33
 71
     5
 42
105.0000000000001
  3
STANDARD
100
AcDbAlignedDimension
 13
419.1236221852027
 23
412.0383844291023
 33
0.0
 14
344.8774101606152
 24
337.7921724045147
 34
0.0
  0
DIMENSION
  5
2434
330
106E
100
AcDbEntity
  8
BEM
100
AcDbDimension
  2
*D3
 10
315.5420858046473
 20
304.7551698428886
 30
0.0
 11
453.2442381840446
 21
278.8044732940991
 31
0.0
 70
    34
 71
     5
 42
0.05235987755984
  3
STANDARD
100
AcDb2LineAngularDimension
 13
315.5489381308742
 23
305.0168496241033
 33
0.0
 14
809.8705578343885
 24
279.1105512838445
 34
0.0
 15
320.542085804647
 25
304.7551698428886
 35
0.0
 16
461.5203514142289
 26
302.2943850632064
 36
0.0
1001
ACAD
1000
DSTYLE
1002
{
1070
    48
1040
2.000000002
1070
   147
1040
1.199999999999999
1070
    72
1070
     0
1070
    71
1070
     0
1002
}
  0
TEXT
  5
252D
330
106E
100
AcDbEntity
  8
TEXT
 62
     1
100
AcDbText
 10
601.571903609668
 20
354.6843133836808
 30
0.0
 40
7.0
  1
EDV-Art.Nr. 01368.070X
 41
0.8
  7
GREEKS
100
AcDbText
  0
LINE
  5
252E
330
106E
100
AcDbEntity
  8
TEXT
 62
     2
100
AcDbLine
 10
599.6522278129504
 20
365.8563095382617
 30
0.0
 11
706.0868189305192
 21
365.8563095382617
 31
0.0
  0
TEXT
  5
252F
330
106E
100
AcDbEntity
  8
TEXT
 62
     1
100
AcDbText
 10
602.3014114320012
 20
369.1268371391109
 30
0.0
 40
7.0
  1
Auslaufkörper DN70
 41
0.8
  7
GREEKS
100
AcDbText
  0
LINE
  5
2530
330
106E
100
AcDbEntity
  8
TEXT
 62
     2
100
AcDbLine
 10
599.6522278129504
 20
365.8563095382617
 30
0.0
 11
569.4903593992664
 21
327.5669307488378
 31
0.0
  0
DIMENSION
  5
2915
330
106E
100
AcDbEntity
  8
BEM
100
AcDbDimension
  2
*D4
 10
344.8774101606152
 20
258.9927941944186
 30
0.0
 11
207.3774101606151
 21
264.8927941944186
 31
0.0
 70
    32
 71
     5
 42
275.0000000000002
  3
STANDARD
100
AcDbAlignedDimension
 13
69.877410160615
 23
337.7921724045148
 33
0.0
 14
344.8774101606152
 24
337.7921724045147
 34
0.0
100
AcDbRotatedDimension
  0
DIMENSION
  5
2BA0
330
106E
100
AcDbEntity
  8
BEM
100
AcDbDimension
  2
*D5
 10
57.76324281727738
 20
277.7921724045148
 30
0.0
 11
51.86324281727735
 21
309.2921724045148
 31
0.0
 70
    32
 71
     5
 42
63.0
  3
STANDARD
100
AcDbAlignedDimension
 13
69.877410160615
 23
340.7921724045148
 33
0.0
 14
150.877410160615
 24
277.7921724045147
 34
0.0
 50
90.0
100
AcDbRotatedDimension
  0
LINE
  5
2C01
102
{ACAD_REACTORS
330
2C59
330
31D2
102
}
330
106E
100
AcDbEntity
  8
STEMPEL
100
AcDbLine
 10
77.87741016061517
 20
345.7921724045152
 30
0.0
 11
331.8774101606151
 21
345.7921724045144
 31
0.0
  0
LINE
  5
2C02
102
{ACAD_REACTORS
330
2C59
102
}
330
106E
100
AcDbEntity
  8
STEMPEL
100
AcDbLine
 10
95.5352673851886
 20
351.7921724045149
 30
0.0
 11
331.8774101606151
 21
351.7921724045141
 31
0.0
  0
ARC
  5
2C03
330
106E
100
AcDbEntity
  8
STEMPEL
100
AcDbCircle
 10
278.5352673851887
 20
356.7921724045141
 30
0.0
 40
5.0
100
AcDbArc
 50
180.9999999999983
 51
269.9999999999998
  0
ARC
  5
2C04
102
{ACAD_REACTORS
330
2C59
102
}
330
106E
100
AcDbEntity
  8
STEMPEL
100
AcDbCircle
 10
331.8774101606151
 20
348.7921724045143
 30
0.0
 40
3.0
100
AcDbArc
 50
269.9999999999998
 51
89.99999999999982
  0
LINE
  5
2C05
330
106E
100
AcDbEntity
  8
STEMPEL
100
AcDbLine
 10
273.5360289094067
 20
356.7049103723277
 30
0.0
 11
273.3774101606152
 21
365.7921724045143
 31
0.0
  0
LINE
  5
2C06
330
106E
100
AcDbEntity
  8
STEMPEL
100
AcDbLine
 10
258.2108103479588
 20
356.2476755297412
 30
0.0
 11
258.3774101606152
 21
365.7921724045144
 31
0.0
  0
ARC
  5
2C09
330
106E
100
AcDbEntity
  8
STEMPEL
100
AcDbCircle
 10
253.2195529360417
 20
356.7921724045143
 30
0.0
 40
5.0
100
AcDbArc
 50
269.9999999999998
 51
358.999999999998
  0
LINE
  5
2C11
330
106E
100
AcDbEntity
  8
STEMPEL
100
AcDbLine
 10
258.3774101606152
 20
365.7921724045144
 30
0.0
 11
273.3774101606152
 21
365.7921724045143
 31
0.0
  0
ARC
  5
2C12
102
{ACAD_REACTORS
330
2C59
102
}
330
106E
100
AcDbEntity
  8
STEMPEL
100
AcDbCircle
 10
271.8774101606151
 20
348.7921724045143
 30
0.0
 40
3.0
100
AcDbArc
 50
89.99999999999982
 51
269.9999999999998
  0
LINE
  5
2C13
102
{ACAD_REACTORS
330
2C59
102
}
330
106E
100
AcDbEntity
  8
STEMPEL
100
AcDbLine
 10
75.37741016061523
 20
365.7921724045151
 30
0.0
 11
79.87741016061524
 21
365.7921724045151
 31
0.0
  0
ARC
  5
2C15
102
{ACAD_REACTORS
330
2C59
102
}
330
106E
100
AcDbEntity
  8
STEMPEL
100
AcDbCircle
 10
137.8774101606151
 20
348.7921724045145
 30
0.0
 40
3.0
100
AcDbArc
 50
269.9999999999998
 51
89.99999999999982
  0
LINE
  5
2C16
102
{ACAD_REACTORS
330
2C59
102
}
330
106E
100
AcDbEntity
  8
STEMPEL
100
AcDbLine
 10
90.5360289094067
 20
356.7049103723285
 30
0.0
 11
90.37741016061522
 21
365.792172404515
 31
0.0
  0
ARC
  5
2C17
102
{ACAD_REACTORS
330
2C59
102
}
330
106E
100
AcDbEntity
  8
STEMPEL
100
AcDbCircle
 10
95.53526738518867
 20
356.7921724045149
 30
0.0
 40
5.0
100
AcDbArc
 50
180.9999999999983
 51
269.9999999999998
  0
LINE
  5
2C19
102
{ACAD_REACTORS
330
2C59
330
31D2
102
}
330
106E
100
AcDbEntity
  8
STEMPEL
100
AcDbLine
 10
86.37741016061516
 20
359.7921724045151
 30
0.0
 11
86.37741016061516
 21
362.7921724045152
 31
0.0
  0
LINE
  5
2C1A
102
{ACAD_REACTORS
330
2C59
330
31D2
102
}
330
106E
100
AcDbEntity
  8
STEMPEL
100
AcDbLine
 10
79.37741016061517
 20
359.7921724045151
 30
0.0
 11
79.37741016061517
 21
362.7921724045152
 31
0.0
  0
LINE
  5
2C1B
102
{ACAD_REACTORS
330
2C59
102
}
330
106E
100
AcDbEntity
  8
STEMPEL
100
AcDbLine
 10
75.11283120281769
 20
350.6344540639943
 30
0.0
 11
75.37741016061523
 21
365.7921724045151
 31
0.0
  0
LINE
  5
2C1C
330
106E
100
AcDbEntity
  8
MITTEL
100
AcDbLine
 10
82.87741016061511
 20
340.792172404515
 30
0.0
 11
82.87741016061533
 21
378.3921724045153
 31
0.0
  0
LINE
  5
2C1D
102
{ACAD_REACTORS
330
31D2
102
}
330
106E
100
AcDbEntity
  8
HILF
100
AcDbLine
 10
85.87741016061517
 20
345.792172404515
 30
0.0
 11
85.87741016061523
 21
365.7921724045151
 31
0.0
  0
LINE
  5
2C1E
102
{ACAD_REACTORS
330
31D2
102
}
330
106E
100
AcDbEntity
  8
HILF
100
AcDbLine
 10
79.87741016061517
 20
345.792172404515
 30
0.0
 11
79.87741016061523
 21
365.7921724045151
 31
0.0
  0
LINE
  5
2C1F
102
{ACAD_REACTORS
330
31D2
102
}
330
106E
100
AcDbEntity
  8
STEMPEL
100
AcDbLine
 10
80.87741016061517
 20
345.792172404515
 30
0.0
 11
80.87741016061519
 21
354.7921724045154
 31
0.0
  0
LINE
  5
2C20
102
{ACAD_REACTORS
330
31D2
102
}
330
106E
100
AcDbEntity
  8
STEMPEL
100
AcDbLine
 10
84.87741016061518
 20
345.792172404515
 30
0.0
 11
84.87741016061519
 21
354.7921724045154
 31
0.0
  0
LINE
  5
2C21
102
{ACAD_REACTORS
330
2C59
330
31D2
102
}
330
106E
100
AcDbEntity
  8
STEMPEL
100
AcDbLine
 10
86.37741016061511
 20
348.7921724045151
 30
0.0
 11
86.37741016061506
 21
351.7921724045151
 31
0.0
  0
LINE
  5
2C22
102
{ACAD_REACTORS
330
2C59
330
31D2
102
}
330
106E
100
AcDbEntity
  8
STEMPEL
100
AcDbLine
 10
86.37741016061511
 20
348.7921724045152
 30
0.0
 11
86.87741016061512
 21
348.7921724045152
 31
0.0
  0
LINE
  5
2C23
102
{ACAD_REACTORS
330
2C59
330
31D2
102
}
330
106E
100
AcDbEntity
  8
STEMPEL
100
AcDbLine
 10
86.87741016061506
 20
345.7921724045152
 30
0.0
 11
86.87741016061506
 21
348.7921724045152
 31
0.0
  0
LINE
  5
2C24
102
{ACAD_REACTORS
330
2C59
330
31D2
102
}
330
106E
100
AcDbEntity
  8
STEMPEL
100
AcDbLine
 10
86.37741016061516
 20
359.7921724045151
 30
0.0
 11
86.87741016061522
 21
359.7921724045151
 31
0.0
  0
LINE
  5
2C25
102
{ACAD_REACTORS
330
2C59
330
31D2
102
}
330
106E
100
AcDbEntity
  8
STEMPEL
100
AcDbLine
 10
86.37741016061506
 20
351.7921724045151
 30
0.0
 11
86.87741016061512
 21
351.7921724045151
 31
0.0
  0
LINE
  5
2C26
102
{ACAD_REACTORS
330
2C59
330
31D2
102
}
330
106E
100
AcDbEntity
  8
STEMPEL
100
AcDbLine
 10
86.87741016061512
 20
351.792172404515
 30
0.0
 11
86.87741016061528
 21
359.7921724045151
 31
0.0
  0
LINE
  5
2C27
102
{ACAD_REACTORS
330
2C59
330
31D2
102
}
330
106E
100
AcDbEntity
  8
STEMPEL
100
AcDbLine
 10
79.37741016061512
 20
348.7921724045152
 30
0.0
 11
79.37741016061505
 21
351.7921724045153
 31
0.0
  0
ARC
  5
2C28
102
{ACAD_REACTORS
330
2C59
102
}
330
106E
100
AcDbEntity
  8
STEMPEL
100
AcDbCircle
 10
77.87741016061517
 20
348.7921724045147
 30
0.0
 40
3.0
100
AcDbArc
 50
166.043039397103
 51
269.9999999999998
  0
LINE
  5
2C29
102
{ACAD_REACTORS
330
2C59
330
31D2
102
}
330
106E
100
AcDbEntity
  8
STEMPEL
100
AcDbLine
 10
78.87741016061506
 20
348.7921724045152
 30
0.0
 11
79.37741016061517
 21
348.7921724045152
 31
0.0
  0
LINE
  5
2C2A
102
{ACAD_REACTORS
330
2C59
330
31D2
102
}
330
106E
100
AcDbEntity
  8
STEMPEL
100
AcDbLine
 10
78.87741016061511
 20
345.7921724045152
 30
0.0
 11
78.87741016061511
 21
348.7921724045152
 31
0.0
  0
ARC
  5
2C2B
102
{ACAD_REACTORS
330
2C59
102
}
330
106E
100
AcDbEntity
  8
STEMPEL
100
AcDbCircle
 10
70.11359272703572
 20
350.7217160961809
 30
0.0
 40
5.0
100
AcDbArc
 50
346.0430393971031
 51
358.999999999998
  0
LINE
  5
2C2C
102
{ACAD_REACTORS
330
2C59
330
31D2
102
}
330
106E
100
AcDbEntity
  8
STEMPEL
100
AcDbLine
 10
78.87741016061511
 20
351.7921724045152
 30
0.0
 11
78.87741016061529
 21
359.7921724045151
 31
0.0
  0
LINE
  5
2C2D
102
{ACAD_REACTORS
330
2C59
330
31D2
102
}
330
106E
100
AcDbEntity
  8
STEMPEL
100
AcDbLine
 10
78.87741016061522
 20
359.7921724045151
 30
0.0
 11
79.37741016061517
 21
359.7921724045151
 31
0.0
  0
LINE
  5
2C2E
102
{ACAD_REACTORS
330
2C59
330
31D2
102
}
330
106E
100
AcDbEntity
  8
STEMPEL
100
AcDbLine
 10
78.87741016061506
 20
351.7921724045153
 30
0.0
 11
79.37741016061505
 21
351.7921724045152
 31
0.0
  0
LINE
  5
2C2F
102
{ACAD_REACTORS
330
2C59
330
31D2
102
}
330
106E
100
AcDbEntity
  8
STEMPEL
100
AcDbLine
 10
86.37741016061516
 20
362.7921724045151
 30
0.0
 11
86.87741016061522
 21
362.7921724045151
 31
0.0
  0
LINE
  5
2C30
102
{ACAD_REACTORS
330
2C59
330
31D2
102
}
330
106E
100
AcDbEntity
  8
STEMPEL
100
AcDbLine
 10
86.87741016061528
 20
362.792172404515
 30
0.0
 11
86.87741016061522
 21
365.7921724045151
 31
0.0
  0
LINE
  5
2C31
102
{ACAD_REACTORS
330
2C59
330
31D2
102
}
330
106E
100
AcDbEntity
  8
STEMPEL
100
AcDbLine
 10
78.87741016061529
 20
362.7921724045151
 30
0.0
 11
78.87741016061522
 21
365.7921724045151
 31
0.0
  0
LINE
  5
2C32
102
{ACAD_REACTORS
330
2C59
330
31D2
102
}
330
106E
100
AcDbEntity
  8
STEMPEL
100
AcDbLine
 10
78.87741016061522
 20
362.7921724045151
 30
0.0
 11
79.37741016061517
 21
362.7921724045151
 31
0.0
  0
LINE
  5
2C33
330
106E
100
AcDbEntity
  8
MITTEL
100
AcDbLine
 10
265.8774101606151
 20
340.792172404514
 30
0.0
 11
265.8774101606153
 21
378.3921724045153
 31
0.0
  0
HATCH
  5
2C59
330
106E
100
AcDbEntity
  8
SCHRAFF
100
AcDbHatch
 10
0.0
 20
0.0
 30
0.0
210
0.0
220
0.0
230
1.0
  2
_USER
 70
     0
 71
     1
 91
        3
 92
        7
 72
     1
 73
     1
 93
        4
 10
271.8774101606151
 20
351.7921724045143
 42
1.0
 10
271.8774101606151
 20
345.7921724045146
 42
0.0
 10
331.8774101606151
 20
345.7921724045144
 42
1.0
 10
331.8774101606151
 20
351.7921724045141
 42
0.0
 97
        4
330
2C02
330
2C12
330
2C01
330
2C04
 92
        7
 72
     1
 73
     1
 93
       15
 10
137.8774101606151
 20
345.792172404515
 42
1.0
 10
137.8774101606151
 20
351.7921724045148
 42
0.0
 10
95.5352673851886
 20
351.7921724045149
 42
-0.4091108014277082
 10
90.5360289094067
 20
356.7049103723285
 42
0.0
 10
90.37741016061522
 20
365.792172404515
 42
0.0
 10
86.87741016061524
 20
365.792172404515
 42
0.0
 10
86.87741016061528
 20
362.7921724045152
 42
0.0
 10
86.37741016061518
 20
362.7921724045151
 42
0.0
 10
86.37741016061514
 20
359.7921724045152
 42
0.0
 10
86.87741016061529
 20
359.7921724045151
 42
0.0
 10
86.87741016061512
 20
351.7921724045151
 42
0.0
 10
86.37741016061506
 20
351.7921724045152
 42
0.0
 10
86.37741016061511
 20
348.7921724045152
 42
0.0
 10
86.87741016061506
 20
348.7921724045152
 42
0.0
 10
86.87741016061506
 20
345.7921724045152
 42
0.0
 97
       15
330
2C02
330
2C17
330
2C16
330
2C13
330
2C30
330
2C2F
330
2C19
330
2C24
330
2C26
330
2C25
330
2C21
330
2C22
330
2C23
330
2C01
330
2C15
 92
        7
 72
     1
 73
     1
 93
       14
 10
78.87741016061529
 20
359.7921724045151
 42
0.0
 10
79.37741016061519
 20
359.7921724045151
 42
0.0
 10
79.37741016061517
 20
362.7921724045151
 42
0.0
 10
78.87741016061529
 20
362.7921724045152
 42
0.0
 10
78.87741016061522
 20
365.7921724045151
 42
0.0
 10
75.37741016061523
 20
365.7921724045151
 42
0.0
 10
75.11283120281769
 20
350.6344540639943
 42
-0.0565957168052928
 10
74.96597862302287
 20
349.5157512888896
 42
0.4875001418525418
 10
77.87741016061511
 20
345.7921724045152
 42
0.0
 10
78.87741016061511
 20
345.7921724045153
 42
0.0
 10
78.87741016061511
 20
348.7921724045152
 42
0.0
 10
79.37741016061512
 20
348.7921724045152
 42
0.0
 10
79.37741016061507
 20
351.7921724045152
 42
0.0
 10
78.87741016061511
 20
351.7921724045153
 42
0.0
 97
       14
330
2C2D
330
2C1A
330
2C32
330
2C31
330
2C13
330
2C1B
330
2C2B
330
2C28
330
2C01
330
2C2A
330
2C29
330
2C27
330
2C2E
330
2C2C
 75
     0
 76
     0
 52
45.0
 41
5.0
 77
     0
 78
     1
 53
45.0
 43
-6.960724680755447
 44
-117.5868045112292
 45
-3.535533905932737
 46
3.535533905932737
 79
     0
 47
0.4118340008760517
 98
        3
 10
281.8376171350528
 20
348.955716426945
 10
114.9879153871925
 20
347.3083810954645
 10
77.49822863092913
 20
355.9568937757088
  0
LINE
  5
2C6E
102
{ACAD_REACTORS
330
2CBB
102
}
330
106E
100
AcDbEntity
  8
STEMPEL
100
AcDbLine
 10
407.4563602956245
 20
420.1701124127476
 30
0.0
 11
361.4944195184988
 21
374.2081716356219
 31
0.0
  0
LINE
  5
2C6F
102
{ACAD_REACTORS
330
2CBB
102
}
330
106E
100
AcDbEntity
  8
STEMPEL
100
AcDbLine
 10
410.2847874203707
 20
414.5132581632552
 30
0.0
 11
367.1512737679913
 21
371.3797445108757
 31
0.0
  0
LINE
  5
2C70
102
{ACAD_REACTORS
330
2CBB
102
}
330
106E
100
AcDbEntity
  8
STEMPEL
100
AcDbLine
 10
367.1512737679913
 20
371.3797445108757
 30
0.0
 11
364.3228466432451
 21
371.3797445108756
 31
0.0
  0
LINE
  5
2C71
102
{ACAD_REACTORS
330
2CBB
102
}
330
106E
100
AcDbEntity
  8
STEMPEL
100
AcDbLine
 10
361.4944195184989
 20
374.208171635622
 30
0.0
 11
364.3228466432451
 21
371.3797445108756
 31
0.0
  0
LINE
  5
2C78
102
{ACAD_REACTORS
330
2CBB
102
}
330
106E
100
AcDbEntity
  8
STEMPEL
100
AcDbLine
 10
410.2847874203706
 20
417.3416852880014
 30
0.0
 11
410.2847874203707
 21
414.5132581632552
 31
0.0
  0
LINE
  5
2C79
102
{ACAD_REACTORS
330
2CBB
102
}
330
106E
100
AcDbEntity
  8
STEMPEL
100
AcDbLine
 10
407.4563602956245
 20
420.1701124127476
 30
0.0
 11
410.2847874203706
 21
417.3416852880014
 31
0.0
  0
LINE
  5
2C9D
330
106E
100
AcDbEntity
  8
STEMPEL
100
AcDbLine
 10
127.6049968010932
 20
361.7921724045149
 30
0.0
 11
127.6049968010932
 21
364.7921724045146
 31
0.0
  0
LINE
  5
2C9E
330
106E
100
AcDbEntity
  8
HILF
100
AcDbLine
 10
126.6049968010932
 20
361.7921724045149
 30
0.0
 11
126.6049968010932
 21
365.7921724045146
 31
0.0
  0
LINE
  5
2C9F
330
106E
100
AcDbEntity
  8
HILF
100
AcDbLine
 10
118.6049968010932
 20
361.7921724045148
 30
0.0
 11
118.6049968010932
 21
365.7921724045148
 31
0.0
  0
LINE
  5
2CA0
330
106E
100
AcDbEntity
  8
STEMPEL
100
AcDbLine
 10
117.6049968010934
 20
361.7921724045148
 30
0.0
 11
117.6049968010934
 21
364.7921724045146
 31
0.0
  0
LINE
  5
2CA1
330
106E
100
AcDbEntity
  8
HILF
100
AcDbLine
 10
200.877410160615
 20
361.7921724045146
 30
0.0
 11
200.877410160615
 21
365.7921724045148
 31
0.0
  0
LINE
  5
2CA2
330
106E
100
AcDbEntity
  8
STEMPEL
100
AcDbLine
 10
199.8774101606152
 20
361.7921724045146
 30
0.0
 11
199.8774101606152
 21
364.7921724045146
 31
0.0
  0
LINE
  5
2CA3
330
106E
100
AcDbEntity
  8
HILF
100
AcDbLine
 10
208.877410160615
 20
361.7921724045146
 30
0.0
 11
208.877410160615
 21
365.7921724045146
 31
0.0
  0
LINE
  5
2CA4
330
106E
100
AcDbEntity
  8
STEMPEL
100
AcDbLine
 10
209.877410160615
 20
361.7921724045146
 30
0.0
 11
209.877410160615
 21
364.7921724045146
 31
0.0
  0
LINE
  5
2CA5
330
106E
100
AcDbEntity
  8
STEMPEL
100
AcDbLine
 10
292.1498235201363
 20
361.7921724045142
 30
0.0
 11
292.1498235201363
 21
364.7921724045146
 31
0.0
  0
LINE
  5
2CA6
330
106E
100
AcDbEntity
  8
HILF
100
AcDbLine
 10
291.1498235201364
 20
361.7921724045142
 30
0.0
 11
291.1498235201364
 21
365.7921724045146
 31
0.0
  0
LINE
  5
2CA7
330
106E
100
AcDbEntity
  8
HILF
100
AcDbLine
 10
283.1498235201364
 20
361.7921724045142
 30
0.0
 11
283.1498235201364
 21
365.7921724045148
 31
0.0
  0
LINE
  5
2CA8
330
106E
100
AcDbEntity
  8
STEMPEL
100
AcDbLine
 10
282.1498235201366
 20
361.7921724045142
 30
0.0
 11
282.1498235201366
 21
364.7921724045146
 31
0.0
  0
LINE
  5
2CA9
330
106E
100
AcDbEntity
  8
STEMPEL
100
AcDbLine
 10
380.9398560011288
 20
407.7957437419828
 30
0.0
 11
378.8185356575691
 21
409.9170640855424
 31
0.0
  0
LINE
  5
2CAA
330
106E
100
AcDbEntity
  8
HILF
100
AcDbLine
 10
380.2327492199422
 20
407.0886369607961
 30
0.0
 11
377.404322095196
 21
409.9170640855424
 31
0.0
  0
LINE
  5
2CAB
330
106E
100
AcDbEntity
  8
STEMPEL
100
AcDbLine
 10
373.8687881892634
 20
400.7246759301175
 30
0.0
 11
371.7474678457038
 21
402.845996273677
 31
0.0
  0
LINE
  5
2CAC
330
106E
100
AcDbEntity
  8
HILF
100
AcDbLine
 10
374.5758949704499
 20
401.4317827113039
 30
0.0
 11
371.7474678457036
 21
404.2602098360502
 31
0.0
  0
HATCH
  5
2CBB
330
106E
100
AcDbEntity
  8
SCHRAFF
100
AcDbHatch
 10
0.0
 20
0.0
 30
0.0
210
0.0
220
0.0
230
1.0
  2
_USER
 70
     0
 71
     1
 91
        2
 92
        7
 72
     0
 73
     1
 93
        5
 10
410.2847874203706
 20
414.5132581632552
 10
410.2847874203707
 20
417.3416852880015
 10
407.4563602956247
 20
420.1701124127477
 10
384.4753899070617
 20
397.1891420241848
 10
388.718030594181
 20
392.9465013370654
 97
        5
330
2C78
330
2C79
330
2C6E
330
2254
330
2C6F
 92
        7
 72
     0
 73
     1
 93
        5
 10
388.718030594181
 20
392.9465013370654
 10
384.4753899070616
 20
397.1891420241847
 10
361.4944195184989
 20
374.208171635622
 10
364.3228466432451
 20
371.3797445108755
 10
367.1512737679913
 20
371.3797445108757
 97
        5
330
2254
330
2C6E
330
2C71
330
2C70
330
2C6F
 75
     0
 76
     0
 52
90.0
 41
5.0
 77
     0
 78
     1
 53
90.0
 43
0.0
 44
0.0
 45
-5.0
 46
0.0000000000000003
 79
     0
 47
0.2048183592830846
 98
        2
 10
396.7055272877542
 20
403.474715415695
 10
380.3144650554109
 20
387.9085202811341
  0
LINE
  5
2CBD
330
106E
100
AcDbEntity
  8
TEXT
 62
     2
100
AcDbLine
 10
433.1671173314084
 20
432.0879815816774
 30
0.0
 11
539.6017084489772
 21
432.0879815816774
 31
0.0
  0
TEXT
  5
2CBE
330
106E
100
AcDbEntity
  8
TEXT
 62
     1
100
AcDbText
 10
435.0867931281259
 20
420.9159854270965
 30
0.0
 40
7.0
  1
EDV-Art.Nr. 01378.000X
 41
0.8
  7
GREEKS
100
AcDbText
  0
TEXT
  5
2CBF
330
106E
100
AcDbEntity
  8
TEXT
 62
     1
100
AcDbText
 10
435.8163009504592
 20
435.3585091825266
 30
0.0
 40
7.0
  1
Losflansch
 41
0.8
  7
GREEKS
100
AcDbText
  0
LINE
  5
2CC0
330
106E
100
AcDbEntity
  8
TEXT
 62
     2
100
AcDbLine
 10
433.1671173314084
 20
432.0879815816774
 30
0.0
 11
405.553491692842
 21
414.1775780194683
 31
0.0
  0
TEXT
  5
2CDE
330
106E
100
AcDbEntity
  8
VOLL
100
AcDbText
 10
349.6877320638095
 20
451.9883425830815
 30
0.0
 40
1.8
  1

 50
45.0
  7
GREEKS
100
AcDbText
  0
ARC
  5
2CDF
330
106E
100
AcDbEntity
  8
STEMPEL
100
AcDbCircle
 10
391.1221936502152
 20
404.896605939118
 30
0.0
 40
0.750000000000001
100
AcDbArc
 50
314.9999991462254
 51
114.9999999999993
  0
ARC
  5
2CE0
330
106E
100
AcDbEntity
  8
STEMPEL
100
AcDbCircle
 10
376.7679259921283
 20
390.5423382810312
 30
0.0
 40
0.7500000000000013
100
AcDbArc
 50
155.0000000000006
 51
314.9999991462254
  0
LINE
  5
2CE1
330
106E
100
AcDbEntity
  8
STEMPEL
100
AcDbLine
 10
376.8735602824013
 20
392.5435229349292
 30
0.0
 11
376.0881951518508
 21
390.8593019773367
 31
0.0
  0
LINE
  5
2CE2
330
106E
100
AcDbEntity
  8
STEMPEL
100
AcDbLine
 10
390.8052299539097
 20
405.5763367793955
 30
0.0
 11
389.1210089963172
 21
404.790971648845
 31
0.0
  0
LINE
  5
2CE3
330
106E
100
AcDbEntity
  8
STEMPEL
100
AcDbLine
 10
383.7478782659105
 20
410.1641023792517
 30
0.0
 11
382.7076229540953
 21
409.5635106949492
 31
0.0
  0
LINE
  5
2CE4
330
106E
100
AcDbEntity
  8
STEMPEL
100
AcDbLine
 10
372.1010212362971
 20
398.9569089771511
 30
0.0
 11
371.5004295519946
 21
397.9166536653358
 31
0.0
  0
LINE
  5
2CE5
330
106E
100
AcDbEntity
  8
STEMPEL
100
AcDbLine
 10
376.8735602824013
 20
392.5435229349292
 30
0.0
 11
371.5004295519946
 21
397.9166536653358
 31
0.0
  0
LINE
  5
2CE6
330
106E
100
AcDbEntity
  8
STEMPEL
100
AcDbLine
 10
391.6525237361051
 20
404.3662758532281
 30
0.0
 11
377.2982560780182
 21
390.0120081951413
 31
0.0
  0
LINE
  5
2CE7
330
106E
100
AcDbEntity
  8
STEMPEL
100
AcDbLine
 10
390.8052299539097
 20
405.5763367793955
 30
0.0
 11
376.0881951518508
 21
390.8593019773367
 31
0.0
  0
LINE
  5
2CE8
330
106E
100
AcDbEntity
  8
STEMPEL
100
AcDbLine
 10
379.9354224608803
 20
395.6053851134082
 30
0.0
 11
374.5622917304736
 21
400.9785158438147
 31
0.0
  0
LINE
  5
2CE9
330
106E
100
AcDbEntity
  8
STEMPEL
100
AcDbLine
 10
386.0591468178382
 20
401.7291094703661
 30
0.0
 11
380.6860160874316
 21
407.1022402007727
 31
0.0
  0
LINE
  5
2CEA
330
106E
100
AcDbEntity
  8
STEMPEL
100
AcDbLine
 10
389.1210089963172
 20
404.790971648845
 30
0.0
 11
383.7478782659105
 21
410.1641023792517
 31
0.0
  0
LINE
  5
2CEB
330
106E
100
AcDbEntity
  8
STEMPEL
100
AcDbLine
 10
372.1010212362971
 20
398.9569089771511
 30
0.0
 11
382.7076229540953
 21
409.5635106949492
 31
0.0
  0
POINT
  5
2CED
330
106E
100
AcDbEntity
  8
0
100
AcDbPoint
 10
384.4753899070617
 20
397.1891420241847
 30
0.0
210
-0.7071067811865475
220
0.7071067811865476
230
0.0
  0
ARC
  5
2CEE
330
106E
100
AcDbEntity
  8
HILF
100
AcDbCircle
 10
382.1796232242662
 20
390.2993221715432
 30
0.0
 40
5.761140599691502
100
AcDbArc
 50
112.9259452632616
 51
157.0740547367383
  0
ARC
  5
2CEF
330
106E
100
AcDbEntity
  8
HILF
100
AcDbCircle
 10
391.3652097597031
 20
399.4849087069801
 30
0.0
 40
5.761140599691502
100
AcDbArc
 50
112.9259452632616
 51
157.0740547367383
  0
ARC
  5
2CF0
330
106E
100
AcDbEntity
  8
HILF
100
AcDbCircle
 10
398.5457266490393
 20
383.1188052822071
 30
0.0
 40
22.41111549782308
100
AcDbArc
 50
123.8596278389052
 51
146.1403721610947
  0
ARC
  5
2CF1
330
106E
100
AcDbEntity
  8
STEMPEL
100
AcDbCircle
 10
387.4378111054114
 20
403.4123073612718
 30
0.0
 40
7.694305707784447
100
AcDbArc
 50
118.6571066940146
 51
151.3428933059825
  0
ARC
  5
2CF2
330
106E
100
AcDbEntity
  8
STEMPEL
100
AcDbCircle
 10
378.2522245699745
 20
394.226720825835
 30
0.0
 40
7.694305707784447
100
AcDbArc
 50
118.6571066940175
 51
151.3428933059854
  0
ARC
  5
2CF3
330
106E
100
AcDbEntity
  8
STEMPEL
100
AcDbCircle
 10
398.8373573445486
 20
382.8271745866977
 30
0.0
 40
30.31088913245485
100
AcDbArc
 50
126.7867892982606
 51
143.2132107017393
  0
TEXT
  5
2CF4
330
106E
100
AcDbEntity
  8
VOLL
100
AcDbText
 10
191.4383648823231
 20
406.1453581556283
 30
0.0
 40
1.8
  1

  7
GREEKS
100
AcDbText
  0
ARC
  5
2CF5
330
106E
100
AcDbEntity
  8
STEMPEL
100
AcDbCircle
 10
132.7549968010933
 20
352.5421724045149
 30
0.0
 40
0.750000000000001
100
AcDbArc
 50
269.9999991462263
 51
70.00000000000047
  0
ARC
  5
2CF6
330
106E
100
AcDbEntity
  8
STEMPEL
100
AcDbCircle
 10
112.4549968010933
 20
352.5421724045149
 30
0.0
 40
0.7500000000000013
100
AcDbArc
 50
109.9999999999995
 51
269.9999991462263
  0
LINE
  5
2CF7
330
106E
100
AcDbEntity
  8
STEMPEL
100
AcDbLine
 10
113.9447427632489
 20
353.8825289207147
 30
0.0
 11
112.1984816935991
 21
353.2469418701043
 31
0.0
  0
LINE
  5
2CF8
330
106E
100
AcDbEntity
  8
STEMPEL
100
AcDbLine
 10
133.0115119085876
 20
353.2469418701043
 30
0.0
 11
131.2652508389377
 21
353.8825289207147
 31
0.0
  0
LINE
  5
2CF9
330
106E
100
AcDbEntity
  8
STEMPEL
100
AcDbLine
 10
131.2652508389377
 20
361.4812832720595
 30
0.0
 11
130.1049968010933
 21
361.7921724045149
 31
0.0
  0
LINE
  5
2CFA
330
106E
100
AcDbEntity
  8
STEMPEL
100
AcDbLine
 10
115.1049968010933
 20
361.7921724045149
 30
0.0
 11
113.9447427632489
 21
361.4812832720595
 31
0.0
  0
LINE
  5
2CFB
330
106E
100
AcDbEntity
  8
STEMPEL
100
AcDbLine
 10
113.9447427632489
 20
353.8825289207147
 30
0.0
 11
113.9447427632489
 21
361.4812832720595
 31
0.0
  0
LINE
  5
2CFC
330
106E
100
AcDbEntity
  8
STEMPEL
100
AcDbLine
 10
132.7549968010933
 20
351.7921724045149
 30
0.0
 11
112.4549968010933
 21
351.7921724045149
 31
0.0
  0
LINE
  5
2CFD
330
106E
100
AcDbEntity
  8
STEMPEL
100
AcDbLine
 10
133.0115119085876
 20
353.2469418701043
 30
0.0
 11
112.1984816935991
 21
353.2469418701043
 31
0.0
  0
LINE
  5
2CFE
330
106E
100
AcDbEntity
  8
STEMPEL
100
AcDbLine
 10
118.2748697821711
 20
353.8825289207147
 30
0.0
 11
118.2748697821711
 21
361.4812832720595
 31
0.0
  0
LINE
  5
2CFF
330
106E
100
AcDbEntity
  8
STEMPEL
100
AcDbLine
 10
126.9351238200155
 20
353.8825289207147
 30
0.0
 11
126.9351238200155
 21
361.4812832720595
 31
0.0
  0
LINE
  5
2D00
330
106E
100
AcDbEntity
  8
STEMPEL
100
AcDbLine
 10
131.2652508389377
 20
353.8825289207147
 30
0.0
 11
131.2652508389377
 21
361.4812832720595
 31
0.0
  0
LINE
  5
2D01
330
106E
100
AcDbEntity
  8
STEMPEL
100
AcDbLine
 10
115.1049968010933
 20
361.7921724045149
 30
0.0
 11
130.1049968010933
 21
361.7921724045149
 31
0.0
  0
POINT
  5
2D03
330
106E
100
AcDbEntity
  8
0
100
AcDbPoint
 10
122.6049968010933
 20
351.7921724045149
 30
0.0
210
0.0000000000000001
220
1.0
230
0.0
  0
ARC
  5
2D04
330
106E
100
AcDbEntity
  8
HILF
100
AcDbCircle
 10
116.10980627271
 20
348.5436862549852
 30
0.0
 40
5.761140599691502
100
AcDbArc
 50
67.92594526326206
 51
112.0740547367379
  0
ARC
  5
2D05
330
106E
100
AcDbEntity
  8
HILF
100
AcDbCircle
 10
129.1001873294766
 20
348.5436862549852
 30
0.0
 40
5.761140599691502
100
AcDbArc
 50
67.92594526326206
 51
112.0740547367379
  0
ARC
  5
2D06
330
106E
100
AcDbEntity
  8
HILF
100
AcDbCircle
 10
122.6049968010933
 20
331.8937113568537
 30
0.0
 40
22.41111549782308
100
AcDbArc
 50
78.85962783890537
 51
101.1403721610946
  0
ARC
  5
2D07
330
106E
100
AcDbEntity
  8
STEMPEL
100
AcDbCircle
 10
129.1001873294766
 20
354.0978666967304
 30
0.0
 40
7.694305707784447
100
AcDbArc
 50
73.65710669401501
 51
106.342893305985
  0
ARC
  5
2D08
330
106E
100
AcDbEntity
  8
STEMPEL
100
AcDbCircle
 10
116.10980627271
 20
354.0978666967304
 30
0.0
 40
7.694305707784447
100
AcDbArc
 50
73.65710669401501
 51
106.342893305985
  0
ARC
  5
2D09
330
106E
100
AcDbEntity
  8
STEMPEL
100
AcDbCircle
 10
122.6049968010933
 20
331.48128327206
 30
0.0
 40
30.31088913245485
100
AcDbArc
 50
81.78678929826221
 51
98.2132107017378
  0
LINE
  5
2D0A
330
106E
100
AcDbEntity
  8
STEMPEL
100
AcDbLine
 10
295.8100775579809
 20
353.8825289207141
 30
0.0
 11
295.8100775579809
 21
361.4812832720589
 31
0.0
  0
LINE
  5
2D0B
330
106E
100
AcDbEntity
  8
STEMPEL
100
AcDbLine
 10
291.4799505390586
 20
353.8825289207141
 30
0.0
 11
291.4799505390586
 21
361.4812832720589
 31
0.0
  0
LINE
  5
2D0C
330
106E
100
AcDbEntity
  8
STEMPEL
100
AcDbLine
 10
282.8196965012143
 20
353.8825289207141
 30
0.0
 11
282.8196965012143
 21
361.4812832720589
 31
0.0
  0
LINE
  5
2D0D
330
106E
100
AcDbEntity
  8
STEMPEL
100
AcDbLine
 10
278.4895694822921
 20
353.8825289207141
 30
0.0
 11
278.4895694822921
 21
361.4812832720589
 31
0.0
  0
ARC
  5
2D0E
330
106E
100
AcDbEntity
  8
HILF
100
AcDbCircle
 10
280.6546329917532
 20
348.5436862549846
 30
0.0
 40
5.761140599691502
100
AcDbArc
 50
67.92594526326206
 51
112.0740547367379
  0
LINE
  5
2D0F
330
106E
100
AcDbEntity
  8
STEMPEL
100
AcDbLine
 10
297.5563386276308
 20
353.2469418701037
 30
0.0
 11
276.7433084126423
 21
353.2469418701037
 31
0.0
  0
LINE
  5
2D10
330
106E
100
AcDbEntity
  8
STEMPEL
100
AcDbLine
 10
297.2998235201364
 20
351.7921724045142
 30
0.0
 11
276.9998235201365
 21
351.7921724045142
 31
0.0
  0
LINE
  5
2D11
330
106E
100
AcDbEntity
  8
STEMPEL
100
AcDbLine
 10
278.4895694822921
 20
353.8825289207141
 30
0.0
 11
276.7433084126423
 21
353.2469418701037
 31
0.0
  0
ARC
  5
2D12
330
106E
100
AcDbEntity
  8
STEMPEL
100
AcDbCircle
 10
276.9998235201365
 20
352.5421724045143
 30
0.0
 40
0.7500000000000013
100
AcDbArc
 50
109.9999999999995
 51
269.9999991462263
  0
LINE
  5
2D13
330
106E
100
AcDbEntity
  8
STEMPEL
100
AcDbLine
 10
297.5563386276308
 20
353.2469418701037
 30
0.0
 11
295.8100775579809
 21
353.8825289207141
 31
0.0
  0
ARC
  5
2D14
330
106E
100
AcDbEntity
  8
HILF
100
AcDbCircle
 10
287.1498235201364
 20
331.8937113568531
 30
0.0
 40
22.41111549782308
100
AcDbArc
 50
78.85962783890537
 51
101.1403721610946
  0
POINT
  5
2D15
330
106E
100
AcDbEntity
  8
0
100
AcDbPoint
 10
287.1498235201364
 20
351.7921724045142
 30
0.0
210
0.0000000000000001
220
1.0
230
0.0
  0
ARC
  5
2D16
330
106E
100
AcDbEntity
  8
HILF
100
AcDbCircle
 10
293.6450140485198
 20
348.5436862549846
 30
0.0
 40
5.761140599691502
100
AcDbArc
 50
67.92594526326206
 51
112.0740547367379
  0
ARC
  5
2D17
330
106E
100
AcDbEntity
  8
STEMPEL
100
AcDbCircle
 10
297.2998235201364
 20
352.5421724045143
 30
0.0
 40
0.750000000000001
100
AcDbArc
 50
269.9999991462263
 51
70.00000000000047
  0
ARC
  5
2D18
330
106E
100
AcDbEntity
  8
STEMPEL
100
AcDbCircle
 10
280.6546329917532
 20
354.0978666967298
 30
0.0
 40
7.694305707784447
100
AcDbArc
 50
73.65710669401501
 51
106.342893305985
  0
LINE
  5
2D19
330
106E
100
AcDbEntity
  8
STEMPEL
100
AcDbLine
 10
279.6498235201365
 20
361.7921724045142
 30
0.0
 11
294.6498235201365
 21
361.7921724045142
 31
0.0
  0
LINE
  5
2D1A
330
106E
100
AcDbEntity
  8
STEMPEL
100
AcDbLine
 10
279.6498235201365
 20
361.7921724045142
 30
0.0
 11
278.4895694822921
 21
361.4812832720589
 31
0.0
  0
ARC
  5
2D1B
330
106E
100
AcDbEntity
  8
STEMPEL
100
AcDbCircle
 10
287.1498235201364
 20
331.4812832720594
 30
0.0
 40
30.31088913245485
100
AcDbArc
 50
81.78678929826221
 51
98.2132107017378
  0
ARC
  5
2D1C
330
106E
100
AcDbEntity
  8
STEMPEL
100
AcDbCircle
 10
293.6450140485198
 20
354.0978666967298
 30
0.0
 40
7.694305707784447
100
AcDbArc
 50
73.65710669401501
 51
106.342893305985
  0
LINE
  5
2D1D
330
106E
100
AcDbEntity
  8
STEMPEL
100
AcDbLine
 10
295.8100775579809
 20
361.4812832720589
 30
0.0
 11
294.6498235201365
 21
361.7921724045142
 31
0.0
  0
ARC
  5
2D1E
330
106E
100
AcDbEntity
  8
STEMPEL
100
AcDbCircle
 10
204.8774101606151
 20
331.4812832720597
 30
0.0
 40
30.31088913245485
100
AcDbArc
 50
81.78678929826221
 51
98.2132107017378
  0
LINE
  5
2D1F
330
106E
100
AcDbEntity
  8
STEMPEL
100
AcDbLine
 10
197.3774101606151
 20
361.7921724045146
 30
0.0
 11
212.3774101606151
 21
361.7921724045146
 31
0.0
  0
ARC
  5
2D20
330
106E
100
AcDbEntity
  8
HILF
100
AcDbCircle
 10
204.8774101606151
 20
331.8937113568533
 30
0.0
 40
22.41111549782308
100
AcDbArc
 50
78.85962783890537
 51
101.1403721610946
  0
LINE
  5
2D21
330
106E
100
AcDbEntity
  8
STEMPEL
100
AcDbLine
 10
215.0274101606151
 20
351.7921724045145
 30
0.0
 11
194.7274101606151
 21
351.7921724045145
 31
0.0
  0
LINE
  5
2D22
330
106E
100
AcDbEntity
  8
STEMPEL
100
AcDbLine
 10
215.2839252681094
 20
353.246941870104
 30
0.0
 11
194.4708950531208
 21
353.246941870104
 31
0.0
  0
LINE
  5
2D23
330
106E
100
AcDbEntity
  8
STEMPEL
100
AcDbLine
 10
196.2171561227707
 20
353.8825289207144
 30
0.0
 11
196.2171561227707
 21
361.4812832720592
 31
0.0
  0
LINE
  5
2D24
330
106E
100
AcDbEntity
  8
STEMPEL
100
AcDbLine
 10
200.5472831416929
 20
353.8825289207144
 30
0.0
 11
200.5472831416929
 21
361.4812832720592
 31
0.0
  0
ARC
  5
2D25
330
106E
100
AcDbEntity
  8
HILF
100
AcDbCircle
 10
198.3822196322318
 20
348.5436862549849
 30
0.0
 40
5.761140599691502
100
AcDbArc
 50
67.92594526326206
 51
112.0740547367379
  0
ARC
  5
2D26
330
106E
100
AcDbEntity
  8
STEMPEL
100
AcDbCircle
 10
194.7274101606151
 20
352.5421724045145
 30
0.0
 40
0.7500000000000013
100
AcDbArc
 50
109.9999999999995
 51
269.9999991462263
  0
LINE
  5
2D27
330
106E
100
AcDbEntity
  8
STEMPEL
100
AcDbLine
 10
196.2171561227707
 20
353.8825289207144
 30
0.0
 11
194.4708950531208
 21
353.246941870104
 31
0.0
  0
POINT
  5
2D28
330
106E
100
AcDbEntity
  8
0
100
AcDbPoint
 10
204.8774101606151
 20
351.7921724045145
 30
0.0
210
0.0000000000000001
220
1.0
230
0.0
  0
ARC
  5
2D29
330
106E
100
AcDbEntity
  8
STEMPEL
100
AcDbCircle
 10
198.3822196322318
 20
354.0978666967301
 30
0.0
 40
7.694305707784447
100
AcDbArc
 50
73.65710669401501
 51
106.342893305985
  0
LINE
  5
2D2A
330
106E
100
AcDbEntity
  8
STEMPEL
100
AcDbLine
 10
197.3774101606151
 20
361.7921724045146
 30
0.0
 11
196.2171561227707
 21
361.4812832720592
 31
0.0
  0
LINE
  5
2D2B
330
106E
100
AcDbEntity
  8
STEMPEL
100
AcDbLine
 10
209.2075371795373
 20
353.8825289207144
 30
0.0
 11
209.2075371795373
 21
361.4812832720592
 31
0.0
  0
LINE
  5
2D2C
330
106E
100
AcDbEntity
  8
STEMPEL
100
AcDbLine
 10
213.5376641984595
 20
353.8825289207144
 30
0.0
 11
213.5376641984595
 21
361.4812832720592
 31
0.0
  0
LINE
  5
2D2D
330
106E
100
AcDbEntity
  8
STEMPEL
100
AcDbLine
 10
215.2839252681094
 20
353.246941870104
 30
0.0
 11
213.5376641984595
 21
353.8825289207144
 31
0.0
  0
ARC
  5
2D2E
330
106E
100
AcDbEntity
  8
HILF
100
AcDbCircle
 10
211.3726006889984
 20
348.5436862549849
 30
0.0
 40
5.761140599691502
100
AcDbArc
 50
67.92594526326206
 51
112.0740547367379
  0
ARC
  5
2D2F
330
106E
100
AcDbEntity
  8
STEMPEL
100
AcDbCircle
 10
215.0274101606151
 20
352.5421724045145
 30
0.0
 40
0.750000000000001
100
AcDbArc
 50
269.9999991462263
 51
70.00000000000047
  0
LINE
  5
2D30
330
106E
100
AcDbEntity
  8
STEMPEL
100
AcDbLine
 10
213.5376641984595
 20
361.4812832720592
 30
0.0
 11
212.3774101606151
 21
361.7921724045146
 31
0.0
  0
ARC
  5
2D31
330
106E
100
AcDbEntity
  8
STEMPEL
100
AcDbCircle
 10
211.3726006889984
 20
354.0978666967301
 30
0.0
 40
7.694305707784447
100
AcDbArc
 50
73.65710669401501
 51
106.342893305985
  0
LINE
  5
2D33
330
106E
100
AcDbEntity
  8
TEXT
 62
     2
100
AcDbLine
 10
382.0562624491695
 20
462.1641188775752
 30
0.0
 11
333.353314385078
 21
347.9459059760523
 31
0.0
  0
LINE
  5
2D34
330
106E
100
AcDbEntity
  8
TEXT
 62
     2
100
AcDbLine
 10
382.0562624491695
 20
462.1641188775752
 30
0.0
 11
488.4908535667382
 21
462.1641188775752
 31
0.0
  0
TEXT
  5
2D35
330
106E
100
AcDbEntity
  8
TEXT
 62
     1
100
AcDbText
 10
383.9759382458869
 20
450.9921227229942
 30
0.0
 40
7.0
  1
EDV-Art.Nr. 19929.100X
 41
0.8
  7
GREEKS
100
AcDbText
  0
TEXT
  5
2D36
330
106E
100
AcDbEntity
  8
TEXT
 62
     1
100
AcDbText
 10
384.7054460682202
 20
465.4346464784244
 30
0.0
 40
7.0
  1
Losflansch
 41
0.8
  7
GREEKS
100
AcDbText
  0
ARC
  5
3003
330
106E
100
AcDbEntity
  8
STEMPEL
100
AcDbCircle
 10
95.36626655630385
 20
445.3120093869769
 30
0.0
 40
5.0
100
AcDbArc
 50
300.0670458384862
 51
300.2564371635306
  0
ARC
  5
3004
102
{ACAD_REACTORS
330
3274
102
}
330
106E
100
AcDbEntity
  8
STEMPEL
100
AcDbCircle
 10
100.8774101606158
 20
435.7921144371991
 30
0.0
 40
6.000000000000454
100
AcDbArc
 50
120.2564164748155
 51
179.9999999999965
  0
ARC
  5
3005
102
{ACAD_REACTORS
330
3274
102
}
330
106E
100
AcDbEntity
  8
STEMPEL
100
AcDbCircle
 10
100.8774101606159
 20
435.7921144371992
 30
0.0
 40
5.000000000000511
100
AcDbArc
 50
120.2564164748193
 51
179.9999999999965
  0
LINE
  5
3008
102
{ACAD_REACTORS
330
3274
102
}
330
106E
100
AcDbEntity
  8
STEMPEL
100
AcDbLine
 10
74.8774101606154
 20
366.7921724045154
 30
0.0
 11
74.87741016061528
 21
365.7921724045152
 31
0.0
  0
LINE
  5
3009
102
{ACAD_REACTORS
330
3274
102
}
330
106E
100
AcDbEntity
  8
STEMPEL
100
AcDbLine
 10
78.87741016061529
 20
366.7921724045152
 30
0.0
 11
78.87741016061529
 21
365.7921724045152
 31
0.0
  0
LINE
  5
300B
102
{ACAD_REACTORS
330
3274
102
}
330
106E
100
AcDbEntity
  8
STEMPEL
100
AcDbLine
 10
86.87741016061528
 20
366.7921724045156
 30
0.0
 11
86.87741016061528
 21
365.7921724045152
 31
0.0
  0
LWPOLYLINE
  5
300C
330
106E
100
AcDbEntity
  8
STEMPEL
100
AcDbPolyline
 90
        7
 70
   128
 43
0.0
 10
96.5691544865316
 20
384.7542264603531
 10
96.70698349610189
 20
384.0021202234146
 10
96.82584777306807
 20
383.0794066126998
 10
96.92219577496928
 20
382.0136553627955
 10
96.99314872250738
 20
380.8367100259744
 10
97.03658661451539
 20
379.5837365195726
 10
97.05121157141299
 20
378.2921724045133
  0
LWPOLYLINE
  5
300D
330
106E
100
AcDbEntity
  8
STEMPEL
100
AcDbPolyline
 90
        7
 70
   128
 43
0.0
 10
-94.43075238774218
 20
366.7921724045156
 10
-95.10745426281955
 20
367.4017731323746
 10
-95.70700368645356
 20
368.1293322162862
 10
-96.21329235960315
 20
368.9553020779665
 10
-96.61271765164878
 20
369.8574911031695
 10
-96.89454806691168
 20
370.8116598713632
 10
-97.05121157141315
 20
371.7921724045155
210
0.0
220
0.0
230
-1.0
  0
LWPOLYLINE
  5
300E
330
106E
100
AcDbEntity
  8
STEMPEL
100
AcDbPolyline
 90
       10
 70
   128
 43
0.0
 10
-96.72772002181028
 20
365.7921724045151
 10
-97.56389929665187
 20
365.8833258864419
 10
-98.37467168735447
 20
366.1540166797997
 10
-99.13540228509731
 20
366.5960199818085
 10
-99.82297667561608
 20
367.1959057458013
 10
-100.4165032589845
 20
367.935446746396
 10
-100.8979480303057
 20
368.7921724045153
 10
-101.2526825338261
 20
369.7400515445613
 10
-101.4699283411602
 20
370.7502833385138
 10
-101.5430845483842
 20
371.7921724045155
210
0.0
220
0.0
230
-1.0
  0
LINE
  5
300F
330
106E
100
AcDbEntity
  8
STEMPEL
100
AcDbLine
 10
96.08709740165046
 20
378.2921724045133
 30
0.0
 11
96.08709740165039
 21
371.7921724045155
 31
0.0
  0
LINE
  5
3010
330
106E
100
AcDbEntity
  8
STEMPEL
100
AcDbLine
 10
101.5430845483842
 20
378.2921724045132
 30
0.0
 11
101.5430845483842
 21
371.7921724045166
 31
0.0
  0
LINE
  5
3011
330
106E
100
AcDbEntity
  8
STEMPEL
100
AcDbLine
 10
98.04499028495094
 20
378.2921724045133
 30
0.0
 11
98.04499028495087
 21
371.7921724045144
 31
0.0
  0
LINE
  5
3012
330
106E
100
AcDbEntity
  8
STEMPEL
100
AcDbLine
 10
97.05121157141309
 20
378.2921724045133
 30
0.0
 11
97.05121157141304
 21
371.7921724045155
 31
0.0
  0
LINE
  5
3013
330
106E
100
AcDbEntity
  8
STEMPEL
100
AcDbLine
 10
93.46663821797978
 20
366.7921724045151
 30
0.0
 11
94.43075238774241
 21
366.7921724045151
 31
0.0
  0
ARC
  5
3014
102
{ACAD_REACTORS
330
3274
102
}
330
106E
100
AcDbEntity
  8
STEMPEL
100
AcDbCircle
 10
89.87741016061518
 20
371.7921724045155
 30
0.0
 40
5.0
100
AcDbArc
 50
270.0000000000013
 51
359.9999999999997
  0
LWPOLYLINE
  5
3015
330
106E
100
AcDbEntity
  8
STEMPEL
100
AcDbPolyline
 90
       10
 70
   128
 43
0.0
 10
-90.58110867061959
 20
365.7921724045162
 10
-91.43918166689235
 20
365.8582996190889
 10
-92.29199386651458
 20
366.1108533688191
 10
-93.1127521734316
 20
366.5418990851367
 10
-93.87567053983065
 20
367.1378944555766
 10
-94.55678009532977
 20
367.8801148872972
 10
-95.13468218527549
 20
368.7452417840947
 10
-95.59122065968171
 20
369.7060951548107
 10
-95.91205229127927
 20
370.7324875365229
 10
-96.08709740165039
 20
371.7921724045155
210
0.0
220
0.0
230
-1.0
  0
ARC
  5
3016
102
{ACAD_REACTORS
330
3274
102
}
330
106E
100
AcDbEntity
  8
STEMPEL
100
AcDbCircle
 10
89.87741016061518
 20
371.7921724045155
 30
0.0
 40
6.0
100
AcDbArc
 50
270.0000000000013
 51
359.9999999999997
  0
LWPOLYLINE
  5
3017
330
106E
100
AcDbEntity
  8
STEMPEL
100
AcDbPolyline
 90
       10
 70
   128
 43
0.0
 10
-92.53900155392006
 20
365.7921724045151
 10
-93.39707455019283
 20
365.8582996190877
 10
-94.24988674981506
 20
366.110853368818
 10
-95.07064505673207
 20
366.5418990851355
 10
-95.83356342313113
 20
367.1378944555755
 10
-96.51467297863025
 20
367.8801148872961
 10
-97.09257506857596
 20
368.7452417840936
 10
-97.54911354298219
 20
369.7060951548096
 10
-97.86994517457976
 20
370.7324875365218
 10
-98.04499028495087
 20
371.7921724045144
210
0.0
220
0.0
230
-1.0
  0
LINE
  5
3018
102
{ACAD_REACTORS
330
3274
102
}
330
106E
100
AcDbEntity
  8
STEMPEL
100
AcDbLine
 10
74.87741016061551
 20
366.7921724045152
 30
0.0
 11
89.87741016061539
 21
366.7921724045155
 31
0.0
  0
LWPOLYLINE
  5
3019
330
106E
100
AcDbEntity
  8
STEMPEL
100
AcDbPolyline
 90
       18
 70
   128
 43
0.0
 10
96.08709740165046
 20
378.2921724045133
 10
96.10376582512731
 20
379.6702937881378
 10
96.15320347238764
 20
381.0014849009175
 10
96.23372680364809
 20
382.2404136260943
 10
96.34259369343977
 20
383.3448897318636
 10
96.47609681040206
 20
384.2773016091164
 10
96.62968986600617
 20
385.0058970896776
 10
96.79814243295822
 20
385.5058647283109
 10
96.97571806112717
 20
385.7601787267276
 10
97.15636962547421
 20
385.7601787267276
 10
97.33394525364316
 20
385.5058647283109
 10
97.50239782059521
 20
385.0058970896776
 10
97.65599087619932
 20
384.2773016091164
 10
97.78949399316161
 20
383.3448897318636
 10
97.89836088295329
 20
382.2404136260943
 10
97.97888421421374
 20
381.0014849009175
 10
98.02832186147407
 20
379.6702937881378
 10
98.04499028495094
 20
378.2921724045133
  0
LINE
  5
301A
102
{ACAD_REACTORS
330
3274
102
}
330
106E
100
AcDbEntity
  8
STEMPEL
100
AcDbLine
 10
95.87741016061546
 20
435.7921144371996
 30
0.0
 11
95.87741016061517
 21
371.7921724045155
 31
0.0
  0
LINE
  5
301B
102
{ACAD_REACTORS
330
3274
102
}
330
106E
100
AcDbEntity
  8
STEMPEL
100
AcDbLine
 10
94.87741016061534
 20
435.7921144371996
 30
0.0
 11
94.87741016061505
 21
371.7921724045155
 31
0.0
  0
ARC
  5
301C
330
106E
100
AcDbEntity
  8
STEMPEL
100
AcDbCircle
 10
124.8774101606154
 20
449.7921724045146
 30
0.0
 40
6.0
100
AcDbArc
 50
89.99999999999975
 51
89.99999999999975
  0
ARC
  5
301D
102
{ACAD_REACTORS
330
3274
102
}
330
106E
100
AcDbEntity
  8
STEMPEL
100
AcDbCircle
 10
124.8774101606154
 20
449.7921724045152
 30
0.0
 40
5.999999999999263
100
AcDbArc
 50
90.00000000000055
 51
120.5128743276236
  0
ARC
  5
301E
102
{ACAD_REACTORS
330
3274
102
}
330
106E
100
AcDbEntity
  8
STEMPEL
100
AcDbCircle
 10
124.8774101606175
 20
449.79217240451
 30
0.0
 40
5.000000000004884
100
AcDbArc
 50
90.00000000002419
 51
120.5373500482944
  0
ARC
  5
301F
102
{ACAD_REACTORS
330
3274
102
}
330
106E
100
AcDbEntity
  8
STEMPEL
100
AcDbCircle
 10
182.2359717769129
 20
455.7921724045143
 30
0.0
 40
1.5
100
AcDbArc
 50
30.00000000000715
 51
89.99999999999975
  0
ARC
  5
3020
102
{ACAD_REACTORS
330
3274
102
}
330
106E
100
AcDbEntity
  8
STEMPEL
100
AcDbCircle
 10
182.2359717769129
 20
455.7921724045143
 30
0.0
 40
0.5
100
AcDbArc
 50
30.00000000000715
 51
89.99999999999975
  0
LINE
  5
3021
102
{ACAD_REACTORS
330
3274
102
}
330
106E
100
AcDbEntity
  8
STEMPEL
100
AcDbLine
 10
182.2359717769129
 20
456.2921724045144
 30
0.0
 11
182.0359717769129
 21
456.2921724045144
 31
0.0
  0
ARC
  5
3022
102
{ACAD_REACTORS
330
3274
102
}
330
106E
100
AcDbEntity
  8
STEMPEL
100
AcDbCircle
 10
182.0359717769129
 20
455.7921724045143
 30
0.0
 40
0.5
100
AcDbArc
 50
89.99999999999975
 51
150.0000000000073
  0
ARC
  5
3023
102
{ACAD_REACTORS
330
3274
102
}
330
106E
100
AcDbEntity
  8
STEMPEL
100
AcDbCircle
 10
182.0359717769129
 20
455.7921724045143
 30
0.0
 40
1.5
100
AcDbArc
 50
89.99999999999975
 51
150.0000000000073
  0
ARC
  5
3024
102
{ACAD_REACTORS
330
3274
102
}
330
106E
100
AcDbEntity
  8
STEMPEL
100
AcDbCircle
 10
179.4378955655588
 20
457.2921724045143
 30
0.0
 40
1.5
100
AcDbArc
 50
269.9999999999998
 51
330.0000000000073
  0
ARC
  5
3025
102
{ACAD_REACTORS
330
3274
102
}
330
106E
100
AcDbEntity
  8
STEMPEL
100
AcDbCircle
 10
179.4378955655588
 20
457.2921724045143
 30
0.0
 40
2.5
100
AcDbArc
 50
269.9999999999998
 51
330.0000000000073
  0
LINE
  5
3026
330
106E
100
AcDbEntity
  8
STEMPEL
100
AcDbLine
 10
191.2878955655593
 20
455.7921724045143
 30
0.0
 11
184.8340479882653
 21
455.7921724045143
 31
0.0
  0
LINE
  5
3027
102
{ACAD_REACTORS
330
3274
102
}
330
106E
100
AcDbEntity
  8
STEMPEL
100
AcDbLine
 10
191.2878955655593
 20
455.7921724045142
 30
0.0
 11
184.8340479882653
 21
455.7921724045142
 31
0.0
  0
ARC
  5
3028
102
{ACAD_REACTORS
330
3274
102
}
330
106E
100
AcDbEntity
  8
STEMPEL
100
AcDbCircle
 10
193.8859717769128
 20
455.7921724045142
 30
0.0
 40
1.5
100
AcDbArc
 50
89.99999999999975
 51
150.0000000000032
  0
ARC
  5
3029
102
{ACAD_REACTORS
330
3274
102
}
330
106E
100
AcDbEntity
  8
STEMPEL
100
AcDbCircle
 10
194.0859717769128
 20
455.7921724045142
 30
0.0
 40
1.5
100
AcDbArc
 50
14.47751218592625
 51
89.99999999999975
  0
ARC
  5
302A
102
{ACAD_REACTORS
330
3274
102
}
330
106E
100
AcDbEntity
  8
STEMPEL
100
AcDbCircle
 10
196.0224634500168
 20
456.2921724045142
 30
0.0
 40
0.5
100
AcDbArc
 50
194.4775121859262
 51
269.9999999999998
  0
LINE
  5
302B
102
{ACAD_REACTORS
330
3274
102
}
330
106E
100
AcDbEntity
  8
STEMPEL
100
AcDbLine
 10
196.211212642616
 20
455.7921724045142
 30
0.0
 11
196.0224634500168
 21
455.7921724045142
 31
0.0
  0
ARC
  5
302C
102
{ACAD_REACTORS
330
3274
102
}
330
106E
100
AcDbEntity
  8
STEMPEL
100
AcDbCircle
 10
194.0859717769128
 20
455.7921724045142
 30
0.0
 40
0.5
100
AcDbArc
 50
14.47751218592625
 51
89.99999999999975
  0
LINE
  5
302D
102
{ACAD_REACTORS
330
3274
102
}
330
106E
100
AcDbEntity
  8
STEMPEL
100
AcDbLine
 10
194.0859717769128
 20
456.2921724045144
 30
0.0
 11
193.8859717769128
 21
456.2921724045144
 31
0.0
  0
ARC
  5
302E
102
{ACAD_REACTORS
330
3274
102
}
330
106E
100
AcDbEntity
  8
STEMPEL
100
AcDbCircle
 10
193.8859717769128
 20
455.7921724045142
 30
0.0
 40
0.5
100
AcDbArc
 50
89.99999999999975
 51
150.0000000000032
  0
ARC
  5
302F
102
{ACAD_REACTORS
330
3274
102
}
330
106E
100
AcDbEntity
  8
STEMPEL
100
AcDbCircle
 10
198.1477043157193
 20
455.7921724045142
 30
0.0
 40
0.5
100
AcDbArc
 50
89.99999999999975
 51
165.5224878140699
  0
ARC
  5
3030
102
{ACAD_REACTORS
330
3274
102
}
330
106E
100
AcDbEntity
  8
STEMPEL
100
AcDbCircle
 10
198.1477043157193
 20
455.7921724045142
 30
0.0
 40
1.5
100
AcDbArc
 50
89.99999999999975
 51
165.5224878140699
  0
ARC
  5
3031
102
{ACAD_REACTORS
330
3274
102
}
330
106E
100
AcDbEntity
  8
STEMPEL
100
AcDbCircle
 10
196.211212642616
 20
456.2921724045142
 30
0.0
 40
0.5
100
AcDbArc
 50
269.9999999999998
 51
345.5224878140699
  0
ARC
  5
3032
102
{ACAD_REACTORS
330
3274
102
}
330
106E
100
AcDbEntity
  8
STEMPEL
100
AcDbCircle
 10
191.2878955655593
 20
457.2921724045142
 30
0.0
 40
1.5
100
AcDbArc
 50
269.9999999999998
 51
330.0000000000033
  0
ARC
  5
3033
102
{ACAD_REACTORS
330
3274
102
}
330
106E
100
AcDbEntity
  8
STEMPEL
100
AcDbCircle
 10
196.211212642616
 20
456.2921724045142
 30
0.0
 40
1.5
100
AcDbArc
 50
269.9999999999998
 51
345.5224878140699
  0
ARC
  5
3034
102
{ACAD_REACTORS
330
3274
102
}
330
106E
100
AcDbEntity
  8
STEMPEL
100
AcDbCircle
 10
196.0224634500168
 20
456.2921724045142
 30
0.0
 40
1.5
100
AcDbArc
 50
194.4775121859262
 51
269.9999999999998
  0
ARC
  5
3035
102
{ACAD_REACTORS
330
3274
102
}
330
106E
100
AcDbEntity
  8
STEMPEL
100
AcDbCircle
 10
191.2878955655593
 20
457.2921724045142
 30
0.0
 40
2.5
100
AcDbArc
 50
269.9999999999998
 51
330.0000000000033
  0
ARC
  5
3036
102
{ACAD_REACTORS
330
3274
102
}
330
106E
100
AcDbEntity
  8
STEMPEL
100
AcDbCircle
 10
184.8340479882653
 20
457.2921724045142
 30
0.0
 40
1.5
100
AcDbArc
 50
210.0000000000072
 51
269.9999999999998
  0
ARC
  5
3037
102
{ACAD_REACTORS
330
3274
102
}
330
106E
100
AcDbEntity
  8
STEMPEL
100
AcDbCircle
 10
184.8340479882653
 20
457.2921724045142
 30
0.0
 40
2.5
100
AcDbArc
 50
210.0000000000072
 51
269.9999999999998
  0
ARC
  5
3038
102
{ACAD_REACTORS
330
3274
102
}
330
106E
100
AcDbEntity
  8
STEMPEL
100
AcDbCircle
 10
208.2359717769129
 20
455.7921724045142
 30
0.0
 40
0.5
100
AcDbArc
 50
30.00000000000351
 51
89.99999999999975
  0
ARC
  5
3039
102
{ACAD_REACTORS
330
3274
102
}
330
106E
100
AcDbEntity
  8
STEMPEL
100
AcDbCircle
 10
210.8340479882656
 20
457.2921724045141
 30
0.0
 40
1.5
100
AcDbArc
 50
210.0000000000036
 51
269.9999999999998
  0
ARC
  5
303A
102
{ACAD_REACTORS
330
3274
102
}
330
106E
100
AcDbEntity
  8
STEMPEL
100
AcDbCircle
 10
208.2359717769129
 20
455.7921724045142
 30
0.0
 40
1.5
100
AcDbArc
 50
30.00000000000351
 51
89.99999999999975
  0
ARC
  5
303B
102
{ACAD_REACTORS
330
3274
102
}
330
106E
100
AcDbEntity
  8
STEMPEL
100
AcDbCircle
 10
210.8340479882656
 20
457.2921724045141
 30
0.0
 40
2.5
100
AcDbArc
 50
210.0000000000036
 51
269.9999999999998
  0
ARC
  5
303C
102
{ACAD_REACTORS
330
3274
102
}
330
106E
100
AcDbEntity
  8
STEMPEL
100
AcDbCircle
 10
217.2878955655598
 20
457.2921724045141
 30
0.0
 40
1.5
100
AcDbArc
 50
269.9999999999998
 51
329.9999999999996
  0
ARC
  5
303D
102
{ACAD_REACTORS
330
3274
102
}
330
106E
100
AcDbEntity
  8
STEMPEL
100
AcDbCircle
 10
220.0859717769128
 20
455.7921724045141
 30
0.0
 40
0.5
100
AcDbArc
 50
29.99999999999585
 51
89.99999999999975
  0
LINE
  5
303E
102
{ACAD_REACTORS
330
3274
102
}
330
106E
100
AcDbEntity
  8
STEMPEL
100
AcDbLine
 10
220.0859717769128
 20
456.2921724045142
 30
0.0
 11
219.8859717769128
 21
456.2921724045142
 31
0.0
  0
ARC
  5
303F
102
{ACAD_REACTORS
330
3274
102
}
330
106E
100
AcDbEntity
  8
STEMPEL
100
AcDbCircle
 10
219.8859717769128
 20
455.7921724045141
 30
0.0
 40
0.5
100
AcDbArc
 50
89.99999999999975
 51
149.9999999999959
  0
ARC
  5
3040
102
{ACAD_REACTORS
330
3274
102
}
330
106E
100
AcDbEntity
  8
STEMPEL
100
AcDbCircle
 10
219.8859717769128
 20
455.7921724045141
 30
0.0
 40
1.5
100
AcDbArc
 50
89.99999999999975
 51
149.9999999999959
  0
ARC
  5
3041
102
{ACAD_REACTORS
330
3274
102
}
330
106E
100
AcDbEntity
  8
STEMPEL
100
AcDbCircle
 10
222.6840479882665
 20
457.2921724045141
 30
0.0
 40
1.5
100
AcDbArc
 50
209.9999999999958
 51
269.9999999999998
  0
LINE
  5
3042
330
106E
100
AcDbEntity
  8
STEMPEL
100
AcDbLine
 10
224.7428955655589
 20
455.7921724045141
 30
0.0
 11
222.6840479882665
 21
455.7921724045141
 31
0.0
  0
LINE
  5
3043
102
{ACAD_REACTORS
330
3274
102
}
330
106E
100
AcDbEntity
  8
STEMPEL
100
AcDbLine
 10
224.7428955655589
 20
455.7921724045141
 30
0.0
 11
222.6840479882665
 21
455.7921724045141
 31
0.0
  0
ARC
  5
3044
102
{ACAD_REACTORS
330
3274
102
}
330
106E
100
AcDbEntity
  8
STEMPEL
100
AcDbCircle
 10
220.0859717769128
 20
455.7921724045141
 30
0.0
 40
1.5
100
AcDbArc
 50
29.99999999999585
 51
89.99999999999975
  0
ARC
  5
3045
102
{ACAD_REACTORS
330
3274
102
}
330
106E
100
AcDbEntity
  8
STEMPEL
100
AcDbCircle
 10
227.5409717769127
 20
455.7921724045141
 30
0.0
 40
0.5
100
AcDbArc
 50
29.99999999999989
 51
89.99999999999975
  0
LINE
  5
3046
102
{ACAD_REACTORS
330
3274
102
}
330
106E
100
AcDbEntity
  8
STEMPEL
100
AcDbLine
 10
227.5409717769127
 20
456.2921724045141
 30
0.0
 11
227.3409717769127
 21
456.2921724045141
 31
0.0
  0
ARC
  5
3047
102
{ACAD_REACTORS
330
3274
102
}
330
106E
100
AcDbEntity
  8
STEMPEL
100
AcDbCircle
 10
227.3409717769127
 20
455.7921724045141
 30
0.0
 40
0.5
100
AcDbArc
 50
89.99999999999975
 51
150.0
  0
ARC
  5
3048
102
{ACAD_REACTORS
330
3274
102
}
330
106E
100
AcDbEntity
  8
STEMPEL
100
AcDbCircle
 10
227.3409717769127
 20
455.7921724045141
 30
0.0
 40
1.5
100
AcDbArc
 50
89.99999999999975
 51
150.0000000000073
  0
ARC
  5
3049
102
{ACAD_REACTORS
330
3274
102
}
330
106E
100
AcDbEntity
  8
STEMPEL
100
AcDbCircle
 10
227.5409717769127
 20
455.7921724045141
 30
0.0
 40
1.5
100
AcDbArc
 50
29.99999999999626
 51
89.99999999999975
  0
ARC
  5
304A
102
{ACAD_REACTORS
330
3274
102
}
330
106E
100
AcDbEntity
  8
STEMPEL
100
AcDbCircle
 10
230.1390479882662
 20
457.2921724045141
 30
0.0
 40
1.5
100
AcDbArc
 50
209.9999999999963
 51
269.9999999999998
  0
ARC
  5
304B
102
{ACAD_REACTORS
330
3274
102
}
330
106E
100
AcDbEntity
  8
STEMPEL
100
AcDbCircle
 10
224.7428955655589
 20
457.2921724045141
 30
0.0
 40
1.5
100
AcDbArc
 50
269.9999999999998
 51
330.0000000000036
  0
ARC
  5
304C
102
{ACAD_REACTORS
330
3274
102
}
330
106E
100
AcDbEntity
  8
STEMPEL
100
AcDbCircle
 10
230.1390479882662
 20
457.2921724045141
 30
0.0
 40
2.5
100
AcDbArc
 50
209.9999999999995
 51
269.9999999999998
  0
ARC
  5
304D
102
{ACAD_REACTORS
330
3274
102
}
330
106E
100
AcDbEntity
  8
STEMPEL
100
AcDbCircle
 10
224.7428955655589
 20
457.2921724045141
 30
0.0
 40
2.5
100
AcDbArc
 50
269.9999999999998
 51
330.0000000000073
  0
ARC
  5
304E
102
{ACAD_REACTORS
330
3274
102
}
330
106E
100
AcDbEntity
  8
STEMPEL
100
AcDbCircle
 10
222.6840479882665
 20
457.2921724045141
 30
0.0
 40
2.5
100
AcDbArc
 50
209.9999999999958
 51
269.9999999999998
  0
ARC
  5
304F
102
{ACAD_REACTORS
330
3274
102
}
330
106E
100
AcDbEntity
  8
STEMPEL
100
AcDbCircle
 10
217.2878955655598
 20
457.2921724045141
 30
0.0
 40
2.5
100
AcDbArc
 50
269.9999999999998
 51
329.9999999999996
  0
LINE
  5
3050
330
106E
100
AcDbEntity
  8
STEMPEL
100
AcDbLine
 10
217.2878955655598
 20
455.7921724045141
 30
0.0
 11
210.8340479882656
 21
455.7921724045141
 31
0.0
  0
LINE
  5
3051
102
{ACAD_REACTORS
330
3274
102
}
330
106E
100
AcDbEntity
  8
STEMPEL
100
AcDbLine
 10
217.2878955655598
 20
455.7921724045141
 30
0.0
 11
210.8340479882656
 21
455.7921724045141
 31
0.0
  0
LINE
  5
3052
102
{ACAD_REACTORS
330
3274
102
}
330
106E
100
AcDbEntity
  8
STEMPEL
100
AcDbLine
 10
208.2359717769129
 20
456.2921724045144
 30
0.0
 11
198.1477043157193
 21
456.2921724045144
 31
0.0
  0
LINE
  5
3053
102
{ACAD_REACTORS
330
3274
102
}
330
106E
100
AcDbEntity
  8
STEMPEL
100
AcDbLine
 10
227.5409717769127
 20
457.2921724045141
 30
0.0
 11
182.0359717769129
 21
457.2921724045143
 31
0.0
  0
LINE
  5
3054
102
{ACAD_REACTORS
330
3274
102
}
330
106E
100
AcDbEntity
  8
STEMPEL
100
AcDbLine
 10
179.4378955655588
 20
455.7921724045145
 30
0.0
 11
124.8774101606154
 21
455.7921724045149
 31
0.0
  0
LWPOLYLINE
  5
305C
330
106E
100
AcDbEntity
  8
STEMPEL
100
AcDbPolyline
 90
        7
 70
   128
 43
0.0
 10
-104.203710064686
 20
366.7921724045151
 10
-104.8238005877503
 20
367.4015103063559
 10
-105.3556207345338
 20
368.1289405796452
 10
-105.784866534265
 20
368.9548980735888
 10
-106.0999928820624
 20
369.8571676240511
 10
-106.2925240590282
 20
370.8114815582943
 10
-106.3572816973546
 20
371.7921724045155
210
0.0
220
0.0
230
-1.0
  0
LWPOLYLINE
  5
305D
330
106E
100
AcDbEntity
  8
STEMPEL
100
AcDbPolyline
 90
       10
 70
   128
 43
0.0
 10
-102.467971507288
 20
365.792172404515
 10
-103.3041507821296
 20
365.8833258864418
 10
-104.1149231728322
 20
366.1540166797996
 10
-104.875653770575
 20
366.5960199818085
 10
-105.5632281610938
 20
367.1959057458013
 10
-106.1567547444622
 20
367.935446746396
 10
-106.6381995157834
 20
368.7921724045153
 10
-106.9929340193038
 20
369.7400515445613
 10
-107.210179826638
 20
370.7502833385138
 10
-107.283336033862
 20
371.7921724045155
210
0.0
220
0.0
230
-1.0
  0
LINE
  5
305E
330
106E
100
AcDbEntity
  8
STEMPEL
100
AcDbLine
 10
106.3572816973548
 20
378.2921724045132
 30
0.0
 11
106.3572816973547
 21
371.7921724045166
 31
0.0
  0
LINE
  5
305F
330
106E
100
AcDbEntity
  8
STEMPEL
100
AcDbLine
 10
107.283336033862
 20
378.2921724045132
 30
0.0
 11
107.283336033862
 21
371.7921724045166
 31
0.0
  0
LINE
  5
3060
330
106E
100
AcDbEntity
  8
STEMPEL
100
AcDbLine
 10
114.0411352175438
 20
378.2921724045132
 30
0.0
 11
114.0411352175437
 21
371.7921724045166
 31
0.0
  0
LWPOLYLINE
  5
3061
330
106E
100
AcDbEntity
  8
STEMPEL
100
AcDbPolyline
 90
       10
 70
   128
 43
0.0
 10
-109.6774290429378
 20
365.792172404515
 10
-110.435178668032
 20
365.8833258864418
 10
-111.1699044542076
 20
366.1540166797996
 10
-111.8592821302407
 20
366.5960199818085
 10
-112.4823653042871
 20
367.1959057458013
 10
-113.0202219093985
 20
367.9354467463959
 10
-113.4565094447975
 20
368.7921724045152
 10
-113.7779715344928
 20
369.7400515445612
 10
-113.9748407155568
 20
370.7502833385138
 10
-114.0411352175436
 20
371.7921724045154
210
0.0
220
0.0
230
-1.0
  0
LWPOLYLINE
  5
3062
330
106E
100
AcDbEntity
  8
STEMPEL
100
AcDbPolyline
 90
        7
 70
   128
 43
0.0
 10
-120.4257589373365
 20
366.792172404515
 10
-120.9876879106006
 20
367.4015103063558
 10
-121.4696258501878
 20
368.1289405796452
 10
-121.8586104299376
 20
368.9548980735888
 10
-122.144179421044
 20
369.857167624051
 10
-122.31865208684
 20
370.8114815582943
 10
-122.377335765855
 20
371.7921724045154
210
0.0
220
0.0
230
-1.0
  0
LWPOLYLINE
  5
3063
330
106E
100
AcDbEntity
  8
STEMPEL
100
AcDbPolyline
 90
       10
 70
   128
 43
0.0
 10
-118.8088504780697
 20
365.792172404515
 10
-119.5666001031639
 20
365.8833258864417
 10
-120.3013258893394
 20
366.1540166797995
 10
-120.9907035653726
 20
366.5960199818084
 10
-121.613786739419
 20
367.1959057458012
 10
-122.1516433445304
 20
367.9354467463959
 10
-122.5879308799294
 20
368.7921724045152
 10
-122.9093929696246
 20
369.7400515445612
 10
-123.1062621506886
 20
370.7502833385138
 10
-123.1725566526755
 20
371.7921724045154
210
0.0
220
0.0
230
-1.0
  0
LINE
  5
3064
330
106E
100
AcDbEntity
  8
STEMPEL
100
AcDbLine
 10
122.3773357658549
 20
378.2921724045132
 30
0.0
 11
122.3773357658548
 21
371.7921724045166
 31
0.0
  0
LINE
  5
3065
330
106E
100
AcDbEntity
  8
STEMPEL
100
AcDbLine
 10
123.1725566526757
 20
378.2921724045132
 30
0.0
 11
123.1725566526756
 21
371.7921724045166
 31
0.0
  0
LWPOLYLINE
  5
3066
330
106E
100
AcDbEntity
  8
STEMPEL
100
AcDbPolyline
 90
       10
 70
   128
 43
0.0
 10
-129.0669247745032
 20
365.7921724045149
 10
-129.7029291345041
 20
365.8833258864417
 10
-130.3196088238603
 20
366.1540166797995
 10
-130.8982263422653
 20
366.5960199818083
 10
-131.4212006892172
 20
367.1959057458011
 10
-131.8726415538217
 20
367.9354467463959
 10
-132.2388321338476
 20
368.7921724045152
 10
-132.5086459138226
 20
369.7400515445612
 10
-132.6738847385742
 20
370.7502833385137
 10
-132.7295279100273
 20
371.7921724045154
210
0.0
220
0.0
230
-1.0
  0
LINE
  5
3067
330
106E
100
AcDbEntity
  8
STEMPEL
100
AcDbLine
 10
132.7295279100274
 20
378.2921724045131
 30
0.0
 11
132.7295279100273
 21
371.7921724045165
 31
0.0
  0
LINE
  5
3068
330
106E
100
AcDbEntity
  8
STEMPEL
100
AcDbLine
 10
112.0895583890253
 20
366.7921724045151
 30
0.0
 11
120.4257589373372
 21
366.792172404515
 31
0.0
  0
LWPOLYLINE
  5
3069
330
106E
100
AcDbEntity
  8
STEMPEL
100
AcDbPolyline
 90
        9
 70
   128
 43
0.0
 10
103.950183122871
 20
385.6939306491783
 10
104.4392436661399
 20
385.3674977514209
 10
104.8988566340408
 20
384.8222287381637
 10
105.3148064376651
 20
384.0749884950357
 10
105.6742279669566
 20
383.1488887722581
 10
105.9660045018441
 20
382.0725733502879
 10
106.1811115465823
 20
380.879332102657
 10
106.3128959526898
 20
379.6060713575812
 10
106.3572816973546
 20
378.2921724045148
  0
LWPOLYLINE
  5
306A
330
106E
100
AcDbEntity
  8
STEMPEL
100
AcDbPolyline
 90
       18
 70
   128
 43
0.0
 10
114.0411352175439
 20
378.2921724045132
 10
114.118875118804
 20
379.6702937881377
 10
114.3494474834858
 20
381.0014849009174
 10
114.725000446251
 20
382.2404136260942
 10
115.2327450013787
 20
383.3448897318634
 10
115.8553905170166
 20
384.2773016091162
 10
116.5717335469107
 20
385.0058970896776
 10
117.3573798883366
 20
385.5058647283108
 10
118.185575297416
 20
385.7601787267275
 10
119.0281165728037
 20
385.7601787267275
 10
119.8563119818831
 20
385.5058647283108
 10
120.6419583233089
 20
385.0058970896776
 10
121.358301353203
 20
384.2773016091162
 10
121.980946868841
 20
383.3448897318634
 10
122.4886914239687
 20
382.2404136260942
 10
122.8642443867338
 20
381.0014849009174
 10
123.0948167514157
 20
379.6702937881377
 10
123.1725566526758
 20
378.2921724045132
  0
LWPOLYLINE
  5
306B
330
106E
100
AcDbEntity
  8
STEMPEL
100
AcDbPolyline
 90
       10
 70
   128
 43
0.0
 10
117.8116250482889
 20
385.7921724045164
 10
118.6044523941485
 20
385.6782305521079
 10
119.3731900822943
 20
385.3398670604105
 10
120.0944804070718
 20
384.7873629328995
 10
120.7464073269533
 20
384.0375057279083
 10
121.3091623723689
 20
383.1130794771648
 10
121.7656465160319
 20
382.0421724045155
 10
122.1019897182286
 20
380.8573234794578
 10
122.3079723609587
 20
379.594533737017
 10
122.3773357658548
 20
378.2921724045148
  0
LINE
  5
3073
330
106E
100
AcDbEntity
  8
STEMPEL
100
AcDbLine
 10
144.0196335665339
 20
378.292172404513
 30
0.0
 11
144.0196335665338
 21
371.7921724045165
 31
0.0
  0
LINE
  5
3074
330
106E
100
AcDbEntity
  8
STEMPEL
100
AcDbLine
 10
144.6298280143962
 20
378.292172404513
 30
0.0
 11
144.6298280143962
 21
371.7921724045165
 31
0.0
  0
LWPOLYLINE
  5
3075
330
106E
100
AcDbEntity
  8
STEMPEL
100
AcDbPolyline
 90
        7
 70
   128
 43
0.0
 10
-142.3816104904285
 20
366.7921724045149
 10
-142.8532560909953
 20
367.4015103063557
 10
-143.2577625673781
 20
368.128940579645
 10
-143.5842502098672
 20
368.9548980735886
 10
-143.8239377232755
 20
369.8571676240509
 10
-143.9703784109014
 20
370.8114815582942
 10
-144.0196335665338
 20
371.7921724045153
210
0.0
220
0.0
230
-1.0
  0
LWPOLYLINE
  5
3076
330
106E
100
AcDbEntity
  8
STEMPEL
100
AcDbPolyline
 90
       10
 70
   128
 43
0.0
 10
-140.967224878872
 20
365.7921724045149
 10
-141.603229238873
 20
365.8833258864417
 10
-142.2199089282291
 20
366.1540166797994
 10
-142.7985264466341
 20
366.5960199818083
 10
-143.321500793586
 20
367.1959057458011
 10
-143.7729416581905
 20
367.9354467463958
 10
-144.1391322382165
 20
368.7921724045151
 10
-144.4089460181914
 20
369.7400515445611
 10
-144.5741848429431
 20
370.7502833385137
 10
-144.6298280143962
 20
371.7921724045153
210
0.0
220
0.0
230
-1.0
  0
LWPOLYLINE
  5
3077
330
106E
100
AcDbEntity
  8
STEMPEL
100
AcDbPolyline
 90
       10
 70
   128
 43
0.0
 10
-153.6123362206684
 20
365.7921724045148
 10
-154.085066178422
 20
365.8833258864416
 10
-154.5434324756222
 20
366.1540166797994
 10
-154.9735078842729
 20
366.5960199818083
 10
-155.3622247807112
 20
367.195905745801
 10
-155.6977721987388
 20
367.9354467463958
 10
-155.9699546998544
 20
368.792172404515
 10
-156.1705021564925
 20
369.7400515445611
 10
-156.293321035665
 20
370.7502833385136
 10
-156.3346795478774
 20
371.7921724045153
210
0.0
220
0.0
230
-1.0
  0
LINE
  5
3078
330
106E
100
AcDbEntity
  8
STEMPEL
100
AcDbLine
 10
156.3346795478775
 20
378.292172404513
 30
0.0
 11
156.3346795478774
 21
371.7921724045164
 31
0.0
  0
LWPOLYLINE
  5
3079
330
106E
100
AcDbEntity
  8
STEMPEL
100
AcDbPolyline
 90
        9
 70
   128
 43
0.0
 10
138.3745807382922
 20
385.7823064823368
 10
139.4909884596634
 20
385.5749993459296
 10
140.5562677114057
 20
385.1057446184758
 10
141.532102694444
 20
384.3914203813073
 10
142.3833947273019
 20
383.4577193379109
 10
143.0795246700384
 20
382.3382247027505
 10
143.5954542287297
 20
381.0732022854118
 10
143.9126265289455
 20
379.7081522162025
 10
144.0196335665338
 20
378.2921724045146
  0
LINE
  5
307A
330
106E
100
AcDbEntity
  8
STEMPEL
100
AcDbLine
 10
131.091504833922
 20
366.7921724045149
 30
0.0
 11
142.3816104904291
 21
366.7921724045149
 31
0.0
  0
LWPOLYLINE
  5
307B
330
106E
100
AcDbEntity
  8
STEMPEL
100
AcDbPolyline
 90
       18
 70
   128
 43
0.0
 10
132.7295279100273
 20
378.2921724045131
 10
132.8308405218316
 20
379.6702937881377
 10
133.1313282777609
 20
381.0014849009173
 10
133.620758427682
 20
382.2404136260941
 10
134.2824640148465
 20
383.3448897318634
 10
135.0939114491116
 20
384.2773016091162
 10
136.0274678613273
 20
385.0058970896775
 10
137.0513421075534
 20
385.5058647283108
 10
138.1306673783361
 20
385.7601787267275
 10
139.2286885460872
 20
385.7601787267274
 10
140.30801381687
 20
385.5058647283107
 10
141.3318880630961
 20
385.0058970896774
 10
142.2654444753118
 20
384.2773016091161
 10
143.0768919095769
 20
383.3448897318633
 10
143.7385974967413
 20
382.240413626094
 10
144.2280276466625
 20
381.0014849009172
 10
144.5285154025917
 20
379.6702937881376
 10
144.6298280143961
 20
378.292172404513
  0
LWPOLYLINE
  5
307D
330
106E
100
AcDbEntity
  8
STEMPEL
100
AcDbPolyline
 90
        7
 70
   128
 43
0.0
 10
-168.5917768371423
 20
366.7921724045148
 10
-168.9423420515542
 20
367.4015103063556
 10
-169.2430040304929
 20
368.1289405796448
 10
-169.4856760924276
 20
368.9548980735886
 10
-169.663831267476
 20
369.8571676240508
 10
-169.7726778484565
 20
370.811481558294
 10
-169.8092882698714
 20
371.7921724045152
210
0.0
220
0.0
230
-1.0
  0
LINE
  5
307E
330
106E
100
AcDbEntity
  8
STEMPEL
100
AcDbLine
 10
169.8092882698714
 20
378.292172404513
 30
0.0
 11
169.8092882698714
 21
371.7921724045163
 31
0.0
  0
LINE
  5
307F
330
106E
100
AcDbEntity
  8
STEMPEL
100
AcDbLine
 10
170.1928725355484
 20
378.2921724045114
 30
0.0
 11
170.1928725355483
 21
371.7921724045163
 31
0.0
  0
LWPOLYLINE
  5
3080
330
106E
100
AcDbEntity
  8
STEMPEL
100
AcDbPolyline
 90
       10
 70
   128
 43
0.0
 10
-181.9363633198202
 20
365.7921724045147
 10
-182.1641158826887
 20
365.8833258864415
 10
-182.384948299183
 20
366.1540166797993
 10
-182.5921506880742
 20
366.5960199818081
 10
-182.7794273096254
 20
367.1959057458009
 10
-182.9410878584573
 20
367.9354467463956
 10
-183.072220360598
 20
368.7921724045149
 10
-183.1688404213259
 20
369.740051544561
 10
-183.228012288988
 20
370.7502833385135
 10
-183.2479380563281
 20
371.7921724045151
210
0.0
220
0.0
230
-1.0
  0
LINE
  5
3081
330
106E
100
AcDbEntity
  8
STEMPEL
100
AcDbLine
 10
183.247938056328
 20
378.2921724045145
 30
0.0
 11
183.247938056328
 21
371.7921724045163
 31
0.0
  0
LWPOLYLINE
  5
3082
330
106E
100
AcDbEntity
  8
STEMPEL
100
AcDbPolyline
 90
       10
 70
   128
 43
0.0
 10
-196.8080362404278
 20
365.7921724045146
 10
-197.0357888032963
 20
365.8833258864414
 10
-197.2566212197905
 20
366.1540166797992
 10
-197.4638236086818
 20
366.5960199818081
 10
-197.651100230233
 20
367.1959057458009
 10
-197.8127607790649
 20
367.9354467463956
 10
-197.9438932812056
 20
368.7921724045149
 10
-198.0405133419335
 20
369.7400515445609
 10
-198.0996852095957
 20
370.7502833385134
 10
-198.1196109769357
 20
371.7921724045151
210
0.0
220
0.0
230
-1.0
  0
LWPOLYLINE
  5
3083
330
106E
100
AcDbEntity
  8
STEMPEL
100
AcDbPolyline
 90
        7
 70
   128
 43
0.0
 10
-197.4022030049921
 20
366.7921724045147
 10
-197.5710988507606
 20
367.4015103063555
 10
-197.7159522393332
 20
368.1289405796448
 10
-197.8328671569003
 20
368.9548980735884
 10
-197.918699029918
 20
369.8571676240507
 10
-197.9711393023637
 20
370.8114815582939
 10
-197.988777527249
 20
371.7921724045151
210
0.0
220
0.0
230
-1.0
  0
LINE
  5
3084
330
106E
100
AcDbEntity
  8
STEMPEL
100
AcDbLine
 10
197.9887775272492
 20
378.2921724045128
 30
0.0
 11
197.9887775272491
 21
371.7921724045162
 31
0.0
  0
LINE
  5
3085
330
106E
100
AcDbEntity
  8
STEMPEL
100
AcDbLine
 10
198.1196109769357
 20
378.2921724045112
 30
0.0
 11
198.1196109769357
 21
371.7921724045162
 31
0.0
  0
LINE
  5
3086
330
106E
100
AcDbEntity
  8
STEMPEL
100
AcDbLine
 10
182.661363534071
 20
366.7921724045147
 30
0.0
 11
197.4022030049924
 21
366.7921724045147
 31
0.0
  0
LWPOLYLINE
  5
3087
330
106E
100
AcDbEntity
  8
STEMPEL
100
AcDbPolyline
 90
       18
 70
   128
 43
0.0
 10
183.2479380563282
 20
378.2921724045129
 10
183.3745473025046
 20
379.6702937881374
 10
183.7500635150063
 20
381.0014849009171
 10
184.3616989395987
 20
382.2404136260939
 10
185.188625065473
 20
383.3448897318632
 10
186.2026819152013
 20
384.277301609116
 10
187.369336998993
 20
385.0058970896773
 10
188.6488612772183
 20
385.5058647283105
 10
189.9976820852024
 20
385.7601787267272
 10
191.3698669480617
 20
385.7601787267272
 10
192.7186877560458
 20
385.5058647283105
 10
193.9982120342711
 20
385.0058970896772
 10
195.1648671180628
 20
384.2773016091159
 10
196.1789239677911
 20
383.3448897318631
 10
197.0058500936654
 20
382.2404136260938
 10
197.6174855182578
 20
381.001484900917
 10
197.9930017307594
 20
379.6702937881374
 10
198.1196109769358
 20
378.2921724045128
  0
LWPOLYLINE
  5
3088
330
106E
100
AcDbEntity
  8
STEMPEL
100
AcDbPolyline
 90
        9
 70
   128
 43
0.0
 10
190.6183577918886
 20
385.7918821642876
 10
192.0596977757664
 20
385.6365807703639
 10
193.4437786792159
 20
385.2021805233496
 10
194.7180032917479
 20
384.5051893030744
 10
195.8339491114777
 20
383.5720938516287
 10
196.7492084749308
 20
382.4383532362852
 10
197.4290001137059
 20
381.1470513502158
 10
197.8474908963553
 20
379.7472596580562
 10
197.9887775272492
 20
378.2921724045144
  0
LWPOLYLINE
  5
308A
330
106E
100
AcDbEntity
  8
STEMPEL
100
AcDbPolyline
 90
        7
 70
   128
 43
0.0
 10
212.3526173162382
 20
366.7921724045146
 10
212.1837214704697
 20
367.4015103063554
 10
212.0388680818971
 20
368.1289405796448
 10
211.92195316433
 20
368.9548980735884
 10
211.8361212913123
 20
369.8571676240506
 10
211.7836810188666
 20
370.8114815582939
 10
211.7660427939813
 20
371.792172404515
  0
LWPOLYLINE
  5
308B
330
106E
100
AcDbEntity
  8
STEMPEL
100
AcDbPolyline
 90
       10
 70
   128
 43
0.0
 10
212.9467840808025
 20
365.7921724045146
 10
212.7190315179339
 20
365.8833258864413
 10
212.4981991014397
 20
366.1540166797991
 10
212.2909967125485
 20
366.596019981808
 10
212.1037200909973
 20
367.1959057458008
 10
211.9420595421654
 20
367.9354467463956
 10
211.8109270400247
 20
368.7921724045148
 10
211.7143069792969
 20
369.7400515445608
 10
211.6551351116346
 20
370.7502833385134
 10
211.6352093442947
 20
371.792172404515
  0
LINE
  5
308C
330
106E
100
AcDbEntity
  8
STEMPEL
100
AcDbLine
 10
211.6352093442947
 20
378.2921724045112
 30
0.0
 11
211.6352093442947
 21
371.7921724045162
 31
0.0
  0
LINE
  5
308D
330
106E
100
AcDbEntity
  8
STEMPEL
100
AcDbLine
 10
211.7660427939812
 20
378.2921724045128
 30
0.0
 11
211.7660427939812
 21
371.7921724045162
 31
0.0
  0
LWPOLYLINE
  5
308E
330
106E
100
AcDbEntity
  8
STEMPEL
100
AcDbPolyline
 90
       10
 70
   128
 43
0.0
 10
227.8184570014101
 20
365.7921724045145
 10
227.5907044385415
 20
365.8833258864413
 10
227.3698720220473
 20
366.1540166797991
 10
227.1626696331561
 20
366.5960199818079
 10
226.9753930116049
 20
367.1959057458007
 10
226.8137324627729
 20
367.9354467463955
 10
226.6825999606323
 20
368.7921724045148
 10
226.5859798999044
 20
369.7400515445608
 10
226.5268080322422
 20
370.7502833385133
 10
226.5068822649022
 20
371.792172404515
  0
LINE
  5
308F
330
106E
100
AcDbEntity
  8
STEMPEL
100
AcDbLine
 10
226.5068822649024
 20
378.2921724045143
 30
0.0
 11
226.5068822649023
 21
371.7921724045161
 31
0.0
  0
LINE
  5
3090
330
106E
100
AcDbEntity
  8
STEMPEL
100
AcDbLine
 10
227.0934567871592
 20
366.7921724045145
 30
0.0
 11
212.3526173162378
 21
366.7921724045146
 31
0.0
  0
LWPOLYLINE
  5
3091
330
106E
100
AcDbEntity
  8
STEMPEL
100
AcDbPolyline
 90
        9
 70
   128
 43
0.0
 10
-219.1364625293419
 20
385.7918821642875
 10
-217.6951225454641
 20
385.6365807703637
 10
-216.3110416420145
 20
385.2021805233495
 10
-215.0368170294826
 20
384.5051893030742
 10
-213.9208712097527
 20
383.5720938516286
 10
-213.0056118462996
 20
382.4383532362852
 10
-212.3258202075245
 20
381.1470513502158
 10
-211.9073294248751
 20
379.7472596580562
 10
-211.7660427939812
 20
378.2921724045144
210
0.0
220
0.0
230
-1.0
  0
LWPOLYLINE
  5
3092
330
106E
100
AcDbEntity
  8
STEMPEL
100
AcDbPolyline
 90
       18
 70
   128
 43
0.0
 10
-226.5068822649022
 20
378.2921724045127
 10
-226.3802730187258
 20
379.6702937881373
 10
-226.0047568062241
 20
381.0014849009169
 10
-225.3931213816318
 20
382.2404136260937
 10
-224.5661952557574
 20
383.344889731863
 10
-223.5521384060291
 20
384.2773016091158
 10
-222.3854833222374
 20
385.0058970896771
 10
-221.1059590440121
 20
385.5058647283104
 10
-219.757138236028
 20
385.7601787267271
 10
-218.3849533731688
 20
385.7601787267271
 10
-217.0361325651846
 20
385.5058647283104
 10
-215.7566082869593
 20
385.0058970896771
 10
-214.5899532031676
 20
384.2773016091158
 10
-213.5758963534394
 20
383.344889731863
 10
-212.748970227565
 20
382.2404136260938
 10
-212.1373348029726
 20
381.001484900917
 10
-211.761818590471
 20
379.6702937881373
 10
-211.6352093442946
 20
378.2921724045128
210
0.0
220
0.0
230
-1.0
  0
LWPOLYLINE
  5
3095
330
106E
100
AcDbEntity
  8
STEMPEL
100
AcDbPolyline
 90
       10
 70
   128
 43
0.0
 10
-167.4705292083393
 20
365.7921724045148
 10
-167.9432591660929
 20
365.8833258864415
 10
-168.4016254632931
 20
366.1540166797993
 10
-168.8317008719438
 20
366.5960199818082
 10
-169.220417768382
 20
367.195905745801
 10
-169.5559651864097
 20
367.9354467463957
 10
-169.8281476875253
 20
368.792172404515
 10
-170.0286951441634
 20
369.740051544561
 10
-170.1515140233359
 20
370.7502833385135
 10
-170.1928725355483
 20
371.7921724045152
210
0.0
220
0.0
230
-1.0
  0
LINE
  5
3096
330
106E
100
AcDbEntity
  8
STEMPEL
100
AcDbLine
 10
155.1171681151483
 20
366.7921724045148
 30
0.0
 11
168.5917768371427
 21
366.7921724045148
 31
0.0
  0
LWPOLYLINE
  5
3097
330
106E
100
AcDbEntity
  8
STEMPEL
100
AcDbPolyline
 90
        9
 70
   128
 43
0.0
 10
163.071983908901
 20
385.7892988275532
 10
164.3961933592309
 20
385.6104659205053
 10
165.664172756417
 20
385.1601900031811
 10
166.8288914445025
 20
384.455172271042
 10
167.8471488131092
 20
383.5215625546585
 10
168.6811766523715
 20
382.3939893956823
 10
169.3000400145654
 20
381.1142756387305
 10
169.6807846230395
 20
379.7298871791951
 10
169.8092882698714
 20
378.2921724045146
  0
LWPOLYLINE
  5
3098
330
106E
100
AcDbEntity
  8
STEMPEL
100
AcDbPolyline
 90
       18
 70
   128
 43
0.0
 10
156.3346795478775
 20
378.292172404513
 10
156.4526605831586
 20
379.6702937881375
 10
156.8025859863483
 20
381.0014849009172
 10
157.37253946753
 20
382.240413626094
 10
158.1431119444861
 20
383.3448897318632
 10
159.0880624957136
 20
384.2773016091161
 10
160.1752119635337
 20
385.0058970896774
 10
161.3675387767119
 20
385.5058647283107
 10
162.6244396756638
 20
385.7601787267274
 10
163.9031124077621
 20
385.7601787267273
 10
165.1600133067139
 20
385.5058647283106
 10
166.3523401198922
 20
385.0058970896773
 10
167.4394895877123
 20
384.277301609116
 10
168.3844401389398
 20
383.3448897318632
 10
169.1550126158959
 20
382.2404136260939
 10
169.7249660970776
 20
381.0014849009172
 10
170.0748915002673
 20
379.6702937881375
 10
170.1928725355484
 20
378.292172404513
  0
LINE
  5
309A
102
{ACAD_REACTORS
330
3274
102
}
330
106E
100
AcDbEntity
  8
STEMPEL
100
AcDbLine
 10
98.35805659248832
 20
440.1110098513958
 30
0.0
 11
122.3369104854395
 21
454.0986630175811
 31
0.0
  0
LINE
  5
309B
102
{ACAD_REACTORS
330
3274
102
}
330
106E
100
AcDbEntity
  8
STEMPEL
100
AcDbLine
 10
97.84471553890751
 20
440.9692529645584
 30
0.0
 11
121.8310184143745
 21
454.9612629752468
 31
0.0
  0
LINE
  5
309C
330
106E
100
AcDbEntity
  8
STEMPEL
100
AcDbLine
 10
99.38951291571568
 20
366.7921724045151
 30
0.0
 11
104.203710064687
 21
366.7921724045151
 31
0.0
  0
LWPOLYLINE
  5
309D
330
106E
100
AcDbEntity
  8
STEMPEL
100
AcDbPolyline
 90
       18
 70
   128
 43
0.0
 10
101.5430845483842
 20
378.2921724045132
 10
101.5919538933006
 20
379.6702937881378
 10
101.7368977411206
 20
381.0014849009174
 10
101.9729802029478
 20
382.2404136260942
 10
102.2921617736945
 20
383.3448897318635
 10
102.6835731077849
 20
384.2773016091163
 10
103.1338851616829
 20
385.0058970896776
 10
103.6277630984823
 20
385.5058647283109
 10
104.1483884973872
 20
385.7601787267276
 10
104.678032084859
 20
385.7601787267276
 10
105.198657483764
 20
385.5058647283109
 10
105.6925354205634
 20
385.0058970896776
 10
106.1428474744614
 20
384.2773016091163
 10
106.5342588085518
 20
383.3448897318635
 10
106.8534403792985
 20
382.2404136260942
 10
107.0895228411257
 20
381.0014849009174
 10
107.2344666889457
 20
379.6702937881378
 10
107.283336033862
 20
378.2921724045132
  0
ARC
  5
309E
330
106E
100
AcDbEntity
  8
STEMPEL
100
AcDbCircle
 10
284.8774101606156
 20
449.7921724045139
 30
0.0
 40
6.0
100
AcDbArc
 50
89.99999999999975
 51
89.99999999999975
  0
ARC
  5
309F
102
{ACAD_REACTORS
330
3274
102
}
330
106E
100
AcDbEntity
  8
STEMPEL
100
AcDbCircle
 10
284.8774101606156
 20
449.7921724045139
 30
0.0
 40
6.0
100
AcDbArc
 50
59.48712567238242
 51
89.99999999999975
  0
ARC
  5
30A0
102
{ACAD_REACTORS
330
3274
102
}
330
106E
100
AcDbEntity
  8
STEMPEL
100
AcDbCircle
 10
284.8774101606156
 20
449.7921724045139
 30
0.0
 40
5.0
100
AcDbArc
 50
59.46264995169856
 51
89.99999999999975
  0
ARC
  5
30A1
102
{ACAD_REACTORS
330
3274
102
}
330
106E
100
AcDbEntity
  8
STEMPEL
100
AcDbCircle
 10
308.8774101606154
 20
435.7921144371986
 30
0.0
 40
5.0
100
AcDbArc
 50
359.9999999999997
 51
59.74358352518464
  0
ARC
  5
30A2
330
106E
100
AcDbEntity
  8
STEMPEL
100
AcDbCircle
 10
314.3885537649272
 20
445.3120093869759
 30
0.0
 40
5.0
100
AcDbArc
 50
239.7435628364689
 51
239.9329541615133
  0
ARC
  5
30A3
102
{ACAD_REACTORS
330
3274
102
}
330
106E
100
AcDbEntity
  8
STEMPEL
100
AcDbCircle
 10
308.8774101606154
 20
435.7921144371986
 30
0.0
 40
6.0
100
AcDbArc
 50
359.9999999999997
 51
59.74358352518464
  0
LINE
  5
30A4
102
{ACAD_REACTORS
330
3274
102
}
330
106E
100
AcDbEntity
  8
STEMPEL
100
AcDbLine
 10
311.9101047823234
 20
440.9692529645575
 30
0.0
 11
287.9238019068566
 21
454.961262975246
 31
0.0
  0
LINE
  5
30A5
102
{ACAD_REACTORS
330
3274
102
}
330
106E
100
AcDbEntity
  8
STEMPEL
100
AcDbLine
 10
311.3967637287426
 20
440.1110098513948
 30
0.0
 11
287.4179098357915
 21
454.0986630175803
 31
0.0
  0
LWPOLYLINE
  5
30AD
330
106E
100
AcDbEntity
  8
STEMPEL
100
AcDbPolyline
 90
        7
 70
   128
 43
0.0
 10
241.163043484088
 20
366.7921724045144
 10
240.812478269676
 20
367.4015103063553
 10
240.5118162907374
 20
368.1289405796445
 10
240.2691442288027
 20
368.9548980735882
 10
240.0909890537543
 20
369.8571676240505
 10
239.9821424727738
 20
370.8114815582937
 10
239.945532051359
 20
371.7921724045149
  0
LINE
  5
30AE
330
106E
100
AcDbEntity
  8
STEMPEL
100
AcDbLine
 10
239.561947785682
 20
378.292172404511
 30
0.0
 11
239.561947785682
 21
371.7921724045161
 31
0.0
  0
LINE
  5
30AF
330
106E
100
AcDbEntity
  8
STEMPEL
100
AcDbLine
 10
239.945532051359
 20
378.2921724045126
 30
0.0
 11
239.945532051359
 21
371.7921724045161
 31
0.0
  0
LWPOLYLINE
  5
30B0
330
106E
100
AcDbEntity
  8
STEMPEL
100
AcDbPolyline
 90
       10
 70
   128
 43
0.0
 10
242.284291112891
 20
365.7921724045144
 10
241.8115611551374
 20
365.8833258864412
 10
241.3531948579372
 20
366.154016679799
 10
240.9231194492865
 20
366.5960199818079
 10
240.5344025528482
 20
367.1959057458006
 10
240.1988551348205
 20
367.9354467463954
 10
239.926672633705
 20
368.7921724045147
 10
239.7261251770669
 20
369.7400515445607
 10
239.6033062978944
 20
370.7502833385133
 10
239.561947785682
 20
371.7921724045149
  0
LWPOLYLINE
  5
30B1
330
106E
100
AcDbEntity
  8
STEMPEL
100
AcDbPolyline
 90
       10
 70
   128
 43
0.0
 10
256.1424841005619
 20
365.7921724045144
 10
255.6697541428083
 20
365.8833258864411
 10
255.2113878456081
 20
366.1540166797989
 10
254.7813124369574
 20
366.5960199818078
 10
254.3925955405191
 20
367.1959057458006
 10
254.0570481224914
 20
367.9354467463953
 10
253.7848656213759
 20
368.7921724045146
 10
253.5843181647378
 20
369.7400515445606
 10
253.4614992855654
 20
370.7502833385131
 10
253.4201407733529
 20
371.7921724045148
  0
LINE
  5
30B2
330
106E
100
AcDbEntity
  8
STEMPEL
100
AcDbLine
 10
253.4201407733529
 20
378.2921724045126
 30
0.0
 11
253.4201407733529
 21
371.7921724045159
 31
0.0
  0
LINE
  5
30B3
330
106E
100
AcDbEntity
  8
STEMPEL
100
AcDbLine
 10
265.1249923068342
 20
378.2921724045126
 30
0.0
 11
265.1249923068341
 21
371.7921724045159
 31
0.0
  0
LINE
  5
30B4
330
106E
100
AcDbEntity
  8
STEMPEL
100
AcDbLine
 10
265.7351867546966
 20
378.2921724045126
 30
0.0
 11
265.7351867546965
 21
371.7921724045159
 31
0.0
  0
LINE
  5
30B5
330
106E
100
AcDbEntity
  8
STEMPEL
100
AcDbLine
 10
254.6376522060819
 20
366.7921724045144
 30
0.0
 11
241.1630434840875
 21
366.7921724045144
 31
0.0
  0
LWPOLYLINE
  5
30B6
330
106E
100
AcDbEntity
  8
STEMPEL
100
AcDbPolyline
 90
        9
 70
   128
 43
0.0
 10
-246.6828364123294
 20
385.7892988275528
 10
-245.3586269619996
 20
385.6104659205049
 10
-244.0906475648135
 20
385.1601900031808
 10
-242.9259288767279
 20
384.4551722710416
 10
-241.9076715081212
 20
383.5215625546581
 10
-241.073643668859
 20
382.393989395682
 10
-240.454780306665
 20
381.1142756387302
 10
-240.0740356981908
 20
379.7298871791948
 10
-239.945532051359
 20
378.2921724045142
210
0.0
220
0.0
230
-1.0
  0
LWPOLYLINE
  5
30B7
330
106E
100
AcDbEntity
  8
STEMPEL
100
AcDbPolyline
 90
       18
 70
   128
 43
0.0
 10
-253.4201407733529
 20
378.2921724045126
 10
-253.3021597380718
 20
379.6702937881371
 10
-252.9522343348822
 20
381.0014849009168
 10
-252.3822808537004
 20
382.2404136260936
 10
-251.6117083767444
 20
383.3448897318628
 10
-250.6667578255168
 20
384.2773016091157
 10
-249.5796083576967
 20
385.005897089677
 10
-248.3872815445185
 20
385.5058647283103
 10
-247.1303806455667
 20
385.760178726727
 10
-245.8517079134683
 20
385.760178726727
 10
-244.5948070145165
 20
385.5058647283103
 10
-243.4024802013383
 20
385.005897089677
 10
-242.3153307335182
 20
384.2773016091157
 10
-241.3703801822907
 20
383.3448897318628
 10
-240.5998077053346
 20
382.2404136260936
 10
-240.0298542241528
 20
381.0014849009169
 10
-239.6799288209631
 20
379.6702937881372
 10
-239.561947785682
 20
378.2921724045126
210
0.0
220
0.0
230
-1.0
  0
LWPOLYLINE
  5
30BA
330
106E
100
AcDbEntity
  8
STEMPEL
100
AcDbPolyline
 90
       10
 70
   128
 43
0.0
 10
280.6878955467271
 20
365.7921724045142
 10
280.0518911867261
 20
365.883325886441
 10
279.43521149737
 20
366.1540166797988
 10
278.8565939789649
 20
366.5960199818077
 10
278.3336196320131
 20
367.1959057458005
 10
277.8821787674086
 20
367.9354467463952
 10
277.5159881873827
 20
368.7921724045145
 10
277.2461744074078
 20
369.7400515445606
 10
277.0809355826561
 20
370.7502833385131
 10
277.025292411203
 20
371.7921724045148
  0
LINE
  5
30BB
330
106E
100
AcDbEntity
  8
STEMPEL
100
AcDbLine
 10
277.0252924112031
 20
378.2921724045125
 30
0.0
 11
277.025292411203
 21
371.7921724045159
 31
0.0
  0
LINE
  5
30BC
330
106E
100
AcDbEntity
  8
STEMPEL
100
AcDbLine
 10
278.6633154873083
 20
366.7921724045143
 30
0.0
 11
267.3732098308012
 21
366.7921724045143
 31
0.0
  0
LWPOLYLINE
  5
30BD
330
106E
100
AcDbEntity
  8
STEMPEL
100
AcDbPolyline
 90
        7
 70
   128
 43
0.0
 10
289.3290613838938
 20
366.7921724045143
 10
288.7671324106296
 20
367.4015103063551
 10
288.2851944710425
 20
368.1289405796444
 10
287.8962098912927
 20
368.954898073588
 10
287.6106409001862
 20
369.8571676240503
 10
287.4361682343903
 20
370.8114815582935
 10
287.3774845553754
 20
371.7921724045147
  0
LINE
  5
30BE
330
106E
100
AcDbEntity
  8
STEMPEL
100
AcDbLine
 10
286.5822636685548
 20
378.2921724045124
 30
0.0
 11
286.5822636685548
 21
371.7921724045158
 31
0.0
  0
LINE
  5
30BF
330
106E
100
AcDbEntity
  8
STEMPEL
100
AcDbLine
 10
287.3774845553755
 20
378.2921724045124
 30
0.0
 11
287.3774845553755
 21
371.7921724045158
 31
0.0
  0
LINE
  5
30C0
330
106E
100
AcDbEntity
  8
STEMPEL
100
AcDbLine
 10
295.7136851036866
 20
378.2921724045124
 30
0.0
 11
295.7136851036866
 21
371.7921724045158
 31
0.0
  0
LINE
  5
30C1
330
106E
100
AcDbEntity
  8
STEMPEL
100
AcDbLine
 10
297.6652619322051
 20
366.7921724045142
 30
0.0
 11
289.3290613838931
 21
366.7921724045143
 31
0.0
  0
LWPOLYLINE
  5
30C2
330
106E
100
AcDbEntity
  8
STEMPEL
100
AcDbPolyline
 90
       10
 70
   128
 43
0.0
 10
290.9459698431606
 20
365.7921724045142
 10
290.1882202180664
 20
365.883325886441
 10
289.4534944318908
 20
366.1540166797988
 10
288.7641167558577
 20
366.5960199818077
 10
288.1410335818113
 20
367.1959057458005
 10
287.6031769766998
 20
367.9354467463952
 10
287.1668894413009
 20
368.7921724045145
 10
286.8454273516057
 20
369.7400515445605
 10
286.6485581705417
 20
370.750283338513
 10
286.5822636685548
 20
371.7921724045147
  0
LWPOLYLINE
  5
30C3
330
106E
100
AcDbEntity
  8
STEMPEL
100
AcDbPolyline
 90
       10
 70
   128
 43
0.0
 10
-291.9431952729416
 20
385.7921724045155
 10
-291.1503679270819
 20
385.6782305521072
 10
-290.3816302389362
 20
385.3398670604098
 10
-289.6603399141586
 20
384.7873629328987
 10
-289.0084129942771
 20
384.0375057279075
 10
-288.4456579488615
 20
383.1130794771641
 10
-287.9891738051986
 20
382.0421724045148
 10
-287.6528306030018
 20
380.8573234794571
 10
-287.4468479602717
 20
379.5945337370163
 10
-287.3774845553756
 20
378.292172404514
210
0.0
220
0.0
230
-1.0
  0
LWPOLYLINE
  5
30C4
330
106E
100
AcDbEntity
  8
STEMPEL
100
AcDbPolyline
 90
       18
 70
   128
 43
0.0
 10
-295.7136851036866
 20
378.2921724045124
 10
-295.6359452024265
 20
379.6702937881369
 10
-295.4053728377446
 20
381.0014849009166
 10
-295.0298198749795
 20
382.2404136260934
 10
-294.5220753198518
 20
383.3448897318626
 10
-293.8994298042138
 20
384.2773016091155
 10
-293.1830867743198
 20
385.0058970896768
 10
-292.3974404328939
 20
385.5058647283101
 10
-291.5692450238145
 20
385.7601787267268
 10
-290.7267037484268
 20
385.7601787267268
 10
-289.8985083393474
 20
385.5058647283101
 10
-289.1128619979214
 20
385.0058970896768
 10
-288.3965189680274
 20
384.2773016091155
 10
-287.7738734523894
 20
383.3448897318627
 10
-287.2661288972618
 20
382.2404136260934
 10
-286.8905759344966
 20
381.0014849009166
 10
-286.6600035698148
 20
379.670293788137
 10
-286.5822636685546
 20
378.2921724045124
210
0.0
220
0.0
230
-1.0
  0
LWPOLYLINE
  5
30C5
330
106E
100
AcDbEntity
  8
STEMPEL
100
AcDbPolyline
 90
        7
 70
   128
 43
0.0
 10
267.3732098308018
 20
366.7921724045143
 10
266.9015642302349
 20
367.4015103063552
 10
266.4970577538522
 20
368.1289405796444
 10
266.1705701113632
 20
368.9548980735881
 10
265.930882597955
 20
369.8571676240504
 10
265.7844419103289
 20
370.8114815582937
 10
265.7351867546965
 20
371.7921724045148
  0
LWPOLYLINE
  5
30C6
330
106E
100
AcDbEntity
  8
STEMPEL
100
AcDbPolyline
 90
       10
 70
   128
 43
0.0
 10
268.7875954423582
 20
365.7921724045143
 10
268.1515910823573
 20
365.8833258864411
 10
267.5349113930011
 20
366.1540166797989
 10
266.9562938745961
 20
366.5960199818077
 10
266.4333195276443
 20
367.1959057458005
 10
265.9818786630398
 20
367.9354467463952
 10
265.6156880830138
 20
368.7921724045146
 10
265.3458743030389
 20
369.7400515445606
 10
265.1806354782872
 20
370.7502833385131
 10
265.1249923068341
 20
371.7921724045148
  0
LWPOLYLINE
  5
30C7
330
106E
100
AcDbEntity
  8
STEMPEL
100
AcDbPolyline
 90
        9
 70
   128
 43
0.0
 10
-271.3802395829382
 20
385.7823064823362
 10
-270.2638318615671
 20
385.5749993459291
 10
-269.1985526098248
 20
385.1057446184753
 10
-268.2227176267864
 20
384.3914203813067
 10
-267.3714255939285
 20
383.4577193379104
 10
-266.6752956511921
 20
382.3382247027499
 10
-266.1593660925007
 20
381.0732022854113
 10
-265.8421937922848
 20
379.7081522162019
 10
-265.7351867546966
 20
378.2921724045142
210
0.0
220
0.0
230
-1.0
  0
LWPOLYLINE
  5
30C8
330
106E
100
AcDbEntity
  8
STEMPEL
100
AcDbPolyline
 90
       18
 70
   128
 43
0.0
 10
-277.0252924112032
 20
378.2921724045125
 10
-276.9239797993988
 20
379.6702937881371
 10
-276.6234920434696
 20
381.0014849009167
 10
-276.1340618935484
 20
382.2404136260935
 10
-275.472356306384
 20
383.3448897318628
 10
-274.6609088721188
 20
384.2773016091156
 10
-273.7273524599032
 20
385.0058970896768
 10
-272.7034782136771
 20
385.5058647283101
 10
-271.6241529428943
 20
385.7601787267268
 10
-270.5261317751432
 20
385.7601787267268
 10
-269.4468065043604
 20
385.5058647283101
 10
-268.4229322581343
 20
385.0058970896768
 10
-267.4893758459186
 20
384.2773016091156
 10
-266.6779284116535
 20
383.3448897318628
 10
-266.0162228244891
 20
382.2404136260935
 10
-265.5267926745679
 20
381.0014849009168
 10
-265.2263049186387
 20
379.6702937881371
 10
-265.1249923068343
 20
378.2921724045126
210
0.0
220
0.0
230
-1.0
  0
LWPOLYLINE
  5
30CC
330
106E
100
AcDbEntity
  8
STEMPEL
100
AcDbPolyline
 90
        7
 70
   128
 43
0.0
 10
305.5511102565443
 20
366.7921724045141
 10
304.9310197334799
 20
367.4015103063549
 10
304.3991995866965
 20
368.1289405796442
 10
303.9699537869653
 20
368.954898073588
 10
303.6548274391679
 20
369.8571676240502
 10
303.4622962622021
 20
370.8114815582935
 10
303.3975386238757
 20
371.7921724045146
  0
LINE
  5
30CD
330
106E
100
AcDbEntity
  8
STEMPEL
100
AcDbLine
 10
302.4714842873684
 20
378.2921724045124
 30
0.0
 11
302.4714842873684
 21
371.7921724045158
 31
0.0
  0
LINE
  5
30CE
330
106E
100
AcDbEntity
  8
STEMPEL
100
AcDbLine
 10
303.3975386238757
 20
378.2921724045124
 30
0.0
 11
303.3975386238756
 21
371.7921724045158
 31
0.0
  0
LWPOLYLINE
  5
30CF
330
106E
100
AcDbEntity
  8
STEMPEL
100
AcDbPolyline
 90
        7
 70
   128
 43
0.0
 10
-313.1856658346988
 20
384.7542264603521
 10
-313.0478368251286
 20
384.0021202234136
 10
-312.9289725481624
 20
383.0794066126988
 10
-312.8326245462612
 20
382.0136553627946
 10
-312.761671598723
 20
380.8367100259734
 10
-312.718233706715
 20
379.5837365195716
 10
-312.7036087498175
 20
378.2921724045123
210
0.0
220
0.0
230
-1.0
  0
LWPOLYLINE
  5
30D0
330
106E
100
AcDbEntity
  8
STEMPEL
100
AcDbPolyline
 90
        7
 70
   128
 43
0.0
 10
315.3240679334881
 20
366.7921724045146
 10
314.6473660584107
 20
367.4017731323737
 10
314.0478166347768
 20
368.1293322162852
 10
313.5415279616271
 20
368.9553020779655
 10
313.1421026695816
 20
369.8574911031686
 10
312.8602722543186
 20
370.8116598713623
 10
312.7036087498172
 20
371.7921724045146
  0
LWPOLYLINE
  5
30D1
330
106E
100
AcDbEntity
  8
STEMPEL
100
AcDbPolyline
 90
       10
 70
   128
 43
0.0
 10
313.02710029942
 20
365.7921724045142
 10
312.1909210245784
 20
365.8833258864409
 10
311.3801486338758
 20
366.1540166797987
 10
310.619418036133
 20
366.5960199818075
 10
309.9318436456143
 20
367.1959057458004
 10
309.3383170622459
 20
367.9354467463951
 10
308.8568722909246
 20
368.7921724045144
 10
308.5021377874042
 20
369.7400515445604
 10
308.2848919800701
 20
370.7502833385129
 10
308.2117357728461
 20
371.7921724045146
  0
LINE
  5
30D2
330
106E
100
AcDbEntity
  8
STEMPEL
100
AcDbLine
 10
308.2117357728462
 20
378.2921724045123
 30
0.0
 11
308.2117357728461
 21
371.7921724045157
 31
0.0
  0
LINE
  5
30D3
330
106E
100
AcDbEntity
  8
STEMPEL
100
AcDbLine
 10
313.66772291958
 20
378.2921724045123
 30
0.0
 11
313.6677229195799
 21
371.7921724045146
 31
0.0
  0
LINE
  5
30D4
330
106E
100
AcDbEntity
  8
STEMPEL
100
AcDbLine
 10
312.7036087498173
 20
378.2921724045123
 30
0.0
 11
312.7036087498173
 21
371.7921724045146
 31
0.0
  0
LINE
  5
30D5
330
106E
100
AcDbEntity
  8
STEMPEL
100
AcDbLine
 10
311.7098300362795
 20
378.2921724045123
 30
0.0
 11
311.7098300362795
 21
371.7921724045134
 31
0.0
  0
LWPOLYLINE
  5
30D6
330
106E
100
AcDbEntity
  8
STEMPEL
100
AcDbPolyline
 90
       10
 70
   128
 43
0.0
 10
307.2868488139422
 20
365.7921724045142
 10
306.4506695391007
 20
365.8833258864409
 10
305.639897148398
 20
366.1540166797987
 10
304.8791665506553
 20
366.5960199818075
 10
304.1915921601365
 20
367.1959057458004
 10
303.5980655767681
 20
367.9354467463952
 10
303.1166208054469
 20
368.7921724045144
 10
302.7618863019265
 20
369.7400515445604
 10
302.5446404945923
 20
370.750283338513
 10
302.4714842873684
 20
371.7921724045146
  0
LINE
  5
30D7
330
106E
100
AcDbEntity
  8
STEMPEL
100
AcDbLine
 10
310.3653074055147
 20
366.7921724045141
 30
0.0
 11
305.5511102565433
 21
366.7921724045141
 31
0.0
  0
LINE
  5
30D8
330
106E
100
AcDbEntity
  8
STEMPEL
100
AcDbLine
 10
316.2881821032506
 20
366.7921724045141
 30
0.0
 11
315.3240679334879
 21
366.7921724045141
 31
0.0
  0
LWPOLYLINE
  5
30D9
330
106E
100
AcDbEntity
  8
STEMPEL
100
AcDbPolyline
 90
       10
 70
   128
 43
0.0
 10
317.2158187673102
 20
365.7921724045141
 10
316.3577457710375
 20
365.8582996190868
 10
315.5049335714152
 20
366.110853368817
 10
314.6841752644983
 20
366.5418990851346
 10
313.9212568980993
 20
367.1378944555745
 10
313.2401473426001
 20
367.8801148872951
 10
312.6622452526544
 20
368.7452417840926
 10
312.2057067782482
 20
369.7060951548086
 10
311.8848751466506
 20
370.7324875365208
 10
311.7098300362795
 20
371.7921724045134
  0
LWPOLYLINE
  5
30DA
330
106E
100
AcDbEntity
  8
STEMPEL
100
AcDbPolyline
 90
       10
 70
   128
 43
0.0
 10
319.1737116506107
 20
365.7921724045152
 10
318.3156386543379
 20
365.8582996190879
 10
317.4628264547157
 20
366.1108533688181
 10
316.6420681477987
 20
366.5418990851357
 10
315.8791497813998
 20
367.1378944555756
 10
315.1980402259006
 20
367.8801148872963
 10
314.6201381359548
 20
368.7452417840937
 10
314.1635996615486
 20
369.7060951548098
 10
313.8427680299511
 20
370.732487536522
 10
313.6677229195799
 20
371.7921724045146
  0
ARC
  5
30DB
102
{ACAD_REACTORS
330
3274
102
}
330
106E
100
AcDbEntity
  8
STEMPEL
100
AcDbCircle
 10
319.8774101606152
 20
371.7921724045145
 30
0.0
 40
5.0
100
AcDbArc
 50
179.9999999999997
 51
269.9999999999981
  0
ARC
  5
30DC
102
{ACAD_REACTORS
330
3274
102
}
330
106E
100
AcDbEntity
  8
STEMPEL
100
AcDbCircle
 10
319.8774101606152
 20
371.7921724045145
 30
0.0
 40
6.0
100
AcDbArc
 50
179.9999999999997
 51
269.9999999999981
  0
LWPOLYLINE
  5
30DD
330
106E
100
AcDbEntity
  8
STEMPEL
100
AcDbPolyline
 90
       18
 70
   128
 43
0.0
 10
-308.2117357728462
 20
378.2921724045123
 10
-308.1628664279299
 20
379.6702937881369
 10
-308.0179225801098
 20
381.0014849009165
 10
-307.7818401182826
 20
382.2404136260933
 10
-307.4626585475359
 20
383.3448897318626
 10
-307.0712472134455
 20
384.2773016091154
 10
-306.6209351595476
 20
385.0058970896767
 10
-306.1270572227481
 20
385.50586472831
 10
-305.6064318238432
 20
385.7601787267267
 10
-305.0767882363714
 20
385.7601787267267
 10
-304.5561628374664
 20
385.50586472831
 10
-304.062284900667
 20
385.0058970896768
 10
-303.611972846769
 20
384.2773016091155
 10
-303.2205615126787
 20
383.3448897318626
 10
-302.901379941932
 20
382.2404136260934
 10
-302.6652974801048
 20
381.0014849009166
 10
-302.5203536322847
 20
379.6702937881369
 10
-302.4714842873684
 20
378.2921724045124
210
0.0
220
0.0
230
-1.0
  0
LWPOLYLINE
  5
30DE
330
106E
100
AcDbEntity
  8
STEMPEL
100
AcDbPolyline
 90
        9
 70
   128
 43
0.0
 10
-305.8046371983593
 20
385.6939306491775
 10
-305.3155766550906
 20
385.36749775142
 10
-304.8559636871896
 20
384.8222287381628
 10
-304.4400138835654
 20
384.0749884950348
 10
-304.0805923542738
 20
383.1488887722573
 10
-303.7888158193863
 20
382.072573350287
 10
-303.5737087746481
 20
380.8793321026562
 10
-303.4419243685406
 20
379.6060713575803
 10
-303.3975386238758
 20
378.292172404514
210
0.0
220
0.0
230
-1.0
  0
LWPOLYLINE
  5
30DF
330
106E
100
AcDbEntity
  8
STEMPEL
100
AcDbPolyline
 90
       18
 70
   128
 43
0.0
 10
-313.66772291958
 20
378.2921724045123
 10
-313.6510544961033
 20
379.6702937881369
 10
-313.6016168488428
 20
381.0014849009165
 10
-313.5210935175824
 20
382.2404136260933
 10
-313.4122266277907
 20
383.3448897318626
 10
-313.2787235108284
 20
384.2773016091154
 10
-313.1251304552243
 20
385.0058970896767
 10
-312.9566778882722
 20
385.50586472831
 10
-312.7791022601033
 20
385.7601787267267
 10
-312.5984506957562
 20
385.7601787267267
 10
-312.4208750675873
 20
385.50586472831
 10
-312.2524225006352
 20
385.0058970896767
 10
-312.0988294450311
 20
384.2773016091154
 10
-311.9653263280688
 20
383.3448897318626
 10
-311.8564594382772
 20
382.2404136260933
 10
-311.7759361070167
 20
381.0014849009165
 10
-311.7264984597563
 20
379.6702937881369
 10
-311.7098300362795
 20
378.2921724045123
210
0.0
220
0.0
230
-1.0
  0
LINE
  5
30E0
102
{ACAD_REACTORS
330
3274
102
}
330
106E
100
AcDbEntity
  8
STEMPEL
100
AcDbLine
 10
334.8774101606154
 20
366.7921724045143
 30
0.0
 11
334.8774101606155
 21
365.792172404514
 31
0.0
  0
LINE
  5
30E1
102
{ACAD_REACTORS
330
3274
102
}
330
106E
100
AcDbEntity
  8
STEMPEL
100
AcDbLine
 10
334.8774101606153
 20
366.792172404514
 30
0.0
 11
319.8774101606151
 21
366.7921724045145
 31
0.0
  0
LWPOLYLINE
  5
30E2
330
106E
100
AcDbEntity
  8
STEMPEL
100
AcDbPolyline
 90
       10
 70
   128
 43
0.0
 10
300.0773912782924
 20
365.7921724045142
 10
299.3196416531982
 20
365.8833258864409
 10
298.5849158670227
 20
366.1540166797987
 10
297.8955381909896
 20
366.5960199818076
 10
297.2724550169433
 20
367.1959057458004
 10
296.7345984118317
 20
367.9354467463952
 10
296.2983108764328
 20
368.7921724045144
 10
295.9768487867375
 20
369.7400515445604
 10
295.7799796056735
 20
370.750283338513
 10
295.7136851036867
 20
371.7921724045146
  0
LINE
  5
30E7
102
{ACAD_REACTORS
330
3274
102
}
330
106E
100
AcDbEntity
  8
STEMPEL
100
AcDbLine
 10
314.8774101606156
 20
435.7921144371985
 30
0.0
 11
314.8774101606153
 21
371.7921724045145
 31
0.0
  0
LINE
  5
30E8
102
{ACAD_REACTORS
330
3274
102
}
330
106E
100
AcDbEntity
  8
STEMPEL
100
AcDbLine
 10
313.8774101606155
 20
435.7921144371985
 30
0.0
 11
313.8774101606152
 21
371.7921724045145
 31
0.0
  0
LINE
  5
30E9
102
{ACAD_REACTORS
330
3274
102
}
330
106E
100
AcDbEntity
  8
STEMPEL
100
AcDbLine
 10
284.8774101606157
 20
455.7921724045136
 30
0.0
 11
230.1390479882662
 21
455.7921724045141
 31
0.0
  0
LINE
  5
30EA
330
106E
100
AcDbEntity
  8
HILF
100
AcDbLine
 10
102.5510771030849
 20
438.7921724045178
 30
0.0
 11
307.7037432181463
 21
438.7921724045167
 31
0.0
  0
LINE
  5
30EB
102
{ACAD_REACTORS
330
31D2
330
3274
102
}
330
106E
100
AcDbEntity
  8
STEMPEL
100
AcDbLine
 10
334.8774101606152
 20
365.792172404514
 30
0.0
 11
85.87741016061524
 21
365.792172404515
 31
0.0
  0
LINE
  5
30EC
102
{ACAD_REACTORS
330
3274
102
}
330
106E
100
AcDbEntity
  8
STEMPEL
100
AcDbLine
 10
284.8774101606157
 20
454.7921724045139
 30
0.0
 11
124.8774101606154
 21
454.7921724045149
 31
0.0
  0
DIMENSION
  5
310D
330
106E
100
AcDbEntity
  8
BEM
100
AcDbDimension
  2
*D6
 10
57.76324281727742
 20
455.7921724045149
 30
0.0
 11
51.86324281727735
 21
400.7921724045151
 31
0.0
 70
    32
 71
     5
 42
109.9999999999997
  3
STANDARD
100
AcDbAlignedDimension
 13
77.87741016061517
 23
345.7921724045152
 33
0.0
 14
124.8774101606154
 24
455.7921724045149
 34
0.0
 50
90.0
100
AcDbRotatedDimension
  0
DIMENSION
  5
311A
330
106E
100
AcDbEntity
  8
BEM
100
AcDbDimension
  2
*D7
 10
314.8774101606156
 20
470.0656962597181
 30
0.0
 11
204.8774101606154
 21
475.9656962597181
 31
0.0
 70
    32
 71
     5
 42
220.0000000000002
  3
STANDARD
100
AcDbAlignedDimension
 13
94.87741016061534
 23
435.7921144371996
 33
0.0
 14
314.8774101606156
 24
435.7921144371985
 34
0.0
100
AcDbRotatedDimension
  0
DIMENSION
  5
3127
330
106E
100
AcDbEntity
  8
BEM
100
AcDbDimension
  2
*D8
 10
334.8774101606154
 20
484.0906500142525
 30
0.0
 11
204.8774101606154
 21
489.9906500142525
 31
0.0
 70
    32
 71
     5
 42
260.0
  3
STANDARD
100
AcDbAlignedDimension
 13
74.8774101606154
 23
366.7921724045152
 33
0.0
 14
334.8774101606154
 24
366.792172404514
 34
0.0
100
AcDbRotatedDimension
  0
DIMENSION
  5
3134
330
106E
100
AcDbEntity
  8
BEM
100
AcDbDimension
  2
*D9
 10
804.8774101606154
 20
505.8845066638182
 30
0.0
 11
504.8774101606149
 21
511.7845066638182
 31
0.0
 70
    32
 71
     5
 42
600.000000000001
  3
STANDARD
100
AcDbAlignedDimension
 13
204.8774101606145
 23
494.0310887185012
 33
0.0
 14
804.8774101606154
 24
279.3722310650593
 34
0.0
100
AcDbRotatedDimension
  0
LINE
  5
3141
330
106E
100
AcDbEntity
  8
TEXT
 62
     2
100
AcDbLine
 10
44.52278300829357
 20
506.3273350700544
 30
0.0
 11
150.9573741258623
 21
506.3273350700544
 31
0.0
  0
LINE
  5
3142
330
106E
100
AcDbEntity
  8
TEXT
 62
     2
100
AcDbLine
 10
150.9573741258623
 20
506.3273350700544
 30
0.0
 11
162.2825041603558
 21
485.8409980353754
 31
0.0
  0
TEXT
  5
3143
330
106E
100
AcDbEntity
  8
TEXT
 62
     1
100
AcDbText
 10
46.44245880501102
 20
495.1553389154735
 30
0.0
 40
7.0
  1
EDV-Art.Nr. 21000.000X
 41
0.8
  7
GREEKS
100
AcDbText
  0
TEXT
  5
3144
330
106E
100
AcDbEntity
  8
TEXT
 62
     1
100
AcDbText
 10
47.17196662734432
 20
509.5978626709036
 30
0.0
 40
7.0
  1
Drainjethaube
 41
0.8
  7
GREEKS
100
AcDbText
  0
LINE
  5
3147
330
106E
100
AcDbEntity
  8
TEXT
 62
     2
100
AcDbLine
 10
164.2177372780458
 20
482.3403019931296
 30
0.0
 11
170.0356922841764
 21
471.816044280841
 31
0.0
  0
LINE
  5
3148
330
106E
100
AcDbEntity
  8
TEXT
 62
     2
100
AcDbLine
 10
171.9709254018664
 20
468.3153482385952
 30
0.0
 11
179.2216763182693
 21
455.1992668712715
 31
0.0
  0
TEXT
  5
3188
330
106E
100
AcDbEntity
  8
VOLL
100
AcDbText
 10
110.5617768838336
 20
249.4142614456772
 30
0.0
 40
1.8
  1

 50
270.0
  7
GREEKS
100
AcDbText
  0
LINE
  5
3189
102
{ACAD_REACTORS
330
31D2
102
}
330
106E
100
AcDbEntity
  8
STEMPEL
100
AcDbLine
 10
85.87741016061526
 20
355.4056724045153
 30
0.0
 11
85.87741016061526
 21
366.7921724045153
 31
0.0
  0
LINE
  5
318A
330
106E
100
AcDbEntity
  8
STEMPEL
100
AcDbLine
 10
79.87741016061526
 20
366.7921724045153
 30
0.0
 11
79.87741016061526
 21
355.4056724045153
 31
0.0
  0
LINE
  5
318B
102
{ACAD_REACTORS
330
31D2
102
}
330
106E
100
AcDbEntity
  8
STEMPEL
100
AcDbLine
 10
85.26391016061525
 20
354.7921724045153
 30
0.0
 11
85.87741016061526
 21
355.4056724045153
 31
0.0
  0
LINE
  5
318C
102
{ACAD_REACTORS
330
31D2
102
}
330
106E
100
AcDbEntity
  8
STEMPEL
100
AcDbLine
 10
79.87741016061526
 20
355.4056724045153
 30
0.0
 11
80.49091016061526
 21
354.7921724045153
 31
0.0
  0
ARC
  5
318D
330
106E
100
AcDbEntity
  8
STEMPEL
100
AcDbCircle
 10
76.32741016061526
 20
367.3421724045153
 30
0.0
 40
0.5500000000000003
100
AcDbArc
 50
109.9999999999995
 51
270.0
  0
ARC
  5
318E
330
106E
100
AcDbEntity
  8
STEMPEL
100
AcDbCircle
 10
89.42741016061525
 20
367.3421724045153
 30
0.0
 40
0.5500000000000009
100
AcDbArc
 50
270.0
 51
70.00000000000047
  0
LINE
  5
318F
330
106E
100
AcDbEntity
  8
STEMPEL
100
AcDbLine
 10
89.61552123944438
 20
367.8590033459476
 30
0.0
 11
88.65091285251152
 21
368.2100920865147
 31
0.0
  0
LINE
  5
3190
330
106E
100
AcDbEntity
  8
STEMPEL
100
AcDbLine
 10
77.103907468719
 20
368.2100920865147
 30
0.0
 11
76.13929908178613
 21
367.8590033459476
 31
0.0
  0
LINE
  5
3191
330
106E
100
AcDbEntity
  8
STEMPEL
100
AcDbLine
 10
85.87741016061526
 20
355.4056724045153
 30
0.0
 11
79.87741016061526
 21
355.4056724045153
 31
0.0
  0
LINE
  5
3192
102
{ACAD_REACTORS
330
31D2
102
}
330
106E
100
AcDbEntity
  8
STEMPEL
100
AcDbLine
 10
85.26391016061525
 20
354.7921724045153
 30
0.0
 11
80.49091016061524
 21
354.7921724045153
 31
0.0
  0
LINE
  5
3193
330
106E
100
AcDbEntity
  8
STEMPEL
100
AcDbLine
 10
87.87741016061525
 20
373.3921724045154
 30
0.0
 11
77.87741016061525
 21
373.3921724045154
 31
0.0
  0
LINE
  5
3194
330
106E
100
AcDbEntity
  8
STEMPEL
100
AcDbLine
 10
88.65091285251152
 20
373.1849129828784
 30
0.0
 11
88.65091285251152
 21
368.2100920865147
 31
0.0
  0
LINE
  5
3195
330
106E
100
AcDbEntity
  8
STEMPEL
100
AcDbLine
 10
85.76416150656338
 20
373.1849129828784
 30
0.0
 11
85.76416150656338
 21
368.2100920865147
 31
0.0
  0
LINE
  5
3196
330
106E
100
AcDbEntity
  8
STEMPEL
100
AcDbLine
 10
79.99065881466712
 20
373.1849129828784
 30
0.0
 11
79.99065881466712
 21
368.2100920865147
 31
0.0
  0
LINE
  5
3197
330
106E
100
AcDbEntity
  8
STEMPEL
100
AcDbLine
 10
77.103907468719
 20
373.1849129828784
 30
0.0
 11
77.103907468719
 21
368.2100920865147
 31
0.0
  0
LINE
  5
3198
102
{ACAD_REACTORS
330
3274
102
}
330
106E
100
AcDbEntity
  8
STEMPEL
100
AcDbLine
 10
89.42741016061525
 20
366.7921724045153
 30
0.0
 11
76.32741016061526
 21
366.7921724045153
 31
0.0
  0
LINE
  5
3199
330
106E
100
AcDbEntity
  8
STEMPEL
100
AcDbLine
 10
89.61552123944438
 20
367.8590033459476
 30
0.0
 11
76.13929908178613
 21
367.8590033459476
 31
0.0
  0
LINE
  5
319A
330
106E
100
AcDbEntity
  8
HILF
100
AcDbLine
 10
85.26391016061525
 20
363.7921724045153
 30
0.0
 11
85.26391016061525
 21
354.7921724045153
 31
0.0
  0
LINE
  5
319B
330
106E
100
AcDbEntity
  8
HILF
100
AcDbLine
 10
85.26391016061525
 20
363.7921724045153
 30
0.0
 11
85.87741016061526
 21
366.7921724045153
 31
0.0
  0
LINE
  5
319C
330
106E
100
AcDbEntity
  8
HILF
100
AcDbLine
 10
79.87741016061526
 20
363.7921724045153
 30
0.0
 11
85.87741016061526
 21
363.7921724045153
 31
0.0
  0
LINE
  5
319D
330
106E
100
AcDbEntity
  8
HILF
100
AcDbLine
 10
80.49091016061526
 20
363.7921724045153
 30
0.0
 11
80.49091016061524
 21
354.7921724045153
 31
0.0
  0
LINE
  5
319E
330
106E
100
AcDbEntity
  8
HILF
100
AcDbLine
 10
80.49091016061526
 20
363.7921724045153
 30
0.0
 11
79.87741016061526
 21
366.7921724045153
 31
0.0
  0
POINT
  5
31A0
330
106E
100
AcDbEntity
  8
0
100
AcDbPoint
 10
82.87741016061525
 20
354.7921724045153
 30
0.0
210
-0.0000000000000002
220
-1.0
230
0.0
  0
ARC
  5
31A1
330
106E
100
AcDbEntity
  8
STEMPEL
100
AcDbCircle
 10
87.20753717953744
 20
368.2626352659922
 30
0.0
 40
5.129537138523076
100
AcDbArc
 50
73.65710669401501
 51
106.342893305985
  0
LINE
  5
31A2
330
106E
100
AcDbEntity
  8
STEMPEL
100
AcDbLine
 10
87.87741016061525
 20
373.3921724045154
 30
0.0
 11
88.65091285251152
 21
373.1849129828784
 31
0.0
  0
LINE
  5
31A3
330
106E
100
AcDbEntity
  8
STEMPEL
100
AcDbLine
 10
77.87741016061525
 20
373.3921724045154
 30
0.0
 11
77.10390746871898
 21
373.1849129828784
 31
0.0
  0
ARC
  5
31A4
330
106E
100
AcDbEntity
  8
STEMPEL
100
AcDbCircle
 10
78.54728314169306
 20
368.2626352659922
 30
0.0
 40
5.129537138523076
100
AcDbArc
 50
73.65710669401501
 51
106.342893305985
  0
ARC
  5
31A5
330
106E
100
AcDbEntity
  8
STEMPEL
100
AcDbCircle
 10
82.87741016061525
 20
353.1849129828784
 30
0.0
 40
20.20725942163691
100
AcDbArc
 50
81.78678929826221
 51
98.2132107017378
  0
ARC
  5
31A6
330
106E
100
AcDbEntity
  8
HILF
100
AcDbCircle
 10
87.20753717953744
 20
364.6496990808107
 30
0.0
 40
3.841839622940954
100
AcDbArc
 50
67.93247218101019
 51
112.067527818989
  0
ARC
  5
31A7
330
106E
100
AcDbEntity
  8
HILF
100
AcDbCircle
 10
78.54728314169306
 20
364.650863642699
 30
0.0
 40
3.840760399790701
100
AcDbArc
 50
67.92594526323952
 51
112.0740547367605
  0
ARC
  5
31A8
330
106E
100
AcDbEntity
  8
HILF
100
AcDbCircle
 10
82.87741016061525
 20
353.5508803772892
 30
0.0
 40
14.94074366520046
100
AcDbArc
 50
78.85962783889434
 51
101.1403721611056
  0
HATCH
  5
31D2
330
106E
100
AcDbEntity
  8
BEM
100
AcDbHatch
 10
0.0
 20
0.0
 30
0.0
210
0.0
220
0.0
230
1.0
  2
_USER
 70
     0
 71
     1
 91
        4
 92
        7
 72
     0
 73
     1
 93
       13
 10
85.87741016061526
 20
355.4056724045153
 10
85.87741016061517
 20
345.7921724045152
 10
86.87741016061506
 20
345.7921724045153
 10
86.87741016061506
 20
348.7921724045152
 10
86.37741016061511
 20
348.7921724045152
 10
86.37741016061504
 20
351.7921724045152
 10
86.87741016061512
 20
351.7921724045151
 10
86.87741016061528
 20
359.7921724045151
 10
86.37741016061518
 20
359.7921724045151
 10
86.37741016061516
 20
362.7921724045151
 10
86.87741016061528
 20
362.7921724045151
 10
86.8774101606152
 20
365.792172404515
 10
85.87741016061526
 20
365.7921724045151
 97
       13
330
2C24
330
2C19
330
2C2F
330
2C30
330
30EB
330
3189
330
2C1D
330
2C01
330
2C23
330
2C22
330
2C21
330
2C25
330
2C26
 92
        7
 72
     0
 73
     1
 93
        5
 10
85.87741016061523
 20
355.4056724045153
 10
85.26391016061522
 20
354.7921724045153
 10
84.87741016061523
 20
354.7921724045153
 10
84.87741016061518
 20
345.7921724045152
 10
85.87741016061515
 20
345.7921724045152
 97
        5
330
318B
330
3192
330
2C20
330
2C01
330
2C1D
 92
        7
 72
     0
 73
     1
 93
        5
 10
79.87741016061518
 20
345.7921724045152
 10
80.87741016061519
 20
345.7921724045152
 10
80.87741016061519
 20
354.7921724045153
 10
80.4909101606152
 20
354.7921724045153
 10
79.87741016061519
 20
355.4056724045153
 97
        5
330
3192
330
318C
330
2C1E
330
2C01
330
2C1F
 92
        7
 72
     0
 73
     1
 93
       12
 10
78.87741016061511
 20
351.7921724045153
 10
79.37741016061505
 20
351.7921724045152
 10
79.37741016061512
 20
348.7921724045152
 10
78.87741016061513
 20
348.7921724045152
 10
78.87741016061514
 20
345.7921724045153
 10
79.87741016061517
 20
345.7921724045153
 10
79.87741016061524
 20
365.7921724045152
 10
78.87741016061522
 20
365.7921724045152
 10
78.87741016061529
 20
362.7921724045151
 10
79.37741016061517
 20
362.7921724045152
 10
79.37741016061517
 20
359.792172404515
 10
78.87741016061529
 20
359.7921724045151
 97
       12
330
30EB
330
2C31
330
2C32
330
2C1A
330
2C2D
330
2C2C
330
2C2E
330
2C27
330
2C29
330
2C2A
330
2C01
330
2C1E
 75
     0
 76
     0
 52
135.0
 41
1.0
 77
     0
 78
     1
 53
135.0
 43
0.0
 44
0.0
 45
-0.7071067811865476
 46
-0.7071067811865475
 79
     0
 47
0.0494045119447598
 98
        4
 10
86.32581614176478
 20
359.0317346065281
 10
85.53507342097736
 20
354.2394964566408
 10
80.34582926636813
 20
353.8936662072504
 10
79.35740086538408
 20
354.8323512327022
  0
LINE
  5
31D5
102
{ACAD_REACTORS
330
3274
102
}
330
106E
100
AcDbEntity
  8
STEMPEL
100
AcDbLine
 10
79.87741016061524
 20
365.7921724045151
 30
0.0
 11
74.87741016061517
 21
365.7921724045152
 31
0.0
  0
LINE
  5
31D6
102
{ACAD_REACTORS
330
3274
102
}
330
106E
100
AcDbEntity
  8
STEMPEL
100
AcDbLine
 10
85.87741016061526
 20
365.792172404515
 30
0.0
 11
90.37741016061522
 21
365.792172404515
 31
0.0
  0
LINE
  5
31F1
330
106E
100
AcDbEntity
  8
STEMPEL
100
AcDbLine
 10
267.3732098308014
 20
366.7921724045148
 30
0.0
 11
272.8774101606153
 21
366.7921724045149
 31
0.0
  0
ARC
  5
31F2
330
106E
100
AcDbEntity
  8
HILF
100
AcDbCircle
 10
265.8774101606152
 20
353.5508803772886
 30
0.0
 40
14.94074366520046
100
AcDbArc
 50
78.85962783889434
 51
88.16153752705531
  0
ARC
  5
31F3
330
106E
100
AcDbEntity
  8
STEMPEL
100
AcDbCircle
 10
265.8774101606152
 20
353.1849129828779
 30
0.0
 40
20.20725942163691
100
AcDbArc
 50
81.78678929826221
 51
90.40326439207204
  0
LINE
  5
31F4
330
106E
100
AcDbEntity
  8
STEMPEL
100
AcDbLine
 10
272.6155212394443
 20
367.859003345947
 30
0.0
 11
266.6471633560753
 21
367.859003345947
 31
0.0
  0
LINE
  5
31F5
330
106E
100
AcDbEntity
  8
STEMPEL
100
AcDbLine
 10
272.4274101606152
 20
366.7921724045148
 30
0.0
 11
267.3732098308014
 21
366.7921724045148
 31
0.0
  0
LINE
  5
31F6
330
106E
100
AcDbEntity
  8
STEMPEL
100
AcDbLine
 10
270.8774101606152
 20
373.3921724045148
 30
0.0
 11
265.7351867546964
 21
373.3921724045148
 31
0.0
  0
ARC
  5
31FE
330
106E
100
AcDbEntity
  8
HILF
100
AcDbCircle
 10
270.2075371795374
 20
364.6496990808101
 30
0.0
 40
3.841839622940954
100
AcDbArc
 50
67.93247218101019
 51
112.067527818989
  0
LINE
  5
31FF
330
106E
100
AcDbEntity
  8
STEMPEL
100
AcDbLine
 10
270.8774101606152
 20
373.3921724045148
 30
0.0
 11
271.6509128525115
 21
373.1849129828778
 31
0.0
  0
ARC
  5
3200
330
106E
100
AcDbEntity
  8
STEMPEL
100
AcDbCircle
 10
270.2075371795374
 20
368.2626352659917
 30
0.0
 40
5.129537138523076
100
AcDbArc
 50
73.65710669401501
 51
106.342893305985
  0
LINE
  5
3201
330
106E
100
AcDbEntity
  8
STEMPEL
100
AcDbLine
 10
268.7641615065634
 20
373.1849129828778
 30
0.0
 11
268.7641615065634
 21
368.2100920865141
 31
0.0
  0
LINE
  5
3202
330
106E
100
AcDbEntity
  8
STEMPEL
100
AcDbLine
 10
271.6509128525115
 20
373.1849129828778
 30
0.0
 11
271.6509128525115
 21
368.2100920865141
 31
0.0
  0
LINE
  5
3203
330
106E
100
AcDbEntity
  8
STEMPEL
100
AcDbLine
 10
272.6155212394443
 20
367.859003345947
 30
0.0
 11
271.6509128525115
 21
368.2100920865141
 31
0.0
  0
ARC
  5
3204
330
106E
100
AcDbEntity
  8
STEMPEL
100
AcDbCircle
 10
272.4274101606152
 20
367.3421724045148
 30
0.0
 40
0.5500000000000009
100
AcDbArc
 50
270.0
 51
70.00000000000047
  0
HATCH
  5
3274
330
106E
100
AcDbEntity
  8
SCHRAFF
100
AcDbHatch
 10
0.0
 20
0.0
 30
0.0
210
0.0
220
0.0
230
1.0
  2
_USER
 70
     0
 71
     1
 91
        3
 92
        7
 72
     1
 73
     1
 93
       46
 10
313.8774101606152
 20
371.7921724045145
 42
0.4142135623731197
 10
319.8774101606152
 20
365.7921724045141
 42
0.0
 10
334.8774101606155
 20
365.7921724045141
 42
0.0
 10
334.8774101606155
 20
366.792172404514
 42
0.0
 10
319.8774101606151
 20
366.7921724045145
 42
-0.4142135623730866
 10
314.8774101606153
 20
371.7921724045145
 42
0.0
 10
314.8774101606156
 20
435.7921144371985
 42
0.2662608607092526
 10
311.9101047823449
 20
440.9692529645448
 42
0.0
 10
287.9238019068566
 20
454.961262975246
 42
0.1339297957670169
 10
284.8774101606153
 20
455.7921724045136
 42
0.0
 10
230.1390479882662
 20
455.7921724045141
 42
-0.2679491924311388
 10
228.8400098825895
 20
456.5421724045141
 42
0.2679491924311121
 10
227.5409717769129
 20
457.2921724045141
 42
0.0
 10
227.3409717769127
 20
457.2921724045141
 42
0.2679491924311658
 10
226.0419336712358
 20
456.5421724045141
 42
-0.2679491924311199
 10
224.7428955655592
 20
455.7921724045141
 42
0.0
 10
222.6840479882665
 20
455.7921724045141
 42
-0.267949192431141
 10
221.3850098825898
 20
456.5421724045142
 42
0.2679491924311081
 10
220.0859717769132
 20
457.2921724045142
 42
0.0
 10
219.8859717769128
 20
457.2921724045142
 42
0.2679491924310921
 10
218.5869336712363
 20
456.5421724045141
 42
-0.2679491924311222
 10
217.2878955655597
 20
455.7921724045141
 42
0.0
 10
210.8340479882656
 20
455.7921724045141
 42
-0.2679491924311049
 10
209.535009882589
 20
456.542172404514
 42
0.267949192431159
 10
208.2359717769122
 20
457.2921724045142
 42
0.0
 10
204.8774101606145
 20
457.2921724045142
 42
0.0
 10
204.8774101606144
 20
456.2921724045143
 42
0.0
 10
208.2359717769129
 20
456.2921724045144
 42
-0.2679491924311403
 10
208.6689844788051
 20
456.0421724045142
 42
0.2679491924311169
 10
210.8340479882663
 20
454.7921724045143
 42
0.0
 10
217.2878955655598
 20
454.7921724045143
 42
0.2679491924310984
 10
219.4529590750208
 20
456.042172404514
 42
-0.2679491924310558
 10
219.8859717769128
 20
456.2921724045142
 42
0.0
 10
220.0859717769128
 20
456.2921724045142
 42
-0.2679491924311761
 10
220.5189844788051
 20
456.0421724045141
 42
0.267949192431098
 10
222.6840479882661
 20
454.7921724045143
 42
0.0
 10
224.7428955655589
 20
454.7921724045143
 42
0.2679491924311464
 10
226.9079590750202
 20
456.0421724045142
 42
-0.2679491924312539
 10
227.3409717769127
 20
456.2921724045141
 42
0.0
 10
227.5409717769127
 20
456.2921724045141
 42
-0.267949192431122
 10
227.973984478805
 20
456.0421724045141
 42
0.2679491924311139
 10
230.139047988266
 20
454.7921724045142
 42
0.0
 10
284.8774101606157
 20
454.7921724045139
 42
-0.134038508411308
 10
287.4179098357915
 20
454.0986630175803
 42
0.0
 10
311.3967637287426
 20
440.1110098513948
 42
-0.2667503951500878
 10
313.8774101606155
 20
435.7921144371986
 42
0.0
 97
       42
330
30A3
330
30A4
330
309F
330
30E9
330
304A
330
3049
330
3048
330
304B
330
3043
330
3041
330
3044
330
3040
330
303C
330
3051
330
3039
330
303A
330
3053
330
2282
330
3052
330
3038
330
303B
330
30EC
330
304F
330
303F
330
303E
330
303D
330
304E
330
304D
330
3047
330
3046
330
3045
330
304C
330
30A0
330
30A5
330
30A1
330
30E8
330
30DC
330
30EB
330
30E0
330
30E1
330
30DB
330
30E7
 92
        7
 72
     1
 73
     1
 93
       46
 10
124.8774101606154
 20
455.7921724045149
 42
0.1339297957670218
 10
121.8310184143745
 20
454.9612629752468
 42
0.0
 10
97.84471553899294
 20
440.9692529646084
 42
0.2662608607147694
 10
94.87741016061534
 20
435.792114437199
 42
0.0
 10
94.87741016061505
 20
371.7921724045155
 42
-0.4142135623730767
 10
89.87741016061539
 20
366.7921724045155
 42
0.0
 10
86.87741016061528
 20
366.7921724045154
 42
0.0
 10
86.87741016061528
 20
365.792172404515
 42
0.0
 10
89.87741016061516
 20
365.792172404515
 42
0.4142135623731191
 10
95.87741016061517
 20
371.7921724045155
 42
0.0
 10
95.87741016061546
 20
435.7921144371996
 42
-0.2667503951500736
 10
98.35805659248855
 20
440.1110098513959
 42
0.0
 10
122.3369104854395
 20
454.0986630175811
 42
-0.1340385084111803
 10
124.8774101606154
 20
454.7921724045149
 42
0.0
 10
179.4378955655588
 20
454.7921724045146
 42
0.2679491924311593
 10
181.6029590750201
 20
456.0421724045146
 42
-0.2679491924312961
 10
182.0359717769129
 20
456.2921724045144
 42
0.0
 10
182.2359717769129
 20
456.2921724045144
 42
-0.2679491924310882
 10
182.6689844788051
 20
456.0421724045144
 42
0.267949192431126
 10
184.8340479882663
 20
454.7921724045145
 42
0.0
 10
191.2878955655592
 20
454.7921724045145
 42
0.2679491924311275
 10
193.4529590750205
 20
456.0421724045142
 42
-0.267949192431187
 10
193.8859717769128
 20
456.2921724045144
 42
0.0
 10
194.0859717769128
 20
456.2921724045144
 42
-0.3419987131197122
 10
194.5700946951887
 20
455.9171724045142
 42
0.3419987131196003
 10
196.0224634500165
 20
454.7921724045145
 42
0.0
 10
196.211212642616
 20
454.7921724045145
 42
0.3419987131195982
 10
197.6635813974437
 20
455.9171724045142
 42
-0.3419987131195372
 10
198.1477043157193
 20
456.2921724045144
 42
0.0
 10
204.8774101606144
 20
456.2921724045142
 42
0.0
 10
204.8774101606144
 20
457.2921724045142
 42
0.0
 10
198.1477043157193
 20
457.2921724045142
 42
0.3419987131196226
 10
196.6953355608916
 20
456.1671724045143
 42
-0.3419987131196716
 10
196.2112126426157
 20
455.7921724045142
 42
0.0
 10
196.0224634500168
 20
455.7921724045142
 42
-0.341998713119663
 10
195.5383405317409
 20
456.1671724045143
 42
0.3419987131196414
 10
194.0859717769131
 20
457.2921724045142
 42
0.0
 10
193.8859717769128
 20
457.2921724045142
 42
0.2679491924311441
 10
192.586933671236
 20
456.5421724045142
 42
-0.2679491924311281
 10
191.2878955655594
 20
455.7921724045142
 42
0.0
 10
184.8340479882653
 20
455.7921724045142
 42
-0.267949192431088
 10
183.5350098825887
 20
456.542172404514
 42
0.2679491924311808
 10
182.2359717769118
 20
457.2921724045143
 42
0.0
 10
182.0359717769129
 20
457.2921724045143
 42
0.2679491924311911
 10
180.7369336712358
 20
456.5421724045143
 42
-0.2679491924311135
 10
179.4378955655592
 20
455.7921724045145
 42
0.0
 97
       42
330
301D
330
309B
330
3004
330
301B
330
3014
330
3018
330
300B
330
31D6
330
3016
330
301A
330
3005
330
309A
330
301E
330
30EC
330
3025
330
3022
330
3021
330
3020
330
3037
330
3035
330
302E
330
302D
330
302C
330
3034
330
3033
330
302F
330
3052
330
2282
330
3053
330
3030
330
3031
330
302B
330
302A
330
3029
330
3028
330
3032
330
3027
330
3036
330
301F
330
3023
330
3024
330
3054
 92
        7
 72
     0
 73
     1
 93
        5
 10
78.87741016061529
 20
365.7921724045152
 10
78.87741016061529
 20
366.7921724045153
 10
76.32741016061526
 20
366.7921724045153
 10
74.87741016061541
 20
366.7921724045152
 10
74.8774101606153
 20
365.7921724045152
 97
        5
330
3198
330
3018
330
3008
330
31D5
330
3009
 75
     0
 76
     0
 52
135.0
 41
2.0
 77
     0
 78
     1
 53
135.0
 43
0.0
 44
0.0
 45
-1.414213562373095
 46
-1.414213562373094
 79
     0
 47
0.2706587939105027
 98
        3
 10
314.2648589303283
 20
394.9461260116648
 10
150.1896452558474
 20
455.5736972231136
 10
78.16983105037479
 20
366.2562943012401
  0
ENDSEC
  0
SECTION
  2
OBJECTS
  0
DICTIONARY
  5
105C
330
0
100
AcDbDictionary
281
     1
  3
ACAD_COLOR
350
16CF
  3
ACAD_GROUP
350
105D
  3
ACAD_LAYOUT
350
1069
  3
ACAD_MATERIAL
350
16CE
  3
ACAD_MLINESTYLE
350
1066
  3
ACAD_PLOTSETTINGS
350
1068
  3
ACAD_PLOTSTYLENAME
350
105E
  3
AcDbVariableDictionary
350
1114
  0
DICTIONARY
  5
21FF
330
1052
100
AcDbDictionary
280
     1
281
     1
  3
ACAD_LAYERSTATES
360
2200
  0
DICTIONARY
  5
1232
330
106E
100
AcDbDictionary
280
     1
281
     1
  3
ACAD_LAYOUTSELFREF
360
167B
  0
DICTIONARY
  5
1234
330
106A
100
AcDbDictionary
280
     1
281
     1
  3
ACAD_LAYOUTSELFREF
360
167A
  0
DICTIONARY
  5
16CF
102
{ACAD_REACTORS
330
105C
102
}
330
105C
100
AcDbDictionary
281
     1
  0
DICTIONARY
  5
105D
102
{ACAD_REACTORS
330
105C
102
}
330
105C
100
AcDbDictionary
281
     1
  0
DICTIONARY
  5
1069
102
{ACAD_REACTORS
330
105C
102
}
330
105C
100
AcDbDictionary
281
     1
  3
Layout1
350
106D
  3
Model
350
1071
  0
DICTIONARY
  5
16CE
102
{ACAD_REACTORS
330
105C
102
}
330
105C
100
AcDbDictionary
281
     1
  0
DICTIONARY
  5
1066
102
{ACAD_REACTORS
330
105C
102
}
330
105C
100
AcDbDictionary
281
     1
  3
Standard
350
1067
  0
DICTIONARY
  5
1068
102
{ACAD_REACTORS
330
105C
102
}
330
105C
100
AcDbDictionary
281
     1
  0
ACDBDICTIONARYWDFLT
  5
105E
102
{ACAD_REACTORS
330
105C
102
}
330
105C
100
AcDbDictionary
281
     1
  3
Normal
350
105F
100
AcDbDictionaryWithDefault
340
105F
  0
DICTIONARY
  5
1114
102
{ACAD_REACTORS
330
105C
102
}
330
105C
100
AcDbDictionary
281
     1
  3
DIMASSOC
350
1A5D
  3
PROJECTNAME
350
1A5E
  3
SORTENTS
350
1115
  0
DICTIONARY
  5
2200
102
{ACAD_REACTORS
330
21FF
102
}
330
21FF
100
AcDbDictionary
281
     1
  0
XRECORD
  5
167B
102
{ACAD_REACTORS
330
1232
102
}
330
1232
100
AcDbXrecord
280
     1
340
106E
  0
XRECORD
  5
167A
102
{ACAD_REACTORS
330
1234
102
}
330
1234
100
AcDbXrecord
280
     1
340
106A
  0
LAYOUT
  5
106D
102
{ACAD_REACTORS
330
1069
102
}
330
1069
100
AcDbPlotSettings
  1

  2
\\NT_WORK01\HP LaserJet 5000 PCL 6
  4

  6

 40
0.0
 41
0.0
 42
0.0
 43
0.0
 44
0.0
 45
0.0
 46
0.0
 47
0.0
 48
0.0
 49
0.0
140
0.0
141
0.0
142
1.0
143
1.0
 70
   688
 72
     0
 73
     0
 74
     5
  7
monochrome.ctb
 75
    16
147
1.0
 76
     0
 77
     2
 78
   300
148
0.0
149
0.0
100
AcDbLayout
  1
Layout1
 70
     0
 71
     1
 10
0.0
 20
0.0
 11
12.0
 21
9.0
 12
0.0
 22
0.0
 32
0.0
 14
1.000000000000000E+20
 24
1.000000000000000E+20
 34
1.000000000000000E+20
 15
-1.000000000000000E+20
 25
-1.000000000000000E+20
 35
-1.000000000000000E+20
146
0.0
 13
0.0
 23
0.0
 33
0.0
 16
1.0
 26
0.0
 36
0.0
 17
0.0
 27
1.0
 37
0.0
 76
     0
330
106A
  0
LAYOUT
  5
1071
102
{ACAD_REACTORS
330
1069
102
}
330
1069
100
AcDbPlotSettings
  1

  2
none_device
  4
Letter_(8.50_x_11.00_Inches)
  6

 40
6.349999904632568
 41
6.349999904632568
 42
6.350006103515625
 43
6.350006103515625
 44
215.8999938964844
 45
279.3999938964844
 46
0.0
 47
0.0
 48
0.0
 49
0.0
140
0.0
141
0.0
142
1.0
143
1.0
 70
 11952
 72
     0
 73
     1
 74
     0
  7

 75
     0
147
1.0
 76
     0
 77
     2
 78
   300
148
-3034.281979024021
149
89.91803552416191
100
AcDbLayout
  1
Model
 70
     1
 71
     0
 10
0.0
 20
0.0
 11
12.0
 21
9.0
 12
0.0
 22
0.0
 32
0.0
 14
0.0
 24
0.0
 34
0.0
 15
0.0
 25
0.0
 35
0.0
146
0.0
 13
0.0
 23
0.0
 33
0.0
 16
1.0
 26
0.0
 36
0.0
 17
0.0
 27
1.0
 37
0.0
 76
     0
330
106E
  0
MLINESTYLE
  5
1067
102
{ACAD_REACTORS
330
1066
102
}
330
1066
100
AcDbMlineStyle
  2
STANDARD
 70
     0
  3

 62
   256
 51
90.0
 52
90.0
 71
     2
 49
0.5
 62
   256
  6
BYLAYER
 49
-0.5
 62
   256
  6
BYLAYER
  0
ACDBPLACEHOLDER
  5
105F
102
{ACAD_REACTORS
330
105E
102
}
330
105E
  0
DICTIONARYVAR
  5
1A5D
102
{ACAD_REACTORS
330
1114
102
}
330
1114
100
DictionaryVariables
280
     0
  1
1
  0
DICTIONARYVAR
  5
1A5E
102
{ACAD_REACTORS
330
1114
102
}
330
1114
100
DictionaryVariables
280
     0
  1

  0
DICTIONARYVAR
  5
1115
102
{ACAD_REACTORS
330
1114
102
}
330
1114
100
DictionaryVariables
280
     0
  1
96
  0
ENDSEC
  0
EOF
