  0
SECTION
  2
HEADER
  9
$ACADVER
  1
AC1018
  9
$ACADMAINTVER
 70
     2
  9
$DWGCODEPAGE
  3
ANSI_1252
  9
$INSBASE
 10
0.0
 20
0.0
 30
0.0
  9
$EXTMIN
 10
-0.0640771341752498
 20
-0.0453116877386037
 30
-0.000000000000013
  9
$EXTMAX
 10
840.0000039120326
 20
594.0000027663659
 30
0.0000000000000023
  9
$LIMMIN
 10
0.0
 20
0.0
  9
$LIMMAX
 10
839.9999999999998
 20
594.0000000000001
  9
$ORTHOMODE
 70
     1
  9
$REGENMODE
 70
     1
  9
$FILLMODE
 70
     1
  9
$QTEXTMODE
 70
     0
  9
$MIRRTEXT
 70
     1
  9
$LTSCALE
 40
20.0
  9
$ATTMODE
 70
     1
  9
$TEXTSIZE
 40
2.5
  9
$TRACEWID
 40
0.5
  9
$TEXTSTYLE
  7
GREEKS
  9
$CLAYER
  8
SCHRAFF
  9
$CELTYPE
  6
ByLayer
  9
$CECOLOR
 62
   256
  9
$CELTSCALE
 40
1.0
  9
$DISPSILH
 70
     0
  9
$DIMSCALE
 40
2.0
  9
$DIMASZ
 40
3.5
  9
$DIMEXO
 40
1.0
  9
$DIMDLI
 40
0.38
  9
$DIMRND
 40
0.0
  9
$DIMDLE
 40
0.0
  9
$DIMEXE
 40
1.0
  9
$DIMTP
 40
0.0
  9
$DIMTM
 40
0.0
  9
$DIMTXT
 40
3.5
  9
$DIMCEN
 40
0.09
  9
$DIMTSZ
 40
0.0
  9
$DIMTOL
 70
     0
  9
$DIMLIM
 70
     0
  9
$DIMTIH
 70
     0
  9
$DIMTOH
 70
     0
  9
$DIMSE1
 70
     0
  9
$DIMSE2
 70
     0
  9
$DIMTAD
 70
     1
  9
$DIMZIN
 70
     8
  9
$DIMBLK
  1

  9
$DIMASO
 70
     1
  9
$DIMSHO
 70
     0
  9
$DIMPOST
  1

  9
$DIMAPOST
  1

  9
$DIMALT
 70
     0
  9
$DIMALTD
 70
     2
  9
$DIMALTF
 40
25.4
  9
$DIMLFAC
 40
1.0
  9
$DIMTOFL
 70
     1
  9
$DIMTVP
 40
0.0
  9
$DIMTIX
 70
     0
  9
$DIMSOXD
 70
     0
  9
$DIMSAH
 70
     0
  9
$DIMBLK1
  1

  9
$DIMBLK2
  1

  9
$DIMSTYLE
  2
STANDARD
  9
$DIMCLRD
 70
     0
  9
$DIMCLRE
 70
     0
  9
$DIMCLRT
 70
     1
  9
$DIMTFAC
 40
0.5142857142857144
  9
$DIMGAP
 40
1.5
  9
$DIMJUST
 70
     0
  9
$DIMSD1
 70
     0
  9
$DIMSD2
 70
     0
  9
$DIMTOLJ
 70
     1
  9
$DIMTZIN
 70
     8
  9
$DIMALTZ
 70
     8
  9
$DIMALTTZ
 70
     8
  9
$DIMUPT
 70
     0
  9
$DIMDEC
 70
     2
  9
$DIMTDEC
 70
     2
  9
$DIMALTU
 70
     2
  9
$DIMALTTD
 70
     2
  9
$DIMTXSTY
  7
GREEKS
  9
$DIMAUNIT
 70
     0
  9
$DIMADEC
 70
     0
  9
$DIMALTRND
 40
0.0
  9
$DIMAZIN
 70
     2
  9
$DIMDSEP
 70
    46
  9
$DIMATFIT
 70
     0
  9
$DIMFRAC
 70
     0
  9
$DIMLDRBLK
  1

  9
$DIMLUNIT
 70
     2
  9
$DIMLWD
 70
    -2
  9
$DIMLWE
 70
    -2
  9
$DIMTMOVE
 70
     2
  9
$LUNITS
 70
     2
  9
$LUPREC
 70
     2
  9
$SKETCHINC
 40
1.0
  9
$FILLETRAD
 40
5.0
  9
$AUNITS
 70
     0
  9
$AUPREC
 70
     0
  9
$MENU
  1
ACAD
  9
$ELEVATION
 40
0.0
  9
$PELEVATION
 40
0.0
  9
$THICKNESS
 40
0.0
  9
$LIMCHECK
 70
     0
  9
$CHAMFERA
 40
0.0
  9
$CHAMFERB
 40
0.0
  9
$CHAMFERC
 40
0.0
  9
$CHAMFERD
 40
0.0
  9
$SKPOLY
 70
     0
  9
$TDCREATE
 40
2452806.197199711
  9
$TDUCREATE
 40
2452806.155533044
  9
$TDUPDATE
 40
2455554.508852234
  9
$TDUUPDATE
 40
2455554.467185567
  9
$TDINDWG
 40
0.1111431019
  9
$TDUSRTIMER
 40
0.1111431019
  9
$USRTIMER
 70
     1
  9
$ANGBASE
 50
0.0
  9
$ANGDIR
 70
     0
  9
$PDMODE
 70
     0
  9
$PDSIZE
 40
0.0
  9
$PLINEWID
 40
0.0
  9
$SPLFRAME
 70
     0
  9
$SPLINETYPE
 70
     6
  9
$SPLINESEGS
 70
     8
  9
$HANDSEED
  5
1EF8
  9
$SURFTAB1
 70
     6
  9
$SURFTAB2
 70
     6
  9
$SURFTYPE
 70
     6
  9
$SURFU
 70
     6
  9
$SURFV
 70
     6
  9
$UCSBASE
  2

  9
$UCSNAME
  2

  9
$UCSORG
 10
0.0
 20
0.0
 30
0.0
  9
$UCSXDIR
 10
1.0
 20
0.0
 30
0.0
  9
$UCSYDIR
 10
0.0
 20
1.0
 30
0.0
  9
$UCSORTHOREF
  2

  9
$UCSORTHOVIEW
 70
     0
  9
$UCSORGTOP
 10
0.0
 20
0.0
 30
0.0
  9
$UCSORGBOTTOM
 10
0.0
 20
0.0
 30
0.0
  9
$UCSORGLEFT
 10
0.0
 20
0.0
 30
0.0
  9
$UCSORGRIGHT
 10
0.0
 20
0.0
 30
0.0
  9
$UCSORGFRONT
 10
0.0
 20
0.0
 30
0.0
  9
$UCSORGBACK
 10
0.0
 20
0.0
 30
0.0
  9
$PUCSBASE
  2

  9
$PUCSNAME
  2

  9
$PUCSORG
 10
0.0
 20
0.0
 30
0.0
  9
$PUCSXDIR
 10
1.0
 20
0.0
 30
0.0
  9
$PUCSYDIR
 10
0.0
 20
1.0
 30
0.0
  9
$PUCSORTHOREF
  2

  9
$PUCSORTHOVIEW
 70
     0
  9
$PUCSORGTOP
 10
0.0
 20
0.0
 30
0.0
  9
$PUCSORGBOTTOM
 10
0.0
 20
0.0
 30
0.0
  9
$PUCSORGLEFT
 10
0.0
 20
0.0
 30
0.0
  9
$PUCSORGRIGHT
 10
0.0
 20
0.0
 30
0.0
  9
$PUCSORGFRONT
 10
0.0
 20
0.0
 30
0.0
  9
$PUCSORGBACK
 10
0.0
 20
0.0
 30
0.0
  9
$USERI1
 70
     0
  9
$USERI2
 70
     0
  9
$USERI3
 70
     0
  9
$USERI4
 70
     0
  9
$USERI5
 70
     0
  9
$USERR1
 40
0.0
  9
$USERR2
 40
0.0
  9
$USERR3
 40
0.0
  9
$USERR4
 40
0.0
  9
$USERR5
 40
0.0
  9
$WORLDVIEW
 70
     1
  9
$SHADEDGE
 70
     3
  9
$SHADEDIF
 70
    70
  9
$TILEMODE
 70
     1
  9
$MAXACTVP
 70
    16
  9
$PINSBASE
 10
0.0
 20
0.0
 30
0.0
  9
$PLIMCHECK
 70
     0
  9
$PEXTMIN
 10
1.000000000000000E+20
 20
1.000000000000000E+20
 30
1.000000000000000E+20
  9
$PEXTMAX
 10
-1.000000000000000E+20
 20
-1.000000000000000E+20
 30
-1.000000000000000E+20
  9
$PLIMMIN
 10
0.0
 20
0.0
  9
$PLIMMAX
 10
12.0
 20
9.0
  9
$UNITMODE
 70
     0
  9
$VISRETAIN
 70
     0
  9
$PLINEGEN
 70
     0
  9
$PSLTSCALE
 70
     0
  9
$TREEDEPTH
 70
  3020
  9
$CMLSTYLE
  2
Standard
  9
$CMLJUST
 70
     0
  9
$CMLSCALE
 40
1.0
  9
$PROXYGRAPHICS
 70
     1
  9
$MEASUREMENT
 70
     0
  9
$CELWEIGHT
370
    -1
  9
$ENDCAPS
280
     0
  9
$JOINSTYLE
280
     0
  9
$LWDISPLAY
290
     0
  9
$INSUNITS
 70
     0
  9
$HYPERLINKBASE
  1

  9
$STYLESHEET
  1
monochrome1.ctb
  9
$XEDIT
290
     1
  9
$CEPSNTYPE
380
     0
  9
$PSTYLEMODE
290
     1
  9
$FINGERPRINTGUID
  2
{579ED362-A60C-11D7-B633-000102183313}
  9
$VERSIONGUID
  2
{6A107B40-DD30-4E12-A1C3-0115D8498F2B}
  9
$EXTNAMES
290
     1
  9
$PSVPSCALE
 40
0.0
  9
$OLESTARTUP
290
     0
  9
$SORTENTS
280
    96
  9
$INDEXCTL
280
     0
  9
$HIDETEXT
280
     0
  9
$XCLIPFRAME
290
     0
  9
$HALOGAP
280
     0
  9
$OBSCOLOR
 70
   257
  9
$OBSLTYPE
280
     0
  9
$INTERSECTIONDISPLAY
280
     0
  9
$INTERSECTIONCOLOR
 70
   257
  9
$DIMASSOC
280
     1
  9
$PROJECTNAME
  1

  0
ENDSEC
  0
SECTION
  2
CLASSES
  0
CLASS
  1
ACDBDICTIONARYWDFLT
  2
AcDbDictionaryWithDefault
  3
ObjectDBX Classes
 90
        0
 91
        1
280
     0
281
     0
  0
CLASS
  1
DICTIONARYVAR
  2
AcDbDictionaryVar
  3
ObjectDBX Classes
 90
        0
 91
        3
280
     0
281
     0
  0
ENDSEC
  0
SECTION
  2
TABLES
  0
TABLE
  2
VPORT
  5
105E
330
0
100
AcDbSymbolTable
 70
     2
  0
VPORT
  5
1EF7
330
105E
100
AcDbSymbolTableRecord
100
AcDbViewportTableRecord
  2
*Active
 70
     0
 10
0.0
 20
0.0
 11
1.0
 21
1.0
 12
419.9679633889288
 22
296.9773455393137
 13
0.0
 23
0.0
 14
1.0
 24
1.0
 15
10.0
 25
10.0
 16
0.0
 26
0.0
 36
1.0
 17
0.0
 27
0.0
 37
0.0
 40
632.1497986303288
 41
1.336927223719676
 42
50.0
 43
0.0
 44
0.0
 50
0.0
 51
0.0
 71
     0
 72
  1500
 73
     1
 74
     0
 75
     0
 76
     0
 77
     0
 78
     0
281
     0
 65
     1
110
0.0
120
0.0
130
0.0
111
1.0
121
0.0
131
0.0
112
0.0
122
1.0
132
0.0
 79
     0
146
0.0
  0
ENDTAB
  0
TABLE
  2
LTYPE
  5
105B
330
0
100
AcDbSymbolTable
 70
     2
  0
LTYPE
  5
1069
330
105B
100
AcDbSymbolTableRecord
100
AcDbLinetypeTableRecord
  2
ByBlock
 70
     0
  3

 72
    65
 73
     0
 40
0.0
  0
LTYPE
  5
106A
330
105B
100
AcDbSymbolTableRecord
100
AcDbLinetypeTableRecord
  2
ByLayer
 70
     0
  3

 72
    65
 73
     0
 40
0.0
  0
LTYPE
  5
106B
330
105B
100
AcDbSymbolTableRecord
100
AcDbLinetypeTableRecord
  2
CONTINUOUS
 70
     0
  3
Solid line
 72
    65
 73
     0
 40
0.0
  0
LTYPE
  5
1092
330
105B
100
AcDbSymbolTableRecord
100
AcDbLinetypeTableRecord
  2
STRICHPUNKT
 70
     0
  3
__ . __ . __ . __ . __ . __ . __ . __ . __ . __
 72
    65
 73
     4
 40
1.0
 49
0.5
 74
     0
 49
-0.25
 74
     0
 49
0.0
 74
     0
 49
-0.25
 74
     0
  0
ENDTAB
  0
TABLE
  2
LAYER
  5
1058
330
0
100
AcDbSymbolTable
 70
     9
  0
LAYER
  5
1066
330
1058
100
AcDbSymbolTableRecord
100
AcDbLayerTableRecord
  2
0
 70
     0
 62
     7
  6
CONTINUOUS
370
    -3
390
1065
  0
LAYER
  5
1096
330
1058
100
AcDbSymbolTableRecord
100
AcDbLayerTableRecord
  2
VOLL
 70
     0
 62
     1
  6
CONTINUOUS
370
    -3
390
1065
  0
LAYER
  5
1097
330
1058
100
AcDbSymbolTableRecord
100
AcDbLayerTableRecord
  2
HILF
 70
     0
 62
     2
  6
CONTINUOUS
370
    -3
390
1065
  0
LAYER
  5
1098
330
1058
100
AcDbSymbolTableRecord
100
AcDbLayerTableRecord
  2
MITTEL
 70
     0
 62
     2
  6
STRICHPUNKT
370
    -3
390
1065
  0
LAYER
  5
1099
330
1058
100
AcDbSymbolTableRecord
100
AcDbLayerTableRecord
  2
BEM
 70
     0
 62
     7
  6
CONTINUOUS
370
    -3
390
1065
  0
LAYER
  5
109A
330
1058
100
AcDbSymbolTableRecord
100
AcDbLayerTableRecord
  2
STEMPEL
 70
     0
 62
     3
  6
CONTINUOUS
370
    -3
390
1065
  0
LAYER
  5
109B
330
1058
100
AcDbSymbolTableRecord
100
AcDbLayerTableRecord
  2
TEXT
 70
     0
 62
     7
  6
CONTINUOUS
370
    -3
390
1065
  0
LAYER
  5
109C
330
1058
100
AcDbSymbolTableRecord
100
AcDbLayerTableRecord
  2
SCHRAFF
 70
     0
 62
     7
  6
CONTINUOUS
370
    -3
390
1065
  0
LAYER
  5
109D
330
1058
100
AcDbSymbolTableRecord
100
AcDbLayerTableRecord
  2
DEFPOINTS
 70
     0
 62
     7
  6
CONTINUOUS
290
     0
370
    -3
390
1065
  0
ENDTAB
  0
TABLE
  2
STYLE
  5
1059
330
0
100
AcDbSymbolTable
 70
     2
  0
STYLE
  5
1067
330
1059
100
AcDbSymbolTableRecord
100
AcDbTextStyleTableRecord
  2
STANDARD
 70
     0
 40
0.0
 41
1.0
 50
0.0
 71
     0
 42
3.5
  3
txt
  4

  0
STYLE
  5
1091
330
1059
100
AcDbSymbolTableRecord
100
AcDbTextStyleTableRecord
  2
GREEKS
 70
     0
 40
0.0
 41
0.8
 50
0.0
 71
     0
 42
2.5
  3
SIMPLEX.shx
  4

  0
ENDTAB
  0
TABLE
  2
VIEW
  5
105C
330
0
100
AcDbSymbolTable
 70
     0
  0
ENDTAB
  0
TABLE
  2
UCS
  5
105D
330
0
100
AcDbSymbolTable
 70
     0
  0
ENDTAB
  0
TABLE
  2
APPID
  5
105F
330
0
100
AcDbSymbolTable
 70
     1
  0
APPID
  5
1068
330
105F
100
AcDbSymbolTableRecord
100
AcDbRegAppTableRecord
  2
ACAD
 70
     0
  0
ENDTAB
  0
TABLE
  2
DIMSTYLE
  5
1060
330
0
100
AcDbSymbolTable
 70
     1
100
AcDbDimStyleTable
 71
     1
340
1095
  0
DIMSTYLE
105
1095
102
{ACAD_REACTORS
330
1205
330
B05
330
B02
330
121F
330
13AC
330
13B9
330
19C8
330
19D6
330
1C85
102
}
330
1060
100
AcDbSymbolTableRecord
100
AcDbDimStyleTableRecord
  2
STANDARD
 70
     0
 40
2.0
 41
3.5
 42
1.0
 44
1.0
 73
     0
 74
     0
 77
     1
 78
     8
 79
     2
140
3.5
146
0.5142857142857144
147
1.5
172
     1
178
     1
271
     2
272
     2
279
     2
284
     8
285
     8
286
     8
289
     0
340
1091
  0
ENDTAB
  0
TABLE
  2
BLOCK_RECORD
  5
1057
330
0
100
AcDbSymbolTable
 70
    10
  0
BLOCK_RECORD
  5
1074
102
{ACAD_XDICTIONARY
360
16E8
102
}
330
1057
100
AcDbSymbolTableRecord
100
AcDbBlockTableRecord
  2
*Model_Space
340
1077
  0
BLOCK_RECORD
  5
1070
102
{ACAD_XDICTIONARY
360
16EA
102
}
330
1057
100
AcDbSymbolTableRecord
100
AcDbBlockTableRecord
  2
*Paper_Space
340
1073
  0
BLOCK_RECORD
  5
1078
330
1057
100
AcDbSymbolTableRecord
100
AcDbBlockTableRecord
  2
LOGO
340
0
102
{BLKREFS
331
54A
102
}
  0
BLOCK_RECORD
  5
1206
330
1057
100
AcDbSymbolTableRecord
100
AcDbBlockTableRecord
  2
*D1
340
0
  0
BLOCK_RECORD
  5
1220
330
1057
100
AcDbSymbolTableRecord
100
AcDbBlockTableRecord
  2
*D2
340
0
  0
BLOCK_RECORD
  5
126D
330
1057
100
AcDbSymbolTableRecord
100
AcDbBlockTableRecord
  2
*D3
340
0
  0
BLOCK_RECORD
  5
12B5
330
1057
100
AcDbSymbolTableRecord
100
AcDbBlockTableRecord
  2
*D4
340
0
  0
BLOCK_RECORD
  5
13AD
330
1057
100
AcDbSymbolTableRecord
100
AcDbBlockTableRecord
  2
*D5
340
0
  0
BLOCK_RECORD
  5
13BA
330
1057
100
AcDbSymbolTableRecord
100
AcDbBlockTableRecord
  2
*D6
340
0
  0
BLOCK_RECORD
  5
19E6
330
1057
100
AcDbSymbolTableRecord
100
AcDbBlockTableRecord
  2
*D7
340
0
  0
BLOCK_RECORD
  5
19FE
330
1057
100
AcDbSymbolTableRecord
100
AcDbBlockTableRecord
  2
*D8
340
0
  0
BLOCK_RECORD
  5
1C86
330
1057
100
AcDbSymbolTableRecord
100
AcDbBlockTableRecord
  2
*D9
340
0
  0
ENDTAB
  0
ENDSEC
  0
SECTION
  2
BLOCKS
  0
BLOCK
  5
10A0
330
1074
100
AcDbEntity
  8
0
100
AcDbBlockBegin
  2
*Model_Space
 70
     0
 10
0.0
 20
0.0
 30
0.0
  3
*Model_Space
  1

  0
ENDBLK
  5
10A1
330
1074
100
AcDbEntity
  8
0
100
AcDbBlockEnd
  0
BLOCK
  5
109E
330
1070
100
AcDbEntity
 67
     1
  8
0
100
AcDbBlockBegin
  2
*Paper_Space
 70
     0
 10
0.0
 20
0.0
 30
0.0
  3
*Paper_Space
  1

  0
ENDBLK
  5
109F
330
1070
100
AcDbEntity
 67
     1
  8
0
100
AcDbBlockEnd
  0
BLOCK
  5
4B
330
1078
100
AcDbEntity
  8
0
100
AcDbBlockBegin
  2
LOGO
 70
     0
 10
0.0
 20
0.0
 30
0.0
  3
LOGO
  1

  0
ARC
  5
4C
330
1078
100
AcDbEntity
  8
0
100
AcDbCircle
 10
11.59973089678112
 20
-9.271599258481501
 30
0.0
 40
4.5
100
AcDbArc
 50
270.0
 51
231.0575587310159
  0
LINE
  5
4D
330
1078
100
AcDbEntity
  8
0
100
AcDbLine
 10
3.599730896781125
 20
-4.771599258481529
 30
0.0
 11
3.599730896781153
 21
-11.77159925848133
 31
0.0
  0
LINE
  5
4E
330
1078
100
AcDbEntity
  8
0
100
AcDbLine
 10
2.599730896781125
 20
-4.771599258481529
 30
0.0
 11
2.599730896781153
 21
-11.77159925848133
 31
0.0
  0
CIRCLE
  5
4F
330
1078
100
AcDbEntity
  8
0
100
AcDbCircle
 10
11.59973089678112
 20
-9.271599258481501
 30
0.0
 40
3.5
  0
ARC
  5
50
330
1078
100
AcDbEntity
  8
0
100
AcDbCircle
 10
31.59973089678115
 20
-9.271599258481472
 30
0.0
 40
4.5
100
AcDbArc
 50
270.0
 51
231.0575587310182
  0
LINE
  5
51
330
1078
100
AcDbEntity
  8
0
100
AcDbLine
 10
17.59973089678112
 20
-4.771599258481472
 30
0.0
 11
17.59973089678115
 21
-13.77159925848147
 31
0.0
  0
ARC
  5
52
330
1078
100
AcDbEntity
  8
0
100
AcDbCircle
 10
22.59973089678116
 20
-7.271599258481472
 30
0.0
 40
2.5
100
AcDbArc
 50
293.1161887722295
 51
90.0
  0
CIRCLE
  5
53
330
1078
100
AcDbEntity
  8
0
100
AcDbCircle
 10
31.59973089678115
 20
-9.271599258481472
 30
0.0
 40
3.5
  0
ARC
  5
54
330
1078
100
AcDbEntity
  8
0
100
AcDbCircle
 10
4.599730896781153
 20
-11.77159925848133
 30
0.0
 40
1.0
100
AcDbArc
 50
180.0
 51
270.0
  0
ARC
  5
55
330
1078
100
AcDbEntity
  8
0
100
AcDbCircle
 10
4.599730896781153
 20
-11.77159925848133
 30
0.0
 40
2.0
100
AcDbArc
 50
179.9999999999992
 51
270.0
  0
LINE
  5
56
330
1078
100
AcDbEntity
  8
0
100
AcDbLine
 10
11.59973089678115
 20
-13.77159925848144
 30
0.0
 11
4.599730896781153
 21
-13.77159925848147
 31
0.0
  0
LINE
  5
57
330
1078
100
AcDbEntity
  8
0
100
AcDbLine
 10
8.771303772034769
 20
-12.77159925848136
 30
0.0
 11
4.599730896781153
 21
-12.77159925848133
 31
0.0
  0
LINE
  5
58
330
1078
100
AcDbEntity
  8
0
100
AcDbLine
 10
31.59973089678115
 20
-13.77159925848147
 30
0.0
 11
23.6715276665056
 21
-13.77159925848144
 31
0.0
  0
LINE
  5
59
330
1078
100
AcDbEntity
  8
0
100
AcDbLine
 10
23.56565672307022
 20
-9.51278021337896
 30
0.0
 11
24.4388546544846
 21
-12.77159925848144
 31
0.0
  0
LINE
  5
5A
330
1078
100
AcDbEntity
  8
0
100
AcDbLine
 10
22.59973089678116
 20
-9.771599258481472
 30
0.0
 11
18.59973089678112
 21
-9.771599258481472
 31
0.0
  0
LINE
  5
5B
330
1078
100
AcDbEntity
  8
0
100
AcDbLine
 10
18.59973089678115
 20
-13.77159925848144
 30
0.0
 11
17.59973089678115
 21
-13.77159925848144
 31
0.0
  0
LINE
  5
5C
330
1078
100
AcDbEntity
  8
0
100
AcDbLine
 10
18.59973089678115
 20
-9.771599258481472
 30
0.0
 11
18.59973089678115
 21
-13.77159925848144
 31
0.0
  0
LINE
  5
5D
330
1078
100
AcDbEntity
  8
0
100
AcDbLine
 10
22.59973089678116
 20
-9.771599258481472
 30
0.0
 11
23.67152766650562
 21
-13.77159925848147
 31
0.0
  0
ARC
  5
5E
330
1078
100
AcDbEntity
  8
0
100
AcDbCircle
 10
22.59973089678116
 20
-7.271599258481472
 30
0.0
 40
2.5
100
AcDbArc
 50
270.0
 51
270.0000000000007
  0
LINE
  5
5F
330
1078
100
AcDbEntity
  8
0
100
AcDbLine
 10
28.77130377203494
 20
-12.77159925848147
 30
0.0
 11
24.43885465448463
 21
-12.77159925848144
 31
0.0
  0
LINE
  5
60
330
1078
100
AcDbEntity
  8
0
100
AcDbLine
 10
3.599730896781125
 20
-4.771599258481472
 30
0.0
 11
2.599730896781125
 21
-4.771599258481472
 31
0.0
  0
LINE
  5
61
330
1078
100
AcDbEntity
  8
0
100
AcDbLine
 10
22.59973089678116
 20
-8.771599258481472
 30
0.0
 11
18.59973089678115
 21
-8.771599258481472
 31
0.0
  0
LINE
  5
62
330
1078
100
AcDbEntity
  8
0
100
AcDbLine
 10
22.59973089678116
 20
-5.771599258481472
 30
0.0
 11
18.59973089678115
 21
-5.771599258481472
 31
0.0
  0
LINE
  5
63
330
1078
100
AcDbEntity
  8
0
100
AcDbLine
 10
22.59973089678116
 20
-4.771599258481472
 30
0.0
 11
17.59973089678115
 21
-4.771599258481472
 31
0.0
  0
LINE
  5
64
330
1078
100
AcDbEntity
  8
0
100
AcDbLine
 10
18.59973089678115
 20
-5.771599258481472
 30
0.0
 11
18.59973089678115
 21
-8.771599258481472
 31
0.0
  0
ARC
  5
65
330
1078
100
AcDbEntity
  8
0
100
AcDbCircle
 10
22.59973089678116
 20
-7.271599258481472
 30
0.0
 40
1.5
100
AcDbArc
 50
270.0
 51
90.0
  0
ENDBLK
  5
66
330
1078
100
AcDbEntity
  8
0
100
AcDbBlockEnd
  0
BLOCK
  5
1210
330
1206
100
AcDbEntity
  8
0
100
AcDbBlockBegin
  2
*D1
 70
     1
 10
0.0
 20
0.0
 30
0.0
  3
*D1
  1

  0
LINE
  5
1C73
330
1206
100
AcDbEntity
  8
BEM
 62
     0
370
    -2
100
AcDbLine
 10
146.1038820192584
 20
272.9037278421336
 30
0.0
 11
53.01502184746643
 21
272.9037278421336
 31
0.0
  0
LINE
  5
1C74
330
1206
100
AcDbEntity
  8
BEM
 62
     0
370
    -2
100
AcDbLine
 10
69.10388201925844
 20
333.9037278421336
 30
0.0
 11
53.01502184746644
 21
333.9037278421336
 31
0.0
  0
LINE
  5
1C75
330
1206
100
AcDbEntity
  8
BEM
 62
     0
370
    -2
100
AcDbLine
 10
55.01502184746644
 20
279.9037278421336
 30
0.0
 11
55.01502184746644
 21
326.9037278421336
 31
0.0
  0
SOLID
  5
1C76
330
1206
100
AcDbEntity
  8
BEM
 62
     0
100
AcDbTrace
 10
53.84835518079977
 20
279.9037278421336
 30
0.0
 11
56.1816885141331
 21
279.9037278421336
 31
0.0
 12
55.01502184746644
 22
272.9037278421336
 32
0.0
 13
55.01502184746644
 23
272.9037278421336
 33
0.0
  0
SOLID
  5
1C77
330
1206
100
AcDbEntity
  8
BEM
 62
     0
100
AcDbTrace
 10
53.84835518079977
 20
326.9037278421336
 30
0.0
 11
56.18168851413311
 21
326.9037278421336
 31
0.0
 12
55.01502184746644
 22
333.9037278421336
 32
0.0
 13
55.01502184746644
 23
333.9037278421336
 33
0.0
  0
MTEXT
  5
1C78
330
1206
100
AcDbEntity
  8
BEM
 62
     1
100
AcDbMText
 10
48.51502184746639
 20
303.4037278421335
 30
0.0
 40
7.0
 41
0.0
 71
     5
 72
     1
  1
\A1;61
  7
GREEKS
 11
0.0000000000000001
 21
1.0
 31
0.0
 73
     1
 44
1.0
  0
POINT
  5
1C79
330
1206
100
AcDbEntity
  8
DEFPOINTS
 62
     0
100
AcDbPoint
 10
148.1038820192584
 20
272.9037278421336
 30
0.0
  0
POINT
  5
1C7A
330
1206
100
AcDbEntity
  8
DEFPOINTS
 62
     0
100
AcDbPoint
 10
71.10388201925843
 20
333.9037278421336
 30
0.0
  0
POINT
  5
1C7B
330
1206
100
AcDbEntity
  8
DEFPOINTS
 62
     0
100
AcDbPoint
 10
55.01502184746644
 20
333.9037278421336
 30
0.0
  0
ENDBLK
  5
1211
330
1206
100
AcDbEntity
  8
0
100
AcDbBlockEnd
  0
BLOCK
  5
122A
330
1220
100
AcDbEntity
  8
0
100
AcDbBlockBegin
  2
*D2
 70
     1
 10
0.0
 20
0.0
 30
0.0
  3
*D2
  1

  0
LINE
  5
1DC2
330
1220
100
AcDbEntity
  8
BEM
 62
     0
370
    -2
100
AcDbLine
 10
75.10388201925843
 20
339.403727842134
 30
0.0
 11
53.03151236885649
 21
339.403727842134
 31
0.0
  0
LINE
  5
1DC3
330
1220
100
AcDbEntity
  8
BEM
 62
     0
370
    -2
100
AcDbLine
 10
122.103882019258
 20
450.4037278421353
 30
0.0
 11
53.03151236885651
 21
450.4037278421353
 31
0.0
  0
LINE
  5
1DC4
330
1220
100
AcDbEntity
  8
BEM
 62
     0
370
    -2
100
AcDbLine
 10
55.03151236885649
 20
346.403727842134
 30
0.0
 11
55.03151236885651
 21
443.4037278421353
 31
0.0
  0
MTEXT
  5
1DC5
330
1220
100
AcDbEntity
  8
BEM
 62
     1
100
AcDbMText
 10
47.57256901213486
 20
390.3253263915055
 30
0.0
 40
7.0
 41
0.0
 71
     5
 72
     1
  1
\A1;110
  7
GREEKS
 11
0.0000000000000001
 21
1.0
 31
0.0
 73
     1
 44
1.0
  0
SOLID
  5
1DC6
330
1220
100
AcDbEntity
  8
BEM
 62
     0
100
AcDbTrace
 10
53.86484570218982
 20
346.403727842134
 30
0.0
 11
56.19817903552315
 21
346.403727842134
 31
0.0
 12
55.03151236885649
 22
339.403727842134
 32
0.0
 13
55.03151236885649
 23
339.403727842134
 33
0.0
  0
SOLID
  5
1DC7
330
1220
100
AcDbEntity
  8
BEM
 62
     0
100
AcDbTrace
 10
53.86484570218985
 20
443.4037278421353
 30
0.0
 11
56.19817903552317
 21
443.4037278421353
 31
0.0
 12
55.03151236885651
 22
450.4037278421353
 32
0.0
 13
55.03151236885651
 23
450.4037278421353
 33
0.0
  0
POINT
  5
1DC8
330
1220
100
AcDbEntity
  8
DEFPOINTS
 62
     0
100
AcDbPoint
 10
77.10388201925844
 20
339.403727842134
 30
0.0
  0
POINT
  5
1DC9
330
1220
100
AcDbEntity
  8
DEFPOINTS
 62
     0
100
AcDbPoint
 10
124.103882019258
 20
450.4037278421353
 30
0.0
  0
POINT
  5
1DCA
330
1220
100
AcDbEntity
  8
DEFPOINTS
 62
     0
100
AcDbPoint
 10
55.03151236885651
 20
450.4037278421353
 30
0.0
  0
ENDBLK
  5
122B
330
1220
100
AcDbEntity
  8
0
100
AcDbBlockEnd
  0
BLOCK
  5
1277
330
126D
100
AcDbEntity
  8
0
100
AcDbBlockBegin
  2
*D3
 70
     1
 10
0.0
 20
0.0
 30
0.0
  3
*D3
  1

  0
LINE
  5
1AE1
330
126D
100
AcDbEntity
  8
BEM
 62
     0
370
    -2
100
AcDbLine
 10
354.1038820192587
 20
338.9037278421335
 30
0.0
 11
354.1038820192587
 21
192.1169329568399
 31
0.0
  0
LINE
  5
1AE2
330
126D
100
AcDbEntity
  8
BEM
 62
     0
370
    -2
100
AcDbLine
 10
69.10388201925844
 20
325.9037278421335
 30
0.0
 11
69.10388201925842
 21
192.1169329568399
 31
0.0
  0
LINE
  5
1AE3
330
126D
100
AcDbEntity
  8
BEM
 62
     0
370
    -2
100
AcDbLine
 10
347.1038820192587
 20
194.1169329568399
 30
0.0
 11
76.10388201925842
 21
194.1169329568399
 31
0.0
  0
SOLID
  5
1AE4
330
126D
100
AcDbEntity
  8
BEM
 62
     0
100
AcDbTrace
 10
347.1038820192587
 20
195.2835996235066
 30
0.0
 11
347.1038820192587
 21
192.9502662901733
 31
0.0
 12
354.1038820192587
 22
194.1169329568399
 32
0.0
 13
354.1038820192587
 23
194.1169329568399
 33
0.0
  0
SOLID
  5
1AE5
330
126D
100
AcDbEntity
  8
BEM
 62
     0
100
AcDbTrace
 10
76.10388201925842
 20
195.2835996235066
 30
0.0
 11
76.10388201925842
 21
192.9502662901733
 31
0.0
 12
69.10388201925842
 22
194.1169329568399
 32
0.0
 13
69.10388201925842
 23
194.1169329568399
 33
0.0
  0
MTEXT
  5
1AE6
330
126D
100
AcDbEntity
  8
BEM
 62
     1
100
AcDbMText
 10
211.6038820192585
 20
200.6169329568399
 30
0.0
 40
7.0
 41
0.0
 71
     5
 72
     1
  1
\A1;285
  7
GREEKS
 73
     1
 44
1.0
  0
POINT
  5
1AE7
330
126D
100
AcDbEntity
  8
DEFPOINTS
 62
     0
100
AcDbPoint
 10
354.1038820192587
 20
340.9037278421335
 30
0.0
  0
POINT
  5
1AE8
330
126D
100
AcDbEntity
  8
DEFPOINTS
 62
     0
100
AcDbPoint
 10
69.10388201925844
 20
327.9037278421335
 30
0.0
  0
POINT
  5
1AE9
330
126D
100
AcDbEntity
  8
DEFPOINTS
 62
     0
100
AcDbPoint
 10
69.10388201925842
 20
194.1169329568399
 30
0.0
  0
ENDBLK
  5
1278
330
126D
100
AcDbEntity
  8
0
100
AcDbBlockEnd
  0
BLOCK
  5
12BF
330
12B5
100
AcDbEntity
  8
0
100
AcDbBlockBegin
  2
*D4
 70
     1
 10
0.0
 20
0.0
 30
0.0
  3
*D4
  1

  0
LINE
  5
1B0E
330
12B5
100
AcDbEntity
  8
BEM
 62
     0
370
    -2
100
AcDbLine
 10
343.1038820192584
 20
327.9037278421335
 30
0.0
 11
372.2938312428172
 21
327.9037278421335
 31
0.0
  0
LINE
  5
1B0F
330
12B5
100
AcDbEntity
  8
BEM
 62
     0
370
    -2
100
AcDbLine
 10
356.103882019258
 20
432.9037278421335
 30
0.0
 11
372.2938312428173
 21
432.9037278421335
 31
0.0
  0
LINE
  5
1B10
330
12B5
100
AcDbEntity
  8
BEM
 62
     0
370
    -2
100
AcDbLine
 10
370.2938312428172
 20
334.9037278421335
 30
0.0
 11
370.2938312428173
 21
425.9037278421335
 31
0.0
  0
SOLID
  5
1B11
330
12B5
100
AcDbEntity
  8
BEM
 62
     0
100
AcDbTrace
 10
369.1271645761505
 20
334.9037278421335
 30
0.0
 11
371.4604979094839
 21
334.9037278421335
 31
0.0
 12
370.2938312428172
 22
327.9037278421335
 32
0.0
 13
370.2938312428172
 23
327.9037278421335
 33
0.0
  0
SOLID
  5
1B12
330
12B5
100
AcDbEntity
  8
BEM
 62
     0
100
AcDbTrace
 10
369.1271645761506
 20
425.9037278421335
 30
0.0
 11
371.4604979094839
 21
425.9037278421335
 31
0.0
 12
370.2938312428173
 22
432.9037278421335
 32
0.0
 13
370.2938312428173
 23
432.9037278421335
 33
0.0
  0
MTEXT
  5
1B13
330
12B5
100
AcDbEntity
  8
BEM
 62
     1
100
AcDbMText
 10
363.7938312428171
 20
380.4037278421336
 30
0.0
 40
7.0
 41
0.0
 71
     5
 72
     1
  1
\A1;105
  7
GREEKS
 11
0.0000000000000001
 21
1.0
 31
0.0
 73
     1
 44
1.0
  0
POINT
  5
1B14
330
12B5
100
AcDbEntity
  8
DEFPOINTS
 62
     0
100
AcDbPoint
 10
341.1038820192584
 20
327.9037278421335
 30
0.0
  0
POINT
  5
1B15
330
12B5
100
AcDbEntity
  8
DEFPOINTS
 62
     0
100
AcDbPoint
 10
354.103882019258
 20
432.9037278421335
 30
0.0
  0
POINT
  5
1B16
330
12B5
100
AcDbEntity
  8
DEFPOINTS
 62
     0
100
AcDbPoint
 10
370.2938312428173
 20
432.9037278421335
 30
0.0
  0
ENDBLK
  5
12C0
330
12B5
100
AcDbEntity
  8
0
100
AcDbBlockEnd
  0
BLOCK
  5
13B7
330
13AD
100
AcDbEntity
  8
0
100
AcDbBlockBegin
  2
*D5
 70
     1
 10
0.0
 20
0.0
 30
0.0
  3
*D5
  1

  0
LINE
  5
1AEA
330
13AD
100
AcDbEntity
  8
BEM
 62
     0
370
    -2
100
AcDbLine
 10
94.10388201925798
 20
432.4036698748198
 30
0.0
 11
94.10388201925798
 21
467.6622202721732
 31
0.0
  0
LINE
  5
1AEB
330
13AD
100
AcDbEntity
  8
BEM
 62
     0
370
    -2
100
AcDbLine
 10
314.1038820192584
 20
432.4036698748198
 30
0.0
 11
314.1038820192584
 21
467.6622202721732
 31
0.0
  0
LINE
  5
1AEC
330
13AD
100
AcDbEntity
  8
BEM
 62
     0
370
    -2
100
AcDbLine
 10
101.1038820192579
 20
465.6622202721733
 30
0.0
 11
307.1038820192584
 21
465.6622202721733
 31
0.0
  0
SOLID
  5
1AED
330
13AD
100
AcDbEntity
  8
BEM
 62
     0
100
AcDbTrace
 10
101.1038820192579
 20
466.8288869388399
 30
0.0
 11
101.1038820192579
 21
464.4955536055065
 31
0.0
 12
94.10388201925798
 22
465.6622202721733
 32
0.0
 13
94.10388201925798
 23
465.6622202721733
 33
0.0
  0
SOLID
  5
1AEE
330
13AD
100
AcDbEntity
  8
BEM
 62
     0
100
AcDbTrace
 10
307.1038820192584
 20
466.8288869388399
 30
0.0
 11
307.1038820192584
 21
464.4955536055065
 31
0.0
 12
314.1038820192584
 22
465.6622202721733
 32
0.0
 13
314.1038820192584
 23
465.6622202721733
 33
0.0
  0
MTEXT
  5
1AEF
330
13AD
100
AcDbEntity
  8
BEM
 62
     1
100
AcDbMText
 10
204.1038820192582
 20
472.1622202721732
 30
0.0
 40
7.0
 41
0.0
 71
     5
 72
     1
  1
\A1;%%C220
  7
GREEKS
 73
     1
 44
1.0
  0
POINT
  5
1AF0
330
13AD
100
AcDbEntity
  8
DEFPOINTS
 62
     0
100
AcDbPoint
 10
94.10388201925798
 20
430.4036698748197
 30
0.0
  0
POINT
  5
1AF1
330
13AD
100
AcDbEntity
  8
DEFPOINTS
 62
     0
100
AcDbPoint
 10
314.1038820192584
 20
430.4036698748197
 30
0.0
  0
POINT
  5
1AF2
330
13AD
100
AcDbEntity
  8
DEFPOINTS
 62
     0
100
AcDbPoint
 10
314.1038820192584
 20
465.6622202721733
 30
0.0
  0
ENDBLK
  5
13B8
330
13AD
100
AcDbEntity
  8
0
100
AcDbBlockEnd
  0
BLOCK
  5
13C4
330
13BA
100
AcDbEntity
  8
0
100
AcDbBlockBegin
  2
*D6
 70
     1
 10
0.0
 20
0.0
 30
0.0
  3
*D6
  1

  0
LINE
  5
1AF3
330
13BA
100
AcDbEntity
  8
BEM
 62
     0
370
    -2
100
AcDbLine
 10
74.10388201925844
 20
363.4037278421354
 30
0.0
 11
74.10388201925845
 21
481.5004701337275
 31
0.0
  0
LINE
  5
1AF4
330
13BA
100
AcDbEntity
  8
BEM
 62
     0
370
    -2
100
AcDbLine
 10
334.103882019258
 20
363.4037278421354
 30
0.0
 11
334.103882019258
 21
481.5004701337275
 31
0.0
  0
LINE
  5
1AF5
330
13BA
100
AcDbEntity
  8
BEM
 62
     0
370
    -2
100
AcDbLine
 10
81.10388201925845
 20
479.5004701337274
 30
0.0
 11
327.103882019258
 21
479.5004701337274
 31
0.0
  0
SOLID
  5
1AF6
330
13BA
100
AcDbEntity
  8
BEM
 62
     0
100
AcDbTrace
 10
81.10388201925845
 20
480.6671368003941
 30
0.0
 11
81.10388201925845
 21
478.3338034670608
 31
0.0
 12
74.10388201925845
 22
479.5004701337274
 32
0.0
 13
74.10388201925845
 23
479.5004701337274
 33
0.0
  0
SOLID
  5
1AF7
330
13BA
100
AcDbEntity
  8
BEM
 62
     0
100
AcDbTrace
 10
327.103882019258
 20
480.6671368003941
 30
0.0
 11
327.103882019258
 21
478.3338034670608
 31
0.0
 12
334.103882019258
 22
479.5004701337274
 32
0.0
 13
334.103882019258
 23
479.5004701337274
 33
0.0
  0
MTEXT
  5
1AF8
330
13BA
100
AcDbEntity
  8
BEM
 62
     1
100
AcDbMText
 10
204.1038820192582
 20
486.0004701337275
 30
0.0
 40
7.0
 41
0.0
 71
     5
 72
     1
  1
\A1;%%C260
  7
GREEKS
 73
     1
 44
1.0
  0
POINT
  5
1AF9
330
13BA
100
AcDbEntity
  8
DEFPOINTS
 62
     0
100
AcDbPoint
 10
74.10388201925844
 20
361.4037278421354
 30
0.0
  0
POINT
  5
1AFA
330
13BA
100
AcDbEntity
  8
DEFPOINTS
 62
     0
100
AcDbPoint
 10
334.103882019258
 20
361.4037278421354
 30
0.0
  0
POINT
  5
1AFB
330
13BA
100
AcDbEntity
  8
DEFPOINTS
 62
     0
100
AcDbPoint
 10
334.103882019258
 20
479.5004701337274
 30
0.0
  0
ENDBLK
  5
13C5
330
13BA
100
AcDbEntity
  8
0
100
AcDbBlockEnd
  0
BLOCK
  5
19F0
330
19E6
100
AcDbEntity
  8
0
100
AcDbBlockBegin
  2
*D7
 70
     1
 10
0.0
 20
0.0
 30
0.0
  3
*D7
  1

  0
LINE
  5
1B17
330
19E6
100
AcDbEntity
  8
BEM
 62
     0
370
    -2
100
AcDbLine
 10
794.4443415076152
 20
232.6515335516844
 30
0.0
 11
819.0999246528559
 21
231.3593891921209
 31
0.0
  0
LINE
  5
1B18
330
19E6
100
AcDbEntity
  8
BEM
 62
     0
370
    -2
100
AcDbLine
 10
799.7826090443663
 20
334.5117460966475
 30
0.0
 11
824.4381921896071
 21
333.219601737084
 31
0.0
  0
LINE
  5
1B19
330
19E6
100
AcDbEntity
  8
BEM
 62
     0
370
    -2
100
AcDbLine
 10
817.4690172770455
 20
238.4544678478885
 30
0.0
 11
822.0745814263993
 21
326.3338669062873
 31
0.0
  0
SOLID
  5
1B1A
330
19E6
100
AcDbEntity
  8
BEM
 62
     0
100
AcDbTrace
 10
816.3039494864985
 20
238.5155264635049
 30
0.0
 11
818.6340850675925
 21
238.393409232272
 31
0.0
 12
817.1026655833468
 22
231.4640611046063
 32
0.0
 13
817.1026655833468
 23
231.4640611046063
 33
0.0
  0
SOLID
  5
1B1B
330
19E6
100
AcDbEntity
  8
BEM
 62
     0
100
AcDbTrace
 10
820.9095136358524
 20
326.3949255219037
 30
0.0
 11
823.2396492169463
 21
326.2728082906708
 31
0.0
 12
822.4409331200979
 22
333.3242736495694
 32
0.0
 13
822.4409331200979
 23
333.3242736495694
 33
0.0
  0
MTEXT
  5
1B1C
330
19E6
100
AcDbEntity
  8
BEM
 62
     1
100
AcDbMText
 10
813.2807073758176
 20
282.7343510926652
 30
0.0
 40
7.0
 41
0.0
 71
     5
 72
     1
  1
\A1;%%c102
  7
GREEKS
 11
0.0523359562426606
 21
0.9986295347545887
 31
0.0
 73
     1
 44
1.0
  0
POINT
  5
1B1D
330
19E6
100
AcDbEntity
  8
DEFPOINTS
 62
     0
100
AcDbPoint
 10
792.4470824381061
 20
232.7562054641697
 30
0.0
  0
POINT
  5
1B1E
330
19E6
100
AcDbEntity
  8
DEFPOINTS
 62
     0
100
AcDbPoint
 10
797.7853499748572
 20
334.6164180091327
 30
0.0
  0
POINT
  5
1B1F
330
19E6
100
AcDbEntity
  8
DEFPOINTS
 62
     0
100
AcDbPoint
 10
822.4409331200979
 20
333.3242736495694
 30
0.0
  0
ENDBLK
  5
19F1
330
19E6
100
AcDbEntity
  8
0
100
AcDbBlockEnd
  0
BLOCK
  5
1A0B
330
19FE
100
AcDbEntity
  8
0
100
AcDbBlockBegin
  2
*D8
 70
     1
 10
0.0
 20
0.0
 30
0.0
  3
*D8
  1

  0
LINE
  5
1D81
330
19FE
100
AcDbEntity
  8
BEM
 62
     0
370
    -2
100
AcDbLine
 10
343.1038820192585
 20
307.4800899385138
 30
0.0
 11
505.3415573524981
 21
307.4800899385111
 31
0.0
  0
ARC
  5
1D82
330
19FE
100
AcDbEntity
  8
BEM
 62
     0
370
    -2
100
AcDbCircle
 10
341.1038820192585
 20
307.4800899385138
 30
0.0
 40
162.2376753332396
100
AcDbArc
 50
352.0553831293094
 51
354.5276915646546
  0
ARC
  5
1D83
330
19FE
100
AcDbEntity
  8
BEM
 62
     0
370
    -2
100
AcDbCircle
 10
341.1038820192585
 20
307.4800899385138
 30
0.0
 40
162.2376753332396
100
AcDbArc
 50
2.472308435344192
 51
4.944616870689424
  0
ARC
  5
1D84
330
19FE
100
AcDbEntity
  8
BEM
 62
     0
370
    -2
100
AcDbCircle
 10
341.1038820192585
 20
307.4800899385138
 30
0.0
 40
162.2376753332396
100
AcDbArc
 50
356.9999999999998
 51
359.9999999999991
  0
SOLID
  5
1D85
330
19FE
100
AcDbEntity
  8
BEM
 62
     0
100
AcDbTrace
 10
501.4386643618703
 20
292.0945283566272
 30
0.0
 11
503.7656231793414
 21
291.9221708611774
 31
0.0
 12
503.1192162569551
 22
298.9892260613158
 32
0.0
 13
503.1192162569551
 23
298.9892260613158
 33
0.0
  0
SOLID
  5
1D86
330
19FE
100
AcDbEntity
  8
BEM
 62
     0
100
AcDbTrace
 10
504.356939488384
 20
314.503629660705
 30
0.0
 11
502.0241491927597
 21
314.4532919900629
 31
0.0
 12
503.3415573524981
 22
307.4800899385111
 32
0.0
 13
503.3415573524981
 23
307.4800899385111
 33
0.0
  0
MTEXT
  5
1D87
330
19FE
100
AcDbEntity
  8
BEM
 62
     1
100
AcDbMText
 10
494.0483127824254
 20
291.878815473534
 30
0.0
 40
7.0
 41
0.0
 71
     5
 72
     1
  1
\A1;3°{\H3.600000;\S+0°^ -2°;}
  7
GREEKS
 11
0.1014795683340026
 21
0.994837623540015
 31
0.0
 73
     1
 44
1.0
  0
POINT
  5
1D88
330
19FE
100
AcDbEntity
  8
DEFPOINTS
 62
     0
100
AcDbPoint
 10
503.3168477687289
 20
304.648652089156
 30
0.0
  0
POINT
  5
1D89
330
19FE
100
AcDbEntity
  8
DEFPOINTS
 62
     0
100
AcDbPoint
 10
341.1038820192585
 20
307.4800899385138
 30
0.0
  0
POINT
  5
1D8A
330
19FE
100
AcDbEntity
  8
DEFPOINTS
 62
     0
100
AcDbPoint
 10
341.1038820192585
 20
307.4800899385138
 30
0.0
  0
POINT
  5
1D8B
330
19FE
100
AcDbEntity
  8
DEFPOINTS
 62
     0
100
AcDbPoint
 10
809.0970296930317
 20
282.9536083492488
 30
0.0
  0
POINT
  5
1D8C
330
19FE
100
AcDbEntity
  8
DEFPOINTS
 62
     0
100
AcDbPoint
 10
339.1038820192585
 20
307.4800899385139
 30
0.0
  0
ENDBLK
  5
1A0C
330
19FE
100
AcDbEntity
  8
0
100
AcDbBlockEnd
  0
BLOCK
  5
1C90
330
1C86
100
AcDbEntity
  8
0
100
AcDbBlockBegin
  2
*D9
 70
     1
 10
0.0
 20
0.0
 30
0.0
  3
*D9
  1

  0
LINE
  5
1DCB
330
1C86
100
AcDbEntity
  8
BEM
 62
     0
370
    -2
100
AcDbLine
 10
134.8644994744507
 20
374.4037278421338
 30
0.0
 11
66.06984779596179
 21
374.4037278421338
 31
0.0
  0
LINE
  5
1DCC
330
1C86
100
AcDbEntity
  8
BEM
 62
     0
370
    -2
100
AcDbLine
 10
75.10388201925843
 20
339.403727842134
 30
0.0
 11
66.06984779596178
 21
339.403727842134
 31
0.0
  0
LINE
  5
1DCD
330
1C86
100
AcDbEntity
  8
BEM
 62
     0
370
    -2
100
AcDbLine
 10
68.06984779596179
 20
367.4037278421338
 30
0.0
 11
68.06984779596177
 21
346.403727842134
 31
0.0
  0
SOLID
  5
1DCE
330
1C86
100
AcDbEntity
  8
BEM
 62
     0
100
AcDbTrace
 10
66.90318112929512
 20
367.4037278421338
 30
0.0
 11
69.23651446262846
 21
367.4037278421338
 31
0.0
 12
68.06984779596179
 22
374.4037278421338
 32
0.0
 13
68.06984779596179
 23
374.4037278421338
 33
0.0
  0
SOLID
  5
1DCF
330
1C86
100
AcDbEntity
  8
BEM
 62
     0
100
AcDbTrace
 10
66.9031811292951
 20
346.403727842134
 30
0.0
 11
69.23651446262844
 21
346.403727842134
 31
0.0
 12
68.06984779596177
 22
339.403727842134
 32
0.0
 13
68.06984779596177
 23
339.403727842134
 33
0.0
  0
MTEXT
  5
1DD0
330
1C86
100
AcDbEntity
  8
BEM
 62
     1
100
AcDbMText
 10
61.56984779596172
 20
356.9037278421339
 30
0.0
 40
7.0
 41
0.0
 71
     5
 72
     1
  1
\A1;35
  7
GREEKS
 11
0.0000000000000001
 21
1.0
 31
0.0
 73
     1
 44
1.0
  0
POINT
  5
1DD1
330
1C86
100
AcDbEntity
  8
DEFPOINTS
 62
     0
100
AcDbPoint
 10
136.8644994744507
 20
374.4037278421338
 30
0.0
  0
POINT
  5
1DD2
330
1C86
100
AcDbEntity
  8
DEFPOINTS
 62
     0
100
AcDbPoint
 10
77.10388201925844
 20
339.403727842134
 30
0.0
  0
POINT
  5
1DD3
330
1C86
100
AcDbEntity
  8
DEFPOINTS
 62
     0
100
AcDbPoint
 10
68.06984779596177
 20
339.403727842134
 30
0.0
  0
ENDBLK
  5
1C91
330
1C86
100
AcDbEntity
  8
0
100
AcDbBlockEnd
  0
ENDSEC
  0
SECTION
  2
ENTITIES
  0
LINE
  5
507
330
1074
100
AcDbEntity
  8
STEMPEL
100
AcDbLine
 10
830.0
 20
109.9999999999999
 30
0.0
 11
470.0
 21
109.9999999999999
 31
0.0
  0
LINE
  5
508
330
1074
100
AcDbEntity
  8
STEMPEL
100
AcDbLine
 10
566.0
 20
109.9999999999996
 30
0.0
 11
566.0
 21
10.0
 31
0.0
  0
LINE
  5
509
330
1074
100
AcDbEntity
  8
STEMPEL
100
AcDbLine
 10
650.0
 20
109.9999999999999
 30
0.0
 11
650.0
 21
10.0
 31
0.0
  0
LINE
  5
50A
330
1074
100
AcDbEntity
  8
STEMPEL
100
AcDbLine
 10
752.0
 20
109.9999999999996
 30
0.0
 11
752.0
 21
40.0
 31
0.0
  0
LINE
  5
50B
330
1074
100
AcDbEntity
  8
STEMPEL
100
AcDbLine
 10
565.9999999999997
 20
30.0
 30
0.0
 11
470.0
 21
30.0
 31
0.0
  0
LINE
  5
50C
330
1074
100
AcDbEntity
  8
STEMPEL
100
AcDbLine
 10
830.0
 20
40.0
 30
0.0
 11
566.0
 21
40.0
 31
0.0
  0
LINE
  5
50D
330
1074
100
AcDbEntity
  8
STEMPEL
100
AcDbLine
 10
830.0
 20
80.0
 30
0.0
 11
566.0
 21
79.99999999999977
 31
0.0
  0
LINE
  5
50E
330
1074
100
AcDbEntity
  8
VOLL
100
AcDbLine
 10
484.0000000000001
 20
109.9999999999999
 30
0.0
 11
484.0
 21
10.0
 31
0.0
  0
LINE
  5
50F
330
1074
100
AcDbEntity
  8
VOLL
100
AcDbLine
 10
524.0
 20
109.9999999999996
 30
0.0
 11
524.0
 21
10.0
 31
0.0
  0
LINE
  5
510
330
1074
100
AcDbEntity
  8
VOLL
100
AcDbLine
 10
544.0
 20
109.9999999999996
 30
0.0
 11
544.0
 21
10.0
 31
0.0
  0
LINE
  5
511
330
1074
100
AcDbEntity
  8
VOLL
100
AcDbLine
 10
584.0
 20
79.99999999999977
 30
0.0
 11
584.0
 21
40.0
 31
0.0
  0
LINE
  5
512
330
1074
100
AcDbEntity
  8
VOLL
100
AcDbLine
 10
610.0
 20
109.9999999999996
 30
0.0
 11
610.0
 21
40.0
 31
0.0
  0
LINE
  5
513
330
1074
100
AcDbEntity
  8
HILF
100
AcDbLine
 10
470.0000000000001
 20
99.99999999999989
 30
0.0
 11
566.0
 21
99.99999999999989
 31
0.0
  0
LINE
  5
514
330
1074
100
AcDbEntity
  8
HILF
100
AcDbLine
 10
470.0000000000001
 20
89.99999999999989
 30
0.0
 11
566.0
 21
89.99999999999989
 31
0.0
  0
LINE
  5
515
330
1074
100
AcDbEntity
  8
HILF
100
AcDbLine
 10
470.0000000000001
 20
79.99999999999977
 30
0.0
 11
566.0
 21
79.99999999999977
 31
0.0
  0
LINE
  5
516
330
1074
100
AcDbEntity
  8
HILF
100
AcDbLine
 10
470.0000000000001
 20
69.99999999999977
 30
0.0
 11
566.0
 21
69.99999999999977
 31
0.0
  0
LINE
  5
517
330
1074
100
AcDbEntity
  8
HILF
100
AcDbLine
 10
470.0000000000001
 20
60.0
 30
0.0
 11
566.0
 21
60.0
 31
0.0
  0
LINE
  5
518
330
1074
100
AcDbEntity
  8
HILF
100
AcDbLine
 10
470.0000000000001
 20
50.0
 30
0.0
 11
566.0
 21
50.0
 31
0.0
  0
LINE
  5
519
330
1074
100
AcDbEntity
  8
HILF
100
AcDbLine
 10
470.0000000000001
 20
40.0
 30
0.0
 11
566.0
 21
40.0
 31
0.0
  0
LINE
  5
51A
330
1074
100
AcDbEntity
  8
HILF
100
AcDbLine
 10
566.0
 20
69.99999999999977
 30
0.0
 11
650.0
 21
69.99999999999977
 31
0.0
  0
LINE
  5
51B
330
1074
100
AcDbEntity
  8
HILF
100
AcDbLine
 10
566.0
 20
60.0
 30
0.0
 11
650.0
 21
60.0
 31
0.0
  0
LINE
  5
51C
330
1074
100
AcDbEntity
  8
HILF
100
AcDbLine
 10
566.0
 20
50.0
 30
0.0
 11
650.0
 21
50.0
 31
0.0
  0
LINE
  5
51D
330
1074
100
AcDbEntity
  8
HILF
100
AcDbLine
 10
654.7736801096946
 20
84.03758247564121
 30
0.0
 11
744.8353916556309
 21
84.03758247564121
 31
0.0
  0
LINE
  5
51E
330
1074
100
AcDbEntity
  8
HILF
100
AcDbLine
 10
654.7736801096946
 20
69.99999999999977
 30
0.0
 11
744.8353916556309
 21
69.99999999999977
 31
0.0
  0
LINE
  5
51F
330
1074
100
AcDbEntity
  8
HILF
100
AcDbLine
 10
654.7736801096946
 20
60.0
 30
0.0
 11
744.8353916556309
 21
60.0
 31
0.0
  0
LINE
  5
520
330
1074
100
AcDbEntity
  8
HILF
100
AcDbLine
 10
654.7736801096946
 20
50.0
 30
0.0
 11
744.8353916556309
 21
50.0
 31
0.0
  0
LINE
  5
521
330
1074
100
AcDbEntity
  8
VOLL
100
AcDbLine
 10
752.0
 20
60.0
 30
0.0
 11
830.0
 21
60.0
 31
0.0
  0
LINE
  5
522
330
1074
100
AcDbEntity
  8
HILF
100
AcDbLine
 10
756.7238616296992
 20
83.77983636955798
 30
0.0
 11
824.8588839326728
 21
83.77983636955798
 31
0.0
  0
LINE
  5
523
330
1074
100
AcDbEntity
  8
HILF
100
AcDbLine
 10
653.4909699289885
 20
14.89398258028314
 30
0.0
 11
824.8588839326728
 21
14.89398258028314
 31
0.0
  0
TEXT
  5
524
330
1074
100
AcDbEntity
  8
TEXT
100
AcDbText
 10
492.7826069847975
 20
18.67381894984123
 30
0.0
 40
4.0
  1
Änderung
 41
0.8
  7
GREEKS
 72
     1
 11
503.5254641276546
 21
18.67381894984123
 31
0.0
100
AcDbText
  0
TEXT
  5
525
330
1074
100
AcDbEntity
  8
TEXT
100
AcDbText
 10
573.5163572150376
 20
102.4620895087085
 30
0.0
 40
5.0
  1
Maßstab
 41
0.8
  7
GREEKS
100
AcDbText
  0
TEXT
  5
526
330
1074
100
AcDbEntity
  8
TEXT
100
AcDbText
 10
614.2858954734052
 20
102.4184168434816
 30
0.0
 40
5.0
  1
Zul. Abw.
 41
0.8
  7
GREEKS
100
AcDbText
  0
TEXT
  5
527
330
1074
100
AcDbEntity
  8
TEXT
100
AcDbText
 10
654.8779403809009
 20
102.5489328011778
 30
0.0
 40
5.0
  1
Benennung
 41
0.8
  7
GREEKS
100
AcDbText
  0
TEXT
  5
528
330
1074
100
AcDbEntity
  8
TEXT
100
AcDbText
 10
756.178754957634
 20
102.3132034537135
 30
0.0
 40
5.0
  1
Zeichnungs Nr.
 41
0.8
  7
GREEKS
100
AcDbText
  0
TEXT
  5
529
330
1074
100
AcDbEntity
  8
TEXT
100
AcDbText
 10
654.7422383911359
 20
30.84560570193048
 30
0.0
 40
5.0
  1
Bauvorhaben
 41
0.8
  7
GREEKS
100
AcDbText
  0
TEXT
  5
52A
330
1074
100
AcDbEntity
  8
TEXT
100
AcDbText
 10
756.7238616296992
 20
73.18118237099952
 30
0.0
 40
5.0
  1
Ersatz für:
 41
0.8
  7
GREEKS
100
AcDbText
  0
TEXT
  5
52B
330
1074
100
AcDbEntity
  8
TEXT
100
AcDbText
 10
478.2664110704575
 20
13.65465846027177
 30
0.0
 40
4.0
  1
Index
 50
90.0
 41
0.8
  7
GREEKS
100
AcDbText
  0
TEXT
  5
52C
330
1074
100
AcDbEntity
  8
TEXT
100
AcDbText
 10
530.0571803261054
 20
18.67156269339807
 30
0.0
 40
4.0
  1
Tag
 41
0.8
  7
GREEKS
 72
     1
 11
533.7905136594388
 21
18.67156269339807
 31
0.0
100
AcDbText
  0
TEXT
  5
52D
330
1074
100
AcDbEntity
  8
TEXT
100
AcDbText
 10
548.6614567187547
 20
18.59324216966411
 30
0.0
 40
4.0
  1
Name
 41
0.8
  7
GREEKS
 72
     1
 11
554.9852662425641
 21
18.59324216966411
 31
0.0
100
AcDbText
  0
TEXT
  5
52E
330
1074
100
AcDbEntity
  8
TEXT
100
AcDbText
 10
592.3311673153651
 20
73.31880501229921
 30
0.0
 40
4.0
  1
Tag
 41
0.8
  7
GREEKS
100
AcDbText
  0
TEXT
  5
52F
330
1074
100
AcDbEntity
  8
TEXT
100
AcDbText
 10
622.4626584226293
 20
73.30961091915219
 30
0.0
 40
4.0
  1
Name
 41
0.8
  7
GREEKS
100
AcDbText
  0
TEXT
  5
530
330
1074
100
AcDbEntity
  8
TEXT
100
AcDbText
 10
567.5836127167615
 20
63.62990369617955
 30
0.0
 40
4.0
  1
Gez.
 41
0.8
  7
GREEKS
100
AcDbText
  0
TEXT
  5
531
330
1074
100
AcDbEntity
  8
TEXT
100
AcDbText
 10
567.5515086571672
 20
53.68926291428374
 30
0.0
 40
4.0
  1
Gepr.
 41
0.8
  7
GREEKS
100
AcDbText
  0
TEXT
  5
532
330
1074
100
AcDbEntity
  8
TEXT
100
AcDbText
 10
567.6006777387303
 20
43.5294638964981
 30
0.0
 40
4.0
  1
Norm.
 41
0.8
  7
GREEKS
100
AcDbText
  0
LINE
  5
533
330
1074
100
AcDbEntity
  8
STEMPEL
100
AcDbLine
 10
479.9999999999998
 20
10.0
 30
0.0
 11
830.0
 21
10.0
 31
0.0
  0
TEXT
  5
534
330
1074
100
AcDbEntity
  8
TEXT
100
AcDbText
 10
757.2400861497006
 20
52.07416177878599
 30
0.0
 40
5.0
  1
ersetzt durch:
 41
0.8
  7
GREEKS
100
AcDbText
  0
LINE
  5
535
330
1074
100
AcDbEntity
  8
STEMPEL
100
AcDbLine
 10
830.0
 20
10.0
 30
0.0
 11
39.99999999999997
 21
10.0
 31
0.0
  0
LINE
  5
536
330
1074
100
AcDbEntity
  8
STEMPEL
100
AcDbLine
 10
830.0
 20
10.0
 30
0.0
 11
830.0
 21
583.9999999999998
 31
0.0
  0
LINE
  5
537
330
1074
100
AcDbEntity
  8
STEMPEL
100
AcDbLine
 10
470.0
 20
10.0
 30
0.0
 11
470.0
 21
109.9999999999999
 31
0.0
  0
LINE
  5
538
330
1074
100
AcDbEntity
  8
STEMPEL
100
AcDbLine
 10
830.0
 20
583.9999999999998
 30
0.0
 11
39.99999999999986
 21
583.9999999999998
 31
0.0
  0
LINE
  5
539
330
1074
100
AcDbEntity
  8
HILF
100
AcDbLine
 10
839.9999999999998
 20
594.0000000000001
 30
0.0
 11
-0.0000000000002274
 21
593.9999999999996
 31
0.0
  0
LINE
  5
53A
330
1074
100
AcDbEntity
  8
HILF
100
AcDbLine
 10
840.0
 20
0.0
 30
0.0
 11
0.0
 21
0.0
 31
0.0
  0
LINE
  5
53B
330
1074
100
AcDbEntity
  8
HILF
100
AcDbLine
 10
31.08767135713847
 20
296.9999999999998
 30
0.0
 11
0.0
 21
296.9999999999998
 31
0.0
  0
TEXT
  5
53C
330
1074
100
AcDbEntity
  8
TEXT
100
AcDbText
 10
568.6221098221039
 20
73.14025471151649
 30
0.0
 40
4.0
  1
2010
 41
0.8
  7
GREEKS
100
AcDbText
  0
LINE
  5
53D
330
1074
100
AcDbEntity
  8
HILF
100
AcDbLine
 10
840.0
 20
-0.0000000000002274
 30
0.0
 11
839.9999999999998
 21
593.9999999999998
 31
0.0
  0
TEXT
  5
53E
330
1074
100
AcDbEntity
  8
VOLL
100
AcDbText
 10
78.07675471698113
 20
31.02594776470585
 30
0.0
 40
1.8
  1

  7
GREEKS
100
AcDbText
  0
TEXT
  5
53F
330
1074
100
AcDbEntity
  8
TEXT
100
AcDbText
 10
471.8550995097768
 20
111.6719999999997
 30
0.0
 40
5.0
  1
Erstellt mit AUTOCAD 2004
 41
0.8
  7
GREEKS
100
AcDbText
  0
TEXT
  5
540
330
1074
100
AcDbEntity
  8
TEXT
100
AcDbText
 10
624.4216048581257
 20
63.0896391972351
 30
0.0
 40
4.0
  1
Koeh
 41
0.8
  7
GREEKS
 72
     1
 11
629.6787477152686
 21
63.0896391972351
 31
0.0
100
AcDbText
  0
TEXT
  5
541
330
1074
100
AcDbEntity
  8
TEXT
 62
     1
100
AcDbText
 10
767.8977935463263
 20
88.14901428913946
 30
0.0
 40
7.0
  1
01363100W
 41
0.8
  7
GREEKS
 72
     1
 11
790.8311268796597
 21
88.14901428913946
 31
0.0
100
AcDbText
  0
TEXT
  5
542
330
1074
100
AcDbEntity
  8
TEXT
 62
     1
100
AcDbText
 10
580.5006306481886
 20
88.14901428913946
 30
0.0
 40
7.0
  1
1:2
 41
0.8
  7
GREEKS
100
AcDbText
  0
TEXT
  5
543
330
1074
100
AcDbEntity
  8
TEXT
100
AcDbText
 10
590.703759012998
 20
63.10765040825732
 30
0.0
 40
4.0
  1
23.12.
 41
0.8
  7
GREEKS
 72
     1
 11
597.4085209177599
 21
63.10765040825732
 31
0.0
100
AcDbText
  0
TEXT
  5
544
330
1074
100
AcDbEntity
  8
TEXT
 62
     1
100
AcDbText
 10
655.0506768857031
 20
87.41748789253767
 30
0.0
 40
7.0
  1
Rainstar Attika-Notablauf
 41
0.6700000000000001
  7
GREEKS
100
AcDbText
  0
TEXT
  5
545
330
1074
100
AcDbEntity
  8
TEXT
100
AcDbText
 10
655.1296391125315
 20
71.50334417585281
 30
0.0
 40
5.0
  1
DN100 für Folienklemmung
 41
0.8
  7
GREEKS
100
AcDbText
  0
TEXT
  5
547
330
1074
100
AcDbEntity
  8
TEXT
100
AcDbText
 10
655.1296391125315
 20
51.64011943042146
 30
0.0
 40
5.0
  1
EDV-Art.Nr. 01363.100X
 41
0.8
  7
GREEKS
100
AcDbText
  0
TEXT
  5
548
330
1074
100
AcDbEntity
  8
TEXT
100
AcDbText
 10
654.9837501577826
 20
42.62974153022628
 30
0.0
 40
4.0
  1
01363100W.DWG
 41
0.8
  7
GREEKS
100
AcDbText
  0
INSERT
  5
54A
330
1074
100
AcDbEntity
  8
STEMPEL
100
AcDbBlockReference
  2
LOGO
 10
570.9955485457794
 20
45.0210527644831
 30
0.0
 41
2.0
 42
2.0
 43
2.0
  0
LINE
  5
54B
330
1074
100
AcDbEntity
  8
HILF
100
AcDbLine
 10
0.0
 20
0.0
 30
0.0
 11
-0.0000000000002274
 21
593.9999999999996
 31
0.0
  0
LINE
  5
54C
330
1074
100
AcDbEntity
  8
STEMPEL
100
AcDbLine
 10
39.99999999999997
 20
10.0
 30
0.0
 11
39.99999999999986
 21
583.9999999999998
 31
0.0
  0
LINE
  5
54D
330
1074
100
AcDbEntity
  8
HILF
 62
     7
100
AcDbLine
 10
460.0
 20
-0.0000000000002274
 30
0.0
 11
460.0
 21
10.0
 31
0.0
  0
LINE
  5
54E
330
1074
100
AcDbEntity
  8
HILF
 62
     7
100
AcDbLine
 10
459.9999999999998
 20
583.9999999999998
 30
0.0
 11
459.9999999999998
 21
593.9999999999996
 31
0.0
  0
TEXT
  5
554
330
1074
100
AcDbEntity
  8
TEXT
 62
     1
100
AcDbText
 10
410.3508809746488
 20
398.9017833155633
 30
0.0
 40
7.0
  1

 41
0.8
  7
GREEKS
100
AcDbText
  0
LINE
  5
558
102
{ACAD_REACTORS
330
1EEC
102
}
330
1074
100
AcDbEntity
  8
STEMPEL
100
AcDbLine
 10
74.10388201925844
 20
336.9037278421335
 30
0.0
 11
334.1038820192584
 21
336.9037278421335
 31
0.0
  0
LINE
  5
55A
102
{ACAD_REACTORS
330
1DFE
102
}
330
1074
100
AcDbEntity
  8
STEMPEL
100
AcDbLine
 10
332.1038820192584
 20
272.903727842134
 30
0.0
 11
150.1038820192584
 21
272.9037278421336
 31
0.0
  0
LINE
  5
55B
102
{ACAD_REACTORS
330
1DFE
102
}
330
1074
100
AcDbEntity
  8
STEMPEL
100
AcDbLine
 10
332.1038820192584
 20
274.903727842134
 30
0.0
 11
150.1038820192584
 21
274.9037278421336
 31
0.0
  0
ARC
  5
55D
330
1074
100
AcDbEntity
  8
STEMPEL
100
AcDbCircle
 10
308.1038820192584
 20
430.4036698748197
 30
0.0
 40
6.0
100
AcDbArc
 50
0.000000000000007
 51
59.74358352518475
  0
ARC
  5
55E
330
1074
100
AcDbEntity
  8
STEMPEL
100
AcDbCircle
 10
308.1038820192584
 20
430.4036698748197
 30
0.0
 40
5.0
100
AcDbArc
 50
0.000000000000007
 51
59.74358352518475
  0
LWPOLYLINE
  5
55F
330
1074
100
AcDbEntity
  8
STEMPEL
100
AcDbPolyline
 90
        7
 70
   128
 43
0.0
 10
312.4121376933417
 20
379.3657818979734
 10
312.2743086837713
 20
378.6136756610349
 10
312.1554444068051
 20
377.69096205032
 10
312.0590964049041
 20
376.6252108004157
 10
311.9881434573658
 20
375.4482654635947
 10
311.944705565358
 20
374.1952919571929
 10
311.9300806084603
 20
372.9037278421336
  0
LWPOLYLINE
  5
568
330
1074
100
AcDbEntity
  8
STEMPEL
100
AcDbPolyline
 90
       18
 70
   128
 43
0.0
 10
312.8941947782232
 20
372.9037278421336
 10
312.8775263547463
 20
374.2818492257582
 10
312.8280887074859
 20
375.6130403385378
 10
312.7475653762254
 20
376.8519690637145
 10
312.6386984864339
 20
377.9564451694837
 10
312.5051953694715
 20
378.8888570467366
 10
312.3516023138673
 20
379.6174525272979
 10
312.1831497469152
 20
380.1174201659312
 10
312.0055741187464
 20
380.3717341643478
 10
311.8249225543993
 20
380.3717341643478
 10
311.6473469262305
 20
380.1174201659312
 10
311.4788943592785
 20
379.6174525272979
 10
311.3253013036742
 20
378.8888570467366
 10
311.1917981867118
 20
377.9564451694839
 10
311.0829312969204
 20
376.8519690637145
 10
311.0024079656598
 20
375.6130403385378
 10
310.9529703183994
 20
374.2818492257582
 10
310.9363018949225
 20
372.9037278421336
  0
LWPOLYLINE
  5
57C
330
1074
100
AcDbEntity
  8
STEMPEL
100
AcDbPolyline
 90
        7
 70
   128
 43
0.0
 10
-314.5505397921315
 20
361.4037278421358
 10
-313.8738379170541
 20
362.0133285699949
 10
-313.27428849342
 20
362.7408876539064
 10
-312.7679998202705
 20
363.5668575155867
 10
-312.3685745282251
 20
364.4690465407898
 10
-312.0867441129622
 20
365.4232153089836
 10
-311.9300806084607
 20
366.4037278421358
210
0.0
220
0.0
230
-1.0
  0
LWPOLYLINE
  5
585
330
1074
100
AcDbEntity
  8
STEMPEL
100
AcDbPolyline
 90
       10
 70
   128
 43
0.0
 10
-316.4422906259533
 20
360.4037278421352
 10
-315.5842176296805
 20
360.4698550567077
 10
-314.7314054300582
 20
360.7224088064381
 10
-313.9106471231412
 20
361.1534545227555
 10
-313.1477287567423
 20
361.7494498931955
 10
-312.466619201243
 20
362.4916703249162
 10
-311.8887171112974
 20
363.3567972217136
 10
-311.432178636891
 20
364.3176505924296
 10
-311.1113470052935
 20
365.3440429741418
 10
-310.9363018949225
 20
366.4037278421345
210
0.0
220
0.0
230
-1.0
  0
ARC
  5
591
330
1074
100
AcDbEntity
  8
STEMPEL
100
AcDbCircle
 10
319.1038820192584
 20
366.4037278421358
 30
0.0
 40
6.0
100
AcDbArc
 50
180.0
 51
269.9999999999983
  0
LWPOLYLINE
  5
592
330
1074
100
AcDbEntity
  8
STEMPEL
100
AcDbPolyline
 90
       10
 70
   128
 43
0.0
 10
-312.253572158063
 20
360.4037278421354
 10
-311.4173928832215
 20
360.4948813240621
 10
-310.6066204925187
 20
360.7655721174199
 10
-309.8458898947761
 20
361.2075754194289
 10
-309.1583155042572
 20
361.8074611834215
 10
-308.5647889208888
 20
362.5470021840162
 10
-308.0833441495674
 20
363.4037278421356
 10
-307.7286096460471
 20
364.3516069821817
 10
-307.5113638387129
 20
365.3618387761341
 10
-307.4382076314892
 20
366.4037278421358
210
0.0
220
0.0
230
-1.0
  0
LINE
  5
59E
102
{ACAD_REACTORS
330
1E4A
102
}
330
1074
100
AcDbEntity
  8
STEMPEL
100
AcDbLine
 10
331.1038820192584
 20
345.4037278421338
 30
0.0
 11
273.8045000415374
 21
345.4037278421339
 31
0.0
  0
LINE
  5
59F
102
{ACAD_REACTORS
330
1DE6
330
1DFE
330
1E85
102
}
330
1074
100
AcDbEntity
  8
STEMPEL
100
AcDbLine
 10
69.10388201925844
 20
327.9037278421335
 30
0.0
 11
341.1038820192584
 21
327.9037278421335
 31
0.0
  0
LINE
  5
5A0
102
{ACAD_REACTORS
330
1E4A
102
}
330
1074
100
AcDbEntity
  8
STEMPEL
100
AcDbLine
 10
77.10388201925844
 20
339.4037278421336
 30
0.0
 11
331.1038820192584
 21
339.4037278421336
 31
0.0
  0
LINE
  5
5A1
102
{ACAD_REACTORS
330
1E85
330
1EEC
102
}
330
1074
100
AcDbEntity
  8
STEMPEL
100
AcDbLine
 10
71.10388201925843
 20
333.9037278421336
 30
0.0
 11
341.103882019258
 21
333.9037278421336
 31
0.0
  0
LINE
  5
5A2
330
1074
100
AcDbEntity
  8
STEMPEL
100
AcDbLine
 10
334.103882019258
 20
360.4037278421338
 30
0.0
 11
292.37629537878
 21
360.403727842134
 31
0.0
  0
LINE
  5
5A3
102
{ACAD_REACTORS
330
1E85
102
}
330
1074
100
AcDbEntity
  8
TEXT
 62
     2
100
AcDbLine
 10
124.840317806944
 20
256.0399084688438
 30
0.0
 11
101.215601201837
 21
335.3442077561429
 31
0.0
  0
LINE
  5
5A4
330
1074
100
AcDbEntity
  8
TEXT
 62
     2
100
AcDbLine
 10
102.6348013816508
 20
230.7319108276264
 30
0.0
 11
208.663729245673
 21
230.7319108276264
 31
0.0
  0
TEXT
  5
5A5
330
1074
100
AcDbEntity
  8
TEXT
 62
     1
100
AcDbText
 10
106.6877274619613
 20
232.890751636321
 30
0.0
 40
7.0
  1
Losflansch
 41
0.8
  7
GREEKS
100
AcDbText
  0
LINE
  5
5A6
330
1074
100
AcDbEntity
  8
TEXT
 62
     2
100
AcDbLine
 10
74.64524103030908
 20
503.8536894939563
 30
0.0
 11
179.5800564713109
 21
503.8536894939563
 31
0.0
  0
TEXT
  5
5A7
330
1074
100
AcDbEntity
  8
TEXT
 62
     1
100
AcDbText
 10
74.66572309977585
 20
506.9141918280397
 30
0.0
 40
7.0
  1
Siebkorb
 41
0.8
  7
GREEKS
100
AcDbText
  0
LINE
  5
5A8
330
1074
100
AcDbEntity
  8
TEXT
 62
     2
100
AcDbLine
 10
124.840317806944
 20
256.0399084688438
 30
0.0
 11
230.9177792335009
 21
256.0399084688438
 31
0.0
  0
TEXT
  5
5A9
330
1074
100
AcDbEntity
  8
TEXT
 62
     1
100
AcDbText
 10
125.3588478194733
 20
259.2514184188396
 30
0.0
 40
7.0
  1
Kompressionsdichtung
 41
0.8
  7
GREEKS
100
AcDbText
  0
LINE
  5
629
330
1074
100
AcDbEntity
  8
STEMPEL
100
AcDbLine
 10
94.10388201925798
 20
430.4036698748197
 30
0.0
 11
94.10388201925798
 21
366.4037278421358
 31
0.0
  0
LINE
  5
62A
330
1074
100
AcDbEntity
  8
STEMPEL
100
AcDbLine
 10
95.10388201925843
 20
430.4036698748197
 30
0.0
 11
95.10388201925843
 21
366.4037278421358
 31
0.0
  0
LINE
  5
62B
330
1074
100
AcDbEntity
  8
MITTEL
100
AcDbLine
 10
204.1038820192584
 20
456.9037278421351
 30
0.0
 11
204.1038820192584
 21
324.6515446231656
 31
0.0
  0
LWPOLYLINE
  5
62C
330
1074
100
AcDbEntity
  8
STEMPEL
100
AcDbPolyline
 90
       17
 70
   128
 43
0.0
 10
-131.9559997686708
 20
372.9037278421336
 10
-132.0573123804752
 20
374.2818492257582
 10
-132.3578001364044
 20
375.6130403385378
 10
-132.8472302863256
 20
376.8519690637145
 10
-133.5089358734899
 20
377.9564451694837
 10
-134.320383307755
 20
378.8888570467366
 10
-135.2539397199709
 20
379.6174525272979
 10
-136.2778139661968
 20
380.1174201659312
 10
-137.3571392369797
 20
380.3717341643478
 10
-138.4551604047308
 20
380.3717341643478
 10
-139.5344856755136
 20
380.1174201659312
 10
-140.5583599217395
 20
379.6174525272979
 10
-141.4919163339555
 20
378.8888570467366
 10
-142.3033637682206
 20
377.9564451694839
 10
-142.9650693553849
 20
376.8519690637145
 10
-143.4544995053061
 20
375.6130403385378
 10
-143.727475785551
 20
374.4037278421338
210
0.0
220
0.0
230
-1.0
  0
LINE
  5
640
330
1074
100
AcDbEntity
  8
STEMPEL
100
AcDbLine
 10
130.3179766925655
 20
361.4037278421354
 30
0.0
 11
135.9276850836545
 21
361.4037278421354
 31
0.0
  0
LINE
  5
641
330
1074
100
AcDbEntity
  8
STEMPEL
100
AcDbLine
 10
135.8927643141627
 20
360.403727842135
 30
0.0
 11
127.8314686597368
 21
360.4037278421352
 31
0.0
  0
LWPOLYLINE
  5
642
330
1074
100
AcDbEntity
  8
STEMPEL
100
AcDbPolyline
 90
       10
 70
   128
 43
0.0
 10
91.76547341256355
 20
360.4037278421352
 10
92.62354640883632
 20
360.4698550567077
 10
93.47635860845867
 20
360.7224088064381
 10
94.29711691537567
 20
361.1534545227555
 10
95.06003528177462
 20
361.7494498931955
 10
95.74114483727385
 20
362.4916703249162
 10
96.31904692721946
 20
363.3567972217136
 10
96.77558540162591
 20
364.3176505924296
 10
97.09641703322336
 20
365.3440429741418
 10
97.27146214359436
 20
366.4037278421345
  0
LWPOLYLINE
  5
64E
330
1074
100
AcDbEntity
  8
STEMPEL
100
AcDbPolyline
 90
       10
 70
   128
 43
0.0
 10
89.80758052926285
 20
360.4037278421365
 10
90.66565352553562
 20
360.4698550567091
 10
91.51846572515797
 20
360.7224088064395
 10
92.33922403207499
 20
361.1534545227569
 10
93.10214239847391
 20
361.7494498931969
 10
93.78325195397314
 20
362.4916703249176
 10
94.36115404391875
 20
363.356797221715
 10
94.8176925183252
 20
364.3176505924309
 10
95.13852414992266
 20
365.3440429741431
 10
95.31356926029365
 20
366.4037278421358
  0
ARC
  5
65A
330
1074
100
AcDbEntity
  8
STEMPEL
100
AcDbCircle
 10
89.10388201925844
 20
366.4037278421358
 30
0.0
 40
6.0
100
AcDbArc
 50
270.0000000000017
 51
0.000000000000007
  0
ARC
  5
65B
330
1074
100
AcDbEntity
  8
STEMPEL
100
AcDbCircle
 10
89.10388201925844
 20
366.4037278421358
 30
0.0
 40
5.0
100
AcDbArc
 50
270.0000000000017
 51
0.000000000000007
  0
LINE
  5
65C
102
{ACAD_REACTORS
330
1E4A
102
}
330
1074
100
AcDbEntity
  8
STEMPEL
100
AcDbLine
 10
115.8314686597368
 20
360.4037278421354
 30
0.0
 11
85.10388201925843
 21
360.4037278421356
 31
0.0
  0
LINE
  5
65D
330
1074
100
AcDbEntity
  8
MITTEL
100
AcDbLine
 10
82.10388201925843
 20
368.8725906219822
 30
0.0
 11
82.10388201925843
 21
339.4037278421336
 31
0.0
  0
LINE
  5
65E
330
1074
100
AcDbEntity
  8
STEMPEL
100
AcDbLine
 10
87.62488652855655
 20
366.3246747630692
 30
0.0
 11
87.62488652855655
 21
363.0037278421357
 31
0.0
  0
LINE
  5
65F
330
1074
100
AcDbEntity
  8
STEMPEL
100
AcDbLine
 10
84.8643842739075
 20
366.3246747630692
 30
0.0
 11
84.8643842739075
 21
363.0037278421357
 31
0.0
  0
LINE
  5
660
330
1074
100
AcDbEntity
  8
STEMPEL
100
AcDbLine
 10
79.34337976460892
 20
366.3246747630692
 30
0.0
 11
79.34337976460892
 21
363.0037278421357
 31
0.0
  0
LINE
  5
661
330
1074
100
AcDbEntity
  8
STEMPEL
100
AcDbLine
 10
76.58287750995942
 20
366.3246747630692
 30
0.0
 11
76.58287750995942
 21
363.0037278421357
 31
0.0
  0
LINE
  5
662
102
{ACAD_REACTORS
330
1E85
102
}
330
1074
100
AcDbEntity
  8
STEMPEL
100
AcDbLine
 10
71.10388201925843
 20
333.9037278421336
 30
0.0
 11
69.10388201925844
 21
331.9037278421336
 31
0.0
  0
LINE
  5
663
102
{ACAD_REACTORS
330
1E85
102
}
330
1074
100
AcDbEntity
  8
STEMPEL
100
AcDbLine
 10
69.10388201925844
 20
327.9037278421335
 30
0.0
 11
69.10388201925844
 21
331.9037278421336
 31
0.0
  0
LINE
  5
664
102
{ACAD_REACTORS
330
1EEC
102
}
330
1074
100
AcDbEntity
  8
STEMPEL
100
AcDbLine
 10
74.10388201925844
 20
336.9037278421335
 30
0.0
 11
74.10388201925844
 21
333.9037278421336
 31
0.0
  0
LINE
  5
665
330
1074
100
AcDbEntity
  8
STEMPEL
100
AcDbLine
 10
85.10388201925843
 20
353.6537278421356
 30
0.0
 11
79.10388201925844
 21
353.6537278421356
 31
0.0
  0
LINE
  5
666
330
1074
100
AcDbEntity
  8
STEMPEL
100
AcDbLine
 10
84.45388201925789
 20
353.0037278421357
 30
0.0
 11
79.75388201925807
 21
353.0037278421357
 31
0.0
  0
LINE
  5
667
330
1074
100
AcDbEntity
  8
STEMPEL
100
AcDbLine
 10
88.10388201925844
 20
363.0037278421357
 30
0.0
 11
76.10388201925843
 21
363.0037278421355
 31
0.0
  0
LINE
  5
668
330
1074
100
AcDbEntity
  8
STEMPEL
100
AcDbLine
 10
74.10388201925844
 20
361.4037278421354
 30
0.0
 11
89.10388201925844
 21
361.4037278421358
 31
0.0
  0
LINE
  5
66A
330
1074
100
AcDbEntity
  8
HILF
100
AcDbLine
 10
79.75388201925807
 20
353.0037278421357
 30
0.0
 11
79.75388201925807
 21
361.4037278421356
 31
0.0
  0
LINE
  5
66B
102
{ACAD_REACTORS
330
1E4A
102
}
330
1074
100
AcDbEntity
  8
STEMPEL
100
AcDbLine
 10
79.10388201925844
 20
361.4037278421356
 30
0.0
 11
79.10388201925844
 21
353.6537278421356
 31
0.0
  0
LINE
  5
66C
102
{ACAD_REACTORS
330
1E4A
102
}
330
1074
100
AcDbEntity
  8
STEMPEL
100
AcDbLine
 10
79.75388201925807
 20
353.0037278421357
 30
0.0
 11
79.75388201926318
 21
339.4037278421336
 31
0.0
  0
LINE
  5
66D
102
{ACAD_REACTORS
330
1E4A
102
}
330
1074
100
AcDbEntity
  8
HILF
100
AcDbLine
 10
79.10388201925844
 20
353.6537278421356
 30
0.0
 11
79.10388201926128
 21
339.4037278421336
 31
0.0
  0
LINE
  5
66E
102
{ACAD_REACTORS
330
1E4A
102
}
330
1074
100
AcDbEntity
  8
STEMPEL
100
AcDbLine
 10
79.75388201925807
 20
353.0037278421357
 30
0.0
 11
79.10388201925844
 21
353.6537278421356
 31
0.0
  0
LINE
  5
66F
102
{ACAD_REACTORS
330
1E4A
102
}
330
1074
100
AcDbEntity
  8
STEMPEL
100
AcDbLine
 10
74.60388201925866
 20
360.4037278421347
 30
0.0
 11
74.320498677371
 21
344.1687070585802
 31
0.0
  0
POINT
  5
670
330
1074
100
AcDbEntity
  8
STEMPEL
100
AcDbPoint
 10
74.10388201925844
 20
342.4037278421335
 30
0.0
  0
LINE
  5
671
330
1074
100
AcDbEntity
  8
STEMPEL
100
AcDbLine
 10
74.10388201925844
 20
361.4037278421356
 30
0.0
 11
74.10388201925844
 21
360.4037278421354
 31
0.0
  0
LINE
  5
672
330
1074
100
AcDbEntity
  8
STEMPEL
100
AcDbLine
 10
78.10388201925843
 20
361.4037278421354
 30
0.0
 11
78.10388201925843
 21
360.4037278421354
 31
0.0
  0
LINE
  5
673
330
1074
100
AcDbEntity
  8
STEMPEL
100
AcDbLine
 10
76.10388201925843
 20
363.0037278421355
 30
0.0
 11
76.10388201925843
 21
361.4037278421356
 31
0.0
  0
LINE
  5
674
102
{ACAD_REACTORS
330
1E4A
102
}
330
1074
100
AcDbEntity
  8
STEMPEL
100
AcDbLine
 10
79.10388201925844
 20
360.4037278421356
 30
0.0
 11
74.10388201925844
 21
360.4037278421354
 31
0.0
  0
ARC
  5
675
102
{ACAD_REACTORS
330
1E4A
102
}
330
1074
100
AcDbEntity
  8
STEMPEL
100
AcDbCircle
 10
77.10388201925844
 20
342.403727842134
 30
0.0
 40
3.0
100
AcDbArc
 50
166.6128248198118
 51
270.0
  0
LINE
  5
676
102
{ACAD_REACTORS
330
1E4A
102
}
330
1074
100
AcDbEntity
  8
STEMPEL
100
AcDbLine
 10
89.60388201925843
 20
360.4037278421347
 30
0.0
 11
89.77995583297843
 21
350.3164658099474
 31
0.0
  0
LINE
  5
677
330
1074
100
AcDbEntity
  8
HILF
100
AcDbLine
 10
84.45388201925789
 20
353.0037278421357
 30
0.0
 11
84.45388201925789
 21
361.4037278421356
 31
0.0
  0
LINE
  5
678
102
{ACAD_REACTORS
330
1E4A
102
}
330
1074
100
AcDbEntity
  8
STEMPEL
100
AcDbLine
 10
85.10388201925843
 20
361.4037278421356
 30
0.0
 11
85.10388201925843
 21
353.6537278421356
 31
0.0
  0
LINE
  5
679
330
1074
100
AcDbEntity
  8
STEMPEL
100
AcDbLine
 10
86.10388201925843
 20
361.4037278421358
 30
0.0
 11
86.10388201925843
 21
360.4037278421354
 31
0.0
  0
LINE
  5
67A
102
{ACAD_REACTORS
330
1E4A
102
}
330
1074
100
AcDbEntity
  8
STEMPEL
100
AcDbLine
 10
85.10388201925843
 20
353.6537278421356
 30
0.0
 11
84.45388201925789
 21
353.0037278421357
 31
0.0
  0
LINE
  5
67B
102
{ACAD_REACTORS
330
1E4A
102
}
330
1074
100
AcDbEntity
  8
STEMPEL
100
AcDbLine
 10
84.45388201925856
 20
353.0037278421364
 30
0.0
 11
84.45388201925856
 21
339.4037278421336
 31
0.0
  0
LINE
  5
67C
102
{ACAD_REACTORS
330
1E4A
102
}
330
1074
100
AcDbEntity
  8
HILF
100
AcDbLine
 10
85.10388201925843
 20
353.6537278421356
 30
0.0
 11
85.10388201926275
 21
339.4037278421336
 31
0.0
  0
LINE
  5
67D
330
1074
100
AcDbEntity
  8
STEMPEL
100
AcDbLine
 10
88.10388201925844
 20
363.0037278421357
 30
0.0
 11
88.10388201925844
 21
361.4037278421356
 31
0.0
  0
ARC
  5
67F
330
1074
100
AcDbEntity
  8
STEMPEL
100
AcDbCircle
 10
82.10388201925843
 20
358.7903535829357
 30
0.0
 40
8.281117593600001
100
AcDbArc
 50
70.52782738138684
 51
109.4721726186141
  0
LINE
  5
680
330
1074
100
AcDbEntity
  8
STEMPEL
100
AcDbLine
 10
79.34337976460892
 20
366.3246747630692
 30
0.0
 11
79.34337976460892
 21
366.5978202592082
 31
0.0
  0
LINE
  5
682
330
1074
100
AcDbEntity
  8
STEMPEL
100
AcDbLine
 10
76.58287750995942
 20
366.5978202592082
 30
0.0
 11
76.58287750995942
 21
366.6214806313326
 31
0.0
  0
LINE
  5
683
330
1074
100
AcDbEntity
  8
STEMPEL
100
AcDbLine
 10
76.58287750995942
 20
366.3246747630692
 30
0.0
 11
76.58287750995942
 21
366.5259197107928
 31
0.0
  0
LINE
  5
684
330
1074
100
AcDbEntity
  8
STEMPEL
100
AcDbLine
 10
76.58287750995942
 20
366.5259197107928
 30
0.0
 11
76.58287750995942
 21
366.5978202592082
 31
0.0
  0
LINE
  5
685
330
1074
100
AcDbEntity
  8
STEMPEL
100
AcDbLine
 10
76.58287750995942
 20
366.6214806313326
 30
0.0
 11
76.88946226254575
 21
366.7984874207677
 31
0.0
  0
LINE
  5
686
330
1074
100
AcDbEntity
  8
STEMPEL
100
AcDbLine
 10
77.96708786264344
 20
367.0714711765356
 30
0.0
 11
77.96353242964733
 21
367.0714711765356
 31
0.0
  0
ARC
  5
687
330
1074
100
AcDbEntity
  8
STEMPEL
100
AcDbCircle
 10
77.96312863728417
 20
364.8235728562565
 30
0.0
 40
2.247898356545996
100
AcDbArc
 50
52.11936428282132
 51
121.4691945240794
  0
LINE
  5
688
330
1074
100
AcDbEntity
  8
STEMPEL
100
AcDbLine
 10
86.24423160854121
 20
367.0714711765356
 30
0.0
 11
77.96353242963914
 21
367.0714711765356
 31
0.0
  0
ARC
  5
689
330
1074
100
AcDbEntity
  8
STEMPEL
100
AcDbCircle
 10
86.24463540123224
 20
364.8235728562565
 30
0.0
 40
2.247898356545996
100
AcDbArc
 50
58.53080547592063
 51
127.8806357171786
  0
LINE
  5
68A
330
1074
100
AcDbEntity
  8
STEMPEL
100
AcDbLine
 10
87.62488652855655
 20
366.3246747630692
 30
0.0
 11
87.62488652855655
 21
366.6214806313326
 31
0.0
  0
LINE
  5
68B
330
1074
100
AcDbEntity
  8
STEMPEL
100
AcDbLine
 10
87.62488652855655
 20
366.6214806313326
 30
0.0
 11
87.31830177597066
 21
366.7984874207677
 31
0.0
  0
LINE
  5
68C
330
1074
100
AcDbEntity
  8
STEMPEL
100
AcDbLine
 10
84.8643842739075
 20
366.3246747630692
 30
0.0
 11
84.8643842739075
 21
366.5978202592082
 31
0.0
  0
LWPOLYLINE
  5
690
330
1074
100
AcDbEntity
  8
STEMPEL
100
AcDbPolyline
 90
       10
 70
   128
 43
0.0
 10
128.2933966331466
 20
360.4037278421354
 10
128.9294009931475
 20
360.4948813240621
 10
129.5460806825035
 20
360.7655721174199
 10
130.1246982009086
 20
361.2075754194289
 10
130.6476725478605
 20
361.8074611834215
 10
131.0991134124649
 20
362.5470021840162
 10
131.465303992491
 20
363.4037278421356
 10
131.7351177724658
 20
364.3516069821817
 10
131.9003565972175
 20
365.3618387761341
 10
131.9559997686706
 20
366.4037278421358
  0
LWPOLYLINE
  5
69C
330
1074
100
AcDbEntity
  8
STEMPEL
100
AcDbPolyline
 90
        4
 70
   128
 43
0.0
 10
121.2069693175276
 20
363.9037278421331
 10
121.4259169779222
 20
364.7080505020033
 10
121.5591060020847
 20
365.5471140564987
 10
121.6038076244981
 20
366.4037278421358
  0
LWPOLYLINE
  5
6A2
330
1074
100
AcDbEntity
  8
STEMPEL
100
AcDbPolyline
 90
        4
 70
   128
 43
0.0
 10
122.0021902043486
 20
363.9037278421331
 10
122.2211378647432
 20
364.7080505020033
 10
122.3543268889057
 20
365.5471140564987
 10
122.3990285113191
 20
366.4037278421358
  0
LINE
  5
6A8
102
{ACAD_REACTORS
330
1E4A
330
1EEC
102
}
330
1074
100
AcDbEntity
  8
MITTEL
100
AcDbLine
 10
121.8314686597368
 20
368.9037278421333
 30
0.0
 11
121.8314686597368
 21
333.9037278421333
 31
0.0
  0
LWPOLYLINE
  5
6A9
330
1074
100
AcDbEntity
  8
STEMPEL
100
AcDbPolyline
 90
       10
 70
   128
 43
0.0
 10
101.6944433659314
 20
360.4037278421354
 10
102.5306226407729
 20
360.4948813240621
 10
103.3413950314757
 20
360.7655721174199
 10
104.1021256292183
 20
361.2075754194289
 10
104.7897000197372
 20
361.8074611834215
 10
105.3832266031056
 20
362.5470021840162
 10
105.8646713744269
 20
363.4037278421356
 10
106.2194058779471
 20
364.3516069821817
 10
106.4366516852815
 20
365.3618387761341
 10
106.5098078925052
 20
366.4037278421358
  0
LWPOLYLINE
  5
6B5
330
1074
100
AcDbEntity
  8
STEMPEL
100
AcDbPolyline
 90
        7
 70
   128
 43
0.0
 10
103.4301819233296
 20
361.4037278421354
 10
104.050272446394
 20
362.0130657439761
 10
104.5820925931773
 20
362.7404960172655
 10
105.0113383929088
 20
363.5664535112092
 10
105.3264647407059
 20
364.4687230616714
 10
105.5189959176718
 20
365.4230369959146
 10
105.5837535559981
 20
366.4037278421358
  0
LWPOLYLINE
  5
6BE
330
1074
100
AcDbEntity
  8
STEMPEL
100
AcDbPolyline
 90
        7
 70
   128
 43
0.0
 10
93.65722424638533
 20
361.4037278421358
 10
94.33392612146281
 20
362.0133285699949
 10
94.93347554509682
 20
362.7408876539064
 10
95.43976421824641
 20
363.5668575155867
 10
95.83918951029181
 20
364.4690465407898
 10
96.12101992555494
 20
365.4232153089836
 10
96.2776834300562
 20
366.4037278421358
  0
LWPOLYLINE
  5
6C7
330
1074
100
AcDbEntity
  8
STEMPEL
100
AcDbPolyline
 90
       10
 70
   128
 43
0.0
 10
95.95419188045388
 20
360.4037278421354
 10
96.79037115529537
 20
360.4948813240621
 10
97.60114354599819
 20
360.7655721174199
 10
98.3618741437408
 20
361.2075754194289
 10
99.04944853425968
 20
361.8074611834215
 10
99.64297511762811
 20
362.5470021840162
 10
100.1244198889494
 20
363.4037278421356
 10
100.4791543924696
 20
364.3516069821817
 10
100.6964001998039
 20
365.3618387761341
 10
100.7695564070277
 20
366.4037278421358
  0
LWPOLYLINE
  5
6D3
330
1074
100
AcDbEntity
  8
STEMPEL
100
AcDbPolyline
 90
       10
 70
   128
 43
0.0
 10
108.9039009015814
 20
360.4037278421354
 10
109.6616505266756
 20
360.4948813240621
 10
110.3963763128513
 20
360.7655721174199
 10
111.0857539888843
 20
361.2075754194289
 10
111.7088371629306
 20
361.8074611834215
 10
112.2466937680421
 20
362.5470021840162
 10
112.682981303441
 20
363.4037278421356
 10
113.0044433931364
 20
364.3516069821817
 10
113.2013125742005
 20
365.3618387761341
 10
113.2676070761872
 20
366.4037278421358
  0
LINE
  5
6DF
330
1074
100
AcDbEntity
  8
STEMPEL
100
AcDbLine
 10
129.7426034175173
 20
347.9037278421336
 30
0.0
 11
113.92033390197
 21
347.9037278421336
 31
0.0
  0
LINE
  5
6E0
330
1074
100
AcDbEntity
  8
STEMPEL
100
AcDbLine
 10
129.7426034175173
 20
357.9037278421335
 30
0.0
 11
113.92033390197
 21
357.9037278421338
 31
0.0
  0
LINE
  5
6E1
330
1074
100
AcDbEntity
  8
STEMPEL
100
AcDbLine
 10
133.8314686597368
 20
347.9037278421338
 30
0.0
 11
109.8314686597368
 21
347.9037278421338
 31
0.0
  0
ARC
  5
6E2
330
1074
100
AcDbEntity
  8
STEMPEL
100
AcDbCircle
 10
113.9195623594544
 20
352.1988788066985
 30
0.0
 40
4.29515103386132
100
AcDbArc
 50
238.5308054740846
 51
307.8806357171787
  0
ARC
  5
6E3
330
1074
100
AcDbEntity
  8
STEMPEL
100
AcDbCircle
 10
113.9195623594544
 20
353.6085768775688
 30
0.0
 40
4.29515103386132
100
AcDbArc
 50
52.1193642828213
 51
121.4691945223693
  0
LINE
  5
6E4
330
1074
100
AcDbEntity
  8
STEMPEL
100
AcDbLine
 10
111.3160302476685
 20
361.4037278421354
 30
0.0
 11
115.8314686597368
 21
361.4037278421354
 31
0.0
  0
LINE
  5
6E5
330
1074
100
AcDbEntity
  8
STEMPEL
100
AcDbLine
 10
92.69311007662327
 20
361.4037278421354
 30
0.0
 11
93.6572242463858
 21
361.4037278421354
 31
0.0
  0
LINE
  5
6E6
330
1074
100
AcDbEntity
  8
STEMPEL
100
AcDbLine
 10
98.61598477435927
 20
361.4037278421354
 30
0.0
 11
103.4301819233305
 21
361.4037278421354
 31
0.0
  0
LINE
  5
6E7
330
1074
100
AcDbEntity
  8
STEMPEL
100
AcDbLine
 10
113.9271274127609
 20
347.9037278421336
 30
0.0
 11
113.920333901985
 21
347.9037278421336
 31
0.0
  0
LINE
  5
6E8
330
1074
100
AcDbEntity
  8
STEMPEL
100
AcDbLine
 10
113.9271274127609
 20
357.9037278421338
 30
0.0
 11
113.920333901985
 21
357.9037278421338
 31
0.0
  0
LINE
  5
6E9
330
1074
100
AcDbEntity
  8
STEMPEL
100
AcDbLine
 10
111.2822602593603
 20
357.0439125618616
 30
0.0
 11
111.2822602593603
 21
348.763543122406
 31
0.0
  0
LINE
  5
6EA
330
1074
100
AcDbEntity
  8
STEMPEL
100
AcDbLine
 10
109.8314686597368
 20
347.9037278421338
 30
0.0
 11
109.8314686597368
 21
345.4037278421338
 31
0.0
  0
LINE
  5
6EB
330
1074
100
AcDbEntity
  8
STEMPEL
100
AcDbLine
 10
111.2822602593603
 20
348.7635431224057
 30
0.0
 11
111.6773214504132
 21
348.5354544374047
 31
0.0
  0
LINE
  5
6EC
330
1074
100
AcDbEntity
  8
STEMPEL
100
AcDbLine
 10
111.2822602593603
 20
357.0439125618616
 30
0.0
 11
111.6773214506438
 21
357.2720012469952
 31
0.0
  0
ARC
  5
6ED
330
1074
100
AcDbEntity
  8
STEMPEL
100
AcDbCircle
 10
121.8314686597368
 20
363.7267968390481
 30
0.0
 40
15.82306899691459
100
AcDbArc
 50
250.5278273813858
 51
289.4721726186141
  0
ARC
  5
6EE
330
1074
100
AcDbEntity
  8
STEMPEL
100
AcDbCircle
 10
121.8314686597368
 20
342.0806588452192
 30
0.0
 40
15.82306899691459
100
AcDbArc
 50
70.52782738138593
 51
109.4721726186141
  0
LINE
  5
6EF
330
1074
100
AcDbEntity
  8
STEMPEL
100
AcDbLine
 10
115.8314686597368
 20
362.9037278421331
 30
0.0
 11
127.8314686597368
 21
362.9037278421331
 31
0.0
  0
LINE
  5
6F0
330
1074
100
AcDbEntity
  8
STEMPEL
100
AcDbLine
 10
116.8314686597368
 20
363.9037278421331
 30
0.0
 11
126.8314686597368
 21
363.9037278421331
 31
0.0
  0
LINE
  5
6F1
330
1074
100
AcDbEntity
  8
STEMPEL
100
AcDbLine
 10
116.8314686597368
 20
363.9037278421331
 30
0.0
 11
126.8314686597368
 21
363.9037278421331
 31
0.0
  0
LINE
  5
6F2
330
1074
100
AcDbEntity
  8
HILF
100
AcDbLine
 10
116.8314686597369
 20
339.4037278421336
 30
0.0
 11
116.8314686597368
 21
336.9037278421335
 31
0.0
  0
LINE
  5
6F3
330
1074
100
AcDbEntity
  8
STEMPEL
100
AcDbLine
 10
115.8314686597369
 20
339.4037278421336
 30
0.0
 11
115.8314686597368
 21
336.9037278421335
 31
0.0
  0
LINE
  5
6F4
330
1074
100
AcDbEntity
  8
STEMPEL
100
AcDbLine
 10
116.5568644595484
 20
356.9987037242397
 30
0.0
 11
116.5568644595484
 21
348.8087519600274
 31
0.0
  0
LINE
  5
6F5
330
1074
100
AcDbEntity
  8
STEMPEL
100
AcDbLine
 10
115.8314686597368
 20
362.9037278421331
 30
0.0
 11
115.8314686597368
 21
357.9037278421335
 31
0.0
  0
LINE
  5
6F6
330
1074
100
AcDbEntity
  8
HILF
100
AcDbLine
 10
116.8314686597368
 20
363.9037278421331
 30
0.0
 11
116.8314686597368
 21
357.9037278421335
 31
0.0
  0
LINE
  5
6F7
330
1074
100
AcDbEntity
  8
STEMPEL
100
AcDbLine
 10
115.8314686597368
 20
362.9037278421331
 30
0.0
 11
116.8314686597368
 21
363.9037278421331
 31
0.0
  0
LINE
  5
6F8
330
1074
100
AcDbEntity
  8
HILF
100
AcDbLine
 10
126.8314686597368
 20
339.4037278421336
 30
0.0
 11
126.8314686597368
 21
336.9037278421335
 31
0.0
  0
LINE
  5
6F9
330
1074
100
AcDbEntity
  8
STEMPEL
100
AcDbLine
 10
127.8314686597368
 20
339.4037278421336
 30
0.0
 11
127.8314686597368
 21
336.9037278421335
 31
0.0
  0
ARC
  5
6FA
330
1074
100
AcDbEntity
  8
STEMPEL
100
AcDbCircle
 10
129.7433749600191
 20
353.6085768775688
 30
0.0
 40
4.29515103386132
100
AcDbArc
 50
58.53080547407401
 51
127.8806357171786
  0
ARC
  5
6FB
330
1074
100
AcDbEntity
  8
STEMPEL
100
AcDbCircle
 10
129.7433749600191
 20
352.1988788066985
 30
0.0
 40
4.29515103386132
100
AcDbArc
 50
232.1193642828213
 51
301.469194525926
  0
LINE
  5
6FC
330
1074
100
AcDbEntity
  8
STEMPEL
100
AcDbLine
 10
127.106072859925
 20
356.9987037242397
 30
0.0
 11
127.106072859925
 21
348.8087519600276
 31
0.0
  0
LINE
  5
6FD
330
1074
100
AcDbEntity
  8
STEMPEL
100
AcDbLine
 10
127.8314686597368
 20
362.9037278421331
 30
0.0
 11
127.8314686597368
 21
357.9037278421335
 31
0.0
  0
LINE
  5
6FE
330
1074
100
AcDbEntity
  8
HILF
100
AcDbLine
 10
126.8314686597368
 20
363.9037278421331
 30
0.0
 11
126.8314686597368
 21
357.9037278421335
 31
0.0
  0
LINE
  5
6FF
330
1074
100
AcDbEntity
  8
STEMPEL
100
AcDbLine
 10
126.8314686597368
 20
363.9037278421331
 30
0.0
 11
127.8314686597368
 21
362.9037278421331
 31
0.0
  0
LINE
  5
700
330
1074
100
AcDbEntity
  8
STEMPEL
100
AcDbLine
 10
132.3806770601131
 20
357.0439125618616
 30
0.0
 11
132.3806770601131
 21
348.763543122406
 31
0.0
  0
LINE
  5
701
330
1074
100
AcDbEntity
  8
STEMPEL
100
AcDbLine
 10
133.8314686597368
 20
345.4037278421338
 30
0.0
 11
133.8314686597368
 21
347.9037278421338
 31
0.0
  0
LINE
  5
702
330
1074
100
AcDbEntity
  8
STEMPEL
100
AcDbLine
 10
132.3806770601131
 20
348.7635431224057
 30
0.0
 11
131.9856158690607
 21
348.5354544374054
 31
0.0
  0
LINE
  5
703
330
1074
100
AcDbEntity
  8
STEMPEL
100
AcDbLine
 10
132.3806770601131
 20
357.0439125618616
 30
0.0
 11
131.9856158690607
 21
357.2720012468619
 31
0.0
  0
LWPOLYLINE
  5
704
330
1074
100
AcDbEntity
  8
STEMPEL
100
AcDbPolyline
 90
       18
 70
   128
 43
0.0
 10
-113.2676070761874
 20
372.9037278421336
 10
-113.3453469774476
 20
374.2818492257582
 10
-113.5759193421293
 20
375.6130403385378
 10
-113.9514723048944
 20
376.8519690637145
 10
-114.4592168600222
 20
377.9564451694837
 10
-115.0818623756602
 20
378.8888570467366
 10
-115.7982054055542
 20
379.6174525272979
 10
-116.5838517469801
 20
380.1174201659312
 10
-117.4120471560595
 20
380.3717341643478
 10
-118.2545884314472
 20
380.3717341643478
 10
-119.0827838405266
 20
380.1174201659312
 10
-119.8684301819526
 20
379.6174525272979
 10
-120.5847732118466
 20
378.8888570467366
 10
-121.2074187274845
 20
377.9564451694839
 10
-121.7151632826123
 20
376.8519690637145
 10
-122.0907162453775
 20
375.6130403385378
 10
-122.3212886100591
 20
374.2818492257582
 10
-122.3990285113193
 20
372.9037278421336
210
0.0
220
0.0
230
-1.0
  0
LWPOLYLINE
  5
71B
330
1074
100
AcDbEntity
  8
STEMPEL
100
AcDbPolyline
 90
        9
 70
   128
 43
0.0
 10
-103.1766549815147
 20
380.3054860867985
 10
-103.6657155247835
 20
379.979053189041
 10
-104.1253284926845
 20
379.4337841757838
 10
-104.5412782963085
 20
378.6865439326557
 10
-104.9006998256002
 20
377.7604442098782
 10
-105.1924763604877
 20
376.6841287879081
 10
-105.407583405226
 20
375.4908875402771
 10
-105.5393678113332
 20
374.2176267952014
 10
-105.5837535559981
 20
372.9037278421349
210
0.0
220
0.0
230
-1.0
  0
LWPOLYLINE
  5
726
330
1074
100
AcDbEntity
  8
STEMPEL
100
AcDbPolyline
 90
       18
 70
   128
 43
0.0
 10
-100.7695564070277
 20
372.9037278421336
 10
-100.8184257519437
 20
374.2818492257582
 10
-100.963369599764
 20
375.6130403385378
 10
-101.1994520615912
 20
376.8519690637145
 10
-101.5186336323379
 20
377.9564451694837
 10
-101.9100449664283
 20
378.8888570467366
 10
-102.3603570203261
 20
379.6174525272979
 10
-102.8542349571257
 20
380.1174201659312
 10
-103.3748603560307
 20
380.3717341643478
 10
-103.9045039435023
 20
380.3717341643478
 10
-104.4251293424072
 20
380.1174201659312
 10
-104.9190072792069
 20
379.6174525272979
 10
-105.3693193331046
 20
378.8888570467366
 10
-105.760730667195
 20
377.9564451694839
 10
-106.0799122379417
 20
376.8519690637145
 10
-106.3159946997689
 20
375.6130403385378
 10
-106.4609385475892
 20
374.2818492257582
 10
-106.5098078925052
 20
372.9037278421336
210
0.0
220
0.0
230
-1.0
  0
LWPOLYLINE
  5
73B
330
1074
100
AcDbEntity
  8
STEMPEL
100
AcDbPolyline
 90
       18
 70
   128
 43
0.0
 10
-95.31356926029365
 20
372.9037278421336
 10
-95.33023768377052
 20
374.2818492257582
 10
-95.37967533103097
 20
375.6130403385378
 10
-95.46019866229153
 20
376.8519690637145
 10
-95.56906555208298
 20
377.9564451694837
 10
-95.70256866904538
 20
378.8888570467366
 10
-95.85616172464961
 20
379.6174525272979
 10
-96.02461429160166
 20
380.1174201659312
 10
-96.20218991977049
 20
380.3717341643478
 10
-96.38284148411754
 20
380.3717341643478
 10
-96.56041711228636
 20
380.1174201659312
 10
-96.72886967923842
 20
379.6174525272979
 10
-96.88246273484265
 20
378.8888570467366
 10
-97.01596585180505
 20
377.9564451694839
 10
-97.1248327415965
 20
376.8519690637145
 10
-97.20535607285706
 20
375.6130403385378
 10
-97.25479372011751
 20
374.2818492257582
 10
-97.27146214359436
 20
372.9037278421336
210
0.0
220
0.0
230
-1.0
  0
LWPOLYLINE
  5
74F
330
1074
100
AcDbEntity
  8
STEMPEL
100
AcDbPolyline
 90
        7
 70
   128
 43
0.0
 10
-95.79562634517515
 20
379.3657818979734
 10
-95.93345535474554
 20
378.6136756610349
 10
-96.05231963171172
 20
377.69096205032
 10
-96.14866763361284
 20
376.6252108004157
 10
-96.21962058115105
 20
375.4482654635947
 10
-96.26305847315894
 20
374.1952919571929
 10
-96.27768343005664
 20
372.9037278421336
210
0.0
220
0.0
230
-1.0
  0
LINE
  5
758
330
1074
100
AcDbEntity
  8
HILF
100
AcDbLine
 10
100.7695564070277
 20
366.4037278421335
 30
0.0
 11
97.27146214359436
 21
366.4037278421336
 31
0.0
  0
LINE
  5
759
330
1074
100
AcDbEntity
  8
STEMPEL
100
AcDbLine
 10
96.27768343005664
 20
372.9037278421336
 30
0.0
 11
96.27768343005664
 21
366.4037278421358
 31
0.0
  0
LINE
  5
75A
330
1074
100
AcDbEntity
  8
STEMPEL
100
AcDbLine
 10
95.31356926029411
 20
372.9037278421336
 30
0.0
 11
95.31356926029411
 21
366.4037278421358
 31
0.0
  0
LINE
  5
75B
330
1074
100
AcDbEntity
  8
STEMPEL
100
AcDbLine
 10
100.7695564070277
 20
372.9037278421336
 30
0.0
 11
100.7695564070277
 21
366.4037278421369
 31
0.0
  0
LINE
  5
75C
330
1074
100
AcDbEntity
  8
STEMPEL
100
AcDbLine
 10
97.27146214359436
 20
372.9037278421336
 30
0.0
 11
97.27146214359436
 21
366.4037278421347
 31
0.0
  0
LINE
  5
77C
330
1074
100
AcDbEntity
  8
STEMPEL
100
AcDbLine
 10
113.2676070761872
 20
372.9037278421336
 30
0.0
 11
113.2676070761872
 21
366.4037278421369
 31
0.0
  0
LINE
  5
77D
330
1074
100
AcDbEntity
  8
STEMPEL
100
AcDbLine
 10
106.5098078925052
 20
372.9037278421336
 30
0.0
 11
106.5098078925052
 21
366.4037278421369
 31
0.0
  0
LINE
  5
77E
330
1074
100
AcDbEntity
  8
STEMPEL
100
AcDbLine
 10
105.5837535559981
 20
372.9037278421336
 30
0.0
 11
105.5837535559981
 21
366.4037278421369
 31
0.0
  0
LINE
  5
77F
330
1074
100
AcDbEntity
  8
HILF
100
AcDbLine
 10
113.2676070761872
 20
366.4037278421336
 30
0.0
 11
106.5098078925052
 21
366.4037278421336
 31
0.0
  0
LINE
  5
780
330
1074
100
AcDbEntity
  8
HILF
100
AcDbLine
 10
131.9559997686706
 20
366.403727842134
 30
0.0
 11
122.3990285113191
 21
366.4037278421337
 31
0.0
  0
LWPOLYLINE
  5
781
330
1074
100
AcDbEntity
  8
STEMPEL
100
AcDbPolyline
 90
       10
 70
   128
 43
0.0
 10
-117.0380969069324
 20
380.4037278421365
 10
-117.8309242527921
 20
380.289785989728
 10
-118.5996619409379
 20
379.9514224980307
 10
-119.3209522657153
 20
379.3989183705196
 10
-119.9728791855968
 20
378.6490611655286
 10
-120.5356342310126
 20
377.7246349147849
 10
-120.9921183746753
 20
376.6537278421358
 10
-121.3284615768723
 20
375.468878917078
 10
-121.5344442196024
 20
374.2060891746371
 10
-121.6038076244983
 20
372.9037278421349
210
0.0
220
0.0
230
-1.0
  0
LINE
  5
78D
330
1074
100
AcDbEntity
  8
STEMPEL
100
AcDbLine
 10
121.6038076244981
 20
372.9037278421336
 30
0.0
 11
121.6038076244981
 21
366.4037278421369
 31
0.0
  0
LINE
  5
78E
330
1074
100
AcDbEntity
  8
STEMPEL
100
AcDbLine
 10
122.3990285113191
 20
372.9037278421336
 30
0.0
 11
122.3990285113191
 21
366.4037278421369
 31
0.0
  0
LINE
  5
78F
330
1074
100
AcDbEntity
  8
STEMPEL
100
AcDbLine
 10
131.9559997686706
 20
372.9037278421336
 30
0.0
 11
131.9559997686706
 21
366.4037278421369
 31
0.0
  0
LWPOLYLINE
  5
790
330
1074
100
AcDbEntity
  8
STEMPEL
100
AcDbPolyline
 90
       16
 70
   128
 43
0.0
 10
225.5723640916445
 20
374.4037278421335
 10
225.2312286648669
 20
375.6130403385378
 10
224.6195932402745
 20
376.8519690637145
 10
223.7926671144003
 20
377.9564451694837
 10
222.7786102646721
 20
378.8888570467366
 10
221.6119551808802
 20
379.6174525272979
 10
220.332430902655
 20
380.1174201659312
 10
218.9836100946709
 20
380.3717341643478
 10
217.6114252318116
 20
380.3717341643478
 10
216.2626044238275
 20
380.1174201659312
 10
214.9830801456023
 20
379.6174525272979
 10
213.8164250618104
 20
378.8888570467366
 10
212.8023682120822
 20
377.9564451694839
 10
211.975442086208
 20
376.8519690637145
 10
211.3638066616156
 20
375.6130403385378
 10
211.0226712348378
 20
374.4037278421336
  0
LINE
  5
7A5
330
1074
100
AcDbEntity
  8
STEMPEL
100
AcDbLine
 10
280.37629537878
 20
360.403727842134
 30
0.0
 11
272.3149997243542
 21
360.403727842134
 31
0.0
  0
LINE
  5
7A7
102
{ACAD_REACTORS
330
1DE6
330
1DFE
102
}
330
1074
100
AcDbEntity
  8
STEMPEL
100
AcDbLine
 10
141.1038820192584
 20
327.9037278421335
 30
0.0
 11
141.1038820192584
 21
281.9037278421335
 31
0.0
  0
LINE
  5
7A8
102
{ACAD_REACTORS
330
1DFE
102
}
330
1074
100
AcDbEntity
  8
STEMPEL
100
AcDbLine
 10
143.1038820192584
 20
327.9037278421335
 30
0.0
 11
143.1038820192584
 21
281.9037278421335
 31
0.0
  0
ARC
  5
7A9
102
{ACAD_REACTORS
330
1DFE
102
}
330
1074
100
AcDbEntity
  8
STEMPEL
100
AcDbCircle
 10
150.1038820192584
 20
281.9037278421335
 30
0.0
 40
9.0
100
AcDbArc
 50
180.0
 51
270.0000000000001
  0
ARC
  5
7AA
102
{ACAD_REACTORS
330
1DFE
102
}
330
1074
100
AcDbEntity
  8
STEMPEL
100
AcDbCircle
 10
150.1038820192584
 20
281.9037278421335
 30
0.0
 40
7.0
100
AcDbArc
 50
180.0
 51
270.0000000000001
  0
LINE
  5
7E3
102
{ACAD_REACTORS
330
1EEC
102
}
330
1074
100
AcDbEntity
  8
STEMPEL
100
AcDbLine
 10
140.1038820192584
 20
333.9037278421336
 30
0.0
 11
140.1038820192584
 21
336.9037278421338
 31
0.0
  0
ARC
  5
7E4
102
{ACAD_REACTORS
330
1DE6
102
}
330
1074
100
AcDbEntity
  8
SCHRAFF
100
AcDbCircle
 10
141.1038820192584
 20
327.9037278421335
 30
0.0
 40
3.0
100
AcDbArc
 50
180.0
 51
270.0
  0
LINE
  5
7E6
102
{ACAD_REACTORS
330
1E85
102
}
330
1074
100
AcDbEntity
  8
STEMPEL
100
AcDbLine
 10
143.1038820192584
 20
327.9037278421335
 30
0.0
 11
143.1038820192584
 21
333.9037278421336
 31
0.0
  0
LWPOLYLINE
  5
7E9
330
1074
100
AcDbEntity
  8
STEMPEL
100
AcDbPolyline
 90
       16
 70
   128
 43
0.0
 10
-155.711170233796
 20
374.4037278421337
 10
-156.0290578449917
 20
375.6130403385378
 10
-156.5990113261734
 20
376.8519690637145
 10
-157.3695838031294
 20
377.9564451694837
 10
-158.3145343543569
 20
378.8888570467366
 10
-159.4016838221771
 20
379.6174525272979
 10
-160.5940106353553
 20
380.1174201659312
 10
-161.8509115343072
 20
380.3717341643478
 10
-163.1295842664053
 20
380.3717341643478
 10
-164.3864851653573
 20
380.1174201659312
 10
-165.5788119785354
 20
379.6174525272979
 10
-166.6659614463556
 20
378.8888570467366
 10
-167.6109119975831
 20
377.9564451694837
 10
-168.3814844745391
 20
376.8519690637145
 10
-168.9514379557208
 20
375.6130403385378
 10
-169.2693255669165
 20
374.4037278421337
210
0.0
220
0.0
230
-1.0
  0
LWPOLYLINE
  5
815
330
1074
100
AcDbEntity
  8
STEMPEL
100
AcDbPolyline
 90
        8
 70
   128
 43
0.0
 10
-137.6010525969359
 20
380.3938619199571
 10
-138.7174603183068
 20
380.1865547835498
 10
-139.7827395700492
 20
379.717300056096
 10
-140.7585745530875
 20
379.0029758189275
 10
-141.6098665859454
 20
378.0692747755311
 10
-142.305996528682
 20
376.9497801403706
 10
-142.8219260873734
 20
375.6847577230321
 10
-143.1195761173134
 20
374.4037278421338
210
0.0
220
0.0
230
-1.0
  0
LWPOLYLINE
  5
82E
330
1074
100
AcDbEntity
  8
STEMPEL
100
AcDbPolyline
 90
        8
 70
   128
 43
0.0
 10
-162.2984557675445
 20
380.4008542651734
 10
-163.6226652178743
 20
380.2220213581256
 10
-164.8906446150604
 20
379.7717454408014
 10
-166.0553633031461
 20
379.0667277086622
 10
-167.0736206717529
 20
378.1331179922788
 10
-167.9076485110149
 20
377.0055448333028
 10
-168.5265118732091
 20
375.7258310763509
 10
-168.8901263448604
 20
374.4037278421337
210
0.0
220
0.0
230
-1.0
  0
LINE
  5
87A
330
1074
100
AcDbEntity
  8
HILF
100
AcDbLine
 10
199.1038820192584
 20
339.4037278421336
 30
0.0
 11
199.1038820192584
 21
336.9037278421338
 31
0.0
  0
LINE
  5
87B
330
1074
100
AcDbEntity
  8
STEMPEL
100
AcDbLine
 10
198.1038820192584
 20
339.4037278421336
 30
0.0
 11
198.1038820192584
 21
336.9037278421338
 31
0.0
  0
LINE
  5
88A
330
1074
100
AcDbEntity
  8
STEMPEL
100
AcDbLine
 10
210.1038820192584
 20
339.4037278421336
 30
0.0
 11
210.1038820192584
 21
336.9037278421335
 31
0.0
  0
LINE
  5
88B
330
1074
100
AcDbEntity
  8
HILF
100
AcDbLine
 10
209.1038820192584
 20
339.4037278421336
 30
0.0
 11
209.1038820192584
 21
336.9037278421335
 31
0.0
  0
LWPOLYLINE
  5
896
330
1074
100
AcDbEntity
  8
STEMPEL
100
AcDbPolyline
 90
        8
 70
   128
 43
0.0
 10
-189.8448296505321
 20
380.4034376019081
 10
-191.28616963441
 20
380.2481362079843
 10
-192.6702505378593
 20
379.81373596097
 10
-193.9444751503915
 20
379.1167447406949
 10
-195.0604209701212
 20
378.1836492892491
 10
-195.9756803335742
 20
377.0499086739058
 10
-196.6554719723495
 20
375.7586067878362
 10
-197.0605353496777
 20
374.4037278421336
210
0.0
220
0.0
230
-1.0
  0
LWPOLYLINE
  5
8A1
330
1074
100
AcDbEntity
  8
STEMPEL
100
AcDbPolyline
 90
       16
 70
   128
 43
0.0
 10
-182.6353999468724
 20
374.4037278421337
 10
-182.97653537365
 20
375.6130403385378
 10
-183.5881707982423
 20
376.8519690637145
 10
-184.4150969241166
 20
377.9564451694837
 10
-185.4291537738447
 20
378.8888570467366
 10
-186.5958088576367
 20
379.6174525272979
 10
-187.8753331358618
 20
380.1174201659312
 10
-189.224153943846
 20
380.3717341643478
 10
-190.5963388067052
 20
380.3717341643478
 10
-191.9451596146894
 20
380.1174201659312
 10
-193.2246838929145
 20
379.6174525272979
 10
-194.3913389767065
 20
378.8888570467366
 10
-195.4053958264346
 20
377.9564451694839
 10
-196.2323219523089
 20
376.8519690637145
 10
-196.8439573769012
 20
375.6130403385378
 10
-197.185092803679
 20
374.4037278421336
210
0.0
220
0.0
230
-1.0
  0
LWPOLYLINE
  5
8B9
330
1074
100
AcDbEntity
  8
STEMPEL
100
AcDbPolyline
 90
        8
 70
   128
 43
0.0
 10
218.3629343879847
 20
380.4034376019081
 10
216.9215944041068
 20
380.2481362079843
 10
215.5375135006575
 20
379.81373596097
 10
214.2632888881253
 20
379.1167447406949
 10
213.1473430683957
 20
378.1836492892491
 10
212.2320837049426
 20
377.0499086739058
 10
211.5522920661674
 20
375.7586067878362
 10
211.1472286888391
 20
374.4037278421336
  0
LWPOLYLINE
  5
8C8
330
1074
100
AcDbEntity
  8
STEMPEL
100
AcDbPolyline
 90
       17
 70
   128
 43
0.0
 10
276.2517642698461
 20
372.9037278421336
 10
276.1504516580417
 20
374.2818492257582
 10
275.8499639021124
 20
375.6130403385378
 10
275.3605337521912
 20
376.8519690637145
 10
274.698828165027
 20
377.9564451694837
 10
273.8873807307618
 20
378.8888570467366
 10
272.9538243185461
 20
379.6174525272979
 10
271.92995007232
 20
380.1174201659312
 10
270.8506248015372
 20
380.3717341643478
 10
269.7526036337861
 20
380.3717341643478
 10
268.6732783630032
 20
380.1174201659312
 10
267.6494041167771
 20
379.6174525272979
 10
266.7158477045614
 20
378.8888570467366
 10
265.9044002702962
 20
377.9564451694839
 10
265.242694683132
 20
376.8519690637145
 10
264.7532645332108
 20
375.6130403385378
 10
264.4802882529658
 20
374.4037278421334
  0
LWPOLYLINE
  5
8DC
330
1074
100
AcDbEntity
  8
STEMPEL
100
AcDbPolyline
 90
        8
 70
   128
 43
0.0
 10
270.606711441581
 20
380.3938619199571
 10
269.49030372021
 20
380.1865547835498
 10
268.4250244684676
 20
379.717300056096
 10
267.4491894854293
 20
379.0029758189275
 10
266.5978974525715
 20
378.0692747755311
 10
265.9017675098348
 20
376.9497801403706
 10
265.3858379511435
 20
375.6847577230321
 10
265.0881879212034
 20
374.4037278421334
  0
LINE
  5
8EA
330
1074
100
AcDbEntity
  8
STEMPEL
100
AcDbLine
 10
277.8897873459514
 20
361.4037278421354
 30
0.0
 11
272.2800789548624
 21
361.4037278421354
 31
0.0
  0
LINE
  5
8ED
330
1074
100
AcDbEntity
  8
MITTEL
100
AcDbLine
 10
265.1038820192375
 20
367.8725906219822
 30
0.0
 11
265.1038820192376
 21
339.4037278421336
 31
0.0
  0
LINE
  5
931
102
{ACAD_REACTORS
330
1E85
102
}
330
1074
100
AcDbEntity
  8
STEMPEL
100
AcDbLine
 10
265.1038820192584
 20
327.9037278421335
 30
0.0
 11
265.1038820192584
 21
333.9037278421336
 31
0.0
  0
LWPOLYLINE
  5
934
330
1074
100
AcDbEntity
  8
STEMPEL
100
AcDbPolyline
 90
       16
 70
   128
 43
0.0
 10
252.496593804721
 20
374.4037278421335
 10
252.1787061935252
 20
375.6130403385378
 10
251.6087527123434
 20
376.8519690637145
 10
250.8381802353874
 20
377.9564451694837
 10
249.8932296841599
 20
378.8888570467366
 10
248.8060802163397
 20
379.6174525272979
 10
247.6137534031616
 20
380.1174201659312
 10
246.3568525042096
 20
380.3717341643478
 10
245.0781797721115
 20
380.3717341643478
 10
243.8212788731596
 20
380.1174201659312
 10
242.6289520599814
 20
379.6174525272979
 10
241.5418025921613
 20
378.8888570467366
 10
240.5968520409337
 20
377.9564451694837
 10
239.8262795639778
 20
376.8519690637145
 10
239.256326082796
 20
375.6130403385378
 10
238.9384384716002
 20
374.4037278421335
  0
LWPOLYLINE
  5
94C
330
1074
100
AcDbEntity
  8
STEMPEL
100
AcDbPolyline
 90
        8
 70
   128
 43
0.0
 10
245.9093082709724
 20
380.4008542651734
 10
244.5850988206426
 20
380.2220213581256
 10
243.3171194234565
 20
379.7717454408014
 10
242.1524007353708
 20
379.0667277086622
 10
241.134143366764
 20
378.1331179922788
 10
240.3001155275019
 20
377.0055448333028
 10
239.6812521653078
 20
375.7258310763509
 10
239.3176376936563
 20
374.4037278421335
  0
LWPOLYLINE
  5
981
330
1074
100
AcDbEntity
  8
STEMPEL
100
AcDbPolyline
 90
       10
 70
   128
 43
0.0
 10
-306.5133206725854
 20
360.4037278421354
 10
-305.677141397744
 20
360.4948813240621
 10
-304.8663690070412
 20
360.7655721174199
 10
-304.1056384092986
 20
361.2075754194289
 10
-303.4180640187797
 20
361.8074611834215
 10
-302.8245374354112
 20
362.5470021840162
 10
-302.3430926640899
 20
363.4037278421356
 10
-301.9883581605695
 20
364.3516069821817
 10
-301.7711123532354
 20
365.3618387761341
 10
-301.6979561460116
 20
366.4037278421358
210
0.0
220
0.0
230
-1.0
  0
LWPOLYLINE
  5
98D
330
1074
100
AcDbEntity
  8
STEMPEL
100
AcDbPolyline
 90
        7
 70
   128
 43
0.0
 10
-304.7775821151872
 20
361.4037278421354
 10
-304.1574915921228
 20
362.0130657439761
 10
-303.6256714453395
 20
362.7404960172655
 10
-303.1964256456081
 20
363.5664535112092
 10
-302.881299297811
 20
364.4687230616714
 10
-302.688768120845
 20
365.4230369959146
 10
-302.6240104825188
 20
366.4037278421358
210
0.0
220
0.0
230
-1.0
  0
LWPOLYLINE
  5
996
330
1074
100
AcDbEntity
  8
STEMPEL
100
AcDbPolyline
 90
       10
 70
   128
 43
0.0
 10
-299.3038631369354
 20
360.4037278421354
 10
-298.5461135118412
 20
360.4948813240621
 10
-297.8113877256656
 20
360.7655721174199
 10
-297.1220100496325
 20
361.2075754194289
 10
-296.4989268755862
 20
361.8074611834215
 10
-295.9610702704747
 20
362.5470021840162
 10
-295.5247827350758
 20
363.4037278421356
 10
-295.2033206453805
 20
364.3516069821817
 10
-295.0064514643163
 20
365.3618387761341
 10
-294.9401569623296
 20
366.4037278421358
210
0.0
220
0.0
230
-1.0
  0
LWPOLYLINE
  5
9A2
330
1074
100
AcDbEntity
  8
STEMPEL
100
AcDbPolyline
 90
        4
 70
   128
 43
0.0
 10
-287.0007947209892
 20
363.9037278421331
 10
-286.7818470605946
 20
364.7080505020033
 10
-286.6486580364322
 20
365.5471140564987
 10
-286.6039564140187
 20
366.4037278421358
210
0.0
220
0.0
230
-1.0
  0
LWPOLYLINE
  5
9A8
330
1074
100
AcDbEntity
  8
STEMPEL
100
AcDbPolyline
 90
        4
 70
   128
 43
0.0
 10
-286.2055738341683
 20
363.9037278421331
 10
-285.9866261737736
 20
364.7080505020033
 10
-285.8534371496112
 20
365.5471140564987
 10
-285.8087355271978
 20
366.4037278421358
210
0.0
220
0.0
230
-1.0
  0
LWPOLYLINE
  5
9AF
330
1074
100
AcDbEntity
  8
STEMPEL
100
AcDbPolyline
 90
       10
 70
   128
 43
0.0
 10
-279.9143674053703
 20
360.4037278421354
 10
-279.2783630453694
 20
360.4948813240621
 10
-278.6616833560133
 20
360.7655721174199
 10
-278.0830658376083
 20
361.2075754194289
 10
-277.5600914906563
 20
361.8074611834215
 10
-277.1086506260517
 20
362.5470021840162
 10
-276.7424600460258
 20
363.4037278421356
 10
-276.472646266051
 20
364.3516069821817
 10
-276.3074074412994
 20
365.3618387761341
 10
-276.2517642698463
 20
366.4037278421358
210
0.0
220
0.0
230
-1.0
  0
LINE
  5
9BB
102
{ACAD_REACTORS
330
1E4A
330
1EEC
102
}
330
1074
100
AcDbEntity
  8
MITTEL
100
AcDbLine
 10
286.37629537878
 20
368.9037278421331
 30
0.0
 11
286.37629537878
 21
333.9037278421331
 31
0.0
  0
LINE
  5
9BC
330
1074
100
AcDbEntity
  8
STEMPEL
100
AcDbLine
 10
298.37629537878
 20
347.9037278421336
 30
0.0
 11
274.37629537878
 21
347.9037278421336
 31
0.0
  0
LINE
  5
9BD
330
1074
100
AcDbEntity
  8
STEMPEL
100
AcDbLine
 10
294.2874301365605
 20
347.9037278421336
 30
0.0
 11
278.4651606210132
 21
347.9037278421336
 31
0.0
  0
ARC
  5
9BE
330
1074
100
AcDbEntity
  8
STEMPEL
100
AcDbCircle
 10
286.37629537878
 20
363.7267968390481
 30
0.0
 40
15.82306899691459
100
AcDbArc
 50
250.5278273813858
 51
289.4721726186141
  0
LINE
  5
9BF
330
1074
100
AcDbEntity
  8
STEMPEL
100
AcDbLine
 10
294.2874301365605
 20
357.9037278421335
 30
0.0
 11
278.4651606210132
 21
357.9037278421335
 31
0.0
  0
ARC
  5
9C0
330
1074
100
AcDbEntity
  8
STEMPEL
100
AcDbCircle
 10
286.37629537878
 20
342.080658845219
 30
0.0
 40
15.82306899691459
100
AcDbArc
 50
70.52782738138593
 51
109.4721726186141
  0
LINE
  5
9C1
330
1074
100
AcDbEntity
  8
STEMPEL
100
AcDbLine
 10
280.37629537878
 20
362.9037278421331
 30
0.0
 11
292.37629537878
 21
362.9037278421331
 31
0.0
  0
LINE
  5
9C2
330
1074
100
AcDbEntity
  8
STEMPEL
100
AcDbLine
 10
281.37629537878
 20
363.9037278421331
 30
0.0
 11
291.37629537878
 21
363.9037278421331
 31
0.0
  0
LINE
  5
9C3
330
1074
100
AcDbEntity
  8
STEMPEL
100
AcDbLine
 10
281.37629537878
 20
363.9037278421331
 30
0.0
 11
291.37629537878
 21
363.9037278421331
 31
0.0
  0
LINE
  5
9C4
102
{ACAD_REACTORS
330
1EEC
102
}
330
1074
100
AcDbEntity
  8
STEMPEL
100
AcDbLine
 10
268.103882019258
 20
333.9037278421336
 30
0.0
 11
268.1038820192582
 21
336.9037278421338
 31
0.0
  0
ARC
  5
9C5
330
1074
100
AcDbEntity
  8
STEMPEL
100
AcDbCircle
 10
278.4643890784978
 20
352.1988788066985
 30
0.0
 40
4.29515103386132
100
AcDbArc
 50
238.5308054740846
 51
307.8806357171787
  0
ARC
  5
9C6
330
1074
100
AcDbEntity
  8
STEMPEL
100
AcDbCircle
 10
278.4643890784978
 20
353.6085768775686
 30
0.0
 40
4.29515103386132
100
AcDbArc
 50
52.1193642828213
 51
121.4691945223693
  0
LINE
  5
9C8
330
1074
100
AcDbEntity
  8
STEMPEL
100
AcDbLine
 10
278.4719541318043
 20
347.9037278421336
 30
0.0
 11
278.4651606210282
 21
347.9037278421336
 31
0.0
  0
LINE
  5
9C9
330
1074
100
AcDbEntity
  8
STEMPEL
100
AcDbLine
 10
278.4719541318043
 20
357.9037278421335
 30
0.0
 11
278.4651606210282
 21
357.9037278421335
 31
0.0
  0
LINE
  5
9CA
330
1074
100
AcDbEntity
  8
STEMPEL
100
AcDbLine
 10
275.8270869784037
 20
357.0439125618616
 30
0.0
 11
276.222148169687
 21
357.2720012469952
 31
0.0
  0
LINE
  5
9CB
330
1074
100
AcDbEntity
  8
STEMPEL
100
AcDbLine
 10
275.8270869784037
 20
348.7635431224055
 30
0.0
 11
276.2221481694567
 21
348.5354544374047
 31
0.0
  0
LINE
  5
9CC
330
1074
100
AcDbEntity
  8
STEMPEL
100
AcDbLine
 10
275.8270869784037
 20
357.0439125618616
 30
0.0
 11
275.8270869784037
 21
348.7635431224057
 31
0.0
  0
LINE
  5
9CE
330
1074
100
AcDbEntity
  8
STEMPEL
100
AcDbLine
 10
274.37629537878
 20
347.9037278421336
 30
0.0
 11
274.37629537878
 21
345.4037278421335
 31
0.0
  0
LINE
  5
9D1
330
1074
100
AcDbEntity
  8
HILF
100
AcDbLine
 10
281.37629537878
 20
339.4037278421336
 30
0.0
 11
281.37629537878
 21
336.9037278421335
 31
0.0
  0
LINE
  5
9D2
330
1074
100
AcDbEntity
  8
STEMPEL
100
AcDbLine
 10
280.37629537878
 20
339.4037278421336
 30
0.0
 11
280.37629537878
 21
336.9037278421335
 31
0.0
  0
LINE
  5
9D3
330
1074
100
AcDbEntity
  8
STEMPEL
100
AcDbLine
 10
281.1016911785919
 20
356.9987037242397
 30
0.0
 11
281.1016911785919
 21
348.8087519600274
 31
0.0
  0
LINE
  5
9D4
330
1074
100
AcDbEntity
  8
STEMPEL
100
AcDbLine
 10
280.37629537878
 20
362.9037278421331
 30
0.0
 11
280.37629537878
 21
357.9037278421335
 31
0.0
  0
LINE
  5
9D5
330
1074
100
AcDbEntity
  8
HILF
100
AcDbLine
 10
281.37629537878
 20
363.9037278421331
 30
0.0
 11
281.37629537878
 21
357.9037278421335
 31
0.0
  0
LINE
  5
9D6
330
1074
100
AcDbEntity
  8
STEMPEL
100
AcDbLine
 10
280.37629537878
 20
362.9037278421331
 30
0.0
 11
281.37629537878
 21
363.9037278421331
 31
0.0
  0
LINE
  5
9D7
330
1074
100
AcDbEntity
  8
STEMPEL
100
AcDbLine
 10
292.3762953787801
 20
339.4037278421336
 30
0.0
 11
292.37629537878
 21
336.9037278421335
 31
0.0
  0
LINE
  5
9D8
330
1074
100
AcDbEntity
  8
HILF
100
AcDbLine
 10
291.3762953787801
 20
339.4037278421336
 30
0.0
 11
291.37629537878
 21
336.9037278421335
 31
0.0
  0
LINE
  5
9D9
330
1074
100
AcDbEntity
  8
STEMPEL
100
AcDbLine
 10
296.9255037791563
 20
357.0439125618616
 30
0.0
 11
296.9255037791563
 21
348.7635431224057
 31
0.0
  0
LINE
  5
9DA
330
1074
100
AcDbEntity
  8
STEMPEL
100
AcDbLine
 10
291.6508995789682
 20
356.9987037242397
 30
0.0
 11
291.6508995789682
 21
348.8087519600274
 31
0.0
  0
ARC
  5
9DB
330
1074
100
AcDbEntity
  8
STEMPEL
100
AcDbCircle
 10
294.2882016790623
 20
352.1988788066985
 30
0.0
 40
4.29515103386132
100
AcDbArc
 50
232.1193642828213
 51
301.469194525926
  0
LINE
  5
9DC
330
1074
100
AcDbEntity
  8
STEMPEL
100
AcDbLine
 10
296.9255037791563
 20
348.7635431224055
 30
0.0
 11
296.530442588104
 21
348.5354544374052
 31
0.0
  0
LINE
  5
9DD
330
1074
100
AcDbEntity
  8
STEMPEL
100
AcDbLine
 10
298.37629537878
 20
345.4037278421335
 30
0.0
 11
298.37629537878
 21
347.9037278421336
 31
0.0
  0
LINE
  5
9DE
330
1074
100
AcDbEntity
  8
STEMPEL
100
AcDbLine
 10
292.37629537878
 20
362.9037278421331
 30
0.0
 11
292.37629537878
 21
357.9037278421335
 31
0.0
  0
LINE
  5
9DF
330
1074
100
AcDbEntity
  8
HILF
100
AcDbLine
 10
291.37629537878
 20
363.9037278421331
 30
0.0
 11
291.37629537878
 21
357.9037278421335
 31
0.0
  0
ARC
  5
9E0
330
1074
100
AcDbEntity
  8
STEMPEL
100
AcDbCircle
 10
294.2882016790623
 20
353.6085768775686
 30
0.0
 40
4.29515103386132
100
AcDbArc
 50
58.53080547407401
 51
127.8806357171786
  0
LINE
  5
9E1
330
1074
100
AcDbEntity
  8
STEMPEL
100
AcDbLine
 10
296.9255037791563
 20
357.0439125618616
 30
0.0
 11
296.530442588104
 21
357.2720012468619
 31
0.0
  0
LINE
  5
9E2
330
1074
100
AcDbEntity
  8
STEMPEL
100
AcDbLine
 10
296.8917337908483
 20
361.4037278421354
 30
0.0
 11
292.37629537878
 21
361.4037278421354
 31
0.0
  0
LINE
  5
9E3
330
1074
100
AcDbEntity
  8
STEMPEL
100
AcDbLine
 10
291.37629537878
 20
363.9037278421331
 30
0.0
 11
292.37629537878
 21
362.9037278421331
 31
0.0
  0
LINE
  5
9E4
330
1074
100
AcDbEntity
  8
STEMPEL
100
AcDbLine
 10
309.5917792641576
 20
361.4037278421354
 30
0.0
 11
304.7775821151863
 21
361.4037278421354
 31
0.0
  0
LWPOLYLINE
  5
9E5
330
1074
100
AcDbEntity
  8
STEMPEL
100
AcDbPolyline
 90
       18
 70
   128
 43
0.0
 10
294.9401569623294
 20
372.9037278421336
 10
294.8624170610692
 20
374.2818492257582
 10
294.6318446963876
 20
375.6130403385378
 10
294.2562917336222
 20
376.8519690637145
 10
293.7485471784946
 20
377.9564451694837
 10
293.1259016628567
 20
378.8888570467366
 10
292.4095586329627
 20
379.6174525272979
 10
291.6239122915367
 20
380.1174201659312
 10
290.7957168824573
 20
380.3717341643478
 10
289.9531756070696
 20
380.3717341643478
 10
289.1249801979902
 20
380.1174201659312
 10
288.3393338565643
 20
379.6174525272979
 10
287.6229908266703
 20
378.8888570467366
 10
287.0003453110324
 20
377.9564451694839
 10
286.4926007559047
 20
376.8519690637145
 10
286.1170477931393
 20
375.6130403385378
 10
285.8864754284578
 20
374.2818492257582
 10
285.8087355271976
 20
372.9037278421336
  0
LWPOLYLINE
  5
9F9
330
1074
100
AcDbEntity
  8
STEMPEL
100
AcDbPolyline
 90
       10
 70
   128
 43
0.0
 10
291.1696671315844
 20
380.4037278421365
 10
290.3768397857248
 20
380.289785989728
 10
289.6081020975789
 20
379.9514224980307
 10
288.8868117728016
 20
379.3989183705196
 10
288.23488485292
 20
378.6490611655286
 10
287.6721298075045
 20
377.7246349147849
 10
287.2156456638413
 20
376.6537278421358
 10
286.8793024616445
 20
375.468878917078
 10
286.6733198189145
 20
374.2060891746371
 10
286.6039564140185
 20
372.9037278421349
  0
LINE
  5
A05
330
1074
100
AcDbEntity
  8
HILF
100
AcDbLine
 10
276.2517642698462
 20
366.4037278421341
 30
0.0
 11
285.8087355271977
 21
366.4037278421337
 31
0.0
  0
LINE
  5
A08
330
1074
100
AcDbEntity
  8
STEMPEL
100
AcDbLine
 10
276.2517642698463
 20
372.9037278421336
 30
0.0
 11
276.2517642698463
 21
366.4037278421369
 31
0.0
  0
LINE
  5
A09
330
1074
100
AcDbEntity
  8
STEMPEL
100
AcDbLine
 10
285.8087355271978
 20
372.9037278421336
 30
0.0
 11
285.8087355271978
 21
366.4037278421369
 31
0.0
  0
LINE
  5
A0A
330
1074
100
AcDbEntity
  8
STEMPEL
100
AcDbLine
 10
286.6039564140187
 20
372.9037278421336
 30
0.0
 11
286.6039564140187
 21
366.4037278421369
 31
0.0
  0
LINE
  5
A2D
330
1074
100
AcDbEntity
  8
HILF
100
AcDbLine
 10
294.9401569623296
 20
366.4037278421336
 30
0.0
 11
301.6979561460116
 21
366.4037278421336
 31
0.0
  0
LINE
  5
A2E
330
1074
100
AcDbEntity
  8
STEMPEL
100
AcDbLine
 10
294.9401569623296
 20
372.9037278421336
 30
0.0
 11
294.9401569623296
 21
366.4037278421369
 31
0.0
  0
LWPOLYLINE
  5
A2F
330
1074
100
AcDbEntity
  8
STEMPEL
100
AcDbPolyline
 90
       18
 70
   128
 43
0.0
 10
307.4382076314892
 20
372.9037278421336
 10
307.3893382865731
 20
374.2818492257582
 10
307.2443944387528
 20
375.6130403385378
 10
307.0083119769256
 20
376.8519690637145
 10
306.689130406179
 20
377.9564451694837
 10
306.2977190720885
 20
378.8888570467366
 10
305.8474070181908
 20
379.6174525272979
 10
305.3535290813911
 20
380.1174201659312
 10
304.8329036824862
 20
380.3717341643478
 10
304.3032600950146
 20
380.3717341643478
 10
303.7826346961097
 20
380.1174201659312
 10
303.28875675931
 20
379.6174525272979
 10
302.8384447054123
 20
378.8888570467366
 10
302.4470333713218
 20
377.9564451694839
 10
302.1278518005752
 20
376.8519690637145
 10
301.8917693387479
 20
375.6130403385378
 10
301.7468254909277
 20
374.2818492257582
 10
301.6979561460116
 20
372.9037278421336
  0
LWPOLYLINE
  5
A43
330
1074
100
AcDbEntity
  8
STEMPEL
100
AcDbPolyline
 90
        9
 70
   128
 43
0.0
 10
305.0311090570021
 20
380.3054860867985
 10
304.5420485137333
 20
379.979053189041
 10
304.0824355458326
 20
379.4337841757838
 10
303.6664857422084
 20
378.6865439326557
 10
303.3070642129167
 20
377.7604442098782
 10
303.0152876780292
 20
376.6841287879081
 10
302.8001806332909
 20
375.4908875402771
 10
302.6683962271836
 20
374.2176267952014
 10
302.6240104825188
 20
372.9037278421349
  0
LINE
  5
A4E
330
1074
100
AcDbEntity
  8
HILF
100
AcDbLine
 10
307.4382076314891
 20
366.4037278421336
 30
0.0
 11
310.9363018949225
 21
366.4037278421336
 31
0.0
  0
LINE
  5
A4F
330
1074
100
AcDbEntity
  8
STEMPEL
100
AcDbLine
 10
310.9363018949225
 20
372.9037278421336
 30
0.0
 11
310.9363018949225
 21
366.4037278421347
 31
0.0
  0
LINE
  5
A50
330
1074
100
AcDbEntity
  8
STEMPEL
100
AcDbLine
 10
307.4382076314892
 20
372.9037278421336
 30
0.0
 11
307.4382076314892
 21
366.4037278421369
 31
0.0
  0
LINE
  5
A51
330
1074
100
AcDbEntity
  8
STEMPEL
100
AcDbLine
 10
302.6240104825188
 20
372.9037278421336
 30
0.0
 11
302.6240104825188
 21
366.4037278421369
 31
0.0
  0
LINE
  5
A52
330
1074
100
AcDbEntity
  8
STEMPEL
100
AcDbLine
 10
301.6979561460116
 20
372.9037278421336
 30
0.0
 11
301.6979561460116
 21
366.4037278421369
 31
0.0
  0
LINE
  5
A53
330
1074
100
AcDbEntity
  8
STEMPEL
100
AcDbLine
 10
311.9300806084603
 20
372.9037278421336
 30
0.0
 11
311.9300806084603
 21
366.4037278421358
 31
0.0
  0
LINE
  5
A54
330
1074
100
AcDbEntity
  8
HILF
100
AcDbLine
 10
101.7775489617274
 20
433.4037278421381
 30
0.0
 11
306.930215076789
 21
433.4037278421378
 31
0.0
  0
LINE
  5
A55
330
1074
100
AcDbEntity
  8
STEMPEL
100
AcDbLine
 10
284.1038820192584
 20
449.4037278421346
 30
0.0
 11
124.103882019258
 21
449.4037278421354
 31
0.0
  0
LINE
  5
A56
330
1074
100
AcDbEntity
  8
STEMPEL
100
AcDbLine
 10
195.4376845012586
 20
450.4037278421349
 30
0.0
 11
124.103882019258
 21
450.4037278421353
 31
0.0
  0
LINE
  5
A57
330
1074
100
AcDbEntity
  8
TEXT
 62
     2
100
AcDbLine
 10
179.5800564713109
 20
503.8536894939563
 30
0.0
 11
186.0273404972362
 21
480.6304230246069
 31
0.0
  0
LINE
  5
A58
330
1074
100
AcDbEntity
  8
STEMPEL
100
AcDbLine
 10
97.58452845113106
 20
434.722565289016
 30
0.0
 11
121.5633823440821
 21
448.7102184552015
 31
0.0
  0
LINE
  5
A59
330
1074
100
AcDbEntity
  8
STEMPEL
100
AcDbLine
 10
97.07118739755015
 20
435.5808084021787
 30
0.0
 11
121.0574902730172
 21
449.5728184128672
 31
0.0
  0
ARC
  5
A5B
330
1074
100
AcDbEntity
  8
STEMPEL
100
AcDbCircle
 10
100.1038820192584
 20
430.4036698748197
 30
0.0
 40
5.0
100
AcDbArc
 50
120.2564164748152
 51
180.0
  0
ARC
  5
A5C
330
1074
100
AcDbEntity
  8
STEMPEL
100
AcDbCircle
 10
100.1038820192584
 20
430.4036698748197
 30
0.0
 40
6.0
100
AcDbArc
 50
120.2564164748152
 51
180.0
  0
ARC
  5
A5D
330
1074
100
AcDbEntity
  8
STEMPEL
100
AcDbCircle
 10
94.59273841494677
 20
439.9235648245971
 30
0.0
 40
5.0
100
AcDbArc
 50
300.0670458384848
 51
300.2564371635294
  0
ARC
  5
A5E
330
1074
100
AcDbEntity
  8
STEMPEL
100
AcDbCircle
 10
124.103882019258
 20
444.4037278421348
 30
0.0
 40
6.0
100
AcDbArc
 50
90.0
 51
90.0
  0
ARC
  5
A5F
330
1074
100
AcDbEntity
  8
STEMPEL
100
AcDbCircle
 10
124.103882019258
 20
444.4037278421348
 30
0.0
 40
5.0
100
AcDbArc
 50
90.0
 51
120.5373500483013
  0
ARC
  5
A60
330
1074
100
AcDbEntity
  8
STEMPEL
100
AcDbCircle
 10
124.103882019258
 20
444.4037278421348
 30
0.0
 40
6.0
100
AcDbArc
 50
90.0
 51
120.512874327619
  0
LINE
  5
A61
330
1074
100
AcDbEntity
  8
STEMPEL
100
AcDbLine
 10
284.1038820192584
 20
450.4037278421346
 30
0.0
 11
212.7700795372582
 21
450.4037278421351
 31
0.0
  0
LINE
  5
A62
330
1074
100
AcDbEntity
  8
STEMPEL
100
AcDbLine
 10
197.374176174362
 20
450.9037278421351
 30
0.0
 11
210.8335878641549
 21
450.9037278421351
 31
0.0
  0
LINE
  5
A63
330
1074
100
AcDbEntity
  8
STEMPEL
100
AcDbLine
 10
197.374176174362
 20
451.9037278421351
 30
0.0
 11
210.8335878641549
 21
451.9037278421351
 31
0.0
  0
ARC
  5
A64
330
1074
100
AcDbEntity
  8
STEMPEL
100
AcDbCircle
 10
197.374176174362
 20
450.4037278421351
 30
0.0
 40
1.5
100
AcDbArc
 50
90.00000000000007
 51
165.5224878140689
  0
ARC
  5
A65
330
1074
100
AcDbEntity
  8
STEMPEL
100
AcDbCircle
 10
195.4376845012586
 20
450.9037278421351
 30
0.0
 40
1.5
100
AcDbArc
 50
270.0
 51
345.5224878140703
  0
ARC
  5
A66
330
1074
100
AcDbEntity
  8
STEMPEL
100
AcDbCircle
 10
197.374176174362
 20
450.4037278421351
 30
0.0
 40
0.5
100
AcDbArc
 50
90.00000000000007
 51
165.5224878140689
  0
ARC
  5
A67
330
1074
100
AcDbEntity
  8
STEMPEL
100
AcDbCircle
 10
195.4376845012586
 20
450.9037278421351
 30
0.0
 40
0.5
100
AcDbArc
 50
270.0
 51
345.5224878140703
  0
LINE
  5
A68
330
1074
100
AcDbEntity
  8
STEMPEL
100
AcDbLine
 10
195.4376845012586
 20
450.4037278421351
 30
0.0
 11
195.2489353086594
 21
450.4037278421351
 31
0.0
  0
ARC
  5
A69
330
1074
100
AcDbEntity
  8
STEMPEL
100
AcDbCircle
 10
210.8335878641549
 20
450.4037278421351
 30
0.0
 40
1.5
100
AcDbArc
 50
14.47751218593105
 51
89.99999999999992
  0
LINE
  5
A6A
330
1074
100
AcDbEntity
  8
STEMPEL
100
AcDbLine
 10
212.7700795372582
 20
450.4037278421351
 30
0.0
 11
212.9588287298575
 21
450.4037278421351
 31
0.0
  0
ARC
  5
A6B
330
1074
100
AcDbEntity
  8
STEMPEL
100
AcDbCircle
 10
212.7700795372582
 20
450.9037278421351
 30
0.0
 40
0.5
100
AcDbArc
 50
194.4775121859298
 51
270.0
  0
ARC
  5
A6C
330
1074
100
AcDbEntity
  8
STEMPEL
100
AcDbCircle
 10
212.7700795372582
 20
450.9037278421351
 30
0.0
 40
1.5
100
AcDbArc
 50
194.4775121859298
 51
270.0
  0
ARC
  5
A6D
330
1074
100
AcDbEntity
  8
STEMPEL
100
AcDbCircle
 10
210.8335878641549
 20
450.4037278421351
 30
0.0
 40
0.5
100
AcDbArc
 50
14.47751218593105
 51
89.99999999999992
  0
LINE
  5
A6E
330
1074
100
AcDbEntity
  8
STEMPEL
100
AcDbLine
 10
311.1365766409663
 20
435.5808084021787
 30
0.0
 11
287.1502737654992
 21
449.5728184128672
 31
0.0
  0
LINE
  5
A6F
330
1074
100
AcDbEntity
  8
STEMPEL
100
AcDbLine
 10
310.6232355873853
 20
434.722565289016
 30
0.0
 11
286.6443816944343
 21
448.7102184552015
 31
0.0
  0
ARC
  5
A70
330
1074
100
AcDbEntity
  8
STEMPEL
100
AcDbCircle
 10
284.1038820192584
 20
444.4037278421348
 30
0.0
 40
6.0
100
AcDbArc
 50
59.48712567238093
 51
90.0
  0
ARC
  5
A71
330
1074
100
AcDbEntity
  8
STEMPEL
100
AcDbCircle
 10
284.1038820192584
 20
444.4037278421348
 30
0.0
 40
5.0
100
AcDbArc
 50
59.46264995169869
 51
90.0
  0
ARC
  5
A72
330
1074
100
AcDbEntity
  8
STEMPEL
100
AcDbCircle
 10
284.1038820192584
 20
444.4037278421348
 30
0.0
 40
6.0
100
AcDbArc
 50
90.0
 51
90.0
  0
ARC
  5
A73
330
1074
100
AcDbEntity
  8
STEMPEL
100
AcDbCircle
 10
313.6150256235701
 20
439.9235648245971
 30
0.0
 40
5.0
100
AcDbArc
 50
239.7435628364705
 51
239.9329541615152
  0
LINE
  5
A77
102
{ACAD_REACTORS
330
1DC1
330
1E85
102
}
330
1074
100
AcDbEntity
  8
STEMPEL
100
AcDbLine
 10
348.103882019258
 20
430.9037278421324
 30
0.0
 11
348.103882019258
 21
340.9037278421335
 31
0.0
  0
LINE
  5
A78
102
{ACAD_REACTORS
330
1A50
330
1E85
102
}
330
1074
100
AcDbEntity
  8
STEMPEL
100
AcDbLine
 10
354.103882019258
 20
432.9037278421335
 30
0.0
 11
354.1038820192587
 21
340.9037278421335
 31
0.0
  0
LINE
  5
A79
102
{ACAD_REACTORS
330
1DC1
102
}
330
1074
100
AcDbEntity
  8
STEMPEL
100
AcDbLine
 10
345.1038820192582
 20
427.903727842136
 30
0.0
 11
345.1038820192577
 21
367.9037278421365
 31
0.0
  0
LINE
  5
A7A
102
{ACAD_REACTORS
330
1EB0
102
}
330
1074
100
AcDbEntity
  8
STEMPEL
100
AcDbLine
 10
336.6038820192585
 20
430.4037278421365
 30
0.0
 11
336.6038820192585
 21
365.4037278421363
 31
0.0
  0
LINE
  5
A7B
102
{ACAD_REACTORS
330
1EB0
102
}
330
1074
100
AcDbEntity
  8
STEMPEL
100
AcDbLine
 10
342.6038820192587
 20
428.4037278421374
 30
0.0
 11
342.6038820192584
 21
367.4037278421363
 31
0.0
  0
LINE
  5
A7D
330
1074
100
AcDbEntity
  8
STEMPEL
100
AcDbLine
 10
314.1038820192584
 20
430.4036698748197
 30
0.0
 11
314.1038820192584
 21
366.4037278421358
 31
0.0
  0
LINE
  5
A7E
330
1074
100
AcDbEntity
  8
STEMPEL
100
AcDbLine
 10
313.1038820192584
 20
430.4036698748197
 30
0.0
 11
313.1038820192584
 21
366.4037278421358
 31
0.0
  0
LINE
  5
A84
330
1074
100
AcDbEntity
  8
STEMPEL
100
AcDbLine
 10
341.1038820192584
 20
327.9037278421335
 30
0.0
 11
341.1038820192585
 21
323.0215992594076
 31
0.0
  0
LINE
  5
A85
330
1074
100
AcDbEntity
  8
STEMPEL
100
AcDbLine
 10
339.1038820192584
 20
327.9037278421335
 30
0.0
 11
339.1038820192584
 21
320.4617159950215
 31
0.0
  0
ARC
  5
A87
330
1074
100
AcDbEntity
  8
STEMPEL
100
AcDbCircle
 10
332.1038820192584
 20
281.903727842134
 30
0.0
 40
7.0
100
AcDbArc
 50
270.0000000000001
 51
270.8974266750768
  0
ARC
  5
A88
102
{ACAD_REACTORS
330
1E85
102
}
330
1074
100
AcDbEntity
  8
STEMPEL
100
AcDbCircle
 10
341.103882019258
 20
340.9037278421335
 30
0.0
 40
13.0
100
AcDbArc
 50
270.0
 51
0.0
  0
ARC
  5
A89
330
1074
100
AcDbEntity
  8
STEMPEL
100
AcDbCircle
 10
319.1038820192584
 20
366.4037278421358
 30
0.0
 40
5.0
100
AcDbArc
 50
180.0
 51
269.9999999999983
  0
LWPOLYLINE
  5
A8A
330
1074
100
AcDbEntity
  8
STEMPEL
100
AcDbPolyline
 90
       10
 70
   128
 43
0.0
 10
-318.400183509254
 20
360.4037278421365
 10
-317.5421105129812
 20
360.4698550567091
 10
-316.6892983133589
 20
360.7224088064395
 10
-315.8685400064419
 20
361.1534545227569
 10
-315.105621640043
 20
361.7494498931969
 10
-314.4245120845437
 20
362.4916703249176
 10
-313.8466099945981
 20
363.356797221715
 10
-313.3900715201917
 20
364.3176505924309
 10
-313.0692398885942
 20
365.3440429741431
 10
-312.8941947782232
 20
366.4037278421358
210
0.0
220
0.0
230
-1.0
  0
LINE
  5
A96
330
1074
100
AcDbEntity
  8
STEMPEL
100
AcDbLine
 10
334.103882019258
 20
361.4037278421354
 30
0.0
 11
319.103882019258
 21
361.4037278421358
 31
0.0
  0
ARC
  5
A97
102
{ACAD_REACTORS
330
1E4A
102
}
330
1074
100
AcDbEntity
  8
STEMPEL
100
AcDbCircle
 10
331.1038820192584
 20
342.403727842134
 30
0.0
 40
3.0
100
AcDbArc
 50
270.0
 51
90.0
  0
LINE
  5
A98
330
1074
100
AcDbEntity
  8
STEMPEL
100
AcDbLine
 10
315.5146539618936
 20
361.4037278421354
 30
0.0
 11
314.5505397921311
 21
361.4037278421354
 31
0.0
  0
LINE
  5
A99
102
{ACAD_REACTORS
330
1EEC
102
}
330
1074
100
AcDbEntity
  8
STEMPEL
100
AcDbLine
 10
334.1038820192584
 20
336.9037278421335
 30
0.0
 11
334.1038820192584
 21
333.9037278421336
 31
0.0
  0
ARC
  5
A9A
102
{ACAD_REACTORS
330
1E85
102
}
330
1074
100
AcDbEntity
  8
STEMPEL
100
AcDbCircle
 10
341.103882019258
 20
340.9037278421335
 30
0.0
 40
7.0
100
AcDbArc
 50
270.0
 51
0.0
  0
LINE
  5
A9E
330
1074
100
AcDbEntity
  8
STEMPEL
100
AcDbLine
 10
334.103882019258
 20
361.4037278421356
 30
0.0
 11
334.103882019258
 21
360.4037278421354
 31
0.0
  0
LINE
  5
A9F
102
{ACAD_REACTORS
330
1DC1
330
1EB0
102
}
330
1074
100
AcDbEntity
  8
MITTEL
100
AcDbLine
 10
313.1038820192594
 20
397.9037278421363
 30
0.0
 11
348.1038820192584
 21
397.9037278421365
 31
0.0
  0
ARC
  5
AA0
330
1074
100
AcDbEntity
  8
STEMPEL
100
AcDbCircle
 10
318.2808130223439
 20
397.9037278421365
 30
0.0
 40
15.82306899691459
100
AcDbArc
 50
340.5278273813858
 51
19.47217261861403
  0
ARC
  5
AA1
330
1074
100
AcDbEntity
  8
STEMPEL
100
AcDbCircle
 10
329.8087310546937
 20
389.9918215418541
 30
0.0
 40
4.29515103386132
100
AcDbArc
 50
328.5308054740846
 51
37.8806357171787
  0
ARC
  5
AA2
330
1074
100
AcDbEntity
  8
STEMPEL
100
AcDbCircle
 10
329.8087310546935
 20
405.8156341424187
 30
0.0
 40
4.29515103386132
100
AcDbArc
 50
322.1193642828213
 51
31.46919452592601
  0
LINE
  5
AA3
330
1074
100
AcDbEntity
  8
STEMPEL
100
AcDbLine
 10
324.1038820192585
 20
405.8148625999167
 30
0.0
 11
324.1038820192585
 21
389.9925930843695
 31
0.0
  0
ARC
  5
AA4
330
1074
100
AcDbEntity
  8
STEMPEL
100
AcDbCircle
 10
339.9269510161728
 20
397.9037278421365
 30
0.0
 40
15.82306899691459
100
AcDbArc
 50
160.5278273813859
 51
199.4721726186141
  0
LINE
  5
AA5
330
1074
100
AcDbEntity
  8
STEMPEL
100
AcDbLine
 10
319.1038820192591
 20
391.9037278421363
 30
0.0
 11
319.1038820192589
 21
403.9037278421365
 31
0.0
  0
LINE
  5
AA6
330
1074
100
AcDbEntity
  8
STEMPEL
100
AcDbLine
 10
318.1038820192593
 20
392.9037278421365
 30
0.0
 11
318.1038820192593
 21
402.9037278421364
 31
0.0
  0
LINE
  5
AA7
330
1074
100
AcDbEntity
  8
STEMPEL
100
AcDbLine
 10
318.1038820192593
 20
392.9037278421365
 30
0.0
 11
318.1038820192593
 21
402.9037278421364
 31
0.0
  0
LINE
  5
AA8
330
1074
100
AcDbEntity
  8
HILF
100
AcDbLine
 10
318.1038820192593
 20
392.9037278421365
 30
0.0
 11
324.1038820192585
 21
392.9037278421365
 31
0.0
  0
LINE
  5
AA9
330
1074
100
AcDbEntity
  8
STEMPEL
100
AcDbLine
 10
319.1038820192591
 20
391.9037278421363
 30
0.0
 11
324.1038820192585
 21
391.9037278421363
 31
0.0
  0
LINE
  5
AAA
330
1074
100
AcDbEntity
  8
STEMPEL
100
AcDbLine
 10
319.1038820192591
 20
391.9037278421363
 30
0.0
 11
318.1038820192593
 21
392.9037278421365
 31
0.0
  0
LINE
  5
AAC
330
1074
100
AcDbEntity
  8
STEMPEL
100
AcDbLine
 10
312.8941947782228
 20
372.9037278421336
 30
0.0
 11
312.8941947782228
 21
366.4037278421358
 31
0.0
  0
LINE
  5
AAD
330
1074
100
AcDbEntity
  8
STEMPEL
100
AcDbLine
 10
324.9636972995308
 20
387.3545194417598
 30
0.0
 11
324.7356086143968
 21
387.7495806330433
 31
0.0
  0
LINE
  5
AAE
330
1074
100
AcDbEntity
  8
STEMPEL
100
AcDbLine
 10
333.2440667389865
 20
387.3545194417598
 30
0.0
 11
333.4721554239877
 21
387.7495806328129
 31
0.0
  0
LINE
  5
AAF
330
1074
100
AcDbEntity
  8
STEMPEL
100
AcDbLine
 10
324.9636972995308
 20
387.3545194417598
 30
0.0
 11
333.2440667389865
 21
387.3545194417598
 31
0.0
  0
LINE
  5
AB0
330
1074
100
AcDbEntity
  8
STEMPEL
100
AcDbLine
 10
325.0089061371523
 20
392.6291236419481
 30
0.0
 11
333.198857901365
 21
392.6291236419481
 31
0.0
  0
LINE
  5
AB1
330
1074
100
AcDbEntity
  8
STEMPEL
100
AcDbLine
 10
324.1038820192585
 20
389.9993865951606
 30
0.0
 11
324.1038820192585
 21
389.9925930843847
 31
0.0
  0
ARC
  5
AB2
330
1074
100
AcDbEntity
  8
STEMPEL
100
AcDbCircle
 10
328.3990329838232
 20
389.9918215418543
 30
0.0
 40
4.29515103386132
100
AcDbArc
 50
142.1193642828213
 51
211.4691945223693
  0
LINE
  5
AB3
330
1074
100
AcDbEntity
  8
HILF
100
AcDbLine
 10
318.1038820192593
 20
402.9037278421364
 30
0.0
 11
324.1038820192585
 21
402.9037278421363
 31
0.0
  0
LINE
  5
AB4
330
1074
100
AcDbEntity
  8
STEMPEL
100
AcDbLine
 10
319.1038820192589
 20
403.9037278421365
 30
0.0
 11
324.1038820192585
 21
403.9037278421365
 31
0.0
  0
LINE
  5
AB5
330
1074
100
AcDbEntity
  8
STEMPEL
100
AcDbLine
 10
318.1038820192593
 20
402.9037278421364
 30
0.0
 11
319.1038820192589
 21
403.9037278421365
 31
0.0
  0
LINE
  5
AB6
330
1074
100
AcDbEntity
  8
STEMPEL
100
AcDbLine
 10
324.9636972995304
 20
408.4529362425126
 30
0.0
 11
333.2440667389865
 21
408.4529362425127
 31
0.0
  0
LINE
  5
AB7
330
1074
100
AcDbEntity
  8
STEMPEL
100
AcDbLine
 10
324.9636972995308
 20
408.4529362425127
 30
0.0
 11
324.7356086145303
 21
408.0578750514603
 31
0.0
  0
LINE
  5
AB8
330
1074
100
AcDbEntity
  8
STEMPEL
100
AcDbLine
 10
333.2440667389865
 20
408.4529362425126
 30
0.0
 11
333.4721554239868
 21
408.0578750514603
 31
0.0
  0
LINE
  5
AB9
330
1074
100
AcDbEntity
  8
STEMPEL
100
AcDbLine
 10
325.0089061371527
 20
403.1783320423246
 30
0.0
 11
333.1988579013646
 21
403.1783320423246
 31
0.0
  0
ARC
  5
ABA
330
1074
100
AcDbEntity
  8
STEMPEL
100
AcDbCircle
 10
328.3990329838234
 20
405.8156341424189
 30
0.0
 40
4.29515103386132
100
AcDbArc
 50
148.530805474074
 51
217.8806357171787
  0
LINE
  5
ABB
330
1074
100
AcDbEntity
  8
STEMPEL
100
AcDbLine
 10
334.1038820192584
 20
405.8148625999167
 30
0.0
 11
334.1038820192587
 21
389.9925930843695
 31
0.0
  0
LINE
  5
ABC
330
1074
100
AcDbEntity
  8
STEMPEL
100
AcDbLine
 10
334.1038820192584
 20
409.9037278421362
 30
0.0
 11
334.1038820192584
 21
385.9037278421363
 31
0.0
  0
LINE
  5
ABD
330
1074
100
AcDbEntity
  8
STEMPEL
100
AcDbLine
 10
342.6038820192585
 20
391.9037278421366
 30
0.0
 11
345.103882019258
 21
391.9037278421365
 31
0.0
  0
LINE
  5
ABE
330
1074
100
AcDbEntity
  8
HILF
100
AcDbLine
 10
342.6038820192585
 20
392.9037278421369
 30
0.0
 11
345.103882019258
 21
392.9037278421363
 31
0.0
  0
LINE
  5
AC0
102
{ACAD_REACTORS
330
1EB0
102
}
330
1074
100
AcDbEntity
  8
STEMPEL
100
AcDbLine
 10
340.6038820192585
 20
365.4037278421363
 30
0.0
 11
336.6038820192582
 21
365.4037278421363
 31
0.0
  0
LINE
  5
AC1
102
{ACAD_REACTORS
330
1EB0
102
}
330
1074
100
AcDbEntity
  8
STEMPEL
100
AcDbLine
 10
340.6038820192585
 20
365.4037278421363
 30
0.0
 11
342.6038820192584
 21
367.4037278421363
 31
0.0
  0
LINE
  5
AC2
330
1074
100
AcDbEntity
  8
STEMPEL
100
AcDbLine
 10
334.1038820192587
 20
389.9993865951608
 30
0.0
 11
334.1038820192589
 21
389.9925930843847
 31
0.0
  0
LINE
  5
AC3
330
1074
100
AcDbEntity
  8
STEMPEL
100
AcDbLine
 10
334.1038820192584
 20
385.9037278421363
 30
0.0
 11
336.6038820192585
 21
385.9037278421363
 31
0.0
  0
LINE
  5
AC4
102
{ACAD_REACTORS
330
1DC1
102
}
330
1074
100
AcDbEntity
  8
STEMPEL
100
AcDbLine
 10
345.1038820192573
 20
367.9037278421365
 30
0.0
 11
348.1038820192562
 21
367.9037278421365
 31
0.0
  0
LINE
  5
AC5
330
1074
100
AcDbEntity
  8
STEMPEL
100
AcDbLine
 10
342.6038820192585
 20
403.9037278421365
 30
0.0
 11
345.1038820192582
 21
403.9037278421365
 31
0.0
  0
LINE
  5
AC6
330
1074
100
AcDbEntity
  8
HILF
100
AcDbLine
 10
342.6038820192585
 20
402.9037278421361
 30
0.0
 11
345.1038820192582
 21
402.903727842136
 31
0.0
  0
LINE
  5
AC7
330
1074
100
AcDbEntity
  8
STEMPEL
100
AcDbLine
 10
336.6038820192585
 20
409.9037278421362
 30
0.0
 11
334.1038820192584
 21
409.9037278421362
 31
0.0
  0
LINE
  5
AED
330
1074
100
AcDbEntity
  8
TEXT
 62
     2
100
AcDbLine
 10
405.3676056967758
 20
420.9966958444006
 30
0.0
 11
510.5652123147774
 21
420.9966958444006
 31
0.0
  0
TEXT
  5
AEE
330
1074
100
AcDbEntity
  8
TEXT
 62
     1
100
AcDbText
 10
406.7250927086527
 20
424.057198178484
 30
0.0
 40
7.0
  1
Kompressionsdichtung
 41
0.8
  7
GREEKS
100
AcDbText
  0
LINE
  5
AF2
102
{ACAD_REACTORS
330
1EB0
102
}
330
1074
100
AcDbEntity
  8
STEMPEL
100
AcDbLine
 10
340.6038820192585
 20
430.4037278421362
 30
0.0
 11
336.6038820192585
 21
430.4037278421365
 31
0.0
  0
LINE
  5
AF3
102
{ACAD_REACTORS
330
1EB0
102
}
330
1074
100
AcDbEntity
  8
STEMPEL
100
AcDbLine
 10
340.6038820192598
 20
430.4037278421362
 30
0.0
 11
342.6038820192598
 21
428.4037278421362
 31
0.0
  0
LINE
  5
AF4
102
{ACAD_REACTORS
330
1DC1
102
}
330
1074
100
AcDbEntity
  8
STEMPEL
100
AcDbLine
 10
345.1038820192589
 20
427.9037278421363
 30
0.0
 11
348.1038820192575
 21
427.9037278421364
 31
0.0
  0
LINE
  5
AF5
102
{ACAD_REACTORS
330
1E85
102
}
330
1074
100
AcDbEntity
  8
STEMPEL
100
AcDbLine
 10
350.1038820192578
 20
432.9037278421338
 30
0.0
 11
354.103882019258
 21
432.9037278421335
 31
0.0
  0
LINE
  5
AF6
102
{ACAD_REACTORS
330
1E85
102
}
330
1074
100
AcDbEntity
  8
STEMPEL
100
AcDbLine
 10
350.1038820192575
 20
432.903727842133
 30
0.0
 11
348.103882019258
 21
430.9037278421326
 31
0.0
  0
DIMENSION
  5
B02
330
1074
100
AcDbEntity
  8
BEM
100
AcDbDimension
  2
*D4
 10
370.2938312428173
 20
432.9037278421335
 30
0.0
 11
363.7938312428171
 21
380.4037278421336
 31
0.0
 70
    32
 71
     5
 42
105.0
  3
STANDARD
100
AcDbAlignedDimension
 13
341.1038820192584
 23
327.9037278421335
 33
0.0
 14
354.103882019258
 24
432.9037278421335
 34
0.0
 50
90.0
100
AcDbRotatedDimension
  0
TEXT
  5
B04
330
1074
100
AcDbEntity
  8
TEXT
100
AcDbText
 10
836.5811541437437
 20
12.14804815338303
 30
0.0
 40
4.0
  1
Diese Zeichnung ist urheberrechtlich geschützt und bleibt unser Eigentum. Sie darf weder ganz noch teilweise vervielfältigt und nicht an Dritte weitergegeben werden.
 50
90.0
 41
0.8
  7
GREEKS
100
AcDbText
  0
DIMENSION
  5
B05
330
1074
100
AcDbEntity
  8
BEM
100
AcDbDimension
  2
*D3
 10
69.10388201925842
 20
194.1169329568399
 30
0.0
 11
211.6038820192585
 21
200.6169329568399
 31
0.0
 70
    32
 71
     5
 42
285.0000000000002
  3
STANDARD
100
AcDbAlignedDimension
 13
354.1038820192587
 23
340.9037278421335
 33
0.0
 14
69.10388201925844
 24
327.9037278421335
 34
0.0
100
AcDbRotatedDimension
  0
LINE
  5
B0B
330
1074
100
AcDbEntity
  8
TEXT
 62
     2
100
AcDbLine
 10
405.3676056967758
 20
420.9966958444006
 30
0.0
 11
372.7626159336818
 21
413.3313803514595
 31
0.0
  0
LINE
  5
B0C
330
1074
100
AcDbEntity
  8
TEXT
 62
     2
100
AcDbLine
 10
393.421933726676
 20
464.6704357222945
 30
0.0
 11
339.2545553753509
 21
427.4599768780405
 31
0.0
  0
TEXT
  5
B0F
330
1074
100
AcDbEntity
  8
TEXT
 62
     1
100
AcDbText
 10
124.7266535949363
 20
247.5677208913712
 30
0.0
 40
7.0
  1
EDV-Art.Nr. 21810.100X
 41
0.8
  7
GREEKS
100
AcDbText
  0
TEXT
  5
B10
330
1074
100
AcDbEntity
  8
TEXT
 62
     1
100
AcDbText
 10
105.3851029981332
 20
220.8595789656621
 30
0.0
 40
7.0
  1
EDV-Art.Nr. 19927.100X
 41
0.8
  7
GREEKS
100
AcDbText
  0
TEXT
  5
B11
330
1074
100
AcDbEntity
  8
TEXT
 62
     1
100
AcDbText
 10
74.59315892948371
 20
493.2812868892775
 30
0.0
 40
7.0
  1
EDV-Art.Nr. 21007.000X
 41
0.8
  7
GREEKS
100
AcDbText
  0
TEXT
  5
B12
330
1074
100
AcDbEntity
  8
TEXT
 62
     1
100
AcDbText
 10
394.0704492421129
 20
456.1982481448219
 30
0.0
 40
7.0
  1
EDV-Art.Nr. 01378.000X
 41
0.8
  7
GREEKS
100
AcDbText
  0
LINE
  5
B13
330
1074
100
AcDbEntity
  8
TEXT
 62
     2
100
AcDbLine
 10
393.421933726676
 20
464.6704357222945
 30
0.0
 11
499.4508615906989
 21
464.6704357222945
 31
0.0
  0
TEXT
  5
B14
330
1074
100
AcDbEntity
  8
TEXT
 62
     1
100
AcDbText
 10
393.9718807226638
 20
466.8292765309891
 30
0.0
 40
7.0
  1
Losflansch
 41
0.8
  7
GREEKS
100
AcDbText
  0
TEXT
  5
B15
330
1074
100
AcDbEntity
  8
TEXT
 62
     1
100
AcDbText
 10
406.0161212122127
 20
412.5245082669279
 30
0.0
 40
7.0
  1
EDV-Art.Nr. 21811.000X
 41
0.8
  7
GREEKS
100
AcDbText
  0
DIMENSION
  5
1205
330
1074
100
AcDbEntity
  8
BEM
100
AcDbDimension
  2
*D1
 10
55.01502184746644
 20
333.9037278421336
 30
0.0
 11
48.51502184746639
 21
303.4037278421335
 31
0.0
 70
    32
 71
     5
 42
60.99999999999994
  3
STANDARD
100
AcDbAlignedDimension
 13
148.1038820192584
 23
272.9037278421336
 33
0.0
 14
71.10388201925843
 24
333.9037278421336
 34
0.0
 50
90.0
100
AcDbRotatedDimension
  0
DIMENSION
  5
121F
330
1074
100
AcDbEntity
  8
BEM
100
AcDbDimension
  2
*D2
 10
55.03151236885651
 20
450.4037278421353
 30
0.0
 11
47.57256901213486
 21
390.3253263915055
 31
0.0
 70
   160
  1
110
 71
     5
 42
111.0000000000013
  3
STANDARD
100
AcDbAlignedDimension
 13
77.10388201925844
 23
339.403727842134
 33
0.0
 14
124.103882019258
 24
450.4037278421353
 34
0.0
 50
90.0
100
AcDbRotatedDimension
  0
LINE
  5
12F1
102
{ACAD_REACTORS
330
1E85
330
1EEC
102
}
330
1074
100
AcDbEntity
  8
TEXT
 62
     2
100
AcDbLine
 10
102.6348013816508
 20
230.7319108276264
 30
0.0
 11
75.78700727747332
 21
344.4205095216209
 31
0.0
  0
DIMENSION
  5
13AC
330
1074
100
AcDbEntity
  8
BEM
100
AcDbDimension
  2
*D5
 10
314.1038820192584
 20
465.6622202721733
 30
0.0
 11
204.1038820192582
 21
472.1622202721732
 31
0.0
 70
    32
  1
%%C<>
 71
     5
 42
220.0000000000005
  3
STANDARD
100
AcDbAlignedDimension
 13
94.10388201925798
 23
430.4036698748197
 33
0.0
 14
314.1038820192584
 24
430.4036698748197
 34
0.0
100
AcDbRotatedDimension
  0
DIMENSION
  5
13B9
330
1074
100
AcDbEntity
  8
BEM
100
AcDbDimension
  2
*D6
 10
334.103882019258
 20
479.5004701337274
 30
0.0
 11
204.1038820192582
 21
486.0004701337275
 31
0.0
 70
    32
  1
%%C<>
 71
     5
 42
259.9999999999996
  3
STANDARD
100
AcDbAlignedDimension
 13
74.10388201925844
 23
361.4037278421354
 33
0.0
 14
334.103882019258
 24
361.4037278421354
 34
0.0
100
AcDbRotatedDimension
  0
LINE
  5
1502
330
1074
100
AcDbEntity
  8
TEXT
 62
     2
100
AcDbLine
 10
186.8215830469261
 20
477.7695429550184
 30
0.0
 11
189.9241395731379
 21
466.5940624496293
 31
0.0
  0
LINE
  5
1503
330
1074
100
AcDbEntity
  8
TEXT
 62
     2
100
AcDbLine
 10
190.8672076309441
 20
463.1971094509558
 30
0.0
 11
194.5382224002213
 21
449.9740291807166
 31
0.0
  0
ARC
  5
1722
102
{ACAD_REACTORS
330
1E4A
102
}
330
1074
100
AcDbEntity
  8
STEMPEL
100
AcDbCircle
 10
94.77919430876045
 20
350.403727842134
 30
0.0
 40
5.0
100
AcDbArc
 50
181.0000000000017
 51
269.9999999999999
  0
ARC
  5
1723
102
{ACAD_REACTORS
330
1E4A
102
}
330
1074
100
AcDbEntity
  8
STEMPEL
100
AcDbCircle
 10
69.32126020158898
 20
344.2559690907666
 30
0.0
 40
5.0
100
AcDbArc
 50
346.6128248198113
 51
359.0000000000008
  0
LINE
  5
1724
330
1074
100
AcDbEntity
  8
STEMPEL
100
AcDbLine
 10
272.6038820192376
 20
360.4037278421347
 30
0.0
 11
272.7799558329576
 21
350.3164658099474
 31
0.0
  0
ARC
  5
1725
330
1074
100
AcDbEntity
  8
STEMPEL
100
AcDbCircle
 10
277.7791943087396
 20
350.403727842134
 30
0.0
 40
5.0
100
AcDbArc
 50
181.0000000000017
 51
227.111033804872
  0
DIMENSION
  5
19C8
330
1074
100
AcDbEntity
  8
BEM
100
AcDbDimension
  2
*D7
 10
822.4409331200979
 20
333.3242736495694
 30
0.0
 11
813.2807073758176
 21
282.7343510926652
 31
0.0
 70
    33
  1
%%c<>
 71
     5
 42
101.999999999995
  3
STANDARD
100
AcDbAlignedDimension
 13
792.4470824381062
 23
232.7562054641697
 33
0.0
 14
797.7853499748573
 24
334.6164180091327
 34
0.0
  0
LINE
  5
19C9
330
1074
100
AcDbEntity
  8
STEMPEL
100
AcDbLine
 10
801.5178024211898
 20
233.8699498343658
 30
0.0
 11
806.6899616173273
 21
332.5606264265602
 31
0.0
  0
LINE
  5
19CA
330
1074
100
AcDbEntity
  8
HILF
100
AcDbLine
 10
792.7087622192918
 20
237.7493531379391
 30
0.0
 11
797.5236701936426
 21
329.6232703353599
 31
0.0
  0
LINE
  5
19CB
330
1074
100
AcDbEntity
  8
STEMPEL
100
AcDbLine
 10
792.4470824380771
 20
232.7562054641662
 30
0.0
 11
801.5178024211898
 21
233.8699498343658
 31
0.0
  0
LINE
  5
19CC
330
1074
100
AcDbEntity
  8
STEMPEL
100
AcDbLine
 10
792.3770168238855
 20
234.762622139411
 30
0.0
 11
801.6240890666448
 21
235.8980198443755
 31
0.0
  0
LINE
  5
19CD
330
1074
100
AcDbEntity
  8
STEMPEL
100
AcDbLine
 10
797.7853499748573
 20
334.6164180091327
 30
0.0
 11
806.6899616173273
 21
332.5606264265602
 31
0.0
  0
LINE
  5
19CE
330
1074
100
AcDbEntity
  8
STEMPEL
100
AcDbLine
 10
797.5059405356773
 20
332.6283165453529
 30
0.0
 11
806.5836749718721
 21
330.5325564165506
 31
0.0
  0
LINE
  5
19D0
330
1074
100
AcDbEntity
  8
MITTEL
100
AcDbLine
 10
333.9404037160476
 20
307.8555119283274
 30
0.0
 11
809.0970296930315
 21
282.9536083492487
 31
0.0
  0
LINE
  5
19D2
330
1074
100
AcDbEntity
  8
STEMPEL
100
AcDbLine
 10
436.791604723582
 20
251.3953192410353
 30
0.0
 11
792.4470824381062
 21
232.7562054641697
 31
0.0
  0
LINE
  5
19D3
330
1074
100
AcDbEntity
  8
STEMPEL
100
AcDbLine
 10
436.8962766360679
 20
253.3925783105444
 30
0.0
 11
792.3770168238855
 21
234.762622139411
 31
0.0
  0
LINE
  5
19D4
330
1074
100
AcDbEntity
  8
STEMPEL
100
AcDbLine
 10
442.0252003478769
 20
351.258272716491
 30
0.0
 11
797.5059405356773
 21
332.6283165453529
 31
0.0
  0
LINE
  5
19D5
330
1074
100
AcDbEntity
  8
STEMPEL
100
AcDbLine
 10
442.1298722603629
 20
353.2555317860001
 30
0.0
 11
797.7853499748694
 21
334.6164180091299
 31
0.0
  0
DIMENSION
  5
19D6
330
1074
100
AcDbEntity
  8
BEM
100
AcDbDimension
  2
*D8
 10
339.1038820192585
 20
307.4800899385138
 30
0.0
 11
494.0483127824255
 21
291.878815473534
 31
0.0
 70
   162
 71
     5
 42
0.0523598775598178
  3
STANDARD
100
AcDb2LineAngularDimension
 13
341.1038820192584
 23
307.4800899385138
 33
0.0
 14
809.0970296930315
 24
282.9536083492487
 34
0.0
 15
341.1038820192584
 25
307.4800899385138
 35
0.0
 16
503.3168477687289
 26
304.648652089156
 36
0.0
1001
ACAD
1000
DSTYLE
1002
{
1070
    48
1040
2.0
1070
   147
1040
1.5
1070
    72
1070
     0
1070
    71
1070
     1
1002
}
  0
ARC
  5
19D7
330
1074
100
AcDbEntity
  8
HILF
100
AcDbCircle
 10
371.3071869451338
 20
148.363034511177
 30
0.0
 40
124.7152057292721
100
AcDbArc
 50
63.95042500777852
 51
89.85957938960593
  0
ARC
  5
19D8
330
1074
100
AcDbEntity
  8
HILF
100
AcDbCircle
 10
384.3395653764784
 20
341.3572400405645
 30
0.0
 40
66.58535855428208
100
AcDbArc
 50
259.1138784382209
 51
302.2543141912364
  0
LINE
  5
19D9
330
1074
100
AcDbEntity
  8
STEMPEL
100
AcDbLine
 10
370.4960332709601
 20
270.04312866072
 30
0.0
 11
427.4237805215756
 21
253.0176684940615
 31
0.0
  0
LINE
  5
19DA
330
1074
100
AcDbEntity
  8
STEMPEL
100
AcDbLine
 10
371.0690963935463
 20
271.9592702675778
 30
0.0
 11
427.9968436441618
 21
254.9338101009193
 31
0.0
  0
ARC
  5
19DB
330
1074
100
AcDbEntity
  8
STEMPEL
100
AcDbCircle
 10
361.900086432167
 20
241.3010045578521
 30
0.0
 40
30.0
100
AcDbArc
 50
73.3495808652403
 51
87.00000000000091
  0
ARC
  5
19DC
330
1074
100
AcDbEntity
  8
STEMPEL
100
AcDbCircle
 10
361.900086432167
 20
241.3010045578521
 30
0.0
 40
32.0
100
AcDbArc
 50
73.3495808652403
 51
87.00000000000091
  0
ARC
  5
19DD
330
1074
100
AcDbEntity
  8
STEMPEL
100
AcDbCircle
 10
438.8850429732993
 20
291.3405006312183
 30
0.0
 40
40.0
100
AcDbArc
 50
253.3495808652403
 51
267.0000000000009
  0
ARC
  5
19DE
330
1074
100
AcDbEntity
  8
STEMPEL
100
AcDbCircle
 10
438.8850429732993
 20
291.3405006312183
 30
0.0
 40
38.0
100
AcDbArc
 50
253.3495808652403
 51
267.0000000000009
  0
ARC
  5
19DF
330
1074
100
AcDbEntity
  8
HILF
100
AcDbCircle
 10
380.5615893391679
 20
269.2691628696892
 30
0.0
 40
66.58535855428208
100
AcDbArc
 50
51.74568580876365
 51
94.88612156177865
  0
ARC
  5
19E0
330
1074
100
AcDbEntity
  8
HILF
100
AcDbCircle
 10
387.7739913640211
 20
462.5683804380206
 30
0.0
 40
124.7152057292721
100
AcDbArc
 50
264.1404206103938
 51
290.0495749922211
  0
LINE
  5
19E1
330
1074
100
AcDbEntity
  8
STEMPEL
100
AcDbLine
 10
374.6178805081024
 20
339.6741050326571
 30
0.0
 11
433.0134167904762
 21
350.6557280097225
 31
0.0
  0
LINE
  5
19E2
330
1074
100
AcDbEntity
  8
STEMPEL
100
AcDbLine
 10
374.2482480228304
 20
341.6396512228627
 30
0.0
 11
432.6437843052042
 21
352.6212741999281
 31
0.0
  0
ARC
  5
19E3
330
1074
100
AcDbEntity
  8
STEMPEL
100
AcDbCircle
 10
440.0364340106441
 20
313.3103503958167
 30
0.0
 40
40.0
100
AcDbArc
 50
86.9999999999993
 51
100.650419134759
  0
ARC
  5
19E4
330
1074
100
AcDbEntity
  8
STEMPEL
100
AcDbCircle
 10
440.0364340106441
 20
313.3103503958167
 30
0.0
 40
38.0
100
AcDbArc
 50
86.9999999999993
 51
100.650419134759
  0
ARC
  5
19E5
330
1074
100
AcDbEntity
  8
HILF
100
AcDbCircle
 10
400.2406306200755
 20
304.386038868145
 30
0.0
 40
42.99410568964913
100
AcDbArc
 50
131.6409090435425
 51
160.1469472677726
  0
LINE
  5
1A36
330
1074
100
AcDbEntity
  8
STEMPEL
100
AcDbLine
 10
354.0608074862463
 20
339.8463336663842
 30
0.0
 11
367.0290101439757
 21
339.1666989638001
 31
0.0
  0
LINE
  5
1A37
102
{ACAD_REACTORS
330
1A50
102
}
330
1074
100
AcDbEntity
  8
STEMPEL
100
AcDbLine
 10
354.1038820192586
 20
341.8468209177612
 30
0.0
 11
367.1336820564617
 21
341.1639580333093
 31
0.0
  0
ARC
  5
1A3F
330
1074
100
AcDbEntity
  8
STEMPEL
100
AcDbCircle
 10
368.7037607437503
 20
371.1228440759465
 30
0.0
 40
30.0
100
AcDbArc
 50
266.9999999999993
 51
280.650419134759
  0
ARC
  5
1A40
330
1074
100
AcDbEntity
  8
STEMPEL
100
AcDbCircle
 10
368.7037607437503
 20
371.1228440759465
 30
0.0
 40
32.0
100
AcDbArc
 50
266.9999999999993
 51
280.650419134759
  0
LINE
  5
1A4A
102
{ACAD_REACTORS
330
1DFE
102
}
330
1074
100
AcDbEntity
  8
STEMPEL
100
AcDbLine
 10
332.1038820192575
 20
272.903727842134
 30
0.0
 11
332.1038820192584
 21
274.9064725341299
 31
0.0
  0
ARC
  5
1A4B
102
{ACAD_REACTORS
330
1A50
102
}
330
1074
100
AcDbEntity
  8
SCHRAFF
100
AcDbCircle
 10
354.1038820192587
 20
342.1070279971014
 30
0.0
 40
4.0
100
AcDbArc
 50
353.275293187681
 51
90.00000000000081
  0
HATCH
  5
1A50
330
1074
100
AcDbEntity
  8
SCHRAFF
100
AcDbHatch
 10
0.0
 20
0.0
 30
0.0
210
0.0
220
0.0
230
1.0
  2
_USER
 70
     0
 71
     1
 91
        1
 92
        7
 72
     1
 73
     1
 93
        3
 10
354.1038820192586
 20
341.8468209177611
 42
0.0
 10
358.076363007274
 20
341.6386320109352
 42
0.4490229943954076
 10
354.1038820192586
 20
346.1070279971014
 42
0.0
 97
        3
330
A78
330
1A37
330
1A4B
 75
     0
 76
     0
 52
0.0
 41
0.1
 77
     0
 78
     1
 53
0.0
 43
0.0
 44
-32.07344720979631
 45
0.0
 46
0.1
 79
     0
 47
0.040225361624457
 98
        1
 10
354.9937220436969
 20
343.382459563057
  0
ARC
  5
1A53
330
1074
100
AcDbEntity
  8
SCHRAFF
100
AcDbCircle
 10
332.1863941291133
 20
275.9739658663153
 30
0.0
 40
4.350659999647984
100
AcDbArc
 50
224.8857011322861
 51
312.1122412901478
  0
HATCH
  5
1A59
330
1074
100
AcDbEntity
  8
SCHRAFF
100
AcDbHatch
 10
0.0
 20
0.0
 30
0.0
210
0.0
220
0.0
230
1.0
  2
_USER
 70
     0
 71
     0
 91
        1
 92
        7
 72
     1
 73
     1
 93
        3
 10
332.1038820192584
 20
272.903727842134
 42
0.0
 10
329.1038820192575
 20
272.903727842134
 42
0.4001057994641809
 10
335.1038820192574
 20
272.7465045042849
 42
0.0
 97
        0
 75
     0
 76
     0
 52
0.0
 41
0.1
 77
     0
 78
     1
 53
0.0
 43
0.0
 44
-32.07344720979631
 45
0.0
 46
0.1
 79
     0
 47
0.0539957000179914
 98
        1
 10
332.1107322998555
 20
272.1349872459857
  0
LINE
  5
1ABB
330
1074
100
AcDbEntity
  8
BEM
100
AcDbLine
 10
804.1038820192586
 20
285.2152881304634
 30
0.0
 11
804.1038820192586
 21
503.9136975759718
 31
0.0
  0
LINE
  5
1ABC
330
1074
100
AcDbEntity
  8
BEM
100
AcDbLine
 10
204.1038820192584
 20
458.9037278421351
 30
0.0
 11
204.1038820192584
 21
464.1272713477501
 31
0.0
  0
LINE
  5
1ABD
330
1074
100
AcDbEntity
  8
BEM
100
AcDbLine
 10
797.1038820192585
 20
501.9136975759717
 30
0.0
 11
211.1038820192584
 21
501.9136975759717
 31
0.0
  0
SOLID
  5
1ABE
330
1074
100
AcDbEntity
  8
BEM
100
AcDbTrace
 10
797.1038820192585
 20
503.0803642426384
 30
0.0
 11
797.1038820192585
 21
500.7470309093052
 31
0.0
 12
804.1038820192586
 22
501.9136975759717
 32
0.0
 13
804.1038820192586
 23
501.9136975759717
 33
0.0
  0
SOLID
  5
1ABF
330
1074
100
AcDbEntity
  8
BEM
100
AcDbTrace
 10
211.1038820192584
 20
503.0803642426384
 30
0.0
 11
211.1038820192584
 21
500.7470309093052
 31
0.0
 12
204.1038820192584
 22
501.9136975759717
 32
0.0
 13
204.1038820192584
 23
501.9136975759717
 33
0.0
  0
MTEXT
  5
1AC0
330
1074
100
AcDbEntity
  8
BEM
 62
     1
100
AcDbMText
 10
504.1038820192585
 20
508.4136975759718
 30
0.0
 40
7.0
 41
0.0
 71
     5
 72
     1
  1
\A1;600
  7
GREEKS
 73
     1
 44
1.0
  0
LINE
  5
1AC1
330
1074
100
AcDbEntity
  8
BEM
100
AcDbLine
 10
204.1038820192584
 20
491.3951011287533
 30
0.0
 11
204.1038820192584
 21
503.9136975759718
 31
0.0
  0
TEXT
  5
1BDA
330
1074
100
AcDbEntity
  8
TEXT
 62
     1
100
AcDbText
 10
636.8658445794389
 20
309.4412506912773
 30
0.0
 40
7.0
  1
DN100
 50
357.0
 41
0.8
  7
GREEKS
100
AcDbText
  0
ELLIPSE
  5
1C23
330
1074
100
AcDbEntity
  8
STEMPEL
100
AcDbEllipse
 10
109.9308365125955
 20
392.9037278421363
 30
0.0
 11
0.0
 21
-7.499999999999999
 31
0.0
210
0.0
220
0.0
230
-1.0
 40
0.4999999999999926
 41
4.712388980384689
 42
7.853981633974482
  0
ELLIPSE
  5
1C24
330
1074
100
AcDbEntity
  8
STEMPEL
100
AcDbEllipse
 10
109.0627724929065
 20
392.9037278421363
 30
0.0
 11
0.0
 21
-7.499999999999999
 31
0.0
210
0.0
220
0.0
230
-1.0
 40
0.4999999999999926
 41
4.712388980384689
 42
6.167183451052224
  0
ELLIPSE
  5
1C25
330
1074
100
AcDbEntity
  8
STEMPEL
100
AcDbEllipse
 10
149.7330488455793
 20
392.9037278421347
 30
0.0
 11
0.0
 21
-7.5
 31
0.0
210
0.0
220
0.0
230
-1.0
 40
0.8660254037843856
 41
4.712388980384689
 42
7.853981633974482
  0
ELLIPSE
  5
1C26
330
1074
100
AcDbEntity
  8
STEMPEL
100
AcDbEllipse
 10
149.2318718501373
 20
392.9037278421347
 30
0.0
 11
0.0
 21
-7.5
 31
0.0
210
0.0
220
0.0
230
-1.0
 40
0.8660254037843856
 41
4.712388980384689
 42
6.24459510668465
  0
LINE
  5
1C27
330
1074
100
AcDbEntity
  8
STEMPEL
100
AcDbLine
 10
94.10388201925817
 20
385.4037278421344
 30
0.0
 11
95.1038820192584
 21
385.4037278421344
 31
0.0
  0
LINE
  5
1C28
330
1074
100
AcDbEntity
  8
STEMPEL
100
AcDbLine
 10
106.1808365125955
 20
417.9037278421347
 30
0.0
 11
106.1808365125955
 21
392.9037278421379
 31
0.0
  0
LINE
  5
1C29
330
1074
100
AcDbEntity
  8
STEMPEL
100
AcDbLine
 10
113.6808365125954
 20
417.9037278421347
 30
0.0
 11
113.6808365125954
 21
392.9037278421363
 31
0.0
  0
LINE
  5
1C2A
330
1074
100
AcDbEntity
  8
STEMPEL
100
AcDbLine
 10
112.8127724929065
 20
392.9037278421347
 30
0.0
 11
112.8127724929065
 21
417.9037278421363
 31
0.0
  0
ELLIPSE
  5
1C2B
330
1074
100
AcDbEntity
  8
STEMPEL
100
AcDbEllipse
 10
109.9308365125955
 20
417.9037278421347
 30
0.0
 11
0.0
 21
7.499999999999999
 31
0.0
210
0.0
220
0.0
230
1.0
 40
0.4999999999999926
 41
4.712388980384689
 42
7.853981633974482
  0
LINE
  5
1C2C
330
1074
100
AcDbEntity
  8
STEMPEL
100
AcDbLine
 10
94.1038820192584
 20
425.4037278421344
 30
0.0
 11
95.1038820192584
 21
425.4037278421344
 31
0.0
  0
ELLIPSE
  5
1C2D
330
1074
100
AcDbEntity
  8
STEMPEL
100
AcDbEllipse
 10
109.0627724929065
 20
417.9037278421347
 30
0.0
 11
0.0
 21
7.499999999999999
 31
0.0
210
0.0
220
0.0
230
1.0
 40
0.4999999999999926
 41
4.712388980384689
 42
6.167183451052224
  0
LINE
  5
1C2E
330
1074
100
AcDbEntity
  8
STEMPEL
100
AcDbLine
 10
156.2282393739623
 20
417.9037278421347
 30
0.0
 11
156.2282393739623
 21
392.9037278421347
 31
0.0
  0
LINE
  5
1C2F
330
1074
100
AcDbEntity
  8
STEMPEL
100
AcDbLine
 10
143.2378583171964
 20
417.9037278421347
 30
0.0
 11
143.2378583171964
 21
392.9037278421363
 31
0.0
  0
LINE
  5
1C30
330
1074
100
AcDbEntity
  8
STEMPEL
100
AcDbLine
 10
155.7270623785202
 20
417.9037278421347
 30
0.0
 11
155.7270623785202
 21
392.9037278421347
 31
0.0
  0
ELLIPSE
  5
1C31
330
1074
100
AcDbEntity
  8
STEMPEL
100
AcDbEllipse
 10
149.7330488455793
 20
417.9037278421347
 30
0.0
 11
0.0
 21
7.5
 31
0.0
210
0.0
220
0.0
230
1.0
 40
0.8660254037843856
 41
4.712388980384689
 42
7.853981633974482
  0
ELLIPSE
  5
1C32
330
1074
100
AcDbEntity
  8
STEMPEL
100
AcDbEllipse
 10
149.2318718501373
 20
417.9037278421347
 30
0.0
 11
0.0
 21
7.5
 31
0.0
210
0.0
220
0.0
230
1.0
 40
0.8660254037843856
 41
4.712388980384689
 42
6.24459510668465
  0
ARC
  5
1C33
330
1074
100
AcDbEntity
  8
STEMPEL
100
AcDbCircle
 10
204.1038820192585
 20
392.9037278421347
 30
0.0
 40
7.5
100
AcDbArc
 50
179.999999999987
 51
359.999999999974
  0
ELLIPSE
  5
1C34
330
1074
100
AcDbEntity
  8
STEMPEL
100
AcDbEllipse
 10
258.9758921883797
 20
392.9037278421347
 30
0.0
 11
0.0
 21
-7.5
 31
0.0
210
0.0
220
0.0
230
1.0
 40
0.8660254037843856
 41
4.712388980384689
 42
6.24459510668465
  0
ELLIPSE
  5
1C35
330
1074
100
AcDbEntity
  8
STEMPEL
100
AcDbEllipse
 10
258.4747151929378
 20
392.9037278421347
 30
0.0
 11
0.0
 21
-7.5
 31
0.0
210
0.0
220
0.0
230
1.0
 40
0.8660254037843856
 41
4.712388980384689
 42
7.853981633974482
  0
LINE
  5
1C36
330
1074
100
AcDbEntity
  8
STEMPEL
100
AcDbLine
 10
196.6038820192586
 20
417.9037278421331
 30
0.0
 11
196.6038820192586
 21
392.9037278421331
 31
0.0
  0
LINE
  5
1C37
330
1074
100
AcDbEntity
  8
STEMPEL
100
AcDbLine
 10
211.6038820192586
 20
417.9037278421347
 30
0.0
 11
211.6038820192586
 21
392.9037278421347
 31
0.0
  0
ARC
  5
1C38
330
1074
100
AcDbEntity
  8
STEMPEL
100
AcDbCircle
 10
204.1038820192586
 20
417.9037278421347
 30
0.0
 40
7.5
100
AcDbArc
 50
0.0000000000260551
 51
180.000000000013
  0
ELLIPSE
  5
1C39
330
1074
100
AcDbEntity
  8
STEMPEL
100
AcDbEllipse
 10
258.9758921883797
 20
417.9037278421347
 30
0.0
 11
0.0
 21
7.5
 31
0.0
210
0.0
220
0.0
230
-1.0
 40
0.8660254037843856
 41
4.712388980384689
 42
6.24459510668465
  0
ELLIPSE
  5
1C3A
330
1074
100
AcDbEntity
  8
STEMPEL
100
AcDbEllipse
 10
258.4747151929378
 20
417.9037278421347
 30
0.0
 11
0.0
 21
7.5
 31
0.0
210
0.0
220
0.0
230
-1.0
 40
0.8660254037843856
 41
4.712388980384689
 42
7.853981633974482
  0
LINE
  5
1C3B
330
1074
100
AcDbEntity
  8
STEMPEL
100
AcDbLine
 10
252.4807016599968
 20
417.9037278421347
 30
0.0
 11
252.4807016599968
 21
392.9037278421347
 31
0.0
  0
LINE
  5
1C3C
330
1074
100
AcDbEntity
  8
STEMPEL
100
AcDbLine
 10
251.9795246645549
 20
417.9037278421347
 30
0.0
 11
251.9795246645549
 21
392.9037278421347
 31
0.0
  0
LINE
  5
1C3D
330
1074
100
AcDbEntity
  8
STEMPEL
100
AcDbLine
 10
264.9699057213206
 20
417.9037278421347
 30
0.0
 11
264.9699057213206
 21
392.9037278421363
 31
0.0
  0
ELLIPSE
  5
1C3E
330
1074
100
AcDbEntity
  8
STEMPEL
100
AcDbEllipse
 10
298.2769275259218
 20
392.9037278421363
 30
0.0
 11
0.0
 21
-7.499999999999999
 31
0.0
210
0.0
220
0.0
230
1.0
 40
0.4999999999999926
 41
4.712388980384689
 42
7.853981633974482
  0
ELLIPSE
  5
1C3F
330
1074
100
AcDbEntity
  8
STEMPEL
100
AcDbEllipse
 10
299.1449915456105
 20
392.9037278421363
 30
0.0
 11
0.0
 21
-7.499999999999999
 31
0.0
210
0.0
220
0.0
230
1.0
 40
0.4999999999999926
 41
4.712388980384689
 42
6.167183451052224
  0
LINE
  5
1C40
330
1074
100
AcDbEntity
  8
STEMPEL
100
AcDbLine
 10
314.1038820192584
 20
385.4037278421344
 30
0.0
 11
313.1038820192584
 21
385.4037278421344
 31
0.0
  0
LINE
  5
1C41
330
1074
100
AcDbEntity
  8
STEMPEL
100
AcDbLine
 10
295.3949915456107
 20
392.9037278421347
 30
0.0
 11
295.3949915456107
 21
417.9037278421363
 31
0.0
  0
LINE
  5
1C42
330
1074
100
AcDbEntity
  8
STEMPEL
100
AcDbLine
 10
294.5269275259218
 20
417.9037278421347
 30
0.0
 11
294.5269275259218
 21
392.9037278421363
 31
0.0
  0
LINE
  5
1C43
330
1074
100
AcDbEntity
  8
STEMPEL
100
AcDbLine
 10
302.0269275259217
 20
417.9037278421347
 30
0.0
 11
302.0269275259217
 21
392.9037278421379
 31
0.0
  0
ELLIPSE
  5
1C44
330
1074
100
AcDbEntity
  8
STEMPEL
100
AcDbEllipse
 10
298.2769275259218
 20
417.9037278421347
 30
0.0
 11
0.0
 21
7.499999999999999
 31
0.0
210
0.0
220
0.0
230
-1.0
 40
0.4999999999999926
 41
4.712388980384689
 42
7.853981633974482
  0
ELLIPSE
  5
1C45
330
1074
100
AcDbEntity
  8
STEMPEL
100
AcDbEllipse
 10
299.1449915456105
 20
417.9037278421347
 30
0.0
 11
0.0
 21
7.499999999999999
 31
0.0
210
0.0
220
0.0
230
-1.0
 40
0.4999999999999926
 41
4.712388980384689
 42
6.167183451052224
  0
LINE
  5
1C46
330
1074
100
AcDbEntity
  8
STEMPEL
100
AcDbLine
 10
314.1038820192584
 20
425.4037278421344
 30
0.0
 11
313.1038820192584
 21
425.4037278421344
 31
0.0
  0
HATCH
  5
1C47
330
1074
100
AcDbEntity
  8
SCHRAFF
100
AcDbHatch
 10
0.0
 20
0.0
 30
0.0
210
0.0
220
0.0
230
1.0
  2
_USER
 70
     0
 71
     0
 91
        5
 92
        7
 72
     1
 73
     1
 93
        8
 10
314.1038820192584
 20
385.4037278421344
 42
0.0
 10
313.1038820192584
 20
385.4037278421344
 42
0.0
 10
313.1038820192584
 20
366.4037278421358
 42
0.4142135623731889
 10
319.1038820192584
 20
360.4037278421338
 42
0.0
 10
334.1038820192579
 20
360.4037278421338
 42
0.0
 10
334.103882019258
 20
361.4037278421354
 42
0.0
 10
319.103882019258
 20
361.4037278421358
 42
-0.4142135623730697
 10
314.1038820192584
 20
366.4037278421358
 42
0.0
 97
        0
 92
        7
 72
     1
 73
     1
 93
       18
 10
284.1038820192585
 20
450.4037278421346
 42
0.0
 10
212.7700795372582
 20
450.4037278421351
 42
-0.3419987131196471
 10
212.2859566189823
 20
450.7787278421351
 42
0.34199871311958
 10
210.8335878641549
 20
451.9037278421351
 42
0.0
 10
204.1038820192584
 20
451.9037278421351
 42
0.0
 10
204.1038820192584
 20
450.9037278421351
 42
0.0
 10
210.8335878641549
 20
450.9037278421351
 42
-0.3419987131196405
 10
211.3177107824308
 20
450.5287278421351
 42
0.3419987131196771
 10
212.7700795372586
 20
449.4037278421349
 42
0.0
 10
284.1038820192584
 20
449.4037278421346
 42
-0.134038508411305
 10
286.6443816944343
 20
448.7102184552015
 42
0.0
 10
310.6232355873853
 20
434.722565289016
 42
-0.2667503951501031
 10
313.1038820192584
 20
430.4036698748197
 42
0.0
 10
313.1038820192584
 20
425.4037278421344
 42
0.0
 10
314.1038820192585
 20
425.4037278421344
 42
0.0
 10
314.1038820192584
 20
430.4036698748197
 42
0.2662608607095308
 10
311.1365766409824
 20
435.5808084021693
 42
0.0
 10
287.1038820191746
 20
449.5998802648898
 42
0.1316524975832915
 97
        0
 92
        7
 72
     1
 73
     1
 93
       19
 10
196.8900532560863
 20
450.528727842135
 42
-0.341998713119681
 10
197.3741761743623
 20
450.9037278421351
 42
0.0
 10
204.1038820192584
 20
450.9037278421351
 42
0.0
 10
204.1038820192584
 20
451.9037278421351
 42
0.0
 10
197.374176174362
 20
451.9037278421351
 42
0.3419987131196247
 10
195.9218074195343
 20
450.7787278421352
 42
-0.3419987131196876
 10
195.4376845012583
 20
450.4037278421351
 42
0.0
 10
195.2489353086594
 20
450.4037278421351
 42
0.0
 10
124.103882019258
 20
450.4037278421353
 42
0.1316524975829539
 10
121.1038820193488
 20
449.599880264894
 42
0.0
 10
97.07118739764247
 20
435.5808084022325
 42
0.2662608607151232
 10
94.10388201925798
 20
430.4036698748197
 42
0.0
 10
94.10388201925799
 20
425.4037278421344
 42
0.0
 10
95.10388201925845
 20
425.4037278421344
 42
0.0
 10
95.10388201925843
 20
430.4036698748197
 42
-0.2667503951500945
 10
97.58452845113122
 20
434.7225652890162
 42
0.0
 10
121.5633823440821
 20
448.7102184552015
 42
-0.1340385084113132
 10
124.103882019258
 20
449.4037278421354
 42
0.0
 10
195.4376845012586
 20
449.4037278421351
 42
0.341998713119626
 97
        0
 92
        7
 72
     1
 73
     1
 93
        8
 10
95.10388201925843
 20
385.4037278421344
 42
0.0
 10
94.10388201925799
 20
385.4037278421344
 42
0.0
 10
94.10388201925798
 20
366.4037278421358
 42
-0.4142135623730688
 10
89.10388201925844
 20
361.4037278421358
 42
0.0
 10
86.10388201925843
 20
361.4037278421358
 42
0.0
 10
86.10388201925843
 20
360.4037278421356
 42
0.0
 10
89.10388201925838
 20
360.4037278421356
 42
0.4142135623731085
 10
95.10388201925843
 20
366.4037278421358
 42
0.0
 97
        0
 92
        7
 72
     0
 73
     1
 93
        4
 10
78.10388201925845
 20
361.4037278421355
 10
74.10388201925844
 20
361.4037278421354
 10
74.10388201925844
 20
360.4037278421354
 10
78.10388201925843
 20
360.4037278421356
 97
        0
 75
     0
 76
     0
 52
135.0
 41
2.0
 77
     0
 78
     1
 53
135.0
 43
0.0
 44
0.0
 45
-1.414213562373095
 46
-1.414213562373094
 79
     0
 47
0.3384962345992748
 98
        5
 10
313.6630565856162
 20
380.3636367351762
 10
274.0293474101077
 20
450.0938617530951
 10
190.0194357046121
 20
449.7553653113211
 10
94.49203278169807
 20
382.3946153858201
 10
76.53830213194897
 20
361.0693521503156
  0
LINE
  5
1C69
102
{ACAD_REACTORS
330
1E4A
102
}
330
1074
100
AcDbEntity
  8
STEMPEL
100
AcDbLine
 10
271.3432645640662
 20
374.4037278421334
 30
0.0
 11
136.8644994744507
 21
374.4037278421338
 31
0.0
  0
LINE
  5
1C6A
102
{ACAD_REACTORS
330
1E4A
102
}
330
1074
100
AcDbEntity
  8
STEMPEL
100
AcDbLine
 10
135.4026548239986
 20
346.3688283454313
 30
0.0
 11
136.3648040609412
 21
373.9211775904852
 31
0.0
  0
LINE
  5
1C6B
102
{ACAD_REACTORS
330
1E4A
102
}
330
1074
100
AcDbEntity
  8
STEMPEL
100
AcDbLine
 10
140.1038820192584
 20
339.4037278421337
 30
0.0
 11
138.8816550870472
 21
374.4037278421338
 31
0.0
  0
ARC
  5
1C6C
102
{ACAD_REACTORS
330
1E4A
102
}
330
1074
100
AcDbEntity
  8
STEMPEL
100
AcDbCircle
 10
134.4032639969795
 20
346.4037278421338
 30
0.0
 40
1.0
100
AcDbArc
 50
270.0
 51
357.9999999999996
  0
ARC
  5
1C6D
102
{ACAD_REACTORS
330
1E4A
102
}
330
1074
100
AcDbEntity
  8
STEMPEL
100
AcDbCircle
 10
136.8644994744507
 20
373.9037278421339
 30
0.0
 40
0.5
100
AcDbArc
 50
90.0
 51
177.9999999999996
  0
LINE
  5
1C6E
102
{ACAD_REACTORS
330
1E4A
102
}
330
1074
100
AcDbEntity
  8
STEMPEL
100
AcDbLine
 10
268.1038820192585
 20
339.4037278421337
 30
0.0
 11
269.3261089514698
 21
374.4037278421334
 31
0.0
  0
LINE
  5
1C6F
102
{ACAD_REACTORS
330
1E4A
102
}
330
1074
100
AcDbEntity
  8
STEMPEL
100
AcDbLine
 10
272.8051092145183
 20
346.3688283454312
 30
0.0
 11
271.8429599775757
 21
373.9211775904848
 31
0.0
  0
ARC
  5
1C70
102
{ACAD_REACTORS
330
1E4A
102
}
330
1074
100
AcDbEntity
  8
STEMPEL
100
AcDbCircle
 10
273.8045000415374
 20
346.4037278421337
 30
0.0
 40
1.0
100
AcDbArc
 50
182.0000000000004
 51
270.0
  0
ARC
  5
1C71
102
{ACAD_REACTORS
330
1E4A
102
}
330
1074
100
AcDbEntity
  8
STEMPEL
100
AcDbCircle
 10
271.3432645640662
 20
373.9037278421335
 30
0.0
 40
0.5
100
AcDbArc
 50
2.000000000000414
 51
90.0
  0
LINE
  5
1C72
102
{ACAD_REACTORS
330
1E4A
102
}
330
1074
100
AcDbEntity
  8
STEMPEL
100
AcDbLine
 10
134.4032639969795
 20
345.4037278421339
 30
0.0
 11
94.77919430876045
 21
345.403727842134
 31
0.0
  0
DIMENSION
  5
1C85
330
1074
100
AcDbEntity
  8
BEM
100
AcDbDimension
  2
*D9
 10
68.06984779596177
 20
339.403727842134
 30
0.0
 11
61.56984779596172
 21
356.9037278421339
 31
0.0
 70
    32
 71
     5
 42
34.99999999999983
  3
STANDARD
100
AcDbAlignedDimension
 13
136.8644994744507
 23
374.4037278421338
 33
0.0
 14
77.10388201925844
 24
339.403727842134
 34
0.0
 50
90.0
100
AcDbRotatedDimension
  0
TEXT
  5
1D09
330
1074
100
AcDbEntity
  8
TEXT
 62
     1
100
AcDbText
 10
414.9095352251537
 20
371.0196411129311
 30
0.0
 40
7.0
  1
Ablaufkörper
 41
0.8
  7
GREEKS
100
AcDbText
  0
TEXT
  5
1D0A
330
1074
100
AcDbEntity
  8
TEXT
 62
     1
100
AcDbText
 10
415.0081037446028
 20
359.083889266268
 30
0.0
 40
7.0
  1
EDV-Art.Nr. 01369.100X
 41
0.8
  7
GREEKS
100
AcDbText
  0
LINE
  5
1D0B
330
1074
100
AcDbEntity
  8
TEXT
 62
     2
100
AcDbLine
 10
414.3595882291659
 20
367.9288543751561
 30
0.0
 11
520.3885160931888
 21
367.9288543751561
 31
0.0
  0
LINE
  5
1D0C
330
1074
100
AcDbEntity
  8
TEXT
 62
     2
100
AcDbLine
 10
414.3595882291659
 20
367.9288543751561
 30
0.0
 11
374.2379670105147
 21
360.279423266174
 31
0.0
  0
LINE
  5
1D0D
330
1074
100
AcDbEntity
  8
TEXT
 62
     2
100
AcDbLine
 10
367.1113707030053
 20
358.9206943354876
 30
0.0
 11
351.3655169110148
 21
355.9186515422132
 31
0.0
  0
LINE
  5
1D64
330
1074
100
AcDbEntity
  8
STEMPEL
100
AcDbLine
 10
334.2773054353299
 20
314.2839796842829
 30
0.0
 11
345.5230718472149
 21
328.6779043007732
 31
0.0
  0
HATCH
  5
1D65
330
1074
100
AcDbEntity
  8
BEM
100
AcDbHatch
 10
0.0
 20
0.0
 30
0.0
210
0.0
220
0.0
230
1.0
  2
_USER
 70
     0
 71
     0
 91
        1
 92
        7
 72
     1
 73
     1
 93
        3
 10
345.5230718472148
 20
328.6779043007731
 42
-0.0868381007812996
 10
341.1086583301099
 20
327.9037287195623
 42
0.0
 10
341.1086583301099
 20
323.0277126585147
 42
0.0
 97
        0
 75
     0
 76
     0
 52
0.0
 41
0.1
 77
     0
 78
     1
 53
0.0
 43
-3.504467613089047
 44
-126.5696657542299
 45
0.0
 46
0.1
 79
     0
 47
0.2157483914546896
 98
        1
 10
342.4406667584733
 20
326.21757310107
  0
LINE
  5
1D66
330
1074
100
AcDbEntity
  8
STEMPEL
100
AcDbLine
 10
332.10865833011
 20
272.903727842134
 30
0.0
 11
334.2773054353299
 21
314.2839796842829
 31
0.0
  0
HATCH
  5
1D67
330
1074
100
AcDbEntity
  8
SCHRAFF
100
AcDbHatch
 10
0.0
 20
0.0
 30
0.0
210
0.0
220
0.0
230
1.0
  2
_USER
 70
     0
 71
     0
 91
        2
 92
        7
 72
     1
 73
     1
 93
       15
 10
442.1346485712144
 20
353.2555317860001
 42
0.0596317214396058
 10
432.6485606160558
 20
352.6212741999281
 42
0.0
 10
374.253024333682
 20
341.6396512228627
 42
-0.0596317214396036
 10
367.1384583673132
 20
341.1639580333093
 42
0.0
 10
354.1038820192594
 20
341.8470712336061
 42
0.0
 10
354.1038820192593
 20
340.9037278421337
 42
-0.0203549934446397
 10
354.0608278247281
 20
339.8465829163344
 42
0.0
 10
367.0337864548273
 20
339.1666989638001
 42
0.0596317214396004
 10
374.6226568189536
 20
339.674105032657
 42
0.0
 10
433.0181931013277
 20
350.6557280097225
 42
-0.059631721439604
 10
442.0299766587281
 20
351.258272716491
 42
0.0
 10
797.510716846529
 20
332.6283165453529
 42
0.0
 10
806.5884512827237
 20
330.5325564165505
 42
0.0
 10
806.6947379281788
 20
332.5606264265602
 42
0.0
 10
797.7901262857215
 20
334.61641800913
 42
0.0
 97
        0
 92
        7
 72
     1
 73
     1
 93
       14
 10
436.9010529469194
 20
253.3925783105444
 42
-0.0596317214396042
 10
428.0016199550133
 20
254.9338101009193
 42
0.0
 10
371.0738727043978
 20
271.9592702675778
 42
0.0596317214396034
 10
363.5796133427927
 20
273.2571496699985
 42
0.0
 10
332.2133302425959
 20
274.9009869116431
 42
0.0
 10
332.10865833011
 20
272.903727842134
 42
0.0
 10
363.4749414303068
 20
271.2598906004894
 42
-0.0596317214396023
 10
370.5008095818115
 20
270.04312866072
 42
0.0
 10
427.4285568324271
 20
253.0176684940615
 42
0.0596317214396043
 10
436.7963810344336
 20
251.3953192410353
 42
0.0
 10
792.4518587489574
 20
232.7562054641699
 42
0.0
 10
801.5225787320414
 20
233.8699498343658
 42
0.0
 10
801.6288653774964
 20
235.8980198443756
 42
0.0
 10
792.3817931347373
 20
234.762622139411
 42
0.0
 97
        0
 75
     0
 76
     0
 52
135.0
 41
2.0
 77
     0
 78
     1
 53
135.0
 43
-3.504467613089047
 44
-126.5696657542299
 45
-1.414213562373095
 46
-1.414213562373094
 79
     0
 47
0.6164239747927068
 98
        2
 10
551.608164551885
 20
347.1055391779255
 10
468.9455120829126
 20
250.9433988718346
  0
LINE
  5
1D68
330
1074
100
AcDbEntity
  8
STEMPEL
100
AcDbLine
 10
332.2133302425958
 20
274.9009869116431
 30
0.0
 11
363.5796133427927
 21
273.2571496699985
 31
0.0
  0
LINE
  5
1D69
330
1074
100
AcDbEntity
  8
STEMPEL
100
AcDbLine
 10
332.10865833011
 20
272.903727842134
 30
0.0
 11
363.4749414303068
 21
271.2598906004894
 31
0.0
  0
LINE
  5
1DA8
102
{ACAD_REACTORS
330
1E85
102
}
330
1074
100
AcDbEntity
  8
TEXT
 62
     2
100
AcDbLine
 10
368.1036331594991
 20
412.2360703053661
 30
0.0
 11
346.6199561379874
 21
407.1853353253866
 31
0.0
  0
HATCH
  5
1DC1
330
1074
100
AcDbEntity
  8
SCHRAFF
100
AcDbHatch
 10
0.0
 20
0.0
 30
0.0
210
0.0
220
0.0
230
1.0
  2
NET
 70
     0
 71
     1
 91
        2
 92
        7
 72
     0
 73
     1
 93
        4
 10
348.103882019258
 20
427.9037278421364
 10
345.1038820192583
 20
427.9037278421363
 10
345.103882019258
 20
397.9037278421365
 10
348.103882019258
 20
397.9037278421365
 97
        4
330
AF4
330
A79
330
A9F
330
A77
 92
        7
 72
     0
 73
     1
 93
        4
 10
348.103882019258
 20
397.9037278421365
 10
345.1038820192581
 20
397.9037278421365
 10
345.1038820192577
 20
367.9037278421365
 10
348.103882019258
 20
367.9037278421365
 97
        4
330
A9F
330
A79
330
AC4
330
A77
 75
     0
 76
     1
 52
45.0
 41
15.0
 77
     0
 78
     2
 53
45.0
 43
0.0
 44
0.0
 45
-1.325825214724776
 46
1.325825214724776
 79
     0
 53
135.0
 43
0.0
 44
0.0
 45
-1.325825214724776
 46
-1.325825214724776
 79
     0
 47
0.170179878044204
 98
        2
 10
346.0278069953103
 20
417.6177803815087
 10
346.5385211223309
 20
396.3452951811821
  0
HATCH
  5
1DE6
330
1074
100
AcDbEntity
  8
SCHRAFF
100
AcDbHatch
 10
0.0
 20
0.0
 30
0.0
210
0.0
220
0.0
230
1.0
  2
_USER
 70
     0
 71
     1
 91
        1
 92
        7
 72
     1
 73
     1
 93
        3
 10
141.1038820192584
 20
327.9037278421335
 42
0.0
 10
138.1038820192584
 20
327.9037278421335
 42
0.4142135623730951
 10
141.1038820192584
 20
324.9037278421336
 42
0.0
 97
        3
330
59F
330
7E4
330
7A7
 75
     0
 76
     0
 52
0.0
 41
0.1
 77
     0
 78
     1
 53
0.0
 43
0.0
 44
0.0
 45
0.0
 46
0.1
 79
     0
 47
0.2616729879340076
 98
        1
 10
139.4321526405258
 20
327.0046294623862
  0
HATCH
  5
1DFE
330
1074
100
AcDbEntity
  8
SCHRAFF
100
AcDbHatch
 10
0.0
 20
0.0
 30
0.0
210
0.0
220
0.0
230
1.0
  2
_USER
 70
     0
 71
     1
 91
        1
 92
        7
 72
     1
 73
     1
 93
        8
 10
332.1038820192584
 20
274.903727842134
 42
0.0
 10
150.1038820192584
 20
274.9037278421336
 42
-0.4142135623730957
 10
143.1038820192584
 20
281.9037278421335
 42
0.0
 10
143.1038820192584
 20
327.9037278421336
 42
0.0
 10
141.1038820192584
 20
327.9037278421336
 42
0.0
 10
141.1038820192584
 20
281.9037278421335
 42
0.4142135623730949
 10
150.1038820192584
 20
272.9037278421336
 42
0.0
 10
332.1038820192574
 20
272.9037278421341
 42
0.0
 97
        8
330
55B
330
7AA
330
7A8
330
59F
330
7A7
330
7A9
330
55A
330
1A4A
 75
     0
 76
     0
 52
45.0
 41
2.0
 77
     0
 78
     1
 53
45.0
 43
0.0
 44
0.0
 45
-1.414213562373094
 46
1.414213562373095
 79
     0
 47
0.2616729879340076
 98
        1
 10
277.9041325287997
 20
273.6233399049656
  0
HATCH
  5
1E4A
330
1074
100
AcDbEntity
  8
SCHRAFF
100
AcDbHatch
 10
0.0
 20
0.0
 30
0.0
210
0.0
220
0.0
230
1.0
  2
_USER
 70
     0
 71
     1
 91
        7
 92
        7
 72
     1
 73
     1
 93
        4
 10
331.1038820192584
 20
345.4037278421338
 42
0.0
 10
286.37629537878
 20
345.4037278421338
 42
0.0
 10
286.37629537878
 20
339.4037278421336
 42
0.0
 10
331.1038820192584
 20
339.4037278421336
 42
1.0
 97
        4
330
59E
330
9BB
330
5A0
330
A97
 92
        7
 72
     1
 73
     1
 93
        8
 10
286.37629537878
 20
345.4037278421338
 42
0.0
 10
273.8045000415374
 20
345.4037278421339
 42
-0.4040262258351548
 10
272.8051092145183
 20
346.3688283454314
 42
0.0
 10
271.8429599775757
 20
373.9211775904848
 42
0.404026225835091
 10
271.3432645640662
 20
374.4037278421334
 42
0.0
 10
269.3261089514698
 20
374.4037278421335
 42
0.0
 10
268.1038820192586
 20
339.4037278421336
 42
0.0
 10
286.37629537878
 20
339.4037278421336
 42
0.0
 97
        8
330
59E
330
1C70
330
1C6F
330
1C71
330
1C69
330
1C6E
330
5A0
330
9BB
 92
        7
 72
     1
 73
     1
 93
        8
 10
138.8816550870471
 20
374.4037278421337
 42
0.0
 10
136.8644994744507
 20
374.4037278421338
 42
0.4040262258350908
 10
136.3648040609412
 20
373.9211775904852
 42
0.0
 10
135.4026548239986
 20
346.3688283454313
 42
-0.4040262258351227
 10
134.4032639969795
 20
345.4037278421339
 42
0.0
 10
121.8314686597368
 20
345.4037278421339
 42
0.0
 10
121.8314686597368
 20
339.4037278421336
 42
0.0
 10
140.1038820192584
 20
339.4037278421336
 42
0.0
 97
        8
330
1C69
330
1C6D
330
1C6A
330
1C6C
330
1C72
330
6A8
330
5A0
330
1C6B
 92
        7
 72
     1
 73
     1
 93
        8
 10
121.8314686597368
 20
345.403727842134
 42
0.0
 10
94.77919430876045
 20
345.403727842134
 42
-0.4091108014277049
 10
89.77995583297843
 20
350.3164658099474
 42
0.0
 10
89.60388201925843
 20
360.4037278421355
 42
0.0
 10
85.10388201925845
 20
360.4037278421355
 42
0.0
 10
85.10388201925843
 20
353.6537278421356
 42
0.0
 10
85.10388201926275
 20
339.4037278421336
 42
0.0
 10
121.8314686597368
 20
339.4037278421336
 42
0.0
 97
        8
330
1C72
330
1722
330
676
330
65C
330
678
330
67C
330
5A0
330
6A8
 92
        7
 72
     1
 73
     1
 93
        7
 10
79.10388201925844
 20
353.6537278421356
 42
0.0
 10
79.10388201925844
 20
360.4037278421356
 42
0.0
 10
74.60388201925868
 20
360.4037278421354
 42
0.0
 10
74.320498677371
 20
344.1687070585802
 42
-0.0541019412915169
 10
74.18539883763236
 20
343.0983183103712
 42
0.4844268511315474
 10
77.10388201925839
 20
339.4037278421336
 42
0.0
 10
79.10388201926128
 20
339.4037278421336
 42
0.0
 97
        7
330
66B
330
674
330
66F
330
1723
330
675
330
5A0
330
66D
 92
        7
 72
     0
 73
     1
 93
        4
 10
85.10388201925843
 20
353.6537278421355
 10
84.45388201925858
 20
353.0037278421364
 10
84.45388201925856
 20
339.4037278421336
 10
85.10388201926273
 20
339.4037278421336
 97
        4
330
67A
330
67B
330
5A0
330
67C
 92
        7
 72
     0
 73
     1
 93
        4
 10
79.75388201925809
 20
353.0037278421357
 10
79.10388201925844
 20
353.6537278421355
 10
79.10388201926131
 20
339.4037278421336
 10
79.75388201926318
 20
339.4037278421336
 97
        4
330
66E
330
66D
330
5A0
330
66C
 75
     0
 76
     0
 52
45.0
 41
5.0
 77
     0
 78
     1
 53
45.0
 43
0.0
 44
0.0
 45
-3.535533905932737
 46
3.535533905932737
 79
     0
 47
0.0788925369845844
 98
        7
 10
302.9552452685846
 20
343.1081355094782
 10
274.2952788835312
 20
341.4802796772804
 10
135.8806732615349
 20
342.4569928648184
 10
113.7343356950909
 20
342.7825634076971
 10
75.30392712419325
 20
353.2008348099339
 10
84.7181169868104
 20
347.5455077087479
 10
79.43052261364869
 20
348.4133253239397
  0
HATCH
  5
1E85
330
1074
100
AcDbEntity
  8
SCHRAFF
100
AcDbHatch
 10
0.0
 20
0.0
 30
0.0
210
0.0
220
0.0
230
1.0
  2
_USER
 70
     0
 71
     1
 91
        5
 92
        7
 72
     0
 73
     1
 93
        5
 10
354.103882019258
 20
432.9037278421335
 10
350.1038820192582
 20
432.9037278421338
 10
348.103882019258
 20
430.9037278421326
 10
348.103882019258
 20
407.5342009478183
 10
354.1038820192582
 20
408.9447793068922
 97
        5
330
AF5
330
AF6
330
A77
330
1DA8
330
A78
 92
        7
 72
     1
 73
     1
 93
        8
 10
354.1038820192582
 20
408.9447793068922
 42
0.0
 10
348.103882019258
 20
407.5342009478183
 42
0.0
 10
348.103882019258
 20
340.9037278421335
 42
-0.4142135623730951
 10
341.103882019258
 20
333.9037278421336
 42
0.0
 10
265.1038820192584
 20
333.9037278421336
 42
0.0
 10
265.1038820192584
 20
327.9037278421335
 42
0.0
 10
341.1038820192584
 20
327.9037278421335
 42
0.4142135623731004
 10
354.1038820192587
 20
340.9037278421335
 42
0.0
 97
        8
330
1DA8
330
A77
330
A9A
330
5A1
330
931
330
59F
330
A88
330
A78
 92
        7
 72
     0
 73
     1
 93
        4
 10
143.1038820192584
 20
333.9037278421336
 10
101.6447195478743
 20
333.9037278421336
 10
103.4321169639605
 20
327.9037278421335
 10
143.1038820192584
 20
327.9037278421335
 97
        4
330
5A1
330
5A3
330
59F
330
7E6
 92
        7
 72
     0
 73
     1
 93
        4
 10
101.6447195478743
 20
333.9037278421336
 10
78.27056668811785
 20
333.9037278421335
 10
79.68747890689401
 20
327.9037278421335
 10
103.4321169639605
 20
327.9037278421335
 97
        4
330
5A1
330
12F1
330
59F
330
5A3
 92
        7
 72
     0
 73
     1
 93
        5
 10
78.27056668811787
 20
333.9037278421336
 10
71.10388201925845
 20
333.9037278421336
 10
69.10388201925844
 20
331.9037278421336
 10
69.10388201925844
 20
327.9037278421335
 10
79.68747890689408
 20
327.9037278421335
 97
        5
330
5A1
330
662
330
663
330
59F
330
12F1
 75
     0
 76
     0
 52
135.0
 41
5.0
 77
     0
 78
     1
 53
135.0
 43
0.0
 44
0.0
 45
-3.535533905932737
 46
-3.535533905932737
 79
     0
 47
0.3616592124266636
 98
        5
 10
350.9757116989592
 20
420.8436936254075
 10
351.3374953274535
 20
394.4425721085731
 10
126.3091371465605
 20
332.5988460282908
 10
96.64301716319506
 20
329.7055713910183
 10
77.46857655510893
 20
331.513868623902
  0
HATCH
  5
1EB0
330
1074
100
AcDbEntity
  8
SCHRAFF
100
AcDbHatch
 10
0.0
 20
0.0
 30
0.0
210
0.0
220
0.0
230
1.0
  2
_USER
 70
     0
 71
     1
 91
        2
 92
        7
 72
     0
 73
     1
 93
        5
 10
336.6038820192585
 20
397.9037278421365
 10
342.6038820192585
 20
397.9037278421365
 10
342.6038820192587
 20
428.4037278421374
 10
340.6038820192598
 20
430.4037278421362
 10
336.6038820192585
 20
430.4037278421365
 97
        5
330
AF3
330
AF2
330
A7A
330
A9F
330
A7B
 92
        7
 72
     0
 73
     1
 93
        5
 10
342.6038820192585
 20
397.9037278421365
 10
336.6038820192585
 20
397.9037278421365
 10
336.6038820192585
 20
365.4037278421362
 10
340.6038820192585
 20
365.4037278421363
 10
342.6038820192584
 20
367.4037278421362
 97
        5
330
A9F
330
A7A
330
AC0
330
AC1
330
A7B
 75
     0
 76
     0
 52
45.0
 41
5.0
 77
     0
 78
     1
 53
45.0
 43
0.0
 44
0.0
 45
-3.535533905932737
 46
3.535533905932737
 79
     0
 47
0.3616592124266636
 98
        2
 10
339.0369082303976
 20
413.972168505376
 10
340.8458180363134
 20
377.8062472312379
  0
HATCH
  5
1EEC
330
1074
100
AcDbEntity
  8
SCHRAFF
100
AcDbHatch
 10
0.0
 20
0.0
 30
0.0
210
0.0
220
0.0
230
1.0
  2
NET
 70
     0
 71
     1
 91
        5
 92
        7
 72
     0
 73
     1
 93
        4
 10
334.1038820192584
 20
336.9037278421335
 10
286.37629537878
 20
336.9037278421335
 10
286.3762953787801
 20
333.9037278421336
 10
334.1038820192584
 20
333.9037278421336
 97
        4
330
558
330
9BB
330
5A1
330
A99
 92
        7
 72
     0
 73
     1
 93
        4
 10
286.37629537878
 20
336.9037278421336
 10
268.1038820192581
 20
336.9037278421335
 10
268.103882019258
 20
333.9037278421336
 10
286.37629537878
 20
333.9037278421336
 97
        4
330
558
330
9C4
330
5A1
330
9BB
 92
        7
 72
     0
 73
     1
 93
        4
 10
140.1038820192584
 20
336.9037278421335
 10
121.8314686597368
 20
336.9037278421335
 10
121.8314686597368
 20
333.9037278421336
 10
140.1038820192584
 20
333.9037278421336
 97
        4
330
558
330
6A8
330
5A1
330
7E3
 92
        7
 72
     0
 73
     1
 93
        4
 10
121.8314686597368
 20
336.9037278421335
 10
77.56211057872978
 20
336.9037278421335
 10
78.27056668811794
 20
333.9037278421336
 10
121.8314686597368
 20
333.9037278421336
 97
        4
330
558
330
12F1
330
5A1
330
6A8
 92
        7
 72
     0
 73
     1
 93
        4
 10
77.56211057872978
 20
336.9037278421335
 10
74.10388201925844
 20
336.9037278421335
 10
74.10388201925844
 20
333.9037278421336
 10
78.27056668811788
 20
333.9037278421336
 97
        4
330
558
330
664
330
5A1
330
12F1
 75
     0
 76
     1
 52
135.0
 41
15.0
 77
     0
 78
     2
 53
135.0
 43
0.0
 44
0.0
 45
-1.325825214724776
 46
-1.325825214724776
 79
     0
 53
225.0
 43
0.0
 44
0.0
 45
1.325825214724776
 46
-1.325825214724776
 79
     0
 47
0.2895868002644928
 98
        5
 10
293.2902209243827
 20
335.8997378037429
 10
279.0956515460146
 20
335.8997378037429
 10
129.6181623674329
 20
335.0309770525637
 10
112.5267437968584
 20
335.3205634499893
 10
75.15737046014328
 20
335.3205634499893
  0
ENDSEC
  0
SECTION
  2
OBJECTS
  0
DICTIONARY
  5
1062
330
0
100
AcDbDictionary
281
     1
  3
ACAD_COLOR
350
191C
  3
ACAD_GROUP
350
1063
  3
ACAD_LAYOUT
350
106F
  3
ACAD_MATERIAL
350
191B
  3
ACAD_MLINESTYLE
350
106C
  3
ACAD_PLOTSETTINGS
350
106E
  3
ACAD_PLOTSTYLENAME
350
1064
  3
AcDbVariableDictionary
350
1154
  0
DICTIONARY
  5
16E8
330
1074
100
AcDbDictionary
280
     1
281
     1
  3
ACAD_LAYOUTSELFREF
360
18DB
  0
DICTIONARY
  5
16EA
330
1070
100
AcDbDictionary
280
     1
281
     1
  3
ACAD_LAYOUTSELFREF
360
18DA
  0
DICTIONARY
  5
191C
102
{ACAD_REACTORS
330
1062
102
}
330
1062
100
AcDbDictionary
281
     1
  0
DICTIONARY
  5
1063
102
{ACAD_REACTORS
330
1062
102
}
330
1062
100
AcDbDictionary
281
     1
  0
DICTIONARY
  5
106F
102
{ACAD_REACTORS
330
1062
102
}
330
1062
100
AcDbDictionary
281
     1
  3
Layout1
350
1073
  3
Model
350
1077
  0
DICTIONARY
  5
191B
102
{ACAD_REACTORS
330
1062
102
}
330
1062
100
AcDbDictionary
281
     1
  0
DICTIONARY
  5
106C
102
{ACAD_REACTORS
330
1062
102
}
330
1062
100
AcDbDictionary
281
     1
  3
Standard
350
106D
  0
DICTIONARY
  5
106E
102
{ACAD_REACTORS
330
1062
102
}
330
1062
100
AcDbDictionary
281
     1
  0
ACDBDICTIONARYWDFLT
  5
1064
102
{ACAD_REACTORS
330
1062
102
}
330
1062
100
AcDbDictionary
281
     1
  3
Normal
350
1065
100
AcDbDictionaryWithDefault
340
1065
  0
DICTIONARY
  5
1154
102
{ACAD_REACTORS
330
1062
102
}
330
1062
100
AcDbDictionary
281
     1
  3
DIMASSOC
350
1B3C
  3
PROJECTNAME
350
1B3D
  3
SORTENTS
350
1155
  0
XRECORD
  5
18DB
102
{ACAD_REACTORS
330
16E8
102
}
330
16E8
100
AcDbXrecord
280
     1
340
1074
  0
XRECORD
  5
18DA
102
{ACAD_REACTORS
330
16EA
102
}
330
16EA
100
AcDbXrecord
280
     1
340
1070
  0
LAYOUT
  5
1073
102
{ACAD_REACTORS
330
106F
102
}
330
106F
100
AcDbPlotSettings
  1

  2
\\NT_WORK01\HP LaserJet 5000 PCL 6
  4

  6

 40
0.0
 41
0.0
 42
0.0
 43
0.0
 44
0.0
 45
0.0
 46
0.0
 47
0.0
 48
0.0
 49
0.0
140
0.0
141
0.0
142
1.0
143
1.0
 70
   688
 72
     0
 73
     0
 74
     5
  7
monochrome.ctb
 75
    16
147
1.0
 76
     0
 77
     2
 78
   300
148
0.0
149
0.0
100
AcDbLayout
  1
Layout1
 70
     0
 71
     1
 10
0.0
 20
0.0
 11
12.0
 21
9.0
 12
0.0
 22
0.0
 32
0.0
 14
1.000000000000000E+20
 24
1.000000000000000E+20
 34
1.000000000000000E+20
 15
-1.000000000000000E+20
 25
-1.000000000000000E+20
 35
-1.000000000000000E+20
146
0.0
 13
0.0
 23
0.0
 33
0.0
 16
1.0
 26
0.0
 36
0.0
 17
0.0
 27
1.0
 37
0.0
 76
     0
330
1070
  0
LAYOUT
  5
1077
102
{ACAD_REACTORS
330
106F
102
}
330
106F
100
AcDbPlotSettings
  1

  2
\\D-1\BÜRO 2000  PHASER 740
  4
A4
  6

 40
5.873749732971191
 41
6.085414409637451
 42
5.577407836914062
 43
5.662078857421875
 44
209.9733276367187
 45
296.9683227539062
 46
0.0
 47
2.24
 48
0.0
 49
0.0
140
0.0
141
0.0
142
1.0
143
2.992109142268729
 70
 11956
 72
     1
 73
     1
 74
     2
  7
monochrome.ctb
 75
     0
147
0.3342124075199217
 76
     0
 77
     2
 78
   300
148
0.0
149
0.0
100
AcDbLayout
  1
Model
 70
     1
 71
     0
 10
0.0
 20
0.0
 11
12.0
 21
9.0
 12
0.0
 22
0.0
 32
0.0
 14
0.0
 24
0.0
 34
0.0
 15
0.0
 25
0.0
 35
0.0
146
0.0
 13
0.0
 23
0.0
 33
0.0
 16
1.0
 26
0.0
 36
0.0
 17
0.0
 27
1.0
 37
0.0
 76
     0
330
1074
  0
MLINESTYLE
  5
106D
102
{ACAD_REACTORS
330
106C
102
}
330
106C
100
AcDbMlineStyle
  2
STANDARD
 70
     0
  3

 62
   256
 51
90.0
 52
90.0
 71
     2
 49
0.5
 62
   256
  6
BYLAYER
 49
-0.5
 62
   256
  6
BYLAYER
  0
ACDBPLACEHOLDER
  5
1065
102
{ACAD_REACTORS
330
1064
102
}
330
1064
  0
DICTIONARYVAR
  5
1B3C
102
{ACAD_REACTORS
330
1154
102
}
330
1154
100
DictionaryVariables
280
     0
  1
1
  0
DICTIONARYVAR
  5
1B3D
102
{ACAD_REACTORS
330
1154
102
}
330
1154
100
DictionaryVariables
280
     0
  1

  0
DICTIONARYVAR
  5
1155
102
{ACAD_REACTORS
330
1154
102
}
330
1154
100
DictionaryVariables
280
     0
  1
96
  0
ENDSEC
  0
EOF
