  0
SECTION
  2
HEADER
  9
$ACADVER
  1
AC1018
  9
$ACADMAINTVER
 70
     2
  9
$DWGCODEPAGE
  3
ANSI_1252
  9
$INSBASE
 10
0.0
 20
0.0
 30
0.0
  9
$EXTMIN
 10
-0.0512671842575401
 20
-0.0362532231533805
 30
-0.0000000349181948
  9
$EXTMAX
 10
840.0512750076059
 20
594.0362587553789
 30
0.0000000814935746
  9
$LIMMIN
 10
0.0
 20
0.0
  9
$LIMMAX
 10
839.9999999999998
 20
594.0000000000001
  9
$ORTHOMODE
 70
     1
  9
$REGENMODE
 70
     1
  9
$FILLMODE
 70
     1
  9
$QTEXTMODE
 70
     0
  9
$MIRRTEXT
 70
     1
  9
$LTSCALE
 40
20.0
  9
$ATTMODE
 70
     1
  9
$TEXTSIZE
 40
2.5
  9
$TRACEWID
 40
0.5
  9
$TEXTSTYLE
  7
GREEKS
  9
$CLAYER
  8
VOLL
  9
$CELTYPE
  6
ByLayer
  9
$CECOLOR
 62
   256
  9
$CELTSCALE
 40
1.0
  9
$DISPSILH
 70
     0
  9
$DIMSCALE
 40
2.0
  9
$DIMASZ
 40
3.5
  9
$DIMEXO
 40
1.0
  9
$DIMDLI
 40
1.0
  9
$DIMRND
 40
0.0
  9
$DIMDLE
 40
0.0
  9
$DIMEXE
 40
1.0
  9
$DIMTP
 40
0.0
  9
$DIMTM
 40
2.0
  9
$DIMTXT
 40
3.5
  9
$DIMCEN
 40
0.09
  9
$DIMTSZ
 40
0.0
  9
$DIMTOL
 70
     0
  9
$DIMLIM
 70
     0
  9
$DIMTIH
 70
     0
  9
$DIMTOH
 70
     0
  9
$DIMSE1
 70
     0
  9
$DIMSE2
 70
     0
  9
$DIMTAD
 70
     1
  9
$DIMZIN
 70
     8
  9
$DIMBLK
  1

  9
$DIMASO
 70
     1
  9
$DIMSHO
 70
     0
  9
$DIMPOST
  1

  9
$DIMAPOST
  1

  9
$DIMALT
 70
     0
  9
$DIMALTD
 70
     2
  9
$DIMALTF
 40
25.4
  9
$DIMLFAC
 40
1.0
  9
$DIMTOFL
 70
     1
  9
$DIMTVP
 40
0.0
  9
$DIMTIX
 70
     0
  9
$DIMSOXD
 70
     0
  9
$DIMSAH
 70
     0
  9
$DIMBLK1
  1

  9
$DIMBLK2
  1

  9
$DIMSTYLE
  2
STANDARD
  9
$DIMCLRD
 70
   256
  9
$DIMCLRE
 70
     0
  9
$DIMCLRT
 70
     1
  9
$DIMTFAC
 40
0.5
  9
$DIMGAP
 40
1.199999999999999
  9
$DIMJUST
 70
     0
  9
$DIMSD1
 70
     0
  9
$DIMSD2
 70
     0
  9
$DIMTOLJ
 70
     1
  9
$DIMTZIN
 70
     0
  9
$DIMALTZ
 70
     0
  9
$DIMALTTZ
 70
     0
  9
$DIMUPT
 70
     0
  9
$DIMDEC
 70
     2
  9
$DIMTDEC
 70
     2
  9
$DIMALTU
 70
     2
  9
$DIMALTTD
 70
     2
  9
$DIMTXSTY
  7
GREEKS
  9
$DIMAUNIT
 70
     0
  9
$DIMADEC
 70
     0
  9
$DIMALTRND
 40
0.0
  9
$DIMAZIN
 70
     2
  9
$DIMDSEP
 70
    46
  9
$DIMATFIT
 70
     3
  9
$DIMFRAC
 70
     0
  9
$DIMLDRBLK
  1

  9
$DIMLUNIT
 70
     2
  9
$DIMLWD
 70
    -1
  9
$DIMLWE
 70
    -2
  9
$DIMTMOVE
 70
     0
  9
$LUNITS
 70
     2
  9
$LUPREC
 70
     2
  9
$SKETCHINC
 40
1.0
  9
$FILLETRAD
 40
5.7
  9
$AUNITS
 70
     0
  9
$AUPREC
 70
     0
  9
$MENU
  1
ACAD
  9
$ELEVATION
 40
0.0
  9
$PELEVATION
 40
0.0
  9
$THICKNESS
 40
0.0
  9
$LIMCHECK
 70
     0
  9
$CHAMFERA
 40
0.0
  9
$CHAMFERB
 40
0.0
  9
$CHAMFERC
 40
0.0
  9
$CHAMFERD
 40
0.0
  9
$SKPOLY
 70
     0
  9
$TDCREATE
 40
2452806.195245625
  9
$TDUCREATE
 40
2452806.153578959
  9
$TDUPDATE
 40
2456269.304769514
  9
$TDUUPDATE
 40
2456269.263102847
  9
$TDINDWG
 40
0.5041974074
  9
$TDUSRTIMER
 40
0.5041974074
  9
$USRTIMER
 70
     1
  9
$ANGBASE
 50
0.0
  9
$ANGDIR
 70
     0
  9
$PDMODE
 70
     0
  9
$PDSIZE
 40
0.0
  9
$PLINEWID
 40
0.0
  9
$SPLFRAME
 70
     0
  9
$SPLINETYPE
 70
     6
  9
$SPLINESEGS
 70
     8
  9
$HANDSEED
  5
32AF
  9
$SURFTAB1
 70
     6
  9
$SURFTAB2
 70
     6
  9
$SURFTYPE
 70
     6
  9
$SURFU
 70
     6
  9
$SURFV
 70
     6
  9
$UCSBASE
  2

  9
$UCSNAME
  2

  9
$UCSORG
 10
0.0
 20
0.0
 30
0.0
  9
$UCSXDIR
 10
1.0
 20
0.0
 30
0.0
  9
$UCSYDIR
 10
0.0
 20
1.0
 30
0.0
  9
$UCSORTHOREF
  2

  9
$UCSORTHOVIEW
 70
     0
  9
$UCSORGTOP
 10
0.0
 20
0.0
 30
0.0
  9
$UCSORGBOTTOM
 10
0.0
 20
0.0
 30
0.0
  9
$UCSORGLEFT
 10
0.0
 20
0.0
 30
0.0
  9
$UCSORGRIGHT
 10
0.0
 20
0.0
 30
0.0
  9
$UCSORGFRONT
 10
0.0
 20
0.0
 30
0.0
  9
$UCSORGBACK
 10
0.0
 20
0.0
 30
0.0
  9
$PUCSBASE
  2

  9
$PUCSNAME
  2

  9
$PUCSORG
 10
0.0
 20
0.0
 30
0.0
  9
$PUCSXDIR
 10
1.0
 20
0.0
 30
0.0
  9
$PUCSYDIR
 10
0.0
 20
1.0
 30
0.0
  9
$PUCSORTHOREF
  2

  9
$PUCSORTHOVIEW
 70
     0
  9
$PUCSORGTOP
 10
0.0
 20
0.0
 30
0.0
  9
$PUCSORGBOTTOM
 10
0.0
 20
0.0
 30
0.0
  9
$PUCSORGLEFT
 10
0.0
 20
0.0
 30
0.0
  9
$PUCSORGRIGHT
 10
0.0
 20
0.0
 30
0.0
  9
$PUCSORGFRONT
 10
0.0
 20
0.0
 30
0.0
  9
$PUCSORGBACK
 10
0.0
 20
0.0
 30
0.0
  9
$USERI1
 70
     0
  9
$USERI2
 70
     0
  9
$USERI3
 70
     0
  9
$USERI4
 70
     0
  9
$USERI5
 70
     0
  9
$USERR1
 40
0.0
  9
$USERR2
 40
0.0
  9
$USERR3
 40
0.0
  9
$USERR4
 40
0.0
  9
$USERR5
 40
0.0
  9
$WORLDVIEW
 70
     1
  9
$SHADEDGE
 70
     3
  9
$SHADEDIF
 70
    70
  9
$TILEMODE
 70
     1
  9
$MAXACTVP
 70
    16
  9
$PINSBASE
 10
0.0
 20
0.0
 30
0.0
  9
$PLIMCHECK
 70
     0
  9
$PEXTMIN
 10
1.000000000000000E+20
 20
1.000000000000000E+20
 30
1.000000000000000E+20
  9
$PEXTMAX
 10
-1.000000000000000E+20
 20
-1.000000000000000E+20
 30
-1.000000000000000E+20
  9
$PLIMMIN
 10
0.0
 20
0.0
  9
$PLIMMAX
 10
12.0
 20
9.0
  9
$UNITMODE
 70
     0
  9
$VISRETAIN
 70
     0
  9
$PLINEGEN
 70
     0
  9
$PSLTSCALE
 70
     0
  9
$TREEDEPTH
 70
  3020
  9
$CMLSTYLE
  2
Standard
  9
$CMLJUST
 70
     0
  9
$CMLSCALE
 40
1.0
  9
$PROXYGRAPHICS
 70
     1
  9
$MEASUREMENT
 70
     0
  9
$CELWEIGHT
370
    -1
  9
$ENDCAPS
280
     0
  9
$JOINSTYLE
280
     0
  9
$LWDISPLAY
290
     0
  9
$INSUNITS
 70
     0
  9
$HYPERLINKBASE
  1

  9
$STYLESHEET
  1
monochrome 1.ctb
  9
$XEDIT
290
     1
  9
$CEPSNTYPE
380
     0
  9
$PSTYLEMODE
290
     1
  9
$FINGERPRINTGUID
  2
{CF1A4752-A575-11D7-B632-000102183313}
  9
$VERSIONGUID
  2
{2E66309A-A98C-4B4F-802F-A4A78198B0D7}
  9
$EXTNAMES
290
     1
  9
$PSVPSCALE
 40
0.0
  9
$OLESTARTUP
290
     0
  9
$SORTENTS
280
    96
  9
$INDEXCTL
280
     0
  9
$HIDETEXT
280
     0
  9
$XCLIPFRAME
290
     0
  9
$HALOGAP
280
     0
  9
$OBSCOLOR
 70
   257
  9
$OBSLTYPE
280
     0
  9
$INTERSECTIONDISPLAY
280
     0
  9
$INTERSECTIONCOLOR
 70
   257
  9
$DIMASSOC
280
     1
  9
$PROJECTNAME
  1

  0
ENDSEC
  0
SECTION
  2
CLASSES
  0
CLASS
  1
ACDBDICTIONARYWDFLT
  2
AcDbDictionaryWithDefault
  3
ObjectDBX Classes
 90
        0
 91
        1
280
     0
281
     0
  0
CLASS
  1
DICTIONARYVAR
  2
AcDbDictionaryVar
  3
ObjectDBX Classes
 90
        0
 91
        3
280
     0
281
     0
  0
CLASS
  1
SORTENTSTABLE
  2
AcDbSortentsTable
  3
ObjectDBX Classes
 90
        0
 91
        0
280
     0
281
     0
  0
ENDSEC
  0
SECTION
  2
TABLES
  0
TABLE
  2
VPORT
  5
1058
330
0
100
AcDbSymbolTable
 70
     3
  0
VPORT
  5
32AE
330
1058
100
AcDbSymbolTableRecord
100
AcDbViewportTableRecord
  2
*Active
 70
     0
 10
0.0
 20
0.0
 11
1.0
 21
1.0
 12
420.0000019557773
 22
297.0000013830142
 13
0.0
 23
0.0
 14
1.0
 24
1.0
 15
10.0
 25
10.0
 16
0.0
 26
0.0
 36
1.0
 17
0.0
 27
0.0
 37
0.0
 40
601.9849711364599
 41
1.403508771929824
 42
50.0
 43
0.0
 44
0.0
 50
0.0
 51
0.0
 71
     0
 72
  1500
 73
     1
 74
     0
 75
     0
 76
     0
 77
     0
 78
     0
281
     0
 65
     1
110
0.0
120
0.0
130
0.0
111
1.0
121
0.0
131
0.0
112
0.0
122
1.0
132
0.0
 79
     0
146
0.0
  0
ENDTAB
  0
TABLE
  2
LTYPE
  5
1055
330
0
100
AcDbSymbolTable
 70
     4
  0
LTYPE
  5
1063
330
1055
100
AcDbSymbolTableRecord
100
AcDbLinetypeTableRecord
  2
ByBlock
 70
     0
  3

 72
    65
 73
     0
 40
0.0
  0
LTYPE
  5
1064
330
1055
100
AcDbSymbolTableRecord
100
AcDbLinetypeTableRecord
  2
ByLayer
 70
     0
  3

 72
    65
 73
     0
 40
0.0
  0
LTYPE
  5
1065
330
1055
100
AcDbSymbolTableRecord
100
AcDbLinetypeTableRecord
  2
AUSGEZOGEN
 70
     0
  3
Ausgezogene Linie
 72
    65
 73
     0
 40
0.0
  0
LTYPE
  5
1088
330
1055
100
AcDbSymbolTableRecord
100
AcDbLinetypeTableRecord
  2
STRICHPUNKT
 70
     0
  3
__ . __ . __ . __ . __ . __ . __ . __ . __ . __
 72
    65
 73
     4
 40
1.0
 49
0.5
 74
     0
 49
-0.25
 74
     0
 49
0.0
 74
     0
 49
-0.25
 74
     0
  0
LTYPE
  5
1089
330
1055
100
AcDbSymbolTableRecord
100
AcDbLinetypeTableRecord
  2
CONTINUOUS
 70
     0
  3
Solid line
 72
    65
 73
     0
 40
0.0
  0
LTYPE
  5
31EB
330
1055
100
AcDbSymbolTableRecord
100
AcDbLinetypeTableRecord
  2
VERDECKT
 70
     0
  3
_ _ _ _ _ _ _ _ _ _ _ _ _ _ _ _ _ _ _ _ _ _ _
 72
    65
 73
     2
 40
0.375
 49
0.25
 74
     0
 49
-0.125
 74
     0
  0
ENDTAB
  0
TABLE
  2
LAYER
  5
1052
102
{ACAD_XDICTIONARY
360
21FF
102
}
330
0
100
AcDbSymbolTable
 70
    10
  0
LAYER
  5
1060
330
1052
100
AcDbSymbolTableRecord
100
AcDbLayerTableRecord
  2
0
 70
     0
 62
     7
  6
AUSGEZOGEN
370
    -3
390
105F
  0
LAYER
  5
108D
330
1052
100
AcDbSymbolTableRecord
100
AcDbLayerTableRecord
  2
VOLL
 70
     0
 62
     1
  6
AUSGEZOGEN
370
    -3
390
105F
  0
LAYER
  5
108E
330
1052
100
AcDbSymbolTableRecord
100
AcDbLayerTableRecord
  2
HILF
 70
     0
 62
     2
  6
AUSGEZOGEN
370
    -3
390
105F
  0
LAYER
  5
108F
330
1052
100
AcDbSymbolTableRecord
100
AcDbLayerTableRecord
  2
MITTEL
 70
     0
 62
     2
  6
STRICHPUNKT
370
    -3
390
105F
  0
LAYER
  5
1090
330
1052
100
AcDbSymbolTableRecord
100
AcDbLayerTableRecord
  2
BEM
 70
     0
 62
     7
  6
AUSGEZOGEN
370
    -3
390
105F
  0
LAYER
  5
1091
330
1052
100
AcDbSymbolTableRecord
100
AcDbLayerTableRecord
  2
STEMPEL
 70
     0
 62
     3
  6
AUSGEZOGEN
370
    -3
390
105F
  0
LAYER
  5
1092
330
1052
100
AcDbSymbolTableRecord
100
AcDbLayerTableRecord
  2
TEXT
 70
     0
 62
     7
  6
AUSGEZOGEN
370
    -3
390
105F
  0
LAYER
  5
1093
330
1052
100
AcDbSymbolTableRecord
100
AcDbLayerTableRecord
  2
SCHRAFF
 70
     0
 62
     7
  6
AUSGEZOGEN
370
    -3
390
105F
  0
LAYER
  5
1094
330
1052
100
AcDbSymbolTableRecord
100
AcDbLayerTableRecord
  2
DEFPOINTS
 70
     0
 62
     7
  6
AUSGEZOGEN
290
     0
370
    -3
390
105F
  0
LAYER
  5
31EC
330
1052
100
AcDbSymbolTableRecord
100
AcDbLayerTableRecord
  2
VERDECKT
 70
     0
 62
     6
  6
VERDECKT
370
    -3
390
105F
  0
ENDTAB
  0
TABLE
  2
STYLE
  5
1053
330
0
100
AcDbSymbolTable
 70
     2
  0
STYLE
  5
1061
330
1053
100
AcDbSymbolTableRecord
100
AcDbTextStyleTableRecord
  2
STANDARD
 70
     0
 40
0.0
 41
1.0
 50
0.0
 71
     0
 42
3.5
  3
txt
  4

  0
STYLE
  5
1087
330
1053
100
AcDbSymbolTableRecord
100
AcDbTextStyleTableRecord
  2
GREEKS
 70
     0
 40
0.0
 41
0.8
 50
0.0
 71
     0
 42
2.5
  3
SIMPLEX.shx
  4

  0
ENDTAB
  0
TABLE
  2
VIEW
  5
1056
330
0
100
AcDbSymbolTable
 70
     0
  0
ENDTAB
  0
TABLE
  2
UCS
  5
1057
330
0
100
AcDbSymbolTable
 70
     0
  0
ENDTAB
  0
TABLE
  2
APPID
  5
1059
330
0
100
AcDbSymbolTable
 70
     1
  0
APPID
  5
1062
330
1059
100
AcDbSymbolTableRecord
100
AcDbRegAppTableRecord
  2
ACAD
 70
     0
  0
ENDTAB
  0
TABLE
  2
DIMSTYLE
  5
105A
330
0
100
AcDbSymbolTable
 70
     1
100
AcDbDimStyleTable
 71
     1
340
108C
  0
DIMSTYLE
105
108C
102
{ACAD_REACTORS
330
22DB
330
2915
330
2B0D
330
2E95
330
2E9B
330
2E9F
330
2EA8
330
309A
330
31B8
102
}
330
105A
100
AcDbSymbolTableRecord
100
AcDbDimStyleTableRecord
  2
STANDARD
 70
     0
 40
2.0
 41
3.5
 42
1.0
 43
1.0
 44
1.0
 48
2.0
 73
     0
 74
     0
 77
     1
 78
     8
 79
     2
140
3.5
146
0.5
147
1.199999999999999
172
     1
176
   256
178
     1
271
     2
272
     2
340
1087
371
    -1
  0
ENDTAB
  0
TABLE
  2
BLOCK_RECORD
  5
1051
330
0
100
AcDbSymbolTable
 70
    10
  0
BLOCK_RECORD
  5
106E
102
{ACAD_XDICTIONARY
360
1232
102
}
330
1051
100
AcDbSymbolTableRecord
100
AcDbBlockTableRecord
  2
*Model_Space
340
1071
  0
BLOCK_RECORD
  5
106A
102
{ACAD_XDICTIONARY
360
1234
102
}
330
1051
100
AcDbSymbolTableRecord
100
AcDbBlockTableRecord
  2
*Paper_Space
340
106D
  0
BLOCK_RECORD
  5
1072
330
1051
100
AcDbSymbolTableRecord
100
AcDbBlockTableRecord
  2
LOGO
340
0
102
{BLKREFS
331
322
102
}
  0
BLOCK_RECORD
  5
22FD
330
1051
100
AcDbSymbolTableRecord
100
AcDbBlockTableRecord
  2
*D1
340
0
  0
BLOCK_RECORD
  5
2916
330
1051
100
AcDbSymbolTableRecord
100
AcDbBlockTableRecord
  2
*D2
340
0
  0
BLOCK_RECORD
  5
2B0E
330
1051
100
AcDbSymbolTableRecord
100
AcDbBlockTableRecord
  2
*D3
340
0
  0
BLOCK_RECORD
  5
3046
330
1051
100
AcDbSymbolTableRecord
100
AcDbBlockTableRecord
  2
*D4
340
0
  0
BLOCK_RECORD
  5
3052
330
1051
100
AcDbSymbolTableRecord
100
AcDbBlockTableRecord
  2
*D5
340
0
  0
BLOCK_RECORD
  5
305E
330
1051
100
AcDbSymbolTableRecord
100
AcDbBlockTableRecord
  2
*D6
340
0
  0
BLOCK_RECORD
  5
306A
330
1051
100
AcDbSymbolTableRecord
100
AcDbBlockTableRecord
  2
*D7
340
0
  0
BLOCK_RECORD
  5
309B
330
1051
100
AcDbSymbolTableRecord
100
AcDbBlockTableRecord
  2
*D8
340
0
  0
BLOCK_RECORD
  5
31B9
330
1051
100
AcDbSymbolTableRecord
100
AcDbBlockTableRecord
  2
*D9
340
0
  0
ENDTAB
  0
ENDSEC
  0
SECTION
  2
BLOCKS
  0
BLOCK
  5
1097
330
106E
100
AcDbEntity
  8
0
100
AcDbBlockBegin
  2
*Model_Space
 70
     0
 10
0.0
 20
0.0
 30
0.0
  3
*Model_Space
  1

  0
ENDBLK
  5
1098
330
106E
100
AcDbEntity
  8
0
100
AcDbBlockEnd
  0
BLOCK
  5
1095
330
106A
100
AcDbEntity
 67
     1
  8
0
100
AcDbBlockBegin
  2
*Paper_Space
 70
     0
 10
0.0
 20
0.0
 30
0.0
  3
*Paper_Space
  1

  0
ENDBLK
  5
1096
330
106A
100
AcDbEntity
 67
     1
  8
0
100
AcDbBlockEnd
  0
BLOCK
  5
43
330
1072
100
AcDbEntity
  8
0
100
AcDbBlockBegin
  2
LOGO
 70
     0
 10
0.0
 20
0.0
 30
0.0
  3
LOGO
  1

  0
ARC
  5
44
330
1072
100
AcDbEntity
  8
0
100
AcDbCircle
 10
11.59973089678112
 20
-9.271599258481501
 30
0.0
 40
4.5
100
AcDbArc
 50
270.0
 51
231.0575587310159
  0
LINE
  5
45
330
1072
100
AcDbEntity
  8
0
100
AcDbLine
 10
3.599730896781125
 20
-4.771599258481529
 30
0.0
 11
3.599730896781153
 21
-11.77159925848133
 31
0.0
  0
LINE
  5
46
330
1072
100
AcDbEntity
  8
0
100
AcDbLine
 10
2.599730896781125
 20
-4.771599258481529
 30
0.0
 11
2.599730896781153
 21
-11.77159925848133
 31
0.0
  0
CIRCLE
  5
47
330
1072
100
AcDbEntity
  8
0
100
AcDbCircle
 10
11.59973089678112
 20
-9.271599258481501
 30
0.0
 40
3.5
  0
ARC
  5
48
330
1072
100
AcDbEntity
  8
0
100
AcDbCircle
 10
31.59973089678115
 20
-9.271599258481472
 30
0.0
 40
4.5
100
AcDbArc
 50
270.0
 51
231.0575587310182
  0
LINE
  5
49
330
1072
100
AcDbEntity
  8
0
100
AcDbLine
 10
17.59973089678112
 20
-4.771599258481472
 30
0.0
 11
17.59973089678115
 21
-13.77159925848147
 31
0.0
  0
ARC
  5
4A
330
1072
100
AcDbEntity
  8
0
100
AcDbCircle
 10
22.59973089678116
 20
-7.271599258481472
 30
0.0
 40
2.5
100
AcDbArc
 50
293.1161887722295
 51
90.0
  0
CIRCLE
  5
4B
330
1072
100
AcDbEntity
  8
0
100
AcDbCircle
 10
31.59973089678115
 20
-9.271599258481472
 30
0.0
 40
3.5
  0
ARC
  5
4C
330
1072
100
AcDbEntity
  8
0
100
AcDbCircle
 10
4.599730896781153
 20
-11.77159925848133
 30
0.0
 40
1.0
100
AcDbArc
 50
180.0
 51
270.0
  0
ARC
  5
4D
330
1072
100
AcDbEntity
  8
0
100
AcDbCircle
 10
4.599730896781153
 20
-11.77159925848133
 30
0.0
 40
2.0
100
AcDbArc
 50
179.9999999999992
 51
270.0
  0
LINE
  5
4E
330
1072
100
AcDbEntity
  8
0
100
AcDbLine
 10
11.59973089678115
 20
-13.77159925848144
 30
0.0
 11
4.599730896781153
 21
-13.77159925848147
 31
0.0
  0
LINE
  5
4F
330
1072
100
AcDbEntity
  8
0
100
AcDbLine
 10
8.771303772034769
 20
-12.77159925848136
 30
0.0
 11
4.599730896781153
 21
-12.77159925848133
 31
0.0
  0
LINE
  5
50
330
1072
100
AcDbEntity
  8
0
100
AcDbLine
 10
31.59973089678115
 20
-13.77159925848147
 30
0.0
 11
23.6715276665056
 21
-13.77159925848144
 31
0.0
  0
LINE
  5
51
330
1072
100
AcDbEntity
  8
0
100
AcDbLine
 10
23.56565672307022
 20
-9.51278021337896
 30
0.0
 11
24.4388546544846
 21
-12.77159925848144
 31
0.0
  0
LINE
  5
52
330
1072
100
AcDbEntity
  8
0
100
AcDbLine
 10
22.59973089678116
 20
-9.771599258481472
 30
0.0
 11
18.59973089678112
 21
-9.771599258481472
 31
0.0
  0
LINE
  5
53
330
1072
100
AcDbEntity
  8
0
100
AcDbLine
 10
18.59973089678115
 20
-13.77159925848144
 30
0.0
 11
17.59973089678115
 21
-13.77159925848144
 31
0.0
  0
LINE
  5
54
330
1072
100
AcDbEntity
  8
0
100
AcDbLine
 10
18.59973089678115
 20
-9.771599258481472
 30
0.0
 11
18.59973089678115
 21
-13.77159925848144
 31
0.0
  0
LINE
  5
55
330
1072
100
AcDbEntity
  8
0
100
AcDbLine
 10
22.59973089678116
 20
-9.771599258481472
 30
0.0
 11
23.67152766650562
 21
-13.77159925848147
 31
0.0
  0
ARC
  5
56
330
1072
100
AcDbEntity
  8
0
100
AcDbCircle
 10
22.59973089678116
 20
-7.271599258481472
 30
0.0
 40
2.5
100
AcDbArc
 50
270.0
 51
270.0000000000007
  0
LINE
  5
57
330
1072
100
AcDbEntity
  8
0
100
AcDbLine
 10
28.77130377203494
 20
-12.77159925848147
 30
0.0
 11
24.43885465448463
 21
-12.77159925848144
 31
0.0
  0
LINE
  5
58
330
1072
100
AcDbEntity
  8
0
100
AcDbLine
 10
3.599730896781125
 20
-4.771599258481472
 30
0.0
 11
2.599730896781125
 21
-4.771599258481472
 31
0.0
  0
LINE
  5
59
330
1072
100
AcDbEntity
  8
0
100
AcDbLine
 10
22.59973089678116
 20
-8.771599258481472
 30
0.0
 11
18.59973089678115
 21
-8.771599258481472
 31
0.0
  0
LINE
  5
5A
330
1072
100
AcDbEntity
  8
0
100
AcDbLine
 10
22.59973089678116
 20
-5.771599258481472
 30
0.0
 11
18.59973089678115
 21
-5.771599258481472
 31
0.0
  0
LINE
  5
5B
330
1072
100
AcDbEntity
  8
0
100
AcDbLine
 10
22.59973089678116
 20
-4.771599258481472
 30
0.0
 11
17.59973089678115
 21
-4.771599258481472
 31
0.0
  0
LINE
  5
5C
330
1072
100
AcDbEntity
  8
0
100
AcDbLine
 10
18.59973089678115
 20
-5.771599258481472
 30
0.0
 11
18.59973089678115
 21
-8.771599258481472
 31
0.0
  0
ARC
  5
5D
330
1072
100
AcDbEntity
  8
0
100
AcDbCircle
 10
22.59973089678116
 20
-7.271599258481472
 30
0.0
 40
1.5
100
AcDbArc
 50
270.0
 51
90.0
  0
ENDBLK
  5
5E
330
1072
100
AcDbEntity
  8
0
100
AcDbBlockEnd
  0
BLOCK
  5
2307
330
22FD
100
AcDbEntity
  8
0
100
AcDbBlockBegin
  2
*D1
 70
     1
 10
0.0
 20
0.0
 30
0.0
  3
*D1
  1

  0
LINE
  5
3292
330
22FD
100
AcDbEntity
  8
BEM
 62
     0
370
    -2
100
AcDbLine
 10
799.7972658202006
 20
321.9072801154608
 30
0.0
 11
826.1264027700809
 21
320.5274285174786
 31
0.0
  0
LINE
  5
3293
330
22FD
100
AcDbEntity
  8
BEM
 62
     0
370
    -2
100
AcDbLine
 10
795.9767410144661
 20
249.007324078377
 30
0.0
 11
822.3058779643464
 21
247.6274724803948
 31
0.0
  0
LINE
  5
3294
330
22FD
100
AcDbEntity
  8
BEM
100
AcDbLine
 10
823.7627920068712
 20
313.6416936866825
 30
0.0
 11
820.6749705885378
 21
254.7225511361627
 31
0.0
  0
SOLID
  5
3295
330
22FD
100
AcDbEntity
  8
BEM
100
AcDbTrace
 10
822.5977242163242
 20
313.7027523022993
 30
0.0
 11
824.927859797418
 21
313.5806350710657
 31
0.0
 12
824.1291437005719
 22
320.6321004299645
 32
0.0
 13
824.1291437005719
 23
320.6321004299645
 33
0.0
  0
SOLID
  5
3296
330
22FD
100
AcDbEntity
  8
BEM
100
AcDbTrace
 10
819.509902797991
 20
254.7836097517794
 30
0.0
 11
821.8400383790848
 21
254.661492520546
 31
0.0
 12
820.3086188948372
 22
247.7321443928807
 32
0.0
 13
820.3086188948372
 23
247.7321443928807
 33
0.0
  0
MTEXT
  5
3297
330
22FD
100
AcDbEntity
  8
BEM
 62
     1
100
AcDbMText
 10
815.7277893217997
 20
284.5223061270017
 30
0.0
 40
7.0
 41
0.0
 71
     5
 72
     1
  1
\A1;%%c73
  7
GREEKS
 11
0.0523359562429389
 21
0.9986295347545741
 31
0.0
 73
     1
 44
1.0
  0
POINT
  5
3298
330
22FD
100
AcDbEntity
  8
DEFPOINTS
 62
     0
100
AcDbPoint
 10
797.8000067506915
 20
322.0119520279467
 30
0.0
  0
POINT
  5
3299
330
22FD
100
AcDbEntity
  8
DEFPOINTS
 62
     0
100
AcDbPoint
 10
793.979481944957
 20
249.1119959908629
 30
0.0
  0
POINT
  5
329A
330
22FD
100
AcDbEntity
  8
DEFPOINTS
 62
     0
100
AcDbPoint
 10
820.3086188948372
 20
247.7321443928807
 30
0.0
  0
ENDBLK
  5
2308
330
22FD
100
AcDbEntity
  8
0
100
AcDbBlockEnd
  0
BLOCK
  5
2920
330
2916
100
AcDbEntity
  8
0
100
AcDbBlockBegin
  2
*D2
 70
     1
 10
0.0
 20
0.0
 30
0.0
  3
*D2
  1

  0
LINE
  5
30F4
330
2916
100
AcDbEntity
  8
BEM
 62
     0
370
    -2
100
AcDbLine
 10
69.877410160615
 20
335.9999999999999
 30
0.0
 11
69.877410160615
 21
254.1411614815554
 31
0.0
  0
LINE
  5
30F5
330
2916
100
AcDbEntity
  8
BEM
 62
     0
370
    -2
100
AcDbLine
 10
349.8763928550887
 20
341.7000000000001
 30
0.0
 11
349.8763928550887
 21
254.1411614815554
 31
0.0
  0
LINE
  5
30F6
330
2916
100
AcDbEntity
  8
BEM
100
AcDbLine
 10
76.877410160615
 20
256.1411614815555
 30
0.0
 11
342.8763928550887
 21
256.1411614815555
 31
0.0
  0
SOLID
  5
30F7
330
2916
100
AcDbEntity
  8
BEM
100
AcDbTrace
 10
76.877410160615
 20
257.3078281482221
 30
0.0
 11
76.877410160615
 21
254.9744948148888
 31
0.0
 12
69.877410160615
 22
256.1411614815555
 32
0.0
 13
69.877410160615
 23
256.1411614815555
 33
0.0
  0
SOLID
  5
30F8
330
2916
100
AcDbEntity
  8
BEM
100
AcDbTrace
 10
342.8763928550887
 20
257.3078281482221
 30
0.0
 11
342.8763928550887
 21
254.9744948148888
 31
0.0
 12
349.8763928550887
 22
256.1411614815555
 32
0.0
 13
349.8763928550887
 23
256.1411614815555
 33
0.0
  0
MTEXT
  5
30F9
330
2916
100
AcDbEntity
  8
BEM
 62
     1
100
AcDbMText
 10
209.8769015078518
 20
262.0411614815554
 30
0.0
 40
7.0
 41
0.0
 71
     5
 72
     1
  1
\A1;280
  7
GREEKS
 73
     1
 44
1.0
  0
POINT
  5
30FA
330
2916
100
AcDbEntity
  8
DEFPOINTS
 62
     0
100
AcDbPoint
 10
69.877410160615
 20
337.9999999999999
 30
0.0
  0
POINT
  5
30FB
330
2916
100
AcDbEntity
  8
DEFPOINTS
 62
     0
100
AcDbPoint
 10
349.8763928550887
 20
343.7000000000001
 30
0.0
  0
POINT
  5
30FC
330
2916
100
AcDbEntity
  8
DEFPOINTS
 62
     0
100
AcDbPoint
 10
349.8763928550887
 20
256.1411614815555
 30
0.0
  0
ENDBLK
  5
2921
330
2916
100
AcDbEntity
  8
0
100
AcDbBlockEnd
  0
BLOCK
  5
2B18
330
2B0E
100
AcDbEntity
  8
0
100
AcDbBlockBegin
  2
*D3
 70
     1
 10
0.0
 20
0.0
 30
0.0
  3
*D3
  1

  0
LINE
  5
2C7F
330
2B0E
100
AcDbEntity
  8
BEM
 62
     0
370
    -2
100
AcDbLine
 10
346.1763928550885
 20
337.9999999999998
 30
0.0
 11
366.0014723974147
 21
337.9999999999998
 31
0.0
  0
LINE
  5
2C80
330
2B0E
100
AcDbEntity
  8
BEM
 62
     0
370
    -2
100
AcDbLine
 10
351.8763928550886
 20
442.9989826944733
 30
0.0
 11
366.0014723974147
 21
442.9989826944733
 31
0.0
  0
LINE
  5
2C81
330
2B0E
100
AcDbEntity
  8
BEM
100
AcDbLine
 10
364.0014723974147
 20
344.9999999999998
 30
0.0
 11
364.0014723974147
 21
435.9989826944733
 31
0.0
  0
SOLID
  5
2C82
330
2B0E
100
AcDbEntity
  8
BEM
100
AcDbTrace
 10
362.834805730748
 20
344.9999999999998
 30
0.0
 11
365.1681390640813
 21
344.9999999999998
 31
0.0
 12
364.0014723974147
 22
337.9999999999998
 32
0.0
 13
364.0014723974147
 23
337.9999999999998
 33
0.0
  0
SOLID
  5
2C83
330
2B0E
100
AcDbEntity
  8
BEM
100
AcDbTrace
 10
362.834805730748
 20
435.9989826944733
 30
0.0
 11
365.1681390640814
 21
435.9989826944733
 31
0.0
 12
364.0014723974147
 22
442.9989826944733
 32
0.0
 13
364.0014723974147
 23
442.9989826944733
 33
0.0
  0
MTEXT
  5
2C84
330
2B0E
100
AcDbEntity
  8
BEM
 62
     1
100
AcDbMText
 10
358.1014723974146
 20
390.4994913472366
 30
0.0
 40
7.0
 41
0.0
 71
     5
 72
     1
  1
\A1;105
  7
GREEKS
 11
0.0000000000000001
 21
1.0
 31
0.0
 73
     1
 44
1.0
  0
POINT
  5
2C85
330
2B0E
100
AcDbEntity
  8
DEFPOINTS
 62
     0
100
AcDbPoint
 10
344.1763928550885
 20
337.9999999999998
 30
0.0
  0
POINT
  5
2C86
330
2B0E
100
AcDbEntity
  8
DEFPOINTS
 62
     0
100
AcDbPoint
 10
349.8763928550886
 20
442.9989826944733
 30
0.0
  0
POINT
  5
2C87
330
2B0E
100
AcDbEntity
  8
DEFPOINTS
 62
     0
100
AcDbPoint
 10
364.0014723974147
 20
442.9989826944733
 30
0.0
  0
ENDBLK
  5
2B19
330
2B0E
100
AcDbEntity
  8
0
100
AcDbBlockEnd
  0
BLOCK
  5
3050
330
3046
100
AcDbEntity
  8
0
100
AcDbBlockBegin
  2
*D4
 70
     1
 10
0.0
 20
0.0
 30
0.0
  3
*D4
  1

  0
LINE
  5
329B
330
3046
100
AcDbEntity
  8
BEM
 62
     0
370
    -2
100
AcDbLine
 10
204.8774101606145
 20
496.2389163139863
 30
0.0
 11
204.8774101606145
 21
508.0923342593033
 31
0.0
  0
LINE
  5
329C
330
3046
100
AcDbEntity
  8
BEM
 62
     0
370
    -2
100
AcDbLine
 10
804.8774101606154
 20
287.0909504032146
 30
0.0
 11
804.8774101606154
 21
508.0923342593033
 31
0.0
  0
LINE
  5
329D
330
3046
100
AcDbEntity
  8
BEM
100
AcDbLine
 10
211.8774101606144
 20
506.0923342593032
 30
0.0
 11
797.8774101606155
 21
506.0923342593032
 31
0.0
  0
SOLID
  5
329E
330
3046
100
AcDbEntity
  8
BEM
100
AcDbTrace
 10
211.8774101606144
 20
507.2590009259699
 30
0.0
 11
211.8774101606144
 21
504.9256675926366
 31
0.0
 12
204.8774101606145
 22
506.0923342593032
 32
0.0
 13
204.8774101606145
 23
506.0923342593032
 33
0.0
  0
SOLID
  5
329F
330
3046
100
AcDbEntity
  8
BEM
100
AcDbTrace
 10
797.8774101606155
 20
507.2590009259699
 30
0.0
 11
797.8774101606155
 21
504.9256675926366
 31
0.0
 12
804.8774101606154
 22
506.0923342593032
 32
0.0
 13
804.8774101606154
 23
506.0923342593032
 33
0.0
  0
MTEXT
  5
32A0
330
3046
100
AcDbEntity
  8
BEM
 62
     1
100
AcDbMText
 10
504.8774101606149
 20
511.9923342593033
 30
0.0
 40
7.0
 41
0.0
 71
     5
 72
     1
  1
\A1;600
  7
GREEKS
 73
     1
 44
1.0
  0
POINT
  5
32A1
330
3046
100
AcDbEntity
  8
DEFPOINTS
 62
     0
100
AcDbPoint
 10
204.8774101606145
 20
494.2389163139862
 30
0.0
  0
POINT
  5
32A2
330
3046
100
AcDbEntity
  8
DEFPOINTS
 62
     0
100
AcDbPoint
 10
804.8774101606154
 20
285.0909504032146
 30
0.0
  0
POINT
  5
32A3
330
3046
100
AcDbEntity
  8
DEFPOINTS
 62
     0
100
AcDbPoint
 10
804.8774101606154
 20
506.0923342593032
 30
0.0
  0
ENDBLK
  5
3051
330
3046
100
AcDbEntity
  8
0
100
AcDbBlockEnd
  0
BLOCK
  5
305C
330
3052
100
AcDbEntity
  8
0
100
AcDbBlockBegin
  2
*D5
 70
     1
 10
0.0
 20
0.0
 30
0.0
  3
*D5
  1

  0
LINE
  5
307F
330
3052
100
AcDbEntity
  8
BEM
 62
     0
370
    -2
100
AcDbLine
 10
74.8774101606154
 20
369.0000000000002
 30
0.0
 11
74.87741016061541
 21
486.2984776097376
 31
0.0
  0
LINE
  5
3080
330
3052
100
AcDbEntity
  8
BEM
 62
     0
370
    -2
100
AcDbLine
 10
334.8774101606154
 20
368.9999999999991
 30
0.0
 11
334.8774101606154
 21
486.2984776097376
 31
0.0
  0
LINE
  5
3081
330
3052
100
AcDbEntity
  8
BEM
100
AcDbLine
 10
81.87741016061542
 20
484.2984776097376
 30
0.0
 11
327.8774101606154
 21
484.2984776097376
 31
0.0
  0
SOLID
  5
3082
330
3052
100
AcDbEntity
  8
BEM
100
AcDbTrace
 10
81.87741016061542
 20
485.4651442764043
 30
0.0
 11
81.87741016061542
 21
483.1318109430709
 31
0.0
 12
74.87741016061541
 22
484.2984776097376
 32
0.0
 13
74.87741016061541
 23
484.2984776097376
 33
0.0
  0
SOLID
  5
3083
330
3052
100
AcDbEntity
  8
BEM
100
AcDbTrace
 10
327.8774101606154
 20
485.4651442764043
 30
0.0
 11
327.8774101606154
 21
483.1318109430709
 31
0.0
 12
334.8774101606154
 22
484.2984776097376
 32
0.0
 13
334.8774101606154
 23
484.2984776097376
 33
0.0
  0
MTEXT
  5
3084
330
3052
100
AcDbEntity
  8
BEM
 62
     1
100
AcDbMText
 10
204.8774101606154
 20
490.1984776097376
 30
0.0
 40
7.0
 41
0.0
 71
     5
 72
     1
  1
\A1;260
  7
GREEKS
 73
     1
 44
1.0
  0
POINT
  5
3085
330
3052
100
AcDbEntity
  8
DEFPOINTS
 62
     0
100
AcDbPoint
 10
74.8774101606154
 20
367.0000000000002
 30
0.0
  0
POINT
  5
3086
330
3052
100
AcDbEntity
  8
DEFPOINTS
 62
     0
100
AcDbPoint
 10
334.8774101606154
 20
366.9999999999991
 30
0.0
  0
POINT
  5
3087
330
3052
100
AcDbEntity
  8
DEFPOINTS
 62
     0
100
AcDbPoint
 10
334.8774101606154
 20
484.2984776097376
 30
0.0
  0
ENDBLK
  5
305D
330
3052
100
AcDbEntity
  8
0
100
AcDbBlockEnd
  0
BLOCK
  5
3068
330
305E
100
AcDbEntity
  8
0
100
AcDbBlockBegin
  2
*D6
 70
     1
 10
0.0
 20
0.0
 30
0.0
  3
*D6
  1

  0
LINE
  5
3088
330
305E
100
AcDbEntity
  8
BEM
 62
     0
370
    -2
100
AcDbLine
 10
94.87741016061534
 20
437.9999420326846
 30
0.0
 11
94.87741016061534
 21
472.2735238552032
 31
0.0
  0
LINE
  5
3089
330
305E
100
AcDbEntity
  8
BEM
 62
     0
370
    -2
100
AcDbLine
 10
314.8774101606156
 20
437.9999420326836
 30
0.0
 11
314.8774101606156
 21
472.2735238552032
 31
0.0
  0
LINE
  5
308A
330
305E
100
AcDbEntity
  8
BEM
100
AcDbLine
 10
101.8774101606153
 20
470.2735238552032
 30
0.0
 11
307.8774101606156
 21
470.2735238552032
 31
0.0
  0
SOLID
  5
308B
330
305E
100
AcDbEntity
  8
BEM
100
AcDbTrace
 10
101.8774101606153
 20
471.4401905218699
 30
0.0
 11
101.8774101606153
 21
469.1068571885365
 31
0.0
 12
94.87741016061534
 22
470.2735238552032
 32
0.0
 13
94.87741016061534
 23
470.2735238552032
 33
0.0
  0
SOLID
  5
308C
330
305E
100
AcDbEntity
  8
BEM
100
AcDbTrace
 10
307.8774101606156
 20
471.4401905218699
 30
0.0
 11
307.8774101606156
 21
469.1068571885365
 31
0.0
 12
314.8774101606156
 22
470.2735238552032
 32
0.0
 13
314.8774101606156
 23
470.2735238552032
 33
0.0
  0
MTEXT
  5
308D
330
305E
100
AcDbEntity
  8
BEM
 62
     1
100
AcDbMText
 10
204.8774101606154
 20
476.1735238552032
 30
0.0
 40
7.0
 41
0.0
 71
     5
 72
     1
  1
\A1;220
  7
GREEKS
 73
     1
 44
1.0
  0
POINT
  5
308E
330
305E
100
AcDbEntity
  8
DEFPOINTS
 62
     0
100
AcDbPoint
 10
94.87741016061534
 20
435.9999420326846
 30
0.0
  0
POINT
  5
308F
330
305E
100
AcDbEntity
  8
DEFPOINTS
 62
     0
100
AcDbPoint
 10
314.8774101606156
 20
435.9999420326836
 30
0.0
  0
POINT
  5
3090
330
305E
100
AcDbEntity
  8
DEFPOINTS
 62
     0
100
AcDbPoint
 10
314.8774101606156
 20
470.2735238552032
 30
0.0
  0
ENDBLK
  5
3069
330
305E
100
AcDbEntity
  8
0
100
AcDbBlockEnd
  0
BLOCK
  5
3074
330
306A
100
AcDbEntity
  8
0
100
AcDbBlockBegin
  2
*D7
 70
     1
 10
0.0
 20
0.0
 30
0.0
  3
*D7
  1

  0
LINE
  5
3091
330
306A
100
AcDbEntity
  8
BEM
 62
     0
370
    -2
100
AcDbLine
 10
75.87741016061517
 20
346.0000000000003
 30
0.0
 11
55.76324281727739
 21
346.0000000000003
 31
0.0
  0
LINE
  5
3092
330
306A
100
AcDbEntity
  8
BEM
 62
     0
370
    -2
100
AcDbLine
 10
122.8774101606154
 20
456.0
 30
0.0
 11
55.76324281727742
 21
456.0
 31
0.0
  0
LINE
  5
3093
330
306A
100
AcDbEntity
  8
BEM
100
AcDbLine
 10
57.76324281727739
 20
353.0000000000003
 30
0.0
 11
57.76324281727742
 21
449.0
 31
0.0
  0
SOLID
  5
3094
330
306A
100
AcDbEntity
  8
BEM
100
AcDbTrace
 10
56.59657615061073
 20
353.0000000000003
 30
0.0
 11
58.92990948394405
 21
353.0000000000003
 31
0.0
 12
57.76324281727739
 22
346.0000000000003
 32
0.0
 13
57.76324281727739
 23
346.0000000000003
 33
0.0
  0
SOLID
  5
3095
330
306A
100
AcDbEntity
  8
BEM
100
AcDbTrace
 10
56.59657615061075
 20
449.0
 30
0.0
 11
58.92990948394408
 21
449.0
 31
0.0
 12
57.76324281727742
 22
456.0
 32
0.0
 13
57.76324281727742
 23
456.0
 33
0.0
  0
MTEXT
  5
3096
330
306A
100
AcDbEntity
  8
BEM
 62
     1
100
AcDbMText
 10
51.86324281727734
 20
401.0000000000001
 30
0.0
 40
7.0
 41
0.0
 71
     5
 72
     1
  1
\A1;110
  7
GREEKS
 11
0.0000000000000001
 21
1.0
 31
0.0
 73
     1
 44
1.0
  0
POINT
  5
3097
330
306A
100
AcDbEntity
  8
DEFPOINTS
 62
     0
100
AcDbPoint
 10
77.87741016061517
 20
346.0000000000003
 30
0.0
  0
POINT
  5
3098
330
306A
100
AcDbEntity
  8
DEFPOINTS
 62
     0
100
AcDbPoint
 10
124.8774101606154
 20
456.0
 30
0.0
  0
POINT
  5
3099
330
306A
100
AcDbEntity
  8
DEFPOINTS
 62
     0
100
AcDbPoint
 10
57.76324281727742
 20
456.0
 30
0.0
  0
ENDBLK
  5
3075
330
306A
100
AcDbEntity
  8
0
100
AcDbBlockEnd
  0
BLOCK
  5
30A5
330
309B
100
AcDbEntity
  8
0
100
AcDbBlockBegin
  2
*D8
 70
     1
 10
0.0
 20
0.0
 30
0.0
  3
*D8
  1

  0
LINE
  5
3272
330
309B
100
AcDbEntity
  8
BEM
 62
     0
370
    -2
100
AcDbLine
 10
144.877410160615
 20
282.9999999999998
 30
0.0
 11
55.76324281727738
 21
282.9999999999998
 31
0.0
  0
LINE
  5
3273
330
309B
100
AcDbEntity
  8
BEM
 62
     0
370
    -2
100
AcDbLine
 10
67.877410160615
 20
340.9999999999999
 30
0.0
 11
55.76324281727739
 21
340.9999999999999
 31
0.0
  0
LINE
  5
3274
330
309B
100
AcDbEntity
  8
BEM
100
AcDbLine
 10
57.76324281727738
 20
289.9999999999998
 30
0.0
 11
57.76324281727738
 21
333.9999999999999
 31
0.0
  0
SOLID
  5
3275
330
309B
100
AcDbEntity
  8
BEM
100
AcDbTrace
 10
56.59657615061071
 20
289.9999999999998
 30
0.0
 11
58.92990948394404
 21
289.9999999999998
 31
0.0
 12
57.76324281727738
 22
282.9999999999998
 32
0.0
 13
57.76324281727738
 23
282.9999999999998
 33
0.0
  0
SOLID
  5
3276
330
309B
100
AcDbEntity
  8
BEM
100
AcDbTrace
 10
56.59657615061072
 20
333.9999999999999
 30
0.0
 11
58.92990948394405
 21
333.9999999999999
 31
0.0
 12
57.76324281727739
 22
340.9999999999999
 32
0.0
 13
57.76324281727739
 23
340.9999999999999
 33
0.0
  0
MTEXT
  5
3277
330
309B
100
AcDbEntity
  8
BEM
 62
     1
100
AcDbMText
 10
51.86324281727734
 20
311.9999999999999
 30
0.0
 40
7.0
 41
0.0
 71
     5
 72
     1
  1
\A1;58
  7
GREEKS
 11
0.0000000000000001
 21
1.0
 31
0.0
 73
     1
 44
1.0
  0
POINT
  5
3278
330
309B
100
AcDbEntity
  8
DEFPOINTS
 62
     0
100
AcDbPoint
 10
146.877410160615
 20
282.9999999999998
 30
0.0
  0
POINT
  5
3279
330
309B
100
AcDbEntity
  8
DEFPOINTS
 62
     0
100
AcDbPoint
 10
69.877410160615
 20
340.9999999999999
 30
0.0
  0
POINT
  5
327A
330
309B
100
AcDbEntity
  8
DEFPOINTS
 62
     0
100
AcDbPoint
 10
57.76324281727739
 20
340.9999999999999
 30
0.0
  0
ENDBLK
  5
30A6
330
309B
100
AcDbEntity
  8
0
100
AcDbBlockEnd
  0
BLOCK
  5
31C8
330
31B9
100
AcDbEntity
  8
0
100
AcDbBlockBegin
  2
*D9
 70
     1
 10
0.0
 20
0.0
 30
0.0
  3
*D9
  1

  0
LINE
  5
327B
330
31B9
100
AcDbEntity
  8
BEM
 62
     0
370
    -2
100
AcDbLine
 10
332.2904809791744
 20
309.9629974383733
 30
0.0
 11
473.29022153219
 21
309.9629974383733
 31
0.0
  0
ARC
  5
327C
330
31B9
100
AcDbEntity
  8
BEM
100
AcDbCircle
 10
330.2904809791745
 20
309.9629974383733
 30
0.0
 40
140.9997405530156
100
AcDbArc
 50
351.3087073873745
 51
356.9999999999998
  0
LINE
  5
327D
330
31B9
100
AcDbEntity
  8
BEM
100
AcDbLine
 10
469.6711021790267
 20
288.6564428140098
 30
0.0
 11
467.9786635202255
 21
277.5850539496353
 31
0.0
  0
ARC
  5
327E
330
31B9
100
AcDbEntity
  8
BEM
100
AcDbCircle
 10
330.2904809791745
 20
309.9629974383733
 30
0.0
 40
140.9997405530156
100
AcDbArc
 50
351.3104624977277
 51
354.1552312488637
  0
ARC
  5
327F
330
31B9
100
AcDbEntity
  8
BEM
100
AcDbCircle
 10
330.2904809791745
 20
309.9629974383733
 30
0.0
 40
140.9997405530156
100
AcDbArc
 50
2.844768751136115
 51
5.68953750227215
  0
ARC
  5
3280
330
31B9
100
AcDbEntity
  8
BEM
100
AcDbCircle
 10
330.2904809791745
 20
309.9629974383733
 30
0.0
 40
140.9997405530156
100
AcDbArc
 50
356.9999999999998
 51
0.0000000000000799
  0
SOLID
  5
3281
330
31B9
100
AcDbEntity
  8
BEM
100
AcDbTrace
 10
469.3940332709245
 20
295.6944422394588
 30
0.0
 11
471.7204195790118
 21
295.5145222850656
 31
0.0
 12
471.096986288148
 22
302.5836411865237
 32
0.0
 13
471.096986288148
 23
302.5836411865237
 33
0.0
  0
SOLID
  5
3282
330
31B9
100
AcDbEntity
  8
BEM
100
AcDbTrace
 10
472.2827695268987
 20
316.9898003806303
 30
0.0
 11
469.9501551675338
 21
316.9318806523058
 31
0.0
 12
471.29022153219
 22
309.9629974383733
 32
0.0
 13
471.29022153219
 23
309.9629974383733
 33
0.0
  0
MTEXT
  5
3283
330
31B9
100
AcDbEntity
  8
BEM
 62
     1
100
AcDbMText
 10
462.9926333585717
 20
284.012300889584
 30
0.0
 40
7.0
 41
0.0
 71
     5
 72
     1
  1
\A1;3°
  7
GREEKS
 11
0.1511105945358277
 21
0.9885168628905775
 31
0.0
 73
     1
 44
1.0
  0
POINT
  5
3284
330
31B9
100
AcDbEntity
  8
DEFPOINTS
 62
     0
100
AcDbPoint
 10
471.2687465887562
 20
307.5022126586904
 30
0.0
  0
POINT
  5
3285
330
31B9
100
AcDbEntity
  8
DEFPOINTS
 62
     0
100
AcDbPoint
 10
330.2904809791744
 20
309.9629974383733
 30
0.0
  0
POINT
  5
3286
330
31B9
100
AcDbEntity
  8
DEFPOINTS
 62
     0
100
AcDbPoint
 10
325.2973333054014
 20
310.2246772195881
 30
0.0
  0
POINT
  5
3287
330
31B9
100
AcDbEntity
  8
DEFPOINTS
 62
     0
100
AcDbPoint
 10
819.6189530089158
 20
284.3183788793293
 30
0.0
  0
POINT
  5
3288
330
31B9
100
AcDbEntity
  8
DEFPOINTS
 62
     0
100
AcDbPoint
 10
325.2904809791745
 20
309.9629974383733
 30
0.0
  0
ENDBLK
  5
31C9
330
31B9
100
AcDbEntity
  8
0
100
AcDbBlockEnd
  0
ENDSEC
  0
SECTION
  2
ENTITIES
  0
LINE
  5
2DF
330
106E
100
AcDbEntity
  8
STEMPEL
100
AcDbLine
 10
830.0
 20
109.9999999999999
 30
0.0
 11
470.0
 21
109.9999999999999
 31
0.0
  0
LINE
  5
2E0
330
106E
100
AcDbEntity
  8
STEMPEL
100
AcDbLine
 10
566.0
 20
109.9999999999996
 30
0.0
 11
566.0
 21
10.0
 31
0.0
  0
LINE
  5
2E1
330
106E
100
AcDbEntity
  8
STEMPEL
100
AcDbLine
 10
650.0
 20
109.9999999999999
 30
0.0
 11
650.0
 21
10.0
 31
0.0
  0
LINE
  5
2E2
330
106E
100
AcDbEntity
  8
STEMPEL
100
AcDbLine
 10
752.0
 20
109.9999999999996
 30
0.0
 11
752.0
 21
40.0
 31
0.0
  0
LINE
  5
2E3
330
106E
100
AcDbEntity
  8
STEMPEL
100
AcDbLine
 10
565.9999999999997
 20
30.0
 30
0.0
 11
470.0
 21
30.0
 31
0.0
  0
LINE
  5
2E4
330
106E
100
AcDbEntity
  8
STEMPEL
100
AcDbLine
 10
830.0
 20
40.0
 30
0.0
 11
566.0
 21
40.0
 31
0.0
  0
LINE
  5
2E5
330
106E
100
AcDbEntity
  8
STEMPEL
100
AcDbLine
 10
830.0
 20
80.0
 30
0.0
 11
566.0
 21
79.99999999999977
 31
0.0
  0
LINE
  5
2E6
330
106E
100
AcDbEntity
  8
VOLL
100
AcDbLine
 10
484.0000000000001
 20
109.9999999999999
 30
0.0
 11
484.0
 21
10.0
 31
0.0
  0
LINE
  5
2E7
330
106E
100
AcDbEntity
  8
VOLL
100
AcDbLine
 10
524.0
 20
109.9999999999996
 30
0.0
 11
524.0
 21
10.0
 31
0.0
  0
LINE
  5
2E8
330
106E
100
AcDbEntity
  8
VOLL
100
AcDbLine
 10
544.0
 20
109.9999999999996
 30
0.0
 11
544.0
 21
10.0
 31
0.0
  0
LINE
  5
2E9
330
106E
100
AcDbEntity
  8
VOLL
100
AcDbLine
 10
584.0
 20
79.99999999999977
 30
0.0
 11
584.0
 21
40.0
 31
0.0
  0
LINE
  5
2EA
330
106E
100
AcDbEntity
  8
VOLL
100
AcDbLine
 10
610.0
 20
109.9999999999996
 30
0.0
 11
610.0
 21
40.0
 31
0.0
  0
LINE
  5
2EB
330
106E
100
AcDbEntity
  8
HILF
100
AcDbLine
 10
470.0000000000001
 20
99.99999999999989
 30
0.0
 11
566.0
 21
99.99999999999989
 31
0.0
  0
LINE
  5
2EC
330
106E
100
AcDbEntity
  8
HILF
100
AcDbLine
 10
470.0000000000001
 20
89.99999999999989
 30
0.0
 11
566.0
 21
89.99999999999989
 31
0.0
  0
LINE
  5
2ED
330
106E
100
AcDbEntity
  8
HILF
100
AcDbLine
 10
470.0000000000001
 20
79.99999999999977
 30
0.0
 11
566.0
 21
79.99999999999977
 31
0.0
  0
LINE
  5
2EE
330
106E
100
AcDbEntity
  8
HILF
100
AcDbLine
 10
470.0000000000001
 20
69.99999999999977
 30
0.0
 11
566.0
 21
69.99999999999977
 31
0.0
  0
LINE
  5
2EF
330
106E
100
AcDbEntity
  8
HILF
100
AcDbLine
 10
470.0000000000001
 20
60.0
 30
0.0
 11
566.0
 21
60.0
 31
0.0
  0
LINE
  5
2F0
330
106E
100
AcDbEntity
  8
HILF
100
AcDbLine
 10
470.0000000000001
 20
50.0
 30
0.0
 11
566.0
 21
50.0
 31
0.0
  0
LINE
  5
2F1
330
106E
100
AcDbEntity
  8
HILF
100
AcDbLine
 10
470.0000000000001
 20
40.0
 30
0.0
 11
566.0
 21
40.0
 31
0.0
  0
LINE
  5
2F2
330
106E
100
AcDbEntity
  8
HILF
100
AcDbLine
 10
566.0
 20
69.99999999999977
 30
0.0
 11
650.0
 21
69.99999999999977
 31
0.0
  0
LINE
  5
2F3
330
106E
100
AcDbEntity
  8
HILF
100
AcDbLine
 10
566.0
 20
60.0
 30
0.0
 11
650.0
 21
60.0
 31
0.0
  0
LINE
  5
2F4
330
106E
100
AcDbEntity
  8
HILF
100
AcDbLine
 10
566.0
 20
50.0
 30
0.0
 11
650.0
 21
50.0
 31
0.0
  0
LINE
  5
2F5
330
106E
100
AcDbEntity
  8
HILF
100
AcDbLine
 10
654.7736801096946
 20
84.03758247564121
 30
0.0
 11
744.8353916556309
 21
84.03758247564121
 31
0.0
  0
LINE
  5
2F6
330
106E
100
AcDbEntity
  8
HILF
100
AcDbLine
 10
654.7736801096946
 20
69.99999999999977
 30
0.0
 11
744.8353916556309
 21
69.99999999999977
 31
0.0
  0
LINE
  5
2F7
330
106E
100
AcDbEntity
  8
HILF
100
AcDbLine
 10
654.7736801096946
 20
60.0
 30
0.0
 11
744.8353916556309
 21
60.0
 31
0.0
  0
LINE
  5
2F8
330
106E
100
AcDbEntity
  8
HILF
100
AcDbLine
 10
654.7736801096946
 20
50.0
 30
0.0
 11
744.8353916556309
 21
50.0
 31
0.0
  0
LINE
  5
2F9
330
106E
100
AcDbEntity
  8
VOLL
100
AcDbLine
 10
752.0
 20
60.0
 30
0.0
 11
830.0
 21
60.0
 31
0.0
  0
LINE
  5
2FA
330
106E
100
AcDbEntity
  8
HILF
100
AcDbLine
 10
756.7238616296992
 20
83.77983636955798
 30
0.0
 11
824.8588839326728
 21
83.77983636955798
 31
0.0
  0
LINE
  5
2FB
330
106E
100
AcDbEntity
  8
HILF
100
AcDbLine
 10
653.4909699289885
 20
14.89398258028314
 30
0.0
 11
824.8588839326728
 21
14.89398258028314
 31
0.0
  0
TEXT
  5
2FC
330
106E
100
AcDbEntity
  8
TEXT
100
AcDbText
 10
492.7826069847975
 20
18.67381894984123
 30
0.0
 40
4.0
  1
Änderung
 41
0.8
  7
GREEKS
 72
     1
 11
503.5254641276546
 21
18.67381894984123
 31
0.0
100
AcDbText
  0
TEXT
  5
2FD
330
106E
100
AcDbEntity
  8
TEXT
100
AcDbText
 10
573.5163572150376
 20
102.4620895087085
 30
0.0
 40
5.0
  1
Maßstab
 41
0.8
  7
GREEKS
100
AcDbText
  0
TEXT
  5
2FE
330
106E
100
AcDbEntity
  8
TEXT
100
AcDbText
 10
614.2858954734052
 20
102.4184168434816
 30
0.0
 40
5.0
  1
Zul. Abw.
 41
0.8
  7
GREEKS
100
AcDbText
  0
TEXT
  5
2FF
330
106E
100
AcDbEntity
  8
TEXT
100
AcDbText
 10
654.8779403809009
 20
102.5489328011778
 30
0.0
 40
5.0
  1
Benennung
 41
0.8
  7
GREEKS
100
AcDbText
  0
TEXT
  5
300
330
106E
100
AcDbEntity
  8
TEXT
100
AcDbText
 10
756.178754957634
 20
102.3132034537135
 30
0.0
 40
5.0
  1
Zeichnungs Nr.
 41
0.8
  7
GREEKS
100
AcDbText
  0
TEXT
  5
301
330
106E
100
AcDbEntity
  8
TEXT
100
AcDbText
 10
654.7422383911359
 20
30.84560570193048
 30
0.0
 40
5.0
  1
Bauvorhaben
 41
0.8
  7
GREEKS
100
AcDbText
  0
TEXT
  5
302
330
106E
100
AcDbEntity
  8
TEXT
100
AcDbText
 10
756.7238616296992
 20
73.18118237099952
 30
0.0
 40
5.0
  1
Ersatz für:
 41
0.8
  7
GREEKS
100
AcDbText
  0
TEXT
  5
303
330
106E
100
AcDbEntity
  8
TEXT
100
AcDbText
 10
478.2664110704575
 20
13.65465846027177
 30
0.0
 40
4.0
  1
Index
 50
90.0
 41
0.8
  7
GREEKS
100
AcDbText
  0
TEXT
  5
304
330
106E
100
AcDbEntity
  8
TEXT
100
AcDbText
 10
530.0571803261054
 20
18.67156269339807
 30
0.0
 40
4.0
  1
Tag
 41
0.8
  7
GREEKS
 72
     1
 11
533.7905136594388
 21
18.67156269339807
 31
0.0
100
AcDbText
  0
TEXT
  5
305
330
106E
100
AcDbEntity
  8
TEXT
100
AcDbText
 10
548.6614567187547
 20
18.59324216966411
 30
0.0
 40
4.0
  1
Name
 41
0.8
  7
GREEKS
 72
     1
 11
554.9852662425641
 21
18.59324216966411
 31
0.0
100
AcDbText
  0
TEXT
  5
306
330
106E
100
AcDbEntity
  8
TEXT
100
AcDbText
 10
592.3311673153651
 20
73.31880501229921
 30
0.0
 40
4.0
  1
Tag
 41
0.8
  7
GREEKS
100
AcDbText
  0
TEXT
  5
307
330
106E
100
AcDbEntity
  8
TEXT
100
AcDbText
 10
622.4626584226293
 20
73.30961091915219
 30
0.0
 40
4.0
  1
Name
 41
0.8
  7
GREEKS
100
AcDbText
  0
TEXT
  5
308
330
106E
100
AcDbEntity
  8
TEXT
100
AcDbText
 10
567.5836127167615
 20
63.62990369617955
 30
0.0
 40
4.0
  1
Gez.
 41
0.8
  7
GREEKS
100
AcDbText
  0
TEXT
  5
309
330
106E
100
AcDbEntity
  8
TEXT
100
AcDbText
 10
567.5515086571672
 20
53.68926291428374
 30
0.0
 40
4.0
  1
Gepr.
 41
0.8
  7
GREEKS
100
AcDbText
  0
TEXT
  5
30A
330
106E
100
AcDbEntity
  8
TEXT
100
AcDbText
 10
567.6006777387303
 20
43.5294638964981
 30
0.0
 40
4.0
  1
Norm.
 41
0.8
  7
GREEKS
100
AcDbText
  0
LINE
  5
30B
330
106E
100
AcDbEntity
  8
STEMPEL
100
AcDbLine
 10
479.9999999999998
 20
10.0
 30
0.0
 11
830.0
 21
10.0
 31
0.0
  0
TEXT
  5
30C
330
106E
100
AcDbEntity
  8
TEXT
100
AcDbText
 10
757.2400861497006
 20
52.07416177878599
 30
0.0
 40
5.0
  1
ersetzt durch:
 41
0.8
  7
GREEKS
100
AcDbText
  0
LINE
  5
30D
330
106E
100
AcDbEntity
  8
STEMPEL
100
AcDbLine
 10
830.0
 20
10.0
 30
0.0
 11
39.99999999999997
 21
10.0
 31
0.0
  0
LINE
  5
30E
330
106E
100
AcDbEntity
  8
STEMPEL
100
AcDbLine
 10
830.0
 20
10.0
 30
0.0
 11
830.0
 21
583.9999999999998
 31
0.0
  0
LINE
  5
30F
330
106E
100
AcDbEntity
  8
STEMPEL
100
AcDbLine
 10
470.0
 20
10.0
 30
0.0
 11
470.0
 21
109.9999999999999
 31
0.0
  0
LINE
  5
310
330
106E
100
AcDbEntity
  8
STEMPEL
100
AcDbLine
 10
830.0
 20
583.9999999999998
 30
0.0
 11
39.99999999999986
 21
583.9999999999998
 31
0.0
  0
LINE
  5
311
330
106E
100
AcDbEntity
  8
HILF
100
AcDbLine
 10
839.9999999999998
 20
594.0000000000001
 30
0.0
 11
-0.0000000000002274
 21
593.9999999999996
 31
0.0
  0
LINE
  5
312
330
106E
100
AcDbEntity
  8
HILF
100
AcDbLine
 10
840.0
 20
0.0
 30
0.0
 11
0.0
 21
0.0
 31
0.0
  0
LINE
  5
313
330
106E
100
AcDbEntity
  8
HILF
100
AcDbLine
 10
31.08767135713847
 20
296.9999999999998
 30
0.0
 11
0.0
 21
296.9999999999998
 31
0.0
  0
TEXT
  5
314
330
106E
100
AcDbEntity
  8
TEXT
100
AcDbText
 10
568.6221098221039
 20
73.14025471151649
 30
0.0
 40
4.0
  1
2012
 41
0.8
  7
GREEKS
100
AcDbText
  0
LINE
  5
315
330
106E
100
AcDbEntity
  8
HILF
100
AcDbLine
 10
840.0
 20
-0.0000000000002274
 30
0.0
 11
839.9999999999998
 21
593.9999999999998
 31
0.0
  0
TEXT
  5
316
330
106E
100
AcDbEntity
  8
VOLL
100
AcDbText
 10
78.07675471698113
 20
31.02594776470585
 30
0.0
 40
1.8
  1

  7
GREEKS
100
AcDbText
  0
TEXT
  5
317
330
106E
100
AcDbEntity
  8
TEXT
100
AcDbText
 10
471.8550995097768
 20
111.6719999999997
 30
0.0
 40
5.0
  1
Erstellt mit AUTOCAD 2004
 41
0.8
  7
GREEKS
100
AcDbText
  0
TEXT
  5
318
330
106E
100
AcDbEntity
  8
TEXT
100
AcDbText
 10
624.4216048581257
 20
63.0896391972351
 30
0.0
 40
4.0
  1
Koeh
 41
0.8
  7
GREEKS
 72
     1
 11
629.6787477152686
 21
63.0896391972351
 31
0.0
100
AcDbText
  0
TEXT
  5
319
330
106E
100
AcDbEntity
  8
TEXT
 62
     1
100
AcDbText
 10
767.3644602129931
 20
88.14901428913946
 30
0.0
 40
7.0
  1
01362070W
 41
0.8
  7
GREEKS
 72
     1
 11
790.8311268796597
 21
88.14901428913946
 31
0.0
100
AcDbText
  0
TEXT
  5
31A
330
106E
100
AcDbEntity
  8
TEXT
 62
     1
100
AcDbText
 10
580.5006306481886
 20
88.14901428913946
 30
0.0
 40
7.0
  1
1:2
 41
0.8
  7
GREEKS
100
AcDbText
  0
TEXT
  5
31B
330
106E
100
AcDbEntity
  8
TEXT
100
AcDbText
 10
590.703759012998
 20
63.10765040825732
 30
0.0
 40
4.0
  1
07.12.
 41
0.8
  7
GREEKS
 72
     1
 11
597.4085209177599
 21
63.10765040825732
 31
0.0
100
AcDbText
  0
TEXT
  5
31C
330
106E
100
AcDbEntity
  8
TEXT
 62
     1
100
AcDbText
 10
655.0506768857031
 20
87.41748789253767
 30
0.0
 40
7.0
  1
Rainstar Attikaablauf
 41
0.8
  7
GREEKS
100
AcDbText
  0
TEXT
  5
31D
330
106E
100
AcDbEntity
  8
TEXT
100
AcDbText
 10
655.1296391125315
 20
71.50334417585281
 30
0.0
 40
5.0
  1
DN70 für Folienklemmung
 41
0.8
  7
GREEKS
100
AcDbText
  0
TEXT
  5
31F
330
106E
100
AcDbEntity
  8
TEXT
100
AcDbText
 10
655.1296391125315
 20
51.64011943042146
 30
0.0
 40
5.0
  1
EDV-Art.Nr. 01362.070X
 41
0.8
  7
GREEKS
100
AcDbText
  0
TEXT
  5
320
330
106E
100
AcDbEntity
  8
TEXT
100
AcDbText
 10
654.9837501577826
 20
42.62974153022628
 30
0.0
 40
4.0
  1
01362070W.DWG
 41
0.8
  7
GREEKS
100
AcDbText
  0
TEXT
  5
321
330
106E
100
AcDbEntity
  8
TEXT
100
AcDbText
 10
612.6261322080839
 20
90.7636384102301
 30
0.0
 40
4.0
  1
DIN EN1124-3
 41
0.8
  7
GREEKS
 72
     1
 11
629.6166083985601
 21
90.7636384102301
 31
0.0
100
AcDbText
  0
INSERT
  5
322
330
106E
100
AcDbEntity
  8
STEMPEL
100
AcDbBlockReference
  2
LOGO
 10
570.9955485457794
 20
45.0210527644831
 30
0.0
 41
2.0
 42
2.0
 43
2.0
  0
LINE
  5
323
330
106E
100
AcDbEntity
  8
HILF
100
AcDbLine
 10
0.0
 20
0.0
 30
0.0
 11
-0.0000000000002274
 21
593.9999999999996
 31
0.0
  0
LINE
  5
324
330
106E
100
AcDbEntity
  8
STEMPEL
100
AcDbLine
 10
39.99999999999997
 20
10.0
 30
0.0
 11
39.99999999999986
 21
583.9999999999998
 31
0.0
  0
LINE
  5
325
330
106E
100
AcDbEntity
  8
HILF
 62
     7
100
AcDbLine
 10
460.0
 20
-0.0000000000002274
 30
0.0
 11
460.0
 21
10.0
 31
0.0
  0
LINE
  5
326
330
106E
100
AcDbEntity
  8
HILF
 62
     7
100
AcDbLine
 10
459.9999999999998
 20
583.9999999999998
 30
0.0
 11
459.9999999999998
 21
593.9999999999996
 31
0.0
  0
TEXT
  5
327
330
106E
100
AcDbEntity
  8
TEXT
100
AcDbText
 10
836.5811541437437
 20
12.14804815338303
 30
0.0
 40
4.0
  1
Diese Zeichnung ist urheberrechtlich geschützt und bleibt unser Eigentum. Sie darf weder ganz noch teilweise vervielfältigt und nicht an Dritte weitergegeben werden.
 50
90.0
 41
0.8
  7
GREEKS
100
AcDbText
  0
TEXT
  5
1C0B
330
106E
100
AcDbEntity
  8
TEXT
 62
     1
100
AcDbText
 10
790.8311268796597
 20
62.65843508889031
 30
0.0
 40
7.0
  1

 41
0.8
  7
GREEKS
 72
     1
 11
790.8311268796597
 21
62.65843508889031
 31
0.0
100
AcDbText
  0
TEXT
  5
206F
330
106E
100
AcDbEntity
  8
TEXT
 62
     1
100
AcDbText
 10
664.6057658946467
 20
115.5115488980132
 30
0.0
 40
7.0
  1

 41
0.8
  7
GREEKS
100
AcDbText
  0
MTEXT
  5
2105
330
106E
100
AcDbEntity
  8
BEM
 62
     1
100
AcDbMText
 10
168.1670985835575
 20
494.7121253266709
 30
0.0
 40
7.0
 41
0.0
 71
     1
 72
     1
  1
\A1;
  7
GREEKS
 73
     1
 44
1.0
  0
LINE
  5
222A
102
{ACAD_REACTORS
330
2B61
102
}
330
106E
100
AcDbEntity
  8
STEMPEL
100
AcDbLine
 10
69.877410160615
 20
337.9999999999999
 30
0.0
 11
344.1763928550885
 21
337.9999999999998
 31
0.0
  0
LINE
  5
2249
102
{ACAD_REACTORS
330
2B61
102
}
330
106E
100
AcDbEntity
  8
STEMPEL
100
AcDbLine
 10
69.877410160615
 20
337.9999999999999
 30
0.0
 11
69.877410160615
 21
340.9999999999999
 31
0.0
  0
LINE
  5
224A
102
{ACAD_REACTORS
330
2B61
330
30F3
102
}
330
106E
100
AcDbEntity
  8
STEMPEL
100
AcDbLine
 10
69.877410160615
 20
340.9999999999999
 30
0.0
 11
344.1763928550885
 21
340.9999999999999
 31
0.0
  0
LINE
  5
224D
102
{ACAD_REACTORS
330
2B61
102
}
330
106E
100
AcDbEntity
  8
STEMPEL
100
AcDbLine
 10
349.8763928550886
 20
442.9989826944733
 30
0.0
 11
346.8763928550885
 21
442.9989826944731
 31
0.0
  0
LINE
  5
224E
102
{ACAD_REACTORS
330
2B61
330
3189
102
}
330
106E
100
AcDbEntity
  8
STEMPEL
100
AcDbLine
 10
346.8763928550886
 20
343.6999999999998
 30
0.0
 11
346.8763928550884
 21
442.9989826944733
 31
0.0
  0
ARC
  5
224F
102
{ACAD_REACTORS
330
2B61
102
}
330
106E
100
AcDbEntity
  8
STEMPEL
100
AcDbCircle
 10
344.1763928550885
 20
343.6999999999998
 30
0.0
 40
5.7
100
AcDbArc
 50
270.0
 51
0.0
  0
ARC
  5
2250
102
{ACAD_REACTORS
330
2B61
102
}
330
106E
100
AcDbEntity
  8
STEMPEL
100
AcDbCircle
 10
344.1763928550885
 20
343.6999999999998
 30
0.0
 40
2.7
100
AcDbArc
 50
270.0
 51
0.0
  0
LINE
  5
2252
102
{ACAD_REACTORS
330
2B61
102
}
330
106E
100
AcDbEntity
  8
STEMPEL
100
AcDbLine
 10
349.8763928550887
 20
343.7000000000001
 30
0.0
 11
349.8763928550886
 21
442.9989826944733
 31
0.0
  0
LINE
  5
2254
102
{ACAD_REACTORS
330
3189
102
}
330
106E
100
AcDbEntity
  8
MITTEL
100
AcDbLine
 10
346.8763928550882
 20
407.998982694473
 30
0.0
 11
316.8763928550887
 21
407.998982694473
 31
0.0
  0
LINE
  5
2255
330
106E
100
AcDbEntity
  8
STEMPEL
100
AcDbLine
 10
321.8763928550885
 20
403.9989826944731
 30
0.0
 11
321.8763928550883
 21
411.9989826944726
 31
0.0
  0
LINE
  5
2257
330
106E
100
AcDbEntity
  8
STEMPEL
100
AcDbLine
 10
343.8763928550884
 20
412.9989826944731
 30
0.0
 11
341.8763928550884
 21
412.9989826944731
 31
0.0
  0
LINE
  5
2258
330
106E
100
AcDbEntity
  8
STEMPEL
100
AcDbLine
 10
343.8763928550884
 20
402.998982694473
 30
0.0
 11
341.8763928550885
 21
402.998982694473
 31
0.0
  0
LINE
  5
2259
330
106E
100
AcDbEntity
  8
HILF
100
AcDbLine
 10
343.8763928550884
 20
411.998982694473
 30
0.0
 11
341.8763928550884
 21
411.9989826944731
 31
0.0
  0
LINE
  5
225A
330
106E
100
AcDbEntity
  8
HILF
100
AcDbLine
 10
343.8763928550884
 20
403.998982694473
 30
0.0
 11
341.8763928550884
 21
403.9989826944731
 31
0.0
  0
LINE
  5
225B
330
106E
100
AcDbEntity
  8
STEMPEL
100
AcDbLine
 10
322.8763928550884
 20
402.998982694473
 30
0.0
 11
322.8763928550886
 21
412.9989826944731
 31
0.0
  0
LINE
  5
225D
330
106E
100
AcDbEntity
  8
STEMPEL
100
AcDbLine
 10
322.8763928550884
 20
412.9989826944728
 30
0.0
 11
321.8763928550885
 21
411.9989826944729
 31
0.0
  0
LINE
  5
225E
330
106E
100
AcDbEntity
  8
STEMPEL
100
AcDbLine
 10
322.8763928550884
 20
402.998982694473
 30
0.0
 11
321.8763928550885
 21
403.9989826944731
 31
0.0
  0
LINE
  5
2282
330
106E
100
AcDbEntity
  8
MITTEL
100
AcDbLine
 10
204.8774101606152
 20
332.9999999999998
 30
0.0
 11
204.8774101606145
 21
462.4999999999993
 31
0.0
  0
DIMENSION
  5
22DB
330
106E
100
AcDbEntity
  8
BEM
100
AcDbDimension
  2
*D1
 10
820.3086188948372
 20
247.7321443928807
 30
0.0
 11
815.7277893217997
 21
284.5223061270017
 31
0.0
 70
    33
  1
%%c<>
 71
     5
 42
72.99999999999989
  3
STANDARD
100
AcDbAlignedDimension
 13
797.8000067506914
 23
322.0119520279466
 33
0.0
 14
793.9794819449568
 24
249.1119959908628
 34
0.0
1001
ACAD
1000
DSTYLE
1002
{
1070
    40
1040
2.0
1070
    41
1040
3.5
1070
    42
1040
1.0
1070
    43
1040
7.0
1070
    44
1040
1.0
1070
    73
1070
     0
1070
    74
1070
     0
1070
    77
1070
     1
1070
    78
1070
     8
1070
    79
1070
     2
1070
   140
1040
3.5
1070
   141
1040
1.5
1070
   146
1040
0.5142857142857144
1070
   147
1040
1.5
1070
   172
1070
     1
1070
   178
1070
     1
1070
   179
1070
     2
1070
   271
1070
     2
1070
   272
1070
     2
1070
   284
1070
     8
1070
   285
1070
     8
1070
   286
1070
     8
1002
}
  0
TEXT
  5
22F0
330
106E
100
AcDbEntity
  8
TEXT
 62
     1
100
AcDbText
 10
617.320138836262
 20
302.1332815704884
 30
0.0
 40
7.0
  1
DN70
 50
357.0
 41
0.8
  7
GREEKS
100
AcDbText
  0
LINE
  5
23BD
102
{ACAD_REACTORS
330
2B61
102
}
330
106E
100
AcDbEntity
  8
STEMPEL
100
AcDbLine
 10
143.8774101606151
 20
337.9999999999998
 30
0.0
 11
143.8774101606152
 21
340.9999999999999
 31
0.0
  0
LINE
  5
23BE
102
{ACAD_REACTORS
330
2B61
102
}
330
106E
100
AcDbEntity
  8
STEMPEL
100
AcDbLine
 10
265.877410160615
 20
337.9999999999997
 30
0.0
 11
265.8774101606152
 21
340.9999999999999
 31
0.0
  0
DIMENSION
  5
2915
330
106E
100
AcDbEntity
  8
BEM
100
AcDbDimension
  2
*D2
 10
349.8763928550887
 20
256.1411614815555
 30
0.0
 11
209.8769015078518
 21
262.0411614815554
 31
0.0
 70
    32
 71
     5
 42
279.9989826944737
  3
STANDARD
100
AcDbAlignedDimension
 13
69.877410160615
 23
337.9999999999999
 33
0.0
 14
349.8763928550887
 24
343.7000000000001
 34
0.0
100
AcDbRotatedDimension
  0
DIMENSION
  5
2B0D
330
106E
100
AcDbEntity
  8
BEM
100
AcDbDimension
  2
*D3
 10
364.0014723974147
 20
442.9989826944733
 30
0.0
 11
358.1014723974146
 21
390.4994913472366
 31
0.0
 70
    32
 71
     5
 42
104.9989826944735
  3
STANDARD
100
AcDbAlignedDimension
 13
344.1763928550885
 23
337.9999999999998
 33
0.0
 14
349.8763928550886
 24
442.9989826944733
 34
0.0
 50
90.0
100
AcDbRotatedDimension
  0
HATCH
  5
2B61
330
106E
100
AcDbEntity
  8
SCHRAFF
100
AcDbHatch
 10
0.0
 20
0.0
 30
0.0
210
0.0
220
0.0
230
1.0
  2
_USER
 70
     0
 71
     1
 91
        2
 92
        7
 72
     1
 73
     1
 93
        8
 10
346.8763928550886
 20
343.6999999999998
 42
-0.4142135623731012
 10
344.1763928550885
 20
340.9999999999999
 42
0.0
 10
265.8774101606152
 20
340.9999999999999
 42
0.0
 10
265.877410160615
 20
337.9999999999999
 42
0.0
 10
344.1763928550885
 20
337.9999999999998
 42
0.4142135623731039
 10
349.8763928550887
 20
343.6999999999998
 42
0.0
 10
349.8763928550888
 20
442.9989826944733
 42
0.0
 10
346.8763928550885
 20
442.9989826944731
 42
0.0
 97
        8
330
224D
330
224E
330
2250
330
224A
330
23BE
330
222A
330
224F
330
2252
 92
        7
 72
     0
 73
     1
 93
        4
 10
143.8774101606151
 20
337.9999999999998
 10
143.8774101606152
 20
340.9999999999999
 10
69.877410160615
 20
340.9999999999999
 10
69.877410160615
 20
337.9999999999999
 97
        4
330
224A
330
2249
330
222A
330
23BD
 75
     0
 76
     0
 52
135.0
 41
2.0
 77
     0
 78
     1
 53
135.0
 43
0.0
 44
-109.1614526834382
 45
-1.414213562373095
 46
-1.414213562373094
 79
     0
 47
0.4435612551022967
 98
        2
 10
347.5563553180523
 20
424.2708659739151
 10
110.1700819730258
 20
339.1071037538487
  0
DIMENSION
  5
2E95
330
106E
100
AcDbEntity
  8
BEM
100
AcDbDimension
  2
*D4
 10
804.8774101606154
 20
506.0923342593032
 30
0.0
 11
504.8774101606149
 21
511.9923342593033
 31
0.0
 70
    32
 71
     5
 42
600.000000000001
  3
STANDARD
100
AcDbAlignedDimension
 13
204.8774101606145
 23
494.2389163139862
 33
0.0
 14
804.8774101606154
 24
285.0909504032146
 34
0.0
100
AcDbRotatedDimension
  0
TEXT
  5
2E96
330
106E
100
AcDbEntity
  8
TEXT
 62
     1
100
AcDbText
 10
397.4159194541972
 20
401.3213822855271
 30
0.0
 40
7.0
  1
Losflansch
 41
0.8
  7
GREEKS
100
AcDbText
  0
TEXT
  5
2E97
330
106E
100
AcDbEntity
  8
TEXT
 62
     1
100
AcDbText
 10
396.6864116318638
 20
386.878858530097
 30
0.0
 40
7.0
  1
EDV-Art.Nr. 19929.100X
 41
0.8
  7
GREEKS
100
AcDbText
  0
LINE
  5
2E98
330
106E
100
AcDbEntity
  8
TEXT
 62
     2
100
AcDbLine
 10
394.7667358351464
 20
398.050854684678
 30
0.0
 11
501.2013269527151
 21
398.050854684678
 31
0.0
  0
LINE
  5
2E99
330
106E
100
AcDbEntity
  8
TEXT
 62
     2
100
AcDbLine
 10
394.7667358351464
 20
398.050854684678
 30
0.0
 11
365.6324766384756
 21
377.3745485025536
 31
0.0
  0
LINE
  5
2E9A
330
106E
100
AcDbEntity
  8
TEXT
 62
     2
100
AcDbLine
 10
150.9573741258623
 20
506.5351626655395
 30
0.0
 11
162.2825041603558
 21
486.0488256308605
 31
0.0
  0
DIMENSION
  5
2E9B
330
106E
100
AcDbEntity
  8
BEM
100
AcDbDimension
  2
*D5
 10
334.8774101606154
 20
484.2984776097376
 30
0.0
 11
204.8774101606154
 21
490.1984776097376
 31
0.0
 70
    32
 71
     5
 42
260.0
  3
STANDARD
100
AcDbAlignedDimension
 13
74.8774101606154
 23
367.0000000000002
 33
0.0
 14
334.8774101606154
 24
366.9999999999991
 34
0.0
100
AcDbRotatedDimension
  0
TEXT
  5
2E9C
330
106E
100
AcDbEntity
  8
TEXT
 62
     1
100
AcDbText
 10
46.44245880501102
 20
495.3631665109585
 30
0.0
 40
7.0
  1
EDV-Art.Nr. 21004.000X
 41
0.8
  7
GREEKS
100
AcDbText
  0
LINE
  5
2E9D
330
106E
100
AcDbEntity
  8
TEXT
 62
     2
100
AcDbLine
 10
44.52278300829357
 20
506.5351626655395
 30
0.0
 11
150.9573741258623
 21
506.5351626655395
 31
0.0
  0
TEXT
  5
2E9E
330
106E
100
AcDbEntity
  8
TEXT
 62
     1
100
AcDbText
 10
47.17196662734432
 20
509.8056902663887
 30
0.0
 40
7.0
  1
Siebkorb
 41
0.8
  7
GREEKS
100
AcDbText
  0
DIMENSION
  5
2E9F
330
106E
100
AcDbEntity
  8
BEM
100
AcDbDimension
  2
*D6
 10
314.8774101606156
 20
470.2735238552032
 30
0.0
 11
204.8774101606154
 21
476.1735238552032
 31
0.0
 70
    32
 71
     5
 42
220.0000000000002
  3
STANDARD
100
AcDbAlignedDimension
 13
94.87741016061534
 23
435.9999420326846
 33
0.0
 14
314.8774101606156
 24
435.9999420326836
 34
0.0
100
AcDbRotatedDimension
  0
HATCH
  5
2EA0
330
106E
100
AcDbEntity
  8
SCHRAFF
100
AcDbHatch
 10
0.0
 20
0.0
 30
0.0
210
0.0
220
0.0
230
1.0
  2
ANSI31
 70
     0
 71
     0
 91
        5
 92
        7
 72
     1
 73
     1
 93
       39
 10
124.8774101606155
 20
456.0
 42
0.0
 10
179.4378955655588
 20
455.9999999999995
 42
0.2679491924311848
 10
180.7369336712358
 20
456.7499999999995
 42
-0.2859076546239628
 10
182.135971776913
 20
457.4966629547089
 42
-0.2859076546237491
 10
183.5350098825891
 20
456.7499999999993
 42
0.2679491924311245
 10
184.8340479882658
 20
455.9999999999993
 42
0.0
 10
191.2878955655593
 20
455.9999999999993
 42
0.2679491924311449
 10
192.586933671236
 20
456.7499999999993
 42
-0.2859076546238214
 10
193.9859717769124
 20
457.4966629547089
 42
-0.3607372083888889
 10
195.5383405317407
 20
456.3749999999993
 42
0.3419987131196436
 10
196.0224634500166
 20
455.9999999999993
 42
0.0
 10
196.211212642616
 20
455.9999999999993
 42
0.341998713119513
 10
196.6953355608916
 20
456.3749999999993
 42
-0.3419987131196436
 10
198.1477043157194
 20
457.4999999999993
 42
0.0
 10
204.8774101606156
 20
457.4999999999993
 42
0.0
 10
204.8774101606156
 20
456.4999999999994
 42
0.0
 10
198.1477043157193
 20
456.4999999999994
 42
0.3419987131195064
 10
197.6635813974437
 20
456.1249999999993
 42
-0.3596757619904947
 10
196.1168380463164
 20
455.0029717986705
 42
-0.3596757619905158
 10
194.5700946951889
 20
456.1249999999993
 42
0.3419987131196715
 10
194.085971776913
 20
456.4999999999994
 42
0.0
 10
193.8859717769127
 20
456.4999999999994
 42
0.267949192431149
 10
193.4529590750205
 20
456.2499999999994
 42
-0.2679491924311241
 10
191.2878955655593
 20
454.9999999999995
 42
0.0
 10
184.8340479882653
 20
454.9999999999995
 42
-0.2679491924310771
 10
182.6689844788044
 20
456.2499999999992
 42
0.2679491924312612
 10
182.2359717769121
 20
456.4999999999994
 42
0.0
 10
182.0359717769129
 20
456.4999999999994
 42
0.2679491924313018
 10
181.6029590750202
 20
456.2499999999996
 42
-0.2679491924311406
 10
179.4378955655589
 20
454.9999999999996
 42
0.0
 10
124.8774101606175
 20
455.0
 42
0.1340385084113211
 10
122.3369104854389
 20
454.3064906130658
 42
0.0
 10
98.35805659248855
 20
440.318837446881
 42
0.2667503951500854
 10
95.87741016061546
 20
435.9999420326844
 42
0.0
 10
95.87741016061546
 20
431.0
 42
0.0
 10
94.87741016061539
 20
431.0
 42
0.0
 10
94.87741016061534
 20
435.9999420326841
 42
-0.2662608607120724
 10
97.84471553894077
 20
441.1770805600629
 42
0.0
 10
121.8774101606671
 20
455.1961524227359
 42
-0.1316524975848892
 97
        0
 92
        7
 72
     1
 73
     1
 93
        8
 10
94.87741016061523
 20
391.0
 42
0.0
 10
95.87741016061528
 20
391.0
 42
0.0
 10
95.87741016061517
 20
372.0000000000006
 42
-0.4142135623731166
 10
89.87741016061518
 20
366.0000000000002
 42
0.0
 10
86.87741016061522
 20
366.0000000000002
 42
0.0
 10
86.87741016061528
 20
367.0000000000005
 42
0.0
 10
89.87741016061539
 20
367.0000000000006
 42
0.4142135623730752
 10
94.87741016061505
 20
372.0000000000006
 42
0.0
 97
        0
 92
        7
 72
     0
 73
     1
 93
        4
 10
74.87741016061545
 20
367.0000000000002
 10
78.87741016061529
 20
367.0000000000003
 10
78.87741016061522
 20
366.0000000000002
 10
74.87741016061528
 20
366.0000000000002
 97
        0
 92
        7
 72
     1
 73
     1
 93
        8
 10
313.8774101606152
 20
371.9999999999997
 42
0.0
 10
313.8774101606152
 20
390.999999999999
 42
0.0
 10
314.8774101606154
 20
390.999999999999
 42
0.0
 10
314.8774101606153
 20
371.9999999999997
 42
0.4142135623730909
 10
319.8774101606151
 20
366.9999999999995
 42
0.0
 10
334.8774101606154
 20
366.9999999999991
 42
0.0
 10
334.8774101606155
 20
365.9999999999991
 42
0.0
 10
319.8774101606151
 20
365.9999999999992
 42
-0.4142135623731175
 97
        0
 92
        7
 72
     1
 73
     1
 93
       40
 10
227.9739844788051
 20
456.2499999999992
 42
0.2679491924310875
 10
227.5409717769129
 20
456.4999999999992
 42
0.0
 10
227.3409717769127
 20
456.4999999999992
 42
0.2679491924312574
 10
226.9079590750202
 20
456.2499999999994
 42
-0.267949192431145
 10
224.7428955655589
 20
454.9999999999993
 42
0.0
 10
222.6840479882665
 20
454.9999999999993
 42
-0.2679491924311416
 10
220.5189844788053
 20
456.2499999999994
 42
0.2679491924310647
 10
220.0859717769132
 20
456.4999999999993
 42
0.0
 10
219.8859717769128
 20
456.4999999999993
 42
0.267949192430994
 10
219.4529590750209
 20
456.2499999999992
 42
-0.2679491924311175
 10
217.2878955655598
 20
454.9999999999993
 42
0.0
 10
210.8340479882656
 20
454.9999999999993
 42
-0.2679491924310871
 10
208.6689844788047
 20
456.2499999999991
 42
0.2679491924312534
 10
208.2359717769124
 20
456.4999999999994
 42
0.0
 10
204.8774101606156
 20
456.4999999999994
 42
0.0
 10
204.8774101606156
 20
457.4999999999993
 42
0.0
 10
208.2359717769129
 20
457.4999999999993
 42
-0.2679491924310706
 10
209.5350098825893
 20
456.7499999999991
 42
0.2679491924311357
 10
210.8340479882659
 20
455.9999999999992
 42
0.0
 10
217.2878955655598
 20
455.9999999999992
 42
0.2679491924310962
 10
218.5869336712363
 20
456.7499999999991
 42
-0.2859076546238522
 10
219.9859717769129
 20
457.4966629547088
 42
-0.2859076546238809
 10
221.3850098825897
 20
456.7499999999991
 42
0.2679491924311237
 10
222.6840479882663
 20
455.9999999999992
 42
0.0
 10
224.7428955655589
 20
455.9999999999992
 42
0.2679491924311723
 10
226.0419336712358
 20
456.7499999999991
 42
-0.2859076546238861
 10
227.4409717769126
 20
457.4966629547088
 42
-0.2859076546239122
 10
228.8400098825895
 20
456.7499999999991
 42
0.267949192431137
 10
230.1390479882662
 20
455.9999999999992
 42
0.0
 10
284.8774101606157
 20
455.9999999999986
 42
-0.1316524975836561
 10
287.8774101605393
 20
455.1961524227494
 42
0.0
 10
311.9101047823202
 20
441.1770805600443
 42
-0.2662608607105233
 10
314.8774101606156
 20
435.9999420326836
 42
0.0
 10
314.8774101606156
 20
430.9999999999989
 42
0.0
 10
313.8774101606155
 20
430.9999999999989
 42
0.0
 10
313.8774101606155
 20
435.9999420326836
 42
0.2667503951500889
 10
311.3967637287426
 20
440.3188374468799
 42
0.0
 10
287.4179098358018
 20
454.3064906130593
 42
0.1340385084119114
 10
284.8774101606157
 20
454.999999999999
 42
0.0
 10
230.1390479882662
 20
454.9999999999991
 42
-0.2679491924311331
 97
        0
 75
     0
 76
     1
 52
0.0
 41
20.0
 77
     0
 78
     1
 53
134.9999999999997
 43
443.3208817152884
 44
-50.82635034851495
 45
1.767766952966376
 46
1.767766952966361
 79
     0
 47
0.2376111440341236
 98
        5
 10
142.7673324988894
 20
455.7948227829176
 10
95.08661818689779
 20
382.1305279045128
 10
76.55674228722858
 20
366.7826068729258
 10
328.0044192630952
 20
366.3588665417993
 10
277.5861086656858
 20
455.7006590626502
  0
LINE
  5
2EA1
330
106E
100
AcDbEntity
  8
STEMPEL
100
AcDbLine
 10
284.8774101606157
 20
454.999999999999
 30
0.0
 11
124.8774101606154
 21
455.0
 31
0.0
  0
LINE
  5
2EA2
102
{ACAD_REACTORS
330
2EB9
102
}
330
106E
100
AcDbEntity
  8
STEMPEL
100
AcDbLine
 10
334.8774101606152
 20
365.9999999999991
 30
0.0
 11
85.87741016061524
 21
366.0000000000001
 31
0.0
  0
LINE
  5
2EA3
330
106E
100
AcDbEntity
  8
HILF
100
AcDbLine
 10
102.5510771030849
 20
439.0000000000029
 30
0.0
 11
307.7037432181463
 21
439.0000000000018
 31
0.0
  0
LWPOLYLINE
  5
2EA4
330
106E
100
AcDbEntity
  8
STEMPEL
100
AcDbPolyline
 90
       18
 70
   128
 43
0.0
 10
156.3346795478775
 20
378.4999999999981
 10
156.4526605831586
 20
379.8781213836226
 10
156.8025859863483
 20
381.2093124964023
 10
157.37253946753
 20
382.448241221579
 10
158.1431119444861
 20
383.5527173273483
 10
159.0880624957136
 20
384.4851292046012
 10
160.1752119635337
 20
385.2137246851624
 10
161.3675387767119
 20
385.7136923237957
 10
162.6244396756638
 20
385.9680063222124
 10
163.9031124077621
 20
385.9680063222124
 10
165.1600133067139
 20
385.7136923237957
 10
166.3523401198922
 20
385.2137246851624
 10
167.4394895877123
 20
384.4851292046011
 10
168.3844401389398
 20
383.5527173273483
 10
169.1550126158959
 20
382.448241221579
 10
169.7249660970776
 20
381.2093124964022
 10
170.0748915002673
 20
379.8781213836226
 10
170.1928725355484
 20
378.499999999998
  0
LINE
  5
2EA5
330
106E
100
AcDbEntity
  8
STEMPEL
100
AcDbLine
 10
155.1171681151483
 20
366.9999999999999
 30
0.0
 11
168.5917768371427
 21
366.9999999999998
 31
0.0
  0
LINE
  5
2EA6
330
106E
100
AcDbEntity
  8
STEMPEL
100
AcDbLine
 10
179.4378955655588
 20
455.9999999999995
 30
0.0
 11
124.8774101606154
 21
456.0
 31
0.0
  0
HATCH
  5
2EA7
330
106E
100
AcDbEntity
  8
SCHRAFF
100
AcDbHatch
 10
0.0
 20
0.0
 30
0.0
210
0.0
220
0.0
230
1.0
  2
_USER
 70
     0
 71
     1
 91
        3
 92
        7
 72
     1
 73
     1
 93
        4
 10
271.8774101606151
 20
351.9999999999994
 42
1.0
 10
271.8774101606151
 20
345.9999999999997
 42
0.0
 10
331.8774101606151
 20
345.9999999999995
 42
1.0
 10
331.8774101606151
 20
351.9999999999992
 42
0.0
 97
        4
330
3003
330
3019
330
3004
330
3024
 92
        7
 72
     1
 73
     1
 93
       15
 10
137.8774101606151
 20
346.0000000000001
 42
1.0
 10
137.8774101606151
 20
351.9999999999998
 42
0.0
 10
95.5352673851886
 20
352.0
 42
-0.4091108014277082
 10
90.5360289094067
 20
356.9127379678136
 42
0.0
 10
90.37741016061522
 20
366.0000000000001
 42
0.0
 10
86.87741016061524
 20
366.0000000000001
 42
0.0
 10
86.87741016061528
 20
363.0000000000003
 42
0.0
 10
86.37741016061518
 20
363.0000000000001
 42
0.0
 10
86.37741016061514
 20
360.0000000000002
 42
0.0
 10
86.87741016061529
 20
360.0000000000002
 42
0.0
 10
86.87741016061512
 20
352.0000000000002
 42
0.0
 10
86.37741016061506
 20
352.0000000000002
 42
0.0
 10
86.37741016061511
 20
349.0000000000003
 42
0.0
 10
86.87741016061506
 20
349.0000000000003
 42
0.0
 10
86.87741016061506
 20
346.0000000000003
 42
0.0
 97
       15
330
3003
330
3025
330
2ECA
330
2EB7
330
2EC6
330
2EC7
330
2EC9
330
2EC8
330
2EBD
330
3031
330
3034
330
3033
330
3032
330
3004
330
3045
 92
        7
 72
     1
 73
     1
 93
       14
 10
78.87741016061529
 20
360.0000000000002
 42
0.0
 10
79.37741016061519
 20
360.0000000000002
 42
0.0
 10
79.37741016061517
 20
363.0000000000001
 42
0.0
 10
78.87741016061529
 20
363.0000000000003
 42
0.0
 10
78.87741016061522
 20
366.0000000000002
 42
0.0
 10
75.37741016061523
 20
366.0000000000002
 42
0.0
 10
75.11283120281769
 20
350.8422816594794
 42
-0.0565957168052928
 10
74.96597862302289
 20
349.7235788843747
 42
0.4875001418525418
 10
77.87741016061511
 20
346.0000000000003
 42
0.0
 10
78.87741016061511
 20
346.0000000000003
 42
0.0
 10
78.87741016061511
 20
349.0000000000003
 42
0.0
 10
79.37741016061512
 20
349.0000000000003
 42
0.0
 10
79.37741016061507
 20
352.0000000000003
 42
0.0
 10
78.87741016061511
 20
352.0000000000004
 42
0.0
 97
       14
330
2EC3
330
2EC4
330
2EC1
330
2EC2
330
2EB7
330
2EB8
330
3027
330
3026
330
3004
330
302D
330
302E
330
302F
330
302C
330
2EBC
 75
     0
 76
     0
 52
45.0
 41
5.0
 77
     0
 78
     1
 53
45.0
 43
-6.960724680755447
 44
-117.3789769157442
 45
-3.535533905932737
 46
3.535533905932737
 79
     0
 47
0.4118340008760517
 98
        3
 10
281.8376171350528
 20
349.16354402243
 10
114.9879153871925
 20
347.5162086909496
 10
77.49822863092913
 20
356.1647213711938
  0
DIMENSION
  5
2EA8
330
106E
100
AcDbEntity
  8
BEM
100
AcDbDimension
  2
*D7
 10
57.76324281727742
 20
456.0
 30
0.0
 11
51.86324281727734
 21
401.0000000000001
 31
0.0
 70
    32
 71
     5
 42
109.9999999999997
  3
STANDARD
100
AcDbAlignedDimension
 13
77.87741016061517
 23
346.0000000000003
 33
0.0
 14
124.8774101606154
 24
456.0
 34
0.0
 50
90.0
100
AcDbRotatedDimension
  0
LINE
  5
2EA9
330
106E
100
AcDbEntity
  8
STEMPEL
100
AcDbLine
 10
94.87741016061534
 20
435.9999420326846
 30
0.0
 11
94.87741016061505
 21
372.0000000000006
 31
0.0
  0
LINE
  5
2EAA
330
106E
100
AcDbEntity
  8
STEMPEL
100
AcDbLine
 10
95.87741016061546
 20
435.9999420326846
 30
0.0
 11
95.87741016061517
 21
372.0000000000006
 31
0.0
  0
ARC
  5
2EAB
330
106E
100
AcDbEntity
  8
STEMPEL
100
AcDbCircle
 10
89.87741016061518
 20
372.0000000000006
 30
0.0
 40
6.0
100
AcDbArc
 50
270.0000000000017
 51
0.0
  0
LWPOLYLINE
  5
2EAC
330
106E
100
AcDbEntity
  8
STEMPEL
100
AcDbPolyline
 90
       10
 70
   128
 43
0.0
 10
-90.58110867061959
 20
366.0000000000013
 10
-91.43918166689235
 20
366.0661272145739
 10
-92.29199386651458
 20
366.3186809643042
 10
-93.1127521734316
 20
366.7497266806218
 10
-93.87567053983065
 20
367.3457220510617
 10
-94.55678009532977
 20
368.0879424827823
 10
-95.13468218527549
 20
368.9530693795798
 10
-95.59122065968171
 20
369.9139227502958
 10
-95.91205229127927
 20
370.940315132008
 10
-96.08709740165039
 20
372.0000000000006
210
0.0
220
0.0
230
-1.0
  0
ARC
  5
2EAD
330
106E
100
AcDbEntity
  8
STEMPEL
100
AcDbCircle
 10
89.87741016061518
 20
372.0000000000006
 30
0.0
 40
5.0
100
AcDbArc
 50
270.0000000000017
 51
0.0
  0
LINE
  5
2EAE
102
{ACAD_REACTORS
330
30F3
102
}
330
106E
100
AcDbEntity
  8
MITTEL
100
AcDbLine
 10
82.87741016061511
 20
341.0000000000001
 30
0.0
 11
82.87741016061533
 21
378.6000000000004
 31
0.0
  0
LINE
  5
2EAF
330
106E
100
AcDbEntity
  8
HILF
100
AcDbLine
 10
80.49091016061526
 20
364.0000000000004
 30
0.0
 11
79.87741016061526
 21
367.0000000000004
 31
0.0
  0
LINE
  5
2EB0
330
106E
100
AcDbEntity
  8
HILF
100
AcDbLine
 10
85.26391016061525
 20
364.0000000000004
 30
0.0
 11
85.87741016061526
 21
367.0000000000004
 31
0.0
  0
LINE
  5
2EB1
330
106E
100
AcDbEntity
  8
STEMPEL
100
AcDbLine
 10
79.87741016061526
 20
367.0000000000004
 30
0.0
 11
79.87741016061526
 21
355.6135000000004
 31
0.0
  0
LINE
  5
2EB2
102
{ACAD_REACTORS
330
2EB9
102
}
330
106E
100
AcDbEntity
  8
STEMPEL
100
AcDbLine
 10
85.87741016061526
 20
355.6135000000004
 30
0.0
 11
85.87741016061526
 21
367.0000000000004
 31
0.0
  0
LINE
  5
2EB3
330
106E
100
AcDbEntity
  8
STEMPEL
100
AcDbLine
 10
86.87741016061528
 20
367.0000000000007
 30
0.0
 11
86.87741016061528
 21
366.0000000000002
 31
0.0
  0
LINE
  5
2EB4
330
106E
100
AcDbEntity
  8
STEMPEL
100
AcDbLine
 10
78.87741016061529
 20
367.0000000000002
 30
0.0
 11
78.87741016061529
 21
366.0000000000002
 31
0.0
  0
LINE
  5
2EB5
330
106E
100
AcDbEntity
  8
STEMPEL
100
AcDbLine
 10
74.8774101606154
 20
367.0000000000005
 30
0.0
 11
74.87741016061528
 21
366.0000000000002
 31
0.0
  0
LINE
  5
2EB6
330
106E
100
AcDbEntity
  8
STEMPEL
100
AcDbLine
 10
79.87741016061524
 20
366.0000000000002
 30
0.0
 11
74.87741016061517
 21
366.0000000000002
 31
0.0
  0
LINE
  5
2EB7
102
{ACAD_REACTORS
330
2EA7
102
}
330
106E
100
AcDbEntity
  8
STEMPEL
100
AcDbLine
 10
75.37741016061523
 20
366.0000000000002
 30
0.0
 11
79.87741016061524
 21
366.0000000000002
 31
0.0
  0
LINE
  5
2EB8
102
{ACAD_REACTORS
330
2EA7
102
}
330
106E
100
AcDbEntity
  8
STEMPEL
100
AcDbLine
 10
75.11283120281769
 20
350.8422816594794
 30
0.0
 11
75.37741016061523
 21
366.0000000000002
 31
0.0
  0
HATCH
  5
2EB9
330
106E
100
AcDbEntity
  8
BEM
100
AcDbHatch
 10
0.0
 20
0.0
 30
0.0
210
0.0
220
0.0
230
1.0
  2
_USER
 70
     0
 71
     1
 91
        4
 92
        7
 72
     0
 73
     1
 93
       13
 10
85.87741016061526
 20
355.6135000000004
 10
85.87741016061517
 20
346.0000000000003
 10
86.87741016061506
 20
346.0000000000003
 10
86.87741016061506
 20
349.0000000000003
 10
86.37741016061511
 20
349.0000000000003
 10
86.37741016061504
 20
352.0000000000002
 10
86.87741016061512
 20
352.0000000000002
 10
86.87741016061528
 20
360.0000000000002
 10
86.37741016061518
 20
360.0000000000002
 10
86.37741016061516
 20
363.0000000000002
 10
86.87741016061528
 20
363.0000000000002
 10
86.8774101606152
 20
366.0000000000001
 10
85.87741016061526
 20
366.0000000000002
 97
       13
330
2EC8
330
2EC9
330
2EC7
330
2EC6
330
2EA2
330
2EB2
330
2EBF
330
3004
330
3032
330
3033
330
3034
330
3031
330
2EBD
 92
        7
 72
     0
 73
     1
 93
        5
 10
85.87741016061523
 20
355.6135000000004
 10
85.26391016061522
 20
355.0000000000004
 10
84.87741016061523
 20
355.0000000000004
 10
84.87741016061518
 20
346.0000000000003
 10
85.87741016061515
 20
346.0000000000003
 97
        5
330
3029
330
302A
330
3035
330
3004
330
2EBF
 92
        7
 72
     0
 73
     1
 93
        5
 10
79.87741016061518
 20
346.0000000000003
 10
80.87741016061519
 20
346.0000000000003
 10
80.87741016061519
 20
355.0000000000003
 10
80.4909101606152
 20
355.0000000000004
 10
79.87741016061519
 20
355.6135000000004
 97
        5
330
302A
330
3028
330
2EBE
330
3004
330
3030
 92
        7
 72
     0
 73
     1
 93
       12
 10
78.87741016061511
 20
352.0000000000004
 10
79.37741016061505
 20
352.0000000000002
 10
79.37741016061512
 20
349.0000000000003
 10
78.87741016061513
 20
349.0000000000003
 10
78.87741016061514
 20
346.0000000000003
 10
79.87741016061517
 20
346.0000000000003
 10
79.87741016061524
 20
366.0000000000002
 10
78.87741016061522
 20
366.0000000000002
 10
78.87741016061529
 20
363.0000000000002
 10
79.37741016061517
 20
363.0000000000003
 10
79.37741016061517
 20
360.0000000000001
 10
78.87741016061529
 20
360.0000000000002
 97
       12
330
2EA2
330
2EC2
330
2EC1
330
2EC4
330
2EC3
330
2EBC
330
302C
330
302F
330
302E
330
302D
330
3004
330
2EBE
 75
     0
 76
     0
 52
135.0
 41
1.0
 77
     0
 78
     1
 53
135.0
 43
0.0
 44
0.207827595485071
 45
-0.7071067811865476
 46
-0.7071067811865475
 79
     0
 47
0.0494045119447598
 98
        4
 10
86.32581614176478
 20
359.2395622020131
 10
85.53507342097736
 20
354.4473240521259
 10
80.34582926636813
 20
354.1014938027355
 10
79.35740086538408
 20
355.0401788281873
  0
LINE
  5
2EBA
330
106E
100
AcDbEntity
  8
HILF
100
AcDbLine
 10
80.49091016061526
 20
364.0000000000004
 30
0.0
 11
80.49091016061524
 21
355.0000000000004
 31
0.0
  0
LINE
  5
2EBB
330
106E
100
AcDbEntity
  8
HILF
100
AcDbLine
 10
85.26391016061525
 20
364.0000000000004
 30
0.0
 11
85.26391016061525
 21
355.0000000000004
 31
0.0
  0
LINE
  5
2EBC
102
{ACAD_REACTORS
330
2EA7
330
2EB9
102
}
330
106E
100
AcDbEntity
  8
STEMPEL
100
AcDbLine
 10
78.87741016061511
 20
352.0000000000003
 30
0.0
 11
78.87741016061529
 21
360.0000000000002
 31
0.0
  0
LINE
  5
2EBD
102
{ACAD_REACTORS
330
2EA7
330
2EB9
102
}
330
106E
100
AcDbEntity
  8
STEMPEL
100
AcDbLine
 10
86.87741016061512
 20
352.0
 30
0.0
 11
86.87741016061528
 21
360.0000000000002
 31
0.0
  0
LINE
  5
2EBE
102
{ACAD_REACTORS
330
2EB9
102
}
330
106E
100
AcDbEntity
  8
HILF
100
AcDbLine
 10
79.87741016061517
 20
346.0000000000001
 30
0.0
 11
79.87741016061523
 21
366.0000000000002
 31
0.0
  0
LINE
  5
2EBF
102
{ACAD_REACTORS
330
2EB9
102
}
330
106E
100
AcDbEntity
  8
HILF
100
AcDbLine
 10
85.87741016061517
 20
346.0000000000001
 30
0.0
 11
85.87741016061523
 21
366.0000000000002
 31
0.0
  0
LINE
  5
2EC0
330
106E
100
AcDbEntity
  8
HILF
100
AcDbLine
 10
79.87741016061526
 20
364.0000000000004
 30
0.0
 11
85.87741016061526
 21
364.0000000000004
 31
0.0
  0
LINE
  5
2EC1
102
{ACAD_REACTORS
330
2EA7
330
2EB9
102
}
330
106E
100
AcDbEntity
  8
STEMPEL
100
AcDbLine
 10
78.87741016061522
 20
363.0000000000002
 30
0.0
 11
79.37741016061517
 21
363.0000000000002
 31
0.0
  0
LINE
  5
2EC2
102
{ACAD_REACTORS
330
2EA7
330
2EB9
102
}
330
106E
100
AcDbEntity
  8
STEMPEL
100
AcDbLine
 10
78.87741016061529
 20
363.0000000000002
 30
0.0
 11
78.87741016061522
 21
366.0000000000002
 31
0.0
  0
LINE
  5
2EC3
102
{ACAD_REACTORS
330
2EA7
330
2EB9
102
}
330
106E
100
AcDbEntity
  8
STEMPEL
100
AcDbLine
 10
78.87741016061522
 20
360.0000000000002
 30
0.0
 11
79.37741016061517
 21
360.0000000000002
 31
0.0
  0
LINE
  5
2EC4
102
{ACAD_REACTORS
330
2EA7
330
2EB9
102
}
330
106E
100
AcDbEntity
  8
STEMPEL
100
AcDbLine
 10
79.37741016061517
 20
360.0000000000002
 30
0.0
 11
79.37741016061517
 21
363.0000000000003
 31
0.0
  0
LINE
  5
2EC5
330
106E
100
AcDbEntity
  8
STEMPEL
100
AcDbLine
 10
85.87741016061526
 20
366.0000000000001
 30
0.0
 11
90.37741016061522
 21
366.0000000000001
 31
0.0
  0
LINE
  5
2EC6
102
{ACAD_REACTORS
330
2EA7
330
2EB9
102
}
330
106E
100
AcDbEntity
  8
STEMPEL
100
AcDbLine
 10
86.87741016061528
 20
363.0000000000001
 30
0.0
 11
86.87741016061522
 21
366.0000000000002
 31
0.0
  0
LINE
  5
2EC7
102
{ACAD_REACTORS
330
2EA7
330
2EB9
102
}
330
106E
100
AcDbEntity
  8
STEMPEL
100
AcDbLine
 10
86.37741016061516
 20
363.0000000000002
 30
0.0
 11
86.87741016061522
 21
363.0000000000002
 31
0.0
  0
LINE
  5
2EC8
102
{ACAD_REACTORS
330
2EA7
330
2EB9
102
}
330
106E
100
AcDbEntity
  8
STEMPEL
100
AcDbLine
 10
86.37741016061516
 20
360.0000000000002
 30
0.0
 11
86.87741016061522
 21
360.0000000000002
 31
0.0
  0
LINE
  5
2EC9
102
{ACAD_REACTORS
330
2EA7
330
2EB9
102
}
330
106E
100
AcDbEntity
  8
STEMPEL
100
AcDbLine
 10
86.37741016061516
 20
360.0000000000002
 30
0.0
 11
86.37741016061516
 21
363.0000000000003
 31
0.0
  0
LINE
  5
2ECA
102
{ACAD_REACTORS
330
2EA7
102
}
330
106E
100
AcDbEntity
  8
STEMPEL
100
AcDbLine
 10
90.5360289094067
 20
356.9127379678135
 30
0.0
 11
90.37741016061522
 21
366.0000000000001
 31
0.0
  0
LINE
  5
2ECB
330
106E
100
AcDbEntity
  8
STEMPEL
100
AcDbLine
 10
74.87741016061551
 20
367.0000000000002
 30
0.0
 11
89.87741016061539
 21
367.0000000000006
 31
0.0
  0
ARC
  5
2ECC
330
106E
100
AcDbEntity
  8
HILF
100
AcDbCircle
 10
82.87741016061525
 20
353.7587079727742
 30
0.0
 40
14.94074366520046
100
AcDbArc
 50
78.85962783889434
 51
101.1403721611056
  0
ARC
  5
2ECD
330
106E
100
AcDbEntity
  8
STEMPEL
100
AcDbCircle
 10
82.87741016061525
 20
353.3927405783635
 30
0.0
 40
20.20725942163691
100
AcDbArc
 50
81.78678929826221
 51
98.2132107017378
  0
LINE
  5
2ECE
330
106E
100
AcDbEntity
  8
STEMPEL
100
AcDbLine
 10
89.61552123944438
 20
368.0668309414327
 30
0.0
 11
76.13929908178613
 21
368.0668309414327
 31
0.0
  0
LINE
  5
2ECF
330
106E
100
AcDbEntity
  8
STEMPEL
100
AcDbLine
 10
89.42741016061525
 20
367.0000000000004
 30
0.0
 11
76.32741016061524
 21
367.0000000000004
 31
0.0
  0
LINE
  5
2ED0
330
106E
100
AcDbEntity
  8
STEMPEL
100
AcDbLine
 10
87.87741016061525
 20
373.6000000000004
 30
0.0
 11
77.87741016061525
 21
373.6000000000004
 31
0.0
  0
ARC
  5
2ED1
330
106E
100
AcDbEntity
  8
HILF
100
AcDbCircle
 10
78.54728314169306
 20
364.858691238184
 30
0.0
 40
3.840760399790701
100
AcDbArc
 50
67.92594526323878
 51
112.0740547367612
  0
ARC
  5
2ED2
330
106E
100
AcDbEntity
  8
STEMPEL
100
AcDbCircle
 10
78.54728314169306
 20
368.4704628614773
 30
0.0
 40
5.129537138523076
100
AcDbArc
 50
73.65710669401501
 51
106.342893305985
  0
LINE
  5
2ED3
330
106E
100
AcDbEntity
  8
STEMPEL
100
AcDbLine
 10
77.87741016061525
 20
373.6000000000004
 30
0.0
 11
77.10390746871898
 21
373.3927405783635
 31
0.0
  0
LINE
  5
2ED4
330
106E
100
AcDbEntity
  8
STEMPEL
100
AcDbLine
 10
77.103907468719
 20
373.3927405783635
 30
0.0
 11
77.103907468719
 21
368.4179196819997
 31
0.0
  0
LINE
  5
2ED5
330
106E
100
AcDbEntity
  8
STEMPEL
100
AcDbLine
 10
79.99065881466712
 20
373.3927405783635
 30
0.0
 11
79.99065881466712
 21
368.4179196819997
 31
0.0
  0
LINE
  5
2ED6
330
106E
100
AcDbEntity
  8
STEMPEL
100
AcDbLine
 10
77.103907468719
 20
368.4179196819997
 30
0.0
 11
76.13929908178613
 21
368.0668309414327
 31
0.0
  0
ARC
  5
2ED7
330
106E
100
AcDbEntity
  8
STEMPEL
100
AcDbCircle
 10
76.32741016061524
 20
367.5500000000004
 30
0.0
 40
0.5500000000000003
100
AcDbArc
 50
109.9999999999995
 51
270.0
  0
ARC
  5
2ED8
330
106E
100
AcDbEntity
  8
HILF
100
AcDbCircle
 10
87.20753717953744
 20
364.8575266762958
 30
0.0
 40
3.841839622940954
100
AcDbArc
 50
67.93247218101093
 51
112.067527818989
  0
LINE
  5
2ED9
330
106E
100
AcDbEntity
  8
STEMPEL
100
AcDbLine
 10
87.87741016061525
 20
373.6000000000004
 30
0.0
 11
88.65091285251152
 21
373.3927405783635
 31
0.0
  0
ARC
  5
2EDA
330
106E
100
AcDbEntity
  8
STEMPEL
100
AcDbCircle
 10
87.20753717953744
 20
368.4704628614773
 30
0.0
 40
5.129537138523076
100
AcDbArc
 50
73.65710669401501
 51
106.342893305985
  0
LINE
  5
2EDB
330
106E
100
AcDbEntity
  8
STEMPEL
100
AcDbLine
 10
85.76416150656338
 20
373.3927405783635
 30
0.0
 11
85.76416150656338
 21
368.4179196819997
 31
0.0
  0
LINE
  5
2EDC
330
106E
100
AcDbEntity
  8
STEMPEL
100
AcDbLine
 10
88.65091285251152
 20
373.3927405783635
 30
0.0
 11
88.65091285251152
 21
368.4179196819997
 31
0.0
  0
LINE
  5
2EDD
330
106E
100
AcDbEntity
  8
STEMPEL
100
AcDbLine
 10
89.61552123944438
 20
368.0668309414327
 30
0.0
 11
88.65091285251152
 21
368.4179196819997
 31
0.0
  0
ARC
  5
2EDE
330
106E
100
AcDbEntity
  8
STEMPEL
100
AcDbCircle
 10
89.42741016061525
 20
367.5500000000004
 30
0.0
 40
0.5500000000000009
100
AcDbArc
 50
270.0
 51
70.00000000000047
  0
LINE
  5
2EDF
102
{ACAD_REACTORS
330
30F3
102
}
330
106E
100
AcDbEntity
  8
MITTEL
100
AcDbLine
 10
122.6049968010934
 20
340.9999999999999
 30
0.0
 11
122.6049968010932
 21
370.9999999999994
 31
0.0
  0
ARC
  5
2EE0
330
106E
100
AcDbEntity
  8
STEMPEL
100
AcDbCircle
 10
122.6049968010933
 20
331.6891108675451
 30
0.0
 40
30.31088913245485
100
AcDbArc
 50
81.78678929826221
 51
98.2132107017378
  0
LINE
  5
2EE1
330
106E
100
AcDbEntity
  8
STEMPEL
100
AcDbLine
 10
115.1049968010933
 20
362.0
 30
0.0
 11
130.1049968010933
 21
362.0
 31
0.0
  0
LINE
  5
2EE2
330
106E
100
AcDbEntity
  8
STEMPEL
100
AcDbLine
 10
117.6049968010936
 20
364.9999999999997
 30
0.0
 11
127.6049968010934
 21
364.9999999999995
 31
0.0
  0
LINE
  5
2EE3
330
106E
100
AcDbEntity
  8
STEMPEL
100
AcDbLine
 10
118.6049968010934
 20
365.9999999999997
 30
0.0
 11
126.6049968010929
 21
365.9999999999999
 31
0.0
  0
LWPOLYLINE
  5
2EE4
330
106E
100
AcDbEntity
  8
STEMPEL
100
AcDbPolyline
 90
       10
 70
   128
 43
0.0
 10
-118.8088504780697
 20
366.0000000000001
 10
-119.5666001031639
 20
366.0911534819268
 10
-120.3013258893394
 20
366.3618442752846
 10
-120.9907035653726
 20
366.8038475772935
 10
-121.613786739419
 20
367.4037333412863
 10
-122.1516433445304
 20
368.143274341881
 10
-122.5879308799294
 20
369.0000000000003
 10
-122.9093929696246
 20
369.9478791400463
 10
-123.1062621506886
 20
370.9581109339989
 10
-123.1725566526755
 20
372.0000000000005
210
0.0
220
0.0
230
-1.0
  0
LWPOLYLINE
  5
2EE5
330
106E
100
AcDbEntity
  8
STEMPEL
100
AcDbPolyline
 90
       10
 70
   128
 43
0.0
 10
-109.6774290429378
 20
366.0000000000001
 10
-110.435178668032
 20
366.0911534819269
 10
-111.1699044542076
 20
366.3618442752847
 10
-111.8592821302407
 20
366.8038475772935
 10
-112.4823653042871
 20
367.4037333412863
 10
-113.0202219093985
 20
368.143274341881
 10
-113.4565094447975
 20
369.0000000000003
 10
-113.7779715344928
 20
369.9478791400463
 10
-113.9748407155568
 20
370.9581109339989
 10
-114.0411352175436
 20
372.0000000000005
210
0.0
220
0.0
230
-1.0
  0
LWPOLYLINE
  5
2EE6
330
106E
100
AcDbEntity
  8
STEMPEL
100
AcDbPolyline
 90
       10
 70
   128
 43
0.0
 10
-102.467971507288
 20
366.0000000000001
 10
-103.3041507821296
 20
366.0911534819269
 10
-104.1149231728322
 20
366.3618442752847
 10
-104.875653770575
 20
366.8038475772935
 10
-105.5632281610938
 20
367.4037333412863
 10
-106.1567547444622
 20
368.143274341881
 10
-106.6381995157834
 20
369.0000000000003
 10
-106.9929340193038
 20
369.9478791400464
 10
-107.210179826638
 20
370.9581109339989
 10
-107.283336033862
 20
372.0000000000006
210
0.0
220
0.0
230
-1.0
  0
LWPOLYLINE
  5
2EE7
330
106E
100
AcDbEntity
  8
STEMPEL
100
AcDbPolyline
 90
       10
 70
   128
 43
0.0
 10
-92.53900155392006
 20
366.0000000000002
 10
-93.39707455019283
 20
366.0661272145728
 10
-94.24988674981506
 20
366.318680964303
 10
-95.07064505673207
 20
366.7497266806206
 10
-95.83356342313113
 20
367.3457220510605
 10
-96.51467297863025
 20
368.0879424827812
 10
-97.09257506857596
 20
368.9530693795786
 10
-97.54911354298219
 20
369.9139227502947
 10
-97.86994517457976
 20
370.9403151320068
 10
-98.04499028495087
 20
371.9999999999995
210
0.0
220
0.0
230
-1.0
  0
LWPOLYLINE
  5
2EE8
330
106E
100
AcDbEntity
  8
STEMPEL
100
AcDbPolyline
 90
       10
 70
   128
 43
0.0
 10
-96.72772002181028
 20
366.0000000000002
 10
-97.56389929665187
 20
366.0911534819269
 10
-98.37467168735447
 20
366.3618442752847
 10
-99.13540228509731
 20
366.8038475772936
 10
-99.82297667561608
 20
367.4037333412864
 10
-100.4165032589845
 20
368.143274341881
 10
-100.8979480303057
 20
369.0000000000003
 10
-101.2526825338261
 20
369.9478791400464
 10
-101.4699283411602
 20
370.9581109339989
 10
-101.5430845483842
 20
372.0000000000006
210
0.0
220
0.0
230
-1.0
  0
LINE
  5
2EE9
330
106E
100
AcDbEntity
  8
STEMPEL
100
AcDbLine
 10
118.2748697821711
 20
354.0903565161998
 30
0.0
 11
118.2748697821711
 21
361.6891108675446
 31
0.0
  0
LINE
  5
2EEA
330
106E
100
AcDbEntity
  8
STEMPEL
100
AcDbLine
 10
113.9447427632489
 20
354.0903565161998
 30
0.0
 11
113.9447427632489
 21
361.6891108675446
 31
0.0
  0
ARC
  5
2EEB
330
106E
100
AcDbEntity
  8
STEMPEL
100
AcDbCircle
 10
116.10980627271
 20
354.3056942922155
 30
0.0
 40
7.694305707784447
100
AcDbArc
 50
73.65710669401501
 51
106.342893305985
  0
LINE
  5
2EEC
330
106E
100
AcDbEntity
  8
STEMPEL
100
AcDbLine
 10
115.1049968010933
 20
362.0
 30
0.0
 11
113.9447427632489
 21
361.6891108675446
 31
0.0
  0
LINE
  5
2EED
330
106E
100
AcDbEntity
  8
STEMPEL
100
AcDbLine
 10
117.6049968010934
 20
361.9999999999999
 30
0.0
 11
117.6049968010934
 21
364.9999999999997
 31
0.0
  0
LINE
  5
2EEE
330
106E
100
AcDbEntity
  8
HILF
100
AcDbLine
 10
118.6049968010932
 20
361.9999999999999
 30
0.0
 11
118.6049968010932
 21
365.9999999999999
 31
0.0
  0
LINE
  5
2EEF
330
106E
100
AcDbEntity
  8
STEMPEL
100
AcDbLine
 10
117.6049968010934
 20
364.9999999999997
 30
0.0
 11
118.6049968010934
 21
365.9999999999996
 31
0.0
  0
LINE
  5
2EF0
330
106E
100
AcDbEntity
  8
STEMPEL
100
AcDbLine
 10
107.283336033862
 20
378.4999999999983
 30
0.0
 11
107.283336033862
 21
372.0000000000017
 31
0.0
  0
LINE
  5
2EF1
330
106E
100
AcDbEntity
  8
STEMPEL
100
AcDbLine
 10
106.3572816973548
 20
378.4999999999983
 30
0.0
 11
106.3572816973547
 21
372.0000000000017
 31
0.0
  0
LINE
  5
2EF2
330
106E
100
AcDbEntity
  8
STEMPEL
100
AcDbLine
 10
97.05121157141309
 20
378.4999999999984
 30
0.0
 11
97.05121157141304
 21
372.0000000000006
 31
0.0
  0
LINE
  5
2EF3
330
106E
100
AcDbEntity
  8
STEMPEL
100
AcDbLine
 10
98.04499028495094
 20
378.4999999999984
 30
0.0
 11
98.04499028495087
 21
371.9999999999995
 31
0.0
  0
LINE
  5
2EF4
330
106E
100
AcDbEntity
  8
STEMPEL
100
AcDbLine
 10
101.5430845483842
 20
378.4999999999983
 30
0.0
 11
101.5430845483842
 21
372.0000000000017
 31
0.0
  0
LINE
  5
2EF5
330
106E
100
AcDbEntity
  8
STEMPEL
100
AcDbLine
 10
96.08709740165046
 20
378.4999999999984
 30
0.0
 11
96.08709740165039
 21
372.0000000000006
 31
0.0
  0
LINE
  5
2EF6
330
106E
100
AcDbEntity
  8
STEMPEL
100
AcDbLine
 10
99.38951291571568
 20
367.0000000000002
 30
0.0
 11
104.203710064687
 21
367.0000000000001
 31
0.0
  0
LINE
  5
2EF7
330
106E
100
AcDbEntity
  8
STEMPEL
100
AcDbLine
 10
93.46663821797978
 20
367.0000000000002
 30
0.0
 11
94.43075238774241
 21
367.0000000000002
 31
0.0
  0
LWPOLYLINE
  5
2EF8
330
106E
100
AcDbEntity
  8
STEMPEL
100
AcDbPolyline
 90
        7
 70
   128
 43
0.0
 10
-94.43075238774218
 20
367.0000000000006
 10
-95.10745426281955
 20
367.6096007278597
 10
-95.70700368645356
 20
368.3371598117713
 10
-96.21329235960315
 20
369.1631296734515
 10
-96.61271765164878
 20
370.0653186986546
 10
-96.89454806691168
 20
371.0194874668483
 10
-97.05121157141315
 20
372.0000000000006
210
0.0
220
0.0
230
-1.0
  0
LWPOLYLINE
  5
2EF9
330
106E
100
AcDbEntity
  8
STEMPEL
100
AcDbPolyline
 90
        7
 70
   128
 43
0.0
 10
-104.203710064686
 20
367.0000000000001
 10
-104.8238005877503
 20
367.6093379018409
 10
-105.3556207345338
 20
368.3367681751302
 10
-105.784866534265
 20
369.1627256690739
 10
-106.0999928820624
 20
370.0649952195362
 10
-106.2925240590282
 20
371.0193091537794
 10
-106.3572816973546
 20
372.0000000000006
210
0.0
220
0.0
230
-1.0
  0
LWPOLYLINE
  5
2EFA
330
106E
100
AcDbEntity
  8
STEMPEL
100
AcDbPolyline
 90
       18
 70
   128
 43
0.0
 10
96.08709740165046
 20
378.4999999999984
 10
96.10376582512731
 20
379.8781213836229
 10
96.15320347238764
 20
381.2093124964026
 10
96.23372680364809
 20
382.4482412215794
 10
96.34259369343977
 20
383.5527173273486
 10
96.47609681040206
 20
384.4851292046014
 10
96.62968986600617
 20
385.2137246851627
 10
96.79814243295822
 20
385.713692323796
 10
96.97571806112717
 20
385.9680063222127
 10
97.15636962547421
 20
385.9680063222127
 10
97.33394525364316
 20
385.713692323796
 10
97.50239782059521
 20
385.2137246851627
 10
97.65599087619932
 20
384.4851292046014
 10
97.78949399316161
 20
383.5527173273486
 10
97.89836088295329
 20
382.4482412215794
 10
97.97888421421374
 20
381.2093124964026
 10
98.02832186147407
 20
379.8781213836229
 10
98.04499028495094
 20
378.4999999999984
  0
LWPOLYLINE
  5
2EFB
330
106E
100
AcDbEntity
  8
STEMPEL
100
AcDbPolyline
 90
        7
 70
   128
 43
0.0
 10
96.5691544865316
 20
384.9620540558382
 10
96.70698349610189
 20
384.2099478188996
 10
96.82584777306807
 20
383.2872342081848
 10
96.92219577496928
 20
382.2214829582806
 10
96.99314872250738
 20
381.0445376214595
 10
97.03658661451539
 20
379.7915641150577
 10
97.05121157141299
 20
378.4999999999984
  0
LWPOLYLINE
  5
2EFC
330
106E
100
AcDbEntity
  8
STEMPEL
100
AcDbPolyline
 90
       18
 70
   128
 43
0.0
 10
101.5430845483842
 20
378.4999999999983
 10
101.5919538933006
 20
379.8781213836229
 10
101.7368977411206
 20
381.2093124964025
 10
101.9729802029478
 20
382.4482412215793
 10
102.2921617736945
 20
383.5527173273486
 10
102.6835731077849
 20
384.4851292046014
 10
103.1338851616829
 20
385.2137246851627
 10
103.6277630984823
 20
385.7136923237959
 10
104.1483884973872
 20
385.9680063222127
 10
104.678032084859
 20
385.9680063222127
 10
105.198657483764
 20
385.7136923237959
 10
105.6925354205634
 20
385.2137246851627
 10
106.1428474744614
 20
384.4851292046014
 10
106.5342588085518
 20
383.5527173273486
 10
106.8534403792985
 20
382.4482412215793
 10
107.0895228411257
 20
381.2093124964025
 10
107.2344666889457
 20
379.8781213836229
 10
107.283336033862
 20
378.4999999999983
  0
LWPOLYLINE
  5
2EFD
330
106E
100
AcDbEntity
  8
STEMPEL
100
AcDbPolyline
 90
        9
 70
   128
 43
0.0
 10
103.950183122871
 20
385.9017582446634
 10
104.4392436661399
 20
385.575325346906
 10
104.8988566340408
 20
385.0300563336487
 10
105.3148064376651
 20
384.2828160905208
 10
105.6742279669566
 20
383.3567163677432
 10
105.9660045018441
 20
382.280400945773
 10
106.1811115465823
 20
381.0871596981421
 10
106.3128959526898
 20
379.8138989530662
 10
106.3572816973546
 20
378.4999999999999
  0
LINE
  5
2EFE
330
106E
100
AcDbEntity
  8
STEMPEL
100
AcDbLine
 10
123.1725566526757
 20
378.4999999999982
 30
0.0
 11
123.1725566526756
 21
372.0000000000017
 31
0.0
  0
LINE
  5
2EFF
330
106E
100
AcDbEntity
  8
STEMPEL
100
AcDbLine
 10
122.3773357658549
 20
378.4999999999982
 30
0.0
 11
122.3773357658548
 21
372.0000000000017
 31
0.0
  0
LINE
  5
2F00
330
106E
100
AcDbEntity
  8
STEMPEL
100
AcDbLine
 10
114.0411352175438
 20
378.4999999999982
 30
0.0
 11
114.0411352175437
 21
372.0000000000017
 31
0.0
  0
LINE
  5
2F01
330
106E
100
AcDbEntity
  8
STEMPEL
100
AcDbLine
 10
112.0895583890253
 20
367.0000000000001
 30
0.0
 11
120.4257589373372
 21
367.0000000000001
 31
0.0
  0
LWPOLYLINE
  5
2F02
330
106E
100
AcDbEntity
  8
STEMPEL
100
AcDbPolyline
 90
        7
 70
   128
 43
0.0
 10
-120.4257589373365
 20
367.0000000000001
 10
-120.9876879106006
 20
367.6093379018409
 10
-121.4696258501878
 20
368.3367681751302
 10
-121.8586104299376
 20
369.1627256690738
 10
-122.144179421044
 20
370.0649952195361
 10
-122.31865208684
 20
371.0193091537794
 10
-122.377335765855
 20
372.0000000000005
210
0.0
220
0.0
230
-1.0
  0
LWPOLYLINE
  5
2F03
330
106E
100
AcDbEntity
  8
STEMPEL
100
AcDbPolyline
 90
       18
 70
   128
 43
0.0
 10
114.0411352175439
 20
378.4999999999982
 10
114.118875118804
 20
379.8781213836228
 10
114.3494474834858
 20
381.2093124964024
 10
114.725000446251
 20
382.4482412215792
 10
115.2327450013787
 20
383.5527173273485
 10
115.8553905170166
 20
384.4851292046013
 10
116.5717335469107
 20
385.2137246851626
 10
117.3573798883366
 20
385.7136923237959
 10
118.185575297416
 20
385.9680063222126
 10
119.0281165728037
 20
385.9680063222126
 10
119.8563119818831
 20
385.7136923237959
 10
120.6419583233089
 20
385.2137246851626
 10
121.358301353203
 20
384.4851292046013
 10
121.980946868841
 20
383.5527173273485
 10
122.4886914239687
 20
382.4482412215792
 10
122.8642443867338
 20
381.2093124964024
 10
123.0948167514157
 20
379.8781213836228
 10
123.1725566526758
 20
378.4999999999982
  0
LWPOLYLINE
  5
2F04
330
106E
100
AcDbEntity
  8
STEMPEL
100
AcDbPolyline
 90
       10
 70
   128
 43
0.0
 10
117.8116250482889
 20
386.0000000000014
 10
118.6044523941485
 20
385.886058147593
 10
119.3731900822943
 20
385.5476946558956
 10
120.0944804070718
 20
384.9951905283845
 10
120.7464073269533
 20
384.2453333233934
 10
121.3091623723689
 20
383.3209070726499
 10
121.7656465160319
 20
382.2500000000006
 10
122.1019897182286
 20
381.0651510749429
 10
122.3079723609587
 20
379.8023613325021
 10
122.3773357658548
 20
378.4999999999998
  0
LWPOLYLINE
  5
2F05
330
106E
100
AcDbEntity
  8
STEMPEL
100
AcDbPolyline
 90
       10
 70
   128
 43
0.0
 10
-153.6123362206684
 20
365.9999999999999
 10
-154.085066178422
 20
366.0911534819267
 10
-154.5434324756222
 20
366.3618442752845
 10
-154.9735078842729
 20
366.8038475772933
 10
-155.3622247807112
 20
367.4037333412861
 10
-155.6977721987388
 20
368.1432743418808
 10
-155.9699546998544
 20
369.0000000000001
 10
-156.1705021564925
 20
369.9478791400462
 10
-156.293321035665
 20
370.9581109339987
 10
-156.3346795478774
 20
372.0000000000003
210
0.0
220
0.0
230
-1.0
  0
LWPOLYLINE
  5
2F06
330
106E
100
AcDbEntity
  8
STEMPEL
100
AcDbPolyline
 90
       10
 70
   128
 43
0.0
 10
-140.967224878872
 20
366.0
 10
-141.603229238873
 20
366.0911534819267
 10
-142.2199089282291
 20
366.3618442752845
 10
-142.7985264466341
 20
366.8038475772934
 10
-143.321500793586
 20
367.4037333412862
 10
-143.7729416581905
 20
368.1432743418809
 10
-144.1391322382165
 20
369.0000000000002
 10
-144.4089460181914
 20
369.9478791400462
 10
-144.5741848429431
 20
370.9581109339987
 10
-144.6298280143962
 20
372.0000000000004
210
0.0
220
0.0
230
-1.0
  0
LWPOLYLINE
  5
2F07
330
106E
100
AcDbEntity
  8
STEMPEL
100
AcDbPolyline
 90
       10
 70
   128
 43
0.0
 10
-129.0669247745032
 20
366.0
 10
-129.7029291345041
 20
366.0911534819268
 10
-130.3196088238603
 20
366.3618442752845
 10
-130.8982263422653
 20
366.8038475772934
 10
-131.4212006892172
 20
367.4037333412862
 10
-131.8726415538217
 20
368.143274341881
 10
-132.2388321338476
 20
369.0000000000002
 10
-132.5086459138226
 20
369.9478791400462
 10
-132.6738847385742
 20
370.9581109339988
 10
-132.7295279100273
 20
372.0000000000005
210
0.0
220
0.0
230
-1.0
  0
LINE
  5
2F08
330
106E
100
AcDbEntity
  8
STEMPEL
100
AcDbLine
 10
131.2652508389377
 20
354.0903565161998
 30
0.0
 11
131.2652508389377
 21
361.6891108675446
 31
0.0
  0
LINE
  5
2F09
330
106E
100
AcDbEntity
  8
STEMPEL
100
AcDbLine
 10
126.9351238200155
 20
354.0903565161998
 30
0.0
 11
126.9351238200155
 21
361.6891108675446
 31
0.0
  0
ARC
  5
2F0A
330
106E
100
AcDbEntity
  8
STEMPEL
100
AcDbCircle
 10
129.1001873294766
 20
354.3056942922155
 30
0.0
 40
7.694305707784447
100
AcDbArc
 50
73.65710669401501
 51
106.342893305985
  0
LINE
  5
2F0B
330
106E
100
AcDbEntity
  8
STEMPEL
100
AcDbLine
 10
131.2652508389377
 20
361.6891108675446
 30
0.0
 11
130.1049968010933
 21
362.0
 31
0.0
  0
LINE
  5
2F0C
330
106E
100
AcDbEntity
  8
HILF
100
AcDbLine
 10
126.6049968010932
 20
362.0
 30
0.0
 11
126.6049968010932
 21
365.9999999999997
 31
0.0
  0
LINE
  5
2F0D
330
106E
100
AcDbEntity
  8
STEMPEL
100
AcDbLine
 10
127.6049968010932
 20
362.0
 30
0.0
 11
127.6049968010932
 21
364.9999999999997
 31
0.0
  0
LINE
  5
2F0E
330
106E
100
AcDbEntity
  8
STEMPEL
100
AcDbLine
 10
127.6049968010932
 20
364.9999999999997
 30
0.0
 11
126.6049968010932
 21
365.9999999999997
 31
0.0
  0
LWPOLYLINE
  5
2F0F
330
106E
100
AcDbEntity
  8
STEMPEL
100
AcDbPolyline
 90
       18
 70
   128
 43
0.0
 10
132.7295279100273
 20
378.4999999999982
 10
132.8308405218316
 20
379.8781213836227
 10
133.1313282777609
 20
381.2093124964024
 10
133.620758427682
 20
382.4482412215792
 10
134.2824640148465
 20
383.5527173273484
 10
135.0939114491116
 20
384.4851292046013
 10
136.0274678613273
 20
385.2137246851626
 10
137.0513421075534
 20
385.7136923237959
 10
138.1306673783361
 20
385.9680063222126
 10
139.2286885460872
 20
385.9680063222125
 10
140.30801381687
 20
385.7136923237958
 10
141.3318880630961
 20
385.2137246851625
 10
142.2654444753118
 20
384.4851292046012
 10
143.0768919095769
 20
383.5527173273484
 10
143.7385974967413
 20
382.4482412215791
 10
144.2280276466625
 20
381.2093124964023
 10
144.5285154025917
 20
379.8781213836227
 10
144.6298280143961
 20
378.4999999999981
  0
LINE
  5
2F10
330
106E
100
AcDbEntity
  8
STEMPEL
100
AcDbLine
 10
131.091504833922
 20
367.0
 30
0.0
 11
142.3816104904291
 21
366.9999999999999
 31
0.0
  0
LWPOLYLINE
  5
2F11
330
106E
100
AcDbEntity
  8
STEMPEL
100
AcDbPolyline
 90
        9
 70
   128
 43
0.0
 10
138.3745807382922
 20
385.9901340778218
 10
139.4909884596634
 20
385.7828269414147
 10
140.5562677114057
 20
385.3135722139609
 10
141.532102694444
 20
384.5992479767923
 10
142.3833947273019
 20
383.665546933396
 10
143.0795246700384
 20
382.5460522982356
 10
143.5954542287297
 20
381.2810298808969
 10
143.9126265289455
 20
379.9159798116876
 10
144.0196335665338
 20
378.4999999999997
  0
LINE
  5
2F12
330
106E
100
AcDbEntity
  8
STEMPEL
100
AcDbLine
 10
132.7295279100274
 20
378.4999999999982
 30
0.0
 11
132.7295279100273
 21
372.0000000000016
 31
0.0
  0
LINE
  5
2F13
330
106E
100
AcDbEntity
  8
STEMPEL
100
AcDbLine
 10
156.3346795478775
 20
378.4999999999981
 30
0.0
 11
156.3346795478774
 21
372.0000000000015
 31
0.0
  0
LINE
  5
2F14
330
106E
100
AcDbEntity
  8
STEMPEL
100
AcDbLine
 10
144.6298280143962
 20
378.4999999999981
 30
0.0
 11
144.6298280143962
 21
372.0000000000015
 31
0.0
  0
LINE
  5
2F15
330
106E
100
AcDbEntity
  8
STEMPEL
100
AcDbLine
 10
144.0196335665339
 20
378.4999999999981
 30
0.0
 11
144.0196335665338
 21
372.0000000000015
 31
0.0
  0
LWPOLYLINE
  5
2F16
330
106E
100
AcDbEntity
  8
STEMPEL
100
AcDbPolyline
 90
        7
 70
   128
 43
0.0
 10
-142.3816104904285
 20
366.9999999999999
 10
-142.8532560909953
 20
367.6093379018408
 10
-143.2577625673781
 20
368.3367681751301
 10
-143.5842502098672
 20
369.1627256690737
 10
-143.8239377232755
 20
370.064995219536
 10
-143.9703784109014
 20
371.0193091537793
 10
-144.0196335665338
 20
372.0000000000004
210
0.0
220
0.0
230
-1.0
  0
ARC
  5
2F17
330
106E
100
AcDbEntity
  8
STEMPEL
100
AcDbCircle
 10
100.8774101606159
 20
435.9999420326842
 30
0.0
 40
5.000000000000511
100
AcDbArc
 50
120.2564164748203
 51
179.9999999999967
  0
ARC
  5
2F18
330
106E
100
AcDbEntity
  8
STEMPEL
100
AcDbCircle
 10
100.8774101606158
 20
435.9999420326841
 30
0.0
 40
6.000000000000454
100
AcDbArc
 50
120.2564164748158
 51
179.9999999999967
  0
LINE
  5
2F19
330
106E
100
AcDbEntity
  8
STEMPEL
100
AcDbLine
 10
113.5863006342632
 20
398.5000000000002
 30
0.0
 11
113.5863006342633
 21
423.5000000000018
 31
0.0
  0
LINE
  5
2F1A
330
106E
100
AcDbEntity
  8
STEMPEL
100
AcDbLine
 10
114.4543646539522
 20
423.5000000000002
 30
0.0
 11
114.4543646539521
 21
398.5000000000018
 31
0.0
  0
LINE
  5
2F1B
330
106E
100
AcDbEntity
  8
STEMPEL
100
AcDbLine
 10
106.9543646539524
 20
423.5000000000002
 30
0.0
 11
106.9543646539522
 21
398.5000000000035
 31
0.0
  0
ELLIPSE
  5
2F1C
330
106E
100
AcDbEntity
  8
STEMPEL
100
AcDbEllipse
 10
110.7043646539521
 20
398.5000000000019
 30
0.0
 11
-0.0000000000000334
 21
-7.499999999999999
 31
0.0
210
0.0
220
0.0
230
-1.0
 40
0.4999999999999926
 41
4.712388980384689
 42
7.853981633974482
  0
LINE
  5
2F1D
330
106E
100
AcDbEntity
  8
STEMPEL
100
AcDbLine
 10
94.87741016061551
 20
391.0
 30
0.0
 11
95.87741016061551
 21
391.0
 31
0.0
  0
ELLIPSE
  5
2F1E
330
106E
100
AcDbEntity
  8
STEMPEL
100
AcDbEllipse
 10
109.8363006342634
 20
398.5000000000019
 30
0.0
 11
-0.0000000000000334
 21
-7.499999999999999
 31
0.0
210
0.0
220
0.0
230
-1.0
 40
0.4999999999999926
 41
4.712388980384689
 42
6.167183451052224
  0
ELLIPSE
  5
2F1F
330
106E
100
AcDbEntity
  8
STEMPEL
100
AcDbEllipse
 10
110.7043646539523
 20
423.5000000000002
 30
0.0
 11
0.0000000000000334
 21
7.499999999999999
 31
0.0
210
0.0
220
0.0
230
1.0
 40
0.4999999999999926
 41
4.712388980384689
 42
7.853981633974482
  0
LINE
  5
2F20
330
106E
100
AcDbEntity
  8
STEMPEL
100
AcDbLine
 10
94.87741016061567
 20
431.0
 30
0.0
 11
95.87741016061569
 21
431.0
 31
0.0
  0
ELLIPSE
  5
2F21
330
106E
100
AcDbEntity
  8
STEMPEL
100
AcDbEllipse
 10
109.8363006342635
 20
423.5000000000002
 30
0.0
 11
0.0000000000000334
 21
7.499999999999999
 31
0.0
210
0.0
220
0.0
230
1.0
 40
0.4999999999999926
 41
4.712388980384689
 42
6.167183451052224
  0
LINE
  5
2F22
330
106E
100
AcDbEntity
  8
STEMPEL
100
AcDbLine
 10
156.5005905198772
 20
423.5000000000001
 30
0.0
 11
156.5005905198771
 21
398.5000000000001
 31
0.0
  0
LINE
  5
2F23
330
106E
100
AcDbEntity
  8
STEMPEL
100
AcDbLine
 10
157.0017675153191
 20
423.5000000000001
 30
0.0
 11
157.001767515319
 21
398.5000000000001
 31
0.0
  0
LINE
  5
2F24
330
106E
100
AcDbEntity
  8
STEMPEL
100
AcDbLine
 10
144.0113864585534
 20
423.5000000000001
 30
0.0
 11
144.0113864585533
 21
398.5000000000017
 31
0.0
  0
ELLIPSE
  5
2F25
330
106E
100
AcDbEntity
  8
STEMPEL
100
AcDbEllipse
 10
150.5065769869362
 20
398.5000000000001
 30
0.0
 11
-0.0000000000000334
 21
-7.5
 31
0.0
210
0.0
220
0.0
230
-1.0
 40
0.8660254037843856
 41
4.712388980384689
 42
7.853981633974482
  0
ELLIPSE
  5
2F26
330
106E
100
AcDbEntity
  8
STEMPEL
100
AcDbEllipse
 10
150.0053999914942
 20
398.5000000000001
 30
0.0
 11
-0.0000000000000334
 21
-7.5
 31
0.0
210
0.0
220
0.0
230
-1.0
 40
0.8660254037843856
 41
4.712388980384689
 42
6.24459510668465
  0
ELLIPSE
  5
2F27
330
106E
100
AcDbEntity
  8
STEMPEL
100
AcDbEllipse
 10
150.0053999914943
 20
423.5000000000001
 30
0.0
 11
0.0000000000000334
 21
7.5
 31
0.0
210
0.0
220
0.0
230
1.0
 40
0.8660254037843856
 41
4.712388980384689
 42
6.24459510668465
  0
ELLIPSE
  5
2F28
330
106E
100
AcDbEntity
  8
STEMPEL
100
AcDbEllipse
 10
150.5065769869363
 20
423.5000000000001
 30
0.0
 11
0.0000000000000334
 21
7.5
 31
0.0
210
0.0
220
0.0
230
1.0
 40
0.8660254037843856
 41
4.712388980384689
 42
7.853981633974482
  0
ARC
  5
2F29
330
106E
100
AcDbEntity
  8
STEMPEL
100
AcDbCircle
 10
124.8774101606175
 20
449.9999999999951
 30
0.0
 40
5.000000000004884
100
AcDbArc
 50
90.00000000002442
 51
120.5373500482946
  0
ARC
  5
2F2A
330
106E
100
AcDbEntity
  8
STEMPEL
100
AcDbCircle
 10
124.8774101606154
 20
450.0000000000003
 30
0.0
 40
5.999999999999263
100
AcDbArc
 50
90.0
 51
120.5128743276239
  0
LINE
  5
2F2B
330
106E
100
AcDbEntity
  8
STEMPEL
100
AcDbLine
 10
97.84471553890751
 20
441.1770805600435
 30
0.0
 11
121.8310184143745
 21
455.1690905707318
 31
0.0
  0
LINE
  5
2F2C
330
106E
100
AcDbEntity
  8
STEMPEL
100
AcDbLine
 10
98.35805659248832
 20
440.3188374468809
 30
0.0
 11
122.3369104854395
 21
454.3064906130662
 31
0.0
  0
ARC
  5
2F2D
330
106E
100
AcDbEntity
  8
STEMPEL
100
AcDbCircle
 10
95.36626655630385
 20
445.519836982462
 30
0.0
 40
5.0
100
AcDbArc
 50
300.0670458384872
 51
300.2564371635316
  0
ARC
  5
2F2E
330
106E
100
AcDbEntity
  8
STEMPEL
100
AcDbCircle
 10
124.8774101606154
 20
449.9999999999996
 30
0.0
 40
6.0
100
AcDbArc
 50
90.0
 51
90.0
  0
LWPOLYLINE
  5
2F2F
330
106E
100
AcDbEntity
  8
STEMPEL
100
AcDbPolyline
 90
       18
 70
   128
 43
0.0
 10
-295.7136851036866
 20
378.4999999999974
 10
-295.6359452024265
 20
379.878121383622
 10
-295.4053728377446
 20
381.2093124964016
 10
-295.0298198749795
 20
382.4482412215784
 10
-294.5220753198518
 20
383.5527173273477
 10
-293.8994298042138
 20
384.4851292046005
 10
-293.1830867743198
 20
385.2137246851618
 10
-292.3974404328939
 20
385.7136923237951
 10
-291.5692450238145
 20
385.9680063222118
 10
-290.7267037484268
 20
385.9680063222119
 10
-289.8985083393474
 20
385.7136923237952
 10
-289.1128619979214
 20
385.2137246851619
 10
-288.3965189680274
 20
384.4851292046006
 10
-287.7738734523894
 20
383.5527173273478
 10
-287.2661288972618
 20
382.4482412215785
 10
-286.8905759344966
 20
381.2093124964017
 10
-286.6600035698148
 20
379.8781213836221
 10
-286.5822636685546
 20
378.4999999999975
210
0.0
220
0.0
230
-1.0
  0
LWPOLYLINE
  5
2F30
330
106E
100
AcDbEntity
  8
STEMPEL
100
AcDbPolyline
 90
       10
 70
   128
 43
0.0
 10
-291.9431952729416
 20
386.0000000000006
 10
-291.1503679270819
 20
385.8860581475923
 10
-290.3816302389362
 20
385.5476946558949
 10
-289.6603399141586
 20
384.9951905283838
 10
-289.0084129942771
 20
384.2453333233926
 10
-288.4456579488615
 20
383.3209070726492
 10
-287.9891738051986
 20
382.2499999999999
 10
-287.6528306030018
 20
381.0651510749421
 10
-287.4468479602717
 20
379.8023613325014
 10
-287.3774845553756
 20
378.4999999999991
210
0.0
220
0.0
230
-1.0
  0
LWPOLYLINE
  5
2F31
330
106E
100
AcDbEntity
  8
STEMPEL
100
AcDbPolyline
 90
       10
 70
   128
 43
0.0
 10
290.9459698431606
 20
365.9999999999993
 10
290.1882202180664
 20
366.0911534819261
 10
289.4534944318908
 20
366.3618442752839
 10
288.7641167558577
 20
366.8038475772927
 10
288.1410335818113
 20
367.4037333412855
 10
287.6031769766998
 20
368.1432743418803
 10
287.1668894413009
 20
368.9999999999995
 10
286.8454273516057
 20
369.9478791400456
 10
286.6485581705417
 20
370.9581109339981
 10
286.5822636685548
 20
371.9999999999998
  0
LWPOLYLINE
  5
2F32
330
106E
100
AcDbEntity
  8
STEMPEL
100
AcDbPolyline
 90
        7
 70
   128
 43
0.0
 10
289.3290613838938
 20
366.9999999999993
 10
288.7671324106296
 20
367.6093379018401
 10
288.2851944710425
 20
368.3367681751295
 10
287.8962098912927
 20
369.1627256690731
 10
287.6106409001862
 20
370.0649952195354
 10
287.4361682343903
 20
371.0193091537786
 10
287.3774845553754
 20
371.9999999999998
  0
LINE
  5
2F33
330
106E
100
AcDbEntity
  8
STEMPEL
100
AcDbLine
 10
311.3967637287426
 20
440.3188374468799
 30
0.0
 11
287.4179098357915
 21
454.3064906130654
 31
0.0
  0
LINE
  5
2F34
330
106E
100
AcDbEntity
  8
STEMPEL
100
AcDbLine
 10
311.9101047823234
 20
441.1770805600425
 30
0.0
 11
287.9238019068566
 21
455.169090570731
 31
0.0
  0
ARC
  5
2F35
330
106E
100
AcDbEntity
  8
STEMPEL
100
AcDbCircle
 10
287.1498235201364
 20
331.6891108675445
 30
0.0
 40
30.31088913245485
100
AcDbArc
 50
81.78678929826221
 51
98.2132107017378
  0
LINE
  5
2F36
330
106E
100
AcDbEntity
  8
STEMPEL
100
AcDbLine
 10
279.6498235201365
 20
361.9999999999993
 30
0.0
 11
294.6498235201365
 21
361.9999999999993
 31
0.0
  0
LINE
  5
2F37
330
106E
100
AcDbEntity
  8
STEMPEL
100
AcDbLine
 10
282.1498235201368
 20
364.9999999999997
 30
0.0
 11
292.1498235201366
 21
364.9999999999995
 31
0.0
  0
LINE
  5
2F38
330
106E
100
AcDbEntity
  8
STEMPEL
100
AcDbLine
 10
283.1498235201366
 20
365.9999999999997
 30
0.0
 11
291.1498235201361
 21
365.9999999999999
 31
0.0
  0
LWPOLYLINE
  5
2F39
330
106E
100
AcDbEntity
  8
STEMPEL
100
AcDbPolyline
 90
       18
 70
   128
 43
0.0
 10
-226.5068822649022
 20
378.4999999999978
 10
-226.3802730187258
 20
379.8781213836223
 10
-226.0047568062241
 20
381.209312496402
 10
-225.3931213816318
 20
382.4482412215788
 10
-224.5661952557574
 20
383.552717327348
 10
-223.5521384060291
 20
384.4851292046009
 10
-222.3854833222374
 20
385.2137246851622
 10
-221.1059590440121
 20
385.7136923237955
 10
-219.757138236028
 20
385.9680063222122
 10
-218.3849533731688
 20
385.9680063222122
 10
-217.0361325651846
 20
385.7136923237955
 10
-215.7566082869593
 20
385.2137246851622
 10
-214.5899532031676
 20
384.4851292046009
 10
-213.5758963534394
 20
383.5527173273481
 10
-212.748970227565
 20
382.4482412215788
 10
-212.1373348029726
 20
381.209312496402
 10
-211.761818590471
 20
379.8781213836224
 10
-211.6352093442946
 20
378.4999999999978
210
0.0
220
0.0
230
-1.0
  0
LINE
  5
2F3A
330
106E
100
AcDbEntity
  8
STEMPEL
100
AcDbLine
 10
227.0934567871592
 20
366.9999999999996
 30
0.0
 11
212.3526173162378
 21
366.9999999999997
 31
0.0
  0
LWPOLYLINE
  5
2F3B
330
106E
100
AcDbEntity
  8
STEMPEL
100
AcDbPolyline
 90
       18
 70
   128
 43
0.0
 10
183.2479380563282
 20
378.499999999998
 10
183.3745473025046
 20
379.8781213836225
 10
183.7500635150063
 20
381.2093124964022
 10
184.3616989395987
 20
382.448241221579
 10
185.188625065473
 20
383.5527173273482
 10
186.2026819152013
 20
384.485129204601
 10
187.369336998993
 20
385.2137246851624
 10
188.6488612772183
 20
385.7136923237956
 10
189.9976820852024
 20
385.9680063222123
 10
191.3698669480617
 20
385.9680063222123
 10
192.7186877560458
 20
385.7136923237955
 10
193.9982120342711
 20
385.2137246851623
 10
195.1648671180628
 20
384.485129204601
 10
196.1789239677911
 20
383.5527173273482
 10
197.0058500936654
 20
382.4482412215789
 10
197.6174855182578
 20
381.2093124964021
 10
197.9930017307594
 20
379.8781213836225
 10
198.1196109769358
 20
378.4999999999979
  0
LINE
  5
2F3C
330
106E
100
AcDbEntity
  8
STEMPEL
100
AcDbLine
 10
182.661363534071
 20
366.9999999999998
 30
0.0
 11
197.4022030049924
 21
366.9999999999997
 31
0.0
  0
LWPOLYLINE
  5
2F3D
330
106E
100
AcDbEntity
  8
STEMPEL
100
AcDbPolyline
 90
       10
 70
   128
 43
0.0
 10
-167.4705292083393
 20
365.9999999999998
 10
-167.9432591660929
 20
366.0911534819266
 10
-168.4016254632931
 20
366.3618442752844
 10
-168.8317008719438
 20
366.8038475772933
 10
-169.220417768382
 20
367.4037333412861
 10
-169.5559651864097
 20
368.1432743418808
 10
-169.8281476875253
 20
369.0000000000001
 10
-170.0286951441634
 20
369.9478791400461
 10
-170.1515140233359
 20
370.9581109339986
 10
-170.1928725355483
 20
372.0000000000003
210
0.0
220
0.0
230
-1.0
  0
LWPOLYLINE
  5
2F3E
330
106E
100
AcDbEntity
  8
STEMPEL
100
AcDbPolyline
 90
       10
 70
   128
 43
0.0
 10
-181.9363633198202
 20
365.9999999999998
 10
-182.1641158826887
 20
366.0911534819265
 10
-182.384948299183
 20
366.3618442752843
 10
-182.5921506880742
 20
366.8038475772932
 10
-182.7794273096254
 20
367.403733341286
 10
-182.9410878584573
 20
368.1432743418807
 10
-183.072220360598
 20
369.0
 10
-183.1688404213259
 20
369.947879140046
 10
-183.228012288988
 20
370.9581109339986
 10
-183.2479380563281
 20
372.0000000000002
210
0.0
220
0.0
230
-1.0
  0
LINE
  5
2F3F
330
106E
100
AcDbEntity
  8
STEMPEL
100
AcDbLine
 10
170.1928725355484
 20
378.4999999999964
 30
0.0
 11
170.1928725355483
 21
372.0000000000014
 31
0.0
  0
LINE
  5
2F40
330
106E
100
AcDbEntity
  8
STEMPEL
100
AcDbLine
 10
169.8092882698714
 20
378.499999999998
 30
0.0
 11
169.8092882698714
 21
372.0000000000014
 31
0.0
  0
LWPOLYLINE
  5
2F41
330
106E
100
AcDbEntity
  8
STEMPEL
100
AcDbPolyline
 90
        7
 70
   128
 43
0.0
 10
-168.5917768371423
 20
366.9999999999998
 10
-168.9423420515542
 20
367.6093379018407
 10
-169.2430040304929
 20
368.3367681751299
 10
-169.4856760924276
 20
369.1627256690736
 10
-169.663831267476
 20
370.0649952195359
 10
-169.7726778484565
 20
371.0193091537791
 10
-169.8092882698714
 20
372.0000000000003
210
0.0
220
0.0
230
-1.0
  0
LWPOLYLINE
  5
2F42
330
106E
100
AcDbEntity
  8
STEMPEL
100
AcDbPolyline
 90
        9
 70
   128
 43
0.0
 10
163.071983908901
 20
385.9971264230383
 10
164.3961933592309
 20
385.8182935159903
 10
165.664172756417
 20
385.3680175986662
 10
166.8288914445025
 20
384.662999866527
 10
167.8471488131092
 20
383.7293901501435
 10
168.6811766523715
 20
382.6018169911674
 10
169.3000400145654
 20
381.3221032342156
 10
169.6807846230395
 20
379.9377147746802
 10
169.8092882698714
 20
378.4999999999996
  0
LINE
  5
2F43
330
106E
100
AcDbEntity
  8
STEMPEL
100
AcDbLine
 10
183.247938056328
 20
378.4999999999996
 30
0.0
 11
183.247938056328
 21
372.0000000000013
 31
0.0
  0
LWPOLYLINE
  5
2F44
330
106E
100
AcDbEntity
  8
STEMPEL
100
AcDbPolyline
 90
       10
 70
   128
 43
0.0
 10
212.9467840808025
 20
365.9999999999997
 10
212.7190315179339
 20
366.0911534819264
 10
212.4981991014397
 20
366.3618442752842
 10
212.2909967125485
 20
366.8038475772931
 10
212.1037200909973
 20
367.4037333412859
 10
211.9420595421654
 20
368.1432743418806
 10
211.8109270400247
 20
368.9999999999999
 10
211.7143069792969
 20
369.9478791400459
 10
211.6551351116346
 20
370.9581109339985
 10
211.6352093442947
 20
372.0000000000001
  0
LWPOLYLINE
  5
2F45
330
106E
100
AcDbEntity
  8
STEMPEL
100
AcDbPolyline
 90
       10
 70
   128
 43
0.0
 10
-196.8080362404278
 20
365.9999999999997
 10
-197.0357888032963
 20
366.0911534819265
 10
-197.2566212197905
 20
366.3618442752843
 10
-197.4638236086818
 20
366.8038475772931
 10
-197.651100230233
 20
367.4037333412859
 10
-197.8127607790649
 20
368.1432743418806
 10
-197.9438932812056
 20
368.9999999999999
 10
-198.0405133419335
 20
369.947879140046
 10
-198.0996852095957
 20
370.9581109339985
 10
-198.1196109769357
 20
372.0000000000002
210
0.0
220
0.0
230
-1.0
  0
LINE
  5
2F46
330
106E
100
AcDbEntity
  8
STEMPEL
100
AcDbLine
 10
197.3774101606151
 20
361.9999999999996
 30
0.0
 11
212.3774101606151
 21
361.9999999999996
 31
0.0
  0
ARC
  5
2F47
330
106E
100
AcDbEntity
  8
STEMPEL
100
AcDbCircle
 10
204.8774101606151
 20
331.6891108675447
 30
0.0
 40
30.31088913245485
100
AcDbArc
 50
81.78678929826221
 51
98.2132107017378
  0
LINE
  5
2F48
330
106E
100
AcDbEntity
  8
STEMPEL
100
AcDbLine
 10
200.8774101606152
 20
365.9999999999997
 30
0.0
 11
208.8774101606148
 21
365.9999999999999
 31
0.0
  0
LINE
  5
2F49
330
106E
100
AcDbEntity
  8
STEMPEL
100
AcDbLine
 10
199.8774101606154
 20
364.9999999999997
 30
0.0
 11
209.8774101606152
 21
364.9999999999995
 31
0.0
  0
LINE
  5
2F4A
330
106E
100
AcDbEntity
  8
STEMPEL
100
AcDbLine
 10
200.5472831416929
 20
354.0903565161995
 30
0.0
 11
200.5472831416929
 21
361.6891108675442
 31
0.0
  0
LINE
  5
2F4B
330
106E
100
AcDbEntity
  8
STEMPEL
100
AcDbLine
 10
196.2171561227707
 20
354.0903565161995
 30
0.0
 11
196.2171561227707
 21
361.6891108675442
 31
0.0
  0
ARC
  5
2F4C
330
106E
100
AcDbEntity
  8
STEMPEL
100
AcDbCircle
 10
198.3822196322318
 20
354.3056942922151
 30
0.0
 40
7.694305707784447
100
AcDbArc
 50
73.65710669401501
 51
106.342893305985
  0
LINE
  5
2F4D
330
106E
100
AcDbEntity
  8
STEMPEL
100
AcDbLine
 10
197.3774101606151
 20
361.9999999999996
 30
0.0
 11
196.2171561227707
 21
361.6891108675442
 31
0.0
  0
LINE
  5
2F4E
330
106E
100
AcDbEntity
  8
STEMPEL
100
AcDbLine
 10
199.8774101606152
 20
361.9999999999996
 30
0.0
 11
199.8774101606152
 21
364.9999999999997
 31
0.0
  0
LINE
  5
2F4F
330
106E
100
AcDbEntity
  8
HILF
100
AcDbLine
 10
200.877410160615
 20
361.9999999999996
 30
0.0
 11
200.877410160615
 21
365.9999999999999
 31
0.0
  0
LINE
  5
2F50
330
106E
100
AcDbEntity
  8
STEMPEL
100
AcDbLine
 10
199.8774101606152
 20
364.9999999999997
 30
0.0
 11
200.8774101606152
 21
365.9999999999996
 31
0.0
  0
LINE
  5
2F51
330
106E
100
AcDbEntity
  8
STEMPEL
100
AcDbLine
 10
213.5376641984595
 20
354.0903565161995
 30
0.0
 11
213.5376641984595
 21
361.6891108675442
 31
0.0
  0
LINE
  5
2F52
330
106E
100
AcDbEntity
  8
STEMPEL
100
AcDbLine
 10
209.2075371795373
 20
354.0903565161995
 30
0.0
 11
209.2075371795373
 21
361.6891108675442
 31
0.0
  0
ARC
  5
2F53
330
106E
100
AcDbEntity
  8
STEMPEL
100
AcDbCircle
 10
211.3726006889984
 20
354.3056942922151
 30
0.0
 40
7.694305707784447
100
AcDbArc
 50
73.65710669401501
 51
106.342893305985
  0
LINE
  5
2F54
330
106E
100
AcDbEntity
  8
STEMPEL
100
AcDbLine
 10
213.5376641984595
 20
361.6891108675442
 30
0.0
 11
212.3774101606151
 21
361.9999999999996
 31
0.0
  0
LINE
  5
2F55
330
106E
100
AcDbEntity
  8
STEMPEL
100
AcDbLine
 10
209.877410160615
 20
361.9999999999996
 30
0.0
 11
209.877410160615
 21
364.9999999999997
 31
0.0
  0
LINE
  5
2F56
330
106E
100
AcDbEntity
  8
HILF
100
AcDbLine
 10
208.877410160615
 20
361.9999999999996
 30
0.0
 11
208.877410160615
 21
365.9999999999997
 31
0.0
  0
LINE
  5
2F57
330
106E
100
AcDbEntity
  8
STEMPEL
100
AcDbLine
 10
209.877410160615
 20
364.9999999999997
 30
0.0
 11
208.877410160615
 21
365.9999999999997
 31
0.0
  0
LINE
  5
2F58
330
106E
100
AcDbEntity
  8
STEMPEL
100
AcDbLine
 10
198.1196109769357
 20
378.4999999999963
 30
0.0
 11
198.1196109769357
 21
372.0000000000013
 31
0.0
  0
LINE
  5
2F59
330
106E
100
AcDbEntity
  8
STEMPEL
100
AcDbLine
 10
197.9887775272492
 20
378.4999999999979
 30
0.0
 11
197.9887775272491
 21
372.0000000000013
 31
0.0
  0
LWPOLYLINE
  5
2F5A
330
106E
100
AcDbEntity
  8
STEMPEL
100
AcDbPolyline
 90
        7
 70
   128
 43
0.0
 10
-197.4022030049921
 20
366.9999999999997
 10
-197.5710988507606
 20
367.6093379018405
 10
-197.7159522393332
 20
368.3367681751299
 10
-197.8328671569003
 20
369.1627256690735
 10
-197.918699029918
 20
370.0649952195358
 10
-197.9711393023637
 20
371.019309153779
 10
-197.988777527249
 20
372.0000000000002
210
0.0
220
0.0
230
-1.0
  0
LWPOLYLINE
  5
2F5B
330
106E
100
AcDbEntity
  8
STEMPEL
100
AcDbPolyline
 90
        9
 70
   128
 43
0.0
 10
190.6183577918886
 20
385.9997097597727
 10
192.0596977757664
 20
385.8444083658489
 10
193.4437786792159
 20
385.4100081188347
 10
194.7180032917479
 20
384.7130168985594
 10
195.8339491114777
 20
383.7799214471137
 10
196.7492084749308
 20
382.6461808317703
 10
197.4290001137059
 20
381.3548789457009
 10
197.8474908963553
 20
379.9550872535413
 10
197.9887775272492
 20
378.4999999999995
  0
LINE
  5
2F5C
330
106E
100
AcDbEntity
  8
STEMPEL
100
AcDbLine
 10
211.7660427939812
 20
378.4999999999978
 30
0.0
 11
211.7660427939812
 21
372.0000000000013
 31
0.0
  0
LINE
  5
2F5D
330
106E
100
AcDbEntity
  8
STEMPEL
100
AcDbLine
 10
211.6352093442947
 20
378.4999999999962
 30
0.0
 11
211.6352093442947
 21
372.0000000000013
 31
0.0
  0
LWPOLYLINE
  5
2F5E
330
106E
100
AcDbEntity
  8
STEMPEL
100
AcDbPolyline
 90
        7
 70
   128
 43
0.0
 10
212.3526173162382
 20
366.9999999999997
 10
212.1837214704697
 20
367.6093379018405
 10
212.0388680818971
 20
368.3367681751298
 10
211.92195316433
 20
369.1627256690734
 10
211.8361212913123
 20
370.0649952195357
 10
211.7836810188666
 20
371.019309153779
 10
211.7660427939813
 20
372.0000000000001
  0
LWPOLYLINE
  5
2F5F
330
106E
100
AcDbEntity
  8
STEMPEL
100
AcDbPolyline
 90
        9
 70
   128
 43
0.0
 10
-219.1364625293419
 20
385.9997097597725
 10
-217.6951225454641
 20
385.8444083658488
 10
-216.3110416420145
 20
385.4100081188345
 10
-215.0368170294826
 20
384.7130168985593
 10
-213.9208712097527
 20
383.7799214471137
 10
-213.0056118462996
 20
382.6461808317702
 10
-212.3258202075245
 20
381.3548789457008
 10
-211.9073294248751
 20
379.9550872535413
 10
-211.7660427939812
 20
378.4999999999994
210
0.0
220
0.0
230
-1.0
  0
LINE
  5
2F60
330
106E
100
AcDbEntity
  8
MITTEL
100
AcDbLine
 10
265.8774101606151
 20
340.999999999999
 30
0.0
 11
265.8774101606153
 21
378.6000000000004
 31
0.0
  0
LINE
  5
2F61
102
{ACAD_REACTORS
330
30F3
102
}
330
106E
100
AcDbEntity
  8
MITTEL
100
AcDbLine
 10
287.1498235201366
 20
340.9999999999999
 30
0.0
 11
287.1498235201364
 21
370.9999999999994
 31
0.0
  0
LWPOLYLINE
  5
2F62
330
106E
100
AcDbEntity
  8
STEMPEL
100
AcDbPolyline
 90
       10
 70
   128
 43
0.0
 10
256.1424841005619
 20
365.9999999999994
 10
255.6697541428083
 20
366.0911534819262
 10
255.2113878456081
 20
366.361844275284
 10
254.7813124369574
 20
366.8038475772929
 10
254.3925955405191
 20
367.4037333412857
 10
254.0570481224914
 20
368.1432743418804
 10
253.7848656213759
 20
368.9999999999997
 10
253.5843181647378
 20
369.9478791400457
 10
253.4614992855654
 20
370.9581109339982
 10
253.4201407733529
 20
371.9999999999999
  0
LWPOLYLINE
  5
2F63
330
106E
100
AcDbEntity
  8
STEMPEL
100
AcDbPolyline
 90
       10
 70
   128
 43
0.0
 10
242.284291112891
 20
365.9999999999995
 10
241.8115611551374
 20
366.0911534819263
 10
241.3531948579372
 20
366.3618442752841
 10
240.9231194492865
 20
366.8038475772929
 10
240.5344025528482
 20
367.4037333412857
 10
240.1988551348205
 20
368.1432743418805
 10
239.926672633705
 20
368.9999999999998
 10
239.7261251770669
 20
369.9478791400458
 10
239.6033062978944
 20
370.9581109339983
 10
239.561947785682
 20
372.0
  0
LWPOLYLINE
  5
2F64
330
106E
100
AcDbEntity
  8
STEMPEL
100
AcDbPolyline
 90
       10
 70
   128
 43
0.0
 10
227.8184570014101
 20
365.9999999999996
 10
227.5907044385415
 20
366.0911534819263
 10
227.3698720220473
 20
366.3618442752842
 10
227.1626696331561
 20
366.803847577293
 10
226.9753930116049
 20
367.4037333412858
 10
226.8137324627729
 20
368.1432743418806
 10
226.6825999606323
 20
368.9999999999998
 10
226.5859798999044
 20
369.9478791400459
 10
226.5268080322422
 20
370.9581109339984
 10
226.5068822649022
 20
372.0000000000001
  0
LINE
  5
2F65
330
106E
100
AcDbEntity
  8
STEMPEL
100
AcDbLine
 10
226.5068822649024
 20
378.4999999999994
 30
0.0
 11
226.5068822649023
 21
372.0000000000012
 31
0.0
  0
LINE
  5
2F66
330
106E
100
AcDbEntity
  8
STEMPEL
100
AcDbLine
 10
253.4201407733529
 20
378.4999999999976
 30
0.0
 11
253.4201407733529
 21
372.000000000001
 31
0.0
  0
LINE
  5
2F67
330
106E
100
AcDbEntity
  8
STEMPEL
100
AcDbLine
 10
239.945532051359
 20
378.4999999999977
 30
0.0
 11
239.945532051359
 21
372.0000000000011
 31
0.0
  0
LINE
  5
2F68
330
106E
100
AcDbEntity
  8
STEMPEL
100
AcDbLine
 10
239.561947785682
 20
378.4999999999961
 30
0.0
 11
239.561947785682
 21
372.0000000000011
 31
0.0
  0
LINE
  5
2F69
330
106E
100
AcDbEntity
  8
STEMPEL
100
AcDbLine
 10
254.6376522060819
 20
366.9999999999995
 30
0.0
 11
241.1630434840875
 21
366.9999999999995
 31
0.0
  0
LWPOLYLINE
  5
2F6A
330
106E
100
AcDbEntity
  8
STEMPEL
100
AcDbPolyline
 90
        7
 70
   128
 43
0.0
 10
241.163043484088
 20
366.9999999999995
 10
240.812478269676
 20
367.6093379018403
 10
240.5118162907374
 20
368.3367681751296
 10
240.2691442288027
 20
369.1627256690733
 10
240.0909890537543
 20
370.0649952195356
 10
239.9821424727738
 20
371.0193091537788
 10
239.945532051359
 20
372.0
  0
LWPOLYLINE
  5
2F6B
330
106E
100
AcDbEntity
  8
STEMPEL
100
AcDbPolyline
 90
       18
 70
   128
 43
0.0
 10
-253.4201407733529
 20
378.4999999999976
 10
-253.3021597380718
 20
379.8781213836222
 10
-252.9522343348822
 20
381.2093124964018
 10
-252.3822808537004
 20
382.4482412215786
 10
-251.6117083767444
 20
383.5527173273479
 10
-250.6667578255168
 20
384.4851292046008
 10
-249.5796083576967
 20
385.213724685162
 10
-248.3872815445185
 20
385.7136923237953
 10
-247.1303806455667
 20
385.968006322212
 10
-245.8517079134683
 20
385.968006322212
 10
-244.5948070145165
 20
385.7136923237953
 10
-243.4024802013383
 20
385.213724685162
 10
-242.3153307335182
 20
384.4851292046008
 10
-241.3703801822907
 20
383.5527173273479
 10
-240.5998077053346
 20
382.4482412215786
 10
-240.0298542241528
 20
381.209312496402
 10
-239.6799288209631
 20
379.8781213836223
 10
-239.561947785682
 20
378.4999999999977
210
0.0
220
0.0
230
-1.0
  0
LWPOLYLINE
  5
2F6C
330
106E
100
AcDbEntity
  8
STEMPEL
100
AcDbPolyline
 90
        9
 70
   128
 43
0.0
 10
-246.6828364123294
 20
385.9971264230379
 10
-245.3586269619996
 20
385.81829351599
 10
-244.0906475648135
 20
385.3680175986659
 10
-242.9259288767279
 20
384.6629998665267
 10
-241.9076715081212
 20
383.7293901501432
 10
-241.073643668859
 20
382.6018169911671
 10
-240.454780306665
 20
381.3221032342152
 10
-240.0740356981908
 20
379.9377147746799
 10
-239.945532051359
 20
378.4999999999993
210
0.0
220
0.0
230
-1.0
  0
LWPOLYLINE
  5
2F6D
330
106E
100
AcDbEntity
  8
STEMPEL
100
AcDbPolyline
 90
       10
 70
   128
 43
0.0
 10
268.7875954423582
 20
365.9999999999994
 10
268.1515910823573
 20
366.0911534819261
 10
267.5349113930011
 20
366.3618442752839
 10
266.9562938745961
 20
366.8038475772928
 10
266.4333195276443
 20
367.4037333412856
 10
265.9818786630398
 20
368.1432743418803
 10
265.6156880830138
 20
368.9999999999997
 10
265.3458743030389
 20
369.9478791400457
 10
265.1806354782872
 20
370.9581109339982
 10
265.1249923068341
 20
371.9999999999999
  0
LWPOLYLINE
  5
2F6E
330
106E
100
AcDbEntity
  8
STEMPEL
100
AcDbPolyline
 90
       10
 70
   128
 43
0.0
 10
280.6878955467271
 20
365.9999999999993
 10
280.0518911867261
 20
366.0911534819261
 10
279.43521149737
 20
366.3618442752839
 10
278.8565939789649
 20
366.8038475772927
 10
278.3336196320131
 20
367.4037333412856
 10
277.8821787674086
 20
368.1432743418803
 10
277.5159881873827
 20
368.9999999999996
 10
277.2461744074078
 20
369.9478791400456
 10
277.0809355826561
 20
370.9581109339982
 10
277.025292411203
 20
371.9999999999998
  0
LINE
  5
2F6F
330
106E
100
AcDbEntity
  8
STEMPEL
100
AcDbLine
 10
258.3774101606152
 20
365.9999999999994
 30
0.0
 11
273.3774101606152
 21
365.9999999999994
 31
0.0
  0
LINE
  5
2F70
330
106E
100
AcDbEntity
  8
STEMPEL
100
AcDbLine
 10
258.2108103479588
 20
356.4555031252263
 30
0.0
 11
258.3774101606152
 21
365.9999999999994
 31
0.0
  0
LINE
  5
2F71
330
106E
100
AcDbEntity
  8
STEMPEL
100
AcDbLine
 10
278.4895694822921
 20
354.0903565161992
 30
0.0
 11
278.4895694822921
 21
361.689110867544
 31
0.0
  0
LINE
  5
2F72
330
106E
100
AcDbEntity
  8
STEMPEL
100
AcDbLine
 10
282.8196965012143
 20
354.0903565161992
 30
0.0
 11
282.8196965012143
 21
361.689110867544
 31
0.0
  0
ARC
  5
2F73
330
106E
100
AcDbEntity
  8
STEMPEL
100
AcDbCircle
 10
280.6546329917532
 20
354.3056942922149
 30
0.0
 40
7.694305707784447
100
AcDbArc
 50
73.65710669401501
 51
106.342893305985
  0
LINE
  5
2F74
330
106E
100
AcDbEntity
  8
STEMPEL
100
AcDbLine
 10
279.6498235201365
 20
361.9999999999993
 30
0.0
 11
278.4895694822921
 21
361.689110867544
 31
0.0
  0
LINE
  5
2F75
330
106E
100
AcDbEntity
  8
STEMPEL
100
AcDbLine
 10
273.5360289094067
 20
356.9127379678128
 30
0.0
 11
273.3774101606152
 21
365.9999999999994
 31
0.0
  0
LINE
  5
2F76
330
106E
100
AcDbEntity
  8
STEMPEL
100
AcDbLine
 10
282.1498235201366
 20
361.9999999999993
 30
0.0
 11
282.1498235201366
 21
364.9999999999997
 31
0.0
  0
LINE
  5
2F77
330
106E
100
AcDbEntity
  8
HILF
100
AcDbLine
 10
283.1498235201364
 20
361.9999999999993
 30
0.0
 11
283.1498235201364
 21
365.9999999999999
 31
0.0
  0
LINE
  5
2F78
330
106E
100
AcDbEntity
  8
STEMPEL
100
AcDbLine
 10
282.1498235201366
 20
364.9999999999997
 30
0.0
 11
283.1498235201366
 21
365.9999999999996
 31
0.0
  0
LINE
  5
2F79
330
106E
100
AcDbEntity
  8
STEMPEL
100
AcDbLine
 10
272.6155212394443
 20
368.0668309414321
 30
0.0
 11
271.6509128525115
 21
368.4179196819992
 31
0.0
  0
LINE
  5
2F7A
330
106E
100
AcDbEntity
  8
STEMPEL
100
AcDbLine
 10
272.4274101606152
 20
366.9999999999998
 30
0.0
 11
267.3732098308014
 21
366.9999999999998
 31
0.0
  0
LINE
  5
2F7B
330
106E
100
AcDbEntity
  8
STEMPEL
100
AcDbLine
 10
272.6155212394443
 20
368.0668309414321
 30
0.0
 11
266.6471633560753
 21
368.0668309414321
 31
0.0
  0
LINE
  5
2F7C
330
106E
100
AcDbEntity
  8
STEMPEL
100
AcDbLine
 10
267.3732098308014
 20
366.9999999999999
 30
0.0
 11
272.8774101606153
 21
367.0
 31
0.0
  0
LWPOLYLINE
  5
2F7D
330
106E
100
AcDbEntity
  8
STEMPEL
100
AcDbPolyline
 90
       18
 70
   128
 43
0.0
 10
-277.0252924112032
 20
378.4999999999976
 10
-276.9239797993988
 20
379.8781213836221
 10
-276.6234920434696
 20
381.2093124964018
 10
-276.1340618935484
 20
382.4482412215786
 10
-275.472356306384
 20
383.5527173273478
 10
-274.6609088721188
 20
384.4851292046006
 10
-273.7273524599032
 20
385.2137246851619
 10
-272.7034782136771
 20
385.7136923237952
 10
-271.6241529428943
 20
385.9680063222119
 10
-270.5261317751432
 20
385.9680063222119
 10
-269.4468065043604
 20
385.7136923237952
 10
-268.4229322581343
 20
385.2137246851619
 10
-267.4893758459186
 20
384.4851292046006
 10
-266.6779284116535
 20
383.5527173273478
 10
-266.0162228244891
 20
382.4482412215786
 10
-265.5267926745679
 20
381.2093124964018
 10
-265.2263049186387
 20
379.8781213836222
 10
-265.1249923068343
 20
378.4999999999976
210
0.0
220
0.0
230
-1.0
  0
LINE
  5
2F7E
330
106E
100
AcDbEntity
  8
STEMPEL
100
AcDbLine
 10
278.6633154873083
 20
366.9999999999993
 30
0.0
 11
267.3732098308012
 21
366.9999999999994
 31
0.0
  0
LINE
  5
2F7F
330
106E
100
AcDbEntity
  8
STEMPEL
100
AcDbLine
 10
265.7351867546966
 20
378.4999999999976
 30
0.0
 11
265.7351867546965
 21
372.000000000001
 31
0.0
  0
LINE
  5
2F80
330
106E
100
AcDbEntity
  8
STEMPEL
100
AcDbLine
 10
265.1249923068342
 20
378.4999999999976
 30
0.0
 11
265.1249923068341
 21
372.000000000001
 31
0.0
  0
LINE
  5
2F81
330
106E
100
AcDbEntity
  8
STEMPEL
100
AcDbLine
 10
271.6509128525115
 20
373.3927405783629
 30
0.0
 11
271.6509128525115
 21
368.4179196819992
 31
0.0
  0
LINE
  5
2F82
330
106E
100
AcDbEntity
  8
STEMPEL
100
AcDbLine
 10
268.7641615065634
 20
373.3927405783629
 30
0.0
 11
268.7641615065634
 21
368.4179196819992
 31
0.0
  0
ARC
  5
2F83
330
106E
100
AcDbEntity
  8
STEMPEL
100
AcDbCircle
 10
270.2075371795374
 20
368.4704628614767
 30
0.0
 40
5.129537138523076
100
AcDbArc
 50
73.65710669401501
 51
106.342893305985
  0
LINE
  5
2F84
330
106E
100
AcDbEntity
  8
STEMPEL
100
AcDbLine
 10
270.8774101606152
 20
373.5999999999998
 30
0.0
 11
271.6509128525115
 21
373.3927405783629
 31
0.0
  0
ARC
  5
2F85
330
106E
100
AcDbEntity
  8
HILF
100
AcDbCircle
 10
270.2075371795374
 20
364.8575266762952
 30
0.0
 40
3.841839622940954
100
AcDbArc
 50
67.93247218101093
 51
112.067527818989
  0
LINE
  5
2F86
330
106E
100
AcDbEntity
  8
STEMPEL
100
AcDbLine
 10
270.8774101606152
 20
373.5999999999998
 30
0.0
 11
265.7351867546964
 21
373.5999999999998
 31
0.0
  0
ARC
  5
2F87
330
106E
100
AcDbEntity
  8
STEMPEL
100
AcDbCircle
 10
265.8774101606152
 20
353.3927405783629
 30
0.0
 40
20.20725942163691
100
AcDbArc
 50
81.78678929826221
 51
90.40326439207246
  0
ARC
  5
2F88
330
106E
100
AcDbEntity
  8
HILF
100
AcDbCircle
 10
265.8774101606152
 20
353.7587079727737
 30
0.0
 40
14.94074366520046
100
AcDbArc
 50
78.85962783889434
 51
88.1615375270559
  0
LWPOLYLINE
  5
2F89
330
106E
100
AcDbEntity
  8
STEMPEL
100
AcDbPolyline
 90
        7
 70
   128
 43
0.0
 10
267.3732098308018
 20
366.9999999999994
 10
266.9015642302349
 20
367.6093379018403
 10
266.4970577538522
 20
368.3367681751295
 10
266.1705701113632
 20
369.1627256690732
 10
265.930882597955
 20
370.0649952195354
 10
265.7844419103289
 20
371.0193091537787
 10
265.7351867546965
 20
371.9999999999999
  0
LWPOLYLINE
  5
2F8A
330
106E
100
AcDbEntity
  8
STEMPEL
100
AcDbPolyline
 90
        9
 70
   128
 43
0.0
 10
-271.3802395829382
 20
385.9901340778213
 10
-270.2638318615671
 20
385.7828269414142
 10
-269.1985526098248
 20
385.3135722139604
 10
-268.2227176267864
 20
384.5992479767918
 10
-267.3714255939285
 20
383.6655469333954
 10
-266.6752956511921
 20
382.546052298235
 10
-266.1593660925007
 20
381.2810298808963
 10
-265.8421937922848
 20
379.915979811687
 10
-265.7351867546966
 20
378.4999999999992
210
0.0
220
0.0
230
-1.0
  0
LINE
  5
2F8B
330
106E
100
AcDbEntity
  8
STEMPEL
100
AcDbLine
 10
287.3774845553755
 20
378.4999999999975
 30
0.0
 11
287.3774845553755
 21
372.0000000000009
 31
0.0
  0
LINE
  5
2F8C
330
106E
100
AcDbEntity
  8
STEMPEL
100
AcDbLine
 10
286.5822636685548
 20
378.4999999999975
 30
0.0
 11
286.5822636685548
 21
372.0000000000009
 31
0.0
  0
LINE
  5
2F8D
330
106E
100
AcDbEntity
  8
STEMPEL
100
AcDbLine
 10
277.0252924112031
 20
378.4999999999976
 30
0.0
 11
277.025292411203
 21
372.0000000000009
 31
0.0
  0
ARC
  5
2F8E
330
106E
100
AcDbEntity
  8
STEMPEL
100
AcDbCircle
 10
272.4274101606152
 20
367.5499999999999
 30
0.0
 40
0.5500000000000009
100
AcDbArc
 50
270.0
 51
70.00000000000047
  0
LINE
  5
2F8F
330
106E
100
AcDbEntity
  8
STEMPEL
100
AcDbLine
 10
227.5409717769127
 20
457.4999999999992
 30
0.0
 11
182.0359717769129
 21
457.4999999999994
 31
0.0
  0
LINE
  5
2F90
330
106E
100
AcDbEntity
  8
STEMPEL
100
AcDbLine
 10
224.7428955655589
 20
455.9999999999992
 30
0.0
 11
222.6840479882665
 21
455.9999999999992
 31
0.0
  0
LINE
  5
2F91
330
106E
100
AcDbEntity
  8
STEMPEL
100
AcDbLine
 10
224.7428955655589
 20
455.9999999999992
 30
0.0
 11
222.6840479882665
 21
455.9999999999992
 31
0.0
  0
LINE
  5
2F92
330
106E
100
AcDbEntity
  8
STEMPEL
100
AcDbLine
 10
212.3774101606154
 20
423.4999999999981
 30
0.0
 11
212.3774101606153
 21
398.4999999999983
 31
0.0
  0
LINE
  5
2F93
330
106E
100
AcDbEntity
  8
STEMPEL
100
AcDbLine
 10
197.3774101606154
 20
423.4999999999998
 30
0.0
 11
197.3774101606153
 21
398.4999999999999
 31
0.0
  0
ARC
  5
2F94
330
106E
100
AcDbEntity
  8
STEMPEL
100
AcDbCircle
 10
204.8774101606154
 20
398.4999999999999
 30
0.0
 40
7.5
100
AcDbArc
 50
180.000000000026
 51
0.0000000000130276
  0
ARC
  5
2F95
330
106E
100
AcDbEntity
  8
STEMPEL
100
AcDbCircle
 10
204.8774101606154
 20
423.4999999999998
 30
0.0
 40
7.5
100
AcDbArc
 50
359.999999999987
 51
179.9999999999739
  0
LINE
  5
2F96
330
106E
100
AcDbEntity
  8
STEMPEL
100
AcDbLine
 10
191.2878955655593
 20
455.9999999999993
 30
0.0
 11
184.8340479882653
 21
455.9999999999993
 31
0.0
  0
LINE
  5
2F97
330
106E
100
AcDbEntity
  8
STEMPEL
100
AcDbLine
 10
191.2878955655593
 20
455.9999999999994
 30
0.0
 11
184.8340479882653
 21
455.9999999999994
 31
0.0
  0
LINE
  5
2F98
330
106E
100
AcDbEntity
  8
TEXT
 62
     2
100
AcDbLine
 10
171.9709254018664
 20
468.5231758340803
 30
0.0
 11
179.2216763182693
 21
455.4070944667566
 31
0.0
  0
LINE
  5
2F99
330
106E
100
AcDbEntity
  8
STEMPEL
100
AcDbLine
 10
182.2359717769129
 20
456.4999999999994
 30
0.0
 11
182.0359717769129
 21
456.4999999999994
 31
0.0
  0
ARC
  5
2F9A
330
106E
100
AcDbEntity
  8
STEMPEL
100
AcDbCircle
 10
179.4378955655588
 20
457.4999999999994
 30
0.0
 40
2.5
100
AcDbArc
 50
270.0
 51
330.0000000000076
  0
ARC
  5
2F9B
330
106E
100
AcDbEntity
  8
STEMPEL
100
AcDbCircle
 10
179.4378955655588
 20
457.4999999999994
 30
0.0
 40
1.5
100
AcDbArc
 50
270.0
 51
330.0000000000076
  0
ARC
  5
2F9C
330
106E
100
AcDbEntity
  8
STEMPEL
100
AcDbCircle
 10
182.0359717769129
 20
455.9999999999994
 30
0.0
 40
1.5
100
AcDbArc
 50
90.0
 51
150.0000000000075
  0
ARC
  5
2F9D
330
106E
100
AcDbEntity
  8
STEMPEL
100
AcDbCircle
 10
182.0359717769129
 20
455.9999999999994
 30
0.0
 40
0.5
100
AcDbArc
 50
90.0
 51
150.0000000000075
  0
ARC
  5
2F9E
330
106E
100
AcDbEntity
  8
STEMPEL
100
AcDbCircle
 10
184.8340479882653
 20
457.4999999999993
 30
0.0
 40
2.5
100
AcDbArc
 50
210.0000000000078
 51
270.0
  0
ARC
  5
2F9F
330
106E
100
AcDbEntity
  8
STEMPEL
100
AcDbCircle
 10
184.8340479882653
 20
457.4999999999993
 30
0.0
 40
1.5
100
AcDbArc
 50
210.0000000000078
 51
270.0
  0
ARC
  5
2FA0
330
106E
100
AcDbEntity
  8
STEMPEL
100
AcDbCircle
 10
182.2359717769129
 20
455.9999999999994
 30
0.0
 40
0.5
100
AcDbArc
 50
30.00000000000782
 51
90.0
  0
ARC
  5
2FA1
330
106E
100
AcDbEntity
  8
STEMPEL
100
AcDbCircle
 10
182.2359717769129
 20
455.9999999999994
 30
0.0
 40
1.5
100
AcDbArc
 50
30.00000000000782
 51
90.0
  0
LINE
  5
2FA2
330
106E
100
AcDbEntity
  8
TEXT
 62
     2
100
AcDbLine
 10
164.2177372780458
 20
482.5481295886147
 30
0.0
 11
170.0356922841764
 21
472.0238718763261
 31
0.0
  0
LINE
  5
2FA3
330
106E
100
AcDbEntity
  8
STEMPEL
100
AcDbLine
 10
208.2359717769129
 20
456.4999999999994
 30
0.0
 11
198.1477043157193
 21
456.4999999999994
 31
0.0
  0
ARC
  5
2FA4
330
106E
100
AcDbEntity
  8
STEMPEL
100
AcDbCircle
 10
191.2878955655593
 20
457.4999999999993
 30
0.0
 40
2.5
100
AcDbArc
 50
270.0
 51
330.0000000000039
  0
ARC
  5
2FA5
330
106E
100
AcDbEntity
  8
STEMPEL
100
AcDbCircle
 10
196.0224634500168
 20
456.4999999999993
 30
0.0
 40
1.5
100
AcDbArc
 50
194.4775121859267
 51
270.0
  0
ARC
  5
2FA6
330
106E
100
AcDbEntity
  8
STEMPEL
100
AcDbCircle
 10
196.211212642616
 20
456.4999999999993
 30
0.0
 40
1.5
100
AcDbArc
 50
270.0
 51
345.5224878140701
  0
ARC
  5
2FA7
330
106E
100
AcDbEntity
  8
STEMPEL
100
AcDbCircle
 10
191.2878955655593
 20
457.4999999999993
 30
0.0
 40
1.5
100
AcDbArc
 50
270.0
 51
330.0000000000039
  0
ARC
  5
2FA8
330
106E
100
AcDbEntity
  8
STEMPEL
100
AcDbCircle
 10
196.211212642616
 20
456.4999999999993
 30
0.0
 40
0.5
100
AcDbArc
 50
270.0
 51
345.5224878140701
  0
ARC
  5
2FA9
330
106E
100
AcDbEntity
  8
STEMPEL
100
AcDbCircle
 10
198.1477043157193
 20
455.9999999999993
 30
0.0
 40
1.5
100
AcDbArc
 50
90.0
 51
165.5224878140701
  0
ARC
  5
2FAA
330
106E
100
AcDbEntity
  8
STEMPEL
100
AcDbCircle
 10
198.1477043157193
 20
455.9999999999993
 30
0.0
 40
0.5
100
AcDbArc
 50
90.0
 51
165.5224878140701
  0
ARC
  5
2FAB
330
106E
100
AcDbEntity
  8
STEMPEL
100
AcDbCircle
 10
193.8859717769128
 20
455.9999999999993
 30
0.0
 40
0.5
100
AcDbArc
 50
90.0
 51
150.0000000000039
  0
LINE
  5
2FAC
330
106E
100
AcDbEntity
  8
STEMPEL
100
AcDbLine
 10
194.0859717769128
 20
456.4999999999994
 30
0.0
 11
193.8859717769128
 21
456.4999999999994
 31
0.0
  0
ARC
  5
2FAD
330
106E
100
AcDbEntity
  8
STEMPEL
100
AcDbCircle
 10
194.0859717769128
 20
455.9999999999993
 30
0.0
 40
0.5
100
AcDbArc
 50
14.47751218592671
 51
90.0
  0
LINE
  5
2FAE
330
106E
100
AcDbEntity
  8
STEMPEL
100
AcDbLine
 10
196.211212642616
 20
455.9999999999993
 30
0.0
 11
196.0224634500168
 21
455.9999999999993
 31
0.0
  0
ARC
  5
2FAF
330
106E
100
AcDbEntity
  8
STEMPEL
100
AcDbCircle
 10
196.0224634500168
 20
456.4999999999993
 30
0.0
 40
0.5
100
AcDbArc
 50
194.4775121859267
 51
270.0
  0
ARC
  5
2FB0
330
106E
100
AcDbEntity
  8
STEMPEL
100
AcDbCircle
 10
194.0859717769128
 20
455.9999999999993
 30
0.0
 40
1.5
100
AcDbArc
 50
14.47751218592671
 51
90.0
  0
ARC
  5
2FB1
330
106E
100
AcDbEntity
  8
STEMPEL
100
AcDbCircle
 10
193.8859717769128
 20
455.9999999999993
 30
0.0
 40
1.5
100
AcDbArc
 50
90.0
 51
150.0000000000039
  0
LINE
  5
2FB2
330
106E
100
AcDbEntity
  8
STEMPEL
100
AcDbLine
 10
217.2878955655598
 20
455.9999999999992
 30
0.0
 11
210.8340479882656
 21
455.9999999999992
 31
0.0
  0
LINE
  5
2FB3
330
106E
100
AcDbEntity
  8
STEMPEL
100
AcDbLine
 10
217.2878955655598
 20
455.9999999999992
 30
0.0
 11
210.8340479882656
 21
455.9999999999992
 31
0.0
  0
ARC
  5
2FB4
330
106E
100
AcDbEntity
  8
STEMPEL
100
AcDbCircle
 10
210.8340479882656
 20
457.4999999999992
 30
0.0
 40
2.5
100
AcDbArc
 50
210.0000000000034
 51
270.0
  0
ARC
  5
2FB5
330
106E
100
AcDbEntity
  8
STEMPEL
100
AcDbCircle
 10
208.2359717769129
 20
455.9999999999993
 30
0.0
 40
1.5
100
AcDbArc
 50
30.00000000000337
 51
90.0
  0
ARC
  5
2FB6
330
106E
100
AcDbEntity
  8
STEMPEL
100
AcDbCircle
 10
210.8340479882656
 20
457.4999999999992
 30
0.0
 40
1.5
100
AcDbArc
 50
210.0000000000034
 51
270.0
  0
ARC
  5
2FB7
330
106E
100
AcDbEntity
  8
STEMPEL
100
AcDbCircle
 10
208.2359717769129
 20
455.9999999999993
 30
0.0
 40
0.5
100
AcDbArc
 50
30.00000000000337
 51
90.0
  0
ARC
  5
2FB8
330
106E
100
AcDbEntity
  8
STEMPEL
100
AcDbCircle
 10
217.2878955655598
 20
457.4999999999992
 30
0.0
 40
2.5
100
AcDbArc
 50
270.0
 51
330.0000000000003
  0
ARC
  5
2FB9
330
106E
100
AcDbEntity
  8
STEMPEL
100
AcDbCircle
 10
222.6840479882665
 20
457.4999999999992
 30
0.0
 40
2.5
100
AcDbArc
 50
209.9999999999961
 51
270.0
  0
ARC
  5
2FBA
330
106E
100
AcDbEntity
  8
STEMPEL
100
AcDbCircle
 10
220.0859717769128
 20
455.9999999999992
 30
0.0
 40
1.5
100
AcDbArc
 50
29.99999999999609
 51
90.0
  0
ARC
  5
2FBB
330
106E
100
AcDbEntity
  8
STEMPEL
100
AcDbCircle
 10
222.6840479882665
 20
457.4999999999992
 30
0.0
 40
1.5
100
AcDbArc
 50
209.9999999999961
 51
270.0
  0
ARC
  5
2FBC
330
106E
100
AcDbEntity
  8
STEMPEL
100
AcDbCircle
 10
219.8859717769128
 20
455.9999999999992
 30
0.0
 40
1.5
100
AcDbArc
 50
90.0
 51
149.9999999999958
  0
ARC
  5
2FBD
330
106E
100
AcDbEntity
  8
STEMPEL
100
AcDbCircle
 10
219.8859717769128
 20
455.9999999999992
 30
0.0
 40
0.5
100
AcDbArc
 50
90.0
 51
149.9999999999958
  0
LINE
  5
2FBE
330
106E
100
AcDbEntity
  8
STEMPEL
100
AcDbLine
 10
220.0859717769128
 20
456.4999999999993
 30
0.0
 11
219.8859717769128
 21
456.4999999999993
 31
0.0
  0
ARC
  5
2FBF
330
106E
100
AcDbEntity
  8
STEMPEL
100
AcDbCircle
 10
220.0859717769128
 20
455.9999999999992
 30
0.0
 40
0.5
100
AcDbArc
 50
29.99999999999609
 51
90.0
  0
ARC
  5
2FC0
330
106E
100
AcDbEntity
  8
STEMPEL
100
AcDbCircle
 10
217.2878955655598
 20
457.4999999999992
 30
0.0
 40
1.5
100
AcDbArc
 50
270.0
 51
330.0000000000003
  0
ELLIPSE
  5
2FC1
330
106E
100
AcDbEntity
  8
STEMPEL
100
AcDbEllipse
 10
259.2482433342946
 20
398.4999999999996
 30
0.0
 11
-0.0000000000000334
 21
-7.5
 31
0.0
210
0.0
220
0.0
230
1.0
 40
0.8660254037843856
 41
4.712388980384689
 42
7.853981633974482
  0
ELLIPSE
  5
2FC2
330
106E
100
AcDbEntity
  8
STEMPEL
100
AcDbEllipse
 10
259.7494203297365
 20
398.4999999999996
 30
0.0
 11
-0.0000000000000334
 21
-7.5
 31
0.0
210
0.0
220
0.0
230
1.0
 40
0.8660254037843856
 41
4.712388980384689
 42
6.24459510668465
  0
ELLIPSE
  5
2FC3
330
106E
100
AcDbEntity
  8
STEMPEL
100
AcDbEllipse
 10
259.2482433342947
 20
423.4999999999996
 30
0.0
 11
0.0000000000000334
 21
7.5
 31
0.0
210
0.0
220
0.0
230
-1.0
 40
0.8660254037843856
 41
4.712388980384689
 42
7.853981633974482
  0
ELLIPSE
  5
2FC4
330
106E
100
AcDbEntity
  8
STEMPEL
100
AcDbEllipse
 10
259.7494203297367
 20
423.4999999999995
 30
0.0
 11
0.0000000000000334
 21
7.5
 31
0.0
210
0.0
220
0.0
230
-1.0
 40
0.8660254037843856
 41
4.712388980384689
 42
6.24459510668465
  0
LINE
  5
2FC5
330
106E
100
AcDbEntity
  8
STEMPEL
100
AcDbLine
 10
252.7530528059117
 20
423.4999999999996
 30
0.0
 11
252.7530528059116
 21
398.4999999999997
 31
0.0
  0
LINE
  5
2FC6
330
106E
100
AcDbEntity
  8
STEMPEL
100
AcDbLine
 10
253.2542298013538
 20
423.4999999999996
 30
0.0
 11
253.2542298013537
 21
398.4999999999996
 31
0.0
  0
LINE
  5
2FC7
330
106E
100
AcDbEntity
  8
STEMPEL
100
AcDbLine
 10
265.7434338626776
 20
423.4999999999995
 30
0.0
 11
265.7434338626775
 21
398.5000000000012
 31
0.0
  0
LINE
  5
2FC8
330
106E
100
AcDbEntity
  8
STEMPEL
100
AcDbLine
 10
284.8774101606157
 20
455.9999999999986
 30
0.0
 11
230.1390479882662
 21
455.9999999999992
 31
0.0
  0
ARC
  5
2FC9
330
106E
100
AcDbEntity
  8
STEMPEL
100
AcDbCircle
 10
224.7428955655589
 20
457.4999999999992
 30
0.0
 40
2.5
100
AcDbArc
 50
270.0
 51
330.0000000000076
  0
ARC
  5
2FCA
330
106E
100
AcDbEntity
  8
STEMPEL
100
AcDbCircle
 10
230.1390479882662
 20
457.4999999999992
 30
0.0
 40
2.5
100
AcDbArc
 50
209.9999999999997
 51
270.0
  0
ARC
  5
2FCB
330
106E
100
AcDbEntity
  8
STEMPEL
100
AcDbCircle
 10
224.7428955655589
 20
457.4999999999992
 30
0.0
 40
1.5
100
AcDbArc
 50
270.0
 51
330.0000000000039
  0
ARC
  5
2FCC
330
106E
100
AcDbEntity
  8
STEMPEL
100
AcDbCircle
 10
230.1390479882662
 20
457.4999999999992
 30
0.0
 40
1.5
100
AcDbArc
 50
209.9999999999961
 51
270.0
  0
ARC
  5
2FCD
330
106E
100
AcDbEntity
  8
STEMPEL
100
AcDbCircle
 10
227.5409717769127
 20
455.9999999999992
 30
0.0
 40
1.5
100
AcDbArc
 50
29.99999999999609
 51
90.0
  0
ARC
  5
2FCE
330
106E
100
AcDbEntity
  8
STEMPEL
100
AcDbCircle
 10
227.3409717769127
 20
455.9999999999992
 30
0.0
 40
1.5
100
AcDbArc
 50
90.0
 51
150.0000000000075
  0
ARC
  5
2FCF
330
106E
100
AcDbEntity
  8
STEMPEL
100
AcDbCircle
 10
227.3409717769127
 20
455.9999999999992
 30
0.0
 40
0.5
100
AcDbArc
 50
90.0
 51
150.0000000000002
  0
LINE
  5
2FD0
330
106E
100
AcDbEntity
  8
STEMPEL
100
AcDbLine
 10
227.5409717769127
 20
456.4999999999992
 30
0.0
 11
227.3409717769127
 21
456.4999999999992
 31
0.0
  0
ARC
  5
2FD1
330
106E
100
AcDbEntity
  8
STEMPEL
100
AcDbCircle
 10
227.5409717769127
 20
455.9999999999992
 30
0.0
 40
0.5
100
AcDbArc
 50
29.99999999999973
 51
90.0
  0
ARC
  5
2FD2
330
106E
100
AcDbEntity
  8
STEMPEL
100
AcDbCircle
 10
284.8774101606156
 20
449.999999999999
 30
0.0
 40
5.0
100
AcDbArc
 50
59.46264995169952
 51
90.0
  0
ARC
  5
2FD3
330
106E
100
AcDbEntity
  8
STEMPEL
100
AcDbCircle
 10
284.8774101606156
 20
449.999999999999
 30
0.0
 40
6.0
100
AcDbArc
 50
59.48712567238334
 51
90.0
  0
ARC
  5
2FD4
330
106E
100
AcDbEntity
  8
STEMPEL
100
AcDbCircle
 10
284.8774101606156
 20
449.999999999999
 30
0.0
 40
6.0
100
AcDbArc
 50
90.0
 51
90.0
  0
LINE
  5
2FD5
330
106E
100
AcDbEntity
  8
STEMPEL
100
AcDbLine
 10
313.8774101606155
 20
435.9999420326836
 30
0.0
 11
313.8774101606152
 21
371.9999999999996
 31
0.0
  0
LINE
  5
2FD6
330
106E
100
AcDbEntity
  8
STEMPEL
100
AcDbLine
 10
314.8774101606156
 20
435.9999420326836
 30
0.0
 11
314.8774101606153
 21
371.9999999999996
 31
0.0
  0
LINE
  5
2FD7
330
106E
100
AcDbEntity
  8
STEMPEL
100
AcDbLine
 10
334.8774101606153
 20
366.9999999999991
 30
0.0
 11
319.8774101606151
 21
366.9999999999995
 31
0.0
  0
LWPOLYLINE
  5
2FD8
330
106E
100
AcDbEntity
  8
STEMPEL
100
AcDbPolyline
 90
       10
 70
   128
 43
0.0
 10
300.0773912782924
 20
365.9999999999993
 10
299.3196416531982
 20
366.091153481926
 10
298.5849158670227
 20
366.3618442752838
 10
297.8955381909896
 20
366.8038475772927
 10
297.2724550169433
 20
367.4037333412855
 10
296.7345984118317
 20
368.1432743418802
 10
296.2983108764328
 20
368.9999999999995
 10
295.9768487867375
 20
369.9478791400455
 10
295.7799796056735
 20
370.9581109339981
 10
295.7136851036867
 20
371.9999999999997
  0
ARC
  5
2FD9
330
106E
100
AcDbEntity
  8
STEMPEL
100
AcDbCircle
 10
319.8774101606152
 20
371.9999999999996
 30
0.0
 40
6.0
100
AcDbArc
 50
180.0
 51
269.9999999999984
  0
ARC
  5
2FDA
330
106E
100
AcDbEntity
  8
STEMPEL
100
AcDbCircle
 10
319.8774101606152
 20
371.9999999999996
 30
0.0
 40
5.0
100
AcDbArc
 50
180.0
 51
269.9999999999984
  0
LWPOLYLINE
  5
2FDB
330
106E
100
AcDbEntity
  8
STEMPEL
100
AcDbPolyline
 90
       10
 70
   128
 43
0.0
 10
319.1737116506107
 20
366.0000000000003
 10
318.3156386543379
 20
366.0661272145729
 10
317.4628264547157
 20
366.3186809643032
 10
316.6420681477987
 20
366.7497266806208
 10
315.8791497813998
 20
367.3457220510607
 10
315.1980402259006
 20
368.0879424827813
 10
314.6201381359548
 20
368.9530693795788
 10
314.1635996615486
 20
369.9139227502948
 10
313.8427680299511
 20
370.940315132007
 10
313.6677229195799
 20
371.9999999999997
  0
LWPOLYLINE
  5
2FDC
330
106E
100
AcDbEntity
  8
STEMPEL
100
AcDbPolyline
 90
       10
 70
   128
 43
0.0
 10
317.2158187673102
 20
365.9999999999992
 10
316.3577457710375
 20
366.0661272145719
 10
315.5049335714152
 20
366.3186809643021
 10
314.6841752644983
 20
366.7497266806196
 10
313.9212568980993
 20
367.3457220510595
 10
313.2401473426001
 20
368.0879424827802
 10
312.6622452526544
 20
368.9530693795776
 10
312.2057067782482
 20
369.9139227502937
 10
311.8848751466506
 20
370.9403151320059
 10
311.7098300362795
 20
371.9999999999985
  0
LWPOLYLINE
  5
2FDD
330
106E
100
AcDbEntity
  8
STEMPEL
100
AcDbPolyline
 90
       10
 70
   128
 43
0.0
 10
307.2868488139422
 20
365.9999999999992
 10
306.4506695391007
 20
366.091153481926
 10
305.639897148398
 20
366.3618442752838
 10
304.8791665506553
 20
366.8038475772926
 10
304.1915921601365
 20
367.4037333412854
 10
303.5980655767681
 20
368.1432743418802
 10
303.1166208054469
 20
368.9999999999995
 10
302.7618863019265
 20
369.9478791400455
 10
302.5446404945923
 20
370.9581109339981
 10
302.4714842873684
 20
371.9999999999997
  0
LWPOLYLINE
  5
2FDE
330
106E
100
AcDbEntity
  8
STEMPEL
100
AcDbPolyline
 90
       10
 70
   128
 43
0.0
 10
313.02710029942
 20
365.9999999999992
 10
312.1909210245784
 20
366.091153481926
 10
311.3801486338758
 20
366.3618442752838
 10
310.619418036133
 20
366.8038475772926
 10
309.9318436456143
 20
367.4037333412854
 10
309.3383170622459
 20
368.1432743418802
 10
308.8568722909246
 20
368.9999999999994
 10
308.5021377874042
 20
369.9478791400455
 10
308.2848919800701
 20
370.958110933998
 10
308.2117357728461
 20
371.9999999999997
  0
LINE
  5
2FDF
330
106E
100
AcDbEntity
  8
STEMPEL
100
AcDbLine
 10
291.4799505390586
 20
354.0903565161992
 30
0.0
 11
291.4799505390586
 21
361.689110867544
 31
0.0
  0
LINE
  5
2FE0
330
106E
100
AcDbEntity
  8
STEMPEL
100
AcDbLine
 10
295.8100775579809
 20
354.0903565161992
 30
0.0
 11
295.8100775579809
 21
361.689110867544
 31
0.0
  0
LINE
  5
2FE1
330
106E
100
AcDbEntity
  8
STEMPEL
100
AcDbLine
 10
295.8100775579809
 20
361.689110867544
 30
0.0
 11
294.6498235201365
 21
361.9999999999993
 31
0.0
  0
ARC
  5
2FE2
330
106E
100
AcDbEntity
  8
STEMPEL
100
AcDbCircle
 10
293.6450140485198
 20
354.3056942922149
 30
0.0
 40
7.694305707784447
100
AcDbArc
 50
73.65710669401501
 51
106.342893305985
  0
LINE
  5
2FE3
330
106E
100
AcDbEntity
  8
HILF
100
AcDbLine
 10
291.1498235201364
 20
361.9999999999993
 30
0.0
 11
291.1498235201364
 21
365.9999999999997
 31
0.0
  0
LINE
  5
2FE4
330
106E
100
AcDbEntity
  8
STEMPEL
100
AcDbLine
 10
292.1498235201363
 20
361.9999999999993
 30
0.0
 11
292.1498235201363
 21
364.9999999999997
 31
0.0
  0
LINE
  5
2FE5
330
106E
100
AcDbEntity
  8
STEMPEL
100
AcDbLine
 10
292.1498235201363
 20
364.9999999999997
 30
0.0
 11
291.1498235201364
 21
365.9999999999997
 31
0.0
  0
LWPOLYLINE
  5
2FE6
330
106E
100
AcDbEntity
  8
STEMPEL
100
AcDbPolyline
 90
        9
 70
   128
 43
0.0
 10
-305.8046371983593
 20
385.9017582446625
 10
-305.3155766550906
 20
385.5753253469051
 10
-304.8559636871896
 20
385.0300563336478
 10
-304.4400138835654
 20
384.2828160905199
 10
-304.0805923542738
 20
383.3567163677424
 10
-303.7888158193863
 20
382.2804009457721
 10
-303.5737087746481
 20
381.0871596981412
 10
-303.4419243685406
 20
379.8138989530654
 10
-303.3975386238758
 20
378.499999999999
210
0.0
220
0.0
230
-1.0
  0
LWPOLYLINE
  5
2FE7
330
106E
100
AcDbEntity
  8
STEMPEL
100
AcDbPolyline
 90
       18
 70
   128
 43
0.0
 10
-308.2117357728462
 20
378.4999999999974
 10
-308.1628664279299
 20
379.8781213836219
 10
-308.0179225801098
 20
381.2093124964016
 10
-307.7818401182826
 20
382.4482412215784
 10
-307.4626585475359
 20
383.5527173273476
 10
-307.0712472134455
 20
384.4851292046005
 10
-306.6209351595476
 20
385.2137246851618
 10
-306.1270572227481
 20
385.7136923237951
 10
-305.6064318238432
 20
385.9680063222118
 10
-305.0767882363714
 20
385.9680063222118
 10
-304.5561628374664
 20
385.7136923237951
 10
-304.062284900667
 20
385.2137246851618
 10
-303.611972846769
 20
384.4851292046005
 10
-303.2205615126787
 20
383.5527173273477
 10
-302.901379941932
 20
382.4482412215784
 10
-302.6652974801048
 20
381.2093124964016
 10
-302.5203536322847
 20
379.878121383622
 10
-302.4714842873684
 20
378.4999999999974
210
0.0
220
0.0
230
-1.0
  0
LWPOLYLINE
  5
2FE8
330
106E
100
AcDbEntity
  8
STEMPEL
100
AcDbPolyline
 90
        7
 70
   128
 43
0.0
 10
305.5511102565443
 20
366.9999999999992
 10
304.9310197334799
 20
367.60933790184
 10
304.3991995866965
 20
368.3367681751293
 10
303.9699537869653
 20
369.162725669073
 10
303.6548274391679
 20
370.0649952195353
 10
303.4622962622021
 20
371.0193091537785
 10
303.3975386238757
 20
371.9999999999997
  0
LINE
  5
2FE9
330
106E
100
AcDbEntity
  8
STEMPEL
100
AcDbLine
 10
303.3975386238757
 20
378.4999999999974
 30
0.0
 11
303.3975386238756
 21
372.0000000000009
 31
0.0
  0
LINE
  5
2FEA
330
106E
100
AcDbEntity
  8
STEMPEL
100
AcDbLine
 10
302.4714842873684
 20
378.4999999999974
 30
0.0
 11
302.4714842873684
 21
372.0000000000009
 31
0.0
  0
LINE
  5
2FEB
330
106E
100
AcDbEntity
  8
STEMPEL
100
AcDbLine
 10
295.7136851036866
 20
378.4999999999974
 30
0.0
 11
295.7136851036866
 21
372.0000000000009
 31
0.0
  0
LINE
  5
2FEC
330
106E
100
AcDbEntity
  8
STEMPEL
100
AcDbLine
 10
297.6652619322051
 20
366.9999999999993
 30
0.0
 11
289.3290613838931
 21
366.9999999999993
 31
0.0
  0
LINE
  5
2FED
330
106E
100
AcDbEntity
  8
STEMPEL
100
AcDbLine
 10
311.7098300362795
 20
378.4999999999974
 30
0.0
 11
311.7098300362795
 21
371.9999999999985
 31
0.0
  0
LINE
  5
2FEE
330
106E
100
AcDbEntity
  8
STEMPEL
100
AcDbLine
 10
312.7036087498173
 20
378.4999999999974
 30
0.0
 11
312.7036087498173
 21
371.9999999999997
 31
0.0
  0
LINE
  5
2FEF
330
106E
100
AcDbEntity
  8
STEMPEL
100
AcDbLine
 10
313.66772291958
 20
378.4999999999974
 30
0.0
 11
313.6677229195799
 21
371.9999999999997
 31
0.0
  0
LINE
  5
2FF0
330
106E
100
AcDbEntity
  8
STEMPEL
100
AcDbLine
 10
308.2117357728462
 20
378.4999999999974
 30
0.0
 11
308.2117357728461
 21
372.0000000000008
 31
0.0
  0
LWPOLYLINE
  5
2FF1
330
106E
100
AcDbEntity
  8
STEMPEL
100
AcDbPolyline
 90
        7
 70
   128
 43
0.0
 10
315.3240679334881
 20
366.9999999999997
 10
314.6473660584107
 20
367.6096007278587
 10
314.0478166347768
 20
368.3371598117703
 10
313.5415279616271
 20
369.1631296734505
 10
313.1421026695816
 20
370.0653186986536
 10
312.8602722543186
 20
371.0194874668474
 10
312.7036087498172
 20
371.9999999999997
  0
LINE
  5
2FF2
330
106E
100
AcDbEntity
  8
STEMPEL
100
AcDbLine
 10
310.3653074055147
 20
366.9999999999992
 30
0.0
 11
305.5511102565433
 21
366.9999999999992
 31
0.0
  0
LINE
  5
2FF3
330
106E
100
AcDbEntity
  8
STEMPEL
100
AcDbLine
 10
316.2881821032506
 20
366.9999999999992
 30
0.0
 11
315.3240679334879
 21
366.9999999999992
 31
0.0
  0
LWPOLYLINE
  5
2FF4
330
106E
100
AcDbEntity
  8
STEMPEL
100
AcDbPolyline
 90
       18
 70
   128
 43
0.0
 10
-313.66772291958
 20
378.4999999999974
 10
-313.6510544961033
 20
379.8781213836219
 10
-313.6016168488428
 20
381.2093124964016
 10
-313.5210935175824
 20
382.4482412215784
 10
-313.4122266277907
 20
383.5527173273476
 10
-313.2787235108284
 20
384.4851292046005
 10
-313.1251304552243
 20
385.2137246851618
 10
-312.9566778882722
 20
385.7136923237951
 10
-312.7791022601033
 20
385.9680063222118
 10
-312.5984506957562
 20
385.9680063222118
 10
-312.4208750675873
 20
385.7136923237951
 10
-312.2524225006352
 20
385.2137246851618
 10
-312.0988294450311
 20
384.4851292046005
 10
-311.9653263280688
 20
383.5527173273476
 10
-311.8564594382772
 20
382.4482412215784
 10
-311.7759361070167
 20
381.2093124964016
 10
-311.7264984597563
 20
379.8781213836219
 10
-311.7098300362795
 20
378.4999999999974
210
0.0
220
0.0
230
-1.0
  0
LWPOLYLINE
  5
2FF5
330
106E
100
AcDbEntity
  8
STEMPEL
100
AcDbPolyline
 90
        7
 70
   128
 43
0.0
 10
-313.1856658346988
 20
384.9620540558372
 10
-313.0478368251286
 20
384.2099478188987
 10
-312.9289725481624
 20
383.2872342081838
 10
-312.8326245462612
 20
382.2214829582796
 10
-312.761671598723
 20
381.0445376214585
 10
-312.718233706715
 20
379.7915641150567
 10
-312.7036087498175
 20
378.4999999999974
210
0.0
220
0.0
230
-1.0
  0
LINE
  5
2FF6
330
106E
100
AcDbEntity
  8
STEMPEL
100
AcDbLine
 10
334.8774101606154
 20
366.9999999999993
 30
0.0
 11
334.8774101606155
 21
365.9999999999991
 31
0.0
  0
ARC
  5
2FF7
330
106E
100
AcDbEntity
  8
STEMPEL
100
AcDbCircle
 10
308.8774101606154
 20
435.9999420326837
 30
0.0
 40
6.0
100
AcDbArc
 50
0.0
 51
59.74358352518418
  0
ARC
  5
2FF8
330
106E
100
AcDbEntity
  8
STEMPEL
100
AcDbCircle
 10
308.8774101606154
 20
435.9999420326837
 30
0.0
 40
5.0
100
AcDbArc
 50
0.0
 51
59.74358352518418
  0
LINE
  5
2FF9
330
106E
100
AcDbEntity
  8
STEMPEL
100
AcDbLine
 10
302.8004556672785
 20
423.4999999999994
 30
0.0
 11
302.8004556672784
 21
398.5000000000026
 31
0.0
  0
LINE
  5
2FFA
330
106E
100
AcDbEntity
  8
STEMPEL
100
AcDbLine
 10
295.3004556672786
 20
423.4999999999994
 30
0.0
 11
295.3004556672785
 21
398.500000000001
 31
0.0
  0
LINE
  5
2FFB
330
106E
100
AcDbEntity
  8
STEMPEL
100
AcDbLine
 10
296.1685196869674
 20
398.4999999999994
 30
0.0
 11
296.1685196869675
 21
423.500000000001
 31
0.0
  0
ELLIPSE
  5
2FFC
330
106E
100
AcDbEntity
  8
STEMPEL
100
AcDbEllipse
 10
299.0504556672784
 20
398.500000000001
 30
0.0
 11
-0.0000000000000334
 21
-7.499999999999999
 31
0.0
210
0.0
220
0.0
230
1.0
 40
0.4999999999999926
 41
4.712388980384689
 42
7.853981633974482
  0
ELLIPSE
  5
2FFD
330
106E
100
AcDbEntity
  8
STEMPEL
100
AcDbEllipse
 10
299.9185196869674
 20
398.500000000001
 30
0.0
 11
-0.0000000000000334
 21
-7.499999999999999
 31
0.0
210
0.0
220
0.0
230
1.0
 40
0.4999999999999926
 41
4.712388980384689
 42
6.167183451052224
  0
LINE
  5
2FFE
330
106E
100
AcDbEntity
  8
STEMPEL
100
AcDbLine
 10
314.8774101606157
 20
390.999999999999
 30
0.0
 11
313.8774101606155
 21
390.999999999999
 31
0.0
  0
ELLIPSE
  5
2FFF
330
106E
100
AcDbEntity
  8
STEMPEL
100
AcDbEllipse
 10
299.9185196869675
 20
423.4999999999994
 30
0.0
 11
0.0000000000000334
 21
7.499999999999999
 31
0.0
210
0.0
220
0.0
230
-1.0
 40
0.4999999999999926
 41
4.712388980384689
 42
6.167183451052224
  0
ELLIPSE
  5
3000
330
106E
100
AcDbEntity
  8
STEMPEL
100
AcDbEllipse
 10
299.0504556672785
 20
423.4999999999994
 30
0.0
 11
0.0000000000000334
 21
7.499999999999999
 31
0.0
210
0.0
220
0.0
230
-1.0
 40
0.4999999999999926
 41
4.712388980384689
 42
7.853981633974482
  0
LINE
  5
3001
330
106E
100
AcDbEntity
  8
STEMPEL
100
AcDbLine
 10
314.8774101606157
 20
430.9999999999989
 30
0.0
 11
313.8774101606157
 21
430.9999999999989
 31
0.0
  0
ARC
  5
3002
330
106E
100
AcDbEntity
  8
STEMPEL
100
AcDbCircle
 10
314.3885537649272
 20
445.519836982461
 30
0.0
 40
5.0
100
AcDbArc
 50
239.7435628364684
 51
239.9329541615128
  0
LINE
  5
3003
102
{ACAD_REACTORS
330
2EA7
102
}
330
106E
100
AcDbEntity
  8
STEMPEL
100
AcDbLine
 10
95.5352673851886
 20
352.0
 30
0.0
 11
331.8774101606151
 21
351.9999999999992
 31
0.0
  0
LINE
  5
3004
102
{ACAD_REACTORS
330
2EA7
330
2EB9
102
}
330
106E
100
AcDbEntity
  8
STEMPEL
100
AcDbLine
 10
77.87741016061517
 20
346.0000000000003
 30
0.0
 11
331.8774101606151
 21
345.9999999999995
 31
0.0
  0
ARC
  5
3005
330
106E
100
AcDbEntity
  8
HILF
100
AcDbCircle
 10
287.1498235201364
 20
332.1015389523381
 30
0.0
 40
22.41111549782308
100
AcDbArc
 50
78.85962783890615
 51
101.1403721610938
  0
LINE
  5
3006
330
106E
100
AcDbEntity
  8
STEMPEL
100
AcDbLine
 10
297.2998235201364
 20
351.9999999999993
 30
0.0
 11
276.9998235201365
 21
351.9999999999993
 31
0.0
  0
LINE
  5
3007
330
106E
100
AcDbEntity
  8
STEMPEL
100
AcDbLine
 10
297.5563386276308
 20
353.4547694655888
 30
0.0
 11
276.7433084126423
 21
353.4547694655888
 31
0.0
  0
LINE
  5
3008
330
106E
100
AcDbEntity
  8
STEMPEL
100
AcDbLine
 10
209.8774101606152
 20
343.9999999999999
 30
0.0
 11
209.8774101606152
 21
345.9999999999998
 31
0.0
  0
LINE
  5
3009
330
106E
100
AcDbEntity
  8
STEMPEL
100
AcDbLine
 10
199.8774101606152
 20
343.9999999999999
 30
0.0
 11
199.8774101606152
 21
345.9999999999999
 31
0.0
  0
LINE
  5
300A
330
106E
100
AcDbEntity
  8
HILF
100
AcDbLine
 10
208.8774101606152
 20
343.9999999999999
 30
0.0
 11
208.8774101606151
 21
345.9999999999999
 31
0.0
  0
LINE
  5
300B
330
106E
100
AcDbEntity
  8
HILF
100
AcDbLine
 10
200.8774101606152
 20
343.9999999999999
 30
0.0
 11
200.8774101606152
 21
345.9999999999999
 31
0.0
  0
LINE
  5
300C
330
106E
100
AcDbEntity
  8
STEMPEL
100
AcDbLine
 10
215.2839252681094
 20
353.454769465589
 30
0.0
 11
194.4708950531208
 21
353.454769465589
 31
0.0
  0
LINE
  5
300D
330
106E
100
AcDbEntity
  8
STEMPEL
100
AcDbLine
 10
215.0274101606151
 20
351.9999999999996
 30
0.0
 11
194.7274101606151
 21
351.9999999999996
 31
0.0
  0
ARC
  5
300E
330
106E
100
AcDbEntity
  8
HILF
100
AcDbCircle
 10
204.8774101606151
 20
332.1015389523384
 30
0.0
 40
22.41111549782308
100
AcDbArc
 50
78.85962783890615
 51
101.1403721610938
  0
ARC
  5
300F
330
106E
100
AcDbEntity
  8
HILF
100
AcDbCircle
 10
198.3822196322318
 20
348.75151385047
 30
0.0
 40
5.761140599691502
100
AcDbArc
 50
67.92594526326206
 51
112.0740547367379
  0
LINE
  5
3010
330
106E
100
AcDbEntity
  8
STEMPEL
100
AcDbLine
 10
196.2171561227707
 20
354.0903565161995
 30
0.0
 11
194.4708950531208
 21
353.454769465589
 31
0.0
  0
ARC
  5
3011
330
106E
100
AcDbEntity
  8
STEMPEL
100
AcDbCircle
 10
194.7274101606151
 20
352.7499999999996
 30
0.0
 40
0.7500000000000013
100
AcDbArc
 50
109.9999999999995
 51
269.9999991462263
  0
POINT
  5
3012
330
106E
100
AcDbEntity
  8
0
100
AcDbPoint
 10
204.8774101606151
 20
351.9999999999996
 30
0.0
210
0.0000000000000001
220
1.0
230
0.0
  0
LINE
  5
3013
330
106E
100
AcDbEntity
  8
STEMPEL
100
AcDbLine
 10
215.2839252681094
 20
353.454769465589
 30
0.0
 11
213.5376641984595
 21
354.0903565161995
 31
0.0
  0
ARC
  5
3014
330
106E
100
AcDbEntity
  8
HILF
100
AcDbCircle
 10
211.3726006889984
 20
348.75151385047
 30
0.0
 40
5.761140599691502
100
AcDbArc
 50
67.92594526326206
 51
112.0740547367379
  0
ARC
  5
3015
330
106E
100
AcDbEntity
  8
STEMPEL
100
AcDbCircle
 10
215.0274101606151
 20
352.7499999999996
 30
0.0
 40
0.750000000000001
100
AcDbArc
 50
269.9999991462263
 51
70.00000000000047
  0
LINE
  5
3016
330
106E
100
AcDbEntity
  8
HILF
100
AcDbLine
 10
283.1498235201366
 20
343.9999999999999
 30
0.0
 11
283.1498235201365
 21
345.9999999999997
 31
0.0
  0
LINE
  5
3017
330
106E
100
AcDbEntity
  8
STEMPEL
100
AcDbLine
 10
282.1498235201366
 20
343.9999999999999
 30
0.0
 11
282.1498235201366
 21
345.9999999999997
 31
0.0
  0
ARC
  5
3018
330
106E
100
AcDbEntity
  8
STEMPEL
100
AcDbCircle
 10
253.2195529360417
 20
356.9999999999993
 30
0.0
 40
5.0
100
AcDbArc
 50
270.0
 51
358.9999999999982
  0
ARC
  5
3019
102
{ACAD_REACTORS
330
2EA7
102
}
330
106E
100
AcDbEntity
  8
STEMPEL
100
AcDbCircle
 10
271.8774101606151
 20
348.9999999999994
 30
0.0
 40
3.0
100
AcDbArc
 50
90.0
 51
270.0
  0
ARC
  5
301A
330
106E
100
AcDbEntity
  8
STEMPEL
100
AcDbCircle
 10
278.5352673851887
 20
356.9999999999991
 30
0.0
 40
5.0
100
AcDbArc
 50
180.9999999999985
 51
270.0
  0
ARC
  5
301B
330
106E
100
AcDbEntity
  8
HILF
100
AcDbCircle
 10
280.6546329917532
 20
348.7515138504697
 30
0.0
 40
5.761140599691502
100
AcDbArc
 50
67.92594526326206
 51
112.0740547367379
  0
ARC
  5
301C
330
106E
100
AcDbEntity
  8
STEMPEL
100
AcDbCircle
 10
276.9998235201365
 20
352.7499999999993
 30
0.0
 40
0.7500000000000013
100
AcDbArc
 50
109.9999999999995
 51
269.9999991462263
  0
LINE
  5
301D
330
106E
100
AcDbEntity
  8
STEMPEL
100
AcDbLine
 10
278.4895694822921
 20
354.0903565161992
 30
0.0
 11
276.7433084126423
 21
353.4547694655888
 31
0.0
  0
POINT
  5
301E
330
106E
100
AcDbEntity
  8
0
100
AcDbPoint
 10
287.1498235201364
 20
351.9999999999993
 30
0.0
210
0.0000000000000001
220
1.0
230
0.0
  0
LINE
  5
301F
330
106E
100
AcDbEntity
  8
HILF
100
AcDbLine
 10
291.1498235201366
 20
343.9999999999999
 30
0.0
 11
291.1498235201365
 21
345.9999999999997
 31
0.0
  0
LINE
  5
3020
330
106E
100
AcDbEntity
  8
STEMPEL
100
AcDbLine
 10
292.1498235201365
 20
343.9999999999999
 30
0.0
 11
292.1498235201365
 21
345.9999999999996
 31
0.0
  0
LINE
  5
3021
330
106E
100
AcDbEntity
  8
STEMPEL
100
AcDbLine
 10
297.5563386276308
 20
353.4547694655888
 30
0.0
 11
295.8100775579809
 21
354.0903565161992
 31
0.0
  0
ARC
  5
3022
330
106E
100
AcDbEntity
  8
HILF
100
AcDbCircle
 10
293.6450140485198
 20
348.7515138504697
 30
0.0
 40
5.761140599691502
100
AcDbArc
 50
67.92594526326206
 51
112.0740547367379
  0
ARC
  5
3023
330
106E
100
AcDbEntity
  8
STEMPEL
100
AcDbCircle
 10
297.2998235201364
 20
352.7499999999993
 30
0.0
 40
0.750000000000001
100
AcDbArc
 50
269.9999991462263
 51
70.00000000000047
  0
ARC
  5
3024
102
{ACAD_REACTORS
330
2EA7
102
}
330
106E
100
AcDbEntity
  8
STEMPEL
100
AcDbCircle
 10
331.8774101606151
 20
348.9999999999994
 30
0.0
 40
3.0
100
AcDbArc
 50
270.0
 51
90.0
  0
ARC
  5
3025
102
{ACAD_REACTORS
330
2EA7
102
}
330
106E
100
AcDbEntity
  8
STEMPEL
100
AcDbCircle
 10
95.53526738518867
 20
357.0
 30
0.0
 40
5.0
100
AcDbArc
 50
180.9999999999985
 51
270.0
  0
ARC
  5
3026
102
{ACAD_REACTORS
330
2EA7
102
}
330
106E
100
AcDbEntity
  8
STEMPEL
100
AcDbCircle
 10
77.87741016061517
 20
348.9999999999998
 30
0.0
 40
3.0
100
AcDbArc
 50
166.0430393971034
 51
270.0
  0
ARC
  5
3027
102
{ACAD_REACTORS
330
2EA7
102
}
330
106E
100
AcDbEntity
  8
STEMPEL
100
AcDbCircle
 10
70.11359272703572
 20
350.9295436916659
 30
0.0
 40
5.0
100
AcDbArc
 50
346.0430393971034
 51
358.9999999999982
  0
LINE
  5
3028
102
{ACAD_REACTORS
330
2EB9
102
}
330
106E
100
AcDbEntity
  8
STEMPEL
100
AcDbLine
 10
79.87741016061526
 20
355.6135000000004
 30
0.0
 11
80.49091016061526
 21
355.0000000000004
 31
0.0
  0
LINE
  5
3029
102
{ACAD_REACTORS
330
2EB9
102
}
330
106E
100
AcDbEntity
  8
STEMPEL
100
AcDbLine
 10
85.26391016061525
 20
355.0000000000004
 30
0.0
 11
85.87741016061526
 21
355.6135000000004
 31
0.0
  0
LINE
  5
302A
102
{ACAD_REACTORS
330
2EB9
102
}
330
106E
100
AcDbEntity
  8
STEMPEL
100
AcDbLine
 10
85.26391016061525
 20
355.0000000000004
 30
0.0
 11
80.49091016061524
 21
355.0000000000004
 31
0.0
  0
POINT
  5
302B
330
106E
100
AcDbEntity
  8
0
100
AcDbPoint
 10
82.87741016061525
 20
355.0000000000004
 30
0.0
210
-0.0000000000000002
220
-1.0
230
0.0
  0
LINE
  5
302C
102
{ACAD_REACTORS
330
2EA7
330
2EB9
102
}
330
106E
100
AcDbEntity
  8
STEMPEL
100
AcDbLine
 10
78.87741016061506
 20
352.0000000000004
 30
0.0
 11
79.37741016061505
 21
352.0000000000003
 31
0.0
  0
LINE
  5
302D
102
{ACAD_REACTORS
330
2EA7
330
2EB9
102
}
330
106E
100
AcDbEntity
  8
STEMPEL
100
AcDbLine
 10
78.87741016061511
 20
346.0000000000003
 30
0.0
 11
78.87741016061511
 21
349.0000000000003
 31
0.0
  0
LINE
  5
302E
102
{ACAD_REACTORS
330
2EA7
330
2EB9
102
}
330
106E
100
AcDbEntity
  8
STEMPEL
100
AcDbLine
 10
78.87741016061506
 20
349.0000000000003
 30
0.0
 11
79.37741016061517
 21
349.0000000000003
 31
0.0
  0
LINE
  5
302F
102
{ACAD_REACTORS
330
2EA7
330
2EB9
102
}
330
106E
100
AcDbEntity
  8
STEMPEL
100
AcDbLine
 10
79.37741016061512
 20
349.0000000000003
 30
0.0
 11
79.37741016061505
 21
352.0000000000004
 31
0.0
  0
LINE
  5
3030
102
{ACAD_REACTORS
330
2EB9
102
}
330
106E
100
AcDbEntity
  8
STEMPEL
100
AcDbLine
 10
80.87741016061517
 20
346.0000000000001
 30
0.0
 11
80.87741016061519
 21
355.0000000000005
 31
0.0
  0
LINE
  5
3031
102
{ACAD_REACTORS
330
2EA7
330
2EB9
102
}
330
106E
100
AcDbEntity
  8
STEMPEL
100
AcDbLine
 10
86.37741016061506
 20
352.0000000000002
 30
0.0
 11
86.87741016061512
 21
352.0000000000002
 31
0.0
  0
LINE
  5
3032
102
{ACAD_REACTORS
330
2EA7
330
2EB9
102
}
330
106E
100
AcDbEntity
  8
STEMPEL
100
AcDbLine
 10
86.87741016061506
 20
346.0000000000003
 30
0.0
 11
86.87741016061506
 21
349.0000000000003
 31
0.0
  0
LINE
  5
3033
102
{ACAD_REACTORS
330
2EA7
330
2EB9
102
}
330
106E
100
AcDbEntity
  8
STEMPEL
100
AcDbLine
 10
86.37741016061511
 20
349.0000000000003
 30
0.0
 11
86.87741016061512
 21
349.0000000000003
 31
0.0
  0
LINE
  5
3034
102
{ACAD_REACTORS
330
2EA7
330
2EB9
102
}
330
106E
100
AcDbEntity
  8
STEMPEL
100
AcDbLine
 10
86.37741016061511
 20
349.0000000000002
 30
0.0
 11
86.37741016061506
 21
352.0000000000002
 31
0.0
  0
LINE
  5
3035
102
{ACAD_REACTORS
330
2EB9
102
}
330
106E
100
AcDbEntity
  8
STEMPEL
100
AcDbLine
 10
84.87741016061518
 20
346.0000000000001
 30
0.0
 11
84.87741016061519
 21
355.0000000000005
 31
0.0
  0
LINE
  5
3036
330
106E
100
AcDbEntity
  8
STEMPEL
100
AcDbLine
 10
85.87741016061526
 20
355.6135000000004
 30
0.0
 11
79.87741016061526
 21
355.6135000000004
 31
0.0
  0
LINE
  5
3037
330
106E
100
AcDbEntity
  8
HILF
100
AcDbLine
 10
118.6049968010934
 20
343.9999999999999
 30
0.0
 11
118.6049968010933
 21
346.0000000000002
 31
0.0
  0
LINE
  5
3038
330
106E
100
AcDbEntity
  8
HILF
100
AcDbLine
 10
126.6049968010934
 20
343.9999999999999
 30
0.0
 11
126.6049968010933
 21
346.0000000000002
 31
0.0
  0
LINE
  5
3039
330
106E
100
AcDbEntity
  8
STEMPEL
100
AcDbLine
 10
117.6049968010934
 20
343.9999999999999
 30
0.0
 11
117.6049968010934
 21
346.0000000000002
 31
0.0
  0
LINE
  5
303A
330
106E
100
AcDbEntity
  8
STEMPEL
100
AcDbLine
 10
127.6049968010934
 20
343.9999999999999
 30
0.0
 11
127.6049968010933
 21
346.0000000000002
 31
0.0
  0
ARC
  5
303B
330
106E
100
AcDbEntity
  8
HILF
100
AcDbCircle
 10
122.6049968010933
 20
332.1015389523387
 30
0.0
 40
22.41111549782308
100
AcDbArc
 50
78.85962783890615
 51
101.1403721610938
  0
LINE
  5
303C
330
106E
100
AcDbEntity
  8
STEMPEL
100
AcDbLine
 10
133.0115119085876
 20
353.4547694655894
 30
0.0
 11
112.1984816935991
 21
353.4547694655894
 31
0.0
  0
LINE
  5
303D
330
106E
100
AcDbEntity
  8
STEMPEL
100
AcDbLine
 10
132.7549968010933
 20
352.0
 30
0.0
 11
112.4549968010933
 21
352.0
 31
0.0
  0
ARC
  5
303E
330
106E
100
AcDbEntity
  8
HILF
100
AcDbCircle
 10
116.10980627271
 20
348.7515138504703
 30
0.0
 40
5.761140599691502
100
AcDbArc
 50
67.92594526326206
 51
112.0740547367379
  0
LINE
  5
303F
330
106E
100
AcDbEntity
  8
STEMPEL
100
AcDbLine
 10
113.9447427632489
 20
354.0903565161998
 30
0.0
 11
112.1984816935991
 21
353.4547694655894
 31
0.0
  0
ARC
  5
3040
330
106E
100
AcDbEntity
  8
STEMPEL
100
AcDbCircle
 10
112.4549968010933
 20
352.7499999999999
 30
0.0
 40
0.7500000000000013
100
AcDbArc
 50
109.9999999999995
 51
269.9999991462263
  0
POINT
  5
3041
330
106E
100
AcDbEntity
  8
0
100
AcDbPoint
 10
122.6049968010933
 20
352.0
 30
0.0
210
0.0000000000000001
220
1.0
230
0.0
  0
LINE
  5
3042
330
106E
100
AcDbEntity
  8
STEMPEL
100
AcDbLine
 10
133.0115119085876
 20
353.4547694655894
 30
0.0
 11
131.2652508389377
 21
354.0903565161998
 31
0.0
  0
ARC
  5
3043
330
106E
100
AcDbEntity
  8
STEMPEL
100
AcDbCircle
 10
132.7549968010933
 20
352.7499999999999
 30
0.0
 40
0.750000000000001
100
AcDbArc
 50
269.9999991462263
 51
70.00000000000047
  0
ARC
  5
3044
330
106E
100
AcDbEntity
  8
HILF
100
AcDbCircle
 10
129.1001873294766
 20
348.7515138504703
 30
0.0
 40
5.761140599691502
100
AcDbArc
 50
67.92594526326206
 51
112.0740547367379
  0
ARC
  5
3045
102
{ACAD_REACTORS
330
2EA7
102
}
330
106E
100
AcDbEntity
  8
STEMPEL
100
AcDbCircle
 10
137.8774101606151
 20
348.9999999999996
 30
0.0
 40
3.0
100
AcDbArc
 50
270.0
 51
90.0
  0
DIMENSION
  5
309A
330
106E
100
AcDbEntity
  8
BEM
100
AcDbDimension
  2
*D8
 10
57.76324281727739
 20
340.9999999999999
 30
0.0
 11
51.86324281727734
 21
311.9999999999999
 31
0.0
 70
    32
 71
     5
 42
58.00000000000006
  3
STANDARD
100
AcDbAlignedDimension
 13
146.877410160615
 23
282.9999999999998
 33
0.0
 14
69.877410160615
 24
340.9999999999999
 34
0.0
 50
90.0
100
AcDbRotatedDimension
  0
TEXT
  5
30B0
330
106E
100
AcDbEntity
  8
TEXT
 62
     1
100
AcDbText
 10
602.3014114320012
 20
369.3346647345959
 30
0.0
 40
7.0
  1
Auslaufkörper DN70
 41
0.8
  7
GREEKS
100
AcDbText
  0
LINE
  5
30B1
330
106E
100
AcDbEntity
  8
TEXT
 62
     2
100
AcDbLine
 10
599.6522278129504
 20
366.0641371337468
 30
0.0
 11
706.0868189305192
 21
366.0641371337468
 31
0.0
  0
TEXT
  5
30B2
330
106E
100
AcDbEntity
  8
TEXT
 62
     1
100
AcDbText
 10
601.571903609668
 20
354.8921409791658
 30
0.0
 40
7.0
  1
EDV-Art.Nr. 01369.070X
 41
0.8
  7
GREEKS
100
AcDbText
  0
LINE
  5
30B3
330
106E
100
AcDbEntity
  8
TEXT
 62
     2
100
AcDbLine
 10
599.6522278129504
 20
366.0641371337468
 30
0.0
 11
569.4903593992664
 21
327.7747583443229
 31
0.0
  0
LINE
  5
30B5
102
{ACAD_REACTORS
330
30F3
102
}
330
106E
100
AcDbEntity
  8
STEMPEL
100
AcDbLine
 10
69.877410160615
 20
343.9999999999999
 30
0.0
 11
339.8774101606152
 21
343.9999999999999
 31
0.0
  0
LINE
  5
30BE
102
{ACAD_REACTORS
330
30F3
102
}
330
106E
100
AcDbEntity
  8
STEMPEL
100
AcDbLine
 10
69.87741016061517
 20
340.9999999999999
 30
0.0
 11
69.87741016061517
 21
343.9999999999999
 31
0.0
  0
LINE
  5
30BF
102
{ACAD_REACTORS
330
30F3
102
}
330
106E
100
AcDbEntity
  8
STEMPEL
100
AcDbLine
 10
139.8774101606151
 20
340.9999999999999
 30
0.0
 11
139.8774101606151
 21
343.9999999999999
 31
0.0
  0
LINE
  5
30C0
102
{ACAD_REACTORS
330
30F3
102
}
330
106E
100
AcDbEntity
  8
STEMPEL
100
AcDbLine
 10
269.8774101606152
 20
340.9999999999999
 30
0.0
 11
269.8774101606152
 21
343.9999999999999
 31
0.0
  0
LINE
  5
30C1
102
{ACAD_REACTORS
330
30F3
102
}
330
106E
100
AcDbEntity
  8
STEMPEL
100
AcDbLine
 10
339.8774101606152
 20
340.9999999999999
 30
0.0
 11
339.8774101606152
 21
343.9999999999999
 31
0.0
  0
HATCH
  5
30F3
330
106E
100
AcDbEntity
  8
SCHRAFF
100
AcDbHatch
 10
0.0
 20
0.0
 30
0.0
210
0.0
220
0.0
230
1.0
  2
NET
 70
     0
 71
     1
 91
        5
 92
        7
 72
     0
 73
     1
 93
        4
 10
287.1498235201366
 20
343.9999999999998
 10
287.1498235201366
 20
340.9999999999999
 10
339.8774101606152
 20
340.9999999999998
 10
339.8774101606152
 20
343.9999999999998
 97
        4
330
30B5
330
2F61
330
224A
330
30C1
 92
        7
 72
     0
 73
     1
 93
        4
 10
269.8774101606152
 20
343.9999999999999
 10
269.8774101606153
 20
340.9999999999999
 10
287.1498235201366
 20
341.0
 10
287.1498235201366
 20
343.9999999999999
 97
        4
330
30B5
330
30C0
330
224A
330
2F61
 92
        7
 72
     0
 73
     1
 93
        4
 10
122.6049968010934
 20
343.9999999999998
 10
122.6049968010934
 20
340.9999999999999
 10
139.8774101606151
 20
341.0
 10
139.8774101606151
 20
343.9999999999999
 97
        4
330
30B5
330
2EDF
330
224A
330
30BF
 92
        7
 72
     0
 73
     1
 93
        4
 10
82.87741016061513
 20
343.9999999999998
 10
82.87741016061509
 20
340.9999999999999
 10
122.6049968010934
 20
340.9999999999998
 10
122.6049968010934
 20
343.9999999999999
 97
        4
330
30B5
330
2EAE
330
224A
330
2EDF
 92
        7
 72
     0
 73
     1
 93
        4
 10
82.87741016061511
 20
340.9999999999999
 10
82.87741016061513
 20
343.9999999999999
 10
69.87741016061518
 20
343.9999999999999
 10
69.87741016061518
 20
340.9999999999999
 97
        4
330
30B5
330
30BE
330
224A
330
2EAE
 75
     0
 76
     1
 52
45.0
 41
15.0
 77
     0
 78
     2
 53
45.0
 43
0.0
 44
0.0
 45
-1.325825214724776
 46
1.325825214724776
 79
     0
 53
135.0
 43
0.0
 44
0.0
 45
-1.325825214724776
 46
-1.325825214724776
 79
     0
 47
0.2826199772278338
 98
        5
 10
300.8421235621954
 20
342.8318519272282
 10
277.9420900101773
 20
342.5492330462823
 10
135.4530022542917
 20
342.8318519272282
 10
115.3801333383253
 20
342.8318519272282
 10
79.19242847214355
 20
342.2666127053549
  0
LINE
  5
30FE
102
{ACAD_REACTORS
330
3189
102
}
330
106E
100
AcDbEntity
  8
STEMPEL
100
AcDbLine
 10
343.8763928550885
 20
377.9989826944731
 30
0.0
 11
343.8763928550884
 21
437.9989826944731
 31
0.0
  0
LINE
  5
3101
102
{ACAD_REACTORS
330
3189
102
}
330
106E
100
AcDbEntity
  8
STEMPEL
100
AcDbLine
 10
346.8763928550882
 20
377.9989826944731
 30
0.0
 11
343.8763928550885
 21
377.9989826944731
 31
0.0
  0
LINE
  5
3102
102
{ACAD_REACTORS
330
3189
102
}
330
106E
100
AcDbEntity
  8
STEMPEL
100
AcDbLine
 10
346.8763928550882
 20
437.9989826944731
 30
0.0
 11
343.8763928550884
 21
437.9989826944731
 31
0.0
  0
LINE
  5
313D
330
106E
100
AcDbEntity
  8
TEXT
 62
     2
100
AcDbLine
 10
363.365649690677
 20
474.2067969461894
 30
0.0
 11
338.7682232683353
 21
434.9160896957573
 31
0.0
  0
TEXT
  5
313E
330
106E
100
AcDbEntity
  8
TEXT
 62
     1
100
AcDbText
 10
365.2853254873944
 20
463.0348007916084
 30
0.0
 40
7.0
  1
EDV-Art.Nr. 01378.000X
 41
0.8
  7
GREEKS
100
AcDbText
  0
LINE
  5
313F
330
106E
100
AcDbEntity
  8
TEXT
 62
     2
100
AcDbLine
 10
363.365649690677
 20
474.2067969461894
 30
0.0
 11
469.8002408082457
 21
474.2067969461894
 31
0.0
  0
TEXT
  5
3140
330
106E
100
AcDbEntity
  8
TEXT
 62
     1
100
AcDbText
 10
366.0148333097277
 20
477.4773245470385
 30
0.0
 40
7.0
  1
Losflansch
 41
0.8
  7
GREEKS
100
AcDbText
  0
HATCH
  5
3141
330
106E
100
AcDbEntity
  8
SCHRAFF
100
AcDbHatch
 10
0.0
 20
0.0
 30
0.0
210
0.0
220
0.0
230
1.0
  2
_USER
 70
     0
 71
     0
 91
        2
 92
        7
 72
     0
 73
     1
 93
        5
 10
341.8763928550883
 20
438.4989826944732
 10
339.8763928550883
 20
440.498982694473
 10
335.8763928550885
 20
440.4989826944734
 10
335.8763928550885
 20
407.998982694473
 10
341.8763928550884
 20
407.998982694473
 97
        0
 92
        7
 72
     0
 73
     1
 93
        5
 10
341.8763928550885
 20
407.9989826944731
 10
335.8763928550885
 20
407.9989826944731
 10
335.8763928550884
 20
375.4989826944732
 10
339.8763928550886
 20
375.4989826944731
 10
341.8763928550884
 20
377.4989826944731
 97
        0
 75
     0
 76
     0
 52
135.0
 41
5.0
 77
     0
 78
     1
 53
135.0
 43
344.8663731914309
 44
-144.7213084471198
 45
-3.535533905932737
 46
-3.535533905932737
 79
     0
 47
0.2048183592830846
 98
        2
 10
340.0798343630365
 20
421.0915673399865
 10
339.4965652446169
 20
398.4943739477248
  0
LINE
  5
3142
330
106E
100
AcDbEntity
  8
STEMPEL
100
AcDbLine
 10
341.8763928550884
 20
438.4989826944732
 30
0.0
 11
341.8763928550884
 21
377.4989826944731
 31
0.0
  0
LINE
  5
3143
330
106E
100
AcDbEntity
  8
STEMPEL
100
AcDbLine
 10
335.8763928550884
 20
440.4989826944733
 30
0.0
 11
335.8763928550884
 21
375.4989826944731
 31
0.0
  0
LINE
  5
3144
330
106E
100
AcDbEntity
  8
STEMPEL
100
AcDbLine
 10
335.8763928550884
 20
440.4989826944733
 30
0.0
 11
339.8763928550883
 21
440.498982694473
 31
0.0
  0
LINE
  5
3145
330
106E
100
AcDbEntity
  8
STEMPEL
100
AcDbLine
 10
339.8763928550883
 20
440.498982694473
 30
0.0
 11
341.8763928550884
 21
438.4989826944732
 31
0.0
  0
ARC
  5
3146
330
106E
100
AcDbEntity
  8
STEMPEL
100
AcDbCircle
 10
335.1263928550884
 20
397.8489826944731
 30
0.0
 40
0.7500000000000013
100
AcDbArc
 50
200.0000000000006
 51
359.9999991462254
  0
ARC
  5
314A
330
106E
100
AcDbEntity
  8
HILF
100
AcDbCircle
 10
339.124879004618
 20
414.4941732228564
 30
0.0
 40
5.761140599691502
100
AcDbArc
 50
157.9259452632616
 51
202.0740547367383
  0
LINE
  5
314B
330
106E
100
AcDbEntity
  8
STEMPEL
100
AcDbLine
 10
333.7860363388886
 20
416.6592367323175
 30
0.0
 11
326.1872819875438
 21
416.6592367323175
 31
0.0
  0
LINE
  5
314C
330
106E
100
AcDbEntity
  8
STEMPEL
100
AcDbLine
 10
334.421623389499
 20
418.4054978019672
 30
0.0
 11
334.421623389499
 21
397.5924675869789
 31
0.0
  0
LINE
  5
314D
330
106E
100
AcDbEntity
  8
STEMPEL
100
AcDbLine
 10
335.8763928550885
 20
418.1489826944732
 30
0.0
 11
335.8763928550884
 21
397.8489826944731
 31
0.0
  0
ARC
  5
314E
330
106E
100
AcDbEntity
  8
STEMPEL
100
AcDbCircle
 10
356.1872819875433
 20
407.998982694473
 30
0.0
 40
30.31088913245485
100
AcDbArc
 50
171.7867892982606
 51
188.2132107017393
  0
ARC
  5
314F
330
106E
100
AcDbEntity
  8
HILF
100
AcDbCircle
 10
355.7748539027496
 20
407.998982694473
 30
0.0
 40
22.41111549782308
100
AcDbArc
 50
168.8596278389053
 51
191.1403721610947
  0
LINE
  5
3150
330
106E
100
AcDbEntity
  8
STEMPEL
100
AcDbLine
 10
325.8763928550885
 20
400.4989826944731
 30
0.0
 11
325.8763928550884
 21
415.498982694473
 31
0.0
  0
ARC
  5
3152
330
106E
100
AcDbEntity
  8
HILF
100
AcDbCircle
 10
339.124879004618
 20
401.5037921660898
 30
0.0
 40
5.761140599691502
100
AcDbArc
 50
157.9259452632616
 51
202.0740547367383
  0
LINE
  5
3153
330
106E
100
AcDbEntity
  8
STEMPEL
100
AcDbLine
 10
333.7860363388886
 20
403.6688556755509
 30
0.0
 11
326.1872819875438
 21
403.6688556755509
 31
0.0
  0
ARC
  5
3154
330
106E
100
AcDbEntity
  8
STEMPEL
100
AcDbCircle
 10
333.5706985628728
 20
401.5037921660898
 30
0.0
 40
7.694305707784447
100
AcDbArc
 50
163.6571066940175
 51
196.3428933059869
  0
LINE
  5
3155
330
106E
100
AcDbEntity
  8
STEMPEL
100
AcDbLine
 10
333.7860363388886
 20
399.3387286566287
 30
0.0
 11
326.1872819875438
 21
399.3387286566287
 31
0.0
  0
LINE
  5
3156
330
106E
100
AcDbEntity
  8
STEMPEL
100
AcDbLine
 10
325.8763928550885
 20
400.4989826944731
 30
0.0
 11
326.1872819875438
 21
399.3387286566287
 31
0.0
  0
LINE
  5
3157
330
106E
100
AcDbEntity
  8
STEMPEL
100
AcDbLine
 10
333.7860363388886
 20
399.3387286566287
 30
0.0
 11
334.421623389499
 21
397.5924675869789
 31
0.0
  0
POINT
  5
3158
330
106E
100
AcDbEntity
  8
0
100
AcDbPoint
 10
335.8763928550885
 20
407.998982694473
 30
0.0
210
-1.0
220
0.0000000000000002
230
0.0
  0
ARC
  5
3160
330
106E
100
AcDbEntity
  8
STEMPEL
100
AcDbCircle
 10
333.5706985628729
 20
414.4941732228564
 30
0.0
 40
7.694305707784447
100
AcDbArc
 50
163.657106694013
 51
196.3428933059825
  0
LINE
  5
3161
330
106E
100
AcDbEntity
  8
STEMPEL
100
AcDbLine
 10
333.7860363388886
 20
412.3291097133953
 30
0.0
 11
326.1872819875438
 21
412.3291097133953
 31
0.0
  0
LINE
  5
3162
330
106E
100
AcDbEntity
  8
STEMPEL
100
AcDbLine
 10
326.1872819875438
 20
416.6592367323175
 30
0.0
 11
325.8763928550884
 21
415.498982694473
 31
0.0
  0
LINE
  5
3165
330
106E
100
AcDbEntity
  8
STEMPEL
100
AcDbLine
 10
334.421623389499
 20
418.4054978019672
 30
0.0
 11
333.7860363388886
 21
416.6592367323175
 31
0.0
  0
ARC
  5
3166
330
106E
100
AcDbEntity
  8
STEMPEL
100
AcDbCircle
 10
335.1263928550884
 20
418.1489826944731
 30
0.0
 40
0.750000000000001
100
AcDbArc
 50
359.9999991462254
 51
159.9999999999993
  0
LINE
  5
3167
330
106E
100
AcDbEntity
  8
STEMPEL
100
AcDbLine
 10
335.8763928550884
 20
375.4989826944732
 30
0.0
 11
339.8763928550886
 21
375.4989826944731
 31
0.0
  0
LINE
  5
3168
330
106E
100
AcDbEntity
  8
STEMPEL
100
AcDbLine
 10
341.8763928550884
 20
377.4989826944731
 30
0.0
 11
339.8763928550886
 21
375.4989826944731
 31
0.0
  0
LINE
  5
3169
330
106E
100
AcDbEntity
  8
STEMPEL
100
AcDbLine
 10
325.8763928550883
 20
412.9989826944728
 30
0.0
 11
322.8763928550884
 21
412.9989826944728
 31
0.0
  0
LINE
  5
316A
330
106E
100
AcDbEntity
  8
HILF
100
AcDbLine
 10
325.8763928550884
 20
411.9989826944729
 30
0.0
 11
321.8763928550884
 21
411.9989826944729
 31
0.0
  0
LINE
  5
316B
330
106E
100
AcDbEntity
  8
HILF
100
AcDbLine
 10
325.8763928550884
 20
403.9989826944729
 30
0.0
 11
321.8763928550883
 21
403.9989826944728
 31
0.0
  0
LINE
  5
316C
330
106E
100
AcDbEntity
  8
STEMPEL
100
AcDbLine
 10
325.8763928550884
 20
402.998982694473
 30
0.0
 11
322.8763928550884
 21
402.998982694473
 31
0.0
  0
LINE
  5
316D
330
106E
100
AcDbEntity
  8
TEXT
 62
     2
100
AcDbLine
 10
390.9763965644083
 20
437.491835164016
 30
0.0
 11
497.410987681977
 21
437.491835164016
 31
0.0
  0
TEXT
  5
316E
330
106E
100
AcDbEntity
  8
TEXT
 62
     1
100
AcDbText
 10
392.8960723611258
 20
426.3198390094351
 30
0.0
 40
7.0
  1
EDV-Art.Nr. 21811.000X
 41
0.8
  7
GREEKS
100
AcDbText
  0
TEXT
  5
316F
330
106E
100
AcDbEntity
  8
TEXT
 62
     1
100
AcDbText
 10
393.6255801834591
 20
440.7623627648653
 30
0.0
 40
7.0
  1
Kompressionsdichtung
 41
0.8
  7
GREEKS
100
AcDbText
  0
LINE
  5
3170
330
106E
100
AcDbEntity
  8
TEXT
 62
     2
100
AcDbLine
 10
390.9763965644083
 20
437.491835164016
 30
0.0
 11
365.9174006473583
 21
429.9872475687579
 31
0.0
  0
HATCH
  5
3189
330
106E
100
AcDbEntity
  8
SCHRAFF
100
AcDbHatch
 10
0.0
 20
0.0
 30
0.0
210
0.0
220
0.0
230
1.0
  2
NET
 70
     0
 71
     1
 91
        2
 92
        7
 72
     0
 73
     1
 93
        4
 10
346.8763928550884
 20
437.9989826944731
 10
343.8763928550884
 20
437.9989826944731
 10
343.8763928550884
 20
407.998982694473
 10
346.8763928550885
 20
407.998982694473
 97
        4
330
3102
330
30FE
330
2254
330
224E
 92
        7
 72
     0
 73
     1
 93
        4
 10
346.8763928550884
 20
407.998982694473
 10
343.8763928550884
 20
407.998982694473
 10
343.8763928550885
 20
377.998982694473
 10
346.8763928550885
 20
377.9989826944732
 97
        4
330
2254
330
30FE
330
3101
330
224E
 75
     0
 76
     1
 52
45.0
 41
15.0
 77
     0
 78
     2
 53
45.0
 43
0.0
 44
0.0
 45
-1.325825214724776
 46
1.325825214724776
 79
     0
 53
135.0
 43
0.0
 44
0.0
 45
-1.325825214724776
 46
-1.325825214724776
 79
     0
 47
0.2922600342938309
 98
        2
 10
345.9017555153669
 20
418.4885804867296
 10
345.6093978401473
 20
394.8155185892415
  0
LINE
  5
318B
330
106E
100
AcDbEntity
  8
TEXT
 62
     2
100
AcDbLine
 10
362.0855441474711
 20
428.8396954940039
 30
0.0
 11
345.5433514352606
 21
423.8856927623159
 31
0.0
  0
TEXT
  5
318C
330
106E
100
AcDbEntity
  8
TEXT
 62
     1
100
AcDbText
 10
397.1431411777098
 20
359.2390430590513
 30
0.0
 40
7.0
  1
EDV-Art.Nr. 21810.100X
 41
0.8
  7
GREEKS
100
AcDbText
  0
TEXT
  5
318D
330
106E
100
AcDbEntity
  8
TEXT
 62
     1
100
AcDbText
 10
397.8726490000431
 20
373.6815668144814
 30
0.0
 40
7.0
  1
Kompressionsdichtung
 41
0.8
  7
GREEKS
100
AcDbText
  0
LINE
  5
318E
330
106E
100
AcDbEntity
  8
TEXT
 62
     2
100
AcDbLine
 10
395.2234653809924
 20
370.4110392136322
 30
0.0
 11
501.6580564985611
 21
370.4110392136322
 31
0.0
  0
LINE
  5
318F
330
106E
100
AcDbEntity
  8
TEXT
 62
     2
100
AcDbLine
 10
395.2234653809924
 20
370.4110392136322
 30
0.0
 11
365.8104413354455
 21
356.541428269097
 31
0.0
  0
LINE
  5
3192
330
106E
100
AcDbEntity
  8
TEXT
 62
     2
100
AcDbLine
 10
362.3704681563537
 20
375.0595321608047
 30
0.0
 11
326.7907854541838
 21
349.8089703240732
 31
0.0
  0
LINE
  5
3193
330
106E
100
AcDbEntity
  8
TEXT
 62
     2
100
AcDbLine
 10
362.1925034593838
 20
354.8354020310343
 30
0.0
 11
336.5430917610822
 21
342.7405096234815
 31
0.0
  0
DIMENSION
  5
31B8
330
106E
100
AcDbEntity
  8
BEM
100
AcDbDimension
  2
*D9
 10
325.2904809791746
 20
309.9629974383733
 30
0.0
 11
462.9926333585716
 21
284.0123008895839
 31
0.0
 70
    34
 71
     5
 42
0.0523598775598337
  3
STANDARD
100
AcDb2LineAngularDimension
 13
325.2973333054015
 23
310.2246772195881
 33
0.0
 14
819.6189530089158
 24
284.3183788793293
 34
0.0
 15
330.2904809791744
 25
309.9629974383733
 35
0.0
 16
471.2687465887562
 26
307.5022126586904
 36
0.0
1001
ACAD
1000
DSTYLE
1002
{
1070
    48
1040
2.000000002
1070
   147
1040
1.199999999999999
1070
    72
1070
     0
1070
    71
1070
     0
1002
}
  0
HATCH
  5
3232
330
106E
100
AcDbEntity
  8
SCHRAFF
100
AcDbHatch
 10
0.0
 20
0.0
 30
0.0
210
0.0
220
0.0
230
1.0
  2
_USER
 70
     0
 71
     1
 91
        2
 92
        7
 72
     1
 73
     1
 93
       14
 10
414.7535063472794
 20
342.086568476228
 42
0.066357857745891
 10
409.4851235008205
 20
341.663339801973
 42
0.0
 10
379.03938491035
 20
335.0886152688804
 42
-0.0663578577458852
 10
374.1924726916082
 20
334.6992448885658
 42
0.0
 10
331.7035517977338
 20
336.925994876747
 42
0.0
 10
331.6407486502424
 20
335.7276394350415
 42
0.0
 10
374.1296695441165
 20
333.5008894468604
 42
0.0663578577458895
 10
379.2926847336462
 20
333.9156535476302
 42
0.0
 10
409.7384233241164
 20
340.4903780807228
 42
-0.0663578577458885
 10
414.6907031997876
 20
340.8882130345225
 42
0.0
 10
797.6848822747222
 20
320.8163386308716
 42
0.0
 10
806.6834202923763
 20
319.5516765867696
 42
0.0
 10
806.7464633376886
 20
320.7546095515817
 42
0.0
 10
797.8000067507402
 20
322.0119520279399
 42
0.0
 97
       14
330
3243
330
3240
330
3267
330
3251
330
3254
330
324F
330
3266
330
323F
330
3242
330
3233
330
3248
330
3245
330
3249
330
3236
 92
        7
 72
     1
 73
     1
 93
       14
 10
410.9957846890356
 20
270.3849678808492
 42
-0.0663578577458861
 10
406.112218997044
 20
271.2982776582214
 42
0.0
 10
376.5205112000146
 20
281.0194314303074
 42
0.0663578577458886
 10
371.4291342019806
 20
281.9716054535249
 42
0.0
 10
328.9402133081065
 20
284.1983554417053
 42
0.0
 10
328.877410160615
 20
282.9999999999999
 42
0.0
 10
371.3663310544891
 20
280.7732500118194
 42
-0.0663578577458901
 10
376.14599109346
 20
279.8793723573703
 42
0.0
 10
405.737698890489
 20
270.1582185852843
 42
0.0663578577458909
 10
410.9329815415444
 20
269.1866124391437
 42
0.0
 10
793.9794819449377
 20
249.1119959908605
 42
0.0
 10
803.0083569835428
 20
249.4272912548534
 42
0.0
 10
803.0714000288551
 20
250.6302242196652
 42
0.0
 10
793.9899637639054
 20
250.3130934772031
 42
0.0
 97
       14
330
323C
330
3238
330
3265
330
324E
330
3254
330
3250
330
324D
330
323A
330
323B
330
3235
330
3247
330
3245
330
3246
330
3234
 75
     0
 76
     0
 52
135.0
 41
2.0
 77
     0
 78
     1
 53
135.0
 43
0.0
 44
-109.1614526834382
 45
-1.414213562373095
 46
-1.414213562373094
 79
     0
 47
0.4694822358078758
 98
        2
 10
617.077291524006
 20
330.6258618782911
 10
501.5397894564091
 20
264.8983485346251
  0
LINE
  5
3233
102
{ACAD_REACTORS
330
3232
102
}
330
106E
100
AcDbEntity
  8
STEMPEL
100
AcDbLine
 10
414.6907031997877
 20
340.8882130345225
 30
0.0
 11
797.7372036032238
 21
320.8135965862357
 31
0.0
  0
LINE
  5
3234
102
{ACAD_REACTORS
330
3232
102
}
330
106E
100
AcDbEntity
  8
STEMPEL
100
AcDbLine
 10
410.9957846890356
 20
270.3849678808492
 30
0.0
 11
793.9899637639059
 21
250.3130934772031
 31
0.0
  0
LINE
  5
3235
102
{ACAD_REACTORS
330
3232
102
}
330
106E
100
AcDbEntity
  8
STEMPEL
100
AcDbLine
 10
410.9329815415442
 20
269.1866124391437
 30
0.0
 11
793.9794819449383
 21
249.1119959908605
 31
0.0
  0
LINE
  5
3236
102
{ACAD_REACTORS
330
3232
102
}
330
106E
100
AcDbEntity
  8
STEMPEL
100
AcDbLine
 10
414.7535063472794
 20
342.086568476228
 30
0.0
 11
797.8000067507155
 21
322.0119520279411
 31
0.0
  0
LINE
  5
3237
330
106E
100
AcDbEntity
  8
MITTEL
100
AcDbLine
 10
325.2973333054015
 20
310.2246772195881
 30
0.0
 11
809.8705578343885
 21
284.8292706219999
 31
0.0
  0
LINE
  5
3238
102
{ACAD_REACTORS
330
3232
102
}
330
106E
100
AcDbEntity
  8
STEMPEL
100
AcDbLine
 10
376.5205112000146
 20
281.0194314303074
 30
0.0
 11
406.112218997044
 21
271.2982776582214
 31
0.0
  0
LWPOLYLINE
  5
3239
330
106E
100
AcDbEntity
  8
HILF
100
AcDbPolyline
 90
       15
 70
   128
 43
0.0
 10
-379.509772735302
 20
281.6690586811851
 10
-380.7400648434855
 20
281.5208722726274
 10
-381.7563355486893
 20
281.3759768386289
 10
-383.5371221141254
 20
281.0765283296951
 10
-385.3896844863693
 20
280.7446106215337
 10
-387.3472849989203
 20
280.3810063435851
 10
-391.4617866312967
 20
279.5751362195018
 10
-395.6489993839602
 20
278.6917142397961
 10
-399.677295629617
 20
277.7635366868192
 10
-401.5594664287882
 20
277.2929134085885
 10
-403.3150477409726
 20
276.8233998429217
 10
-404.9150861127575
 20
276.3590955251124
 10
-406.3306280907324
 20
275.9040999904545
 10
-407.5327202214843
 20
275.462512774242
 10
-408.4924090516024
 20
275.0384334117686
210
0.0
220
0.0
230
-1.0
  0
LINE
  5
323A
102
{ACAD_REACTORS
330
3232
102
}
330
106E
100
AcDbEntity
  8
STEMPEL
100
AcDbLine
 10
376.1459910934598
 20
279.8793723573703
 30
0.0
 11
405.737698890489
 21
270.1582185852843
 31
0.0
  0
ARC
  5
323B
102
{ACAD_REACTORS
330
3232
102
}
330
106E
100
AcDbEntity
  8
STEMPEL
100
AcDbCircle
 10
411.979700666403
 20
289.1592031342355
 30
0.0
 40
20.0
100
AcDbArc
 50
251.8141627377968
 51
267.0000000000001
  0
ARC
  5
323C
102
{ACAD_REACTORS
330
3232
102
}
330
106E
100
AcDbEntity
  8
STEMPEL
100
AcDbCircle
 10
411.979700666403
 20
289.1592031342355
 30
0.0
 40
18.8
100
AcDbArc
 50
251.8141627377968
 51
267.0000000000001
  0
LWPOLYLINE
  5
323D
330
106E
100
AcDbEntity
  8
HILF
100
AcDbPolyline
 90
       18
 70
   128
 43
0.0
 10
-382.2090310511358
 20
332.7295908128845
 10
-384.7374347724044
 20
332.6754277377877
 10
-387.3515649083181
 20
332.5403084894797
 10
-392.6760304521236
 20
332.0516708860392
 10
-395.305878874037
 20
331.7103872373114
 10
-397.8604797386383
 20
331.3126168281818
 10
-400.2995895529388
 20
330.8644770118529
 10
-402.5829648239492
 20
330.3720851415268
 10
-404.6703620586797
 20
329.8415585704062
 10
-406.5272728292493
 20
329.2760202132296
 10
-408.1831143410124
 20
328.6452156173626
 10
-409.7072792785756
 20
327.898018010426
 10
-411.1697719119058
 20
326.9829812941576
 10
-412.6405965109699
 20
325.848659370295
 10
-413.4010096320166
 20
325.183189549809
 10
-414.1897573457344
 20
324.4436061405761
 10
-415.0155901858693
 20
323.6234783803136
 10
-415.8872586861669
 20
322.7163755067387
210
0.0
220
0.0
230
-1.0
  0
LWPOLYLINE
  5
323E
330
106E
100
AcDbEntity
  8
HILF
100
AcDbPolyline
 90
       18
 70
   128
 43
0.0
 10
379.5448587822361
 20
281.8941555903689
 10
382.0650732263743
 20
281.6837317989686
 10
384.6790066912661
 20
281.5448598440077
 10
390.0253807934969
 20
281.4742624385141
 10
392.6764964859294
 20
281.5387824855355
 10
395.2586813093019
 20
281.6673453641054
 10
397.7312727911613
 20
281.8580738230009
 10
400.053608459054
 20
282.1090906109994
 10
402.1850258405268
 20
282.418518476878
 10
404.0908791149979
 20
282.786858726488
 10
405.8035867887342
 20
283.2411251401373
 10
407.3975056089039
 20
283.8249109017124
 10
408.9476339363507
 20
284.5820628436051
 10
410.5289701319184
 20
285.5564277982063
 10
411.354778168011
 20
286.1387672903948
 10
412.2165125564506
 20
286.7918525979072
 10
413.1235480923421
 20
287.5211645747924
 10
414.0852595707912
 20
288.3321840750991
  0
LINE
  5
323F
102
{ACAD_REACTORS
330
3232
102
}
330
106E
100
AcDbEntity
  8
STEMPEL
100
AcDbLine
 10
379.292684733646
 20
333.9156535476302
 30
0.0
 11
409.7384233241164
 21
340.4903780807228
 31
0.0
  0
LINE
  5
3240
102
{ACAD_REACTORS
330
3232
102
}
330
106E
100
AcDbEntity
  8
STEMPEL
100
AcDbLine
 10
379.03938491035
 20
335.0886152688804
 30
0.0
 11
409.4851235008205
 21
341.663339801973
 31
0.0
  0
LWPOLYLINE
  5
3241
330
106E
100
AcDbEntity
  8
HILF
100
AcDbPolyline
 90
       15
 70
   128
 43
0.0
 10
382.197666243241
 20
332.9571221082157
 10
383.4367083800919
 20
332.9758961926835
 10
384.4625575450891
 20
333.013768659255
 10
386.2648896678593
 20
333.1254338748323
 10
388.1419983575568
 20
333.2618878051811
 10
390.1268819260845
 20
333.4188752475816
 10
394.3030802536748
 20
333.790248198061
 10
398.5596977587195
 20
334.2311477853172
 10
402.6629475493071
 20
334.7331690683967
 10
404.5840011479572
 20
335.0044738018224
 10
406.3790427335265
 20
335.2879071063465
 10
408.0188489445253
 20
335.5824183643499
 10
409.4741964194654
 20
335.8869569582134
 10
410.7158617968575
 20
336.2004722703178
 10
411.7146217152132
 20
336.5219136830439
  0
ARC
  5
3242
102
{ACAD_REACTORS
330
3232
102
}
330
106E
100
AcDbEntity
  8
STEMPEL
100
AcDbCircle
 10
413.7067872224202
 20
322.1139777811364
 30
0.0
 40
18.8
100
AcDbArc
 50
87.00000000000009
 51
102.1858372622027
  0
ARC
  5
3243
102
{ACAD_REACTORS
330
3232
102
}
330
106E
100
AcDbEntity
  8
STEMPEL
100
AcDbCircle
 10
413.7067872224202
 20
322.1139777811364
 30
0.0
 40
20.0
100
AcDbArc
 50
87.00000000000009
 51
102.1858372622027
  0
LINE
  5
3244
330
106E
100
AcDbEntity
  8
HILF
100
AcDbLine
 10
794.1055680355812
 20
251.5178619204851
 30
0.0
 11
797.6739206600669
 21
319.6060860983226
 31
0.0
  0
LINE
  5
3245
102
{ACAD_REACTORS
330
3232
102
}
330
106E
100
AcDbEntity
  8
STEMPEL
100
AcDbLine
 10
803.0083569835428
 20
249.4272912548534
 30
0.0
 11
806.7464633376884
 21
320.7546095515817
 31
0.0
  0
LINE
  5
3246
102
{ACAD_REACTORS
330
3232
102
}
330
106E
100
AcDbEntity
  8
STEMPEL
100
AcDbLine
 10
793.9899637639059
 20
250.3130934772031
 30
0.0
 11
803.0714000288549
 21
250.6302242196653
 31
0.0
  0
LINE
  5
3247
102
{ACAD_REACTORS
330
3232
102
}
330
106E
100
AcDbEntity
  8
STEMPEL
100
AcDbLine
 10
793.9794819449568
 20
249.1119959908612
 30
0.0
 11
803.0083569835428
 21
249.4272912548534
 31
0.0
  0
LINE
  5
3248
102
{ACAD_REACTORS
330
3232
102
}
330
106E
100
AcDbEntity
  8
STEMPEL
100
AcDbLine
 10
797.6329990295393
 20
320.8236303454567
 30
0.0
 11
806.6834202923764
 21
319.5516765867698
 31
0.0
  0
LINE
  5
3249
102
{ACAD_REACTORS
330
3232
102
}
330
106E
100
AcDbEntity
  8
STEMPEL
100
AcDbLine
 10
797.8000067506914
 20
322.0119520279466
 30
0.0
 11
806.7464633376884
 21
320.7546095515817
 31
0.0
  0
LINE
  5
324A
102
{ACAD_REACTORS
330
3256
102
}
330
106E
100
AcDbEntity
  8
STEMPEL
100
AcDbLine
 10
146.877410160615
 20
282.9999999999998
 30
0.0
 11
328.877410160615
 21
282.9999999999998
 31
0.0
  0
LINE
  5
324B
330
106E
100
AcDbEntity
  8
STEMPEL
100
AcDbLine
 10
146.877410160615
 20
284.4999999999998
 30
0.0
 11
328.877410160615
 21
284.4999999999998
 31
0.0
  0
HATCH
  5
324C
330
106E
100
AcDbEntity
  8
SCHRAFF
100
AcDbHatch
 10
0.0
 20
0.0
 30
0.0
210
0.0
220
0.0
230
1.0
  2
_USER
 70
     0
 71
     0
 91
        2
 92
        7
 72
     0
 73
     1
 93
        4
 10
345.6274101606152
 20
337.9999999999999
 10
341.6274101606152
 20
337.9999999999999
 10
341.627410160615
 20
336.4999999999998
 10
345.627410160615
 20
336.4999999999998
 97
        0
 92
        7
 72
     1
 73
     1
 93
       12
 10
328.8774101606149
 20
284.4999999999998
 42
0.0
 10
146.877410160615
 20
284.4999999999998
 42
-0.4142135623730951
 10
139.377410160615
 20
291.9999999999998
 42
0.0
 10
139.377410160615
 20
329.4999999999998
 42
0.4142135623730951
 10
130.877410160615
 20
337.9999999999999
 42
0.0
 10
130.127410160615
 20
337.9999999999999
 42
0.0
 10
130.127410160615
 20
336.4999999999998
 42
0.0
 10
130.877410160615
 20
336.4999999999998
 42
-0.4142135623730927
 10
137.877410160615
 20
329.4999999999998
 42
0.0
 10
137.877410160615
 20
291.9999999999998
 42
0.4142135623730951
 10
146.877410160615
 20
282.9999999999998
 42
0.0
 10
328.877410160615
 20
282.9999999999998
 42
0.0
 97
        0
 75
     0
 76
     0
 52
45.0
 41
2.0
 77
     0
 78
     1
 53
45.0
 43
-329.0791590353062
 44
-175.6180832652352
 45
-1.414213562373094
 46
1.414213562373095
 79
     0
 47
0.2170226535082145
 98
        2
 10
343.5487999381814
 20
336.8553689761307
 10
303.8182246581857
 20
283.9018402031764
  0
ARC
  5
324D
102
{ACAD_REACTORS
330
3232
102
}
330
106E
100
AcDbEntity
  8
STEMPEL
100
AcDbCircle
 10
370.4033494596192
 20
262.3984665723352
 30
0.0
 40
18.4
100
AcDbArc
 50
71.81416273779679
 51
87.00000000000009
  0
LINE
  5
324E
102
{ACAD_REACTORS
330
3232
102
}
330
106E
100
AcDbEntity
  8
STEMPEL
100
AcDbLine
 10
328.9402133081066
 20
284.1983554417053
 30
0.0
 11
371.4291342019806
 21
281.9716054535249
 31
0.0
  0
LINE
  5
324F
102
{ACAD_REACTORS
330
3232
102
}
330
106E
100
AcDbEntity
  8
STEMPEL
100
AcDbLine
 10
331.6407486502426
 20
335.7276394350415
 30
0.0
 11
374.1296695441165
 21
333.5008894468604
 31
0.0
  0
LINE
  5
3250
102
{ACAD_REACTORS
330
3232
330
3256
102
}
330
106E
100
AcDbEntity
  8
STEMPEL
100
AcDbLine
 10
328.8774101606152
 20
282.9999999999998
 30
0.0
 11
371.3663310544891
 21
280.7732500118194
 31
0.0
  0
LINE
  5
3251
102
{ACAD_REACTORS
330
3232
102
}
330
106E
100
AcDbEntity
  8
STEMPEL
100
AcDbLine
 10
331.7035517977342
 20
336.925994876747
 30
0.0
 11
374.1924726916082
 21
334.6992448885658
 31
0.0
  0
LINE
  5
3252
330
106E
100
AcDbEntity
  8
VERDECKT
100
AcDbLine
 10
336.377410160615
 20
329.4999999999998
 30
0.0
 11
336.377410160615
 21
291.9999999999998
 31
0.0
  0
LINE
  5
3253
330
106E
100
AcDbEntity
  8
VERDECKT
100
AcDbLine
 10
337.877410160615
 20
329.4999999999998
 30
0.0
 11
337.877410160615
 21
291.9999999999998
 31
0.0
  0
LINE
  5
3254
102
{ACAD_REACTORS
330
3232
102
}
330
106E
100
AcDbEntity
  8
STEMPEL
100
AcDbLine
 10
328.877410160615
 20
283.0
 30
0.0
 11
331.7035517977338
 21
336.925994876747
 31
0.0
  0
ARC
  5
3255
330
106E
100
AcDbEntity
  8
VERDECKT
100
AcDbCircle
 10
328.877410160615
 20
291.9999999999998
 30
0.0
 40
9.0
100
AcDbArc
 50
270.0
 51
0.0
  0
HATCH
  5
3256
330
106E
100
AcDbEntity
  8
SCHRAFF
100
AcDbHatch
 10
0.0
 20
0.0
 30
0.0
210
0.0
220
0.0
230
1.0
  2
_USER
 70
     0
 71
     1
 91
        1
 92
        7
 72
     1
 73
     1
 93
        3
 10
331.8732987648787
 20
282.842992131271
 42
0.0
 10
328.8774101606168
 20
282.9999999999997
 42
0.0
 10
325.8774101606152
 20
282.9999999999997
 42
0.617377650868391
 97
        3
330
3250
330
324A
330
3257
 75
     0
 76
     0
 52
0.0
 41
0.1
 77
     0
 78
     1
 53
0.0
 43
0.0
 44
-109.1614526834382
 45
0.0
 46
0.1
 79
     0
 47
0.0088249133372464
 98
        1
 10
328.5184156590865
 20
282.0952976052734
  0
ARC
  5
3257
102
{ACAD_REACTORS
330
3256
102
}
330
106E
100
AcDbEntity
  8
SCHRAFF
100
AcDbCircle
 10
328.914699711425
 20
284.4240304933107
 30
0.0
 40
3.354547758094686
100
AcDbArc
 50
205.1194901845567
 51
331.8805098154441
  0
ARC
  5
3258
330
106E
100
AcDbEntity
  8
VERDECKT
100
AcDbCircle
 10
328.877410160615
 20
291.9999999999998
 30
0.0
 40
7.5
100
AcDbArc
 50
270.6007249597689
 51
0.0
  0
ARC
  5
3259
330
106E
100
AcDbEntity
  8
STEMPEL
100
AcDbCircle
 10
328.877410160615
 20
291.9999999999998
 30
0.0
 40
7.5
100
AcDbArc
 50
270.0
 51
270.6007249597689
  0
LINE
  5
325A
330
106E
100
AcDbEntity
  8
STEMPEL
100
AcDbLine
 10
328.8774101606149
 20
284.4999999999998
 30
0.0
 11
328.877410160615
 21
282.9999999999998
 31
0.0
  0
ARC
  5
325B
330
106E
100
AcDbEntity
  8
VERDECKT
100
AcDbCircle
 10
344.877410160615
 20
329.4999999999998
 30
0.0
 40
7.0
100
AcDbArc
 50
103.0734957332557
 51
180.0
  0
ARC
  5
325C
330
106E
100
AcDbEntity
  8
VERDECKT
100
AcDbCircle
 10
344.877410160615
 20
329.4999999999998
 30
0.0
 40
8.5
100
AcDbArc
 50
124.689512820437
 51
180.0
  0
HATCH
  5
325D
330
106E
100
AcDbEntity
  8
SCHRAFF
100
AcDbHatch
 10
0.0
 20
0.0
 30
0.0
210
0.0
220
0.0
230
1.0
  2
_USER
 70
     0
 71
     0
 91
        1
 92
        7
 72
     1
 73
     1
 93
        8
 10
347.3403217966766
 20
340.462911636061
 42
0.0
 10
346.546901507852
 20
339.6694913472365
 42
-0.1989123673796576
 10
342.5163928550887
 20
337.9999999999999
 42
0.0
 10
345.6274101606152
 20
337.9999999999999
 42
0.0
 10
345.627410160615
 20
336.4999999999999
 42
0.0
 10
344.877410160615
 20
336.4999999999999
 42
0.0571058406602824
 10
343.294005016636
 20
336.3185649626603
 42
0.0
 10
347.9289128331087
 20
336.0756597368173
 42
0.4404368942692135
 97
        0
 75
     0
 76
     0
 52
0.0
 41
0.1
 77
     0
 78
     1
 53
0.0
 43
0.0
 44
-109.1614526834382
 45
0.0
 46
0.1
 79
     0
 47
0.0312508854491836
 98
        1
 10
346.6148872167175
 20
338.2048516460462
  0
ARC
  5
325E
330
106E
100
AcDbEntity
  8
SCHRAFF
100
AcDbCircle
 10
345.6274101606152
 20
337.9999999999999
 30
0.0
 40
3.0
100
AcDbArc
 50
320.1002148816612
 51
55.18206740315879
  0
ARC
  5
325F
330
106E
100
AcDbEntity
  8
STEMPEL
100
AcDbCircle
 10
344.877410160615
 20
329.4999999999998
 30
0.0
 40
8.5
100
AcDbArc
 50
112.479505609403
 51
124.689512820437
  0
ARC
  5
3260
330
106E
100
AcDbEntity
  8
STEMPEL
100
AcDbCircle
 10
344.877410160615
 20
329.4999999999998
 30
0.0
 40
7.0
100
AcDbArc
 50
90.0
 51
103.0734957332557
  0
LINE
  5
3261
330
106E
100
AcDbEntity
  8
STEMPEL
100
AcDbLine
 10
341.627410160615
 20
336.4999999999998
 30
0.0
 11
345.627410160615
 21
336.4999999999998
 31
0.0
  0
LINE
  5
3262
330
106E
100
AcDbEntity
  8
STEMPEL
100
AcDbLine
 10
345.6274101606152
 20
337.9999999999999
 30
0.0
 11
345.627410160615
 21
336.4999999999998
 31
0.0
  0
LINE
  5
3263
330
106E
100
AcDbEntity
  8
STEMPEL
100
AcDbLine
 10
341.6274101606152
 20
337.9999999999999
 30
0.0
 11
341.627410160615
 21
336.4999999999998
 31
0.0
  0
ARC
  5
3264
330
106E
100
AcDbEntity
  8
HILF
100
AcDbCircle
 10
450.1486480029898
 20
303.6814970757192
 30
0.0
 40
80.94787580997081
100
AcDbArc
 50
162.4032761251203
 51
191.5967238748804
  0
ARC
  5
3265
102
{ACAD_REACTORS
330
3232
102
}
330
106E
100
AcDbEntity
  8
STEMPEL
100
AcDbCircle
 10
370.4033494596192
 20
262.3984665723352
 30
0.0
 40
19.6
100
AcDbArc
 50
71.81416273779679
 51
87.00000000000009
  0
ARC
  5
3266
102
{ACAD_REACTORS
330
3232
102
}
330
106E
100
AcDbEntity
  8
STEMPEL
100
AcDbCircle
 10
375.1554542864785
 20
353.07402832805
 30
0.0
 40
19.6
100
AcDbArc
 50
267.0000000000001
 51
282.1858372622027
  0
ARC
  5
3267
102
{ACAD_REACTORS
330
3232
102
}
330
106E
100
AcDbEntity
  8
STEMPEL
100
AcDbCircle
 10
375.1554542864785
 20
353.07402832805
 30
0.0
 40
18.4
100
AcDbArc
 50
267.0000000000001
 51
282.1858372622027
  0
LINE
  5
3268
330
106E
100
AcDbEntity
  8
STEMPEL
100
AcDbLine
 10
139.377410160615
 20
329.4999999999998
 30
0.0
 11
139.377410160615
 21
291.9999999999998
 31
0.0
  0
LINE
  5
3269
330
106E
100
AcDbEntity
  8
STEMPEL
100
AcDbLine
 10
137.877410160615
 20
329.4999999999998
 30
0.0
 11
137.877410160615
 21
291.9999999999998
 31
0.0
  0
ARC
  5
326A
330
106E
100
AcDbEntity
  8
STEMPEL
100
AcDbCircle
 10
146.877410160615
 20
291.9999999999998
 30
0.0
 40
7.5
100
AcDbArc
 50
180.0
 51
270.0
  0
ARC
  5
326B
330
106E
100
AcDbEntity
  8
STEMPEL
100
AcDbCircle
 10
146.877410160615
 20
291.9999999999998
 30
0.0
 40
9.0
100
AcDbArc
 50
180.0
 51
270.0
  0
ARC
  5
326C
330
106E
100
AcDbEntity
  8
STEMPEL
100
AcDbCircle
 10
130.877410160615
 20
329.4999999999998
 30
0.0
 40
8.5
100
AcDbArc
 50
0.0
 51
90.0
  0
ARC
  5
326D
330
106E
100
AcDbEntity
  8
STEMPEL
100
AcDbCircle
 10
130.877410160615
 20
329.4999999999998
 30
0.0
 40
7.0
100
AcDbArc
 50
0.0
 51
90.0
  0
HATCH
  5
326E
330
106E
100
AcDbEntity
  8
SCHRAFF
100
AcDbHatch
 10
0.0
 20
0.0
 30
0.0
210
0.0
220
0.0
230
1.0
  2
_USER
 70
     0
 71
     0
 91
        1
 92
        7
 72
     1
 73
     1
 93
        5
 10
130.127410160615
 20
337.9999999999999
 42
0.0
 10
127.127410160615
 20
337.9999999999999
 42
0.734465937778328
 10
132.590381300032
 20
336.287173924066
 42
0.0618840054865189
 10
130.877410160615
 20
336.4999999999998
 42
0.0
 10
130.127410160615
 20
336.4999999999998
 42
0.0
 97
        0
 75
     0
 76
     0
 52
0.0
 41
0.1
 77
     0
 78
     1
 53
0.0
 43
0.0
 44
-109.1614526834382
 45
0.0
 46
0.1
 79
     0
 47
0.0125997266976881
 98
        1
 10
129.9053787387547
 20
336.4964834796274
  0
ARC
  5
326F
330
106E
100
AcDbEntity
  8
SCHRAFF
100
AcDbCircle
 10
130.127410160615
 20
337.9999999999999
 30
0.0
 40
3.0
100
AcDbArc
 50
180.0
 51
325.1840578013947
  0
LINE
  5
3270
330
106E
100
AcDbEntity
  8
STEMPEL
100
AcDbLine
 10
130.127410160615
 20
336.4999999999998
 30
0.0
 11
130.877410160615
 21
336.4999999999998
 31
0.0
  0
LINE
  5
3271
330
106E
100
AcDbEntity
  8
STEMPEL
100
AcDbLine
 10
130.127410160615
 20
337.9999999999999
 30
0.0
 11
130.127410160615
 21
336.4999999999998
 31
0.0
  0
ENDSEC
  0
SECTION
  2
OBJECTS
  0
DICTIONARY
  5
105C
330
0
100
AcDbDictionary
281
     1
  3
ACAD_COLOR
350
16CF
  3
ACAD_GROUP
350
105D
  3
ACAD_LAYOUT
350
1069
  3
ACAD_MATERIAL
350
16CE
  3
ACAD_MLINESTYLE
350
1066
  3
ACAD_PLOTSETTINGS
350
1068
  3
ACAD_PLOTSTYLENAME
350
105E
  3
AcDbVariableDictionary
350
1114
  0
DICTIONARY
  5
21FF
330
1052
100
AcDbDictionary
280
     1
281
     1
  3
ACAD_LAYERSTATES
360
2200
  0
DICTIONARY
  5
1232
330
106E
100
AcDbDictionary
280
     1
281
     1
  3
ACAD_LAYOUTSELFREF
360
167B
  0
DICTIONARY
  5
1234
330
106A
100
AcDbDictionary
280
     1
281
     1
  3
ACAD_LAYOUTSELFREF
360
167A
  0
DICTIONARY
  5
16CF
102
{ACAD_REACTORS
330
105C
102
}
330
105C
100
AcDbDictionary
281
     1
  0
DICTIONARY
  5
105D
102
{ACAD_REACTORS
330
105C
102
}
330
105C
100
AcDbDictionary
281
     1
  0
DICTIONARY
  5
1069
102
{ACAD_REACTORS
330
105C
102
}
330
105C
100
AcDbDictionary
281
     1
  3
Layout1
350
106D
  3
Model
350
1071
  0
DICTIONARY
  5
16CE
102
{ACAD_REACTORS
330
105C
102
}
330
105C
100
AcDbDictionary
281
     1
  0
DICTIONARY
  5
1066
102
{ACAD_REACTORS
330
105C
102
}
330
105C
100
AcDbDictionary
281
     1
  3
Standard
350
1067
  0
DICTIONARY
  5
1068
102
{ACAD_REACTORS
330
105C
102
}
330
105C
100
AcDbDictionary
281
     1
  0
ACDBDICTIONARYWDFLT
  5
105E
102
{ACAD_REACTORS
330
105C
102
}
330
105C
100
AcDbDictionary
281
     1
  3
Normal
350
105F
100
AcDbDictionaryWithDefault
340
105F
  0
DICTIONARY
  5
1114
102
{ACAD_REACTORS
330
105C
102
}
330
105C
100
AcDbDictionary
281
     1
  3
DIMASSOC
350
1A5D
  3
PROJECTNAME
350
1A5E
  3
SORTENTS
350
1115
  0
DICTIONARY
  5
2200
102
{ACAD_REACTORS
330
21FF
102
}
330
21FF
100
AcDbDictionary
281
     1
  0
XRECORD
  5
167B
102
{ACAD_REACTORS
330
1232
102
}
330
1232
100
AcDbXrecord
280
     1
340
106E
  0
XRECORD
  5
167A
102
{ACAD_REACTORS
330
1234
102
}
330
1234
100
AcDbXrecord
280
     1
340
106A
  0
LAYOUT
  5
106D
102
{ACAD_REACTORS
330
1069
102
}
330
1069
100
AcDbPlotSettings
  1

  2
\\NT_WORK01\HP LaserJet 5000 PCL 6
  4

  6

 40
0.0
 41
0.0
 42
0.0
 43
0.0
 44
0.0
 45
0.0
 46
0.0
 47
0.0
 48
0.0
 49
0.0
140
0.0
141
0.0
142
1.0
143
1.0
 70
   688
 72
     0
 73
     0
 74
     5
  7
monochrome.ctb
 75
    16
147
1.0
 76
     0
 77
     2
 78
   300
148
0.0
149
0.0
100
AcDbLayout
  1
Layout1
 70
     0
 71
     1
 10
0.0
 20
0.0
 11
12.0
 21
9.0
 12
0.0
 22
0.0
 32
0.0
 14
1.000000000000000E+20
 24
1.000000000000000E+20
 34
1.000000000000000E+20
 15
-1.000000000000000E+20
 25
-1.000000000000000E+20
 35
-1.000000000000000E+20
146
0.0
 13
0.0
 23
0.0
 33
0.0
 16
1.0
 26
0.0
 36
0.0
 17
0.0
 27
1.0
 37
0.0
 76
     0
330
106A
  0
LAYOUT
  5
1071
102
{ACAD_REACTORS
330
1069
102
}
330
1069
100
AcDbPlotSettings
  1

  2
none_device
  4
Letter_(8.50_x_11.00_Inches)
  6

 40
6.349999904632568
 41
6.349999904632568
 42
6.350006103515625
 43
6.350006103515625
 44
215.8999938964844
 45
279.3999938964844
 46
0.0
 47
0.0
 48
0.0
 49
0.0
140
0.0
141
0.0
142
1.0
143
1.0
 70
 11952
 72
     0
 73
     1
 74
     0
  7

 75
     0
147
1.0
 76
     0
 77
     2
 78
   300
148
-3034.281979024021
149
89.91803552416191
100
AcDbLayout
  1
Model
 70
     1
 71
     0
 10
0.0
 20
0.0
 11
12.0
 21
9.0
 12
0.0
 22
0.0
 32
0.0
 14
0.0
 24
0.0
 34
0.0
 15
0.0
 25
0.0
 35
0.0
146
0.0
 13
0.0
 23
0.0
 33
0.0
 16
1.0
 26
0.0
 36
0.0
 17
0.0
 27
1.0
 37
0.0
 76
     0
330
106E
  0
MLINESTYLE
  5
1067
102
{ACAD_REACTORS
330
1066
102
}
330
1066
100
AcDbMlineStyle
  2
STANDARD
 70
     0
  3

 62
   256
 51
90.0
 52
90.0
 71
     2
 49
0.5
 62
   256
  6
BYLAYER
 49
-0.5
 62
   256
  6
BYLAYER
  0
ACDBPLACEHOLDER
  5
105F
102
{ACAD_REACTORS
330
105E
102
}
330
105E
  0
DICTIONARYVAR
  5
1A5D
102
{ACAD_REACTORS
330
1114
102
}
330
1114
100
DictionaryVariables
280
     0
  1
1
  0
DICTIONARYVAR
  5
1A5E
102
{ACAD_REACTORS
330
1114
102
}
330
1114
100
DictionaryVariables
280
     0
  1

  0
DICTIONARYVAR
  5
1115
102
{ACAD_REACTORS
330
1114
102
}
330
1114
100
DictionaryVariables
280
     0
  1
96
  0
ENDSEC
  0
EOF
