  0
SECTION
  2
HEADER
  9
$ACADVER
  1
AC1018
  9
$ACADMAINTVER
 70
     2
  9
$DWGCODEPAGE
  3
ANSI_1252
  9
$INSBASE
 10
0.0
 20
0.0
 30
0.0
  9
$EXTMIN
 10
-0.0255946693534952
 20
-0.0180990876151555
 30
-0.0000000000000053
  9
$EXTMAX
 10
840.0256543247728
 20
594.0181412725166
 30
0.0000000000000099
  9
$LIMMIN
 10
0.0
 20
0.0
  9
$LIMMAX
 10
839.9999999999998
 20
594.0000000000001
  9
$ORTHOMODE
 70
     1
  9
$REGENMODE
 70
     1
  9
$FILLMODE
 70
     1
  9
$QTEXTMODE
 70
     0
  9
$MIRRTEXT
 70
     1
  9
$LTSCALE
 40
20.0
  9
$ATTMODE
 70
     1
  9
$TEXTSIZE
 40
2.5
  9
$TRACEWID
 40
0.5
  9
$TEXTSTYLE
  7
GREEKS
  9
$CLAYER
  8
BEM
  9
$CELTYPE
  6
ByLayer
  9
$CECOLOR
 62
   256
  9
$CELTSCALE
 40
1.0
  9
$DISPSILH
 70
     0
  9
$DIMSCALE
 40
2.0
  9
$DIMASZ
 40
3.5
  9
$DIMEXO
 40
1.0
  9
$DIMDLI
 40
1.0
  9
$DIMRND
 40
0.0
  9
$DIMDLE
 40
0.0
  9
$DIMEXE
 40
1.0
  9
$DIMTP
 40
0.0
  9
$DIMTM
 40
0.0
  9
$DIMTXT
 40
3.5
  9
$DIMCEN
 40
0.09
  9
$DIMTSZ
 40
0.0
  9
$DIMTOL
 70
     0
  9
$DIMLIM
 70
     0
  9
$DIMTIH
 70
     0
  9
$DIMTOH
 70
     0
  9
$DIMSE1
 70
     0
  9
$DIMSE2
 70
     0
  9
$DIMTAD
 70
     1
  9
$DIMZIN
 70
     8
  9
$DIMBLK
  1

  9
$DIMASO
 70
     1
  9
$DIMSHO
 70
     0
  9
$DIMPOST
  1

  9
$DIMAPOST
  1

  9
$DIMALT
 70
     0
  9
$DIMALTD
 70
     2
  9
$DIMALTF
 40
25.4
  9
$DIMLFAC
 40
1.0
  9
$DIMTOFL
 70
     1
  9
$DIMTVP
 40
0.0
  9
$DIMTIX
 70
     0
  9
$DIMSOXD
 70
     0
  9
$DIMSAH
 70
     0
  9
$DIMBLK1
  1

  9
$DIMBLK2
  1

  9
$DIMSTYLE
  2
STANDARD
  9
$DIMCLRD
 70
   256
  9
$DIMCLRE
 70
     0
  9
$DIMCLRT
 70
     1
  9
$DIMTFAC
 40
0.5142857142857144
  9
$DIMGAP
 40
1.199999999999999
  9
$DIMJUST
 70
     0
  9
$DIMSD1
 70
     0
  9
$DIMSD2
 70
     0
  9
$DIMTOLJ
 70
     1
  9
$DIMTZIN
 70
     0
  9
$DIMALTZ
 70
     0
  9
$DIMALTTZ
 70
     0
  9
$DIMUPT
 70
     0
  9
$DIMDEC
 70
     2
  9
$DIMTDEC
 70
     2
  9
$DIMALTU
 70
     2
  9
$DIMALTTD
 70
     2
  9
$DIMTXSTY
  7
GREEKS
  9
$DIMAUNIT
 70
     0
  9
$DIMADEC
 70
     0
  9
$DIMALTRND
 40
0.0
  9
$DIMAZIN
 70
     2
  9
$DIMDSEP
 70
    46
  9
$DIMATFIT
 70
     3
  9
$DIMFRAC
 70
     0
  9
$DIMLDRBLK
  1

  9
$DIMLUNIT
 70
     2
  9
$DIMLWD
 70
    -1
  9
$DIMLWE
 70
    -2
  9
$DIMTMOVE
 70
     0
  9
$LUNITS
 70
     2
  9
$LUPREC
 70
     2
  9
$SKETCHINC
 40
1.0
  9
$FILLETRAD
 40
5.0
  9
$AUNITS
 70
     0
  9
$AUPREC
 70
     0
  9
$MENU
  1
ACAD
  9
$ELEVATION
 40
0.0
  9
$PELEVATION
 40
0.0
  9
$THICKNESS
 40
0.0
  9
$LIMCHECK
 70
     0
  9
$CHAMFERA
 40
0.0
  9
$CHAMFERB
 40
0.0
  9
$CHAMFERC
 40
0.0
  9
$CHAMFERD
 40
0.0
  9
$SKPOLY
 70
     0
  9
$TDCREATE
 40
2452806.236912291
  9
$TDUCREATE
 40
2452806.153578959
  9
$TDUPDATE
 40
2455453.556861968
  9
$TDUUPDATE
 40
2455453.473528634
  9
$TDINDWG
 40
0.2189806366
  9
$TDUSRTIMER
 40
0.2189806366
  9
$USRTIMER
 70
     1
  9
$ANGBASE
 50
0.0
  9
$ANGDIR
 70
     0
  9
$PDMODE
 70
     0
  9
$PDSIZE
 40
0.0
  9
$PLINEWID
 40
0.0
  9
$SPLFRAME
 70
     0
  9
$SPLINETYPE
 70
     6
  9
$SPLINESEGS
 70
     8
  9
$HANDSEED
  5
1CD1
  9
$SURFTAB1
 70
     6
  9
$SURFTAB2
 70
     6
  9
$SURFTYPE
 70
     6
  9
$SURFU
 70
     6
  9
$SURFV
 70
     6
  9
$UCSBASE
  2

  9
$UCSNAME
  2

  9
$UCSORG
 10
0.0
 20
0.0
 30
0.0
  9
$UCSXDIR
 10
1.0
 20
0.0
 30
0.0
  9
$UCSYDIR
 10
0.0
 20
1.0
 30
0.0
  9
$UCSORTHOREF
  2

  9
$UCSORTHOVIEW
 70
     0
  9
$UCSORGTOP
 10
0.0
 20
0.0
 30
0.0
  9
$UCSORGBOTTOM
 10
0.0
 20
0.0
 30
0.0
  9
$UCSORGLEFT
 10
0.0
 20
0.0
 30
0.0
  9
$UCSORGRIGHT
 10
0.0
 20
0.0
 30
0.0
  9
$UCSORGFRONT
 10
0.0
 20
0.0
 30
0.0
  9
$UCSORGBACK
 10
0.0
 20
0.0
 30
0.0
  9
$PUCSBASE
  2

  9
$PUCSNAME
  2

  9
$PUCSORG
 10
0.0
 20
0.0
 30
0.0
  9
$PUCSXDIR
 10
1.0
 20
0.0
 30
0.0
  9
$PUCSYDIR
 10
0.0
 20
1.0
 30
0.0
  9
$PUCSORTHOREF
  2

  9
$PUCSORTHOVIEW
 70
     0
  9
$PUCSORGTOP
 10
0.0
 20
0.0
 30
0.0
  9
$PUCSORGBOTTOM
 10
0.0
 20
0.0
 30
0.0
  9
$PUCSORGLEFT
 10
0.0
 20
0.0
 30
0.0
  9
$PUCSORGRIGHT
 10
0.0
 20
0.0
 30
0.0
  9
$PUCSORGFRONT
 10
0.0
 20
0.0
 30
0.0
  9
$PUCSORGBACK
 10
0.0
 20
0.0
 30
0.0
  9
$USERI1
 70
     0
  9
$USERI2
 70
     0
  9
$USERI3
 70
     0
  9
$USERI4
 70
     0
  9
$USERI5
 70
     0
  9
$USERR1
 40
0.0
  9
$USERR2
 40
0.0
  9
$USERR3
 40
0.0
  9
$USERR4
 40
0.0
  9
$USERR5
 40
0.0
  9
$WORLDVIEW
 70
     1
  9
$SHADEDGE
 70
     3
  9
$SHADEDIF
 70
    70
  9
$TILEMODE
 70
     1
  9
$MAXACTVP
 70
    16
  9
$PINSBASE
 10
0.0
 20
0.0
 30
0.0
  9
$PLIMCHECK
 70
     0
  9
$PEXTMIN
 10
1.000000000000000E+20
 20
1.000000000000000E+20
 30
1.000000000000000E+20
  9
$PEXTMAX
 10
-1.000000000000000E+20
 20
-1.000000000000000E+20
 30
-1.000000000000000E+20
  9
$PLIMMIN
 10
0.0
 20
0.0
  9
$PLIMMAX
 10
12.0
 20
9.0
  9
$UNITMODE
 70
     0
  9
$VISRETAIN
 70
     0
  9
$PLINEGEN
 70
     0
  9
$PSLTSCALE
 70
     0
  9
$TREEDEPTH
 70
  3020
  9
$CMLSTYLE
  2
Standard
  9
$CMLJUST
 70
     0
  9
$CMLSCALE
 40
1.0
  9
$PROXYGRAPHICS
 70
     1
  9
$MEASUREMENT
 70
     0
  9
$CELWEIGHT
370
    -1
  9
$ENDCAPS
280
     0
  9
$JOINSTYLE
280
     0
  9
$LWDISPLAY
290
     0
  9
$INSUNITS
 70
     0
  9
$HYPERLINKBASE
  1

  9
$STYLESHEET
  1
monochrome 1.ctb
  9
$XEDIT
290
     1
  9
$CEPSNTYPE
380
     0
  9
$PSTYLEMODE
290
     1
  9
$FINGERPRINTGUID
  2
{CF1A4752-A575-11D7-B632-000102183313}
  9
$VERSIONGUID
  2
{BC012939-EB65-40F9-A688-05EB29ACBFC2}
  9
$EXTNAMES
290
     1
  9
$PSVPSCALE
 40
0.0
  9
$OLESTARTUP
290
     0
  9
$SORTENTS
280
    96
  9
$INDEXCTL
280
     0
  9
$HIDETEXT
280
     0
  9
$XCLIPFRAME
290
     0
  9
$HALOGAP
280
     0
  9
$OBSCOLOR
 70
   257
  9
$OBSLTYPE
280
     0
  9
$INTERSECTIONDISPLAY
280
     0
  9
$INTERSECTIONCOLOR
 70
   257
  9
$DIMASSOC
280
     1
  9
$PROJECTNAME
  1

  0
ENDSEC
  0
SECTION
  2
CLASSES
  0
CLASS
  1
ACDBDICTIONARYWDFLT
  2
AcDbDictionaryWithDefault
  3
ObjectDBX Classes
 90
        0
 91
        1
280
     0
281
     0
  0
CLASS
  1
DICTIONARYVAR
  2
AcDbDictionaryVar
  3
ObjectDBX Classes
 90
        0
 91
        3
280
     0
281
     0
  0
ENDSEC
  0
SECTION
  2
TABLES
  0
TABLE
  2
VPORT
  5
1058
330
0
100
AcDbSymbolTable
 70
     2
  0
VPORT
  5
1CD0
330
1058
100
AcDbSymbolTableRecord
100
AcDbViewportTableRecord
  2
*Active
 70
     0
 10
0.0
 20
0.0
 11
1.0
 21
1.0
 12
420.0000298277098
 22
297.0000210924508
 13
0.0
 23
0.0
 14
1.0
 24
1.0
 15
10.0
 25
10.0
 16
0.0
 26
0.0
 36
1.0
 17
0.0
 27
0.0
 37
0.0
 40
632.1401424870388
 41
1.336927223719676
 42
50.0
 43
0.0
 44
0.0
 50
0.0
 51
0.0
 71
     0
 72
  1500
 73
     1
 74
     0
 75
     0
 76
     0
 77
     0
 78
     0
281
     0
 65
     1
110
0.0
120
0.0
130
0.0
111
1.0
121
0.0
131
0.0
112
0.0
122
1.0
132
0.0
 79
     0
146
0.0
  0
ENDTAB
  0
TABLE
  2
LTYPE
  5
1055
330
0
100
AcDbSymbolTable
 70
     3
  0
LTYPE
  5
1063
330
1055
100
AcDbSymbolTableRecord
100
AcDbLinetypeTableRecord
  2
ByBlock
 70
     0
  3

 72
    65
 73
     0
 40
0.0
  0
LTYPE
  5
1064
330
1055
100
AcDbSymbolTableRecord
100
AcDbLinetypeTableRecord
  2
ByLayer
 70
     0
  3

 72
    65
 73
     0
 40
0.0
  0
LTYPE
  5
1065
330
1055
100
AcDbSymbolTableRecord
100
AcDbLinetypeTableRecord
  2
AUSGEZOGEN
 70
     0
  3
Ausgezogene Linie
 72
    65
 73
     0
 40
0.0
  0
LTYPE
  5
1088
330
1055
100
AcDbSymbolTableRecord
100
AcDbLinetypeTableRecord
  2
STRICHPUNKT
 70
     0
  3
__ . __ . __ . __ . __ . __ . __ . __ . __ . __
 72
    65
 73
     4
 40
1.0
 49
0.5
 74
     0
 49
-0.25
 74
     0
 49
0.0
 74
     0
 49
-0.25
 74
     0
  0
LTYPE
  5
1089
330
1055
100
AcDbSymbolTableRecord
100
AcDbLinetypeTableRecord
  2
CONTINUOUS
 70
     0
  3
Solid line
 72
    65
 73
     0
 40
0.0
  0
ENDTAB
  0
TABLE
  2
LAYER
  5
1052
330
0
100
AcDbSymbolTable
 70
     9
  0
LAYER
  5
1060
330
1052
100
AcDbSymbolTableRecord
100
AcDbLayerTableRecord
  2
0
 70
     0
 62
     7
  6
AUSGEZOGEN
370
    -3
390
105F
  0
LAYER
  5
108D
330
1052
100
AcDbSymbolTableRecord
100
AcDbLayerTableRecord
  2
VOLL
 70
     0
 62
     1
  6
AUSGEZOGEN
370
    -3
390
105F
  0
LAYER
  5
108E
330
1052
100
AcDbSymbolTableRecord
100
AcDbLayerTableRecord
  2
HILF
 70
     0
 62
     2
  6
AUSGEZOGEN
370
    -3
390
105F
  0
LAYER
  5
108F
330
1052
100
AcDbSymbolTableRecord
100
AcDbLayerTableRecord
  2
MITTEL
 70
     0
 62
     2
  6
STRICHPUNKT
370
    -3
390
105F
  0
LAYER
  5
1090
330
1052
100
AcDbSymbolTableRecord
100
AcDbLayerTableRecord
  2
BEM
 70
     0
 62
     7
  6
AUSGEZOGEN
370
    -3
390
105F
  0
LAYER
  5
1091
330
1052
100
AcDbSymbolTableRecord
100
AcDbLayerTableRecord
  2
STEMPEL
 70
     0
 62
     3
  6
AUSGEZOGEN
370
    -3
390
105F
  0
LAYER
  5
1092
330
1052
100
AcDbSymbolTableRecord
100
AcDbLayerTableRecord
  2
TEXT
 70
     0
 62
     7
  6
AUSGEZOGEN
370
    -3
390
105F
  0
LAYER
  5
1093
330
1052
100
AcDbSymbolTableRecord
100
AcDbLayerTableRecord
  2
SCHRAFF
 70
     0
 62
     7
  6
AUSGEZOGEN
370
    -3
390
105F
  0
LAYER
  5
1094
330
1052
100
AcDbSymbolTableRecord
100
AcDbLayerTableRecord
  2
DEFPOINTS
 70
     0
 62
     7
  6
AUSGEZOGEN
290
     0
370
    -3
390
105F
  0
ENDTAB
  0
TABLE
  2
STYLE
  5
1053
330
0
100
AcDbSymbolTable
 70
     2
  0
STYLE
  5
1061
330
1053
100
AcDbSymbolTableRecord
100
AcDbTextStyleTableRecord
  2
STANDARD
 70
     0
 40
0.0
 41
1.0
 50
0.0
 71
     0
 42
3.5
  3
txt
  4

  0
STYLE
  5
1087
330
1053
100
AcDbSymbolTableRecord
100
AcDbTextStyleTableRecord
  2
GREEKS
 70
     0
 40
0.0
 41
0.8
 50
0.0
 71
     0
 42
2.5
  3
SIMPLEX.shx
  4

  0
ENDTAB
  0
TABLE
  2
VIEW
  5
1056
330
0
100
AcDbSymbolTable
 70
     0
  0
ENDTAB
  0
TABLE
  2
UCS
  5
1057
330
0
100
AcDbSymbolTable
 70
     0
  0
ENDTAB
  0
TABLE
  2
APPID
  5
1059
330
0
100
AcDbSymbolTable
 70
     1
  0
APPID
  5
1062
330
1059
100
AcDbSymbolTableRecord
100
AcDbRegAppTableRecord
  2
ACAD
 70
     0
  0
ENDTAB
  0
TABLE
  2
DIMSTYLE
  5
105A
330
0
100
AcDbSymbolTable
 70
     1
100
AcDbDimStyleTable
 71
     1
340
108C
  0
DIMSTYLE
105
108C
102
{ACAD_REACTORS
330
1224
330
1278
330
129C
330
12A9
330
680
330
684
330
1853
330
18B3
330
1BF2
102
}
330
105A
100
AcDbSymbolTableRecord
100
AcDbDimStyleTableRecord
  2
STANDARD
 70
     0
 40
2.0
 41
3.5
 42
1.0
 43
1.0
 44
1.0
 73
     0
 74
     0
 77
     1
 78
     8
 79
     2
140
3.5
146
0.5142857142857144
147
1.199999999999999
172
     1
176
   256
178
     1
271
     2
272
     2
340
1087
371
    -1
  0
ENDTAB
  0
TABLE
  2
BLOCK_RECORD
  5
1051
330
0
100
AcDbSymbolTable
 70
    12
  0
BLOCK_RECORD
  5
106E
102
{ACAD_XDICTIONARY
360
1232
102
}
330
1051
100
AcDbSymbolTableRecord
100
AcDbBlockTableRecord
  2
*Model_Space
340
1071
  0
BLOCK_RECORD
  5
106A
102
{ACAD_XDICTIONARY
360
1234
102
}
330
1051
100
AcDbSymbolTableRecord
100
AcDbBlockTableRecord
  2
*Paper_Space
340
106D
  0
BLOCK_RECORD
  5
1072
330
1051
100
AcDbSymbolTableRecord
100
AcDbBlockTableRecord
  2
LOGO
340
0
102
{BLKREFS
331
322
102
}
  0
BLOCK_RECORD
  5
107B
330
1051
100
AcDbSymbolTableRecord
100
AcDbBlockTableRecord
  2
*X1
340
0
102
{BLKREFS
331
683
102
}
  0
BLOCK_RECORD
  5
107F
330
1051
100
AcDbSymbolTableRecord
100
AcDbBlockTableRecord
  2
*X2
340
0
102
{BLKREFS
331
B49
102
}
  0
BLOCK_RECORD
  5
1225
330
1051
100
AcDbSymbolTableRecord
100
AcDbBlockTableRecord
  2
*D3
340
0
  0
BLOCK_RECORD
  5
1279
330
1051
100
AcDbSymbolTableRecord
100
AcDbBlockTableRecord
  2
*D4
340
0
  0
BLOCK_RECORD
  5
129D
330
1051
100
AcDbSymbolTableRecord
100
AcDbBlockTableRecord
  2
*D5
340
0
  0
BLOCK_RECORD
  5
12AA
330
1051
100
AcDbSymbolTableRecord
100
AcDbBlockTableRecord
  2
*D6
340
0
  0
BLOCK_RECORD
  5
171E
330
1051
100
AcDbSymbolTableRecord
100
AcDbBlockTableRecord
  2
*D7
340
0
  0
BLOCK_RECORD
  5
173C
330
1051
100
AcDbSymbolTableRecord
100
AcDbBlockTableRecord
  2
*D8
340
0
  0
BLOCK_RECORD
  5
1854
330
1051
100
AcDbSymbolTableRecord
100
AcDbBlockTableRecord
  2
*D9
340
0
  0
BLOCK_RECORD
  5
18B4
330
1051
100
AcDbSymbolTableRecord
100
AcDbBlockTableRecord
  2
*D10
340
0
  0
BLOCK_RECORD
  5
1BF3
330
1051
100
AcDbSymbolTableRecord
100
AcDbBlockTableRecord
  2
*D11
340
0
  0
ENDTAB
  0
ENDSEC
  0
SECTION
  2
BLOCKS
  0
BLOCK
  5
1097
330
106E
100
AcDbEntity
  8
0
100
AcDbBlockBegin
  2
*Model_Space
 70
     0
 10
0.0
 20
0.0
 30
0.0
  3
*Model_Space
  1

  0
ENDBLK
  5
1098
330
106E
100
AcDbEntity
  8
0
100
AcDbBlockEnd
  0
BLOCK
  5
1095
330
106A
100
AcDbEntity
 67
     1
  8
0
100
AcDbBlockBegin
  2
*Paper_Space
 70
     0
 10
0.0
 20
0.0
 30
0.0
  3
*Paper_Space
  1

  0
ENDBLK
  5
1096
330
106A
100
AcDbEntity
 67
     1
  8
0
100
AcDbBlockEnd
  0
BLOCK
  5
43
330
1072
100
AcDbEntity
  8
0
100
AcDbBlockBegin
  2
LOGO
 70
     0
 10
0.0
 20
0.0
 30
0.0
  3
LOGO
  1

  0
ARC
  5
44
330
1072
100
AcDbEntity
  8
0
100
AcDbCircle
 10
11.59973089678112
 20
-9.271599258481501
 30
0.0
 40
4.5
100
AcDbArc
 50
270.0
 51
231.0575587310159
  0
LINE
  5
45
330
1072
100
AcDbEntity
  8
0
100
AcDbLine
 10
3.599730896781125
 20
-4.771599258481529
 30
0.0
 11
3.599730896781153
 21
-11.77159925848133
 31
0.0
  0
LINE
  5
46
330
1072
100
AcDbEntity
  8
0
100
AcDbLine
 10
2.599730896781125
 20
-4.771599258481529
 30
0.0
 11
2.599730896781153
 21
-11.77159925848133
 31
0.0
  0
CIRCLE
  5
47
330
1072
100
AcDbEntity
  8
0
100
AcDbCircle
 10
11.59973089678112
 20
-9.271599258481501
 30
0.0
 40
3.5
  0
ARC
  5
48
330
1072
100
AcDbEntity
  8
0
100
AcDbCircle
 10
31.59973089678115
 20
-9.271599258481472
 30
0.0
 40
4.5
100
AcDbArc
 50
270.0
 51
231.0575587310182
  0
LINE
  5
49
330
1072
100
AcDbEntity
  8
0
100
AcDbLine
 10
17.59973089678112
 20
-4.771599258481472
 30
0.0
 11
17.59973089678115
 21
-13.77159925848147
 31
0.0
  0
ARC
  5
4A
330
1072
100
AcDbEntity
  8
0
100
AcDbCircle
 10
22.59973089678116
 20
-7.271599258481472
 30
0.0
 40
2.5
100
AcDbArc
 50
293.1161887722295
 51
90.0
  0
CIRCLE
  5
4B
330
1072
100
AcDbEntity
  8
0
100
AcDbCircle
 10
31.59973089678115
 20
-9.271599258481472
 30
0.0
 40
3.5
  0
ARC
  5
4C
330
1072
100
AcDbEntity
  8
0
100
AcDbCircle
 10
4.599730896781153
 20
-11.77159925848133
 30
0.0
 40
1.0
100
AcDbArc
 50
180.0
 51
270.0
  0
ARC
  5
4D
330
1072
100
AcDbEntity
  8
0
100
AcDbCircle
 10
4.599730896781153
 20
-11.77159925848133
 30
0.0
 40
2.0
100
AcDbArc
 50
179.9999999999992
 51
270.0
  0
LINE
  5
4E
330
1072
100
AcDbEntity
  8
0
100
AcDbLine
 10
11.59973089678115
 20
-13.77159925848144
 30
0.0
 11
4.599730896781153
 21
-13.77159925848147
 31
0.0
  0
LINE
  5
4F
330
1072
100
AcDbEntity
  8
0
100
AcDbLine
 10
8.771303772034769
 20
-12.77159925848136
 30
0.0
 11
4.599730896781153
 21
-12.77159925848133
 31
0.0
  0
LINE
  5
50
330
1072
100
AcDbEntity
  8
0
100
AcDbLine
 10
31.59973089678115
 20
-13.77159925848147
 30
0.0
 11
23.6715276665056
 21
-13.77159925848144
 31
0.0
  0
LINE
  5
51
330
1072
100
AcDbEntity
  8
0
100
AcDbLine
 10
23.56565672307022
 20
-9.51278021337896
 30
0.0
 11
24.4388546544846
 21
-12.77159925848144
 31
0.0
  0
LINE
  5
52
330
1072
100
AcDbEntity
  8
0
100
AcDbLine
 10
22.59973089678116
 20
-9.771599258481472
 30
0.0
 11
18.59973089678112
 21
-9.771599258481472
 31
0.0
  0
LINE
  5
53
330
1072
100
AcDbEntity
  8
0
100
AcDbLine
 10
18.59973089678115
 20
-13.77159925848144
 30
0.0
 11
17.59973089678115
 21
-13.77159925848144
 31
0.0
  0
LINE
  5
54
330
1072
100
AcDbEntity
  8
0
100
AcDbLine
 10
18.59973089678115
 20
-9.771599258481472
 30
0.0
 11
18.59973089678115
 21
-13.77159925848144
 31
0.0
  0
LINE
  5
55
330
1072
100
AcDbEntity
  8
0
100
AcDbLine
 10
22.59973089678116
 20
-9.771599258481472
 30
0.0
 11
23.67152766650562
 21
-13.77159925848147
 31
0.0
  0
ARC
  5
56
330
1072
100
AcDbEntity
  8
0
100
AcDbCircle
 10
22.59973089678116
 20
-7.271599258481472
 30
0.0
 40
2.5
100
AcDbArc
 50
270.0
 51
270.0000000000007
  0
LINE
  5
57
330
1072
100
AcDbEntity
  8
0
100
AcDbLine
 10
28.77130377203494
 20
-12.77159925848147
 30
0.0
 11
24.43885465448463
 21
-12.77159925848144
 31
0.0
  0
LINE
  5
58
330
1072
100
AcDbEntity
  8
0
100
AcDbLine
 10
3.599730896781125
 20
-4.771599258481472
 30
0.0
 11
2.599730896781125
 21
-4.771599258481472
 31
0.0
  0
LINE
  5
59
330
1072
100
AcDbEntity
  8
0
100
AcDbLine
 10
22.59973089678116
 20
-8.771599258481472
 30
0.0
 11
18.59973089678115
 21
-8.771599258481472
 31
0.0
  0
LINE
  5
5A
330
1072
100
AcDbEntity
  8
0
100
AcDbLine
 10
22.59973089678116
 20
-5.771599258481472
 30
0.0
 11
18.59973089678115
 21
-5.771599258481472
 31
0.0
  0
LINE
  5
5B
330
1072
100
AcDbEntity
  8
0
100
AcDbLine
 10
22.59973089678116
 20
-4.771599258481472
 30
0.0
 11
17.59973089678115
 21
-4.771599258481472
 31
0.0
  0
LINE
  5
5C
330
1072
100
AcDbEntity
  8
0
100
AcDbLine
 10
18.59973089678115
 20
-5.771599258481472
 30
0.0
 11
18.59973089678115
 21
-8.771599258481472
 31
0.0
  0
ARC
  5
5D
330
1072
100
AcDbEntity
  8
0
100
AcDbCircle
 10
22.59973089678116
 20
-7.271599258481472
 30
0.0
 40
1.5
100
AcDbArc
 50
270.0
 51
90.0
  0
ENDBLK
  5
5E
330
1072
100
AcDbEntity
  8
0
100
AcDbBlockEnd
  0
BLOCK
  5
2B3
330
107B
100
AcDbEntity
  8
0
100
AcDbBlockBegin
  2
*X1
 70
     1
 10
0.0
 20
0.0
 30
0.0
  3
*X1
  1

  0
LINE
  5
2B4
330
107B
100
AcDbEntity
  8
0
 62
     0
100
AcDbLine
 10
510.0
 20
389.8945418620416
 30
0.0
 11
510.0
 21
397.0973937929794
 31
0.0
  0
LINE
  5
2B5
330
107B
100
AcDbEntity
  8
0
 62
     0
100
AcDbLine
 10
510.0
 20
397.0973937929795
 30
0.0
 11
510.0
 21
398.3798232362803
 31
0.0
  0
LINE
  5
2B6
330
107B
100
AcDbEntity
  8
0
 62
     0
100
AcDbLine
 10
505.0
 20
384.8945418620417
 30
0.0
 11
505.0
 21
393.3798232362803
 31
0.0
  0
LINE
  5
2B7
330
107B
100
AcDbEntity
  8
0
 62
     0
100
AcDbLine
 10
500.0
 20
379.8945418620416
 30
0.0
 11
500.0
 21
388.3798232362803
 31
0.0
  0
LINE
  5
2B8
330
107B
100
AcDbEntity
  8
0
 62
     0
100
AcDbLine
 10
495.0
 20
374.8945418620416
 30
0.0
 11
495.0
 21
383.3798232362803
 31
0.0
  0
LINE
  5
2B9
330
107B
100
AcDbEntity
  8
0
 62
     0
100
AcDbLine
 10
490.0
 20
371.9292110013206
 30
0.0
 11
490.0
 21
378.3798232362803
 31
0.0
  0
LINE
  5
2BA
330
107B
100
AcDbEntity
  8
0
 62
     0
100
AcDbLine
 10
515.0
 20
394.8945418620417
 30
0.0
 11
515.0
 21
403.3798232362802
 31
0.0
  0
LINE
  5
2BB
330
107B
100
AcDbEntity
  8
0
 62
     0
100
AcDbLine
 10
520.0
 20
399.8945418620417
 30
0.0
 11
520.0
 21
408.3798232362802
 31
0.0
  0
LINE
  5
2BC
330
107B
100
AcDbEntity
  8
0
 62
     0
100
AcDbLine
 10
525.0
 20
404.8945418620416
 30
0.0
 11
525.0
 21
413.3798232362803
 31
0.0
  0
LINE
  5
2BD
330
107B
100
AcDbEntity
  8
0
 62
     0
100
AcDbLine
 10
530.0
 20
409.8945418620416
 30
0.0
 11
530.0
 21
418.3798232362803
 31
0.0
  0
LINE
  5
2BE
330
107B
100
AcDbEntity
  8
0
 62
     0
100
AcDbLine
 10
535.0
 20
414.8945418620416
 30
0.0
 11
535.0
 21
418.0593345701046
 31
0.0
  0
ENDBLK
  5
2BF
330
107B
100
AcDbEntity
  8
0
100
AcDbBlockEnd
  0
BLOCK
  5
BBC
330
107F
100
AcDbEntity
  8
0
100
AcDbBlockBegin
  2
*X2
 70
     1
 10
0.0
 20
0.0
 30
0.0
  3
*X2
  1

  0
LINE
  5
B91
330
107F
100
AcDbEntity
  8
SCHRAFF
 62
     0
100
AcDbLine
 10
545.4815343535435
 20
409.1126202482954
 30
0.0
 11
541.6527502917009
 21
412.9414043101381
 31
0.0
  0
LINE
  5
B92
330
107F
100
AcDbEntity
  8
SCHRAFF
 62
     0
100
AcDbLine
 10
541.9460004476109
 20
405.5770863423627
 30
0.0
 11
537.7033597604918
 21
409.8197270294818
 31
0.0
  0
LINE
  5
B93
330
107F
100
AcDbEntity
  8
SCHRAFF
 62
     0
100
AcDbLine
 10
538.4104665416781
 20
402.04155243643
 30
0.0
 11
534.1678258545591
 21
406.2841931235491
 31
0.0
  0
LINE
  5
B94
330
107F
100
AcDbEntity
  8
SCHRAFF
 62
     0
100
AcDbLine
 10
534.8749326357455
 20
398.5060185304972
 30
0.0
 11
530.6322919486262
 21
402.7486592176164
 31
0.0
  0
LINE
  5
B95
330
107F
100
AcDbEntity
  8
SCHRAFF
 62
     0
100
AcDbLine
 10
531.3393987298127
 20
394.9704846245645
 30
0.0
 11
527.0967580426935
 21
399.2131253116837
 31
0.0
  0
LINE
  5
B96
330
107F
100
AcDbEntity
  8
SCHRAFF
 62
     0
100
AcDbLine
 10
527.80386482388
 20
391.4349507186317
 30
0.0
 11
523.5612241367606
 21
395.677591405751
 31
0.0
  0
LINE
  5
B97
330
107F
100
AcDbEntity
  8
SCHRAFF
 62
     0
100
AcDbLine
 10
524.2683309179473
 20
387.8994168126989
 30
0.0
 11
520.025690230828
 21
392.1420574998183
 31
0.0
  0
LINE
  5
B98
330
107F
100
AcDbEntity
  8
SCHRAFF
 62
     0
100
AcDbLine
 10
520.7327970120146
 20
384.3638829067661
 30
0.0
 11
516.490156324895
 21
388.6065235938856
 31
0.0
  0
LINE
  5
B99
330
107F
100
AcDbEntity
  8
SCHRAFF
 62
     0
100
AcDbLine
 10
517.1972631060818
 20
380.8283490008335
 30
0.0
 11
512.9546224189623
 21
385.070989687953
 31
0.0
  0
LINE
  5
B9A
330
107F
100
AcDbEntity
  8
SCHRAFF
 62
     0
100
AcDbLine
 10
513.6617292001492
 20
377.2928150949006
 30
0.0
 11
509.4190885130296
 21
381.5354557820202
 31
0.0
  0
LINE
  5
B9B
330
107F
100
AcDbEntity
  8
SCHRAFF
 62
     0
100
AcDbLine
 10
510.1261952942166
 20
373.7572811889679
 30
0.0
 11
505.8835546070969
 21
377.9999218760876
 31
0.0
  0
LINE
  5
B9C
330
107F
100
AcDbEntity
  8
SCHRAFF
 62
     0
100
AcDbLine
 10
506.5906613882837
 20
370.2217472830351
 30
0.0
 11
502.348020701164
 21
374.4643879701548
 31
0.0
  0
LINE
  5
B9D
330
107F
100
AcDbEntity
  8
SCHRAFF
 62
     0
100
AcDbLine
 10
503.055127482351
 20
366.6862133771024
 30
0.0
 11
498.8124867952312
 21
370.9288540642222
 31
0.0
  0
LINE
  5
B9E
330
107F
100
AcDbEntity
  8
SCHRAFF
 62
     0
100
AcDbLine
 10
499.5195935764184
 20
363.1506794711695
 30
0.0
 11
495.2769528892985
 21
367.3933201582894
 31
0.0
  0
LINE
  5
B9F
330
107F
100
AcDbEntity
  8
SCHRAFF
 62
     0
100
AcDbLine
 10
495.9840596704856
 20
359.6151455652369
 30
0.0
 11
491.7414189833658
 21
363.8577862523567
 31
0.0
  0
LINE
  5
BA0
330
107F
100
AcDbEntity
  8
SCHRAFF
 62
     0
100
AcDbLine
 10
492.4485257645529
 20
356.079611659304
 30
0.0
 11
488.2058850774329
 21
360.322252346424
 31
0.0
  0
LINE
  5
BA1
330
107F
100
AcDbEntity
  8
SCHRAFF
 62
     0
100
AcDbLine
 10
488.9129918586203
 20
352.5440777533713
 30
0.0
 11
484.6703511715002
 21
356.7867184404913
 31
0.0
  0
LINE
  5
BA2
330
107F
100
AcDbEntity
  8
SCHRAFF
 62
     0
100
AcDbLine
 10
485.3774579526875
 20
349.0085438474385
 30
0.0
 11
481.1348172655674
 21
353.2511845345586
 31
0.0
  0
LINE
  5
BA3
330
107F
100
AcDbEntity
  8
SCHRAFF
 62
     0
100
AcDbLine
 10
481.8419240467549
 20
345.4730099415057
 30
0.0
 11
477.5992833596347
 21
349.7156506286259
 31
0.0
  0
LINE
  5
BA4
330
107F
100
AcDbEntity
  8
SCHRAFF
 62
     0
100
AcDbLine
 10
478.3063901408222
 20
341.9374760355729
 30
0.0
 11
474.0637494537018
 21
346.1801167226931
 31
0.0
  0
LINE
  5
BA5
330
107F
100
AcDbEntity
  8
SCHRAFF
 62
     0
100
AcDbLine
 10
474.6823633714259
 20
338.4904349931036
 30
0.0
 11
470.3618674446643
 21
342.8109309198654
 31
0.0
  0
LINE
  5
BA6
330
107F
100
AcDbEntity
  8
SCHRAFF
 62
     0
100
AcDbLine
 10
469.8776923825938
 20
336.2240381700703
 30
0.0
 11
464.2349653918596
 21
341.8667651608045
 31
0.0
  0
LINE
  5
BA7
330
107F
100
AcDbEntity
  8
SCHRAFF
 62
     0
100
AcDbLine
 10
463.1638975799942
 20
335.8667651608044
 30
0.0
 11
457.1638975799942
 21
341.8667651608045
 31
0.0
  0
LINE
  5
BA8
330
107F
100
AcDbEntity
  8
SCHRAFF
 62
     0
100
AcDbLine
 10
456.0928297681287
 20
335.8667651608044
 30
0.0
 11
450.0928297681286
 21
341.8667651608045
 31
0.0
  0
LINE
  5
BA9
330
107F
100
AcDbEntity
  8
SCHRAFF
 62
     0
100
AcDbLine
 10
449.0217619562632
 20
335.8667651608044
 30
0.0
 11
443.0217619562632
 21
341.8667651608045
 31
0.0
  0
LINE
  5
BAA
330
107F
100
AcDbEntity
  8
SCHRAFF
 62
     0
100
AcDbLine
 10
441.9506941443978
 20
335.8667651608044
 30
0.0
 11
435.9506941443977
 21
341.8667651608044
 31
0.0
  0
LINE
  5
BAB
330
107F
100
AcDbEntity
  8
SCHRAFF
 62
     0
100
AcDbLine
 10
434.8796263325324
 20
335.8667651608044
 30
0.0
 11
428.8796263325322
 21
341.8667651608045
 31
0.0
  0
LINE
  5
BAC
330
107F
100
AcDbEntity
  8
SCHRAFF
 62
     0
100
AcDbLine
 10
427.8085585206668
 20
335.8667651608044
 30
0.0
 11
421.8085585206668
 21
341.8667651608045
 31
0.0
  0
LINE
  5
BAD
330
107F
100
AcDbEntity
  8
SCHRAFF
 62
     0
100
AcDbLine
 10
420.7374907088013
 20
335.8667651608044
 30
0.0
 11
414.7374907088012
 21
341.8667651608045
 31
0.0
  0
LINE
  5
BAE
330
107F
100
AcDbEntity
  8
SCHRAFF
 62
     0
100
AcDbLine
 10
413.6664228969358
 20
335.8667651608045
 30
0.0
 11
407.6664228969358
 21
341.8667651608045
 31
0.0
  0
LINE
  5
BAF
330
107F
100
AcDbEntity
  8
SCHRAFF
 62
     0
100
AcDbLine
 10
406.5953550850704
 20
335.8667651608045
 30
0.0
 11
400.5953550850704
 21
341.8667651608045
 31
0.0
  0
LINE
  5
BB0
330
107F
100
AcDbEntity
  8
SCHRAFF
 62
     0
100
AcDbLine
 10
399.5242872732049
 20
335.8667651608045
 30
0.0
 11
393.5242872732049
 21
341.8667651608045
 31
0.0
  0
LINE
  5
BB1
330
107F
100
AcDbEntity
  8
SCHRAFF
 62
     0
100
AcDbLine
 10
271.2356792660537
 20
336.8761525543771
 30
0.0
 11
266.2450666596264
 21
341.8667651608044
 31
0.0
  0
LINE
  5
BB2
330
107F
100
AcDbEntity
  8
SCHRAFF
 62
     0
100
AcDbLine
 10
265.1739988477609
 20
335.8667651608045
 30
0.0
 11
259.173998847761
 21
341.8667651608044
 31
0.0
  0
LINE
  5
BB3
330
107F
100
AcDbEntity
  8
SCHRAFF
 62
     0
100
AcDbLine
 10
258.1029310358954
 20
335.8667651608045
 30
0.0
 11
252.1029310358954
 21
341.8667651608044
 31
0.0
  0
LINE
  5
BB4
330
107F
100
AcDbEntity
  8
SCHRAFF
 62
     0
100
AcDbLine
 10
251.0318632240299
 20
335.8667651608045
 30
0.0
 11
245.0318632240299
 21
341.8667651608045
 31
0.0
  0
LINE
  5
BB5
330
107F
100
AcDbEntity
  8
SCHRAFF
 62
     0
100
AcDbLine
 10
243.9607954121644
 20
335.8667651608045
 30
0.0
 11
237.9607954121645
 21
341.8667651608045
 31
0.0
  0
LINE
  5
BB6
330
107F
100
AcDbEntity
  8
SCHRAFF
 62
     0
100
AcDbLine
 10
236.889727600299
 20
335.8667651608045
 30
0.0
 11
230.889727600299
 21
341.8667651608045
 31
0.0
  0
LINE
  5
BB7
330
107F
100
AcDbEntity
  8
SCHRAFF
 62
     0
100
AcDbLine
 10
229.8186597884335
 20
335.8667651608044
 30
0.0
 11
223.8186597884336
 21
341.8667651608044
 31
0.0
  0
LINE
  5
BB8
330
107F
100
AcDbEntity
  8
SCHRAFF
 62
     0
100
AcDbLine
 10
222.747591976568
 20
335.8667651608045
 30
0.0
 11
216.747591976568
 21
341.8667651608045
 31
0.0
  0
LINE
  5
BB9
330
107F
100
AcDbEntity
  8
SCHRAFF
 62
     0
100
AcDbLine
 10
215.6765241647026
 20
335.8667651608044
 30
0.0
 11
209.6765241647026
 21
341.8667651608044
 31
0.0
  0
LINE
  5
BBA
330
107F
100
AcDbEntity
  8
SCHRAFF
 62
     0
100
AcDbLine
 10
208.6054563528371
 20
335.8667651608045
 30
0.0
 11
202.6054563528371
 21
341.8667651608045
 31
0.0
  0
LINE
  5
BBB
330
107F
100
AcDbEntity
  8
SCHRAFF
 62
     0
100
AcDbLine
 10
201.5343885409716
 20
335.8667651608044
 30
0.0
 11
197.3850339035126
 21
340.0161197982634
 31
0.0
  0
ENDBLK
  5
BBD
330
107F
100
AcDbEntity
  8
0
100
AcDbBlockEnd
  0
BLOCK
  5
122F
330
1225
100
AcDbEntity
  8
0
100
AcDbBlockBegin
  2
*D3
 70
     1
 10
0.0
 20
0.0
 30
0.0
  3
*D3
  1

  0
LINE
  5
19EA
330
1225
100
AcDbEntity
  8
BEM
 62
     0
370
    -2
100
AcDbLine
 10
72.61312594319901
 20
336.1238713038206
 30
0.0
 11
54.72700567345801
 21
336.1238713038206
 31
0.0
  0
LINE
  5
19EB
330
1225
100
AcDbEntity
  8
BEM
 62
     0
370
    -2
100
AcDbLine
 10
151.613125943199
 20
275.1238713038206
 30
0.0
 11
54.727005673458
 21
275.1238713038207
 31
0.0
  0
LINE
  5
19EC
330
1225
100
AcDbEntity
  8
BEM
100
AcDbLine
 10
56.727005673458
 20
329.1238713038207
 30
0.0
 11
56.72700567345799
 21
282.1238713038207
 31
0.0
  0
SOLID
  5
19ED
330
1225
100
AcDbEntity
  8
BEM
100
AcDbTrace
 10
55.56033900679134
 20
329.1238713038207
 30
0.0
 11
57.89367234012466
 21
329.1238713038207
 31
0.0
 12
56.72700567345801
 22
336.1238713038206
 32
0.0
 13
56.72700567345801
 23
336.1238713038206
 33
0.0
  0
SOLID
  5
19EE
330
1225
100
AcDbEntity
  8
BEM
100
AcDbTrace
 10
55.56033900679133
 20
282.1238713038207
 30
0.0
 11
57.89367234012466
 21
282.1238713038207
 31
0.0
 12
56.72700567345799
 22
275.1238713038207
 32
0.0
 13
56.72700567345799
 23
275.1238713038207
 33
0.0
  0
MTEXT
  5
19EF
330
1225
100
AcDbEntity
  8
BEM
 62
     1
100
AcDbMText
 10
50.82700567345796
 20
305.6238713038207
 30
0.0
 40
7.0
 41
0.0
 71
     5
 72
     1
  1
\A1;61
  7
GREEKS
 11
0.0000000000000001
 21
1.0
 31
0.0
 73
     1
 44
1.0
  0
POINT
  5
19F0
330
1225
100
AcDbEntity
  8
DEFPOINTS
 62
     0
100
AcDbPoint
 10
74.61312594319901
 20
336.1238713038206
 30
0.0
  0
POINT
  5
19F1
330
1225
100
AcDbEntity
  8
DEFPOINTS
 62
     0
100
AcDbPoint
 10
153.613125943199
 20
275.1238713038206
 30
0.0
  0
POINT
  5
19F2
330
1225
100
AcDbEntity
  8
DEFPOINTS
 62
     0
100
AcDbPoint
 10
56.72700567345799
 20
275.1238713038207
 30
0.0
  0
ENDBLK
  5
1230
330
1225
100
AcDbEntity
  8
0
100
AcDbBlockEnd
  0
BLOCK
  5
1283
330
1279
100
AcDbEntity
  8
0
100
AcDbBlockBegin
  2
*D4
 70
     1
 10
0.0
 20
0.0
 30
0.0
  3
*D4
  1

  0
LINE
  5
1A0E
330
1279
100
AcDbEntity
  8
BEM
 62
     0
370
    -2
100
AcDbLine
 10
78.61312594319901
 20
341.6238713038207
 30
0.0
 11
54.72763038547297
 21
341.6238713038207
 31
0.0
  0
LINE
  5
1A0F
330
1279
100
AcDbEntity
  8
BEM
 62
     0
370
    -2
100
AcDbLine
 10
125.6131259431985
 20
452.6238713038224
 30
0.0
 11
54.72763038547299
 21
452.6238713038224
 31
0.0
  0
LINE
  5
1A10
330
1279
100
AcDbEntity
  8
BEM
100
AcDbLine
 10
56.72763038547297
 20
348.6238713038206
 30
0.0
 11
56.72763038547299
 21
445.6238713038224
 31
0.0
  0
SOLID
  5
1A11
330
1279
100
AcDbEntity
  8
BEM
100
AcDbTrace
 10
55.56096371880631
 20
348.6238713038206
 30
0.0
 11
57.89429705213963
 21
348.6238713038206
 31
0.0
 12
56.72763038547297
 22
341.6238713038207
 32
0.0
 13
56.72763038547297
 23
341.6238713038207
 33
0.0
  0
SOLID
  5
1A12
330
1279
100
AcDbEntity
  8
BEM
100
AcDbTrace
 10
55.56096371880633
 20
445.6238713038224
 30
0.0
 11
57.89429705213965
 21
445.6238713038224
 31
0.0
 12
56.72763038547299
 22
452.6238713038224
 32
0.0
 13
56.72763038547299
 23
452.6238713038224
 33
0.0
  0
MTEXT
  5
1A13
330
1279
100
AcDbEntity
  8
BEM
 62
     1
100
AcDbMText
 10
50.82763038547291
 20
397.1238713038216
 30
0.0
 40
7.0
 41
0.0
 71
     5
 72
     1
  1
\A1;110
  7
GREEKS
 11
0.0000000000000001
 21
1.0
 31
0.0
 73
     1
 44
1.0
  0
POINT
  5
1A14
330
1279
100
AcDbEntity
  8
DEFPOINTS
 62
     0
100
AcDbPoint
 10
80.613125943199
 20
341.6238713038207
 30
0.0
  0
POINT
  5
1A15
330
1279
100
AcDbEntity
  8
DEFPOINTS
 62
     0
100
AcDbPoint
 10
127.6131259431985
 20
452.6238713038224
 30
0.0
  0
POINT
  5
1A16
330
1279
100
AcDbEntity
  8
DEFPOINTS
 62
     0
100
AcDbPoint
 10
56.72763038547299
 20
452.6238713038224
 30
0.0
  0
ENDBLK
  5
1284
330
1279
100
AcDbEntity
  8
0
100
AcDbBlockEnd
  0
BLOCK
  5
12A7
330
129D
100
AcDbEntity
  8
0
100
AcDbBlockBegin
  2
*D5
 70
     1
 10
0.0
 20
0.0
 30
0.0
  3
*D5
  1

  0
LINE
  5
19FC
330
129D
100
AcDbEntity
  8
BEM
 62
     0
370
    -2
100
AcDbLine
 10
317.613125943199
 20
434.6238133365068
 30
0.0
 11
317.613125943199
 21
468.5025693116257
 31
0.0
  0
LINE
  5
19FD
330
129D
100
AcDbEntity
  8
BEM
 62
     0
370
    -2
100
AcDbLine
 10
97.61312594319855
 20
434.6238133365068
 30
0.0
 11
97.61312594319855
 21
468.5025693116257
 31
0.0
  0
LINE
  5
19FE
330
129D
100
AcDbEntity
  8
BEM
100
AcDbLine
 10
310.613125943199
 20
466.5025693116257
 30
0.0
 11
104.6131259431985
 21
466.5025693116257
 31
0.0
  0
SOLID
  5
19FF
330
129D
100
AcDbEntity
  8
BEM
100
AcDbTrace
 10
310.613125943199
 20
467.6692359782924
 30
0.0
 11
310.613125943199
 21
465.335902644959
 31
0.0
 12
317.613125943199
 22
466.5025693116257
 32
0.0
 13
317.613125943199
 23
466.5025693116257
 33
0.0
  0
SOLID
  5
1A00
330
129D
100
AcDbEntity
  8
BEM
100
AcDbTrace
 10
104.6131259431985
 20
467.6692359782924
 30
0.0
 11
104.6131259431985
 21
465.335902644959
 31
0.0
 12
97.61312594319855
 22
466.5025693116257
 32
0.0
 13
97.61312594319855
 23
466.5025693116257
 33
0.0
  0
MTEXT
  5
1A01
330
129D
100
AcDbEntity
  8
BEM
 62
     1
100
AcDbMText
 10
207.6131259431988
 20
472.4025693116256
 30
0.0
 40
7.0
 41
0.0
 71
     5
 72
     1
  1
\A1;%%c220
  7
GREEKS
 73
     1
 44
1.0
  0
POINT
  5
1A02
330
129D
100
AcDbEntity
  8
DEFPOINTS
 62
     0
100
AcDbPoint
 10
317.613125943199
 20
432.6238133365069
 30
0.0
  0
POINT
  5
1A03
330
129D
100
AcDbEntity
  8
DEFPOINTS
 62
     0
100
AcDbPoint
 10
97.61312594319855
 20
432.6238133365069
 30
0.0
  0
POINT
  5
1A04
330
129D
100
AcDbEntity
  8
DEFPOINTS
 62
     0
100
AcDbPoint
 10
97.61312594319855
 20
466.5025693116257
 30
0.0
  0
ENDBLK
  5
12A8
330
129D
100
AcDbEntity
  8
0
100
AcDbBlockEnd
  0
BLOCK
  5
12B4
330
12AA
100
AcDbEntity
  8
0
100
AcDbBlockBegin
  2
*D6
 70
     1
 10
0.0
 20
0.0
 30
0.0
  3
*D6
  1

  0
LINE
  5
1A05
330
12AA
100
AcDbEntity
  8
BEM
 62
     0
370
    -2
100
AcDbLine
 10
337.6131259431986
 20
365.6238713038225
 30
0.0
 11
337.6131259431986
 21
482.5413024627449
 31
0.0
  0
LINE
  5
1A06
330
12AA
100
AcDbEntity
  8
BEM
 62
     0
370
    -2
100
AcDbLine
 10
77.61312594319901
 20
365.6238713038225
 30
0.0
 11
77.61312594319902
 21
482.5413024627449
 31
0.0
  0
LINE
  5
1A07
330
12AA
100
AcDbEntity
  8
BEM
100
AcDbLine
 10
330.6131259431986
 20
480.541302462745
 30
0.0
 11
84.61312594319903
 21
480.541302462745
 31
0.0
  0
SOLID
  5
1A08
330
12AA
100
AcDbEntity
  8
BEM
100
AcDbTrace
 10
330.6131259431986
 20
481.7079691294116
 30
0.0
 11
330.6131259431986
 21
479.3746357960783
 31
0.0
 12
337.6131259431986
 22
480.541302462745
 32
0.0
 13
337.6131259431986
 23
480.541302462745
 33
0.0
  0
SOLID
  5
1A09
330
12AA
100
AcDbEntity
  8
BEM
100
AcDbTrace
 10
84.61312594319903
 20
481.7079691294116
 30
0.0
 11
84.61312594319903
 21
479.3746357960783
 31
0.0
 12
77.61312594319902
 22
480.541302462745
 32
0.0
 13
77.61312594319902
 23
480.541302462745
 33
0.0
  0
MTEXT
  5
1A0A
330
12AA
100
AcDbEntity
  8
BEM
 62
     1
100
AcDbMText
 10
207.6131259431988
 20
486.4413024627449
 30
0.0
 40
7.0
 41
0.0
 71
     5
 72
     1
  1
\A1;%%c260
  7
GREEKS
 73
     1
 44
1.0
  0
POINT
  5
1A0B
330
12AA
100
AcDbEntity
  8
DEFPOINTS
 62
     0
100
AcDbPoint
 10
337.6131259431986
 20
363.6238713038224
 30
0.0
  0
POINT
  5
1A0C
330
12AA
100
AcDbEntity
  8
DEFPOINTS
 62
     0
100
AcDbPoint
 10
77.61312594319901
 20
363.6238713038224
 30
0.0
  0
POINT
  5
1A0D
330
12AA
100
AcDbEntity
  8
DEFPOINTS
 62
     0
100
AcDbPoint
 10
77.61312594319902
 20
480.541302462745
 30
0.0
  0
ENDBLK
  5
12B5
330
12AA
100
AcDbEntity
  8
0
100
AcDbBlockEnd
  0
BLOCK
  5
1728
330
171E
100
AcDbEntity
  8
0
100
AcDbBlockBegin
  2
*D7
 70
     1
 10
0.0
 20
0.0
 30
0.0
  3
*D7
  1

  0
LINE
  5
19F3
330
171E
100
AcDbEntity
  8
BEM
 62
     0
370
    -2
100
AcDbLine
 10
72.61312594319901
 20
328.1238713038206
 30
0.0
 11
72.613125943199
 21
192.7800499578701
 31
0.0
  0
LINE
  5
19F4
330
171E
100
AcDbEntity
  8
BEM
 62
     0
370
    -2
100
AcDbLine
 10
347.6131259431991
 20
328.1238713038206
 30
0.0
 11
347.6131259431991
 21
192.7800499578701
 31
0.0
  0
LINE
  5
19F5
330
171E
100
AcDbEntity
  8
BEM
100
AcDbLine
 10
79.61312594319899
 20
194.7800499578701
 30
0.0
 11
340.6131259431991
 21
194.7800499578701
 31
0.0
  0
SOLID
  5
19F6
330
171E
100
AcDbEntity
  8
BEM
100
AcDbTrace
 10
79.61312594319899
 20
195.9467166245367
 30
0.0
 11
79.61312594319899
 21
193.6133832912034
 31
0.0
 12
72.613125943199
 22
194.7800499578701
 32
0.0
 13
72.613125943199
 23
194.7800499578701
 33
0.0
  0
SOLID
  5
19F7
330
171E
100
AcDbEntity
  8
BEM
100
AcDbTrace
 10
340.6131259431991
 20
195.9467166245367
 30
0.0
 11
340.6131259431991
 21
193.6133832912034
 31
0.0
 12
347.6131259431991
 22
194.7800499578701
 32
0.0
 13
347.6131259431991
 23
194.7800499578701
 33
0.0
  0
MTEXT
  5
19F8
330
171E
100
AcDbEntity
  8
BEM
 62
     1
100
AcDbMText
 10
210.1131259431991
 20
200.6800499578701
 30
0.0
 40
7.0
 41
0.0
 71
     5
 72
     1
  1
\A1;275
  7
GREEKS
 73
     1
 44
1.0
  0
POINT
  5
19F9
330
171E
100
AcDbEntity
  8
DEFPOINTS
 62
     0
100
AcDbPoint
 10
72.61312594319901
 20
330.1238713038206
 30
0.0
  0
POINT
  5
19FA
330
171E
100
AcDbEntity
  8
DEFPOINTS
 62
     0
100
AcDbPoint
 10
347.6131259431991
 20
330.1238713038206
 30
0.0
  0
POINT
  5
19FB
330
171E
100
AcDbEntity
  8
DEFPOINTS
 62
     0
100
AcDbPoint
 10
347.6131259431991
 20
194.7800499578701
 30
0.0
  0
ENDBLK
  5
1729
330
171E
100
AcDbEntity
  8
0
100
AcDbBlockEnd
  0
BLOCK
  5
1746
330
173C
100
AcDbEntity
  8
0
100
AcDbBlockBegin
  2
*D8
 70
     1
 10
0.0
 20
0.0
 30
0.0
  3
*D8
  1

  0
LINE
  5
19D3
330
173C
100
AcDbEntity
  8
BEM
 62
     0
370
    -2
100
AcDbLine
 10
349.027339505572
 20
328.7096577414474
 30
0.0
 11
361.7045563109893
 21
316.0324409360304
 31
0.0
  0
LINE
  5
19D4
330
173C
100
AcDbEntity
  8
BEM
 62
     0
370
    -2
100
AcDbLine
 10
423.2735515301587
 20
402.9558697660353
 30
0.0
 11
435.9507683355759
 21
390.2786529606183
 31
0.0
  0
LINE
  5
19D5
330
173C
100
AcDbEntity
  8
BEM
100
AcDbLine
 10
365.240090216922
 20
322.3964019667093
 30
0.0
 11
429.586807304897
 21
386.7431190546855
 31
0.0
  0
SOLID
  5
19D6
330
173C
100
AcDbEntity
  8
BEM
100
AcDbTrace
 10
364.4151323055377
 20
323.2213598780936
 30
0.0
 11
366.0650481283063
 21
321.571444055325
 31
0.0
 12
360.2903427486162
 22
317.4466544984034
 32
0.0
 13
360.2903427486162
 23
317.4466544984034
 33
0.0
  0
SOLID
  5
19D7
330
173C
100
AcDbEntity
  8
BEM
100
AcDbTrace
 10
428.7618493935126
 20
387.5680769660698
 30
0.0
 11
430.4117652162813
 21
385.9181611433013
 31
0.0
 12
434.5365547732028
 22
391.6928665229914
 32
0.0
 13
434.5365547732028
 23
391.6928665229914
 33
0.0
  0
MTEXT
  5
19D8
330
173C
100
AcDbEntity
  8
BEM
 62
     1
100
AcDbMText
 10
393.2415187519089
 20
358.741690519698
 30
0.0
 40
7.0
 41
0.0
 71
     5
 72
     1
  1
\A1;105
  7
GREEKS
 11
0.7071067811865414
 21
0.7071067811865537
 31
0.0
 73
     1
 44
1.0
  0
POINT
  5
19D9
330
173C
100
AcDbEntity
  8
DEFPOINTS
 62
     0
100
AcDbPoint
 10
347.6131259431989
 20
330.1238713038205
 30
0.0
  0
POINT
  5
19DA
330
173C
100
AcDbEntity
  8
DEFPOINTS
 62
     0
100
AcDbPoint
 10
421.8593379677855
 20
404.3700833284084
 30
0.0
  0
POINT
  5
19DB
330
173C
100
AcDbEntity
  8
DEFPOINTS
 62
     0
100
AcDbPoint
 10
434.5365547732028
 20
391.6928665229914
 30
0.0
  0
ENDBLK
  5
1747
330
173C
100
AcDbEntity
  8
0
100
AcDbBlockEnd
  0
BLOCK
  5
185E
330
1854
100
AcDbEntity
  8
0
100
AcDbBlockBegin
  2
*D9
 70
     1
 10
0.0
 20
0.0
 30
0.0
  3
*D9
  1

  0
LINE
  5
1A42
330
1854
100
AcDbEntity
  8
BEM
 62
     0
370
    -2
100
AcDbLine
 10
797.9535854315559
 20
234.8716770133715
 30
0.0
 11
822.6091685767965
 21
233.5795326538081
 31
0.0
  0
LINE
  5
1A43
330
1854
100
AcDbEntity
  8
BEM
 62
     0
370
    -2
100
AcDbLine
 10
803.2918529683071
 20
336.7318895583346
 30
0.0
 11
827.9474361135475
 21
335.4397451987712
 31
0.0
  0
LINE
  5
1A44
330
1854
100
AcDbEntity
  8
BEM
100
AcDbLine
 10
820.978261200986
 20
240.6746113095755
 30
0.0
 11
825.5838253503398
 21
328.5540103679743
 31
0.0
  0
SOLID
  5
1A45
330
1854
100
AcDbEntity
  8
BEM
100
AcDbTrace
 10
819.813193410439
 20
240.7356699251919
 30
0.0
 11
822.143328991533
 21
240.613552693959
 31
0.0
 12
820.6119095072873
 22
233.6842045662934
 32
0.0
 13
820.6119095072873
 23
233.6842045662934
 33
0.0
  0
SOLID
  5
1A46
330
1854
100
AcDbEntity
  8
BEM
100
AcDbTrace
 10
824.4187575597928
 20
328.6150689835907
 30
0.0
 11
826.7488931408868
 21
328.4929517523579
 31
0.0
 12
825.9501770440385
 22
335.5444171112564
 32
0.0
 13
825.9501770440385
 23
335.5444171112564
 33
0.0
  0
MTEXT
  5
1A47
330
1854
100
AcDbEntity
  8
BEM
 62
     1
100
AcDbMText
 10
817.3891290206107
 20
284.9230929806066
 30
0.0
 40
7.0
 41
0.0
 71
     5
 72
     1
  1
\A1;%%c102
  7
GREEKS
 11
0.0523359562426606
 21
0.9986295347545887
 31
0.0
 73
     1
 44
1.0
  0
POINT
  5
1A48
330
1854
100
AcDbEntity
  8
DEFPOINTS
 62
     0
100
AcDbPoint
 10
795.9563263620467
 20
234.9763489258568
 30
0.0
  0
POINT
  5
1A49
330
1854
100
AcDbEntity
  8
DEFPOINTS
 62
     0
100
AcDbPoint
 10
801.2945938987979
 20
336.8365614708199
 30
0.0
  0
POINT
  5
1A4A
330
1854
100
AcDbEntity
  8
DEFPOINTS
 62
     0
100
AcDbPoint
 10
825.9501770440385
 20
335.5444171112564
 30
0.0
  0
ENDBLK
  5
185F
330
1854
100
AcDbEntity
  8
0
100
AcDbBlockEnd
  0
BLOCK
  5
18C3
330
18B4
100
AcDbEntity
  8
0
100
AcDbBlockBegin
  2
*D10
 70
     1
 10
0.0
 20
0.0
 30
0.0
  3
*D10
  1

  0
LINE
  5
1CA1
330
18B4
100
AcDbEntity
  8
BEM
 62
     0
370
    -2
100
AcDbLine
 10
346.6131259431989
 20
309.7002334002008
 30
0.0
 11
508.8508012764386
 21
309.700233400199
 31
0.0
  0
ARC
  5
1CA2
330
18B4
100
AcDbEntity
  8
BEM
100
AcDbCircle
 10
344.6131259431989
 20
309.7002334002008
 30
0.0
 40
162.2376753332397
100
AcDbArc
 50
352.0542313833797
 51
356.9999999999997
  0
LINE
  5
1CA3
330
18B4
100
AcDbEntity
  8
BEM
100
AcDbLine
 10
505.29321490601
 20
287.2731892695797
 30
0.0
 11
502.6496210597895
 21
268.332980657234
 31
0.0
  0
ARC
  5
1CA4
330
18B4
100
AcDbEntity
  8
BEM
100
AcDbCircle
 10
344.6131259431989
 20
309.7002334002008
 30
0.0
 40
162.2376753332397
100
AcDbArc
 50
352.0553831293093
 51
354.5276915646546
  0
ARC
  5
1CA5
330
18B4
100
AcDbEntity
  8
BEM
100
AcDbCircle
 10
344.6131259431989
 20
309.7002334002008
 30
0.0
 40
162.2376753332397
100
AcDbArc
 50
2.472308435344592
 51
4.944616870689744
  0
ARC
  5
1CA6
330
18B4
100
AcDbEntity
  8
BEM
100
AcDbCircle
 10
344.6131259431989
 20
309.7002334002008
 30
0.0
 40
162.2376753332397
100
AcDbArc
 50
356.9999999999997
 51
359.9999999999994
  0
SOLID
  5
1CA7
330
18B4
100
AcDbEntity
  8
BEM
100
AcDbTrace
 10
504.9479082858109
 20
294.3146718183141
 30
0.0
 11
507.2748671032821
 21
294.1423143228643
 31
0.0
 12
506.6284601808957
 22
301.2093695230027
 32
0.0
 13
506.6284601808957
 23
301.2093695230027
 33
0.0
  0
SOLID
  5
1CA8
330
18B4
100
AcDbEntity
  8
BEM
100
AcDbTrace
 10
507.8661834123246
 20
316.723773122393
 30
0.0
 11
505.5333931167003
 21
316.6734354517509
 31
0.0
 12
506.8508012764387
 22
309.7002334001991
 32
0.0
 13
506.8508012764387
 23
309.7002334001991
 33
0.0
  0
MTEXT
  5
1CA9
330
18B4
100
AcDbEntity
  8
BEM
 62
     1
100
AcDbMText
 10
497.4347822416868
 20
278.7154408077449
 30
0.0
 40
7.0
 41
0.0
 71
     5
 72
     1
  1
\A1;3°{\H3.600000;\S+0°^ -2°;}
  7
GREEKS
 11
0.1382357339906079
 21
0.9903993547292316
 31
0.0
 73
     1
 44
1.0
  0
POINT
  5
1CAA
330
18B4
100
AcDbEntity
  8
DEFPOINTS
 62
     0
100
AcDbPoint
 10
506.8260916926695
 20
306.8687955508436
 30
0.0
  0
POINT
  5
1CAB
330
18B4
100
AcDbEntity
  8
DEFPOINTS
 62
     0
100
AcDbPoint
 10
344.6131259431989
 20
309.7002334002008
 30
0.0
  0
POINT
  5
1CAC
330
18B4
100
AcDbEntity
  8
DEFPOINTS
 62
     0
100
AcDbPoint
 10
344.6131259431989
 20
309.7002334002008
 30
0.0
  0
POINT
  5
1CAD
330
18B4
100
AcDbEntity
  8
DEFPOINTS
 62
     0
100
AcDbPoint
 10
812.6062736169719
 20
285.1737518109357
 30
0.0
  0
POINT
  5
1CAE
330
18B4
100
AcDbEntity
  8
DEFPOINTS
 62
     0
100
AcDbPoint
 10
342.6131259431989
 20
309.7002334002009
 30
0.0
  0
ENDBLK
  5
18C4
330
18B4
100
AcDbEntity
  8
0
100
AcDbBlockEnd
  0
BLOCK
  5
1BFD
330
1BF3
100
AcDbEntity
  8
0
100
AcDbBlockBegin
  2
*D11
 70
     1
 10
0.0
 20
0.0
 30
0.0
  3
*D11
  1

  0
LINE
  5
1BFF
330
1BF3
100
AcDbEntity
  8
BEM
 62
     0
370
    -2
100
AcDbLine
 10
138.3737433983913
 20
376.6238713038209
 30
0.0
 11
67.88738366699591
 21
376.6238713038209
 31
0.0
  0
LINE
  5
1C00
330
1BF3
100
AcDbEntity
  8
BEM
 62
     0
370
    -2
100
AcDbLine
 10
76.61312594319901
 20
341.6238713038207
 30
0.0
 11
67.8873836669959
 21
341.6238713038207
 31
0.0
  0
LINE
  5
1C01
330
1BF3
100
AcDbEntity
  8
BEM
100
AcDbLine
 10
69.88738366699592
 20
369.6238713038209
 30
0.0
 11
69.8873836669959
 21
348.6238713038206
 31
0.0
  0
SOLID
  5
1C02
330
1BF3
100
AcDbEntity
  8
BEM
100
AcDbTrace
 10
68.72071700032925
 20
369.6238713038209
 30
0.0
 11
71.05405033366259
 21
369.6238713038209
 31
0.0
 12
69.88738366699592
 22
376.6238713038209
 32
0.0
 13
69.88738366699592
 23
376.6238713038209
 33
0.0
  0
SOLID
  5
1C03
330
1BF3
100
AcDbEntity
  8
BEM
100
AcDbTrace
 10
68.72071700032923
 20
348.6238713038206
 30
0.0
 11
71.05405033366257
 21
348.6238713038206
 31
0.0
 12
69.8873836669959
 22
341.6238713038207
 32
0.0
 13
69.8873836669959
 23
341.6238713038207
 33
0.0
  0
MTEXT
  5
1C04
330
1BF3
100
AcDbEntity
  8
BEM
 62
     1
100
AcDbMText
 10
63.98738366699586
 20
359.1238713038208
 30
0.0
 40
7.0
 41
0.0
 71
     5
 72
     1
  1
\A1;35
  7
GREEKS
 11
0.0000000000000001
 21
1.0
 31
0.0
 73
     1
 44
1.0
  0
POINT
  5
1C05
330
1BF3
100
AcDbEntity
  8
DEFPOINTS
 62
     0
100
AcDbPoint
 10
140.3737433983913
 20
376.6238713038209
 30
0.0
  0
POINT
  5
1C06
330
1BF3
100
AcDbEntity
  8
DEFPOINTS
 62
     0
100
AcDbPoint
 10
78.61312594319901
 20
341.6238713038207
 30
0.0
  0
POINT
  5
1C07
330
1BF3
100
AcDbEntity
  8
DEFPOINTS
 62
     0
100
AcDbPoint
 10
69.8873836669959
 20
341.6238713038207
 30
0.0
  0
ENDBLK
  5
1BFE
330
1BF3
100
AcDbEntity
  8
0
100
AcDbBlockEnd
  0
ENDSEC
  0
SECTION
  2
ENTITIES
  0
LINE
  5
2DF
330
106E
100
AcDbEntity
  8
STEMPEL
100
AcDbLine
 10
830.0
 20
109.9999999999999
 30
0.0
 11
470.0
 21
109.9999999999999
 31
0.0
  0
LINE
  5
2E0
330
106E
100
AcDbEntity
  8
STEMPEL
100
AcDbLine
 10
566.0
 20
109.9999999999996
 30
0.0
 11
566.0
 21
10.0
 31
0.0
  0
LINE
  5
2E1
330
106E
100
AcDbEntity
  8
STEMPEL
100
AcDbLine
 10
650.0
 20
109.9999999999999
 30
0.0
 11
650.0
 21
10.0
 31
0.0
  0
LINE
  5
2E2
330
106E
100
AcDbEntity
  8
STEMPEL
100
AcDbLine
 10
752.0
 20
109.9999999999996
 30
0.0
 11
752.0
 21
40.0
 31
0.0
  0
LINE
  5
2E3
330
106E
100
AcDbEntity
  8
STEMPEL
100
AcDbLine
 10
565.9999999999997
 20
30.0
 30
0.0
 11
470.0
 21
30.0
 31
0.0
  0
LINE
  5
2E4
330
106E
100
AcDbEntity
  8
STEMPEL
100
AcDbLine
 10
830.0
 20
40.0
 30
0.0
 11
566.0
 21
40.0
 31
0.0
  0
LINE
  5
2E5
330
106E
100
AcDbEntity
  8
STEMPEL
100
AcDbLine
 10
830.0
 20
80.0
 30
0.0
 11
566.0
 21
79.99999999999977
 31
0.0
  0
LINE
  5
2E6
330
106E
100
AcDbEntity
  8
VOLL
100
AcDbLine
 10
484.0000000000001
 20
109.9999999999999
 30
0.0
 11
484.0
 21
10.0
 31
0.0
  0
LINE
  5
2E7
330
106E
100
AcDbEntity
  8
VOLL
100
AcDbLine
 10
524.0
 20
109.9999999999996
 30
0.0
 11
524.0
 21
10.0
 31
0.0
  0
LINE
  5
2E8
330
106E
100
AcDbEntity
  8
VOLL
100
AcDbLine
 10
544.0
 20
109.9999999999996
 30
0.0
 11
544.0
 21
10.0
 31
0.0
  0
LINE
  5
2E9
330
106E
100
AcDbEntity
  8
VOLL
100
AcDbLine
 10
584.0
 20
79.99999999999977
 30
0.0
 11
584.0
 21
40.0
 31
0.0
  0
LINE
  5
2EA
330
106E
100
AcDbEntity
  8
VOLL
100
AcDbLine
 10
610.0
 20
109.9999999999996
 30
0.0
 11
610.0
 21
40.0
 31
0.0
  0
LINE
  5
2EB
330
106E
100
AcDbEntity
  8
HILF
100
AcDbLine
 10
470.0000000000001
 20
99.99999999999989
 30
0.0
 11
566.0
 21
99.99999999999989
 31
0.0
  0
LINE
  5
2EC
330
106E
100
AcDbEntity
  8
HILF
100
AcDbLine
 10
470.0000000000001
 20
89.99999999999989
 30
0.0
 11
566.0
 21
89.99999999999989
 31
0.0
  0
LINE
  5
2ED
330
106E
100
AcDbEntity
  8
HILF
100
AcDbLine
 10
470.0000000000001
 20
79.99999999999977
 30
0.0
 11
566.0
 21
79.99999999999977
 31
0.0
  0
LINE
  5
2EE
330
106E
100
AcDbEntity
  8
HILF
100
AcDbLine
 10
470.0000000000001
 20
69.99999999999977
 30
0.0
 11
566.0
 21
69.99999999999977
 31
0.0
  0
LINE
  5
2EF
330
106E
100
AcDbEntity
  8
HILF
100
AcDbLine
 10
470.0000000000001
 20
60.0
 30
0.0
 11
566.0
 21
60.0
 31
0.0
  0
LINE
  5
2F0
330
106E
100
AcDbEntity
  8
HILF
100
AcDbLine
 10
470.0000000000001
 20
50.0
 30
0.0
 11
566.0
 21
50.0
 31
0.0
  0
LINE
  5
2F1
330
106E
100
AcDbEntity
  8
HILF
100
AcDbLine
 10
470.0000000000001
 20
40.0
 30
0.0
 11
566.0
 21
40.0
 31
0.0
  0
LINE
  5
2F2
330
106E
100
AcDbEntity
  8
HILF
100
AcDbLine
 10
566.0
 20
69.99999999999977
 30
0.0
 11
650.0
 21
69.99999999999977
 31
0.0
  0
LINE
  5
2F3
330
106E
100
AcDbEntity
  8
HILF
100
AcDbLine
 10
566.0
 20
60.0
 30
0.0
 11
650.0
 21
60.0
 31
0.0
  0
LINE
  5
2F4
330
106E
100
AcDbEntity
  8
HILF
100
AcDbLine
 10
566.0
 20
50.0
 30
0.0
 11
650.0
 21
50.0
 31
0.0
  0
LINE
  5
2F5
330
106E
100
AcDbEntity
  8
HILF
100
AcDbLine
 10
654.7736801096946
 20
84.03758247564121
 30
0.0
 11
744.8353916556309
 21
84.03758247564121
 31
0.0
  0
LINE
  5
2F6
330
106E
100
AcDbEntity
  8
HILF
100
AcDbLine
 10
654.7736801096946
 20
69.99999999999977
 30
0.0
 11
744.8353916556309
 21
69.99999999999977
 31
0.0
  0
LINE
  5
2F7
330
106E
100
AcDbEntity
  8
HILF
100
AcDbLine
 10
654.7736801096946
 20
60.0
 30
0.0
 11
744.8353916556309
 21
60.0
 31
0.0
  0
LINE
  5
2F8
330
106E
100
AcDbEntity
  8
HILF
100
AcDbLine
 10
654.7736801096946
 20
50.0
 30
0.0
 11
744.8353916556309
 21
50.0
 31
0.0
  0
LINE
  5
2F9
330
106E
100
AcDbEntity
  8
VOLL
100
AcDbLine
 10
752.0
 20
60.0
 30
0.0
 11
830.0
 21
60.0
 31
0.0
  0
LINE
  5
2FA
330
106E
100
AcDbEntity
  8
HILF
100
AcDbLine
 10
756.7238616296992
 20
83.77983636955798
 30
0.0
 11
824.8588839326728
 21
83.77983636955798
 31
0.0
  0
LINE
  5
2FB
330
106E
100
AcDbEntity
  8
HILF
100
AcDbLine
 10
653.4909699289885
 20
14.89398258028314
 30
0.0
 11
824.8588839326728
 21
14.89398258028314
 31
0.0
  0
TEXT
  5
2FC
330
106E
100
AcDbEntity
  8
TEXT
100
AcDbText
 10
492.7826069847975
 20
18.67381894984123
 30
0.0
 40
4.0
  1
Änderung
 41
0.8
  7
GREEKS
 72
     1
 11
503.5254641276546
 21
18.67381894984123
 31
0.0
100
AcDbText
  0
TEXT
  5
2FD
330
106E
100
AcDbEntity
  8
TEXT
100
AcDbText
 10
573.5163572150376
 20
102.4620895087085
 30
0.0
 40
5.0
  1
Maßstab
 41
0.8
  7
GREEKS
100
AcDbText
  0
TEXT
  5
2FE
330
106E
100
AcDbEntity
  8
TEXT
100
AcDbText
 10
614.2858954734052
 20
102.4184168434816
 30
0.0
 40
5.0
  1
Zul. Abw.
 41
0.8
  7
GREEKS
100
AcDbText
  0
TEXT
  5
2FF
330
106E
100
AcDbEntity
  8
TEXT
100
AcDbText
 10
654.8779403809009
 20
102.5489328011778
 30
0.0
 40
5.0
  1
Benennung
 41
0.8
  7
GREEKS
100
AcDbText
  0
TEXT
  5
300
330
106E
100
AcDbEntity
  8
TEXT
100
AcDbText
 10
756.178754957634
 20
102.3132034537135
 30
0.0
 40
5.0
  1
Zeichnungs Nr.
 41
0.8
  7
GREEKS
100
AcDbText
  0
TEXT
  5
301
330
106E
100
AcDbEntity
  8
TEXT
100
AcDbText
 10
654.7422383911359
 20
30.84560570193048
 30
0.0
 40
5.0
  1
Bauvorhaben
 41
0.8
  7
GREEKS
100
AcDbText
  0
TEXT
  5
302
330
106E
100
AcDbEntity
  8
TEXT
100
AcDbText
 10
756.7238616296992
 20
73.18118237099952
 30
0.0
 40
5.0
  1
Ersatz für:
 41
0.8
  7
GREEKS
100
AcDbText
  0
TEXT
  5
303
330
106E
100
AcDbEntity
  8
TEXT
100
AcDbText
 10
478.2664110704575
 20
13.65465846027177
 30
0.0
 40
4.0
  1
Index
 50
90.0
 41
0.8
  7
GREEKS
100
AcDbText
  0
TEXT
  5
304
330
106E
100
AcDbEntity
  8
TEXT
100
AcDbText
 10
530.0571803261054
 20
18.67156269339807
 30
0.0
 40
4.0
  1
Tag
 41
0.8
  7
GREEKS
 72
     1
 11
533.7905136594388
 21
18.67156269339807
 31
0.0
100
AcDbText
  0
TEXT
  5
305
330
106E
100
AcDbEntity
  8
TEXT
100
AcDbText
 10
548.6614567187547
 20
18.59324216966411
 30
0.0
 40
4.0
  1
Name
 41
0.8
  7
GREEKS
 72
     1
 11
554.9852662425641
 21
18.59324216966411
 31
0.0
100
AcDbText
  0
TEXT
  5
306
330
106E
100
AcDbEntity
  8
TEXT
100
AcDbText
 10
592.3311673153651
 20
73.31880501229921
 30
0.0
 40
4.0
  1
Tag
 41
0.8
  7
GREEKS
100
AcDbText
  0
TEXT
  5
307
330
106E
100
AcDbEntity
  8
TEXT
100
AcDbText
 10
622.4626584226293
 20
73.30961091915219
 30
0.0
 40
4.0
  1
Name
 41
0.8
  7
GREEKS
100
AcDbText
  0
TEXT
  5
308
330
106E
100
AcDbEntity
  8
TEXT
100
AcDbText
 10
567.5836127167615
 20
63.62990369617955
 30
0.0
 40
4.0
  1
Gez.
 41
0.8
  7
GREEKS
100
AcDbText
  0
TEXT
  5
309
330
106E
100
AcDbEntity
  8
TEXT
100
AcDbText
 10
567.5515086571672
 20
53.68926291428374
 30
0.0
 40
4.0
  1
Gepr.
 41
0.8
  7
GREEKS
100
AcDbText
  0
TEXT
  5
30A
330
106E
100
AcDbEntity
  8
TEXT
100
AcDbText
 10
567.6006777387303
 20
43.5294638964981
 30
0.0
 40
4.0
  1
Norm.
 41
0.8
  7
GREEKS
100
AcDbText
  0
LINE
  5
30B
330
106E
100
AcDbEntity
  8
STEMPEL
100
AcDbLine
 10
479.9999999999998
 20
10.0
 30
0.0
 11
830.0
 21
10.0
 31
0.0
  0
TEXT
  5
30C
330
106E
100
AcDbEntity
  8
TEXT
100
AcDbText
 10
757.2400861497006
 20
52.07416177878599
 30
0.0
 40
5.0
  1
ersetzt durch:
 41
0.8
  7
GREEKS
100
AcDbText
  0
LINE
  5
30D
330
106E
100
AcDbEntity
  8
STEMPEL
100
AcDbLine
 10
830.0
 20
10.0
 30
0.0
 11
39.99999999999997
 21
10.0
 31
0.0
  0
LINE
  5
30E
330
106E
100
AcDbEntity
  8
STEMPEL
100
AcDbLine
 10
830.0
 20
10.0
 30
0.0
 11
830.0
 21
583.9999999999998
 31
0.0
  0
LINE
  5
30F
330
106E
100
AcDbEntity
  8
STEMPEL
100
AcDbLine
 10
470.0
 20
10.0
 30
0.0
 11
470.0
 21
109.9999999999999
 31
0.0
  0
LINE
  5
310
330
106E
100
AcDbEntity
  8
STEMPEL
100
AcDbLine
 10
830.0
 20
583.9999999999998
 30
0.0
 11
39.99999999999986
 21
583.9999999999998
 31
0.0
  0
LINE
  5
311
330
106E
100
AcDbEntity
  8
HILF
100
AcDbLine
 10
839.9999999999998
 20
594.0000000000001
 30
0.0
 11
-0.0000000000002274
 21
593.9999999999996
 31
0.0
  0
LINE
  5
312
330
106E
100
AcDbEntity
  8
HILF
100
AcDbLine
 10
840.0
 20
0.0
 30
0.0
 11
0.0
 21
0.0
 31
0.0
  0
LINE
  5
313
330
106E
100
AcDbEntity
  8
HILF
100
AcDbLine
 10
31.08767135713847
 20
296.9999999999998
 30
0.0
 11
0.0
 21
296.9999999999998
 31
0.0
  0
TEXT
  5
314
330
106E
100
AcDbEntity
  8
TEXT
100
AcDbText
 10
568.6221098221039
 20
73.14025471151649
 30
0.0
 40
4.0
  1
2007
 41
0.8
  7
GREEKS
100
AcDbText
  0
LINE
  5
315
330
106E
100
AcDbEntity
  8
HILF
100
AcDbLine
 10
840.0
 20
-0.0000000000002274
 30
0.0
 11
839.9999999999998
 21
593.9999999999998
 31
0.0
  0
TEXT
  5
316
330
106E
100
AcDbEntity
  8
VOLL
100
AcDbText
 10
78.07675471698113
 20
31.02594776470585
 30
0.0
 40
1.8
  1

  7
GREEKS
100
AcDbText
  0
TEXT
  5
317
330
106E
100
AcDbEntity
  8
TEXT
100
AcDbText
 10
471.8550995097768
 20
111.6719999999997
 30
0.0
 40
5.0
  1
Erstellt mit AUTOCAD 2004
 41
0.8
  7
GREEKS
100
AcDbText
  0
TEXT
  5
318
330
106E
100
AcDbEntity
  8
TEXT
100
AcDbText
 10
624.4216048581257
 20
63.0896391972351
 30
0.0
 40
4.0
  1
Koeh
 41
0.8
  7
GREEKS
 72
     1
 11
629.6787477152686
 21
63.0896391972351
 31
0.0
100
AcDbText
  0
TEXT
  5
319
330
106E
100
AcDbEntity
  8
TEXT
 62
     1
100
AcDbText
 10
768.4311268796598
 20
88.14901428913946
 30
0.0
 40
7.0
  1
01361100W
 41
0.8
  7
GREEKS
 72
     1
 11
790.8311268796597
 21
88.14901428913946
 31
0.0
100
AcDbText
  0
TEXT
  5
31A
330
106E
100
AcDbEntity
  8
TEXT
 62
     1
100
AcDbText
 10
580.5006306481886
 20
88.14901428913946
 30
0.0
 40
7.0
  1
1:2
 41
0.8
  7
GREEKS
100
AcDbText
  0
TEXT
  5
31B
330
106E
100
AcDbEntity
  8
TEXT
100
AcDbText
 10
591.0085209177599
 20
63.10765040825732
 30
0.0
 40
4.0
  1
11.05.
 41
0.8
  7
GREEKS
 72
     1
 11
597.4085209177599
 21
63.10765040825732
 31
0.0
100
AcDbText
  0
TEXT
  5
31C
330
106E
100
AcDbEntity
  8
TEXT
 62
     1
100
AcDbText
 10
655.0506768857031
 20
87.41748789253767
 30
0.0
 40
7.0
  1
Rainstar Attika-Notablauf
 41
0.6700000000000001
  7
GREEKS
100
AcDbText
  0
TEXT
  5
31D
330
106E
100
AcDbEntity
  8
TEXT
100
AcDbText
 10
655.1296391125315
 20
71.50334417585281
 30
0.0
 40
5.0
  1
DN100 für Bitumenklemmung
 41
0.8
  7
GREEKS
100
AcDbText
  0
TEXT
  5
31F
330
106E
100
AcDbEntity
  8
TEXT
100
AcDbText
 10
655.1296391125315
 20
51.64011943042146
 30
0.0
 40
5.0
  1
EDV-Art.Nr. 01361.100X
 41
0.8
  7
GREEKS
100
AcDbText
  0
TEXT
  5
320
330
106E
100
AcDbEntity
  8
TEXT
100
AcDbText
 10
654.9837501577826
 20
42.62974153022628
 30
0.0
 40
4.0
  1
01361100W.DWG
 41
0.8
  7
GREEKS
100
AcDbText
  0
TEXT
  5
321
330
106E
100
AcDbEntity
  8
TEXT
100
AcDbText
 10
614.6832750652269
 20
90.7636384102301
 30
0.0
 40
4.0
  1
DIN EN 1123
 41
0.8
  7
GREEKS
 72
     1
 11
629.6166083985601
 21
90.7636384102301
 31
0.0
100
AcDbText
  0
INSERT
  5
322
330
106E
100
AcDbEntity
  8
STEMPEL
100
AcDbBlockReference
  2
LOGO
 10
570.9955485457794
 20
45.0210527644831
 30
0.0
 41
2.0
 42
2.0
 43
2.0
  0
LINE
  5
323
330
106E
100
AcDbEntity
  8
HILF
100
AcDbLine
 10
0.0
 20
0.0
 30
0.0
 11
-0.0000000000002274
 21
593.9999999999996
 31
0.0
  0
LINE
  5
324
330
106E
100
AcDbEntity
  8
STEMPEL
100
AcDbLine
 10
39.99999999999997
 20
10.0
 30
0.0
 11
39.99999999999986
 21
583.9999999999998
 31
0.0
  0
LINE
  5
325
330
106E
100
AcDbEntity
  8
HILF
 62
     7
100
AcDbLine
 10
460.0
 20
-0.0000000000002274
 30
0.0
 11
460.0
 21
10.0
 31
0.0
  0
LINE
  5
326
330
106E
100
AcDbEntity
  8
HILF
 62
     7
100
AcDbLine
 10
459.9999999999998
 20
583.9999999999998
 30
0.0
 11
459.9999999999998
 21
593.9999999999996
 31
0.0
  0
TEXT
  5
327
330
106E
100
AcDbEntity
  8
TEXT
100
AcDbText
 10
836.5811541437437
 20
12.14804815338303
 30
0.0
 40
4.0
  1
Diese Zeichnung ist urheberrechtlich geschützt und bleibt unser Eigentum. Sie darf weder ganz noch teilweise vervielfältigt und nicht an Dritte weitergegeben werden.
 50
90.0
 41
0.8
  7
GREEKS
100
AcDbText
  0
ARC
  5
32C
330
106E
100
AcDbEntity
  8
STEMPEL
100
AcDbCircle
 10
311.613125943199
 20
432.6238133365069
 30
0.0
 40
6.0
100
AcDbArc
 50
0.000000000000007
 51
59.74358352518475
  0
ARC
  5
32D
330
106E
100
AcDbEntity
  8
STEMPEL
100
AcDbCircle
 10
311.613125943199
 20
432.6238133365069
 30
0.0
 40
5.0
100
AcDbArc
 50
0.000000000000007
 51
59.74358352518475
  0
LWPOLYLINE
  5
32E
330
106E
100
AcDbEntity
  8
STEMPEL
100
AcDbPolyline
 90
        7
 70
   128
 43
0.0
 10
315.9213816172823
 20
381.5859253596605
 10
315.7835526077119
 20
380.833819122722
 10
315.6646883307457
 20
379.9111055120071
 10
315.5683403288444
 20
378.8453542621028
 10
315.4973873813064
 20
377.6684089252818
 10
315.4539494892983
 20
376.41543541888
 10
315.4393245324008
 20
375.1238713038206
  0
LWPOLYLINE
  5
337
330
106E
100
AcDbEntity
  8
STEMPEL
100
AcDbPolyline
 90
       18
 70
   128
 43
0.0
 10
316.4034387021636
 20
375.1238713038206
 10
316.3867702786869
 20
376.5019926874452
 10
316.3373326314263
 20
377.8331838002249
 10
316.2568093001659
 20
379.0721125254016
 10
316.1479424103742
 20
380.1765886311708
 10
316.0144392934121
 20
381.1090005084237
 10
315.8608462378079
 20
381.837595988985
 10
315.6923936708558
 20
382.3375636276183
 10
315.5148180426867
 20
382.5918776260349
 10
315.3341664783397
 20
382.5918776260349
 10
315.1565908501709
 20
382.3375636276183
 10
314.9881382832188
 20
381.837595988985
 10
314.8345452276148
 20
381.1090005084237
 10
314.7010421106524
 20
380.176588631171
 10
314.5921752208607
 20
379.0721125254016
 10
314.5116518896001
 20
377.8331838002249
 10
314.4622142423399
 20
376.5019926874452
 10
314.4455458188631
 20
375.1238713038206
  0
LWPOLYLINE
  5
34B
330
106E
100
AcDbEntity
  8
STEMPEL
100
AcDbPolyline
 90
        7
 70
   128
 43
0.0
 10
-318.0597837160721
 20
363.6238713038229
 10
-317.3830818409947
 20
364.233472031682
 10
-316.7835324173606
 20
364.9610311155935
 10
-316.2772437442108
 20
365.7870009772738
 10
-315.8778184521654
 20
366.6891900024769
 10
-315.5959880369025
 20
367.6433587706707
 10
-315.439324532401
 20
368.6238713038229
210
0.0
220
0.0
230
-1.0
  0
LWPOLYLINE
  5
354
330
106E
100
AcDbEntity
  8
STEMPEL
100
AcDbPolyline
 90
       10
 70
   128
 43
0.0
 10
-319.9515345498937
 20
362.6238713038222
 10
-319.0934615536209
 20
362.6899985183948
 10
-318.2406493539988
 20
362.9425522681252
 10
-317.4198910470817
 20
363.3735979844426
 10
-316.6569726806828
 20
363.9695933548826
 10
-315.9758631251833
 20
364.7118137866033
 10
-315.397961035238
 20
365.5769406834007
 10
-314.9414225608315
 20
366.5377940541167
 10
-314.6205909292338
 20
367.5641864358289
 10
-314.4455458188629
 20
368.6238713038215
210
0.0
220
0.0
230
-1.0
  0
ARC
  5
360
330
106E
100
AcDbEntity
  8
STEMPEL
100
AcDbCircle
 10
322.613125943199
 20
368.6238713038229
 30
0.0
 40
6.0
100
AcDbArc
 50
180.0
 51
269.9999999999983
  0
LWPOLYLINE
  5
361
330
106E
100
AcDbEntity
  8
STEMPEL
100
AcDbPolyline
 90
       10
 70
   128
 43
0.0
 10
-315.7628160820035
 20
362.6238713038225
 10
-314.9266368071618
 20
362.7150247857492
 10
-314.1158644164593
 20
362.985715579107
 10
-313.3551338187166
 20
363.427718881116
 10
-312.6675594281977
 20
364.0276046451086
 10
-312.0740328448291
 20
364.7671456457033
 10
-311.592588073508
 20
365.6238713038227
 10
-311.2378535699876
 20
366.5717504438688
 10
-311.0206077626535
 20
367.5819822378212
 10
-310.9474515554295
 20
368.6238713038229
210
0.0
220
0.0
230
-1.0
  0
LINE
  5
36D
102
{ACAD_REACTORS
330
1BF1
102
}
330
106E
100
AcDbEntity
  8
STEMPEL
100
AcDbLine
 10
334.613125943199
 20
347.6238713038209
 30
0.0
 11
277.313743965478
 21
347.6238713038209
 31
0.0
  0
LINE
  5
36E
330
106E
100
AcDbEntity
  8
STEMPEL
100
AcDbLine
 10
72.61312594319901
 20
330.1238713038206
 30
0.0
 11
344.6131259431989
 21
330.1238713038206
 31
0.0
  0
LINE
  5
36F
102
{ACAD_REACTORS
330
1BF1
102
}
330
106E
100
AcDbEntity
  8
STEMPEL
100
AcDbLine
 10
80.613125943199
 20
341.6238713038207
 30
0.0
 11
334.613125943199
 21
341.6238713038207
 31
0.0
  0
LINE
  5
370
330
106E
100
AcDbEntity
  8
STEMPEL
100
AcDbLine
 10
74.61312594319901
 20
336.1238713038206
 30
0.0
 11
342.228349632347
 21
336.1238713038206
 31
0.0
  0
LINE
  5
371
330
106E
100
AcDbEntity
  8
STEMPEL
100
AcDbLine
 10
335.613125943199
 20
275.1238713038211
 30
0.0
 11
153.613125943199
 21
275.1238713038206
 31
0.0
  0
LINE
  5
372
330
106E
100
AcDbEntity
  8
STEMPEL
100
AcDbLine
 10
337.6131259431986
 20
362.6238713038209
 30
0.0
 11
295.8855393027206
 21
362.6238713038211
 31
0.0
  0
LINE
  5
373
330
106E
100
AcDbEntity
  8
STEMPEL
100
AcDbLine
 10
335.613125943199
 20
277.1238713038211
 30
0.0
 11
153.613125943199
 21
277.1238713038207
 31
0.0
  0
LINE
  5
37A
330
106E
100
AcDbEntity
  8
STEMPEL
100
AcDbLine
 10
97.61312594319855
 20
432.6238133365069
 30
0.0
 11
97.61312594319855
 21
368.6238713038229
 31
0.0
  0
LINE
  5
37B
330
106E
100
AcDbEntity
  8
STEMPEL
100
AcDbLine
 10
98.61312594319901
 20
432.6238133365069
 30
0.0
 11
98.61312594319901
 21
368.6238713038229
 31
0.0
  0
LINE
  5
37C
330
106E
100
AcDbEntity
  8
MITTEL
100
AcDbLine
 10
207.613125943199
 20
459.1238713038221
 30
0.0
 11
207.613125943199
 21
326.8716880848527
 31
0.0
  0
LINE
  5
37D
330
106E
100
AcDbEntity
  8
STEMPEL
100
AcDbLine
 10
283.8855393027206
 20
362.6238713038187
 30
0.0
 11
275.8242436482948
 21
362.6238713038188
 31
0.0
  0
LWPOLYLINE
  5
37E
330
106E
100
AcDbEntity
  8
STEMPEL
100
AcDbPolyline
 90
       10
 70
   128
 43
0.0
 10
95.27471733650413
 20
362.6238713038222
 10
96.1327903327769
 20
362.6899985183948
 10
96.98560253239925
 20
362.9425522681252
 10
97.80636083931625
 20
363.3735979844426
 10
98.5692792057152
 20
363.9695933548826
 10
99.25038876121419
 20
364.7118137866033
 10
99.82829085116003
 20
365.5769406834007
 10
100.2848293255662
 20
366.5377940541167
 10
100.6056609571637
 20
367.5641864358289
 10
100.7807060675349
 20
368.6238713038215
  0
LWPOLYLINE
  5
38A
330
106E
100
AcDbEntity
  8
STEMPEL
100
AcDbPolyline
 90
       10
 70
   128
 43
0.0
 10
93.31682445320343
 20
362.6238713038236
 10
94.17489744947619
 20
362.6899985183962
 10
95.02770964909855
 20
362.9425522681266
 10
95.84846795601555
 20
363.3735979844439
 10
96.61138632241449
 20
363.969593354884
 10
97.2924958779135
 20
364.7118137866046
 10
97.87039796785933
 20
365.576940683402
 10
98.32693644226555
 20
366.537794054118
 10
98.647768073863
 20
367.5641864358302
 10
98.82281318423423
 20
368.6238713038229
  0
ARC
  5
396
330
106E
100
AcDbEntity
  8
STEMPEL
100
AcDbCircle
 10
92.61312594319901
 20
368.6238713038229
 30
0.0
 40
6.0
100
AcDbArc
 50
270.0000000000017
 51
0.000000000000007
  0
ARC
  5
397
330
106E
100
AcDbEntity
  8
STEMPEL
100
AcDbCircle
 10
92.61312594319901
 20
368.6238713038229
 30
0.0
 40
5.0
100
AcDbArc
 50
270.0000000000017
 51
0.000000000000007
  0
LINE
  5
398
102
{ACAD_REACTORS
330
1BF1
102
}
330
106E
100
AcDbEntity
  8
STEMPEL
100
AcDbLine
 10
119.3407125836774
 20
362.6238713038225
 30
0.0
 11
88.61312594319901
 21
362.6238713038227
 31
0.0
  0
LINE
  5
399
330
106E
100
AcDbEntity
  8
STEMPEL
100
AcDbLine
 10
74.61312594319901
 20
336.1238713038206
 30
0.0
 11
72.61312594319901
 21
334.1238713038206
 31
0.0
  0
LINE
  5
39A
330
106E
100
AcDbEntity
  8
STEMPEL
100
AcDbLine
 10
72.61312594319901
 20
330.1238713038206
 30
0.0
 11
72.61312594319901
 21
334.1238713038206
 31
0.0
  0
LINE
  5
39B
330
106E
100
AcDbEntity
  8
MITTEL
100
AcDbLine
 10
85.613125943199
 20
371.0927340836693
 30
0.0
 11
85.613125943199
 21
341.6238713038207
 31
0.0
  0
LINE
  5
39E
330
106E
100
AcDbEntity
  8
STEMPEL
100
AcDbLine
 10
88.61312594319901
 20
355.8738713038227
 30
0.0
 11
82.61312594319901
 21
355.8738713038227
 31
0.0
  0
LINE
  5
3A0
330
106E
100
AcDbEntity
  8
STEMPEL
100
AcDbLine
 10
87.96312594319847
 20
355.2238713038228
 30
0.0
 11
83.26312594319864
 21
355.2238713038228
 31
0.0
  0
LINE
  5
3A3
330
106E
100
AcDbEntity
  8
STEMPEL
100
AcDbLine
 10
91.613125943199
 20
365.2238713038228
 30
0.0
 11
79.61312594319901
 21
365.2238713038226
 31
0.0
  0
LINE
  5
3A4
330
106E
100
AcDbEntity
  8
STEMPEL
100
AcDbLine
 10
77.61312594319901
 20
363.6238713038224
 30
0.0
 11
92.61312594319901
 21
363.6238713038229
 31
0.0
  0
LINE
  5
3A5
330
106E
100
AcDbEntity
  8
HILF
100
AcDbLine
 10
83.26312594319864
 20
355.2238713038228
 30
0.0
 11
83.26312594319864
 21
363.6238713038227
 31
0.0
  0
LINE
  5
3A6
102
{ACAD_REACTORS
330
1BF1
102
}
330
106E
100
AcDbEntity
  8
STEMPEL
100
AcDbLine
 10
82.61312594319901
 20
363.6238713038227
 30
0.0
 11
82.61312594319901
 21
355.8738713038227
 31
0.0
  0
LINE
  5
3A7
102
{ACAD_REACTORS
330
1BF1
102
}
330
106E
100
AcDbEntity
  8
STEMPEL
100
AcDbLine
 10
83.26312594319864
 20
355.2238713038228
 30
0.0
 11
83.26312594320382
 21
341.6238713038207
 31
0.0
  0
LINE
  5
3A8
102
{ACAD_REACTORS
330
1BF1
102
}
330
106E
100
AcDbEntity
  8
HILF
100
AcDbLine
 10
82.61312594319901
 20
355.8738713038227
 30
0.0
 11
82.61312594320191
 21
341.6238713038207
 31
0.0
  0
LINE
  5
3A9
102
{ACAD_REACTORS
330
1BF1
102
}
330
106E
100
AcDbEntity
  8
STEMPEL
100
AcDbLine
 10
83.26312594319864
 20
355.2238713038228
 30
0.0
 11
82.61312594319901
 21
355.8738713038227
 31
0.0
  0
ARC
  5
3AA
330
106E
100
AcDbEntity
  8
STEMPEL
100
AcDbCircle
 10
85.613125943199
 20
361.0104970446228
 30
0.0
 40
8.281117593600001
100
AcDbArc
 50
70.5278273813882
 51
109.4721726186141
  0
LINE
  5
3AB
330
106E
100
AcDbEntity
  8
STEMPEL
100
AcDbLine
 10
82.85262368854949
 20
368.5448182247563
 30
0.0
 11
82.85262368854949
 21
368.8179637208953
 31
0.0
  0
LINE
  5
3AD
330
106E
100
AcDbEntity
  8
STEMPEL
100
AcDbLine
 10
82.85262368854949
 20
368.5448182247563
 30
0.0
 11
82.85262368854949
 21
365.2238713038228
 31
0.0
  0
LINE
  5
3B0
330
106E
100
AcDbEntity
  8
STEMPEL
100
AcDbLine
 10
77.61312594319901
 20
363.6238713038227
 30
0.0
 11
77.61312594319901
 21
362.6238713038225
 31
0.0
  0
LINE
  5
3B1
330
106E
100
AcDbEntity
  8
STEMPEL
100
AcDbLine
 10
81.613125943199
 20
363.6238713038224
 30
0.0
 11
81.613125943199
 21
362.6238713038225
 31
0.0
  0
LINE
  5
3B2
330
106E
100
AcDbEntity
  8
STEMPEL
100
AcDbLine
 10
79.61312594319901
 20
365.2238713038226
 30
0.0
 11
79.61312594319901
 21
363.6238713038227
 31
0.0
  0
LINE
  5
3B3
330
106E
100
AcDbEntity
  8
STEMPEL
100
AcDbLine
 10
80.0921214339
 20
368.8179637208953
 30
0.0
 11
80.0921214339
 21
368.8416240930197
 31
0.0
  0
LINE
  5
3B4
330
106E
100
AcDbEntity
  8
STEMPEL
100
AcDbLine
 10
80.0921214339
 20
368.5448182247563
 30
0.0
 11
80.0921214339
 21
368.7460631724799
 31
0.0
  0
LINE
  5
3B5
330
106E
100
AcDbEntity
  8
STEMPEL
100
AcDbLine
 10
80.0921214339
 20
368.7460631724799
 30
0.0
 11
80.0921214339
 21
368.8179637208953
 31
0.0
  0
LINE
  5
3B6
330
106E
100
AcDbEntity
  8
STEMPEL
100
AcDbLine
 10
80.0921214339
 20
368.8416240930197
 30
0.0
 11
80.39870618648633
 21
369.0186308824548
 31
0.0
  0
LINE
  5
3B7
330
106E
100
AcDbEntity
  8
STEMPEL
100
AcDbLine
 10
80.0921214339
 20
368.5448182247563
 30
0.0
 11
80.0921214339
 21
365.2238713038228
 31
0.0
  0
LINE
  5
3B8
330
106E
100
AcDbEntity
  8
STEMPEL
100
AcDbLine
 10
81.476331786584
 20
369.2916146382227
 30
0.0
 11
81.4727763535879
 21
369.2916146382227
 31
0.0
  0
LINE
  5
3B9
102
{ACAD_REACTORS
330
1BF1
102
}
330
106E
100
AcDbEntity
  8
STEMPEL
100
AcDbLine
 10
82.61312594319901
 20
362.6238713038227
 30
0.0
 11
77.61312594319901
 21
362.6238713038225
 31
0.0
  0
ARC
  5
3BA
330
106E
100
AcDbEntity
  8
STEMPEL
100
AcDbCircle
 10
81.47237256122474
 20
367.0437163179436
 30
0.0
 40
2.247898356545996
100
AcDbArc
 50
52.11936428282132
 51
121.4691945240794
  0
LINE
  5
3BB
330
106E
100
AcDbEntity
  8
STEMPEL
100
AcDbLine
 10
89.75347553248179
 20
369.2916146382227
 30
0.0
 11
81.47277635357971
 21
369.2916146382227
 31
0.0
  0
ARC
  5
3BC
102
{ACAD_REACTORS
330
1BF1
102
}
330
106E
100
AcDbEntity
  8
STEMPEL
100
AcDbCircle
 10
80.613125943199
 20
344.6238713038211
 30
0.0
 40
3.0
100
AcDbArc
 50
166.6128248198285
 51
270.0
  0
LINE
  5
3BF
330
106E
100
AcDbEntity
  8
HILF
100
AcDbLine
 10
87.96312594319847
 20
355.2238713038228
 30
0.0
 11
87.96312594319847
 21
363.6238713038227
 31
0.0
  0
LINE
  5
3C0
102
{ACAD_REACTORS
330
1BF1
102
}
330
106E
100
AcDbEntity
  8
STEMPEL
100
AcDbLine
 10
88.61312594319901
 20
363.6238713038227
 30
0.0
 11
88.61312594319901
 21
355.8738713038227
 31
0.0
  0
LINE
  5
3C1
330
106E
100
AcDbEntity
  8
STEMPEL
100
AcDbLine
 10
89.61312594319901
 20
363.6238713038229
 30
0.0
 11
89.61312594319901
 21
362.6238713038225
 31
0.0
  0
LINE
  5
3C2
102
{ACAD_REACTORS
330
1BF1
102
}
330
106E
100
AcDbEntity
  8
STEMPEL
100
AcDbLine
 10
88.61312594319901
 20
355.8738713038227
 30
0.0
 11
87.96312594319847
 21
355.2238713038228
 31
0.0
  0
LINE
  5
3C3
102
{ACAD_REACTORS
330
1BF1
102
}
330
106E
100
AcDbEntity
  8
STEMPEL
100
AcDbLine
 10
87.96312594319891
 20
355.2238713038235
 30
0.0
 11
87.96312594319891
 21
341.6238713038207
 31
0.0
  0
LINE
  5
3C4
102
{ACAD_REACTORS
330
1BF1
102
}
330
106E
100
AcDbEntity
  8
HILF
100
AcDbLine
 10
88.61312594319901
 20
355.8738713038227
 30
0.0
 11
88.61312594320191
 21
341.6238713038207
 31
0.0
  0
ARC
  5
3C5
330
106E
100
AcDbEntity
  8
STEMPEL
100
AcDbCircle
 10
89.75387932517282
 20
367.0437163179436
 30
0.0
 40
2.247898356545996
100
AcDbArc
 50
58.53080547592063
 51
127.8806357171786
  0
LINE
  5
3C6
330
106E
100
AcDbEntity
  8
STEMPEL
100
AcDbLine
 10
91.13413045249712
 20
368.5448182247563
 30
0.0
 11
91.13413045249712
 21
368.8416240930197
 31
0.0
  0
LINE
  5
3C7
330
106E
100
AcDbEntity
  8
STEMPEL
100
AcDbLine
 10
91.13413045249712
 20
368.8416240930197
 30
0.0
 11
90.82754569991124
 21
369.0186308824548
 31
0.0
  0
LINE
  5
3C8
330
106E
100
AcDbEntity
  8
STEMPEL
100
AcDbLine
 10
88.37362819784805
 20
368.5448182247563
 30
0.0
 11
88.37362819784805
 21
368.8179637208953
 31
0.0
  0
LINE
  5
3C9
330
106E
100
AcDbEntity
  8
STEMPEL
100
AcDbLine
 10
91.613125943199
 20
365.2238713038228
 30
0.0
 11
91.613125943199
 21
363.6238713038227
 31
0.0
  0
LINE
  5
3CA
330
106E
100
AcDbEntity
  8
STEMPEL
100
AcDbLine
 10
91.13413045249712
 20
368.5448182247563
 30
0.0
 11
91.13413045249712
 21
365.2238713038228
 31
0.0
  0
LINE
  5
3CB
330
106E
100
AcDbEntity
  8
STEMPEL
100
AcDbLine
 10
88.37362819784805
 20
368.5448182247563
 30
0.0
 11
88.37362819784805
 21
365.2238713038228
 31
0.0
  0
LINE
  5
3CF
330
106E
100
AcDbEntity
  8
HILF
100
AcDbLine
 10
120.3407125836774
 20
341.6238713038207
 30
0.0
 11
120.3407125836774
 21
336.1238713038206
 31
0.0
  0
LINE
  5
3D0
330
106E
100
AcDbEntity
  8
STEMPEL
100
AcDbLine
 10
119.3407125836772
 20
341.6238713038207
 30
0.0
 11
119.3407125836772
 21
336.1238713038206
 31
0.0
  0
LINE
  5
3D1
330
106E
100
AcDbEntity
  8
HILF
100
AcDbLine
 10
130.3407125836774
 20
341.6238713038207
 30
0.0
 11
130.3407125836774
 21
336.1238713038206
 31
0.0
  0
LINE
  5
3D2
330
106E
100
AcDbEntity
  8
STEMPEL
100
AcDbLine
 10
131.3407125836774
 20
341.6238713038207
 30
0.0
 11
131.3407125836774
 21
336.1238713038206
 31
0.0
  0
LINE
  5
3D3
102
{ACAD_REACTORS
330
1BF1
102
}
330
106E
100
AcDbEntity
  8
MITTEL
100
AcDbLine
 10
125.3407125836774
 20
371.1238713038204
 30
0.0
 11
125.3407125836774
 21
336.1238713038204
 31
0.0
  0
LWPOLYLINE
  5
3D4
330
106E
100
AcDbEntity
  8
STEMPEL
100
AcDbPolyline
 90
       18
 70
   128
 43
0.0
 10
-116.7768510001278
 20
375.1238713038206
 10
-116.854590901388
 20
376.5019926874452
 10
-117.0851632660698
 20
377.8331838002249
 10
-117.460716228835
 20
379.0721125254016
 10
-117.9684607839626
 20
380.1765886311708
 10
-118.5911062996005
 20
381.1090005084237
 10
-119.3074493294947
 20
381.837595988985
 10
-120.0930956709207
 20
382.3375636276183
 10
-120.9212910800001
 20
382.5918776260349
 10
-121.7638323553878
 20
382.5918776260349
 10
-122.5920277644672
 20
382.3375636276183
 10
-123.3776741058929
 20
381.837595988985
 10
-124.0940171357869
 20
381.1090005084237
 10
-124.7166626514249
 20
380.176588631171
 10
-125.2244072065527
 20
379.0721125254016
 10
-125.5999601693178
 20
377.8331838002249
 10
-125.8305325339997
 20
376.5019926874452
 10
-125.9082724352597
 20
375.1238713038206
210
0.0
220
0.0
230
-1.0
  0
LINE
  5
3E8
330
106E
100
AcDbEntity
  8
STEMPEL
100
AcDbLine
 10
133.2518473414579
 20
350.1238713038206
 30
0.0
 11
117.4295778259106
 21
350.1238713038206
 31
0.0
  0
LINE
  5
3E9
330
106E
100
AcDbEntity
  8
STEMPEL
100
AcDbLine
 10
133.2518473414579
 20
360.1238713038207
 30
0.0
 11
117.4295778259106
 21
360.1238713038209
 31
0.0
  0
LINE
  5
3EA
330
106E
100
AcDbEntity
  8
STEMPEL
100
AcDbLine
 10
137.3407125836774
 20
350.1238713038209
 30
0.0
 11
113.3407125836774
 21
350.1238713038209
 31
0.0
  0
ARC
  5
3EB
330
106E
100
AcDbEntity
  8
STEMPEL
100
AcDbCircle
 10
117.4288062833947
 20
354.4190222683856
 30
0.0
 40
4.29515103386132
100
AcDbArc
 50
238.5308054740846
 51
307.8806357171787
  0
ARC
  5
3EC
330
106E
100
AcDbEntity
  8
STEMPEL
100
AcDbCircle
 10
117.4288062833947
 20
355.8287203392559
 30
0.0
 40
4.29515103386132
100
AcDbArc
 50
52.1193642828213
 51
121.4691945223693
  0
LINE
  5
3ED
330
106E
100
AcDbEntity
  8
STEMPEL
100
AcDbLine
 10
114.8252741716091
 20
363.6238713038224
 30
0.0
 11
119.3407125836774
 21
363.6238713038224
 31
0.0
  0
LINE
  5
3EE
330
106E
100
AcDbEntity
  8
STEMPEL
100
AcDbLine
 10
116.7768510001278
 20
375.1238713038206
 30
0.0
 11
116.7768510001278
 21
368.623871303824
 31
0.0
  0
LINE
  5
3EF
330
106E
100
AcDbEntity
  8
STEMPEL
100
AcDbLine
 10
99.78692735399722
 20
375.1238713038206
 30
0.0
 11
99.78692735399722
 21
368.6238713038229
 31
0.0
  0
LINE
  5
3F0
330
106E
100
AcDbEntity
  8
STEMPEL
100
AcDbLine
 10
98.82281318423469
 20
375.1238713038206
 30
0.0
 11
98.82281318423469
 21
368.6238713038229
 31
0.0
  0
LINE
  5
3F1
330
106E
100
AcDbEntity
  8
STEMPEL
100
AcDbLine
 10
104.2788003309683
 20
375.1238713038206
 30
0.0
 11
104.2788003309683
 21
368.623871303824
 31
0.0
  0
LINE
  5
3F2
330
106E
100
AcDbEntity
  8
STEMPEL
100
AcDbLine
 10
100.7807060675349
 20
375.1238713038206
 30
0.0
 11
100.7807060675349
 21
368.6238713038218
 31
0.0
  0
LINE
  5
3F3
330
106E
100
AcDbEntity
  8
STEMPEL
100
AcDbLine
 10
110.0190518164458
 20
375.1238713038206
 30
0.0
 11
110.0190518164458
 21
368.623871303824
 31
0.0
  0
LINE
  5
3F4
330
106E
100
AcDbEntity
  8
STEMPEL
100
AcDbLine
 10
109.0929974799387
 20
375.1238713038206
 30
0.0
 11
109.0929974799387
 21
368.623871303824
 31
0.0
  0
LWPOLYLINE
  5
3F5
330
106E
100
AcDbEntity
  8
STEMPEL
100
AcDbPolyline
 90
       10
 70
   128
 43
0.0
 10
105.203687289872
 20
362.6238713038225
 10
106.0398665647134
 20
362.7150247857492
 10
106.850638955416
 20
362.985715579107
 10
107.6113695531589
 20
363.427718881116
 10
108.2989439436778
 20
364.0276046451086
 10
108.892470527046
 20
364.7671456457033
 10
109.3739152983673
 20
365.6238713038227
 10
109.7286498018877
 20
366.5717504438688
 10
109.9458956092218
 20
367.5819822378212
 10
110.0190518164458
 20
368.6238713038229
  0
LWPOLYLINE
  5
401
330
106E
100
AcDbEntity
  8
STEMPEL
100
AcDbPolyline
 90
        7
 70
   128
 43
0.0
 10
106.9394258472702
 20
363.6238713038224
 10
107.5595163703344
 20
364.2332092056632
 10
108.0913365171179
 20
364.9606394789526
 10
108.5205823168491
 20
365.7865969728963
 10
108.8357086646464
 20
366.6888665233585
 10
109.0282398416124
 20
367.6431804576016
 10
109.0929974799387
 20
368.6238713038229
  0
LWPOLYLINE
  5
40A
330
106E
100
AcDbEntity
  8
STEMPEL
100
AcDbPolyline
 90
        7
 70
   128
 43
0.0
 10
97.16646817032591
 20
363.6238713038229
 10
97.84317004540316
 20
364.233472031682
 10
98.44271946903717
 20
364.9610311155935
 10
98.94900814218676
 20
365.7870009772738
 10
99.34843343423239
 20
366.6891900024769
 10
99.63026384949529
 20
367.6433587706707
 10
99.78692735399675
 20
368.6238713038229
  0
LINE
  5
413
330
106E
100
AcDbEntity
  8
STEMPEL
100
AcDbLine
 10
96.20235400056385
 20
363.6238713038224
 30
0.0
 11
97.16646817032637
 21
363.6238713038224
 31
0.0
  0
LWPOLYLINE
  5
414
330
106E
100
AcDbEntity
  8
STEMPEL
100
AcDbPolyline
 90
       10
 70
   128
 43
0.0
 10
99.46343580439446
 20
362.6238713038225
 10
100.2996150792359
 20
362.7150247857492
 10
101.1103874699385
 20
362.985715579107
 10
101.8711180676814
 20
363.427718881116
 10
102.5586924582002
 20
364.0276046451086
 10
103.1522190415684
 20
364.7671456457033
 10
103.6336638128898
 20
365.6238713038227
 10
103.9883983164101
 20
366.5717504438688
 10
104.2056441237443
 20
367.5819822378212
 10
104.2788003309683
 20
368.6238713038229
  0
LINE
  5
420
330
106E
100
AcDbEntity
  8
HILF
100
AcDbLine
 10
104.2788003309682
 20
368.6238713038207
 30
0.0
 11
100.7807060675349
 21
368.6238713038207
 31
0.0
  0
LINE
  5
421
330
106E
100
AcDbEntity
  8
STEMPEL
100
AcDbLine
 10
102.1252286982998
 20
363.6238713038224
 30
0.0
 11
106.9394258472711
 21
363.6238713038224
 31
0.0
  0
LINE
  5
422
330
106E
100
AcDbEntity
  8
STEMPEL
100
AcDbLine
 10
117.4363713367015
 20
350.1238713038206
 30
0.0
 11
117.4295778259256
 21
350.1238713038206
 31
0.0
  0
LINE
  5
423
330
106E
100
AcDbEntity
  8
STEMPEL
100
AcDbLine
 10
117.4363713367015
 20
360.1238713038209
 30
0.0
 11
117.4295778259256
 21
360.1238713038209
 31
0.0
  0
LINE
  5
424
330
106E
100
AcDbEntity
  8
STEMPEL
100
AcDbLine
 10
114.7915041833007
 20
359.2640560235487
 30
0.0
 11
114.7915041833007
 21
350.983686584093
 31
0.0
  0
LINE
  5
425
330
106E
100
AcDbEntity
  8
STEMPEL
100
AcDbLine
 10
113.3407125836774
 20
350.1238713038209
 30
0.0
 11
113.3407125836774
 21
347.6238713038209
 31
0.0
  0
LINE
  5
426
330
106E
100
AcDbEntity
  8
STEMPEL
100
AcDbLine
 10
114.7915041833007
 20
350.9836865840928
 30
0.0
 11
115.1865653743538
 21
350.7555978990918
 31
0.0
  0
LINE
  5
427
330
106E
100
AcDbEntity
  8
STEMPEL
100
AcDbLine
 10
114.7915041833007
 20
359.2640560235487
 30
0.0
 11
115.1865653745844
 21
359.4921447086822
 31
0.0
  0
LWPOLYLINE
  5
428
330
106E
100
AcDbEntity
  8
STEMPEL
100
AcDbPolyline
 90
       10
 70
   128
 43
0.0
 10
112.413144825522
 20
362.6238713038225
 10
113.1708944506162
 20
362.7150247857492
 10
113.9056202367916
 20
362.985715579107
 10
114.5949979128249
 20
363.427718881116
 10
115.2180810868712
 20
364.0276046451086
 10
115.7559376919825
 20
364.7671456457033
 10
116.1922252273816
 20
365.6238713038227
 10
116.5136873170767
 20
366.5717504438688
 10
116.7105564981409
 20
367.5819822378212
 10
116.7768510001278
 20
368.6238713038229
  0
LINE
  5
434
330
106E
100
AcDbEntity
  8
HILF
100
AcDbLine
 10
116.7768510001278
 20
368.6238713038207
 30
0.0
 11
110.0190518164458
 21
368.6238713038207
 31
0.0
  0
LWPOLYLINE
  5
435
330
106E
100
AcDbEntity
  8
STEMPEL
100
AcDbPolyline
 90
        9
 70
   128
 43
0.0
 10
-106.6858989054551
 20
382.5256295484856
 10
-107.1749594487239
 20
382.1991966507281
 10
-107.6345724166248
 20
381.6539276374708
 10
-108.0505222202491
 20
380.9066873943428
 10
-108.4099437495405
 20
379.9805876715653
 10
-108.701720284428
 20
378.9042722495952
 10
-108.9168273291663
 20
377.7110310019641
 10
-109.0486117352738
 20
376.4377702568884
 10
-109.0929974799387
 20
375.123871303822
210
0.0
220
0.0
230
-1.0
  0
LWPOLYLINE
  5
440
330
106E
100
AcDbEntity
  8
STEMPEL
100
AcDbPolyline
 90
       18
 70
   128
 43
0.0
 10
-104.2788003309681
 20
375.1238713038206
 10
-104.3276696758843
 20
376.5019926874452
 10
-104.4726135237044
 20
377.8331838002249
 10
-104.7086959855316
 20
379.0721125254016
 10
-105.0278775562782
 20
380.1765886311708
 10
-105.4192888903687
 20
381.1090005084237
 10
-105.8696009442666
 20
381.837595988985
 10
-106.3634788810661
 20
382.3375636276183
 10
-106.884104279971
 20
382.5918776260349
 10
-107.4137478674428
 20
382.5918776260349
 10
-107.9343732663478
 20
382.3375636276183
 10
-108.4282512031472
 20
381.837595988985
 10
-108.8785632570452
 20
381.1090005084237
 10
-109.2699745911356
 20
380.176588631171
 10
-109.5891561618822
 20
379.0721125254016
 10
-109.8252386237094
 20
377.8331838002249
 10
-109.9701824715295
 20
376.5019926874452
 10
-110.0190518164458
 20
375.1238713038206
210
0.0
220
0.0
230
-1.0
  0
LWPOLYLINE
  5
455
330
106E
100
AcDbEntity
  8
STEMPEL
100
AcDbPolyline
 90
       18
 70
   128
 43
0.0
 10
-98.82281318423423
 20
375.1238713038206
 10
-98.8394816077111
 20
376.5019926874452
 10
-98.88891925497132
 20
377.8331838002249
 10
-98.96944258623188
 20
379.0721125254016
 10
-99.07830947602356
 20
380.1765886311708
 10
-99.21181259298595
 20
381.1090005084237
 10
-99.36540564858995
 20
381.837595988985
 10
-99.53385821554201
 20
382.3375636276183
 10
-99.71143384371083
 20
382.5918776260349
 10
-99.89208540805789
 20
382.5918776260349
 10
-100.0696610362269
 20
382.3375636276183
 10
-100.238113603179
 20
381.837595988985
 10
-100.3917066587832
 20
381.1090005084237
 10
-100.5252097757454
 20
380.176588631171
 10
-100.634076665537
 20
379.0721125254016
 10
-100.7145999967974
 20
377.8331838002249
 10
-100.7640376440578
 20
376.5019926874452
 10
-100.7807060675347
 20
375.1238713038206
210
0.0
220
0.0
230
-1.0
  0
LWPOLYLINE
  5
469
330
106E
100
AcDbEntity
  8
STEMPEL
100
AcDbPolyline
 90
        7
 70
   128
 43
0.0
 10
-99.30487026911572
 20
381.5859253596605
 10
-99.44269927868589
 20
380.833819122722
 10
-99.56156355565207
 20
379.9111055120071
 10
-99.65791155755319
 20
378.8453542621028
 10
-99.7288645050914
 20
377.6684089252818
 10
-99.77230239709928
 20
376.41543541888
 10
-99.78692735399699
 20
375.1238713038206
210
0.0
220
0.0
230
-1.0
  0
LINE
  5
491
330
106E
100
AcDbEntity
  8
STEMPEL
100
AcDbLine
 10
125.1130515484387
 20
375.1238713038206
 30
0.0
 11
125.1130515484387
 21
368.623871303824
 31
0.0
  0
LINE
  5
492
330
106E
100
AcDbEntity
  8
STEMPEL
100
AcDbLine
 10
125.9082724352597
 20
375.1238713038206
 30
0.0
 11
125.9082724352597
 21
368.623871303824
 31
0.0
  0
LINE
  5
493
330
106E
100
AcDbEntity
  8
HILF
100
AcDbLine
 10
135.4652436926107
 20
368.6238713038211
 30
0.0
 11
125.9082724352595
 21
368.6238713038209
 31
0.0
  0
ARC
  5
494
330
106E
100
AcDbEntity
  8
STEMPEL
100
AcDbCircle
 10
125.3407125836774
 20
365.9469403007352
 30
0.0
 40
15.82306899691459
100
AcDbArc
 50
250.5278273813858
 51
289.4721726186141
  0
ARC
  5
495
330
106E
100
AcDbEntity
  8
STEMPEL
100
AcDbCircle
 10
125.3407125836774
 20
344.3008023069063
 30
0.0
 40
15.82306899691459
100
AcDbArc
 50
70.52782738138593
 51
109.4721726186141
  0
LINE
  5
496
330
106E
100
AcDbEntity
  8
STEMPEL
100
AcDbLine
 10
119.3407125836774
 20
365.1238713038202
 30
0.0
 11
131.3407125836774
 21
365.1238713038202
 31
0.0
  0
LINE
  5
497
330
106E
100
AcDbEntity
  8
STEMPEL
100
AcDbLine
 10
120.3407125836774
 20
366.1238713038202
 30
0.0
 11
130.3407125836774
 21
366.1238713038202
 31
0.0
  0
LINE
  5
498
330
106E
100
AcDbEntity
  8
STEMPEL
100
AcDbLine
 10
120.3407125836774
 20
366.1238713038202
 30
0.0
 11
130.3407125836774
 21
366.1238713038202
 31
0.0
  0
LINE
  5
499
330
106E
100
AcDbEntity
  8
STEMPEL
100
AcDbLine
 10
120.0661083834888
 20
359.2188471859268
 30
0.0
 11
120.0661083834888
 21
351.0288954217145
 31
0.0
  0
LINE
  5
49A
330
106E
100
AcDbEntity
  8
STEMPEL
100
AcDbLine
 10
119.3407125836774
 20
365.1238713038202
 30
0.0
 11
119.3407125836774
 21
360.1238713038207
 31
0.0
  0
LINE
  5
49B
330
106E
100
AcDbEntity
  8
HILF
100
AcDbLine
 10
120.3407125836774
 20
366.1238713038202
 30
0.0
 11
120.3407125836774
 21
360.1238713038207
 31
0.0
  0
LWPOLYLINE
  5
49C
330
106E
100
AcDbEntity
  8
STEMPEL
100
AcDbPolyline
 90
        4
 70
   128
 43
0.0
 10
124.7162132414679
 20
366.1238713038202
 10
124.9351609018626
 20
366.9281939636904
 10
125.0683499260253
 20
367.7672575181858
 10
125.1130515484387
 20
368.6238713038229
  0
LWPOLYLINE
  5
4A2
330
106E
100
AcDbEntity
  8
STEMPEL
100
AcDbPolyline
 90
        4
 70
   128
 43
0.0
 10
125.5114341282889
 20
366.1238713038202
 10
125.7303817886836
 20
366.9281939636904
 10
125.8635708128462
 20
367.7672575181858
 10
125.9082724352597
 20
368.6238713038229
  0
LINE
  5
4A8
330
106E
100
AcDbEntity
  8
STEMPEL
100
AcDbLine
 10
119.3407125836774
 20
365.1238713038202
 30
0.0
 11
120.3407125836774
 21
366.1238713038202
 31
0.0
  0
ARC
  5
4A9
330
106E
100
AcDbEntity
  8
STEMPEL
100
AcDbCircle
 10
133.2526188839596
 20
355.8287203392559
 30
0.0
 40
4.29515103386132
100
AcDbArc
 50
58.53080547407401
 51
127.8806357171786
  0
ARC
  5
4AA
330
106E
100
AcDbEntity
  8
STEMPEL
100
AcDbCircle
 10
133.2526188839596
 20
354.4190222683856
 30
0.0
 40
4.29515103386132
100
AcDbArc
 50
232.1193642828213
 51
301.469194525926
  0
LINE
  5
4AB
330
106E
100
AcDbEntity
  8
STEMPEL
100
AcDbLine
 10
130.6153167838655
 20
359.2188471859268
 30
0.0
 11
130.6153167838655
 21
351.0288954217147
 31
0.0
  0
LINE
  5
4AC
330
106E
100
AcDbEntity
  8
STEMPEL
100
AcDbLine
 10
131.3407125836774
 20
365.1238713038202
 30
0.0
 11
131.3407125836774
 21
360.1238713038207
 31
0.0
  0
LINE
  5
4AD
330
106E
100
AcDbEntity
  8
HILF
100
AcDbLine
 10
130.3407125836774
 20
366.1238713038202
 30
0.0
 11
130.3407125836774
 21
360.1238713038207
 31
0.0
  0
LINE
  5
4AE
330
106E
100
AcDbEntity
  8
STEMPEL
100
AcDbLine
 10
130.3407125836774
 20
366.1238713038202
 30
0.0
 11
131.3407125836774
 21
365.1238713038202
 31
0.0
  0
LINE
  5
4AF
330
106E
100
AcDbEntity
  8
STEMPEL
100
AcDbLine
 10
135.8899209840537
 20
359.2640560235487
 30
0.0
 11
135.8899209840537
 21
350.983686584093
 31
0.0
  0
LINE
  5
4B0
330
106E
100
AcDbEntity
  8
STEMPEL
100
AcDbLine
 10
137.3407125836774
 20
347.6238713038209
 30
0.0
 11
137.3407125836774
 21
350.1238713038209
 31
0.0
  0
LINE
  5
4B1
330
106E
100
AcDbEntity
  8
STEMPEL
100
AcDbLine
 10
135.8899209840537
 20
350.9836865840928
 30
0.0
 11
135.494859793001
 21
350.7555978990925
 31
0.0
  0
LINE
  5
4B2
330
106E
100
AcDbEntity
  8
STEMPEL
100
AcDbLine
 10
135.8899209840537
 20
359.2640560235487
 30
0.0
 11
135.494859793001
 21
359.492144708549
 31
0.0
  0
LWPOLYLINE
  5
4B3
330
106E
100
AcDbEntity
  8
STEMPEL
100
AcDbPolyline
 90
       10
 70
   128
 43
0.0
 10
-120.547340830873
 20
382.6238713038236
 10
-121.3401681767326
 20
382.5099294514151
 10
-122.1089058648783
 20
382.1715659597178
 10
-122.8301961896558
 20
381.6190618322067
 10
-123.4821231095374
 20
380.8692046272156
 10
-124.0448781549529
 20
379.944778376472
 10
-124.5013622986159
 20
378.8738713038229
 10
-124.8377055008126
 20
377.689022378765
 10
-125.0436881435427
 20
376.4262326363242
 10
-125.1130515484387
 20
375.123871303822
210
0.0
220
0.0
230
-1.0
  0
ARC
  5
4C0
330
106E
100
AcDbEntity
  8
STEMPEL
100
AcDbCircle
 10
153.613125943199
 20
284.1238713038206
 30
0.0
 40
9.0
100
AcDbArc
 50
180.0
 51
270.0000000000001
  0
ARC
  5
4C1
330
106E
100
AcDbEntity
  8
STEMPEL
100
AcDbCircle
 10
153.613125943199
 20
284.1238713038206
 30
0.0
 40
7.0
100
AcDbArc
 50
180.0
 51
270.0000000000001
  0
LINE
  5
4C2
330
106E
100
AcDbEntity
  8
STEMPEL
100
AcDbLine
 10
144.613125943199
 20
330.1238713038206
 30
0.0
 11
144.613125943199
 21
284.1238713038206
 31
0.0
  0
LINE
  5
4C3
330
106E
100
AcDbEntity
  8
STEMPEL
100
AcDbLine
 10
146.613125943199
 20
330.1238713038206
 30
0.0
 11
146.613125943199
 21
284.1238713038206
 31
0.0
  0
ARC
  5
4C4
330
106E
100
AcDbEntity
  8
SCHRAFF
100
AcDbCircle
 10
144.613125943199
 20
330.1238713038206
 30
0.0
 40
3.0
100
AcDbArc
 50
180.0
 51
270.0
  0
LINE
  5
4C6
330
106E
100
AcDbEntity
  8
STEMPEL
100
AcDbLine
 10
146.613125943199
 20
330.1238713038206
 30
0.0
 11
146.613125943199
 21
336.1238713038206
 31
0.0
  0
LINE
  5
4C8
330
106E
100
AcDbEntity
  8
HILF
100
AcDbLine
 10
202.613125943199
 20
341.6238713038207
 30
0.0
 11
202.613125943199
 21
336.1238713038206
 31
0.0
  0
LINE
  5
4C9
330
106E
100
AcDbEntity
  8
STEMPEL
100
AcDbLine
 10
201.6131259431988
 20
341.6238713038207
 30
0.0
 11
201.6131259431988
 21
336.1238713038206
 31
0.0
  0
LINE
  5
4CA
330
106E
100
AcDbEntity
  8
STEMPEL
100
AcDbLine
 10
213.613125943199
 20
341.6238713038207
 30
0.0
 11
213.613125943199
 21
336.1238713038206
 31
0.0
  0
LINE
  5
4CB
330
106E
100
AcDbEntity
  8
HILF
100
AcDbLine
 10
212.613125943199
 20
341.6238713038207
 30
0.0
 11
212.613125943199
 21
336.1238713038206
 31
0.0
  0
LINE
  5
4CE
330
106E
100
AcDbEntity
  8
STEMPEL
100
AcDbLine
 10
268.613125943199
 20
330.1238713038206
 30
0.0
 11
268.613125943199
 21
336.1238713038206
 31
0.0
  0
LINE
  5
4D0
330
106E
100
AcDbEntity
  8
HILF
100
AcDbLine
 10
284.8855393027206
 20
341.6238713038207
 30
0.0
 11
284.8855393027206
 21
336.1238713038206
 31
0.0
  0
LINE
  5
4D1
330
106E
100
AcDbEntity
  8
STEMPEL
100
AcDbLine
 10
283.8855393027206
 20
341.6238713038207
 30
0.0
 11
283.8855393027206
 21
336.1238713038206
 31
0.0
  0
LINE
  5
4D2
330
106E
100
AcDbEntity
  8
STEMPEL
100
AcDbLine
 10
295.8855393027206
 20
341.6238713038207
 30
0.0
 11
295.8855393027206
 21
336.1238713038206
 31
0.0
  0
LINE
  5
4D3
330
106E
100
AcDbEntity
  8
HILF
100
AcDbLine
 10
294.8855393027206
 20
341.6238713038207
 30
0.0
 11
294.8855393027206
 21
336.1238713038206
 31
0.0
  0
LINE
  5
4D4
102
{ACAD_REACTORS
330
1BF1
102
}
330
106E
100
AcDbEntity
  8
MITTEL
100
AcDbLine
 10
289.8855393027206
 20
371.1238713038202
 30
0.0
 11
289.8855393027206
 21
336.1238713038202
 31
0.0
  0
LINE
  5
4D5
330
106E
100
AcDbEntity
  8
STEMPEL
100
AcDbLine
 10
301.8855393027206
 20
350.1238713038206
 30
0.0
 11
277.8855393027206
 21
350.1238713038206
 31
0.0
  0
LINE
  5
4D6
330
106E
100
AcDbEntity
  8
STEMPEL
100
AcDbLine
 10
297.796674060501
 20
350.1238713038206
 30
0.0
 11
281.9744045449537
 21
350.1238713038206
 31
0.0
  0
ARC
  5
4D7
330
106E
100
AcDbEntity
  8
STEMPEL
100
AcDbCircle
 10
289.8855393027206
 20
365.9469403007352
 30
0.0
 40
15.82306899691459
100
AcDbArc
 50
250.5278273813858
 51
289.4721726186141
  0
LINE
  5
4D8
330
106E
100
AcDbEntity
  8
STEMPEL
100
AcDbLine
 10
297.796674060501
 20
360.1238713038207
 30
0.0
 11
281.9744045449537
 21
360.1238713038207
 31
0.0
  0
ARC
  5
4D9
330
106E
100
AcDbEntity
  8
STEMPEL
100
AcDbCircle
 10
289.8855393027206
 20
344.3008023069061
 30
0.0
 40
15.82306899691459
100
AcDbArc
 50
70.52782738138593
 51
109.4721726186141
  0
LINE
  5
4DA
330
106E
100
AcDbEntity
  8
STEMPEL
100
AcDbLine
 10
283.8855393027206
 20
365.1238713038202
 30
0.0
 11
295.8855393027206
 21
365.1238713038202
 31
0.0
  0
LINE
  5
4DB
330
106E
100
AcDbEntity
  8
STEMPEL
100
AcDbLine
 10
284.8855393027206
 20
366.1238713038202
 30
0.0
 11
294.8855393027206
 21
366.1238713038202
 31
0.0
  0
LINE
  5
4DC
330
106E
100
AcDbEntity
  8
STEMPEL
100
AcDbLine
 10
284.8855393027206
 20
366.1238713038202
 30
0.0
 11
294.8855393027206
 21
366.1238713038202
 31
0.0
  0
LWPOLYLINE
  5
4DD
330
106E
100
AcDbEntity
  8
STEMPEL
100
AcDbPolyline
 90
       18
 70
   128
 43
0.0
 10
298.4494008862697
 20
375.1238713038206
 10
298.3716609850098
 20
376.5019926874452
 10
298.1410886203279
 20
377.8331838002249
 10
297.7655356575628
 20
379.0721125254016
 10
297.257791102435
 20
380.1765886311708
 10
296.635145586797
 20
381.1090005084237
 10
295.9188025569032
 20
381.837595988985
 10
295.1331562154773
 20
382.3375636276183
 10
294.3049608063979
 20
382.5918776260349
 10
293.4624195310102
 20
382.5918776260349
 10
292.6342241219308
 20
382.3375636276183
 10
291.8485777805049
 20
381.837595988985
 10
291.1322347506106
 20
381.1090005084237
 10
290.5095892349727
 20
380.176588631171
 10
290.0018446798451
 20
379.0721125254016
 10
289.6262917170797
 20
377.8331838002249
 10
289.3957193523981
 20
376.5019926874452
 10
289.3179794511379
 20
375.1238713038206
  0
LWPOLYLINE
  5
4F1
330
106E
100
AcDbEntity
  8
STEMPEL
100
AcDbPolyline
 90
       10
 70
   128
 43
0.0
 10
294.678911055525
 20
382.6238713038236
 10
293.8860837096653
 20
382.5099294514151
 10
293.1173460215195
 20
382.1715659597178
 10
292.3960556967419
 20
381.6190618322067
 10
291.7441287768606
 20
380.8692046272156
 10
291.1813737314448
 20
379.944778376472
 10
290.7248895877819
 20
378.8738713038229
 10
290.3885463855849
 20
377.689022378765
 10
290.1825637428551
 20
376.4262326363242
 10
290.1132003379589
 20
375.123871303822
  0
LINE
  5
4FD
330
106E
100
AcDbEntity
  8
STEMPEL
100
AcDbLine
 10
289.3179794511383
 20
375.1238713038206
 30
0.0
 11
289.3179794511383
 21
368.623871303824
 31
0.0
  0
LINE
  5
4FE
330
106E
100
AcDbEntity
  8
STEMPEL
100
AcDbLine
 10
290.1132003379593
 20
375.1238713038206
 30
0.0
 11
290.1132003379593
 21
368.623871303824
 31
0.0
  0
ARC
  5
500
330
106E
100
AcDbEntity
  8
STEMPEL
100
AcDbCircle
 10
281.9736330024383
 20
354.4190222683856
 30
0.0
 40
4.29515103386132
100
AcDbArc
 50
238.5308054740846
 51
307.8806357171787
  0
ARC
  5
501
330
106E
100
AcDbEntity
  8
STEMPEL
100
AcDbCircle
 10
281.9736330024383
 20
355.8287203392556
 30
0.0
 40
4.29515103386132
100
AcDbArc
 50
52.1193642828213
 51
121.4691945223693
  0
LINE
  5
502
330
106E
100
AcDbEntity
  8
STEMPEL
100
AcDbLine
 10
281.9811980557446
 20
350.1238713038206
 30
0.0
 11
281.9744045449688
 21
350.1238713038206
 31
0.0
  0
LINE
  5
503
330
106E
100
AcDbEntity
  8
STEMPEL
100
AcDbLine
 10
281.9811980557446
 20
360.1238713038207
 30
0.0
 11
281.9744045449688
 21
360.1238713038207
 31
0.0
  0
LINE
  5
504
330
106E
100
AcDbEntity
  8
STEMPEL
100
AcDbLine
 10
279.3363309023443
 20
359.2640560235487
 30
0.0
 11
279.7313920936276
 21
359.4921447086822
 31
0.0
  0
LINE
  5
505
330
106E
100
AcDbEntity
  8
STEMPEL
100
AcDbLine
 10
279.3363309023443
 20
350.9836865840926
 30
0.0
 11
279.731392093397
 21
350.7555978990918
 31
0.0
  0
LINE
  5
506
330
106E
100
AcDbEntity
  8
STEMPEL
100
AcDbLine
 10
279.3363309023443
 20
359.2640560235487
 30
0.0
 11
279.3363309023443
 21
350.9836865840928
 31
0.0
  0
LINE
  5
507
330
106E
100
AcDbEntity
  8
STEMPEL
100
AcDbLine
 10
277.8855393027206
 20
350.1238713038206
 30
0.0
 11
277.8855393027206
 21
347.6238713038207
 31
0.0
  0
LINE
  5
509
330
106E
100
AcDbEntity
  8
STEMPEL
100
AcDbLine
 10
284.6109351025324
 20
359.2188471859268
 30
0.0
 11
284.6109351025324
 21
351.0288954217145
 31
0.0
  0
LINE
  5
50A
330
106E
100
AcDbEntity
  8
STEMPEL
100
AcDbLine
 10
283.8855393027206
 20
365.1238713038202
 30
0.0
 11
283.8855393027206
 21
360.1238713038207
 31
0.0
  0
LINE
  5
50B
330
106E
100
AcDbEntity
  8
HILF
100
AcDbLine
 10
284.8855393027206
 20
366.1238713038202
 30
0.0
 11
284.8855393027206
 21
360.1238713038207
 31
0.0
  0
LWPOLYLINE
  5
50C
330
106E
100
AcDbEntity
  8
STEMPEL
100
AcDbPolyline
 90
        4
 70
   128
 43
0.0
 10
-290.5100386449298
 20
366.1238713038202
 10
-290.2910909845349
 20
366.9281939636904
 10
-290.1579019603727
 20
367.7672575181858
 10
-290.1132003379593
 20
368.6238713038229
210
0.0
220
0.0
230
-1.0
  0
LWPOLYLINE
  5
512
330
106E
100
AcDbEntity
  8
STEMPEL
100
AcDbPolyline
 90
        4
 70
   128
 43
0.0
 10
-289.7148177581089
 20
366.1238713038202
 10
-289.495870097714
 20
366.9281939636904
 10
-289.3626810735518
 20
367.7672575181858
 10
-289.3179794511383
 20
368.6238713038229
210
0.0
220
0.0
230
-1.0
  0
LINE
  5
518
330
106E
100
AcDbEntity
  8
STEMPEL
100
AcDbLine
 10
283.8855393027206
 20
365.1238713038202
 30
0.0
 11
284.8855393027206
 21
366.1238713038202
 31
0.0
  0
LINE
  5
519
330
106E
100
AcDbEntity
  8
STEMPEL
100
AcDbLine
 10
298.4494008862702
 20
375.1238713038206
 30
0.0
 11
298.4494008862702
 21
368.623871303824
 31
0.0
  0
LINE
  5
51A
330
106E
100
AcDbEntity
  8
STEMPEL
100
AcDbLine
 10
314.4455458188631
 20
375.1238713038206
 30
0.0
 11
314.4455458188631
 21
368.6238713038218
 31
0.0
  0
LINE
  5
51B
330
106E
100
AcDbEntity
  8
STEMPEL
100
AcDbLine
 10
310.9474515554297
 20
375.1238713038206
 30
0.0
 11
310.9474515554297
 21
368.623871303824
 31
0.0
  0
LINE
  5
51C
330
106E
100
AcDbEntity
  8
STEMPEL
100
AcDbLine
 10
306.1332544064593
 20
375.1238713038206
 30
0.0
 11
306.1332544064593
 21
368.623871303824
 31
0.0
  0
LINE
  5
51D
330
106E
100
AcDbEntity
  8
STEMPEL
100
AcDbLine
 10
305.2072000699522
 20
375.1238713038206
 30
0.0
 11
305.2072000699522
 21
368.623871303824
 31
0.0
  0
LINE
  5
51E
330
106E
100
AcDbEntity
  8
STEMPEL
100
AcDbLine
 10
315.4393245324008
 20
375.1238713038206
 30
0.0
 11
315.4393245324008
 21
368.6238713038229
 31
0.0
  0
LINE
  5
51F
330
106E
100
AcDbEntity
  8
STEMPEL
100
AcDbLine
 10
300.4347477030969
 20
359.2640560235487
 30
0.0
 11
300.4347477030969
 21
350.9836865840928
 31
0.0
  0
LINE
  5
520
330
106E
100
AcDbEntity
  8
STEMPEL
100
AcDbLine
 10
295.1601435029088
 20
359.2188471859268
 30
0.0
 11
295.1601435029088
 21
351.0288954217145
 31
0.0
  0
ARC
  5
521
330
106E
100
AcDbEntity
  8
STEMPEL
100
AcDbCircle
 10
297.7974456030028
 20
354.4190222683856
 30
0.0
 40
4.29515103386132
100
AcDbArc
 50
232.1193642828213
 51
301.469194525926
  0
LINE
  5
522
330
106E
100
AcDbEntity
  8
STEMPEL
100
AcDbLine
 10
300.4347477030969
 20
350.9836865840926
 30
0.0
 11
300.0396865120446
 21
350.7555978990922
 31
0.0
  0
LINE
  5
523
330
106E
100
AcDbEntity
  8
STEMPEL
100
AcDbLine
 10
301.8855393027206
 20
347.6238713038207
 30
0.0
 11
301.8855393027206
 21
350.1238713038206
 31
0.0
  0
LINE
  5
524
330
106E
100
AcDbEntity
  8
STEMPEL
100
AcDbLine
 10
295.8855393027206
 20
365.1238713038202
 30
0.0
 11
295.8855393027206
 21
360.1238713038207
 31
0.0
  0
LINE
  5
525
330
106E
100
AcDbEntity
  8
HILF
100
AcDbLine
 10
294.8855393027206
 20
366.1238713038202
 30
0.0
 11
294.8855393027206
 21
360.1238713038207
 31
0.0
  0
ARC
  5
526
330
106E
100
AcDbEntity
  8
STEMPEL
100
AcDbCircle
 10
297.7974456030028
 20
355.8287203392556
 30
0.0
 40
4.29515103386132
100
AcDbArc
 50
58.53080547407401
 51
127.8806357171786
  0
LINE
  5
527
330
106E
100
AcDbEntity
  8
STEMPEL
100
AcDbLine
 10
300.4347477030969
 20
359.2640560235487
 30
0.0
 11
300.0396865120446
 21
359.492144708549
 31
0.0
  0
LINE
  5
528
330
106E
100
AcDbEntity
  8
STEMPEL
100
AcDbLine
 10
300.4009777147889
 20
363.6238713038224
 30
0.0
 11
295.8855393027206
 21
363.6238713038224
 31
0.0
  0
LINE
  5
529
330
106E
100
AcDbEntity
  8
STEMPEL
100
AcDbLine
 10
294.8855393027206
 20
366.1238713038202
 30
0.0
 11
295.8855393027206
 21
365.1238713038202
 31
0.0
  0
LWPOLYLINE
  5
52A
330
106E
100
AcDbEntity
  8
STEMPEL
100
AcDbPolyline
 90
       10
 70
   128
 43
0.0
 10
-302.813107060876
 20
362.6238713038225
 10
-302.0553574357818
 20
362.7150247857492
 10
-301.3206316496061
 20
362.985715579107
 10
-300.6312539735731
 20
363.427718881116
 10
-300.0081707995268
 20
364.0276046451086
 10
-299.470314194415
 20
364.7671456457033
 10
-299.0340266590164
 20
365.6238713038227
 10
-298.7125645693208
 20
366.5717504438688
 10
-298.5156953882569
 20
367.5819822378212
 10
-298.4494008862702
 20
368.6238713038229
210
0.0
220
0.0
230
-1.0
  0
LINE
  5
536
330
106E
100
AcDbEntity
  8
HILF
100
AcDbLine
 10
298.4494008862702
 20
368.6238713038207
 30
0.0
 11
305.2072000699522
 21
368.6238713038207
 31
0.0
  0
LWPOLYLINE
  5
537
330
106E
100
AcDbEntity
  8
STEMPEL
100
AcDbPolyline
 90
       10
 70
   128
 43
0.0
 10
-310.022564596526
 20
362.6238713038225
 10
-309.1863853216843
 20
362.7150247857492
 10
-308.3756129309817
 20
362.985715579107
 10
-307.6148823332391
 20
363.427718881116
 10
-306.9273079427202
 20
364.0276046451086
 10
-306.3337813593516
 20
364.7671456457033
 10
-305.8523365880305
 20
365.6238713038227
 10
-305.4976020845101
 20
366.5717504438688
 10
-305.2803562771759
 20
367.5819822378212
 10
-305.207200069952
 20
368.6238713038229
210
0.0
220
0.0
230
-1.0
  0
LWPOLYLINE
  5
543
330
106E
100
AcDbEntity
  8
STEMPEL
100
AcDbPolyline
 90
        7
 70
   128
 43
0.0
 10
-308.2868260391278
 20
363.6238713038224
 10
-307.6667355160634
 20
364.2332092056632
 10
-307.1349153692799
 20
364.9606394789526
 10
-306.7056695695487
 20
365.7865969728963
 10
-306.3905432217513
 20
366.6888665233585
 10
-306.1980120447856
 20
367.6431804576016
 10
-306.1332544064591
 20
368.6238713038229
210
0.0
220
0.0
230
-1.0
  0
LINE
  5
54C
330
106E
100
AcDbEntity
  8
STEMPEL
100
AcDbLine
 10
313.1010231880982
 20
363.6238713038224
 30
0.0
 11
308.2868260391269
 21
363.6238713038224
 31
0.0
  0
LINE
  5
54D
330
106E
100
AcDbEntity
  8
HILF
100
AcDbLine
 10
310.9474515554297
 20
368.6238713038206
 30
0.0
 11
314.4455458188631
 21
368.6238713038207
 31
0.0
  0
LWPOLYLINE
  5
56D
330
106E
100
AcDbEntity
  8
STEMPEL
100
AcDbPolyline
 90
       18
 70
   128
 43
0.0
 10
310.9474515554297
 20
375.1238713038206
 10
310.8985822105134
 20
376.5019926874452
 10
310.7536383626934
 20
377.8331838002249
 10
310.5175559008662
 20
379.0721125254016
 10
310.1983743301193
 20
380.1765886311708
 10
309.8069629960291
 20
381.1090005084237
 10
309.3566509421311
 20
381.837595988985
 10
308.8627730053317
 20
382.3375636276183
 10
308.3421476064267
 20
382.5918776260349
 10
307.8125040189549
 20
382.5918776260349
 10
307.2918786200502
 20
382.3375636276183
 10
306.7980006832503
 20
381.837595988985
 10
306.3476886293526
 20
381.1090005084237
 10
305.9562772952622
 20
380.176588631171
 10
305.6370957245155
 20
379.0721125254016
 10
305.4010132626883
 20
377.8331838002249
 10
305.2560694148683
 20
376.5019926874452
 10
305.207200069952
 20
375.1238713038206
  0
LWPOLYLINE
  5
581
330
106E
100
AcDbEntity
  8
STEMPEL
100
AcDbPolyline
 90
        9
 70
   128
 43
0.0
 10
308.5403529809427
 20
382.5256295484856
 10
308.0512924376739
 20
382.1991966507281
 10
307.5916794697729
 20
381.6539276374708
 10
307.1757296661487
 20
380.9066873943428
 10
306.816308136857
 20
379.9805876715653
 10
306.5245316019695
 20
378.9042722495952
 10
306.3094245572315
 20
377.7110310019641
 10
306.177640151124
 20
376.4377702568884
 10
306.1332544064591
 20
375.123871303822
  0
LINE
  5
58C
330
106E
100
AcDbEntity
  8
HILF
100
AcDbLine
 10
105.286792885668
 20
435.6238713038251
 30
0.0
 11
310.4394590007296
 21
435.623871303825
 31
0.0
  0
LINE
  5
58D
330
106E
100
AcDbEntity
  8
STEMPEL
100
AcDbLine
 10
287.613125943199
 20
451.6238713038218
 30
0.0
 11
127.6131259431985
 21
451.6238713038224
 31
0.0
  0
LINE
  5
58E
330
106E
100
AcDbEntity
  8
STEMPEL
100
AcDbLine
 10
198.946928425199
 20
452.6238713038219
 30
0.0
 11
127.6131259431985
 21
452.6238713038224
 31
0.0
  0
LINE
  5
58F
330
106E
100
AcDbEntity
  8
STEMPEL
100
AcDbLine
 10
101.0937723750716
 20
436.9427087507031
 30
0.0
 11
125.0726262680227
 21
450.9303619168886
 31
0.0
  0
LINE
  5
590
330
106E
100
AcDbEntity
  8
STEMPEL
100
AcDbLine
 10
100.5804313214907
 20
437.8009518638657
 30
0.0
 11
124.5667341969578
 21
451.7929618745543
 31
0.0
  0
ARC
  5
5B1
330
106E
100
AcDbEntity
  8
STEMPEL
100
AcDbCircle
 10
103.613125943199
 20
432.6238133365069
 30
0.0
 40
5.0
100
AcDbArc
 50
120.2564164748152
 51
180.0
  0
ARC
  5
5B2
330
106E
100
AcDbEntity
  8
STEMPEL
100
AcDbCircle
 10
103.613125943199
 20
432.6238133365069
 30
0.0
 40
6.0
100
AcDbArc
 50
120.2564164748152
 51
180.0
  0
ARC
  5
5B3
330
106E
100
AcDbEntity
  8
STEMPEL
100
AcDbCircle
 10
98.10198233888735
 20
442.1437082862842
 30
0.0
 40
5.0
100
AcDbArc
 50
300.0670458384848
 51
300.2564371635294
  0
ARC
  5
5B4
330
106E
100
AcDbEntity
  8
STEMPEL
100
AcDbCircle
 10
127.6131259431985
 20
446.623871303822
 30
0.0
 40
6.0
100
AcDbArc
 50
90.0
 51
90.0
  0
ARC
  5
5B5
330
106E
100
AcDbEntity
  8
STEMPEL
100
AcDbCircle
 10
127.6131259431985
 20
446.623871303822
 30
0.0
 40
5.0
100
AcDbArc
 50
90.0
 51
120.5373500483013
  0
ARC
  5
5B6
330
106E
100
AcDbEntity
  8
STEMPEL
100
AcDbCircle
 10
127.6131259431985
 20
446.623871303822
 30
0.0
 40
6.0
100
AcDbArc
 50
90.0
 51
120.512874327619
  0
LINE
  5
5B7
330
106E
100
AcDbEntity
  8
STEMPEL
100
AcDbLine
 10
287.613125943199
 20
452.6238713038218
 30
0.0
 11
216.2793234611986
 21
452.6238713038222
 31
0.0
  0
LINE
  5
5B8
330
106E
100
AcDbEntity
  8
STEMPEL
100
AcDbLine
 10
200.8834200983023
 20
453.1238713038222
 30
0.0
 11
214.3428317880952
 21
453.1238713038222
 31
0.0
  0
LINE
  5
5B9
330
106E
100
AcDbEntity
  8
STEMPEL
100
AcDbLine
 10
200.8834200983023
 20
454.1238713038222
 30
0.0
 11
214.3428317880952
 21
454.1238713038222
 31
0.0
  0
ARC
  5
5BA
330
106E
100
AcDbEntity
  8
STEMPEL
100
AcDbCircle
 10
198.946928425199
 20
453.1238713038222
 30
0.0
 40
1.5
100
AcDbArc
 50
270.0
 51
345.5224878140703
  0
ARC
  5
5BB
330
106E
100
AcDbEntity
  8
STEMPEL
100
AcDbCircle
 10
200.8834200983023
 20
452.6238713038222
 30
0.0
 40
0.5
100
AcDbArc
 50
90.00000000000007
 51
165.5224878140689
  0
ARC
  5
5BC
330
106E
100
AcDbEntity
  8
STEMPEL
100
AcDbCircle
 10
198.946928425199
 20
453.1238713038222
 30
0.0
 40
0.5
100
AcDbArc
 50
270.0
 51
345.5224878140703
  0
LINE
  5
5BD
330
106E
100
AcDbEntity
  8
STEMPEL
100
AcDbLine
 10
198.946928425199
 20
452.6238713038222
 30
0.0
 11
198.7581792325999
 21
452.6238713038222
 31
0.0
  0
ARC
  5
5BE
330
106E
100
AcDbEntity
  8
STEMPEL
100
AcDbCircle
 10
200.8834200983023
 20
452.6238713038222
 30
0.0
 40
1.5
100
AcDbArc
 50
90.00000000000007
 51
165.5224878140689
  0
LINE
  5
5BF
330
106E
100
AcDbEntity
  8
STEMPEL
100
AcDbLine
 10
216.2793234611986
 20
452.6238713038222
 30
0.0
 11
216.4680726537981
 21
452.6238713038222
 31
0.0
  0
ARC
  5
5C0
330
106E
100
AcDbEntity
  8
STEMPEL
100
AcDbCircle
 10
216.2793234611986
 20
453.1238713038222
 30
0.0
 40
0.5
100
AcDbArc
 50
194.4775121859298
 51
270.0
  0
ARC
  5
5C1
330
106E
100
AcDbEntity
  8
STEMPEL
100
AcDbCircle
 10
214.3428317880952
 20
452.6238713038222
 30
0.0
 40
1.5
100
AcDbArc
 50
14.47751218593105
 51
89.99999999999992
  0
ARC
  5
5C2
330
106E
100
AcDbEntity
  8
STEMPEL
100
AcDbCircle
 10
216.2793234611986
 20
453.1238713038222
 30
0.0
 40
1.5
100
AcDbArc
 50
194.4775121859298
 51
270.0
  0
ARC
  5
5C3
330
106E
100
AcDbEntity
  8
STEMPEL
100
AcDbCircle
 10
214.3428317880952
 20
452.6238713038222
 30
0.0
 40
0.5
100
AcDbArc
 50
14.47751218593105
 51
89.99999999999992
  0
LINE
  5
5C4
330
106E
100
AcDbEntity
  8
STEMPEL
100
AcDbLine
 10
314.6458205649068
 20
437.8009518638657
 30
0.0
 11
290.6595176894397
 21
451.7929618745543
 31
0.0
  0
LINE
  5
5C5
330
106E
100
AcDbEntity
  8
STEMPEL
100
AcDbLine
 10
314.1324795113259
 20
436.9427087507031
 30
0.0
 11
290.1536256183748
 21
450.9303619168886
 31
0.0
  0
ARC
  5
5C6
330
106E
100
AcDbEntity
  8
STEMPEL
100
AcDbCircle
 10
287.613125943199
 20
446.623871303822
 30
0.0
 40
6.0
100
AcDbArc
 50
59.48712567238093
 51
90.0
  0
ARC
  5
5C7
330
106E
100
AcDbEntity
  8
STEMPEL
100
AcDbCircle
 10
287.613125943199
 20
446.623871303822
 30
0.0
 40
5.0
100
AcDbArc
 50
59.46264995169869
 51
90.0
  0
ARC
  5
5C8
330
106E
100
AcDbEntity
  8
STEMPEL
100
AcDbCircle
 10
287.613125943199
 20
446.623871303822
 30
0.0
 40
6.0
100
AcDbArc
 50
90.0
 51
90.0
  0
ARC
  5
5E8
330
106E
100
AcDbEntity
  8
STEMPEL
100
AcDbCircle
 10
317.1242695475107
 20
442.1437082862842
 30
0.0
 40
5.0
100
AcDbArc
 50
239.7435628364705
 51
239.9329541615152
  0
ARC
  5
5E9
330
106E
100
AcDbEntity
  8
STEMPEL
100
AcDbCircle
 10
385.5258972263068
 20
402.3951745809184
 30
0.0
 40
4.29515103386132
100
AcDbArc
 50
277.1193642828213
 51
346.4691945259259
  0
LINE
  5
5EA
330
106E
100
AcDbEntity
  8
STEMPEL
100
AcDbLine
 10
391.4537463767669
 20
402.2487629848509
 30
0.0
 11
374.4831836282896
 21
385.2782002363736
 31
0.0
  0
LINE
  5
5EB
330
106E
100
AcDbEntity
  8
STEMPEL
100
AcDbLine
 10
388.5624820366351
 20
399.3574986447196
 30
0.0
 11
377.374447968431
 21
388.1694645765145
 31
0.0
  0
LINE
  5
5EC
330
106E
100
AcDbEntity
  8
STEMPEL
100
AcDbLine
 10
410.5456294688042
 20
409.3198307967166
 30
0.0
 11
367.4121158164243
 21
366.1863171443368
 31
0.0
  0
LINE
  5
5ED
330
106E
100
AcDbEntity
  8
STEMPEL
100
AcDbLine
 10
407.7172023440574
 20
414.9766850462086
 30
0.0
 11
361.7552615669319
 21
369.014744269083
 31
0.0
  0
LINE
  5
5EE
330
106E
100
AcDbEntity
  8
STEMPEL
100
AcDbLine
 10
416.2024837182929
 20
407.1985104531539
 30
0.0
 11
347.1780971006528
 21
338.1741238355149
 31
0.0
  0
LINE
  5
5EF
102
{ACAD_REACTORS
330
180E
102
}
330
106E
100
AcDbEntity
  8
STEMPEL
100
AcDbLine
 10
421.8593379677858
 20
404.3700833284086
 30
0.0
 11
351.4207377877732
 21
333.9314831483947
 31
0.0
  0
LINE
  5
5F0
330
106E
100
AcDbEntity
  8
HILF
100
AcDbLine
 10
368.1192225976114
 20
401.5416562036635
 30
0.0
 11
372.3618632847301
 21
397.2990155165449
 31
0.0
  0
LINE
  5
5F1
330
106E
100
AcDbEntity
  8
STEMPEL
100
AcDbLine
 10
368.119222597611
 20
400.1274426412906
 30
0.0
 11
371.6547565035434
 21
396.5919087353583
 31
0.0
  0
LINE
  5
5F2
330
106E
100
AcDbEntity
  8
STEMPEL
100
AcDbLine
 10
383.3568139867184
 20
408.2939662185336
 30
0.0
 11
368.4379803946062
 21
393.375132626421
 31
0.0
  0
ARC
  5
5F3
330
106E
100
AcDbEntity
  8
STEMPEL
100
AcDbCircle
 10
387.0859965775634
 20
389.6459500355771
 30
0.0
 40
15.82306899691459
100
AcDbArc
 50
115.5278273813859
 51
154.4721726186141
  0
LINE
  5
5F4
330
106E
100
AcDbEntity
  8
STEMPEL
100
AcDbLine
 10
317.613125943199
 20
432.6238133365069
 30
0.0
 11
317.613125943199
 21
368.6238713038229
 31
0.0
  0
LINE
  5
5F5
330
106E
100
AcDbEntity
  8
STEMPEL
100
AcDbLine
 10
316.613125943199
 20
432.6238133365069
 30
0.0
 11
316.613125943199
 21
368.6238713038229
 31
0.0
  0
LINE
  5
5F6
330
106E
100
AcDbEntity
  8
MITTEL
100
AcDbLine
 10
368.1192225976114
 20
408.612724015529
 30
0.0
 11
392.8679599391402
 21
383.8639866740007
 31
0.0
  0
LINE
  5
5F7
330
106E
100
AcDbEntity
  8
STEMPEL
100
AcDbLine
 10
379.6271055886909
 20
404.5642578205057
 30
0.0
 11
386.0582247096563
 21
398.1331386995405
 31
0.0
  0
ARC
  5
5FD
330
106E
100
AcDbEntity
  8
STEMPEL
100
AcDbCircle
 10
335.613125943199
 20
284.1238713038211
 30
0.0
 40
7.0
100
AcDbArc
 50
270.0000000000001
 51
270.8582960257424
  0
LINE
  5
5FF
330
106E
100
AcDbEntity
  8
STEMPEL
100
AcDbLine
 10
344.613125943199
 20
330.1238713038206
 30
0.0
 11
344.6131259431991
 21
327.1238713038206
 31
0.0
  0
LINE
  5
600
330
106E
100
AcDbEntity
  8
STEMPEL
100
AcDbLine
 10
342.613125943199
 20
330.1238713038206
 30
0.0
 11
342.6131259431989
 21
325.1238713038205
 31
0.0
  0
ARC
  5
601
330
106E
100
AcDbEntity
  8
STEMPEL
100
AcDbCircle
 10
342.228349632347
 20
343.1238713038206
 30
0.0
 40
13.0
100
AcDbArc
 50
270.0000000000001
 51
314.9999999999998
  0
ARC
  5
605
330
106E
100
AcDbEntity
  8
STEMPEL
100
AcDbCircle
 10
342.228349632347
 20
343.1238713038206
 30
0.0
 40
7.0
100
AcDbArc
 50
270.0000000000001
 51
314.9999999999998
  0
LINE
  5
607
330
106E
100
AcDbEntity
  8
STEMPEL
100
AcDbLine
 10
337.6131259431986
 20
363.6238713038224
 30
0.0
 11
322.6131259431986
 21
363.6238713038229
 31
0.0
  0
ARC
  5
608
102
{ACAD_REACTORS
330
1BF1
102
}
330
106E
100
AcDbEntity
  8
STEMPEL
100
AcDbCircle
 10
334.613125943199
 20
344.6238713038211
 30
0.0
 40
3.0
100
AcDbArc
 50
270.0
 51
90.0
  0
LINE
  5
609
330
106E
100
AcDbEntity
  8
STEMPEL
100
AcDbLine
 10
316.4034387021633
 20
375.1238713038206
 30
0.0
 11
316.4034387021633
 21
368.6238713038229
 31
0.0
  0
ARC
  5
60A
330
106E
100
AcDbEntity
  8
STEMPEL
100
AcDbCircle
 10
322.613125943199
 20
368.6238713038229
 30
0.0
 40
5.0
100
AcDbArc
 50
180.0
 51
269.9999999999983
  0
LWPOLYLINE
  5
60B
330
106E
100
AcDbEntity
  8
STEMPEL
100
AcDbPolyline
 90
       10
 70
   128
 43
0.0
 10
-321.9094274331944
 20
362.6238713038236
 10
-321.0513544369216
 20
362.6899985183962
 10
-320.1985422372995
 20
362.9425522681266
 10
-319.3777839303824
 20
363.3735979844439
 10
-318.6148655639835
 20
363.969593354884
 10
-317.9337560084841
 20
364.7118137866046
 10
-317.3558539185387
 20
365.576940683402
 10
-316.8993154441322
 20
366.537794054118
 10
-316.5784838125345
 20
367.5641864358302
 10
-316.4034387021636
 20
368.6238713038229
210
0.0
220
0.0
230
-1.0
  0
LINE
  5
617
330
106E
100
AcDbEntity
  8
STEMPEL
100
AcDbLine
 10
319.0238978858342
 20
363.6238713038224
 30
0.0
 11
318.0597837160716
 21
363.6238713038224
 31
0.0
  0
LINE
  5
619
330
106E
100
AcDbEntity
  8
STEMPEL
100
AcDbLine
 10
337.6131259431986
 20
363.6238713038227
 30
0.0
 11
337.6131259431986
 21
362.6238713038225
 31
0.0
  0
ARC
  5
61A
330
106E
100
AcDbEntity
  8
STEMPEL
100
AcDbCircle
 10
371.7798656156273
 20
404.9520809975134
 30
0.0
 40
15.82306899691459
100
AcDbArc
 50
295.5278273813858
 51
334.472172618614
  0
LINE
  5
61B
330
106E
100
AcDbEntity
  8
STEMPEL
100
AcDbLine
 10
364.5836886916781
 20
366.1863171443368
 30
0.0
 11
361.7552615669314
 21
369.0147442690832
 31
0.0
  0
LINE
  5
61C
330
106E
100
AcDbEntity
  8
STEMPEL
100
AcDbLine
 10
364.5836886916781
 20
366.1863171443368
 30
0.0
 11
367.4121158164243
 21
366.1863171443368
 31
0.0
  0
ARC
  5
61D
330
106E
100
AcDbEntity
  8
STEMPEL
100
AcDbCircle
 10
373.3399649668844
 20
392.202856452172
 30
0.0
 40
4.29515103386132
100
AcDbArc
 50
97.11936428282129
 51
166.4691945223693
  0
LINE
  5
61E
330
106E
100
AcDbEntity
  8
STEMPEL
100
AcDbLine
 10
368.4379803946062
 20
393.375132626421
 30
0.0
 11
374.9010669912236
 21
386.9120460298039
 31
0.0
  0
LINE
  5
61F
330
106E
100
AcDbEntity
  8
STEMPEL
100
AcDbLine
 10
369.0459616098546
 20
392.7671514111728
 30
0.0
 11
369.1640290012251
 21
393.2077849144833
 31
0.0
  0
LINE
  5
620
330
106E
100
AcDbEntity
  8
STEMPEL
100
AcDbLine
 10
374.9010669912236
 20
386.9120460298039
 30
0.0
 11
375.3417004942771
 21
387.0301134211048
 31
0.0
  0
LINE
  5
621
330
106E
100
AcDbEntity
  8
STEMPEL
100
AcDbLine
 10
374.4831836282896
 20
385.2782002363736
 30
0.0
 11
376.2509505812559
 21
383.5104332834072
 31
0.0
  0
ARC
  5
622
330
106E
100
AcDbEntity
  8
STEMPEL
100
AcDbCircle
 10
374.3367720322221
 20
391.2060493868338
 30
0.0
 40
4.29515103386132
100
AcDbArc
 50
283.5308054740846
 51
352.8806357171787
  0
LINE
  5
623
330
106E
100
AcDbEntity
  8
STEMPEL
100
AcDbLine
 10
377.3792517059796
 20
388.1742683140631
 30
0.0
 11
377.3744479684414
 21
388.169464576525
 31
0.0
  0
LINE
  5
624
330
106E
100
AcDbEntity
  8
STEMPEL
100
AcDbLine
 10
370.3081838941134
 20
395.2453361259284
 30
0.0
 11
370.3033801565756
 21
395.2405323883907
 31
0.0
  0
LINE
  5
625
330
106E
100
AcDbEntity
  8
STEMPEL
100
AcDbLine
 10
372.1676887926346
 20
397.1048410244494
 30
0.0
 11
378.5988079136004
 21
390.6737219034838
 31
0.0
  0
LINE
  5
626
330
106E
100
AcDbEntity
  8
STEMPEL
100
AcDbLine
 10
384.736231955495
 20
383.5104332834069
 30
0.0
 11
388.6253192520202
 21
379.6213459868814
 31
0.0
  0
LINE
  5
627
330
106E
100
AcDbEntity
  8
HILF
100
AcDbLine
 10
385.4433387366811
 20
384.2175400645938
 30
0.0
 11
389.3324260332067
 21
380.3284527680683
 31
0.0
  0
LINE
  5
628
330
106E
100
AcDbEntity
  8
STEMPEL
100
AcDbLine
 10
393.2215133297333
 20
391.9957146576458
 30
0.0
 11
397.1106006262589
 21
388.10662736112
 31
0.0
  0
LINE
  5
629
330
106E
100
AcDbEntity
  8
HILF
100
AcDbLine
 10
392.5144065485467
 20
391.2886078764591
 30
0.0
 11
396.4034938450722
 21
387.3995205799334
 31
0.0
  0
ARC
  5
63A
330
106E
100
AcDbEntity
  8
STEMPEL
100
AcDbCircle
 10
384.5290901609687
 20
403.391981646256
 30
0.0
 40
4.29515103386132
100
AcDbArc
 50
103.530805474074
 51
172.8806357171786
  0
LINE
  5
63B
330
106E
100
AcDbEntity
  8
STEMPEL
100
AcDbLine
 10
368.119222597611
 20
400.1274426412906
 30
0.0
 11
376.6045039718496
 21
408.6127240155295
 31
0.0
  0
LINE
  5
63C
330
106E
100
AcDbEntity
  8
STEMPEL
100
AcDbLine
 10
368.1192225976114
 20
401.5416562036635
 30
0.0
 11
375.1902904094767
 21
408.612724015529
 31
0.0
  0
LINE
  5
63D
330
106E
100
AcDbEntity
  8
STEMPEL
100
AcDbLine
 10
368.1192225976114
 20
401.5416562036635
 30
0.0
 11
375.1902904094767
 21
408.612724015529
 31
0.0
  0
LINE
  5
63E
330
106E
100
AcDbEntity
  8
STEMPEL
100
AcDbLine
 10
368.119222597611
 20
400.1274426412906
 30
0.0
 11
368.1192225976114
 21
401.5416562036635
 31
0.0
  0
LINE
  5
63F
330
106E
100
AcDbEntity
  8
STEMPEL
100
AcDbLine
 10
375.1902904094767
 20
408.612724015529
 30
0.0
 11
376.6045039718496
 21
408.6127240155295
 31
0.0
  0
LINE
  5
640
330
106E
100
AcDbEntity
  8
HILF
100
AcDbLine
 10
375.1902904094767
 20
408.612724015529
 30
0.0
 11
379.4329310965954
 21
404.3700833284104
 31
0.0
  0
LINE
  5
641
330
106E
100
AcDbEntity
  8
STEMPEL
100
AcDbLine
 10
376.6045039718496
 20
408.6127240155295
 30
0.0
 11
380.1400378777821
 21
405.0771901095971
 31
0.0
  0
LINE
  5
642
330
106E
100
AcDbEntity
  8
STEMPEL
100
AcDbLine
 10
393.2215133297331
 20
400.4809960318842
 30
0.0
 11
391.4537463767669
 21
402.2487629848509
 31
0.0
  0
LINE
  5
643
330
106E
100
AcDbEntity
  8
STEMPEL
100
AcDbLine
 10
389.8199005833362
 20
401.8308796219164
 30
0.0
 11
389.7018331920353
 21
401.3902461188639
 31
0.0
  0
LINE
  5
644
330
106E
100
AcDbEntity
  8
STEMPEL
100
AcDbLine
 10
383.9647952019672
 20
407.6859850032854
 30
0.0
 11
383.5241616989151
 21
407.5679176119845
 31
0.0
  0
LINE
  5
645
330
106E
100
AcDbEntity
  8
STEMPEL
100
AcDbLine
 10
383.3568139867184
 20
408.2939662185336
 30
0.0
 11
390.4278817985846
 21
401.2228984066685
 31
0.0
  0
LINE
  5
646
330
106E
100
AcDbEntity
  8
STEMPEL
100
AcDbLine
 10
410.5456294688037
 20
412.1482579214624
 30
0.0
 11
407.7172023440574
 21
414.9766850462086
 31
0.0
  0
LINE
  5
647
330
106E
100
AcDbEntity
  8
STEMPEL
100
AcDbLine
 10
410.5456294688046
 20
412.1482579214615
 30
0.0
 11
410.5456294688046
 21
409.3198307967153
 31
0.0
  0
LINE
  5
648
330
106E
100
AcDbEntity
  8
STEMPEL
100
AcDbLine
 10
419.0309108430391
 20
407.1985104531548
 30
0.0
 11
416.2024837182929
 21
407.1985104531541
 31
0.0
  0
LINE
  5
649
330
106E
100
AcDbEntity
  8
STEMPEL
100
AcDbLine
 10
419.0309108430396
 20
407.1985104531552
 30
0.0
 11
421.8593379677858
 21
404.3700833284086
 31
0.0
  0
LINE
  5
666
330
106E
100
AcDbEntity
  8
TEXT
 62
     2
100
AcDbLine
 10
175.9243660506067
 20
502.2199076711858
 30
0.0
 11
184.6593685674445
 21
482.4541666674427
 31
0.0
  0
TEXT
  5
668
330
106E
100
AcDbEntity
  8
TEXT
 62
     1
100
AcDbText
 10
70.8958404252453
 20
505.2804100052692
 30
0.0
 40
7.0
  1
Siebkorb
 41
0.8
  7
GREEKS
100
AcDbText
  0
LINE
  5
669
330
106E
100
AcDbEntity
  8
TEXT
 62
     2
100
AcDbLine
 10
70.87535835577853
 20
502.2199076711858
 30
0.0
 11
175.9243660506067
 21
502.2199076711858
 31
0.0
  0
LINE
  5
66C
330
106E
100
AcDbEntity
  8
TEXT
 62
     2
100
AcDbLine
 10
57.29342791943725
 20
544.9777823652432
 30
0.0
 11
85.613125943199
 21
365.2238713038228
 31
0.0
  0
TEXT
  5
66D
330
106E
100
AcDbEntity
  8
TEXT
 62
     1
100
AcDbText
 10
384.3507630597705
 20
491.6859890748396
 30
0.0
 40
7.0
  1
Losflansch
 41
0.8
  7
GREEKS
100
AcDbText
  0
LINE
  5
66F
330
106E
100
AcDbEntity
  8
TEXT
 62
     2
100
AcDbLine
 10
383.8008160637827
 20
489.5271482661451
 30
0.0
 11
487.6147053658987
 21
489.5271482661451
 31
0.0
  0
LINE
  5
670
330
106E
100
AcDbEntity
  8
TEXT
 62
     2
100
AcDbLine
 10
383.8008160637827
 20
489.5271482661451
 30
0.0
 11
333.5374603944634
 21
343.2649658057402
 31
0.0
  0
TEXT
  5
675
330
106E
100
AcDbEntity
  8
TEXT
 62
     1
100
AcDbText
 10
419.8060112738367
 20
455.4096974450557
 30
0.0
 40
7.0
  1
Sechskantmutter DIN 934-M12
 41
0.8
  7
GREEKS
100
AcDbText
  0
LINE
  5
676
330
106E
100
AcDbEntity
  8
TEXT
 62
     2
100
AcDbLine
 10
418.5932716494195
 20
452.5790720957799
 30
0.0
 11
555.4265626404871
 21
452.5790720957799
 31
0.0
  0
TEXT
  5
677
330
106E
100
AcDbEntity
  8
TEXT
 62
     1
100
AcDbText
 10
419.5869810630184
 20
443.0379348814072
 30
0.0
 40
7.0
  1
Scheibe DIN125-A13
 41
0.8
  7
GREEKS
100
AcDbText
  0
LINE
  5
678
330
106E
100
AcDbEntity
  8
TEXT
 62
     2
100
AcDbLine
 10
418.5932716494195
 20
452.5790720957799
 30
0.0
 11
382.9684650025284
 21
393.7634816106124
 31
0.0
  0
LINE
  5
679
330
106E
100
AcDbEntity
  8
TEXT
 62
     2
100
AcDbLine
 10
462.7594042120346
 20
425.579702294483
 30
0.0
 11
567.6646225895003
 21
425.579702294483
 31
0.0
  0
TEXT
  5
67A
330
106E
100
AcDbEntity
  8
TEXT
 62
     1
100
AcDbText
 10
463.2833719523723
 20
416.6219978013497
 30
0.0
 40
7.0
  1
EDV-Art.Nr. 01378.000X
 41
0.8
  7
GREEKS
100
AcDbText
  0
TEXT
  5
67B
330
106E
100
AcDbEntity
  8
TEXT
 62
     1
100
AcDbText
 10
463.2833719523723
 20
428.6402046285664
 30
0.0
 40
7.0
  1
Losflansch
 41
0.8
  7
GREEKS
100
AcDbText
  0
LINE
  5
67C
330
106E
100
AcDbEntity
  8
TEXT
 62
     2
100
AcDbLine
 10
462.7594042120346
 20
425.579702294483
 30
0.0
 11
407.4467194260591
 21
409.7634940719607
 31
0.0
  0
DIMENSION
  5
680
330
106E
100
AcDbEntity
  8
BEM
100
AcDbDimension
  2
*D7
 10
347.6131259431991
 20
194.7800499578701
 30
0.0
 11
210.1131259431991
 21
200.6800499578701
 31
0.0
 70
    32
 71
     5
 42
275.0000000000001
  3
STANDARD
100
AcDbAlignedDimension
 13
72.61312594319901
 23
330.1238713038206
 33
0.0
 14
347.6131259431991
 24
330.1238713038206
 34
0.0
100
AcDbRotatedDimension
  0
INSERT
  5
683
330
106E
100
AcDbEntity
  8
SCHRAFF
100
AcDbBlockReference
  2
*X1
 10
-124.6225533228547
 20
-5.742893856983869
 30
0.0
1001
ACAD
1000
HATCH
1002
{
1070
    16
1000
_U,I
1040
5.0
1040
1.570796326794896
1070
     0
1002
}
  0
DIMENSION
  5
684
330
106E
100
AcDbEntity
  8
BEM
100
AcDbDimension
  2
*D8
 10
434.5365547732028
 20
391.6928665229914
 30
0.0
 11
393.2415187519089
 21
358.741690519698
 31
0.0
 70
    33
 71
     5
 42
104.9999999999998
  3
STANDARD
100
AcDbAlignedDimension
 13
347.6131259431989
 23
330.1238713038205
 33
0.0
 14
421.8593379677854
 24
404.3700833284083
 34
0.0
  0
LINE
  5
70B
330
106E
100
AcDbEntity
  8
STEMPEL
100
AcDbLine
 10
133.8272206165054
 20
363.6238713038226
 30
0.0
 11
139.4369290075951
 21
363.6238713038226
 31
0.0
  0
LWPOLYLINE
  5
70C
330
106E
100
AcDbEntity
  8
STEMPEL
100
AcDbPolyline
 90
       10
 70
   128
 43
0.0
 10
131.8026405570865
 20
362.6238713038226
 10
132.4386449170874
 20
362.7150247857493
 10
133.0553246064435
 20
362.9857155791071
 10
133.6339421248485
 20
363.427718881116
 10
134.1569164718005
 20
364.0276046451087
 10
134.6083573364049
 20
364.7671456457035
 10
134.974547916431
 20
365.6238713038228
 10
135.244361696406
 20
366.5717504438688
 10
135.4096005211574
 20
367.5819822378214
 10
135.4652436926108
 20
368.623871303823
  0
LINE
  5
719
330
106E
100
AcDbEntity
  8
STEMPEL
100
AcDbLine
 10
135.4652436926108
 20
375.1238713038207
 30
0.0
 11
135.4652436926108
 21
368.6238713038242
 31
0.0
  0
LWPOLYLINE
  5
730
330
106E
100
AcDbEntity
  8
STEMPEL
100
AcDbPolyline
 90
        8
 70
   128
 43
0.0
 10
-141.1102965208756
 20
382.6140053816444
 10
-142.2267042422468
 20
382.4066982452373
 10
-143.2919834939891
 20
381.9374435177835
 10
-144.2678184770275
 20
381.223119280615
 10
-145.1191105098853
 20
380.2894182372186
 10
-145.8152404526217
 20
379.1699236020582
 10
-146.3311700113131
 20
377.9049011847194
 10
-146.6288200412534
 20
376.6238713038209
210
0.0
220
0.0
230
-1.0
  0
LWPOLYLINE
  5
73B
330
106E
100
AcDbEntity
  8
STEMPEL
100
AcDbPolyline
 90
       17
 70
   128
 43
0.0
 10
-135.4652436926108
 20
375.1238713038207
 10
-135.5665563044151
 20
376.5019926874452
 10
-135.8670440603443
 20
377.8331838002249
 10
-136.3564742102655
 20
379.0721125254017
 10
-137.0181797974298
 20
380.176588631171
 10
-137.829627231695
 20
381.1090005084238
 10
-138.7631836439107
 20
381.8375959889851
 10
-139.7870578901368
 20
382.3375636276184
 10
-140.8663831609196
 20
382.5918776260351
 10
-141.9644043286707
 20
382.5918776260351
 10
-143.0437295994534
 20
382.3375636276184
 10
-144.0676038456795
 20
381.8375959889851
 10
-145.0011602578952
 20
381.1090005084238
 10
-145.8126076921603
 20
380.176588631171
 10
-146.4743132793248
 20
379.0721125254017
 10
-146.963743429246
 20
377.8331838002249
 10
-147.2367197094909
 20
376.6238713038209
210
0.0
220
0.0
230
-1.0
  0
LWPOLYLINE
  5
74F
330
106E
100
AcDbEntity
  8
STEMPEL
100
AcDbPolyline
 90
        8
 70
   128
 43
0.0
 10
-165.8076996914844
 20
382.6209977268609
 10
-167.1319091418143
 20
382.4421648198131
 10
-168.3998885390003
 20
381.991888902489
 10
-169.5646072270858
 20
381.2868711703497
 10
-170.5828645956926
 20
380.3532614539662
 10
-171.4168924349546
 20
379.2256882949901
 10
-172.0357557971488
 20
377.9459745380383
 10
-172.3993702688003
 20
376.6238713038208
210
0.0
220
0.0
230
-1.0
  0
LWPOLYLINE
  5
75B
330
106E
100
AcDbEntity
  8
STEMPEL
100
AcDbPolyline
 90
       16
 70
   128
 43
0.0
 10
-159.2204141577359
 20
376.6238713038208
 10
-159.5383017689316
 20
377.8331838002249
 10
-160.1082552501134
 20
379.0721125254017
 10
-160.8788277270694
 20
380.176588631171
 10
-161.8237782782969
 20
381.1090005084238
 10
-162.910927746117
 20
381.8375959889851
 10
-164.1032545592952
 20
382.3375636276184
 10
-165.3601554582471
 20
382.5918776260351
 10
-166.6388281903453
 20
382.5918776260351
 10
-167.8957290892972
 20
382.3375636276184
 10
-169.0880559024754
 20
381.8375959889851
 10
-170.1752053702955
 20
381.1090005084238
 10
-171.120155921523
 20
380.176588631171
 10
-171.8907283984792
 20
379.0721125254017
 10
-172.460681879661
 20
377.8331838002249
 10
-172.7785694908565
 20
376.6238713038208
210
0.0
220
0.0
230
-1.0
  0
LWPOLYLINE
  5
793
330
106E
100
AcDbEntity
  8
STEMPEL
100
AcDbPolyline
 90
       16
 70
   128
 43
0.0
 10
256.0058377286616
 20
376.6238713038206
 10
255.687950117466
 20
377.8331838002249
 10
255.117996636284
 20
379.0721125254017
 10
254.3474241593281
 20
380.176588631171
 10
253.4024736081005
 20
381.1090005084238
 10
252.3153241402804
 20
381.8375959889851
 10
251.1229973271022
 20
382.3375636276184
 10
249.8660964281503
 20
382.5918776260351
 10
248.5874236960522
 20
382.5918776260351
 10
247.3305227971002
 20
382.3375636276184
 10
246.1381959839221
 20
381.8375959889851
 10
245.0510465161019
 20
381.1090005084238
 10
244.1060959648744
 20
380.176588631171
 10
243.3355234879184
 20
379.0721125254017
 10
242.7655700067366
 20
377.8331838002249
 10
242.4476823955409
 20
376.6238713038206
  0
LWPOLYLINE
  5
7A7
330
106E
100
AcDbEntity
  8
STEMPEL
100
AcDbPolyline
 90
        8
 70
   128
 43
0.0
 10
249.4185521949132
 20
382.6209977268609
 10
248.0943427445834
 20
382.4421648198131
 10
246.8263633473973
 20
381.991888902489
 10
245.6616446593116
 20
381.2868711703497
 10
244.643387290705
 20
380.3532614539662
 10
243.8093594514428
 20
379.2256882949901
 10
243.1904960892489
 20
377.9459745380383
 10
242.8268816175971
 20
376.6238713038206
  0
LWPOLYLINE
  5
7B3
330
106E
100
AcDbEntity
  8
STEMPEL
100
AcDbPolyline
 90
       16
 70
   128
 43
0.0
 10
229.0816080155856
 20
376.6238713038206
 10
228.740472588808
 20
377.8331838002249
 10
228.1288371642156
 20
379.0721125254017
 10
227.3019110383414
 20
380.176588631171
 10
226.287854188613
 20
381.1090005084238
 10
225.1211991048212
 20
381.8375959889851
 10
223.8416748265961
 20
382.3375636276184
 10
222.492854018612
 20
382.5918776260351
 10
221.1206691557527
 20
382.5918776260351
 10
219.7718483477686
 20
382.3375636276184
 10
218.4923240695432
 20
381.8375959889851
 10
217.3256689857514
 20
381.1090005084238
 10
216.3116121360233
 20
380.176588631171
 10
215.4846860101488
 20
379.0721125254017
 10
214.8730505855565
 20
377.8331838002249
 10
214.5319151587789
 20
376.6238713038207
  0
LWPOLYLINE
  5
7C7
330
106E
100
AcDbEntity
  8
STEMPEL
100
AcDbPolyline
 90
        8
 70
   128
 43
0.0
 10
221.8721783119256
 20
382.6235810635955
 10
220.4308383280479
 20
382.4682796696718
 10
219.0467574245984
 20
382.0338794226574
 10
217.7725328120662
 20
381.3368882023823
 10
216.6565869923366
 20
380.4037927509366
 10
215.7413276288835
 20
379.2700521355931
 10
215.0615359901083
 20
377.9787502495237
 10
214.6564726127799
 20
376.6238713038207
  0
LWPOLYLINE
  5
7D4
330
106E
100
AcDbEntity
  8
STEMPEL
100
AcDbPolyline
 90
        8
 70
   128
 43
0.0
 10
-193.3540735744718
 20
382.6235810635955
 10
-194.7954135583497
 20
382.4682796696718
 10
-196.1794944617993
 20
382.0338794226574
 10
-197.4537190743312
 20
381.3368882023823
 10
-198.5696648940609
 20
380.4037927509366
 10
-199.4849242575139
 20
379.2700521355931
 10
-200.1647158962892
 20
377.9787502495237
 10
-200.5697792736175
 20
376.6238713038207
210
0.0
220
0.0
230
-1.0
  0
LWPOLYLINE
  5
7DF
330
106E
100
AcDbEntity
  8
STEMPEL
100
AcDbPolyline
 90
       16
 70
   128
 43
0.0
 10
-186.1446438708119
 20
376.6238713038208
 10
-186.4857792975895
 20
377.8331838002249
 10
-187.0974147221818
 20
379.0721125254017
 10
-187.9243408480563
 20
380.176588631171
 10
-188.9383976977844
 20
381.1090005084238
 10
-190.1050527815762
 20
381.8375959889851
 10
-191.3845770598016
 20
382.3375636276184
 10
-192.7333978677857
 20
382.5918776260351
 10
-194.1055827306449
 20
382.5918776260351
 10
-195.4544035386291
 20
382.3375636276184
 10
-196.7339278168542
 20
381.8375959889851
 10
-197.900582900646
 20
381.1090005084238
 10
-198.9146397503743
 20
380.176588631171
 10
-199.7415658762486
 20
379.0721125254017
 10
-200.353201300841
 20
377.8331838002249
 10
-200.6943367276186
 20
376.6238713038207
210
0.0
220
0.0
230
-1.0
  0
LWPOLYLINE
  5
852
330
106E
100
AcDbEntity
  8
STEMPEL
100
AcDbPolyline
 90
       10
 70
   128
 43
0.0
 10
-283.4236113293109
 20
362.6238713038226
 10
-282.78760696931
 20
362.7150247857493
 10
-282.170927279954
 20
362.9857155791071
 10
-281.5923097615489
 20
363.427718881116
 10
-281.0693354145969
 20
364.0276046451087
 10
-280.6178945499926
 20
364.7671456457035
 10
-280.2517039699665
 20
365.6238713038228
 10
-279.9818901899917
 20
366.5717504438688
 10
-279.81665136524
 20
367.5819822378214
 10
-279.7610081937869
 20
368.623871303823
210
0.0
220
0.0
230
-1.0
  0
LINE
  5
86B
330
106E
100
AcDbEntity
  8
STEMPEL
100
AcDbLine
 10
279.7610081937869
 20
375.1238713038207
 30
0.0
 11
279.7610081937869
 21
368.6238713038242
 31
0.0
  0
LINE
  5
86E
330
106E
100
AcDbEntity
  8
STEMPEL
100
AcDbLine
 10
281.3990312698923
 20
363.6238713038226
 30
0.0
 11
275.7893228788029
 21
363.6238713038226
 31
0.0
  0
LWPOLYLINE
  5
87B
330
106E
100
AcDbEntity
  8
STEMPEL
100
AcDbPolyline
 90
        8
 70
   128
 43
0.0
 10
274.1159553655218
 20
382.6140053816444
 10
272.9995476441506
 20
382.4066982452373
 10
271.9342683924085
 20
381.9374435177835
 10
270.9584334093702
 20
381.223119280615
 10
270.1071413765121
 20
380.2894182372186
 10
269.4110114337757
 20
379.1699236020582
 10
268.8950818750843
 20
377.9049011847194
 10
268.5974318451442
 20
376.6238713038205
  0
LWPOLYLINE
  5
886
330
106E
100
AcDbEntity
  8
STEMPEL
100
AcDbPolyline
 90
       17
 70
   128
 43
0.0
 10
279.7610081937869
 20
375.1238713038207
 10
279.6596955819826
 20
376.5019926874452
 10
279.3592078260533
 20
377.8331838002249
 10
278.8697776761321
 20
379.0721125254017
 10
278.2080720889676
 20
380.176588631171
 10
277.3966246547025
 20
381.1090005084238
 10
276.4630682424868
 20
381.8375959889851
 10
275.4391939962606
 20
382.3375636276184
 10
274.359868725478
 20
382.5918776260351
 10
273.2618475577269
 20
382.5918776260351
 10
272.1825222869441
 20
382.3375636276184
 10
271.1586480407179
 20
381.8375959889851
 10
270.2250916285022
 20
381.1090005084238
 10
269.4136441942371
 20
380.176588631171
 10
268.7519386070728
 20
379.0721125254017
 10
268.2625084571516
 20
377.8331838002249
 10
267.9895321769067
 20
376.6238713038205
  0
LINE
  5
89D
330
106E
100
AcDbEntity
  8
HILF
100
AcDbLine
 10
279.7610081937869
 20
368.6238713038211
 30
0.0
 11
289.3179794511383
 21
368.6238713038208
 31
0.0
  0
LINE
  5
8A2
330
106E
100
AcDbEntity
  8
MITTEL
100
AcDbLine
 10
268.613125943199
 20
371.0927340836693
 30
0.0
 11
268.6131259431991
 21
341.6238713038207
 31
0.0
  0
TEXT
  5
8B8
330
106E
100
AcDbEntity
  8
TEXT
 62
     1
100
AcDbText
 10
383.6212552374373
 20
481.0549606886724
 30
0.0
 40
7.0
  1
EDV-Art.Nr. 19927.100X
 41
0.8
  7
GREEKS
100
AcDbText
  0
TEXT
  5
905
330
106E
100
AcDbEntity
  8
TEXT
 62
     1
100
AcDbText
 10
70.69579752943309
 20
491.5638841621086
 30
0.0
 40
7.0
  1
EDV-Art.Nr. 21007.000X
 41
0.8
  7
GREEKS
100
AcDbText
  0
LINE
  5
907
330
106E
100
AcDbEntity
  8
TEXT
 62
     2
100
AcDbLine
 10
57.29342791943725
 20
544.9777823652432
 30
0.0
 11
242.8423066196483
 21
544.9777823652431
 31
0.0
  0
TEXT
  5
908
330
106E
100
AcDbEntity
  8
TEXT
 62
     1
100
AcDbText
 10
58.50616754385441
 20
547.8084077145189
 30
0.0
 40
7.0
  1
Sechskantschraube M6x16 DIN933-1.4301
 41
0.8
  7
GREEKS
100
AcDbText
  0
TEXT
  5
909
330
106E
100
AcDbEntity
  8
TEXT
 62
     1
100
AcDbText
 10
70.208878385052
 20
535.4366451508703
 30
0.0
 40
7.0
  1
Scheibe DIN125-A6.4-1.4301
 41
0.8
  7
GREEKS
100
AcDbText
  0
INSERT
  5
B49
330
106E
100
AcDbEntity
  8
SCHRAFF
  6
CONTINUOUS
100
AcDbBlockReference
  2
*X2
 10
-124.6225533228547
 20
-5.742893856983869
 30
0.0
1001
ACAD
1000
HATCH
1002
{
1070
    19
1000
_USER
1040
5.0
1040
2.356194490192344
1000
R14_HATCH_DATA
1000
B49
1011
-123.6225533228547
1021
-5.742893856983869
1031
0.0
1011
-124.6225533228547
1021
-4.742893856983869
1031
0.0
1011
-124.6225533228547
1021
-5.742893856983869
1031
1.0
1040
0.0
1010
0.0
1020
0.0
1030
1.0
1000
_USER
1070
     0
1070
     1
1071
        2
1071
        7
1070
     0
1070
     1
1071
        5
1040
271.2356792660537
1040
341.8667651608045
1040
199.2356792660537
1040
341.8667651608045
1040
197.2356792660537
1040
339.8667651608045
1040
197.2356792660537
1040
335.8667651608045
1040
271.2356792660537
1040
335.8667651608045
1071
        5
1005
370
1005
399
1005
39A
1005
36E
1005
4C6
1071
        7
1070
     1
1070
     1
1071
        9
1040
476.0432911106277
1040
339.6743770053785
1040
0.0
1040
546.4818912906406
1040
410.1129771853925
1040
0.0
1040
543.6534641658946
1040
412.9414043101386
1040
0.0
1040
540.8250370411479
1040
412.9414043101379
1040
0.0
1040
471.8006504235074
1040
343.9170176924987
1040
-0.1989123673796577
1040
466.8509029552016
1040
341.8667651608045
1040
0.0
1040
393.2356792660537
1040
341.8667651608045
1040
0.0
1040
393.2356792660538
1040
335.8667651608045
1040
0.0
1040
466.8509029552017
1040
335.8667651608044
1040
0.198912367379668
1071
        9
1005
5EF
1005
649
1005
648
1005
5EE
1005
605
1005
370
1005
4CE
1005
36E
1005
601
1070
     0
1070
     0
1040
2.356194490192344
1040
5.0
1070
     0
1070
     1
1040
2.356194490192344
1040
0.0
1040
0.0
1040
-3.535533905932737
1040
-3.535533905932737
1070
     0
1040
0.4073441514203434
1071
        2
1040
258.8468351214024
1040
339.838066698374
1040
0.0
1040
405.2197620241686
1040
337.8013455258581
1040
0.0
1002
}
  0
DIMENSION
  5
1224
330
106E
100
AcDbEntity
  8
BEM
100
AcDbDimension
  2
*D3
 10
56.72700567345799
 20
275.1238713038207
 30
0.0
 11
50.82700567345796
 21
305.6238713038207
 31
0.0
 70
    32
 71
     5
 42
60.99999999999994
  3
STANDARD
100
AcDbAlignedDimension
 13
74.61312594319901
 23
336.1238713038206
 33
0.0
 14
153.613125943199
 24
275.1238713038206
 34
0.0
 50
90.0
100
AcDbRotatedDimension
  0
DIMENSION
  5
1278
330
106E
100
AcDbEntity
  8
BEM
100
AcDbDimension
  2
*D4
 10
56.72763038547299
 20
452.6238713038224
 30
0.0
 11
50.82763038547291
 21
397.1238713038216
 31
0.0
 70
    32
  1
110
 71
     5
 42
111.0000000000018
  3
STANDARD
100
AcDbAlignedDimension
 13
80.613125943199
 23
341.6238713038207
 33
0.0
 14
127.6131259431985
 24
452.6238713038224
 34
0.0
 50
90.0
100
AcDbRotatedDimension
  0
DIMENSION
  5
129C
330
106E
100
AcDbEntity
  8
BEM
100
AcDbDimension
  2
*D5
 10
97.61312594319855
 20
466.5025693116257
 30
0.0
 11
207.6131259431988
 21
472.4025693116256
 31
0.0
 70
    32
  1
%%c<>
 71
     5
 42
220.0000000000005
  3
STANDARD
100
AcDbAlignedDimension
 13
317.613125943199
 23
432.6238133365069
 33
0.0
 14
97.61312594319855
 24
432.6238133365069
 34
0.0
100
AcDbRotatedDimension
  0
DIMENSION
  5
12A9
330
106E
100
AcDbEntity
  8
BEM
100
AcDbDimension
  2
*D6
 10
77.61312594319902
 20
480.541302462745
 30
0.0
 11
207.6131259431988
 21
486.4413024627449
 31
0.0
 70
    32
  1
%%c<>
 71
     5
 42
259.9999999999996
  3
STANDARD
100
AcDbAlignedDimension
 13
337.6131259431986
 23
363.6238713038224
 33
0.0
 14
77.61312594319901
 24
363.6238713038224
 34
0.0
100
AcDbRotatedDimension
  0
LINE
  5
12C8
330
106E
100
AcDbEntity
  8
TEXT
 62
     2
100
AcDbLine
 10
186.4725930716947
 20
478.35116545324
 30
0.0
 11
191.1561781689747
 21
467.7530540247227
 31
0.0
  0
LINE
  5
12CA
330
106E
100
AcDbEntity
  8
TEXT
 62
     2
100
AcDbLine
 10
192.6331123128554
 20
464.4110174641999
 30
0.0
 11
197.9702836775714
 21
452.3339577628179
 31
0.0
  0
LINE
  5
1497
102
{ACAD_REACTORS
330
1BF1
102
}
330
106E
100
AcDbEntity
  8
STEMPEL
100
AcDbLine
 10
78.113125943199
 20
362.6238713038225
 30
0.0
 11
77.82974260131107
 21
346.3888505202651
 31
0.0
  0
LINE
  5
1498
102
{ACAD_REACTORS
330
1BF1
102
}
330
106E
100
AcDbEntity
  8
STEMPEL
100
AcDbLine
 10
93.113125943199
 20
362.6238713038226
 30
0.0
 11
93.28919975691883
 21
352.5366092716347
 31
0.0
  0
ARC
  5
1499
102
{ACAD_REACTORS
330
1BF1
102
}
330
106E
100
AcDbEntity
  8
STEMPEL
100
AcDbCircle
 10
98.2884382327008
 20
352.623871303821
 30
0.0
 40
5.0
100
AcDbArc
 50
181.0
 51
269.9999999999999
  0
ARC
  5
149A
102
{ACAD_REACTORS
330
1BF1
102
}
330
106E
100
AcDbEntity
  8
STEMPEL
100
AcDbCircle
 10
72.8305041255291
 20
346.4761125524514
 30
0.0
 40
5.0
100
AcDbArc
 50
346.612824819828
 51
359.0000000000008
  0
LINE
  5
14DD
330
106E
100
AcDbEntity
  8
STEMPEL
100
AcDbLine
 10
276.1131259431991
 20
362.6238713038226
 30
0.0
 11
276.2891997569189
 21
352.5366092716347
 31
0.0
  0
ARC
  5
14DE
330
106E
100
AcDbEntity
  8
STEMPEL
100
AcDbCircle
 10
281.2884382327009
 20
352.623871303821
 30
0.0
 40
5.0
100
AcDbArc
 50
181.0
 51
227.111033804549
  0
LINE
  5
15B3
330
106E
100
AcDbEntity
  8
STEMPEL
100
AcDbLine
 10
139.4020082381034
 20
362.6238713038221
 30
0.0
 11
131.3407125836774
 21
362.6238713038222
 31
0.0
  0
TEXT
  5
16BE
330
106E
100
AcDbEntity
  8
TEXT
 62
     1
100
AcDbText
 10
472.2441603789608
 20
137.6951027761049
 30
0.0
 40
7.0
  1
Zubehör: 8x Sechskantkappe M12/SW19
 41
0.8
  7
GREEKS
100
AcDbText
  0
LINE
  5
16EF
330
106E
100
AcDbEntity
  8
STEMPEL
100
AcDbLine
 10
801.2945938987979
 20
336.8365614708198
 30
0.0
 11
810.1992055412678
 21
334.7807698882473
 31
0.0
  0
LINE
  5
16F0
330
106E
100
AcDbEntity
  8
STEMPEL
100
AcDbLine
 10
795.9563263620176
 20
234.9763489258533
 30
0.0
 11
805.0270463451303
 21
236.0900932960529
 31
0.0
  0
LINE
  5
16F1
330
106E
100
AcDbEntity
  8
STEMPEL
100
AcDbLine
 10
805.0270463451303
 20
236.0900932960529
 30
0.0
 11
810.1992055412678
 21
334.7807698882473
 31
0.0
  0
LINE
  5
16F2
330
106E
100
AcDbEntity
  8
HILF
100
AcDbLine
 10
796.2180061432324
 20
239.9694965996262
 30
0.0
 11
801.032914117583
 21
331.843413797047
 31
0.0
  0
LINE
  5
16F3
330
106E
100
AcDbEntity
  8
STEMPEL
100
AcDbLine
 10
440.3008486475226
 20
253.6154627027224
 30
0.0
 11
795.9563263620467
 21
234.9763489258568
 31
0.0
  0
LINE
  5
16F4
330
106E
100
AcDbEntity
  8
STEMPEL
100
AcDbLine
 10
445.6391161843035
 20
355.4756752476872
 30
0.0
 11
801.2945938988099
 21
336.836561470817
 31
0.0
  0
LINE
  5
16F5
330
106E
100
AcDbEntity
  8
MITTEL
100
AcDbLine
 10
337.444884411702
 20
310.0759050202312
 30
0.0
 11
812.6062736169721
 21
285.1737518109358
 31
0.0
  0
ARC
  5
16F6
330
106E
100
AcDbEntity
  8
STEMPEL
100
AcDbCircle
 10
442.39428689724
 20
293.5606440929054
 30
0.0
 40
40.0
100
AcDbArc
 50
253.3495808652407
 51
267.0000000000009
  0
ARC
  5
16F7
330
106E
100
AcDbEntity
  8
STEMPEL
100
AcDbCircle
 10
365.4093303561075
 20
243.5211480195392
 30
0.0
 40
30.0
100
AcDbArc
 50
73.34958086524077
 51
87.00000000000091
  0
ARC
  5
16F8
330
106E
100
AcDbEntity
  8
HILF
100
AcDbCircle
 10
403.749333651258
 20
306.5958614811806
 30
0.0
 40
42.99410568964913
100
AcDbArc
 50
193.8530527322262
 51
222.3590909564577
  0
ARC
  5
16FA
330
106E
100
AcDbEntity
  8
HILF
100
AcDbCircle
 10
374.8164308690744
 20
150.5831779728641
 30
0.0
 40
124.7152057292721
100
AcDbArc
 50
63.95042500777852
 51
89.85957938960593
  0
ARC
  5
16FB
330
106E
100
AcDbEntity
  8
HILF
100
AcDbCircle
 10
387.848809300419
 20
343.5773835022516
 30
0.0
 40
66.58535855428208
100
AcDbArc
 50
259.1138784382206
 51
302.2543141912355
  0
LINE
  5
16FC
330
106E
100
AcDbEntity
  8
STEMPEL
100
AcDbLine
 10
374.0052771949006
 20
272.2632721224071
 30
0.0
 11
430.9330244455161
 21
255.2378119557486
 31
0.0
  0
HATCH
  5
170B
330
106E
100
AcDbEntity
  8
SCHRAFF
100
AcDbHatch
 10
0.0
 20
0.0
 30
0.0
210
0.0
220
0.0
230
1.0
  2
_USER
 70
     0
 71
     0
 91
        1
 92
        7
 72
     1
 73
     1
 93
        3
 10
144.613125943199
 20
327.1238713038207
 42
0.0
 10
144.613125943199
 20
330.1238713038207
 42
0.0
 10
141.613125943199
 20
330.1238713038207
 42
0.4142135623731007
 97
        0
 75
     0
 76
     0
 52
0.0
 41
0.1
 77
     0
 78
     1
 53
0.0
 43
-124.6225533228547
 44
-5.742893856983869
 45
0.0
 46
0.1
 79
     0
 47
0.0438449385322416
 98
        1
 10
143.1516320287966
 20
328.363100981405
  0
ARC
  5
177E
330
106E
100
AcDbEntity
  8
HILF
100
AcDbCircle
 10
403.7498745440161
 20
306.606182329832
 30
0.0
 40
42.99410568964913
100
AcDbArc
 50
131.6409090435417
 51
160.1469472677731
  0
ARC
  5
177F
330
106E
100
AcDbEntity
  8
HILF
100
AcDbCircle
 10
384.0708332631085
 20
271.4893063313763
 30
0.0
 40
66.58535855428208
100
AcDbArc
 50
51.74568580876387
 51
94.88612156177879
  0
LINE
  5
1780
330
106E
100
AcDbEntity
  8
STEMPEL
100
AcDbLine
 10
377.757491946771
 20
343.8597946845498
 30
0.0
 11
436.1530282291448
 21
354.8414176616152
 31
0.0
  0
ARC
  5
1781
330
106E
100
AcDbEntity
  8
HILF
100
AcDbCircle
 10
391.2832352879616
 20
464.7885238997076
 30
0.0
 40
124.7152057292721
100
AcDbArc
 50
264.1404206103934
 51
290.0495749922209
  0
ARC
  5
1782
330
106E
100
AcDbEntity
  8
STEMPEL
100
AcDbCircle
 10
372.2130046676909
 20
373.3429875376336
 30
0.0
 40
30.0
100
AcDbArc
 50
266.9999999999985
 51
280.6504191347586
  0
ARC
  5
1783
330
106E
100
AcDbEntity
  8
STEMPEL
100
AcDbCircle
 10
443.5456779345847
 20
315.5304938575038
 30
0.0
 40
40.0
100
AcDbArc
 50
86.99999999999851
 51
100.6504191347586
  0
LINE
  5
1784
102
{ACAD_REACTORS
330
180E
102
}
330
106E
100
AcDbEntity
  8
STEMPEL
100
AcDbLine
 10
361.3598609571817
 20
343.8706063178035
 30
0.0
 11
370.6429259804023
 21
343.3841014949964
 31
0.0
  0
LINE
  5
1785
330
106E
100
AcDbEntity
  8
STEMPEL
100
AcDbLine
 10
440.4055205600085
 20
255.6127217722315
 30
0.0
 11
795.886260747826
 21
236.982765601098
 31
0.0
  0
ARC
  5
1786
330
106E
100
AcDbEntity
  8
STEMPEL
100
AcDbCircle
 10
442.39428689724
 20
293.5606440929054
 30
0.0
 40
38.0
100
AcDbArc
 50
253.3495808652407
 51
267.0000000000009
  0
LINE
  5
1787
330
106E
100
AcDbEntity
  8
STEMPEL
100
AcDbLine
 10
374.5783403174868
 20
274.1794137292649
 30
0.0
 11
431.5060875681023
 21
257.1539535626064
 31
0.0
  0
ARC
  5
1788
330
106E
100
AcDbEntity
  8
STEMPEL
100
AcDbCircle
 10
365.4093303561075
 20
243.5211480195392
 30
0.0
 40
32.0
100
AcDbArc
 50
73.34958086524077
 51
87.00000000000091
  0
LINE
  5
178A
330
106E
100
AcDbEntity
  8
STEMPEL
100
AcDbLine
 10
378.127124432043
 20
341.8942484943442
 30
0.0
 11
436.5226607144167
 21
352.8758714714096
 31
0.0
  0
ARC
  5
178B
330
106E
100
AcDbEntity
  8
STEMPEL
100
AcDbCircle
 10
443.5456779345847
 20
315.5304938575038
 30
0.0
 40
38.0
100
AcDbArc
 50
86.99999999999851
 51
100.6504191347586
  0
LINE
  5
178C
330
106E
100
AcDbEntity
  8
STEMPEL
100
AcDbLine
 10
445.5344442718176
 20
353.4784161781781
 30
0.0
 11
801.0151844596178
 21
334.84846000704
 31
0.0
  0
ARC
  5
178D
330
106E
100
AcDbEntity
  8
STEMPEL
100
AcDbCircle
 10
372.2130046676909
 20
373.3429875376336
 30
0.0
 40
32.0
100
AcDbArc
 50
266.9999999999985
 51
280.6504191347586
  0
LINE
  5
178E
330
106E
100
AcDbEntity
  8
STEMPEL
100
AcDbLine
 10
359.4568489009993
 20
341.967594261621
 30
0.0
 11
370.5382540679163
 21
341.3868424254872
 31
0.0
  0
LINE
  5
17FD
330
106E
100
AcDbEntity
  8
STEMPEL
100
AcDbLine
 10
335.613125943199
 20
277.1238713038211
 30
0.0
 11
335.613125943199
 21
275.1238713038211
 31
0.0
  0
ARC
  5
1800
330
106E
100
AcDbEntity
  8
SCHRAFF
100
AcDbCircle
 10
335.6799697696623
 20
277.6765340500106
 30
0.0
 40
3.990190240039353
100
AcDbArc
 50
219.772031931826
 51
317.2279680681739
  0
HATCH
  5
1805
330
106E
100
AcDbEntity
  8
SCHRAFF
100
AcDbHatch
 10
0.0
 20
0.0
 30
0.0
210
0.0
220
0.0
230
1.0
  2
_USER
 70
     0
 71
     0
 91
        1
 92
        7
 72
     1
 73
     1
 93
        3
 10
338.6090145474617
 20
274.9668634350924
 42
0.0
 10
335.613125943197
 20
275.1238713038213
 42
0.0
 10
332.6131259431982
 20
275.1238713038213
 42
0.452862389732191
 97
        0
 75
     0
 76
     0
 52
0.0
 41
0.1
 77
     0
 78
     1
 53
0.0
 43
-138.0386698554492
 44
-1.169615400914722
 45
0.0
 46
0.1
 79
     0
 47
0.1103390466185216
 98
        1
 10
335.9443017252413
 20
274.0806827812625
  0
ARC
  5
1807
102
{ACAD_REACTORS
330
180E
102
}
330
106E
100
AcDbEntity
  8
BEM
100
AcDbCircle
 10
361.3598609571817
 20
343.8706063178035
 30
0.0
 40
5.0
100
AcDbArc
 50
356.9999999999996
 51
45.00000000000045
  0
HATCH
  5
180E
330
106E
100
AcDbEntity
  8
BEM
100
AcDbHatch
 10
0.0
 20
0.0
 30
0.0
210
0.0
220
0.0
230
1.0
  2
_USER
 70
     0
 71
     1
 91
        1
 92
        7
 72
     1
 73
     1
 93
        3
 10
364.8953948631145
 20
347.4061402237363
 42
0.0
 10
361.3598609571818
 20
343.8706063178035
 42
0.0
 10
366.3530086309546
 20
343.6089265365888
 42
0.2125565616700266
 97
        3
330
5EF
330
1784
330
1807
 75
     0
 76
     0
 52
0.0
 41
0.1
 77
     0
 78
     1
 53
0.0
 43
-138.0386698554492
 44
-1.169615400914722
 45
0.0
 46
0.1
 79
     0
 47
0.1244248808857458
 98
        1
 10
364.2144405386359
 20
345.1038128832964
  0
HATCH
  5
181C
330
106E
100
AcDbEntity
  8
SCHRAFF
100
AcDbHatch
 10
0.0
 20
0.0
 30
0.0
210
0.0
220
0.0
230
1.0
  2
_USER
 70
     0
 71
     0
 91
        1
 92
        7
 72
     1
 73
     1
 93
        8
 10
146.613125943199
 20
330.1238713038206
 42
0.0
 10
144.613125943199
 20
330.1238713038206
 42
0.0
 10
144.613125943199
 20
284.1238713038206
 42
0.4142135623730957
 10
153.613125943199
 20
275.1238713038206
 42
0.0
 10
335.613125943199
 20
275.1238713038211
 42
0.0
 10
335.613125943199
 20
277.1238713038211
 42
0.0
 10
153.613125943199
 20
277.1238713038207
 42
-0.4142135623730957
 10
146.613125943199
 20
284.1238713038206
 42
0.0
 97
        0
 75
     0
 76
     0
 52
45.0
 41
2.0
 77
     0
 78
     1
 53
45.0
 43
-138.0386698554492
 44
-1.169615400914722
 45
-1.414213562373094
 46
1.414213562373095
 79
     0
 47
0.4355653378117633
 98
        1
 10
146.3007738474632
 20
308.7587579855261
  0
LINE
  5
181D
330
106E
100
AcDbEntity
  8
STEMPEL
100
AcDbLine
 10
801.0151844596178
 20
334.84846000704
 30
0.0
 11
810.0929188958126
 21
332.7526998782377
 31
0.0
  0
LINE
  5
181E
330
106E
100
AcDbEntity
  8
STEMPEL
100
AcDbLine
 10
795.886260747826
 20
236.982765601098
 30
0.0
 11
805.1333329905855
 21
238.1181633060626
 31
0.0
  0
LINE
  5
184C
330
106E
100
AcDbEntity
  8
BEM
100
AcDbLine
 10
207.613125943199
 20
461.1238713038222
 30
0.0
 11
207.6131259431991
 21
465.4402790445782
 31
0.0
  0
LINE
  5
184D
330
106E
100
AcDbEntity
  8
BEM
100
AcDbLine
 10
807.6131259431992
 20
287.4354315921505
 30
0.0
 11
807.613125943199
 21
509.8715112118023
 31
0.0
  0
LINE
  5
184E
330
106E
100
AcDbEntity
  8
BEM
100
AcDbLine
 10
214.613125943199
 20
507.8715112118024
 30
0.0
 11
800.613125943199
 21
507.8715112118024
 31
0.0
  0
SOLID
  5
184F
330
106E
100
AcDbEntity
  8
BEM
100
AcDbTrace
 10
214.613125943199
 20
509.038177878469
 30
0.0
 11
214.613125943199
 21
506.7048445451357
 31
0.0
 12
207.613125943199
 22
507.8715112118024
 32
0.0
 13
207.613125943199
 23
507.8715112118024
 33
0.0
  0
SOLID
  5
1850
330
106E
100
AcDbEntity
  8
BEM
100
AcDbTrace
 10
800.613125943199
 20
509.038177878469
 30
0.0
 11
800.613125943199
 21
506.7048445451357
 31
0.0
 12
807.613125943199
 22
507.8715112118024
 32
0.0
 13
807.613125943199
 23
507.8715112118024
 33
0.0
  0
MTEXT
  5
1851
330
106E
100
AcDbEntity
  8
BEM
 62
     1
100
AcDbMText
 10
521.7368023891117
 20
513.7715112118023
 30
0.0
 40
7.0
 41
0.0
 71
     5
 72
     1
  1
600
  7
GREEKS
 73
     1
 44
1.0
  0
LINE
  5
1852
330
106E
100
AcDbEntity
  8
BEM
100
AcDbLine
 10
207.6131259431991
 20
491.1328427672216
 30
0.0
 11
207.613125943199
 21
509.8715112118023
 31
0.0
  0
DIMENSION
  5
1853
330
106E
100
AcDbEntity
  8
BEM
100
AcDbDimension
  2
*D9
 10
825.9501770440385
 20
335.5444171112564
 30
0.0
 11
817.3891290206107
 21
284.9230929806066
 31
0.0
 70
    33
  1
%%c<>
 71
     5
 42
101.999999999995
  3
STANDARD
100
AcDbAlignedDimension
 13
795.9563263620467
 23
234.9763489258568
 33
0.0
 14
801.2945938987979
 24
336.8365614708198
 34
0.0
  0
DIMENSION
  5
18B3
330
106E
100
AcDbEntity
  8
BEM
100
AcDbDimension
  2
*D10
 10
342.6131259431991
 20
309.7002334002009
 30
0.0
 11
497.4347822416869
 21
278.7154408077449
 31
0.0
 70
    34
 71
     5
 42
0.052359877559824
  3
STANDARD
100
AcDb2LineAngularDimension
 13
344.613125943199
 23
309.7002334002009
 33
0.0
 14
812.6062736169721
 24
285.1737518109358
 34
0.0
 15
344.613125943199
 25
309.7002334002009
 35
0.0
 16
506.8260916926695
 26
306.8687955508436
 36
0.0
1001
ACAD
1000
DSTYLE
1002
{
1070
    48
1040
2.0
1070
   147
1040
1.199999999999999
1070
    72
1070
     0
1070
    71
1070
     1
1002
}
  0
TEXT
  5
1AD1
330
106E
100
AcDbEntity
  8
TEXT
 62
     1
100
AcDbText
 10
790.8311268796597
 20
62.807467366992
 30
0.0
 40
7.0
  1

 41
0.8
  7
GREEKS
 72
     1
 11
790.8311268796597
 21
62.807467366992
 31
0.0
100
AcDbText
  0
TEXT
  5
1B18
330
106E
100
AcDbEntity
  8
TEXT
 62
     1
100
AcDbText
 10
651.0534978386703
 20
311.755071074263
 30
0.0
 40
7.0
  1
DN100
 50
357.0
 41
0.8
  7
GREEKS
100
AcDbText
  0
ELLIPSE
  5
1B56
330
106E
100
AcDbEntity
  8
STEMPEL
100
AcDbEllipse
 10
113.4400804365361
 20
395.1238713038234
 30
0.0
 11
0.0
 21
-7.499999999999999
 31
0.0
210
0.0
220
0.0
230
-1.0
 40
0.4999999999999926
 41
4.712388980384689
 42
7.853981633974482
  0
ELLIPSE
  5
1B57
330
106E
100
AcDbEntity
  8
STEMPEL
100
AcDbEllipse
 10
112.5720164168471
 20
395.1238713038234
 30
0.0
 11
0.0
 21
-7.499999999999999
 31
0.0
210
0.0
220
0.0
230
-1.0
 40
0.4999999999999926
 41
4.712388980384689
 42
6.167183451052224
  0
ELLIPSE
  5
1B58
330
106E
100
AcDbEntity
  8
STEMPEL
100
AcDbEllipse
 10
153.2422927695199
 20
395.1238713038218
 30
0.0
 11
0.0
 21
-7.5
 31
0.0
210
0.0
220
0.0
230
-1.0
 40
0.8660254037843856
 41
4.712388980384689
 42
7.853981633974482
  0
ELLIPSE
  5
1B59
330
106E
100
AcDbEntity
  8
STEMPEL
100
AcDbEllipse
 10
152.7411157740779
 20
395.1238713038218
 30
0.0
 11
0.0
 21
-7.5
 31
0.0
210
0.0
220
0.0
230
-1.0
 40
0.8660254037843856
 41
4.712388980384689
 42
6.24459510668465
  0
LINE
  5
1B5A
330
106E
100
AcDbEntity
  8
STEMPEL
100
AcDbLine
 10
97.61312594319875
 20
387.6238713038215
 30
0.0
 11
98.61312594319898
 21
387.6238713038215
 31
0.0
  0
LINE
  5
1B5B
330
106E
100
AcDbEntity
  8
STEMPEL
100
AcDbLine
 10
109.690080436536
 20
420.1238713038218
 30
0.0
 11
109.690080436536
 21
395.123871303825
 31
0.0
  0
LINE
  5
1B5C
330
106E
100
AcDbEntity
  8
STEMPEL
100
AcDbLine
 10
117.1900804365359
 20
420.1238713038218
 30
0.0
 11
117.1900804365359
 21
395.1238713038234
 31
0.0
  0
LINE
  5
1B5D
330
106E
100
AcDbEntity
  8
STEMPEL
100
AcDbLine
 10
116.3220164168471
 20
395.1238713038218
 30
0.0
 11
116.3220164168471
 21
420.1238713038234
 31
0.0
  0
ELLIPSE
  5
1B5E
330
106E
100
AcDbEntity
  8
STEMPEL
100
AcDbEllipse
 10
113.4400804365361
 20
420.1238713038218
 30
0.0
 11
0.0
 21
7.499999999999999
 31
0.0
210
0.0
220
0.0
230
1.0
 40
0.4999999999999926
 41
4.712388980384689
 42
7.853981633974482
  0
LINE
  5
1B5F
330
106E
100
AcDbEntity
  8
STEMPEL
100
AcDbLine
 10
97.61312594319898
 20
427.6238713038215
 30
0.0
 11
98.61312594319898
 21
427.6238713038215
 31
0.0
  0
ELLIPSE
  5
1B60
330
106E
100
AcDbEntity
  8
STEMPEL
100
AcDbEllipse
 10
112.5720164168471
 20
420.1238713038218
 30
0.0
 11
0.0
 21
7.499999999999999
 31
0.0
210
0.0
220
0.0
230
1.0
 40
0.4999999999999926
 41
4.712388980384689
 42
6.167183451052224
  0
LINE
  5
1B61
330
106E
100
AcDbEntity
  8
STEMPEL
100
AcDbLine
 10
159.7374832979028
 20
420.1238713038218
 30
0.0
 11
159.7374832979028
 21
395.1238713038218
 31
0.0
  0
LINE
  5
1B62
330
106E
100
AcDbEntity
  8
STEMPEL
100
AcDbLine
 10
146.747102241137
 20
420.1238713038218
 30
0.0
 11
146.747102241137
 21
395.1238713038234
 31
0.0
  0
LINE
  5
1B63
330
106E
100
AcDbEntity
  8
STEMPEL
100
AcDbLine
 10
159.2363063024608
 20
420.1238713038218
 30
0.0
 11
159.2363063024608
 21
395.1238713038218
 31
0.0
  0
ELLIPSE
  5
1B64
330
106E
100
AcDbEntity
  8
STEMPEL
100
AcDbEllipse
 10
153.2422927695199
 20
420.1238713038218
 30
0.0
 11
0.0
 21
7.5
 31
0.0
210
0.0
220
0.0
230
1.0
 40
0.8660254037843856
 41
4.712388980384689
 42
7.853981633974482
  0
ELLIPSE
  5
1B65
330
106E
100
AcDbEntity
  8
STEMPEL
100
AcDbEllipse
 10
152.7411157740779
 20
420.1238713038218
 30
0.0
 11
0.0
 21
7.5
 31
0.0
210
0.0
220
0.0
230
1.0
 40
0.8660254037843856
 41
4.712388980384689
 42
6.24459510668465
  0
ARC
  5
1B66
330
106E
100
AcDbEntity
  8
STEMPEL
100
AcDbCircle
 10
207.6131259431991
 20
395.1238713038218
 30
0.0
 40
7.5
100
AcDbArc
 50
179.999999999987
 51
359.999999999974
  0
ELLIPSE
  5
1B67
330
106E
100
AcDbEntity
  8
STEMPEL
100
AcDbEllipse
 10
262.4851361123203
 20
395.1238713038218
 30
0.0
 11
0.0
 21
-7.5
 31
0.0
210
0.0
220
0.0
230
1.0
 40
0.8660254037843856
 41
4.712388980384689
 42
6.24459510668465
  0
ELLIPSE
  5
1B68
330
106E
100
AcDbEntity
  8
STEMPEL
100
AcDbEllipse
 10
261.9839591168783
 20
395.1238713038218
 30
0.0
 11
0.0
 21
-7.5
 31
0.0
210
0.0
220
0.0
230
1.0
 40
0.8660254037843856
 41
4.712388980384689
 42
7.853981633974482
  0
LINE
  5
1B69
330
106E
100
AcDbEntity
  8
STEMPEL
100
AcDbLine
 10
200.1131259431992
 20
420.1238713038202
 30
0.0
 11
200.1131259431992
 21
395.1238713038202
 31
0.0
  0
LINE
  5
1B6A
330
106E
100
AcDbEntity
  8
STEMPEL
100
AcDbLine
 10
215.1131259431992
 20
420.1238713038218
 30
0.0
 11
215.1131259431992
 21
395.1238713038218
 31
0.0
  0
ARC
  5
1B6B
330
106E
100
AcDbEntity
  8
STEMPEL
100
AcDbCircle
 10
207.6131259431992
 20
420.1238713038218
 30
0.0
 40
7.5
100
AcDbArc
 50
0.0000000000260551
 51
180.000000000013
  0
ELLIPSE
  5
1B6C
330
106E
100
AcDbEntity
  8
STEMPEL
100
AcDbEllipse
 10
262.4851361123203
 20
420.1238713038218
 30
0.0
 11
0.0
 21
7.5
 31
0.0
210
0.0
220
0.0
230
-1.0
 40
0.8660254037843856
 41
4.712388980384689
 42
6.24459510668465
  0
ELLIPSE
  5
1B6D
330
106E
100
AcDbEntity
  8
STEMPEL
100
AcDbEllipse
 10
261.9839591168783
 20
420.1238713038218
 30
0.0
 11
0.0
 21
7.5
 31
0.0
210
0.0
220
0.0
230
-1.0
 40
0.8660254037843856
 41
4.712388980384689
 42
7.853981633974482
  0
LINE
  5
1B6E
330
106E
100
AcDbEntity
  8
STEMPEL
100
AcDbLine
 10
255.9899455839374
 20
420.1238713038218
 30
0.0
 11
255.9899455839374
 21
395.1238713038218
 31
0.0
  0
LINE
  5
1B6F
330
106E
100
AcDbEntity
  8
STEMPEL
100
AcDbLine
 10
255.4887685884954
 20
420.1238713038218
 30
0.0
 11
255.4887685884954
 21
395.1238713038218
 31
0.0
  0
LINE
  5
1B70
330
106E
100
AcDbEntity
  8
STEMPEL
100
AcDbLine
 10
268.4791496452612
 20
420.1238713038218
 30
0.0
 11
268.4791496452612
 21
395.1238713038234
 31
0.0
  0
ELLIPSE
  5
1B71
330
106E
100
AcDbEntity
  8
STEMPEL
100
AcDbEllipse
 10
301.7861714498624
 20
395.1238713038234
 30
0.0
 11
0.0
 21
-7.499999999999999
 31
0.0
210
0.0
220
0.0
230
1.0
 40
0.4999999999999926
 41
4.712388980384689
 42
7.853981633974482
  0
ELLIPSE
  5
1B72
330
106E
100
AcDbEntity
  8
STEMPEL
100
AcDbEllipse
 10
302.6542354695511
 20
395.1238713038234
 30
0.0
 11
0.0
 21
-7.499999999999999
 31
0.0
210
0.0
220
0.0
230
1.0
 40
0.4999999999999926
 41
4.712388980384689
 42
6.167183451052224
  0
LINE
  5
1B73
330
106E
100
AcDbEntity
  8
STEMPEL
100
AcDbLine
 10
317.613125943199
 20
387.6238713038215
 30
0.0
 11
316.613125943199
 21
387.6238713038215
 31
0.0
  0
LINE
  5
1B74
330
106E
100
AcDbEntity
  8
STEMPEL
100
AcDbLine
 10
298.9042354695513
 20
395.1238713038218
 30
0.0
 11
298.9042354695513
 21
420.1238713038234
 31
0.0
  0
LINE
  5
1B75
330
106E
100
AcDbEntity
  8
STEMPEL
100
AcDbLine
 10
298.0361714498624
 20
420.1238713038218
 30
0.0
 11
298.0361714498624
 21
395.1238713038234
 31
0.0
  0
LINE
  5
1B76
330
106E
100
AcDbEntity
  8
STEMPEL
100
AcDbLine
 10
305.5361714498622
 20
420.1238713038218
 30
0.0
 11
305.5361714498622
 21
395.123871303825
 31
0.0
  0
ELLIPSE
  5
1B77
330
106E
100
AcDbEntity
  8
STEMPEL
100
AcDbEllipse
 10
301.7861714498624
 20
420.1238713038218
 30
0.0
 11
0.0
 21
7.499999999999999
 31
0.0
210
0.0
220
0.0
230
-1.0
 40
0.4999999999999926
 41
4.712388980384689
 42
7.853981633974482
  0
ELLIPSE
  5
1B78
330
106E
100
AcDbEntity
  8
STEMPEL
100
AcDbEllipse
 10
302.6542354695511
 20
420.1238713038218
 30
0.0
 11
0.0
 21
7.499999999999999
 31
0.0
210
0.0
220
0.0
230
-1.0
 40
0.4999999999999926
 41
4.712388980384689
 42
6.167183451052224
  0
LINE
  5
1B79
330
106E
100
AcDbEntity
  8
STEMPEL
100
AcDbLine
 10
317.613125943199
 20
427.6238713038215
 30
0.0
 11
316.613125943199
 21
427.6238713038215
 31
0.0
  0
HATCH
  5
1B7A
330
106E
100
AcDbEntity
  8
SCHRAFF
100
AcDbHatch
 10
0.0
 20
0.0
 30
0.0
210
0.0
220
0.0
230
1.0
  2
_USER
 70
     0
 71
     0
 91
        5
 92
        7
 72
     1
 73
     1
 93
        8
 10
317.613125943199
 20
387.6238713038215
 42
0.0
 10
316.613125943199
 20
387.6238713038215
 42
0.0
 10
316.613125943199
 20
368.6238713038229
 42
0.4142135623731889
 10
322.613125943199
 20
362.6238713038209
 42
0.0
 10
337.6131259431985
 20
362.6238713038209
 42
0.0
 10
337.6131259431986
 20
363.6238713038224
 42
0.0
 10
322.6131259431986
 20
363.6238713038229
 42
-0.4142135623730697
 10
317.613125943199
 20
368.6238713038229
 42
0.0
 97
        0
 92
        7
 72
     1
 73
     1
 93
       18
 10
287.6131259431991
 20
452.6238713038218
 42
0.0
 10
216.2793234611988
 20
452.6238713038222
 42
-0.3419987131196471
 10
215.7952005429228
 20
452.9988713038222
 42
0.34199871311958
 10
214.3428317880955
 20
454.1238713038222
 42
0.0
 10
207.613125943199
 20
454.1238713038222
 42
0.0
 10
207.613125943199
 20
453.1238713038222
 42
0.0
 10
214.3428317880955
 20
453.1238713038222
 42
-0.3419987131196405
 10
214.8269547063714
 20
452.7488713038222
 42
0.3419987131196771
 10
216.2793234611992
 20
451.623871303822
 42
0.0
 10
287.613125943199
 20
451.6238713038218
 42
-0.134038508411305
 10
290.1536256183748
 20
450.9303619168886
 42
0.0
 10
314.1324795113259
 20
436.9427087507031
 42
-0.2667503951501031
 10
316.613125943199
 20
432.6238133365067
 42
0.0
 10
316.613125943199
 20
427.6238713038215
 42
0.0
 10
317.6131259431991
 20
427.6238713038215
 42
0.0
 10
317.613125943199
 20
432.6238133365069
 42
0.2662608607095308
 10
314.6458205649229
 20
437.8009518638564
 42
0.0
 10
290.6131259431152
 20
451.8200237265769
 42
0.1316524975832915
 97
        0
 92
        7
 72
     1
 73
     1
 93
       19
 10
200.3992971800269
 20
452.7488713038222
 42
-0.341998713119681
 10
200.8834200983029
 20
453.1238713038222
 42
0.0
 10
207.613125943199
 20
453.1238713038222
 42
0.0
 10
207.613125943199
 20
454.1238713038223
 42
0.0
 10
200.8834200983026
 20
454.1238713038222
 42
0.3419987131196247
 10
199.4310513434749
 20
452.9988713038222
 42
-0.3419987131196876
 10
198.9469284251989
 20
452.6238713038222
 42
0.0
 10
198.7581792325999
 20
452.6238713038222
 42
0.0
 10
127.6131259431985
 20
452.6238713038224
 42
0.1316524975829539
 10
124.6131259432894
 20
451.820023726581
 42
0.0
 10
100.580431321583
 20
437.8009518639196
 42
0.2662608607151232
 10
97.61312594319855
 20
432.6238133365069
 42
0.0
 10
97.61312594319857
 20
427.6238713038215
 42
0.0
 10
98.61312594319903
 20
427.6238713038215
 42
0.0
 10
98.61312594319901
 20
432.6238133365069
 42
-0.2667503951500945
 10
101.0937723750718
 20
436.9427087507032
 42
0.0
 10
125.0726262680227
 20
450.9303619168886
 42
-0.1340385084113132
 10
127.6131259431985
 20
451.6238713038224
 42
0.0
 10
198.9469284251992
 20
451.6238713038221
 42
0.341998713119626
 97
        0
 92
        7
 72
     1
 73
     1
 93
        8
 10
98.61312594319901
 20
387.6238713038215
 42
0.0
 10
97.61312594319857
 20
387.6238713038215
 42
0.0
 10
97.61312594319855
 20
368.6238713038229
 42
-0.4142135623730688
 10
92.61312594319901
 20
363.6238713038229
 42
0.0
 10
89.61312594319901
 20
363.6238713038228
 42
0.0
 10
89.61312594319901
 20
362.6238713038227
 42
0.0
 10
92.61312594319896
 20
362.6238713038227
 42
0.4142135623731085
 10
98.61312594319901
 20
368.6238713038229
 42
0.0
 97
        0
 92
        7
 72
     0
 73
     1
 93
        4
 10
81.61312594319902
 20
363.6238713038226
 10
77.61312594319901
 20
363.6238713038225
 10
77.61312594319901
 20
362.6238713038225
 10
81.613125943199
 20
362.6238713038227
 97
        0
 75
     0
 76
     0
 52
135.0
 41
2.0
 77
     0
 78
     1
 53
135.0
 43
3.509243923940573
 44
2.220143461687086
 45
-1.414213562373095
 46
-1.414213562373094
 79
     0
 47
0.3384962345992748
 98
        5
 10
317.1723005095568
 20
382.5837801968633
 10
277.5385913340482
 20
452.3140052147821
 10
193.5286796285526
 20
451.9755087730082
 10
98.00127670563865
 20
384.6147588475072
 10
80.04754605588955
 20
363.2894956120026
  0
LINE
  5
1B9C
102
{ACAD_REACTORS
330
1BF1
102
}
330
106E
100
AcDbEntity
  8
STEMPEL
100
AcDbLine
 10
274.8525084880068
 20
376.6238713038205
 30
0.0
 11
140.3737433983913
 21
376.6238713038209
 31
0.0
  0
LINE
  5
1B9D
102
{ACAD_REACTORS
330
1BF1
102
}
330
106E
100
AcDbEntity
  8
STEMPEL
100
AcDbLine
 10
138.9118987479392
 20
348.5889718071184
 30
0.0
 11
139.8740479848817
 21
376.1413210521723
 31
0.0
  0
LINE
  5
1B9E
102
{ACAD_REACTORS
330
1BF1
102
}
330
106E
100
AcDbEntity
  8
STEMPEL
100
AcDbLine
 10
143.613125943199
 20
341.6238713038208
 30
0.0
 11
142.3908990109878
 21
376.6238713038209
 31
0.0
  0
ARC
  5
1B9F
102
{ACAD_REACTORS
330
1BF1
102
}
330
106E
100
AcDbEntity
  8
STEMPEL
100
AcDbCircle
 10
137.9125079209201
 20
348.6238713038209
 30
0.0
 40
1.0
100
AcDbArc
 50
270.0
 51
357.9999999999996
  0
ARC
  5
1BA0
102
{ACAD_REACTORS
330
1BF1
102
}
330
106E
100
AcDbEntity
  8
STEMPEL
100
AcDbCircle
 10
140.3737433983913
 20
376.123871303821
 30
0.0
 40
0.5
100
AcDbArc
 50
90.0
 51
177.9999999999996
  0
LINE
  5
1BA1
102
{ACAD_REACTORS
330
1BF1
102
}
330
106E
100
AcDbEntity
  8
STEMPEL
100
AcDbLine
 10
271.6131259431991
 20
341.6238713038208
 30
0.0
 11
272.8353528754104
 21
376.6238713038205
 31
0.0
  0
LINE
  5
1BA2
102
{ACAD_REACTORS
330
1BF1
102
}
330
106E
100
AcDbEntity
  8
STEMPEL
100
AcDbLine
 10
276.3143531384589
 20
348.5889718071183
 30
0.0
 11
275.3522039015163
 21
376.1413210521719
 31
0.0
  0
ARC
  5
1BA3
102
{ACAD_REACTORS
330
1BF1
102
}
330
106E
100
AcDbEntity
  8
STEMPEL
100
AcDbCircle
 10
277.313743965478
 20
348.6238713038208
 30
0.0
 40
1.0
100
AcDbArc
 50
182.0000000000004
 51
270.0
  0
ARC
  5
1BA4
102
{ACAD_REACTORS
330
1BF1
102
}
330
106E
100
AcDbEntity
  8
STEMPEL
100
AcDbCircle
 10
274.8525084880068
 20
376.1238713038206
 30
0.0
 40
0.5
100
AcDbArc
 50
2.000000000000414
 51
90.0
  0
LINE
  5
1BA5
102
{ACAD_REACTORS
330
1BF1
102
}
330
106E
100
AcDbEntity
  8
STEMPEL
100
AcDbLine
 10
137.9125079209201
 20
347.623871303821
 30
0.0
 11
98.2884382327008
 21
347.623871303821
 31
0.0
  0
HATCH
  5
1BF1
330
106E
100
AcDbEntity
  8
SCHRAFF
100
AcDbHatch
 10
0.0
 20
0.0
 30
0.0
210
0.0
220
0.0
230
1.0
  2
_USER
 70
     0
 71
     1
 91
        7
 92
        7
 72
     1
 73
     1
 93
        4
 10
334.6131259431991
 20
347.6238713038209
 42
0.0
 10
289.8855393027206
 20
347.6238713038209
 42
0.0
 10
289.8855393027206
 20
341.6238713038207
 42
0.0
 10
334.613125943199
 20
341.6238713038207
 42
1.0
 97
        4
330
36D
330
4D4
330
36F
330
608
 92
        7
 72
     1
 73
     1
 93
        8
 10
289.8855393027207
 20
347.6238713038209
 42
0.0
 10
277.313743965478
 20
347.6238713038209
 42
-0.4040262258351549
 10
276.3143531384589
 20
348.5889718071184
 42
0.0
 10
275.3522039015163
 20
376.1413210521719
 42
0.404026225835058
 10
274.8525084880068
 20
376.6238713038205
 42
0.0
 10
272.8353528754104
 20
376.6238713038206
 42
0.0
 10
271.6131259431991
 20
341.6238713038207
 42
0.0
 10
289.8855393027206
 20
341.6238713038207
 42
0.0
 97
        8
330
36D
330
1BA3
330
1BA2
330
1BA4
330
1B9C
330
1BA1
330
36F
330
4D4
 92
        7
 72
     1
 73
     1
 93
        8
 10
142.3908990109878
 20
376.6238713038209
 42
0.0
 10
140.3737433983913
 20
376.6238713038209
 42
0.4040262258350908
 10
139.8740479848817
 20
376.1413210521723
 42
0.0
 10
138.9118987479392
 20
348.5889718071184
 42
-0.4040262258351227
 10
137.9125079209201
 20
347.623871303821
 42
0.0
 10
125.3407125836774
 20
347.623871303821
 42
0.0
 10
125.3407125836774
 20
341.6238713038207
 42
0.0
 10
143.613125943199
 20
341.6238713038207
 42
0.0
 97
        8
330
1B9C
330
1BA0
330
1B9D
330
1B9F
330
1BA5
330
3D3
330
36F
330
1B9E
 92
        7
 72
     1
 73
     1
 93
        8
 10
125.3407125836774
 20
347.6238713038211
 42
0.0
 10
98.2884382327008
 20
347.623871303821
 42
-0.4091108014277107
 10
93.28919975691883
 20
352.5366092716347
 42
0.0
 10
93.113125943199
 20
362.6238713038226
 42
0.0
 10
88.61312594319901
 20
362.6238713038227
 42
0.0
 10
88.61312594319901
 20
355.8738713038227
 42
0.0
 10
88.61312594320187
 20
341.6238713038207
 42
0.0
 10
125.3407125836774
 20
341.6238713038207
 42
0.0
 97
        8
330
1BA5
330
1499
330
1498
330
398
330
3C0
330
3C4
330
36F
330
3D3
 92
        7
 72
     1
 73
     1
 93
        7
 10
82.61312594319901
 20
355.8738713038227
 42
0.0
 10
82.61312594319901
 20
362.6238713038227
 42
0.0
 10
78.113125943199
 20
362.6238713038225
 42
0.0
 10
77.82974260131107
 20
346.3888505202651
 42
-0.0541019412914435
 10
77.69464276157282
 20
345.3184617720574
 42
0.4844268511314573
 10
80.61312594319906
 20
341.6238713038207
 42
0.0
 10
82.61312594320189
 20
341.6238713038206
 42
0.0
 97
        7
330
3A6
330
3B9
330
1497
330
149A
330
3BC
330
36F
330
3A8
 92
        7
 72
     0
 73
     1
 93
        4
 10
88.61312594319901
 20
355.8738713038227
 10
87.96312594319893
 20
355.2238713038232
 10
87.96312594319893
 20
341.6238713038207
 10
88.61312594320189
 20
341.6238713038207
 97
        4
330
3C2
330
3C3
330
36F
330
3C4
 92
        7
 72
     0
 73
     1
 93
        4
 10
83.26312594319865
 20
355.2238713038229
 10
82.61312594319898
 20
355.8738713038227
 10
82.61312594320191
 20
341.6238713038207
 10
83.26312594320381
 20
341.6238713038206
 97
        4
330
3A9
330
3A8
330
36F
330
3A7
 75
     0
 76
     0
 52
45.0
 41
5.0
 77
     0
 78
     1
 53
45.0
 43
0.0
 44
0.0
 45
-3.535533905932737
 46
3.535533905932737
 79
     0
 47
0.3625049460612185
 98
        7
 10
303.1544610654109
 20
344.7068353771019
 10
276.6717886475176
 20
344.7068353771019
 10
134.4634660197916
 20
343.9818255293237
 10
116.3246495417152
 20
343.9818255293237
 10
80.04701658556223
 20
350.1444092354379
 10
88.33699528027727
 20
351.6662124722523
 10
82.8888838077869
 20
352.4242434768096
  0
DIMENSION
  5
1BF2
330
106E
100
AcDbEntity
  8
BEM
100
AcDbDimension
  2
*D11
 10
69.8873836669959
 20
341.6238713038207
 30
0.0
 11
63.98738366699586
 21
359.1238713038208
 31
0.0
 70
    32
 71
     5
 42
35.00000000000028
  3
STANDARD
100
AcDbAlignedDimension
 13
140.3737433983913
 23
376.6238713038209
 33
0.0
 14
78.61312594319901
 24
341.6238713038207
 34
0.0
 50
90.0
100
AcDbRotatedDimension
  0
LINE
  5
1C24
330
106E
100
AcDbEntity
  8
TEXT
 62
     2
100
AcDbLine
 10
129.3331298992652
 20
241.5180610624771
 30
0.0
 11
112.6858701277466
 21
334.6939137781711
 31
0.0
  0
TEXT
  5
1C25
330
106E
100
AcDbEntity
  8
TEXT
 62
     1
100
AcDbText
 10
131.2528056959827
 20
230.3460649078961
 30
0.0
 40
7.0
  1
EDV-Art.Nr. 01368.100X
 41
0.8
  7
GREEKS
100
AcDbText
  0
TEXT
  5
1C26
330
106E
100
AcDbEntity
  8
TEXT
 62
     1
100
AcDbText
 10
131.9823135183159
 20
244.7885886633262
 30
0.0
 40
7.0
  1
Ablaufkörper
 41
0.8
  7
GREEKS
100
AcDbText
  0
LINE
  5
1C27
330
106E
100
AcDbEntity
  8
TEXT
 62
     2
100
AcDbLine
 10
129.3331298992652
 20
241.5180610624771
 30
0.0
 11
233.1470192013812
 21
241.5180610624771
 31
0.0
  0
HATCH
  5
1C72
330
106E
100
AcDbEntity
  8
SCHRAFF
100
AcDbHatch
 10
0.0
 20
0.0
 30
0.0
210
0.0
220
0.0
230
1.0
  2
_USER
 70
     0
 71
     0
 91
        2
 92
        7
 72
     1
 73
     1
 93
       14
 10
445.6391161843035
 20
355.4756752476872
 42
0.0596317214396058
 10
436.1530282291448
 20
354.8414176616152
 42
0.0
 10
377.757491946771
 20
343.8597946845498
 42
-0.0596317214396036
 10
370.6429259804023
 20
343.3841014949964
 42
0.0
 10
361.3598609571815
 20
343.8706063178033
 42
0.0
 10
359.4568489009993
 20
341.9675942616211
 42
0.0
 10
370.5382540679163
 20
341.3868424254872
 42
0.0596317214396004
 10
378.1271244320426
 20
341.8942484943441
 42
0.0
 10
436.5226607144167
 20
352.8758714714096
 42
-0.059631721439604
 10
445.5344442718172
 20
353.4784161781781
 42
0.0
 10
801.0151844596176
 20
334.84846000704
 42
0.0
 10
810.0929188958128
 20
332.7526998782377
 42
0.0
 10
810.1992055412676
 20
334.7807698882474
 42
0.0
 10
801.2945938988105
 20
336.836561470817
 42
0.0
 97
        0
 92
        7
 72
     1
 73
     1
 93
       14
 10
440.4055205600085
 20
255.6127217722315
 42
-0.0596317214396042
 10
431.5060875681023
 20
257.1539535626064
 42
0.0
 10
374.5783403174868
 20
274.1794137292649
 42
0.0596317214396034
 10
367.0840809558817
 20
275.4772931316856
 42
0.0
 10
335.7177978556849
 20
277.1211303733303
 42
0.0
 10
335.6131259431991
 20
275.1238713038211
 42
0.0
 10
366.9794090433958
 20
273.4800340621764
 42
-0.0596317214396023
 10
374.0052771949005
 20
272.2632721224071
 42
0.0
 10
430.9330244455161
 20
255.2378119557486
 42
0.0596317214396043
 10
440.3008486475226
 20
253.6154627027224
 42
0.0
 10
795.9563263620465
 20
234.9763489258569
 42
0.0
 10
805.0270463451303
 20
236.0900932960529
 42
0.0
 10
805.1333329905855
 20
238.1181633060627
 42
0.0
 10
795.886260747826
 20
236.982765601098
 42
0.0
 97
        0
 75
     0
 76
     0
 52
135.0
 41
2.0
 77
     0
 78
     1
 53
135.0
 43
0.0
 44
-108.8758127948733
 45
-1.414213562373095
 46
-1.414213562373094
 79
     0
 47
0.6619421349798236
 98
        2
 10
570.5724067798509
 20
347.4915458814896
 10
481.8057575629309
 20
252.8338196925702
  0
LINE
  5
1C73
330
106E
100
AcDbEntity
  8
STEMPEL
100
AcDbLine
 10
335.7177978556848
 20
277.1211303733302
 30
0.0
 11
367.0840809558817
 21
275.4772931316856
 31
0.0
  0
LINE
  5
1C74
330
106E
100
AcDbEntity
  8
STEMPEL
100
AcDbLine
 10
335.613125943199
 20
275.1238713038211
 30
0.0
 11
366.9794090433958
 21
273.4800340621764
 31
0.0
  0
LINE
  5
1C75
330
106E
100
AcDbEntity
  8
STEMPEL
100
AcDbLine
 10
335.613125943199
 20
275.1238713038211
 30
0.0
 11
337.9912950120265
 21
320.502040372648
 31
0.0
  0
LINE
  5
1C76
330
106E
100
AcDbEntity
  8
STEMPEL
100
AcDbLine
 10
421.8593379677858
 20
404.3700833284085
 30
0.0
 11
337.9912950120265
 21
320.5020403726479
 31
0.0
  0
HATCH
  5
1C77
330
106E
100
AcDbEntity
  8
SCHRAFF
100
AcDbHatch
 10
0.0
 20
0.0
 30
0.0
210
0.0
220
0.0
230
1.0
  2
_USER
 70
     0
 71
     0
 91
        1
 92
        7
 72
     1
 73
     1
 93
        5
 10
351.420737787773
 20
333.9314831483947
 42
-0.1912300966500791
 10
342.613125943199
 20
330.1295668903244
 42
0.0
 10
342.613125943199
 20
330.1238713038205
 42
0.0
 10
344.613125943199
 20
330.1238713038206
 42
0.0
 10
344.6131259431989
 20
327.1238713038206
 42
0.0
 97
        0
 75
     0
 76
     0
 52
0.0
 41
0.1
 77
     0
 78
     1
 53
0.0
 43
0.0
 44
-108.8758127948733
 45
0.0
 46
0.1
 79
     0
 47
0.1414243564466858
 98
        1
 10
346.292259751001
 20
329.4307081186455
  0
ENDSEC
  0
SECTION
  2
OBJECTS
  0
DICTIONARY
  5
105C
330
0
100
AcDbDictionary
281
     1
  3
ACAD_COLOR
350
16CF
  3
ACAD_GROUP
350
105D
  3
ACAD_LAYOUT
350
1069
  3
ACAD_MATERIAL
350
16CE
  3
ACAD_MLINESTYLE
350
1066
  3
ACAD_PLOTSETTINGS
350
1068
  3
ACAD_PLOTSTYLENAME
350
105E
  3
AcDbVariableDictionary
350
1114
  0
DICTIONARY
  5
1232
330
106E
100
AcDbDictionary
280
     1
281
     1
  3
ACAD_LAYOUTSELFREF
360
167B
  0
DICTIONARY
  5
1234
330
106A
100
AcDbDictionary
280
     1
281
     1
  3
ACAD_LAYOUTSELFREF
360
167A
  0
DICTIONARY
  5
16CF
102
{ACAD_REACTORS
330
105C
102
}
330
105C
100
AcDbDictionary
281
     1
  0
DICTIONARY
  5
105D
102
{ACAD_REACTORS
330
105C
102
}
330
105C
100
AcDbDictionary
281
     1
  0
DICTIONARY
  5
1069
102
{ACAD_REACTORS
330
105C
102
}
330
105C
100
AcDbDictionary
281
     1
  3
Layout1
350
106D
  3
Model
350
1071
  0
DICTIONARY
  5
16CE
102
{ACAD_REACTORS
330
105C
102
}
330
105C
100
AcDbDictionary
281
     1
  0
DICTIONARY
  5
1066
102
{ACAD_REACTORS
330
105C
102
}
330
105C
100
AcDbDictionary
281
     1
  3
Standard
350
1067
  0
DICTIONARY
  5
1068
102
{ACAD_REACTORS
330
105C
102
}
330
105C
100
AcDbDictionary
281
     1
  0
ACDBDICTIONARYWDFLT
  5
105E
102
{ACAD_REACTORS
330
105C
102
}
330
105C
100
AcDbDictionary
281
     1
  3
Normal
350
105F
100
AcDbDictionaryWithDefault
340
105F
  0
DICTIONARY
  5
1114
102
{ACAD_REACTORS
330
105C
102
}
330
105C
100
AcDbDictionary
281
     1
  3
DIMASSOC
350
1A5D
  3
PROJECTNAME
350
1A5E
  3
SORTENTS
350
1115
  0
XRECORD
  5
167B
102
{ACAD_REACTORS
330
1232
102
}
330
1232
100
AcDbXrecord
280
     1
340
106E
  0
XRECORD
  5
167A
102
{ACAD_REACTORS
330
1234
102
}
330
1234
100
AcDbXrecord
280
     1
340
106A
  0
LAYOUT
  5
106D
102
{ACAD_REACTORS
330
1069
102
}
330
1069
100
AcDbPlotSettings
  1

  2
\\NT_WORK01\HP LaserJet 5000 PCL 6
  4

  6

 40
0.0
 41
0.0
 42
0.0
 43
0.0
 44
0.0
 45
0.0
 46
0.0
 47
0.0
 48
0.0
 49
0.0
140
0.0
141
0.0
142
1.0
143
1.0
 70
   688
 72
     0
 73
     0
 74
     5
  7
monochrome.ctb
 75
    16
147
1.0
 76
     0
 77
     2
 78
   300
148
0.0
149
0.0
100
AcDbLayout
  1
Layout1
 70
     0
 71
     1
 10
0.0
 20
0.0
 11
12.0
 21
9.0
 12
0.0
 22
0.0
 32
0.0
 14
1.000000000000000E+20
 24
1.000000000000000E+20
 34
1.000000000000000E+20
 15
-1.000000000000000E+20
 25
-1.000000000000000E+20
 35
-1.000000000000000E+20
146
0.0
 13
0.0
 23
0.0
 33
0.0
 16
1.0
 26
0.0
 36
0.0
 17
0.0
 27
1.0
 37
0.0
 76
     0
330
106A
  0
LAYOUT
  5
1071
102
{ACAD_REACTORS
330
1069
102
}
330
1069
100
AcDbPlotSettings
  1

  2
none_device
  4
Letter_(8.50_x_11.00_Inches)
  6

 40
6.349999904632568
 41
6.349999904632568
 42
6.350006103515625
 43
6.350006103515625
 44
215.8999938964844
 45
279.3999938964844
 46
0.0
 47
0.0
 48
0.0
 49
0.0
140
0.0
141
0.0
142
1.0
143
1.0
 70
 11952
 72
     0
 73
     1
 74
     0
  7

 75
     0
147
1.0
 76
     0
 77
     2
 78
   300
148
-3034.281979024021
149
89.91803552416191
100
AcDbLayout
  1
Model
 70
     1
 71
     0
 10
0.0
 20
0.0
 11
12.0
 21
9.0
 12
0.0
 22
0.0
 32
0.0
 14
0.0
 24
0.0
 34
0.0
 15
0.0
 25
0.0
 35
0.0
146
0.0
 13
0.0
 23
0.0
 33
0.0
 16
1.0
 26
0.0
 36
0.0
 17
0.0
 27
1.0
 37
0.0
 76
     0
330
106E
  0
MLINESTYLE
  5
1067
102
{ACAD_REACTORS
330
1066
102
}
330
1066
100
AcDbMlineStyle
  2
STANDARD
 70
     0
  3

 62
   256
 51
90.0
 52
90.0
 71
     2
 49
0.5
 62
   256
  6
BYLAYER
 49
-0.5
 62
   256
  6
BYLAYER
  0
ACDBPLACEHOLDER
  5
105F
102
{ACAD_REACTORS
330
105E
102
}
330
105E
  0
DICTIONARYVAR
  5
1A5D
102
{ACAD_REACTORS
330
1114
102
}
330
1114
100
DictionaryVariables
280
     0
  1
1
  0
DICTIONARYVAR
  5
1A5E
102
{ACAD_REACTORS
330
1114
102
}
330
1114
100
DictionaryVariables
280
     0
  1

  0
DICTIONARYVAR
  5
1115
102
{ACAD_REACTORS
330
1114
102
}
330
1114
100
DictionaryVariables
280
     0
  1
96
  0
ENDSEC
  0
EOF
