  0
SECTION
  2
HEADER
  9
$ACADVER
  1
AC1018
  9
$ACADMAINTVER
 70
     2
  9
$DWGCODEPAGE
  3
ANSI_1252
  9
$INSBASE
 10
0.0
 20
0.0
 30
0.0
  9
$EXTMIN
 10
-0.0181365906848896
 20
-0.0051206511520832
 30
-0.0000000000000129
  9
$EXTMAX
 10
840.0213772511767
 20
594.0468161694561
 30
0.0000000000000023
  9
$LIMMIN
 10
0.0
 20
0.0
  9
$LIMMAX
 10
840.0
 20
594.0
  9
$ORTHOMODE
 70
     0
  9
$REGENMODE
 70
     1
  9
$FILLMODE
 70
     1
  9
$QTEXTMODE
 70
     0
  9
$MIRRTEXT
 70
     1
  9
$LTSCALE
 40
20.0
  9
$ATTMODE
 70
     1
  9
$TEXTSIZE
 40
3.5
  9
$TRACEWID
 40
1.0
  9
$TEXTSTYLE
  7
STANDARD
  9
$CLAYER
  8
BEM
  9
$CELTYPE
  6
ByLayer
  9
$CECOLOR
 62
   256
  9
$CELTSCALE
 40
1.0
  9
$DISPSILH
 70
     0
  9
$DIMSCALE
 40
2.0
  9
$DIMASZ
 40
3.5
  9
$DIMEXO
 40
1.0
  9
$DIMDLI
 40
7.0
  9
$DIMRND
 40
0.0
  9
$DIMDLE
 40
0.0
  9
$DIMEXE
 40
1.0
  9
$DIMTP
 40
0.0
  9
$DIMTM
 40
0.0
  9
$DIMTXT
 40
3.5
  9
$DIMCEN
 40
1.5
  9
$DIMTSZ
 40
0.0
  9
$DIMTOL
 70
     0
  9
$DIMLIM
 70
     0
  9
$DIMTIH
 70
     0
  9
$DIMTOH
 70
     0
  9
$DIMSE1
 70
     0
  9
$DIMSE2
 70
     0
  9
$DIMTAD
 70
     1
  9
$DIMZIN
 70
     8
  9
$DIMBLK
  1

  9
$DIMASO
 70
     1
  9
$DIMSHO
 70
     0
  9
$DIMPOST
  1

  9
$DIMAPOST
  1

  9
$DIMALT
 70
     0
  9
$DIMALTD
 70
     2
  9
$DIMALTF
 40
25.4
  9
$DIMLFAC
 40
1.0
  9
$DIMTOFL
 70
     1
  9
$DIMTVP
 40
0.0
  9
$DIMTIX
 70
     0
  9
$DIMSOXD
 70
     0
  9
$DIMSAH
 70
     0
  9
$DIMBLK1
  1

  9
$DIMBLK2
  1

  9
$DIMSTYLE
  2
Standard
  9
$DIMCLRD
 70
     0
  9
$DIMCLRE
 70
     0
  9
$DIMCLRT
 70
     1
  9
$DIMTFAC
 40
0.5142857142857144
  9
$DIMGAP
 40
1.5
  9
$DIMJUST
 70
     0
  9
$DIMSD1
 70
     0
  9
$DIMSD2
 70
     0
  9
$DIMTOLJ
 70
     1
  9
$DIMTZIN
 70
     8
  9
$DIMALTZ
 70
     8
  9
$DIMALTTZ
 70
     8
  9
$DIMUPT
 70
     0
  9
$DIMDEC
 70
     2
  9
$DIMTDEC
 70
     2
  9
$DIMALTU
 70
     2
  9
$DIMALTTD
 70
     2
  9
$DIMTXSTY
  7
STANDARD
  9
$DIMAUNIT
 70
     0
  9
$DIMADEC
 70
     2
  9
$DIMALTRND
 40
0.0
  9
$DIMAZIN
 70
     2
  9
$DIMDSEP
 70
    46
  9
$DIMATFIT
 70
     3
  9
$DIMFRAC
 70
     0
  9
$DIMLDRBLK
  1

  9
$DIMLUNIT
 70
     2
  9
$DIMLWD
 70
    -2
  9
$DIMLWE
 70
    -2
  9
$DIMTMOVE
 70
     0
  9
$LUNITS
 70
     2
  9
$LUPREC
 70
     2
  9
$SKETCHINC
 40
1.0
  9
$FILLETRAD
 40
0.0
  9
$AUNITS
 70
     0
  9
$AUPREC
 70
     0
  9
$MENU
  1
ACAD
  9
$ELEVATION
 40
0.0
  9
$PELEVATION
 40
0.0
  9
$THICKNESS
 40
0.0
  9
$LIMCHECK
 70
     0
  9
$CHAMFERA
 40
0.0
  9
$CHAMFERB
 40
0.0
  9
$CHAMFERC
 40
0.0
  9
$CHAMFERD
 40
0.0
  9
$SKPOLY
 70
     0
  9
$TDCREATE
 40
2455397.867059838
  9
$TDUCREATE
 40
2455397.783726505
  9
$TDUPDATE
 40
2455453.497104931
  9
$TDUUPDATE
 40
2455453.413771597
  9
$TDINDWG
 40
0.0709287963
  9
$TDUSRTIMER
 40
0.0709287963
  9
$USRTIMER
 70
     1
  9
$ANGBASE
 50
0.0
  9
$ANGDIR
 70
     0
  9
$PDMODE
 70
     0
  9
$PDSIZE
 40
0.0
  9
$PLINEWID
 40
0.0
  9
$SPLFRAME
 70
     0
  9
$SPLINETYPE
 70
     6
  9
$SPLINESEGS
 70
     8
  9
$HANDSEED
  5
508B
  9
$SURFTAB1
 70
     6
  9
$SURFTAB2
 70
     6
  9
$SURFTYPE
 70
     6
  9
$SURFU
 70
     6
  9
$SURFV
 70
     6
  9
$UCSBASE
  2

  9
$UCSNAME
  2

  9
$UCSORG
 10
0.0
 20
0.0
 30
0.0
  9
$UCSXDIR
 10
1.0
 20
0.0
 30
0.0
  9
$UCSYDIR
 10
0.0
 20
1.0
 30
0.0
  9
$UCSORTHOREF
  2

  9
$UCSORTHOVIEW
 70
     0
  9
$UCSORGTOP
 10
0.0
 20
0.0
 30
0.0
  9
$UCSORGBOTTOM
 10
0.0
 20
0.0
 30
0.0
  9
$UCSORGLEFT
 10
0.0
 20
0.0
 30
0.0
  9
$UCSORGRIGHT
 10
0.0
 20
0.0
 30
0.0
  9
$UCSORGFRONT
 10
0.0
 20
0.0
 30
0.0
  9
$UCSORGBACK
 10
0.0
 20
0.0
 30
0.0
  9
$PUCSBASE
  2

  9
$PUCSNAME
  2

  9
$PUCSORG
 10
0.0
 20
0.0
 30
0.0
  9
$PUCSXDIR
 10
1.0
 20
0.0
 30
0.0
  9
$PUCSYDIR
 10
0.0
 20
1.0
 30
0.0
  9
$PUCSORTHOREF
  2

  9
$PUCSORTHOVIEW
 70
     0
  9
$PUCSORGTOP
 10
0.0
 20
0.0
 30
0.0
  9
$PUCSORGBOTTOM
 10
0.0
 20
0.0
 30
0.0
  9
$PUCSORGLEFT
 10
0.0
 20
0.0
 30
0.0
  9
$PUCSORGRIGHT
 10
0.0
 20
0.0
 30
0.0
  9
$PUCSORGFRONT
 10
0.0
 20
0.0
 30
0.0
  9
$PUCSORGBACK
 10
0.0
 20
0.0
 30
0.0
  9
$USERI1
 70
     0
  9
$USERI2
 70
     0
  9
$USERI3
 70
     0
  9
$USERI4
 70
     0
  9
$USERI5
 70
     0
  9
$USERR1
 40
0.0
  9
$USERR2
 40
0.0
  9
$USERR3
 40
0.0
  9
$USERR4
 40
0.0
  9
$USERR5
 40
0.0
  9
$WORLDVIEW
 70
     1
  9
$SHADEDGE
 70
     3
  9
$SHADEDIF
 70
    70
  9
$TILEMODE
 70
     1
  9
$MAXACTVP
 70
    16
  9
$PINSBASE
 10
0.0
 20
0.0
 30
0.0
  9
$PLIMCHECK
 70
     0
  9
$PEXTMIN
 10
1.000000000000000E+20
 20
1.000000000000000E+20
 30
1.000000000000000E+20
  9
$PEXTMAX
 10
-1.000000000000000E+20
 20
-1.000000000000000E+20
 30
-1.000000000000000E+20
  9
$PLIMMIN
 10
0.0
 20
0.0
  9
$PLIMMAX
 10
12.0
 20
9.0
  9
$UNITMODE
 70
     0
  9
$VISRETAIN
 70
     0
  9
$PLINEGEN
 70
     0
  9
$PSLTSCALE
 70
     0
  9
$TREEDEPTH
 70
  3020
  9
$CMLSTYLE
  2
Standard
  9
$CMLJUST
 70
     0
  9
$CMLSCALE
 40
1.0
  9
$PROXYGRAPHICS
 70
     1
  9
$MEASUREMENT
 70
     0
  9
$CELWEIGHT
370
    -1
  9
$ENDCAPS
280
     0
  9
$JOINSTYLE
280
     0
  9
$LWDISPLAY
290
     0
  9
$INSUNITS
 70
     0
  9
$HYPERLINKBASE
  1

  9
$STYLESHEET
  1

  9
$XEDIT
290
     1
  9
$CEPSNTYPE
380
     0
  9
$PSTYLEMODE
290
     1
  9
$FINGERPRINTGUID
  2
{D68B0D0D-A558-11D7-B632-000102183313}
  9
$VERSIONGUID
  2
{244F0999-D341-4DB7-A922-3462136747A4}
  9
$EXTNAMES
290
     1
  9
$PSVPSCALE
 40
0.0
  9
$OLESTARTUP
290
     0
  9
$SORTENTS
280
   127
  9
$INDEXCTL
280
     0
  9
$HIDETEXT
280
     0
  9
$XCLIPFRAME
290
     0
  9
$HALOGAP
280
     0
  9
$OBSCOLOR
 70
   257
  9
$OBSLTYPE
280
     0
  9
$INTERSECTIONDISPLAY
280
     0
  9
$INTERSECTIONCOLOR
 70
   257
  9
$DIMASSOC
280
     1
  9
$PROJECTNAME
  1

  0
ENDSEC
  0
SECTION
  2
CLASSES
  0
CLASS
  1
ACDBDICTIONARYWDFLT
  2
AcDbDictionaryWithDefault
  3
ObjectDBX Classes
 90
        0
 91
        1
280
     0
281
     0
  0
CLASS
  1
DICTIONARYVAR
  2
AcDbDictionaryVar
  3
ObjectDBX Classes
 90
        0
 91
        2
280
     0
281
     0
  0
ENDSEC
  0
SECTION
  2
TABLES
  0
TABLE
  2
VPORT
  5
8
330
0
100
AcDbSymbolTable
 70
     2
  0
VPORT
  5
508A
330
8
100
AcDbSymbolTableRecord
100
AcDbViewportTableRecord
  2
*Active
 70
     0
 10
0.0
 20
0.0
 11
1.0
 21
1.0
 12
420.0016203302459
 22
297.020847759152
 13
0.0
 23
0.0
 14
1.0
 24
1.0
 15
10.0
 25
10.0
 16
0.0
 26
0.0
 36
1.0
 17
0.0
 27
0.0
 37
0.0
 40
632.1313117629208
 41
1.336927223719676
 42
50.0
 43
0.0
 44
0.0
 50
0.0
 51
0.0
 71
     0
 72
  1500
 73
     1
 74
     0
 75
     0
 76
     0
 77
     0
 78
     0
281
     0
 65
     1
110
0.0
120
0.0
130
0.0
111
1.0
121
0.0
131
0.0
112
0.0
122
1.0
132
0.0
 79
     0
146
0.0
  0
ENDTAB
  0
TABLE
  2
LTYPE
  5
5
330
0
100
AcDbSymbolTable
 70
     3
  0
LTYPE
  5
13
330
5
100
AcDbSymbolTableRecord
100
AcDbLinetypeTableRecord
  2
ByBlock
 70
     0
  3

 72
    65
 73
     0
 40
0.0
  0
LTYPE
  5
14
330
5
100
AcDbSymbolTableRecord
100
AcDbLinetypeTableRecord
  2
ByLayer
 70
     0
  3

 72
    65
 73
     0
 40
0.0
  0
LTYPE
  5
15
330
5
100
AcDbSymbolTableRecord
100
AcDbLinetypeTableRecord
  2
Continuous
 70
     0
  3
Solid line
 72
    65
 73
     0
 40
0.0
  0
LTYPE
  5
25
330
5
100
AcDbSymbolTableRecord
100
AcDbLinetypeTableRecord
  2
STRICHPUNKT
 70
     0
  3
__ . __ . __ . __ . __ . __ . __ . __ . __ . __
 72
    65
 73
     4
 40
1.0
 49
0.5
 74
     0
 49
-0.25
 74
     0
 49
0.0
 74
     0
 49
-0.25
 74
     0
  0
LTYPE
  5
34
330
5
100
AcDbSymbolTableRecord
100
AcDbLinetypeTableRecord
  2
AUSGEZOGEN
 70
     0
  3
Ausgezogene Linie
 72
    65
 73
     0
 40
0.0
  0
ENDTAB
  0
TABLE
  2
LAYER
  5
2
330
0
100
AcDbSymbolTable
 70
     9
  0
LAYER
  5
10
330
2
100
AcDbSymbolTableRecord
100
AcDbLayerTableRecord
  2
0
 70
     0
 62
     7
  6
Continuous
370
    -3
390
F
  0
LAYER
  5
2B
330
2
100
AcDbSymbolTableRecord
100
AcDbLayerTableRecord
  2
VOLL
 70
     0
 62
     1
  6
Continuous
370
    -3
390
F
  0
LAYER
  5
2C
330
2
100
AcDbSymbolTableRecord
100
AcDbLayerTableRecord
  2
HILF
 70
     0
 62
     2
  6
Continuous
370
    -3
390
F
  0
LAYER
  5
2D
330
2
100
AcDbSymbolTableRecord
100
AcDbLayerTableRecord
  2
MITTEL
 70
     0
 62
     2
  6
STRICHPUNKT
370
    -3
390
F
  0
LAYER
  5
2F
330
2
100
AcDbSymbolTableRecord
100
AcDbLayerTableRecord
  2
BEM
 70
     0
 62
     7
  6
Continuous
370
    -3
390
F
  0
LAYER
  5
30
330
2
100
AcDbSymbolTableRecord
100
AcDbLayerTableRecord
  2
STEMPEL
 70
     0
 62
     3
  6
Continuous
370
    -3
390
F
  0
LAYER
  5
33
330
2
100
AcDbSymbolTableRecord
100
AcDbLayerTableRecord
  2
TEXT
 70
     0
 62
     7
  6
Continuous
370
    -3
390
F
  0
LAYER
  5
428
330
2
100
AcDbSymbolTableRecord
100
AcDbLayerTableRecord
  2
SCHRAFF
 70
     0
 62
     7
  6
AUSGEZOGEN
370
    -3
390
F
  0
LAYER
  5
429
330
2
100
AcDbSymbolTableRecord
100
AcDbLayerTableRecord
  2
DEFPOINTS
 70
     0
 62
     7
  6
AUSGEZOGEN
290
     0
370
    -3
390
F
  0
ENDTAB
  0
TABLE
  2
STYLE
  5
3
330
0
100
AcDbSymbolTable
 70
     2
  0
STYLE
  5
11
330
3
100
AcDbSymbolTableRecord
100
AcDbTextStyleTableRecord
  2
STANDARD
 70
     0
 40
0.0
 41
0.8
 50
0.0
 71
     0
 42
3.5
  3
simplex.shx
  4

  0
STYLE
  5
24
330
3
100
AcDbSymbolTableRecord
100
AcDbTextStyleTableRecord
  2
GREEKS
 70
     0
 40
0.0
 41
0.8
 50
0.0
 71
     0
 42
2.5
  3
SIMPLEX.shx
  4

  0
ENDTAB
  0
TABLE
  2
VIEW
  5
6
330
0
100
AcDbSymbolTable
 70
     0
  0
ENDTAB
  0
TABLE
  2
UCS
  5
7
330
0
100
AcDbSymbolTable
 70
     0
  0
ENDTAB
  0
TABLE
  2
APPID
  5
9
330
0
100
AcDbSymbolTable
 70
     1
  0
APPID
  5
12
330
9
100
AcDbSymbolTableRecord
100
AcDbRegAppTableRecord
  2
ACAD
 70
     0
  0
ENDTAB
  0
TABLE
  2
DIMSTYLE
  5
A
330
0
100
AcDbSymbolTable
 70
     1
100
AcDbDimStyleTable
 71
     1
340
A2
  0
DIMSTYLE
105
A2
102
{ACAD_REACTORS
330
4E52
330
4D9B
330
4D85
330
4D83
330
5021
330
5040
330
4E71
330
4E5F
330
4E54
330
4E2F
102
}
330
A
100
AcDbSymbolTableRecord
100
AcDbDimStyleTableRecord
  2
Standard
 70
     0
340
11
  0
ENDTAB
  0
TABLE
  2
BLOCK_RECORD
  5
1
330
0
100
AcDbSymbolTable
 70
    23
  0
BLOCK_RECORD
  5
1E
102
{ACAD_XDICTIONARY
360
DB
102
}
330
1
100
AcDbSymbolTableRecord
100
AcDbBlockTableRecord
  2
*Model_Space
340
21
  0
BLOCK_RECORD
  5
1A
102
{ACAD_XDICTIONARY
360
DD
102
}
330
1
100
AcDbSymbolTableRecord
100
AcDbBlockTableRecord
  2
*Paper_Space
340
1D
  0
BLOCK_RECORD
  5
22
330
1
100
AcDbSymbolTableRecord
100
AcDbBlockTableRecord
  2
LOGO
340
0
102
{BLKREFS
331
56
102
}
  0
BLOCK_RECORD
  5
23
330
1
100
AcDbSymbolTableRecord
100
AcDbBlockTableRecord
  2
LORO
340
0
102
{BLKREFS
331
9B
102
}
  0
BLOCK_RECORD
  5
458B
330
1
100
AcDbSymbolTableRecord
100
AcDbBlockTableRecord
  2
*X2
340
0
102
{BLKREFS
331
4E44
102
}
  0
BLOCK_RECORD
  5
45C2
330
1
100
AcDbSymbolTableRecord
100
AcDbBlockTableRecord
  2
*X3
340
0
102
{BLKREFS
331
4E24
102
}
  0
BLOCK_RECORD
  5
45E2
330
1
100
AcDbSymbolTableRecord
100
AcDbBlockTableRecord
  2
*X4
340
0
102
{BLKREFS
331
4E3F
102
}
  0
BLOCK_RECORD
  5
465D
330
1
100
AcDbSymbolTableRecord
100
AcDbBlockTableRecord
  2
*X5
340
0
102
{BLKREFS
331
4D2D
102
}
  0
BLOCK_RECORD
  5
46A5
330
1
100
AcDbSymbolTableRecord
100
AcDbBlockTableRecord
  2
*X6
340
0
102
{BLKREFS
331
4E7C
102
}
  0
BLOCK_RECORD
  5
46E0
330
1
100
AcDbSymbolTableRecord
100
AcDbBlockTableRecord
  2
*X7
340
0
102
{BLKREFS
331
4DB4
102
}
  0
BLOCK_RECORD
  5
46FF
330
1
100
AcDbSymbolTableRecord
100
AcDbBlockTableRecord
  2
*X8
340
0
102
{BLKREFS
331
4DCD
102
}
  0
BLOCK_RECORD
  5
471B
330
1
100
AcDbSymbolTableRecord
100
AcDbBlockTableRecord
  2
*X9
340
0
102
{BLKREFS
331
4E57
102
}
  0
BLOCK_RECORD
  5
4755
330
1
100
AcDbSymbolTableRecord
100
AcDbBlockTableRecord
  2
*X10
340
0
  0
BLOCK_RECORD
  5
4898
330
1
100
AcDbSymbolTableRecord
100
AcDbBlockTableRecord
  2
*X11
340
0
102
{BLKREFS
331
4E53
102
}
  0
BLOCK_RECORD
  5
4912
330
1
100
AcDbSymbolTableRecord
100
AcDbBlockTableRecord
  2
*X12
340
0
  0
BLOCK_RECORD
  5
4ED6
330
1
100
AcDbSymbolTableRecord
100
AcDbBlockTableRecord
  2
*D13
340
0
  0
BLOCK_RECORD
  5
4EE3
330
1
100
AcDbSymbolTableRecord
100
AcDbBlockTableRecord
  2
*D14
340
0
  0
BLOCK_RECORD
  5
4EF0
330
1
100
AcDbSymbolTableRecord
100
AcDbBlockTableRecord
  2
*D15
340
0
  0
BLOCK_RECORD
  5
4EFD
330
1
100
AcDbSymbolTableRecord
100
AcDbBlockTableRecord
  2
*D16
340
0
  0
BLOCK_RECORD
  5
4F0A
330
1
100
AcDbSymbolTableRecord
100
AcDbBlockTableRecord
  2
*D17
340
0
  0
BLOCK_RECORD
  5
4F17
330
1
100
AcDbSymbolTableRecord
100
AcDbBlockTableRecord
  2
*D18
340
0
  0
BLOCK_RECORD
  5
4F3D
330
1
100
AcDbSymbolTableRecord
100
AcDbBlockTableRecord
  2
*D19
340
0
  0
BLOCK_RECORD
  5
4F4A
330
1
100
AcDbSymbolTableRecord
100
AcDbBlockTableRecord
  2
*D20
340
0
  0
BLOCK_RECORD
  5
5022
330
1
100
AcDbSymbolTableRecord
100
AcDbBlockTableRecord
  2
*D21
340
0
  0
BLOCK_RECORD
  5
5041
330
1
100
AcDbSymbolTableRecord
100
AcDbBlockTableRecord
  2
*D22
340
0
  0
ENDTAB
  0
ENDSEC
  0
SECTION
  2
BLOCKS
  0
BLOCK
  5
37
330
1E
100
AcDbEntity
  8
0
100
AcDbBlockBegin
  2
*Model_Space
 70
     0
 10
0.0
 20
0.0
 30
0.0
  3
*Model_Space
  1

  0
ENDBLK
  5
38
330
1E
100
AcDbEntity
  8
0
100
AcDbBlockEnd
  0
BLOCK
  5
35
330
1A
100
AcDbEntity
 67
     1
  8
0
100
AcDbBlockBegin
  2
*Paper_Space
 70
     0
 10
0.0
 20
0.0
 30
0.0
  3
*Paper_Space
  1

  0
ENDBLK
  5
36
330
1A
100
AcDbEntity
 67
     1
  8
0
100
AcDbBlockEnd
  0
BLOCK
  5
39
330
22
100
AcDbEntity
  8
0
100
AcDbBlockBegin
  2
LOGO
 70
     0
 10
0.0
 20
0.0
 30
0.0
  3
LOGO
  1

  0
ARC
  5
3A
330
22
100
AcDbEntity
  8
0
100
AcDbCircle
 10
11.59973089678112
 20
-9.271599258481501
 30
0.0
 40
4.5
100
AcDbArc
 50
270.0
 51
231.0575587310159
  0
LINE
  5
3B
330
22
100
AcDbEntity
  8
0
100
AcDbLine
 10
3.599730896781125
 20
-4.771599258481529
 30
0.0
 11
3.599730896781153
 21
-11.77159925848133
 31
0.0
  0
LINE
  5
3C
330
22
100
AcDbEntity
  8
0
100
AcDbLine
 10
2.599730896781125
 20
-4.771599258481529
 30
0.0
 11
2.599730896781153
 21
-11.77159925848133
 31
0.0
  0
CIRCLE
  5
3D
330
22
100
AcDbEntity
  8
0
100
AcDbCircle
 10
11.59973089678112
 20
-9.271599258481501
 30
0.0
 40
3.5
  0
ARC
  5
3E
330
22
100
AcDbEntity
  8
0
100
AcDbCircle
 10
31.59973089678115
 20
-9.271599258481472
 30
0.0
 40
4.5
100
AcDbArc
 50
270.0
 51
231.0575587310182
  0
LINE
  5
3F
330
22
100
AcDbEntity
  8
0
100
AcDbLine
 10
17.59973089678112
 20
-4.771599258481472
 30
0.0
 11
17.59973089678115
 21
-13.77159925848147
 31
0.0
  0
ARC
  5
40
330
22
100
AcDbEntity
  8
0
100
AcDbCircle
 10
22.59973089678116
 20
-7.271599258481472
 30
0.0
 40
2.5
100
AcDbArc
 50
293.1161887722295
 51
90.0
  0
CIRCLE
  5
41
330
22
100
AcDbEntity
  8
0
100
AcDbCircle
 10
31.59973089678115
 20
-9.271599258481472
 30
0.0
 40
3.5
  0
ARC
  5
42
330
22
100
AcDbEntity
  8
0
100
AcDbCircle
 10
4.599730896781153
 20
-11.77159925848133
 30
0.0
 40
1.0
100
AcDbArc
 50
180.0
 51
270.0
  0
ARC
  5
43
330
22
100
AcDbEntity
  8
0
100
AcDbCircle
 10
4.599730896781153
 20
-11.77159925848133
 30
0.0
 40
2.0
100
AcDbArc
 50
179.9999999999992
 51
270.0
  0
LINE
  5
44
330
22
100
AcDbEntity
  8
0
100
AcDbLine
 10
11.59973089678115
 20
-13.77159925848144
 30
0.0
 11
4.599730896781153
 21
-13.77159925848147
 31
0.0
  0
LINE
  5
45
330
22
100
AcDbEntity
  8
0
100
AcDbLine
 10
8.771303772034769
 20
-12.77159925848136
 30
0.0
 11
4.599730896781153
 21
-12.77159925848133
 31
0.0
  0
LINE
  5
46
330
22
100
AcDbEntity
  8
0
100
AcDbLine
 10
31.59973089678115
 20
-13.77159925848147
 30
0.0
 11
23.6715276665056
 21
-13.77159925848144
 31
0.0
  0
LINE
  5
47
330
22
100
AcDbEntity
  8
0
100
AcDbLine
 10
23.56565672307022
 20
-9.51278021337896
 30
0.0
 11
24.4388546544846
 21
-12.77159925848144
 31
0.0
  0
LINE
  5
48
330
22
100
AcDbEntity
  8
0
100
AcDbLine
 10
22.59973089678116
 20
-9.771599258481472
 30
0.0
 11
18.59973089678112
 21
-9.771599258481472
 31
0.0
  0
LINE
  5
49
330
22
100
AcDbEntity
  8
0
100
AcDbLine
 10
18.59973089678115
 20
-13.77159925848144
 30
0.0
 11
17.59973089678115
 21
-13.77159925848144
 31
0.0
  0
LINE
  5
4A
330
22
100
AcDbEntity
  8
0
100
AcDbLine
 10
18.59973089678115
 20
-9.771599258481472
 30
0.0
 11
18.59973089678115
 21
-13.77159925848144
 31
0.0
  0
LINE
  5
4B
330
22
100
AcDbEntity
  8
0
100
AcDbLine
 10
22.59973089678116
 20
-9.771599258481472
 30
0.0
 11
23.67152766650562
 21
-13.77159925848147
 31
0.0
  0
ARC
  5
4C
330
22
100
AcDbEntity
  8
0
100
AcDbCircle
 10
22.59973089678116
 20
-7.271599258481472
 30
0.0
 40
2.5
100
AcDbArc
 50
270.0
 51
270.0000000000007
  0
LINE
  5
4D
330
22
100
AcDbEntity
  8
0
100
AcDbLine
 10
28.77130377203494
 20
-12.77159925848147
 30
0.0
 11
24.43885465448463
 21
-12.77159925848144
 31
0.0
  0
LINE
  5
4E
330
22
100
AcDbEntity
  8
0
100
AcDbLine
 10
3.599730896781125
 20
-4.771599258481472
 30
0.0
 11
2.599730896781125
 21
-4.771599258481472
 31
0.0
  0
LINE
  5
4F
330
22
100
AcDbEntity
  8
0
100
AcDbLine
 10
22.59973089678116
 20
-8.771599258481472
 30
0.0
 11
18.59973089678115
 21
-8.771599258481472
 31
0.0
  0
LINE
  5
50
330
22
100
AcDbEntity
  8
0
100
AcDbLine
 10
22.59973089678116
 20
-5.771599258481472
 30
0.0
 11
18.59973089678115
 21
-5.771599258481472
 31
0.0
  0
LINE
  5
51
330
22
100
AcDbEntity
  8
0
100
AcDbLine
 10
22.59973089678116
 20
-4.771599258481472
 30
0.0
 11
17.59973089678115
 21
-4.771599258481472
 31
0.0
  0
LINE
  5
52
330
22
100
AcDbEntity
  8
0
100
AcDbLine
 10
18.59973089678115
 20
-5.771599258481472
 30
0.0
 11
18.59973089678115
 21
-8.771599258481472
 31
0.0
  0
ARC
  5
53
330
22
100
AcDbEntity
  8
0
100
AcDbCircle
 10
22.59973089678116
 20
-7.271599258481472
 30
0.0
 40
1.5
100
AcDbArc
 50
270.0
 51
90.0
  0
ENDBLK
  5
54
330
22
100
AcDbEntity
  8
0
100
AcDbBlockEnd
  0
BLOCK
  5
55
330
23
100
AcDbEntity
  8
0
100
AcDbBlockBegin
  2
LORO
 70
     0
 10
0.0
 20
0.0
 30
0.0
  3
LORO
  1

  0
INSERT
  5
56
330
23
100
AcDbEntity
  8
STEMPEL
100
AcDbBlockReference
  2
LOGO
 10
-1.748032802467321
 20
3.771489518552062
 30
0.0
  0
ENDBLK
  5
57
330
23
100
AcDbEntity
  8
0
100
AcDbBlockEnd
  0
BLOCK
  5
458C
330
458B
100
AcDbEntity
  8
0
100
AcDbBlockBegin
  2
*X2
 70
     1
 10
0.0
 20
0.0
 30
0.0
  3
*X2
  1

  0
LINE
  5
458D
330
458B
100
AcDbEntity
  8
0
 62
     0
100
AcDbLine
 10
906.1004775388632
 20
358.7998289004754
 30
0.0
 11
907.4691188900338
 21
360.1684702516461
 31
0.0
  0
LINE
  5
458E
330
458B
100
AcDbEntity
  8
0
 62
     0
100
AcDbLine
 10
1011.099605725362
 20
463.798957086974
 30
0.0
 11
1013.099605725362
 21
465.7989570869741
 31
0.0
  0
LINE
  5
458F
330
458B
100
AcDbEntity
  8
0
 62
     0
100
AcDbLine
 10
905.4691188900338
 20
362.4111109387655
 30
0.0
 11
907.4691188900338
 21
364.4111109387655
 31
0.0
  0
LINE
  5
4590
330
458B
100
AcDbEntity
  8
0
 62
     0
100
AcDbLine
 10
1006.856965038242
 20
463.798957086974
 30
0.0
 11
1008.856965038242
 21
465.7989570869741
 31
0.0
  0
LINE
  5
4591
330
458B
100
AcDbEntity
  8
0
 62
     0
100
AcDbLine
 10
911.8578368517438
 20
368.7998289004754
 30
0.0
 11
913.8578368517439
 21
370.7998289004754
 31
0.0
  0
LINE
  5
4592
330
458B
100
AcDbEntity
  8
0
 62
     0
100
AcDbLine
 10
905.4691188900338
 20
366.6537516258847
 30
0.0
 11
909.6151961646246
 21
370.7998289004754
 31
0.0
  0
LINE
  5
4593
330
458B
100
AcDbEntity
  8
0
 62
     0
100
AcDbLine
 10
1002.614324351123
 20
463.798957086974
 30
0.0
 11
1004.614324351123
 21
465.7989570869741
 31
0.0
  0
LINE
  5
4594
330
458B
100
AcDbEntity
  8
0
 62
     0
100
AcDbLine
 10
964.4691188900335
 20
425.6537516258844
 30
0.0
 11
966.4691188900334
 21
427.6537516258843
 31
0.0
  0
LINE
  5
4595
330
458B
100
AcDbEntity
  8
0
 62
     0
100
AcDbLine
 10
998.371683664004
 20
463.798957086974
 30
0.0
 11
1000.371683664004
 21
465.7989570869741
 31
0.0
  0
LINE
  5
4596
330
458B
100
AcDbEntity
  8
0
 62
     0
100
AcDbLine
 10
994.1290429768846
 20
463.798957086974
 30
0.0
 11
996.1290429768848
 21
465.7989570869741
 31
0.0
  0
LINE
  5
4597
330
458B
100
AcDbEntity
  8
0
 62
     0
100
AcDbLine
 10
885.4691188900336
 20
359.3816736872422
 30
0.0
 11
887.4691188900333
 21
361.3816736872421
 31
0.0
  0
LINE
  5
4598
330
458B
100
AcDbEntity
  8
0
 62
     0
100
AcDbLine
 10
964.8872741032661
 20
438.7998289004749
 30
0.0
 11
966.4691188900336
 21
440.3816736872423
 31
0.0
  0
LINE
  5
4599
330
458B
100
AcDbEntity
  8
0
 62
     0
100
AcDbLine
 10
885.4691188900336
 20
363.6243143743615
 30
0.0
 11
887.4691188900333
 21
365.6243143743613
 31
0.0
  0
LINE
  5
459A
330
458B
100
AcDbEntity
  8
0
 62
     0
100
AcDbLine
 10
964.4691188900337
 20
442.6243143743617
 30
0.0
 11
965.6446334161465
 21
443.7998289004744
 31
0.0
  0
LINE
  5
459B
330
458B
100
AcDbEntity
  8
0
 62
     0
100
AcDbLine
 10
890.6446334161474
 20
368.7998289004753
 30
0.0
 11
892.6446334161475
 21
370.7998289004754
 31
0.0
  0
LINE
  5
459C
330
458B
100
AcDbEntity
  8
0
 62
     0
100
AcDbLine
 10
885.4698872664675
 20
367.8677234379149
 30
0.0
 11
888.401224352594
 21
370.7990605240413
 31
0.0
  0
LINE
  5
459D
330
458B
100
AcDbEntity
  8
0
 62
     0
100
AcDbLine
 10
981.4011209155268
 20
463.798957086974
 30
0.0
 11
983.4011209155267
 21
465.798957086974
 31
0.0
  0
LINE
  5
459E
330
458B
100
AcDbEntity
  8
0
 62
     0
100
AcDbLine
 10
977.1584802284074
 20
463.798957086974
 30
0.0
 11
979.1584802284075
 21
465.798957086974
 31
0.0
  0
LINE
  5
459F
330
458B
100
AcDbEntity
  8
0
 62
     0
100
AcDbLine
 10
965.9167113547887
 20
456.7998289004744
 30
0.0
 11
966.4691188900338
 21
457.3522364357197
 31
0.0
  0
LINE
  5
45A0
330
458B
100
AcDbEntity
  8
0
 62
     0
100
AcDbLine
 10
972.9158395412881
 20
463.798957086974
 30
0.0
 11
974.9158395412882
 21
465.798957086974
 31
0.0
  0
LINE
  5
45A1
330
458B
100
AcDbEntity
  8
0
 62
     0
100
AcDbLine
 10
873.6740706676702
 20
368.7998289004753
 30
0.0
 11
874.4691188900334
 21
369.5948771228386
 31
0.0
  0
LINE
  5
45A2
330
458B
100
AcDbEntity
  8
0
 62
     0
100
AcDbLine
 10
968.653151380491
 20
463.7789096132961
 30
0.0
 11
970.6731988541688
 21
465.798957086974
 31
0.0
  0
LINE
  5
45A3
330
458B
100
AcDbEntity
  8
0
 62
     0
100
AcDbLine
 10
964.4691188900338
 20
459.5948771228389
 30
0.0
 11
966.4891663637117
 21
461.6149245965168
 31
0.0
  0
LINE
  5
45A4
330
458B
100
AcDbEntity
  8
0
 62
     0
100
AcDbLine
 10
869.431429980551
 20
368.7998289004754
 30
0.0
 11
871.431429980551
 21
370.7998289004754
 31
0.0
  0
LINE
  5
45A5
330
458B
100
AcDbEntity
  8
0
 62
     0
100
AcDbLine
 10
865.1887892934317
 20
368.7998289004754
 30
0.0
 11
867.1887892934318
 21
370.7998289004754
 31
0.0
  0
LINE
  5
45A6
330
458B
100
AcDbEntity
  8
0
 62
     0
100
AcDbLine
 10
860.9461486063125
 20
368.7998289004754
 30
0.0
 11
862.9461486063124
 21
370.7998289004754
 31
0.0
  0
LINE
  5
45A7
330
458B
100
AcDbEntity
  8
0
 62
     0
100
AcDbLine
 10
964.4691188900337
 20
412.9258295645266
 30
0.0
 11
965.3431182259824
 21
413.7998289004753
 31
0.0
  0
LINE
  5
45A8
330
458B
100
AcDbEntity
  8
0
 62
     0
100
AcDbLine
 10
1015.342246412481
 20
463.798957086974
 30
0.0
 11
1017.342246412481
 21
465.7989570869741
 31
0.0
  0
LINE
  5
45A9
330
458B
100
AcDbEntity
  8
0
 62
     0
100
AcDbLine
 10
964.5857589131017
 20
408.7998289004754
 30
0.0
 11
966.4691188900336
 21
410.6831888774073
 31
0.0
  0
LINE
  5
45AA
330
458B
100
AcDbEntity
  8
0
 62
     0
100
AcDbLine
 10
1019.5848870996
 20
463.798957086974
 30
0.0
 11
1021.5848870996
 21
465.7989570869741
 31
0.0
  0
LINE
  5
45AB
330
458B
100
AcDbEntity
  8
0
 62
     0
100
AcDbLine
 10
925.4691188900338
 20
365.4405481902882
 30
0.0
 11
927.4691188900337
 21
367.4405481902882
 31
0.0
  0
LINE
  5
45AC
330
458B
100
AcDbEntity
  8
0
 62
     0
100
AcDbLine
 10
1023.827527786719
 20
463.798957086974
 30
0.0
 11
1025.827527786719
 21
465.7989570869741
 31
0.0
  0
LINE
  5
45AD
330
458B
100
AcDbEntity
  8
0
 62
     0
100
AcDbLine
 10
928.828399600221
 20
368.7998289004754
 30
0.0
 11
930.8283996002209
 21
370.7998289004754
 31
0.0
  0
LINE
  5
45AE
330
458B
100
AcDbEntity
  8
0
 62
     0
100
AcDbLine
 10
925.4691188900338
 20
361.1979075031689
 30
0.0
 11
927.4691188900337
 21
363.1979075031689
 31
0.0
  0
LINE
  5
45AF
330
458B
100
AcDbEntity
  8
0
 62
     0
100
AcDbLine
 10
1028.070168473839
 20
463.798957086974
 30
0.0
 11
1030.070168473839
 21
465.7989570869741
 31
0.0
  0
LINE
  5
45B0
330
458B
100
AcDbEntity
  8
0
 62
     0
100
AcDbLine
 10
933.0710402873402
 20
368.7998289004754
 30
0.0
 11
934.4691188900334
 21
370.1979075031685
 31
0.0
  0
LINE
  5
45B1
330
458B
100
AcDbEntity
  8
0
 62
     0
100
AcDbLine
 10
927.3136809744595
 20
358.7998289004754
 30
0.0
 11
927.4691188900337
 21
358.9552668160497
 31
0.0
  0
LINE
  5
45B2
330
458B
100
AcDbEntity
  8
0
 62
     0
100
AcDbLine
 10
1032.312809160958
 20
463.798957086974
 30
0.0
 11
1034.312809160958
 21
465.7989570869741
 31
0.0
  0
LINE
  5
45B3
330
458B
100
AcDbEntity
  8
0
 62
     0
100
AcDbLine
 10
964.4691188900335
 20
395.9552668160493
 30
0.0
 11
966.4691188900334
 21
397.9552668160493
 31
0.0
  0
LINE
  5
45B4
330
458B
100
AcDbEntity
  8
0
 62
     0
100
AcDbLine
 10
945.5698565466921
 20
368.5707230984694
 30
0.0
 11
947.6982246920394
 21
370.6990912438167
 31
0.0
  0
LINE
  5
45B5
330
458B
100
AcDbEntity
  8
0
 62
     0
100
AcDbLine
 10
945.4691188900333
 20
364.2273447546913
 30
0.0
 11
947.4691188900333
 21
366.2273447546913
 31
0.0
  0
LINE
  5
45B6
330
458B
100
AcDbEntity
  8
0
 62
     0
100
AcDbLine
 10
1045.040731222316
 20
463.798957086974
 30
0.0
 11
1047.040731222316
 21
465.798957086974
 31
0.0
  0
LINE
  5
45B7
330
458B
100
AcDbEntity
  8
0
 62
     0
100
AcDbLine
 10
950.0416030358174
 20
368.7998289004754
 30
0.0
 11
952.0416030358173
 21
370.7998289004754
 31
0.0
  0
LINE
  5
45B8
330
458B
100
AcDbEntity
  8
0
 62
     0
100
AcDbLine
 10
964.4691188900335
 20
383.2273447546914
 30
0.0
 11
965.0416030358174
 21
383.7998289004754
 31
0.0
  0
LINE
  5
45B9
330
458B
100
AcDbEntity
  8
0
 62
     0
100
AcDbLine
 10
945.4691188900333
 20
359.9847040675721
 30
0.0
 11
947.4691188900333
 21
361.9847040675721
 31
0.0
  0
LINE
  5
45BA
330
458B
100
AcDbEntity
  8
0
 62
     0
100
AcDbLine
 10
1049.283371909435
 20
463.798957086974
 30
0.0
 11
1051.283371909435
 21
465.798957086974
 31
0.0
  0
LINE
  5
45BB
330
458B
100
AcDbEntity
  8
0
 62
     0
100
AcDbLine
 10
954.2842437229367
 20
368.7998289004754
 30
0.0
 11
954.469118890033
 21
368.9847040675717
 31
0.0
  0
LINE
  5
45BC
330
458B
100
AcDbEntity
  8
0
 62
     0
100
AcDbLine
 10
964.4691188900335
 20
378.9847040675722
 30
0.0
 11
966.4691188900334
 21
380.9847040675722
 31
0.0
  0
LINE
  5
45BD
330
458B
100
AcDbEntity
  8
0
 62
     0
100
AcDbLine
 10
1053.526012596554
 20
463.798957086974
 30
0.0
 11
1055.526012596554
 21
465.798957086974
 31
0.0
  0
LINE
  5
45BE
330
458B
100
AcDbEntity
  8
0
 62
     0
100
AcDbLine
 10
1057.768653283674
 20
463.798957086974
 30
0.0
 11
1059.500182908989
 21
465.5304867122894
 31
0.0
  0
LINE
  5
45BF
330
458B
100
AcDbEntity
  8
0
 62
     0
100
AcDbLine
 10
1060.330937081732
 20
462.1186001979128
 30
0.0
 11
1061.827344912098
 21
463.6150080282791
 31
0.0
  0
LINE
  5
45C0
330
458B
100
AcDbEntity
  8
0
 62
     0
100
AcDbLine
 10
1056.972439477447
 20
454.5174619065088
 30
0.0
 11
1062.187790938065
 21
459.732813367126
 31
0.0
  0
ENDBLK
  5
45C1
330
458B
100
AcDbEntity
  8
0
100
AcDbBlockEnd
  0
BLOCK
  5
45C3
330
45C2
100
AcDbEntity
  8
0
100
AcDbBlockBegin
  2
*X3
 70
     1
 10
0.0
 20
0.0
 30
0.0
  3
*X3
  1

  0
LINE
  5
45C4
330
45C2
100
AcDbEntity
  8
BEM
 62
     0
100
AcDbLine
 10
643.0322288945217
 20
1061.356600644483
 30
0.0
 11
643.0437690115133
 21
1061.368140761475
 31
0.0
  0
LINE
  5
45C5
330
45C2
100
AcDbEntity
  8
BEM
 62
     0
100
AcDbLine
 10
642.7594845324972
 20
1061.366698994933
 30
0.0
 11
643.0437690115133
 21
1061.650983473949
 31
0.0
  0
LINE
  5
45C6
330
45C2
100
AcDbEntity
  8
BEM
 62
     0
100
AcDbLine
 10
642.5032193566744
 20
1061.393276531585
 30
0.0
 11
643.0437690115134
 21
1061.933826186424
 31
0.0
  0
LINE
  5
45C7
330
45C2
100
AcDbEntity
  8
BEM
 62
     0
100
AcDbLine
 10
642.261018909455
 20
1061.43391879684
 30
0.0
 11
643.0437690115134
 21
1062.216668898898
 31
0.0
  0
LINE
  5
45C8
330
45C2
100
AcDbEntity
  8
BEM
 62
     0
100
AcDbLine
 10
642.0311406577906
 20
1061.48688325765
 30
0.0
 11
643.0437690115131
 21
1062.499511611373
 31
0.0
  0
LINE
  5
45C9
330
45C2
100
AcDbEntity
  8
BEM
 62
     0
100
AcDbLine
 10
641.8122859454955
 20
1061.55087125783
 30
0.0
 11
643.0437690115133
 21
1062.782354323847
 31
0.0
  0
LINE
  5
45CA
330
45C2
100
AcDbEntity
  8
BEM
 62
     0
100
AcDbLine
 10
641.6034643389829
 20
1061.624892363792
 30
0.0
 11
643.0437690115133
 21
1063.065197036322
 31
0.0
  0
LINE
  5
45CB
330
45C2
100
AcDbEntity
  8
BEM
 62
     0
100
AcDbLine
 10
641.4039084804061
 20
1061.70817921769
 30
0.0
 11
643.0437690115134
 21
1063.348039748797
 31
0.0
  0
LINE
  5
45CC
330
45C2
100
AcDbEntity
  8
BEM
 62
     0
100
AcDbLine
 10
641.2130183704741
 20
1061.800131820232
 30
0.0
 11
643.0437690115134
 21
1063.630882461271
 31
0.0
  0
LINE
  5
45CD
330
45C2
100
AcDbEntity
  8
BEM
 62
     0
100
AcDbLine
 10
641.030323727335
 20
1061.900279889568
 30
0.0
 11
643.0437690115131
 21
1063.913725173746
 31
0.0
  0
LINE
  5
45CE
330
45C2
100
AcDbEntity
  8
BEM
 62
     0
100
AcDbLine
 10
640.8554579643661
 20
1062.008256839074
 30
0.0
 11
643.0437690115133
 21
1064.196567886221
 31
0.0
  0
LINE
  5
45CF
330
45C2
100
AcDbEntity
  8
BEM
 62
     0
100
AcDbLine
 10
640.6881399521404
 20
1062.123781539322
 30
0.0
 11
643.0437690115133
 21
1064.479410598695
 31
0.0
  0
LINE
  5
45D0
330
45C2
100
AcDbEntity
  8
BEM
 62
     0
100
AcDbLine
 10
640.5281612109068
 20
1062.246645510563
 30
0.0
 11
643.0437690115131
 21
1064.76225331117
 31
0.0
  0
LINE
  5
45D1
330
45C2
100
AcDbEntity
  8
BEM
 62
     0
100
AcDbLine
 10
640.375377058006
 20
1062.376704070137
 30
0.0
 11
643.0437690115134
 21
1065.045096023645
 31
0.0
  0
LINE
  5
45D2
330
45C2
100
AcDbEntity
  8
BEM
 62
     0
100
AcDbLine
 10
640.2297007813443
 20
1062.51387050595
 30
0.0
 11
643.0437690115131
 21
1065.327938736119
 31
0.0
  0
LINE
  5
45D3
330
45C2
100
AcDbEntity
  8
BEM
 62
     0
100
AcDbLine
 10
640.0911002702827
 20
1062.658112707363
 30
0.0
 11
642.7895715605801
 21
1065.356583997661
 31
0.0
  0
LINE
  5
45D4
330
45C2
100
AcDbEntity
  8
BEM
 62
     0
100
AcDbLine
 10
639.9595967911883
 20
1062.809451940744
 30
0.0
 11
642.5067288481057
 21
1065.356583997661
 31
0.0
  0
LINE
  5
45D5
330
45C2
100
AcDbEntity
  8
BEM
 62
     0
100
AcDbLine
 10
639.8352657969699
 20
1062.967963659
 30
0.0
 11
642.2238861356309
 21
1065.35658399766
 31
0.0
  0
LINE
  5
45D6
330
45C2
100
AcDbEntity
  8
BEM
 62
     0
100
AcDbLine
 10
639.7182398435939
 20
1063.133780418098
 30
0.0
 11
641.9410434231564
 21
1065.356583997661
 31
0.0
  0
LINE
  5
45D7
330
45C2
100
AcDbEntity
  8
BEM
 62
     0
100
AcDbLine
 10
639.6087138823406
 20
1063.30709716932
 30
0.0
 11
641.6582007106817
 21
1065.356583997661
 31
0.0
  0
LINE
  5
45D8
330
45C2
100
AcDbEntity
  8
BEM
 62
     0
100
AcDbLine
 10
639.5069534381526
 20
1063.488179437606
 30
0.0
 11
641.3753579982071
 21
1065.356583997661
 31
0.0
  0
LINE
  5
45D9
330
45C2
100
AcDbEntity
  8
BEM
 62
     0
100
AcDbLine
 10
639.4133065182294
 20
1063.677375230158
 30
0.0
 11
641.0925152857325
 21
1065.356583997661
 31
0.0
  0
LINE
  5
45DA
330
45C2
100
AcDbEntity
  8
BEM
 62
     0
100
AcDbLine
 10
639.3282205949364
 20
1063.875132019339
 30
0.0
 11
640.8096725732579
 21
1065.356583997661
 31
0.0
  0
LINE
  5
45DB
330
45C2
100
AcDbEntity
  8
BEM
 62
     0
100
AcDbLine
 10
639.2522668015617
 20
1064.082020938439
 30
0.0
 11
640.5268298607833
 21
1065.356583997661
 31
0.0
  0
LINE
  5
45DC
330
45C2
100
AcDbEntity
  8
BEM
 62
     0
100
AcDbLine
 10
639.1861748066053
 20
1064.298771655957
 30
0.0
 11
640.2439871483086
 21
1065.356583997661
 31
0.0
  0
LINE
  5
45DD
330
45C2
100
AcDbEntity
  8
BEM
 62
     0
100
AcDbLine
 10
639.1308841586116
 20
1064.526323720438
 30
0.0
 11
639.9611444358339
 21
1065.356583997661
 31
0.0
  0
LINE
  5
45DE
330
45C2
100
AcDbEntity
  8
BEM
 62
     0
100
AcDbLine
 10
639.0876221882954
 20
1064.765904462597
 30
0.0
 11
639.6783017233595
 21
1065.356583997661
 31
0.0
  0
LINE
  5
45DF
330
45C2
100
AcDbEntity
  8
BEM
 62
     0
100
AcDbLine
 10
639.0580269704281
 20
1065.019151957204
 30
0.0
 11
639.3954590108847
 21
1065.356583997661
 31
0.0
  0
LINE
  5
45E0
330
45C2
100
AcDbEntity
  8
BEM
 62
     0
100
AcDbLine
 10
639.0443515631934
 20
1065.288319262444
 30
0.0
 11
639.1126162984102
 21
1065.356583997661
 31
0.0
  0
ENDBLK
  5
45E1
330
45C2
100
AcDbEntity
  8
0
100
AcDbBlockEnd
  0
BLOCK
  5
45E3
330
45E2
100
AcDbEntity
  8
0
100
AcDbBlockBegin
  2
*X4
 70
     1
 10
0.0
 20
0.0
 30
0.0
  3
*X4
  1

  0
LINE
  5
45E4
330
45E2
100
AcDbEntity
  8
0
 62
     0
100
AcDbLine
 10
589.27328397886
 20
1065.356583997661
 30
0.0
 11
587.27328397886
 21
1067.356583997661
 31
0.0
  0
LINE
  5
45E5
330
45E2
100
AcDbEntity
  8
0
 62
     0
100
AcDbLine
 10
586.4448568541139
 20
1065.356583997661
 30
0.0
 11
584.4448568541139
 21
1067.356583997661
 31
0.0
  0
LINE
  5
45E6
330
45E2
100
AcDbEntity
  8
0
 62
     0
100
AcDbLine
 10
583.6164297293676
 20
1065.356583997661
 30
0.0
 11
581.6164297293677
 21
1067.356583997661
 31
0.0
  0
LINE
  5
45E7
330
45E2
100
AcDbEntity
  8
0
 62
     0
100
AcDbLine
 10
580.7880026046214
 20
1065.356583997661
 30
0.0
 11
578.7880026046215
 21
1067.356583997661
 31
0.0
  0
LINE
  5
45E8
330
45E2
100
AcDbEntity
  8
0
 62
     0
100
AcDbLine
 10
577.9595754798752
 20
1065.356583997661
 30
0.0
 11
575.9595754798753
 21
1067.356583997661
 31
0.0
  0
LINE
  5
45E9
330
45E2
100
AcDbEntity
  8
0
 62
     0
100
AcDbLine
 10
575.131148355129
 20
1065.356583997661
 30
0.0
 11
573.1311483551291
 21
1067.356583997661
 31
0.0
  0
LINE
  5
45EA
330
45E2
100
AcDbEntity
  8
0
 62
     0
100
AcDbLine
 10
572.3027212303829
 20
1065.356583997661
 30
0.0
 11
570.302721230383
 21
1067.356583997661
 31
0.0
  0
LINE
  5
45EB
330
45E2
100
AcDbEntity
  8
0
 62
     0
100
AcDbLine
 10
569.4742941056367
 20
1065.356583997661
 30
0.0
 11
567.4742941056368
 21
1067.356583997661
 31
0.0
  0
LINE
  5
45EC
330
45E2
100
AcDbEntity
  8
0
 62
     0
100
AcDbLine
 10
566.6458669808905
 20
1065.356583997661
 30
0.0
 11
564.6458669808906
 21
1067.356583997661
 31
0.0
  0
LINE
  5
45ED
330
45E2
100
AcDbEntity
  8
0
 62
     0
100
AcDbLine
 10
563.8174398561443
 20
1065.356583997661
 30
0.0
 11
561.8174398561443
 21
1067.356583997661
 31
0.0
  0
LINE
  5
45EE
330
45E2
100
AcDbEntity
  8
0
 62
     0
100
AcDbLine
 10
560.9890127313981
 20
1065.356583997661
 30
0.0
 11
558.9890127313981
 21
1067.356583997661
 31
0.0
  0
LINE
  5
45EF
330
45E2
100
AcDbEntity
  8
0
 62
     0
100
AcDbLine
 10
558.160585606652
 20
1065.356583997661
 30
0.0
 11
556.160585606652
 21
1067.356583997661
 31
0.0
  0
LINE
  5
45F0
330
45E2
100
AcDbEntity
  8
0
 62
     0
100
AcDbLine
 10
555.3321584819058
 20
1065.356583997661
 30
0.0
 11
553.3321584819058
 21
1067.356583997661
 31
0.0
  0
LINE
  5
45F1
330
45E2
100
AcDbEntity
  8
0
 62
     0
100
AcDbLine
 10
552.5037313571596
 20
1065.356583997661
 30
0.0
 11
550.5037313571595
 21
1067.356583997661
 31
0.0
  0
LINE
  5
45F2
330
45E2
100
AcDbEntity
  8
0
 62
     0
100
AcDbLine
 10
549.6753042324134
 20
1065.356583997661
 30
0.0
 11
547.6753042324133
 21
1067.356583997661
 31
0.0
  0
LINE
  5
45F3
330
45E2
100
AcDbEntity
  8
0
 62
     0
100
AcDbLine
 10
546.8468771076671
 20
1065.356583997661
 30
0.0
 11
544.8468771076671
 21
1067.356583997661
 31
0.0
  0
LINE
  5
45F4
330
45E2
100
AcDbEntity
  8
0
 62
     0
100
AcDbLine
 10
544.0184499829211
 20
1065.356583997661
 30
0.0
 11
542.018449982921
 21
1067.356583997661
 31
0.0
  0
LINE
  5
45F5
330
45E2
100
AcDbEntity
  8
0
 62
     0
100
AcDbLine
 10
541.1900228581749
 20
1065.356583997661
 30
0.0
 11
539.1900228581748
 21
1067.356583997661
 31
0.0
  0
LINE
  5
45F6
330
45E2
100
AcDbEntity
  8
0
 62
     0
100
AcDbLine
 10
538.3615957334286
 20
1065.356583997661
 30
0.0
 11
536.3615957334286
 21
1067.356583997661
 31
0.0
  0
LINE
  5
45F7
330
45E2
100
AcDbEntity
  8
0
 62
     0
100
AcDbLine
 10
535.5331686086824
 20
1065.356583997661
 30
0.0
 11
533.5331686086824
 21
1067.356583997661
 31
0.0
  0
LINE
  5
45F8
330
45E2
100
AcDbEntity
  8
0
 62
     0
100
AcDbLine
 10
532.7047414839362
 20
1065.356583997661
 30
0.0
 11
530.7047414839362
 21
1067.356583997661
 31
0.0
  0
LINE
  5
45F9
330
45E2
100
AcDbEntity
  8
0
 62
     0
100
AcDbLine
 10
529.8763143591901
 20
1065.356583997661
 30
0.0
 11
527.8763143591901
 21
1067.356583997661
 31
0.0
  0
LINE
  5
45FA
330
45E2
100
AcDbEntity
  8
0
 62
     0
100
AcDbLine
 10
527.0478872344439
 20
1065.356583997661
 30
0.0
 11
525.0478872344439
 21
1067.356583997661
 31
0.0
  0
LINE
  5
45FB
330
45E2
100
AcDbEntity
  8
0
 62
     0
100
AcDbLine
 10
524.2194601096977
 20
1065.356583997661
 30
0.0
 11
522.2194601096978
 21
1067.356583997661
 31
0.0
  0
LINE
  5
45FC
330
45E2
100
AcDbEntity
  8
0
 62
     0
100
AcDbLine
 10
521.3910329849515
 20
1065.356583997661
 30
0.0
 11
519.3910329849516
 21
1067.356583997661
 31
0.0
  0
LINE
  5
45FD
330
45E2
100
AcDbEntity
  8
0
 62
     0
100
AcDbLine
 10
518.5626058602053
 20
1065.356583997661
 30
0.0
 11
516.5626058602054
 21
1067.356583997661
 31
0.0
  0
LINE
  5
45FE
330
45E2
100
AcDbEntity
  8
0
 62
     0
100
AcDbLine
 10
515.7341787354591
 20
1065.356583997661
 30
0.0
 11
513.7341787354592
 21
1067.356583997661
 31
0.0
  0
LINE
  5
45FF
330
45E2
100
AcDbEntity
  8
0
 62
     0
100
AcDbLine
 10
512.9057516107129
 20
1065.356583997661
 30
0.0
 11
510.905751610713
 21
1067.356583997661
 31
0.0
  0
LINE
  5
4600
330
45E2
100
AcDbEntity
  8
0
 62
     0
100
AcDbLine
 10
510.0773244859667
 20
1065.356583997661
 30
0.0
 11
508.0773244859668
 21
1067.356583997661
 31
0.0
  0
LINE
  5
4601
330
45E2
100
AcDbEntity
  8
0
 62
     0
100
AcDbLine
 10
507.2488973612205
 20
1065.356583997661
 30
0.0
 11
505.2488973612206
 21
1067.356583997661
 31
0.0
  0
LINE
  5
4602
330
45E2
100
AcDbEntity
  8
0
 62
     0
100
AcDbLine
 10
504.4204702364744
 20
1065.356583997661
 30
0.0
 11
502.4204702364744
 21
1067.356583997661
 31
0.0
  0
LINE
  5
4603
330
45E2
100
AcDbEntity
  8
0
 62
     0
100
AcDbLine
 10
501.5920431117282
 20
1065.356583997661
 30
0.0
 11
499.5920431117282
 21
1067.356583997661
 31
0.0
  0
LINE
  5
4604
330
45E2
100
AcDbEntity
  8
0
 62
     0
100
AcDbLine
 10
498.763615986982
 20
1065.356583997661
 30
0.0
 11
496.7636159869821
 21
1067.356583997661
 31
0.0
  0
LINE
  5
4605
330
45E2
100
AcDbEntity
  8
0
 62
     0
100
AcDbLine
 10
495.9351888622358
 20
1065.356583997661
 30
0.0
 11
493.9351888622359
 21
1067.356583997661
 31
0.0
  0
LINE
  5
4606
330
45E2
100
AcDbEntity
  8
0
 62
     0
100
AcDbLine
 10
493.1067617374896
 20
1065.356583997661
 30
0.0
 11
491.1067617374896
 21
1067.356583997661
 31
0.0
  0
LINE
  5
4607
330
45E2
100
AcDbEntity
  8
0
 62
     0
100
AcDbLine
 10
490.2783346127434
 20
1065.356583997661
 30
0.0
 11
488.2783346127435
 21
1067.356583997661
 31
0.0
  0
LINE
  5
4608
330
45E2
100
AcDbEntity
  8
0
 62
     0
100
AcDbLine
 10
487.4499074879972
 20
1065.356583997661
 30
0.0
 11
485.4499074879973
 21
1067.356583997661
 31
0.0
  0
LINE
  5
4609
330
45E2
100
AcDbEntity
  8
0
 62
     0
100
AcDbLine
 10
484.6214803632511
 20
1065.356583997661
 30
0.0
 11
482.621480363251
 21
1067.356583997661
 31
0.0
  0
LINE
  5
460A
330
45E2
100
AcDbEntity
  8
0
 62
     0
100
AcDbLine
 10
481.7930532385049
 20
1065.356583997661
 30
0.0
 11
479.7930532385048
 21
1067.356583997661
 31
0.0
  0
LINE
  5
460B
330
45E2
100
AcDbEntity
  8
0
 62
     0
100
AcDbLine
 10
478.9646261137587
 20
1065.356583997661
 30
0.0
 11
476.9646261137586
 21
1067.356583997661
 31
0.0
  0
LINE
  5
460C
330
45E2
100
AcDbEntity
  8
0
 62
     0
100
AcDbLine
 10
476.1361989890125
 20
1065.356583997661
 30
0.0
 11
474.5089900578525
 21
1066.983792928821
 31
0.0
  0
LINE
  5
460D
330
45E2
100
AcDbEntity
  8
0
 62
     0
100
AcDbLine
 10
789.9149863267024
 20
1167.356583997661
 30
0.0
 11
789.4715799369923
 21
1167.799990387371
 31
0.0
  0
LINE
  5
460E
330
45E2
100
AcDbEntity
  8
0
 62
     0
100
AcDbLine
 10
791.5089900578525
 20
1168.591007391257
 30
0.0
 11
789.5089900578524
 21
1170.591007391257
 31
0.0
  0
LINE
  5
460F
330
45E2
100
AcDbEntity
  8
0
 62
     0
100
AcDbLine
 10
791.5089900578525
 20
1171.419434516003
 30
0.0
 11
789.5089900578524
 21
1173.419434516003
 31
0.0
  0
LINE
  5
4610
330
45E2
100
AcDbEntity
  8
0
 62
     0
100
AcDbLine
 10
791.5089900578525
 20
1174.247861640749
 30
0.0
 11
789.5089900578524
 21
1176.247861640749
 31
0.0
  0
LINE
  5
4611
330
45E2
100
AcDbEntity
  8
0
 62
     0
100
AcDbLine
 10
791.5089900578525
 20
1177.076288765495
 30
0.0
 11
789.5089900578524
 21
1179.076288765495
 31
0.0
  0
LINE
  5
4612
330
45E2
100
AcDbEntity
  8
0
 62
     0
100
AcDbLine
 10
791.5089900578525
 20
1179.904715890242
 30
0.0
 11
789.5089900578524
 21
1181.904715890242
 31
0.0
  0
LINE
  5
4613
330
45E2
100
AcDbEntity
  8
0
 62
     0
100
AcDbLine
 10
791.5089900578525
 20
1182.733143014988
 30
0.0
 11
790.2255118093913
 21
1184.016621263449
 31
0.0
  0
LINE
  5
4614
330
45E2
100
AcDbEntity
  8
0
 62
     0
100
AcDbLine
 10
790.2255118093915
 20
1184.016621263449
 30
0.0
 11
789.5089900578526
 21
1184.733143014988
 31
0.0
  0
LINE
  5
4615
330
45E2
100
AcDbEntity
  8
0
 62
     0
100
AcDbLine
 10
791.4731543797492
 20
1185.597405817837
 30
0.0
 11
789.5089900578526
 21
1187.561570139734
 31
0.0
  0
LINE
  5
4616
330
45E2
100
AcDbEntity
  8
0
 62
     0
100
AcDbLine
 10
791.5089900578524
 20
1188.38999726448
 30
0.0
 11
789.5089900578526
 21
1190.38999726448
 31
0.0
  0
LINE
  5
4617
330
45E2
100
AcDbEntity
  8
0
 62
     0
100
AcDbLine
 10
791.5089900578524
 20
1191.218424389226
 30
0.0
 11
789.5089900578526
 21
1193.218424389226
 31
0.0
  0
LINE
  5
4618
330
45E2
100
AcDbEntity
  8
0
 62
     0
100
AcDbLine
 10
791.5089900578524
 20
1194.046851513972
 30
0.0
 11
789.5089900578526
 21
1196.046851513973
 31
0.0
  0
LINE
  5
4619
330
45E2
100
AcDbEntity
  8
0
 62
     0
100
AcDbLine
 10
791.5089900578524
 20
1196.875278638719
 30
0.0
 11
789.5089900578526
 21
1198.875278638719
 31
0.0
  0
LINE
  5
461A
330
45E2
100
AcDbEntity
  8
0
 62
     0
100
AcDbLine
 10
791.5089900578524
 20
1199.703705763465
 30
0.0
 11
789.5089900578526
 21
1201.703705763465
 31
0.0
  0
LINE
  5
461B
330
45E2
100
AcDbEntity
  8
0
 62
     0
100
AcDbLine
 10
791.5089900578524
 20
1202.532132888211
 30
0.0
 11
789.5089900578526
 21
1204.532132888211
 31
0.0
  0
LINE
  5
461C
330
45E2
100
AcDbEntity
  8
0
 62
     0
100
AcDbLine
 10
791.5089900578524
 20
1205.360560012957
 30
0.0
 11
789.5089900578526
 21
1207.360560012957
 31
0.0
  0
LINE
  5
461D
330
45E2
100
AcDbEntity
  8
0
 62
     0
100
AcDbLine
 10
791.5089900578524
 20
1208.188987137704
 30
0.0
 11
789.5089900578526
 21
1210.188987137703
 31
0.0
  0
LINE
  5
461E
330
45E2
100
AcDbEntity
  8
0
 62
     0
100
AcDbLine
 10
791.5089900578524
 20
1211.01741426245
 30
0.0
 11
789.5089900578526
 21
1213.01741426245
 31
0.0
  0
LINE
  5
461F
330
45E2
100
AcDbEntity
  8
0
 62
     0
100
AcDbLine
 10
791.5089900578524
 20
1213.845841387196
 30
0.0
 11
789.5089900578526
 21
1215.845841387196
 31
0.0
  0
LINE
  5
4620
330
45E2
100
AcDbEntity
  8
0
 62
     0
100
AcDbLine
 10
791.5089900578524
 20
1216.674268511942
 30
0.0
 11
789.5089900578526
 21
1218.674268511942
 31
0.0
  0
LINE
  5
4621
330
45E2
100
AcDbEntity
  8
0
 62
     0
100
AcDbLine
 10
791.5089900578524
 20
1219.502695636688
 30
0.0
 11
789.5089900578526
 21
1221.502695636688
 31
0.0
  0
LINE
  5
4622
330
45E2
100
AcDbEntity
  8
0
 62
     0
100
AcDbLine
 10
791.5089900578524
 20
1222.331122761434
 30
0.0
 11
789.5089900578526
 21
1224.331122761435
 31
0.0
  0
LINE
  5
4623
330
45E2
100
AcDbEntity
  8
0
 62
     0
100
AcDbLine
 10
791.5089900578524
 20
1225.15954988618
 30
0.0
 11
789.5089900578526
 21
1227.159549886181
 31
0.0
  0
LINE
  5
4624
330
45E2
100
AcDbEntity
  8
0
 62
     0
100
AcDbLine
 10
791.5089900578524
 20
1227.987977010927
 30
0.0
 11
789.5089900578526
 21
1229.987977010927
 31
0.0
  0
LINE
  5
4625
330
45E2
100
AcDbEntity
  8
0
 62
     0
100
AcDbLine
 10
791.5089900578524
 20
1230.816404135673
 30
0.0
 11
789.5089900578526
 21
1232.816404135673
 31
0.0
  0
LINE
  5
4626
330
45E2
100
AcDbEntity
  8
0
 62
     0
100
AcDbLine
 10
791.5089900578524
 20
1233.644831260419
 30
0.0
 11
789.5089900578526
 21
1235.644831260419
 31
0.0
  0
LINE
  5
4627
330
45E2
100
AcDbEntity
  8
0
 62
     0
100
AcDbLine
 10
791.5089900578524
 20
1236.473258385165
 30
0.0
 11
789.5089900578526
 21
1238.473258385165
 31
0.0
  0
LINE
  5
4628
330
45E2
100
AcDbEntity
  8
0
 62
     0
100
AcDbLine
 10
791.5089900578524
 20
1239.301685509912
 30
0.0
 11
789.5089900578526
 21
1241.301685509912
 31
0.0
  0
LINE
  5
4629
330
45E2
100
AcDbEntity
  8
0
 62
     0
100
AcDbLine
 10
791.5089900578524
 20
1242.130112634658
 30
0.0
 11
789.5089900578526
 21
1244.130112634658
 31
0.0
  0
LINE
  5
462A
330
45E2
100
AcDbEntity
  8
0
 62
     0
100
AcDbLine
 10
791.5089900578524
 20
1244.958539759404
 30
0.0
 11
789.5089900578526
 21
1246.958539759404
 31
0.0
  0
LINE
  5
462B
330
45E2
100
AcDbEntity
  8
0
 62
     0
100
AcDbLine
 10
791.5089900578524
 20
1247.78696688415
 30
0.0
 11
789.5089900578526
 21
1249.78696688415
 31
0.0
  0
LINE
  5
462C
330
45E2
100
AcDbEntity
  8
0
 62
     0
100
AcDbLine
 10
791.5089900578524
 20
1250.615394008896
 30
0.0
 11
789.5089900578526
 21
1252.615394008896
 31
0.0
  0
LINE
  5
462D
330
45E2
100
AcDbEntity
  8
0
 62
     0
100
AcDbLine
 10
791.5089900578524
 20
1253.443821133642
 30
0.0
 11
789.5089900578526
 21
1255.443821133643
 31
0.0
  0
LINE
  5
462E
330
45E2
100
AcDbEntity
  8
0
 62
     0
100
AcDbLine
 10
791.5089900578524
 20
1256.272248258389
 30
0.0
 11
789.5089900578526
 21
1258.272248258389
 31
0.0
  0
LINE
  5
462F
330
45E2
100
AcDbEntity
  8
0
 62
     0
100
AcDbLine
 10
791.5089900578524
 20
1259.100675383135
 30
0.0
 11
789.5089900578526
 21
1261.100675383135
 31
0.0
  0
LINE
  5
4630
330
45E2
100
AcDbEntity
  8
0
 62
     0
100
AcDbLine
 10
791.5089900578524
 20
1261.929102507881
 30
0.0
 11
789.5089900578526
 21
1263.929102507881
 31
0.0
  0
LINE
  5
4631
330
45E2
100
AcDbEntity
  8
0
 62
     0
100
AcDbLine
 10
791.5089900578524
 20
1264.757529632627
 30
0.0
 11
789.5089900578526
 21
1266.757529632627
 31
0.0
  0
LINE
  5
4632
330
45E2
100
AcDbEntity
  8
0
 62
     0
100
AcDbLine
 10
791.5089900578524
 20
1267.585956757373
 30
0.0
 11
789.5089900578526
 21
1269.585956757373
 31
0.0
  0
LINE
  5
4633
330
45E2
100
AcDbEntity
  8
0
 62
     0
100
AcDbLine
 10
791.5089900578524
 20
1270.41438388212
 30
0.0
 11
789.5089900578526
 21
1272.41438388212
 31
0.0
  0
LINE
  5
4634
330
45E2
100
AcDbEntity
  8
0
 62
     0
100
AcDbLine
 10
791.5089900578524
 20
1273.242811006866
 30
0.0
 11
789.5089900578526
 21
1275.242811006866
 31
0.0
  0
LINE
  5
4635
330
45E2
100
AcDbEntity
  8
0
 62
     0
100
AcDbLine
 10
791.5089900578524
 20
1276.071238131612
 30
0.0
 11
789.5089900578526
 21
1278.071238131612
 31
0.0
  0
LINE
  5
4636
330
45E2
100
AcDbEntity
  8
0
 62
     0
100
AcDbLine
 10
791.5089900578524
 20
1278.899665256358
 30
0.0
 11
789.5089900578526
 21
1280.899665256358
 31
0.0
  0
LINE
  5
4637
330
45E2
100
AcDbEntity
  8
0
 62
     0
100
AcDbLine
 10
791.5089900578524
 20
1281.728092381104
 30
0.0
 11
790.8804984412963
 21
1282.356583997661
 31
0.0
  0
ENDBLK
  5
4638
330
45E2
100
AcDbEntity
  8
0
100
AcDbBlockEnd
  0
BLOCK
  5
465E
330
465D
100
AcDbEntity
  8
0
100
AcDbBlockBegin
  2
*X5
 70
     1
 10
0.0
 20
0.0
 30
0.0
  3
*X5
  1

  0
LINE
  5
465F
330
465D
100
AcDbEntity
  8
0
 62
     0
100
AcDbLine
 10
671.5513937463946
 20
355.3332411997707
 30
0.0
 11
674.3787852854343
 21
358.1606327388103
 31
0.0
  0
LINE
  5
4660
330
465D
100
AcDbEntity
  8
0
 62
     0
100
AcDbLine
 10
671.4815929830797
 20
355.4048617926931
 30
0.0
 11
674.2373639291969
 21
358.1606327388103
 31
0.0
  0
LINE
  5
4661
330
465D
100
AcDbEntity
  8
0
 62
     0
100
AcDbLine
 10
671.4135619718986
 20
355.4782521377492
 30
0.0
 11
674.0959425729596
 21
358.1606327388103
 31
0.0
  0
LINE
  5
4662
330
465D
100
AcDbEntity
  8
0
 62
     0
100
AcDbLine
 10
671.3473057572108
 20
355.5534172792988
 30
0.0
 11
673.9545212167223
 21
358.1606327388103
 31
0.0
  0
LINE
  5
4663
330
465D
100
AcDbEntity
  8
0
 62
     0
100
AcDbLine
 10
671.2828327668911
 20
355.6303656452163
 30
0.0
 11
673.8130998604851
 21
358.1606327388103
 31
0.0
  0
LINE
  5
4664
330
465D
100
AcDbEntity
  8
0
 62
     0
100
AcDbLine
 10
671.2201548926655
 20
355.7091091272281
 30
0.0
 11
673.6716785042477
 21
358.1606327388103
 31
0.0
  0
LINE
  5
4665
330
465D
100
AcDbEntity
  8
0
 62
     0
100
AcDbLine
 10
671.1592876049079
 20
355.7896631957078
 30
0.0
 11
673.5302571480104
 21
358.1606327388103
 31
0.0
  0
LINE
  5
4666
330
465D
100
AcDbEntity
  8
0
 62
     0
100
AcDbLine
 10
671.1002501045174
 20
355.8720470515546
 30
0.0
 11
673.3888357917731
 21
358.1606327388103
 31
0.0
  0
LINE
  5
4667
330
465D
100
AcDbEntity
  8
0
 62
     0
100
AcDbLine
 10
671.0430655154275
 20
355.956283818702
 30
0.0
 11
673.2474144355357
 21
358.1606327388103
 31
0.0
  0
LINE
  5
4668
330
465D
100
AcDbEntity
  8
0
 62
     0
100
AcDbLine
 10
670.9877611223769
 20
356.0424007818886
 30
0.0
 11
673.1059930792985
 21
358.1606327388103
 31
0.0
  0
LINE
  5
4669
330
465D
100
AcDbEntity
  8
0
 62
     0
100
AcDbLine
 10
670.9343686598611
 20
356.1304296756101
 30
0.0
 11
672.9645717230612
 21
358.1606327388103
 31
0.0
  0
LINE
  5
466A
330
465D
100
AcDbEntity
  8
0
 62
     0
100
AcDbLine
 10
670.8829246597441
 20
356.2204070317305
 30
0.0
 11
672.8231503668239
 21
358.1606327388103
 31
0.0
  0
LINE
  5
466B
330
465D
100
AcDbEntity
  8
0
 62
     0
100
AcDbLine
 10
670.8334708669354
 20
356.3123745951592
 30
0.0
 11
672.6817290105865
 21
358.1606327388103
 31
0.0
  0
LINE
  5
466C
330
465D
100
AcDbEntity
  8
0
 62
     0
100
AcDbLine
 10
670.7860547349451
 20
356.406379819406
 30
0.0
 11
672.5403076543492
 21
358.1606327388103
 31
0.0
  0
LINE
  5
466D
330
465D
100
AcDbEntity
  8
0
 62
     0
100
AcDbLine
 10
670.7407300161769
 20
356.5024764568753
 30
0.0
 11
672.3988862981119
 21
358.1606327388103
 31
0.0
  0
LINE
  5
466E
330
465D
100
AcDbEntity
  8
0
 62
     0
100
AcDbLine
 10
670.6975574657284
 20
356.6007252626641
 30
0.0
 11
672.2574649418747
 21
358.1606327388103
 31
0.0
  0
LINE
  5
466F
330
465D
100
AcDbEntity
  8
0
 62
     0
100
AcDbLine
 10
670.6566056825177
 20
356.7011948356906
 30
0.0
 11
672.1160435856374
 21
358.1606327388103
 31
0.0
  0
LINE
  5
4670
330
465D
100
AcDbEntity
  8
0
 62
     0
100
AcDbLine
 10
670.6179521181976
 20
356.8039626276079
 30
0.0
 11
671.9746222293999
 21
358.1606327388103
 31
0.0
  0
LINE
  5
4671
330
465D
100
AcDbEntity
  8
0
 62
     0
100
AcDbLine
 10
670.5816842931014
 20
356.9091161587489
 30
0.0
 11
671.8332008731627
 21
358.1606327388103
 31
0.0
  0
LINE
  5
4672
330
465D
100
AcDbEntity
  8
0
 62
     0
100
AcDbLine
 10
670.5479012702621
 20
357.016754492147
 30
0.0
 11
671.6917795169254
 21
358.1606327388103
 31
0.0
  0
LINE
  5
4673
330
465D
100
AcDbEntity
  8
0
 62
     0
100
AcDbLine
 10
670.5167154545896
 20
357.1269900327118
 30
0.0
 11
671.5503581606881
 21
358.1606327388103
 31
0.0
  0
LINE
  5
4674
330
465D
100
AcDbEntity
  8
0
 62
     0
100
AcDbLine
 10
670.4882548063819
 20
357.2399507407415
 30
0.0
 11
671.4089368044508
 21
358.1606327388103
 31
0.0
  0
LINE
  5
4675
330
465D
100
AcDbEntity
  8
0
 62
     0
100
AcDbLine
 10
670.4626655892739
 20
357.3557828798707
 30
0.0
 11
671.2675154482135
 21
358.1606327388103
 31
0.0
  0
LINE
  5
4676
330
465D
100
AcDbEntity
  8
0
 62
     0
100
AcDbLine
 10
670.4401158166779
 20
357.4746544635119
 30
0.0
 11
671.1260940919761
 21
358.1606327388103
 31
0.0
  0
LINE
  5
4677
330
465D
100
AcDbEntity
  8
0
 62
     0
100
AcDbLine
 10
670.4207996243996
 20
357.596759627471
 30
0.0
 11
670.9846727357388
 21
358.1606327388103
 31
0.0
  0
LINE
  5
4678
330
465D
100
AcDbEntity
  8
0
 62
     0
100
AcDbLine
 10
670.4049428910288
 20
357.7223242503375
 30
0.0
 11
670.8432513795015
 21
358.1606327388103
 31
0.0
  0
LINE
  5
4679
330
465D
100
AcDbEntity
  8
0
 62
     0
100
AcDbLine
 10
670.3928105694148
 20
357.851613284961
 30
0.0
 11
670.7018300232642
 21
358.1606327388103
 31
0.0
  0
LINE
  5
467A
330
465D
100
AcDbEntity
  8
0
 62
     0
100
AcDbLine
 10
670.3847164116703
 20
357.9849404834537
 30
0.0
 11
670.560408667027
 21
358.1606327388103
 31
0.0
  0
LINE
  5
467B
330
465D
100
AcDbEntity
  8
0
 62
     0
100
AcDbLine
 10
670.3810361185006
 20
358.1226815465211
 30
0.0
 11
670.4189873107895
 21
358.1606327388103
 31
0.0
  0
LINE
  5
467C
330
465D
100
AcDbEntity
  8
0
 62
     0
100
AcDbLine
 10
671.6229625533181
 20
355.2633886504568
 30
0.0
 11
674.3808560778289
 21
358.0212821749675
 31
0.0
  0
LINE
  5
467D
330
465D
100
AcDbEntity
  8
0
 62
     0
100
AcDbLine
 10
671.6963010150788
 20
355.1953057559801
 30
0.0
 11
674.3808560778289
 21
357.8798608187302
 31
0.0
  0
LINE
  5
467E
330
465D
100
AcDbEntity
  8
0
 62
     0
100
AcDbLine
 10
671.7714140778233
 20
355.1289974624874
 30
0.0
 11
674.3808560778289
 21
357.7384394624929
 31
0.0
  0
LINE
  5
467F
330
465D
100
AcDbEntity
  8
0
 62
     0
100
AcDbLine
 10
671.8483100693597
 20
355.0644720977865
 30
0.0
 11
674.3808560778289
 21
357.5970181062556
 31
0.0
  0
LINE
  5
4680
330
465D
100
AcDbEntity
  8
0
 62
     0
100
AcDbLine
 10
671.9270007785153
 20
355.0017414507048
 30
0.0
 11
674.3808560778289
 21
357.4555967500183
 31
0.0
  0
LINE
  5
4681
330
465D
100
AcDbEntity
  8
0
 62
     0
100
AcDbLine
 10
672.0075015688914
 20
354.9408208848435
 30
0.0
 11
674.3808560778289
 21
357.314175393781
 31
0.0
  0
LINE
  5
4682
330
465D
100
AcDbEntity
  8
0
 62
     0
100
AcDbLine
 10
672.0898315296091
 20
354.8817294893239
 30
0.0
 11
674.3808560778289
 21
357.1727540375436
 31
0.0
  0
LINE
  5
4683
330
465D
100
AcDbEntity
  8
0
 62
     0
100
AcDbLine
 10
672.1740136665678
 20
354.8244902700453
 30
0.0
 11
674.3808560778289
 21
357.0313326813064
 31
0.0
  0
LINE
  5
4684
330
465D
100
AcDbEntity
  8
0
 62
     0
100
AcDbLine
 10
672.2600751388141
 20
354.7691303860542
 30
0.0
 11
674.3808560778289
 21
356.889911325069
 31
0.0
  0
LINE
  5
4685
330
465D
100
AcDbEntity
  8
0
 62
     0
100
AcDbLine
 10
672.3480475458962
 20
354.7156814368991
 30
0.0
 11
674.3808560778289
 21
356.7484899688317
 31
0.0
  0
LINE
  5
4686
330
465D
100
AcDbEntity
  8
0
 62
     0
100
AcDbLine
 10
672.4379672736345
 20
354.6641798084001
 30
0.0
 11
674.3808560778289
 21
356.6070686125944
 31
0.0
  0
LINE
  5
4687
330
465D
100
AcDbEntity
  8
0
 62
     0
100
AcDbLine
 10
672.5298759076503
 20
354.6146670861786
 30
0.0
 11
674.3808560778289
 21
356.4656472563571
 31
0.0
  0
LINE
  5
4688
330
465D
100
AcDbEntity
  8
0
 62
     0
100
AcDbLine
 10
672.6238207263872
 20
354.5671905486781
 30
0.0
 11
674.3808560778289
 21
356.3242259001198
 31
0.0
  0
LINE
  5
4689
330
465D
100
AcDbEntity
  8
0
 62
     0
100
AcDbLine
 10
672.7198552883849
 20
354.5218037544385
 30
0.0
 11
674.3808560778289
 21
356.1828045438825
 31
0.0
  0
LINE
  5
468A
330
465D
100
AcDbEntity
  8
0
 62
     0
100
AcDbLine
 10
672.8180401324435
 20
354.4785672422599
 30
0.0
 11
674.3808560778289
 21
356.0413831876452
 31
0.0
  0
LINE
  5
468B
330
465D
100
AcDbEntity
  8
0
 62
     0
100
AcDbLine
 10
672.9184436143339
 20
354.437549367913
 30
0.0
 11
674.3808560778289
 21
355.8999618314079
 31
0.0
  0
LINE
  5
468C
330
465D
100
AcDbEntity
  8
0
 62
     0
100
AcDbLine
 10
673.0211429102886
 20
354.3988273076303
 30
0.0
 11
674.3808560778289
 21
355.7585404751705
 31
0.0
  0
LINE
  5
468D
330
465D
100
AcDbEntity
  8
0
 62
     0
100
AcDbLine
 10
673.1262252262249
 20
354.3624882673293
 30
0.0
 11
674.3808560778289
 21
355.6171191189333
 31
0.0
  0
LINE
  5
468E
330
465D
100
AcDbEntity
  8
0
 62
     0
100
AcDbLine
 10
673.233789263345
 20
354.3286309482121
 30
0.0
 11
674.3808560778289
 21
355.475697762696
 31
0.0
  0
LINE
  5
468F
330
465D
100
AcDbEntity
  8
0
 62
     0
100
AcDbLine
 10
673.3439470066469
 20
354.2973673352768
 30
0.0
 11
674.3808560778289
 21
355.3342764064586
 31
0.0
  0
LINE
  5
4690
330
465D
100
AcDbEntity
  8
0
 62
     0
100
AcDbLine
 10
673.4568259247737
 20
354.2688248971662
 30
0.0
 11
674.3808560778289
 21
355.1928550502213
 31
0.0
  0
LINE
  5
4691
330
465D
100
AcDbEntity
  8
0
 62
     0
100
AcDbLine
 10
673.5725717002309
 20
354.243149316386
 30
0.0
 11
674.3808560778289
 21
355.051433693984
 31
0.0
  0
LINE
  5
4692
330
465D
100
AcDbEntity
  8
0
 62
     0
100
AcDbLine
 10
673.6913516525069
 20
354.2205079124248
 30
0.0
 11
674.3808560778289
 21
354.9100123377467
 31
0.0
  0
LINE
  5
4693
330
465D
100
AcDbEntity
  8
0
 62
     0
100
AcDbLine
 10
673.8133590795451
 20
354.2010939832256
 30
0.0
 11
674.3808560778289
 21
354.7685909815094
 31
0.0
  0
LINE
  5
4694
330
465D
100
AcDbEntity
  8
0
 62
     0
100
AcDbLine
 10
673.938818835847
 20
354.1851323832903
 30
0.0
 11
674.3808560778289
 21
354.6271696252721
 31
0.0
  0
LINE
  5
4695
330
465D
100
AcDbEntity
  8
0
 62
     0
100
AcDbLine
 10
674.0679946054534
 20
354.1728867966594
 30
0.0
 11
674.3808560778289
 21
354.4857482690347
 31
0.0
  0
LINE
  5
4696
330
465D
100
AcDbEntity
  8
0
 62
     0
100
AcDbLine
 10
674.2011985443138
 20
354.1646693792824
 30
0.0
 11
674.3808560778289
 21
354.3443269127974
 31
0.0
  0
LINE
  5
4697
330
465D
100
AcDbEntity
  8
0
 62
     0
100
AcDbLine
 10
674.3388043100785
 20
354.1608537888098
 30
0.0
 11
674.3808560778289
 21
354.2029055565602
 31
0.0
  0
ENDBLK
  5
4698
330
465D
100
AcDbEntity
  8
0
100
AcDbBlockEnd
  0
BLOCK
  5
46A6
330
46A5
100
AcDbEntity
  8
0
100
AcDbBlockBegin
  2
*X6
 70
     1
 10
0.0
 20
0.0
 30
0.0
  3
*X6
  1

  0
LINE
  5
46A7
330
46A5
100
AcDbEntity
  8
0
 62
     0
100
AcDbLine
 10
379.3621602025816
 20
69.22512597416186
 30
0.0
 11
382.1523081514371
 21
72.01527392301739
 31
0.0
  0
LINE
  5
46A8
330
46A5
100
AcDbEntity
  8
0
 62
     0
100
AcDbLine
 10
379.3621602025816
 20
69.36654733039915
 30
0.0
 11
382.0797622390533
 21
72.08414936687084
 31
0.0
  0
LINE
  5
46A9
330
46A5
100
AcDbEntity
  8
0
 62
     0
100
AcDbLine
 10
379.3621602025816
 20
69.5079686866365
 30
0.0
 11
382.0054443542333
 21
72.15125283828822
 31
0.0
  0
LINE
  5
46AA
330
46A5
100
AcDbEntity
  8
0
 62
     0
100
AcDbLine
 10
379.3621602025816
 20
69.6493900428738
 30
0.0
 11
381.9293476907103
 21
72.21657753100247
 31
0.0
  0
LINE
  5
46AB
330
46A5
100
AcDbEntity
  8
0
 62
     0
100
AcDbLine
 10
379.3621602025816
 20
69.79081139911111
 30
0.0
 11
381.8514620208483
 21
72.2801132173778
 31
0.0
  0
LINE
  5
46AC
330
46A5
100
AcDbEntity
  8
0
 62
     0
100
AcDbLine
 10
379.3621602025816
 20
69.93223275534841
 30
0.0
 11
381.7717735975551
 21
72.34184615032186
 31
0.0
  0
LINE
  5
46AD
330
46A5
100
AcDbEntity
  8
0
 62
     0
100
AcDbLine
 10
379.3621602025816
 20
70.07365411158571
 30
0.0
 11
381.6902650204712
 21
72.40175892947539
 31
0.0
  0
LINE
  5
46AE
330
46A5
100
AcDbEntity
  8
0
 62
     0
100
AcDbLine
 10
379.3621602025816
 20
70.21507546782306
 30
0.0
 11
381.6069150633465
 21
72.45983032858797
 31
0.0
  0
LINE
  5
46AF
330
46A5
100
AcDbEntity
  8
0
 62
     0
100
AcDbLine
 10
379.3621602025816
 20
70.35649682406035
 30
0.0
 11
381.5216984585075
 21
72.51603507998627
 31
0.0
  0
LINE
  5
46B0
330
46A5
100
AcDbEntity
  8
0
 62
     0
100
AcDbLine
 10
379.3621602025816
 20
70.49791818029766
 30
0.0
 11
381.4345856331446
 21
72.57034361086072
 31
0.0
  0
LINE
  5
46B1
330
46A5
100
AcDbEntity
  8
0
 62
     0
100
AcDbLine
 10
379.3621602025816
 20
70.63933953653495
 30
0.0
 11
381.3455423907211
 21
72.62272172467444
 31
0.0
  0
LINE
  5
46B2
330
46A5
100
AcDbEntity
  8
0
 62
     0
100
AcDbLine
 10
379.3621602025816
 20
70.78076089277224
 30
0.0
 11
381.2545295290694
 21
72.67313021926002
 31
0.0
  0
LINE
  5
46B3
330
46A5
100
AcDbEntity
  8
0
 62
     0
100
AcDbLine
 10
379.3621602025816
 20
70.92218224900959
 30
0.0
 11
381.1615023845801
 21
72.72152443100816
 31
0.0
  0
LINE
  5
46B4
330
46A5
100
AcDbEntity
  8
0
 62
     0
100
AcDbLine
 10
379.3621602025816
 20
71.06360360524689
 30
0.0
 11
381.0664102891681
 21
72.76785369183342
 31
0.0
  0
LINE
  5
46B5
330
46A5
100
AcDbEntity
  8
0
 62
     0
100
AcDbLine
 10
379.3621602025816
 20
71.2050249614842
 30
0.0
 11
380.9691959232342
 21
72.81206068213676
 31
0.0
  0
LINE
  5
46B6
330
46A5
100
AcDbEntity
  8
0
 62
     0
100
AcDbLine
 10
379.3621602025816
 20
71.3464463177215
 30
0.0
 11
380.8697945433801
 21
72.85408065851995
 31
0.0
  0
LINE
  5
46B7
330
46A5
100
AcDbEntity
  8
0
 62
     0
100
AcDbLine
 10
379.3621602025816
 20
71.4878676739588
 30
0.0
 11
380.7681330578096
 21
72.89384052918676
 31
0.0
  0
LINE
  5
46B8
330
46A5
100
AcDbEntity
  8
0
 62
     0
100
AcDbLine
 10
379.3621602025816
 20
71.62928903019615
 30
0.0
 11
380.664128914678
 21
72.93125774229257
 31
0.0
  0
LINE
  5
46B9
330
46A5
100
AcDbEntity
  8
0
 62
     0
100
AcDbLine
 10
379.3621602025816
 20
71.77071038643345
 30
0.0
 11
380.5576887584154
 21
72.96623894226731
 31
0.0
  0
LINE
  5
46BA
330
46A5
100
AcDbEntity
  8
0
 62
     0
100
AcDbLine
 10
379.3621602025816
 20
71.91213174267075
 30
0.0
 11
380.4487067952178
 21
72.9986783353069
 31
0.0
  0
LINE
  5
46BB
330
46A5
100
AcDbEntity
  8
0
 62
     0
100
AcDbLine
 10
379.3621602025816
 20
72.05355309890805
 30
0.0
 11
380.3370627899697
 21
73.02845568629615
 31
0.0
  0
LINE
  5
46BC
330
46A5
100
AcDbEntity
  8
0
 62
     0
100
AcDbLine
 10
379.3621602025816
 20
72.19497445514535
 30
0.0
 11
380.2226195905693
 21
73.05543384313304
 31
0.0
  0
LINE
  5
46BD
330
46A5
100
AcDbEntity
  8
0
 62
     0
100
AcDbLine
 10
379.3621602025816
 20
72.33639581138269
 30
0.0
 11
380.1052200385356
 21
73.07945564733663
 31
0.0
  0
LINE
  5
46BE
330
46A5
100
AcDbEntity
  8
0
 62
     0
100
AcDbLine
 10
379.3621602025816
 20
72.47781716761998
 30
0.0
 11
379.9846830715684
 21
73.10034003660679
 31
0.0
  0
LINE
  5
46BF
330
46A5
100
AcDbEntity
  8
0
 62
     0
100
AcDbLine
 10
379.3621602025816
 20
72.61923852385729
 30
0.0
 11
379.8607987459301
 21
73.11787706720579
 31
0.0
  0
LINE
  5
46C0
330
46A5
100
AcDbEntity
  8
0
 62
     0
100
AcDbLine
 10
379.3621602025816
 20
72.7606598800946
 30
0.0
 11
379.7333217903877
 21
73.13182146790065
 31
0.0
  0
LINE
  5
46C1
330
46A5
100
AcDbEntity
  8
0
 62
     0
100
AcDbLine
 10
379.3621602025816
 20
72.90208123633189
 30
0.0
 11
379.6019631260305
 21
73.14188415978079
 31
0.0
  0
LINE
  5
46C2
330
46A5
100
AcDbEntity
  8
0
 62
     0
100
AcDbLine
 10
379.3621602025816
 20
73.04350259256924
 30
0.0
 11
379.4663785080399
 21
73.14772089802751
 31
0.0
  0
LINE
  5
46C3
330
46A5
100
AcDbEntity
  8
0
 62
     0
100
AcDbLine
 10
379.4275343950761
 20
69.14907881041897
 30
0.0
 11
382.2230855408678
 21
71.94462995621075
 31
0.0
  0
LINE
  5
46C4
330
46A5
100
AcDbEntity
  8
0
 62
     0
100
AcDbLine
 10
379.5689557513134
 20
69.14907881041897
 30
0.0
 11
382.2920945325662
 21
71.87221759167184
 31
0.0
  0
LINE
  5
46C5
330
46A5
100
AcDbEntity
  8
0
 62
     0
100
AcDbLine
 10
379.7103771075506
 20
69.14907881041897
 30
0.0
 11
382.3593319286691
 21
71.79803363153749
 31
0.0
  0
LINE
  5
46C6
330
46A5
100
AcDbEntity
  8
0
 62
     0
100
AcDbLine
 10
379.851798463788
 20
69.14907881041897
 30
0.0
 11
382.4247911780891
 21
71.72207152472018
 31
0.0
  0
LINE
  5
46C7
330
46A5
100
AcDbEntity
  8
0
 62
     0
100
AcDbLine
 10
379.9932198200253
 20
69.14907881041897
 30
0.0
 11
382.4884623143904
 21
71.64432130478409
 31
0.0
  0
LINE
  5
46C8
330
46A5
100
AcDbEntity
  8
0
 62
     0
100
AcDbLine
 10
380.1346411762626
 20
69.14907881041897
 30
0.0
 11
382.5503318602965
 21
71.56476949445295
 31
0.0
  0
LINE
  5
46C9
330
46A5
100
AcDbEntity
  8
0
 62
     0
100
AcDbLine
 10
380.2760625324999
 20
69.14907881041897
 30
0.0
 11
382.6103826966729
 21
71.48339897459199
 31
0.0
  0
LINE
  5
46CA
330
46A5
100
AcDbEntity
  8
0
 62
     0
100
AcDbLine
 10
380.4174838887372
 20
69.14907881041897
 30
0.0
 11
382.6685938929604
 21
71.40018881464214
 31
0.0
  0
LINE
  5
46CB
330
46A5
100
AcDbEntity
  8
0
 62
     0
100
AcDbLine
 10
380.5589052449745
 20
69.14907881041897
 30
0.0
 11
382.7249404950502
 21
71.31511406049462
 31
0.0
  0
LINE
  5
46CC
330
46A5
100
AcDbEntity
  8
0
 62
     0
100
AcDbLine
 10
380.7003266012118
 20
69.14907881041897
 30
0.0
 11
382.7793932654207
 21
71.22814547462785
 31
0.0
  0
LINE
  5
46CD
330
46A5
100
AcDbEntity
  8
0
 62
     0
100
AcDbLine
 10
380.8417479574491
 20
69.14907881041897
 30
0.0
 11
382.8319183689584
 21
71.13924922192822
 31
0.0
  0
LINE
  5
46CE
330
46A5
100
AcDbEntity
  8
0
 62
     0
100
AcDbLine
 10
380.9831693136865
 20
69.14907881041897
 30
0.0
 11
382.8824769961721
 21
71.04838649290472
 31
0.0
  0
LINE
  5
46CF
330
46A5
100
AcDbEntity
  8
0
 62
     0
100
AcDbLine
 10
381.1245906699237
 20
69.14907881041897
 30
0.0
 11
382.9310249133866
 21
70.9555130538819
 31
0.0
  0
LINE
  5
46D0
330
46A5
100
AcDbEntity
  8
0
 62
     0
100
AcDbLine
 10
381.2660120261611
 20
69.14907881041897
 30
0.0
 11
382.9775119268271
 21
70.86057871108504
 31
0.0
  0
LINE
  5
46D1
330
46A5
100
AcDbEntity
  8
0
 62
     0
100
AcDbLine
 10
381.4074333823984
 20
69.14907881041897
 30
0.0
 11
383.0218812441094
 21
70.76352667213004
 31
0.0
  0
LINE
  5
46D2
330
46A5
100
AcDbEntity
  8
0
 62
     0
100
AcDbLine
 10
381.5488547386357
 20
69.14907881041897
 30
0.0
 11
383.0640687122685
 21
70.66429278405185
 31
0.0
  0
LINE
  5
46D3
330
46A5
100
AcDbEntity
  8
0
 62
     0
100
AcDbLine
 10
381.690276094873
 20
69.14907881041897
 30
0.0
 11
383.1040019057572
 21
70.56280462130326
 31
0.0
  0
LINE
  5
46D4
330
46A5
100
AcDbEntity
  8
0
 62
     0
100
AcDbLine
 10
381.8316974511103
 20
69.14907881041897
 30
0.0
 11
383.1415990303349
 21
70.45898038964364
 31
0.0
  0
LINE
  5
46D5
330
46A5
100
AcDbEntity
  8
0
 62
     0
100
AcDbLine
 10
381.9731188073476
 20
69.14907881041897
 30
0.0
 11
383.1767675987538
 21
70.35272760182512
 31
0.0
  0
LINE
  5
46D6
330
46A5
100
AcDbEntity
  8
0
 62
     0
100
AcDbLine
 10
382.1145401635849
 20
69.14907881041897
 30
0.0
 11
383.2094028206366
 21
70.24394146747063
 31
0.0
  0
LINE
  5
46D7
330
46A5
100
AcDbEntity
  8
0
 62
     0
100
AcDbLine
 10
382.2559615198222
 20
69.14907881041897
 30
0.0
 11
383.2393856304615
 21
70.13250292105822
 31
0.0
  0
LINE
  5
46D8
330
46A5
100
AcDbEntity
  8
0
 62
     0
100
AcDbLine
 10
382.3973828760595
 20
69.14907881041897
 30
0.0
 11
383.2665802519311
 21
70.01827618629057
 31
0.0
  0
LINE
  5
46D9
330
46A5
100
AcDbEntity
  8
0
 62
     0
100
AcDbLine
 10
382.5388042322968
 20
69.14907881041897
 30
0.0
 11
383.2908311608899
 21
69.90110573901209
 31
0.0
  0
LINE
  5
46DA
330
46A5
100
AcDbEntity
  8
0
 62
     0
100
AcDbLine
 10
382.6802255885342
 20
69.14907881041897
 30
0.0
 11
383.3119592571994
 21
69.78081247908417
 31
0.0
  0
LINE
  5
46DB
330
46A5
100
AcDbEntity
  8
0
 62
     0
100
AcDbLine
 10
382.8216469447715
 20
69.14907881041897
 30
0.0
 11
383.3297569804361
 21
69.65718884608361
 31
0.0
  0
LINE
  5
46DC
330
46A5
100
AcDbEntity
  8
0
 62
     0
100
AcDbLine
 10
382.9630683010088
 20
69.14907881041897
 30
0.0
 11
383.343981991692
 21
69.52999250110223
 31
0.0
  0
LINE
  5
46DD
330
46A5
100
AcDbEntity
  8
0
 62
     0
100
AcDbLine
 10
383.1044896572461
 20
69.14907881041897
 30
0.0
 11
383.3543488720653
 21
69.39893802523823
 31
0.0
  0
LINE
  5
46DE
330
46A5
100
AcDbEntity
  8
0
 62
     0
100
AcDbLine
 10
383.2459110134834
 20
69.14907881041897
 30
0.0
 11
383.3605180197484
 21
69.26368581668405
 31
0.0
  0
ENDBLK
  5
46DF
330
46A5
100
AcDbEntity
  8
0
100
AcDbBlockEnd
  0
BLOCK
  5
46E1
330
46E0
100
AcDbEntity
  8
0
100
AcDbBlockBegin
  2
*X7
 70
     1
 10
0.0
 20
0.0
 30
0.0
  3
*X7
  1

  0
LINE
  5
46E2
330
46E0
100
AcDbEntity
  8
0
 62
     0
100
AcDbLine
 10
377.8457993180297
 20
395.0992047789815
 30
0.0
 11
379.07641197834
 21
396.3298174392917
 31
0.0
  0
LINE
  5
46E3
330
46E0
100
AcDbEntity
  8
0
 62
     0
100
AcDbLine
 10
377.7434956020949
 20
395.1383224192839
 30
0.0
 11
379.0079058905329
 21
396.4027327077219
 31
0.0
  0
LINE
  5
46E4
330
46E0
100
AcDbEntity
  8
0
 62
     0
100
AcDbLine
 10
377.7434956020949
 20
395.2797437755212
 30
0.0
 11
378.936809586157
 21
396.4730577595834
 31
0.0
  0
LINE
  5
46E5
330
46E0
100
AcDbEntity
  8
0
 62
     0
100
AcDbLine
 10
377.7434956020949
 20
395.4211651317585
 30
0.0
 11
378.8631215109324
 21
396.5407910405961
 31
0.0
  0
LINE
  5
46E6
330
46E0
100
AcDbEntity
  8
0
 62
     0
100
AcDbLine
 10
377.7434956020949
 20
395.5625864879958
 30
0.0
 11
378.7868296223269
 21
396.6059205082279
 31
0.0
  0
LINE
  5
46E7
330
46E0
100
AcDbEntity
  8
0
 62
     0
100
AcDbLine
 10
377.7434956020949
 20
395.7040078442332
 30
0.0
 11
378.7079111442206
 21
396.6684233863589
 31
0.0
  0
LINE
  5
46E8
330
46E0
100
AcDbEntity
  8
0
 62
     0
100
AcDbLine
 10
377.7434956020949
 20
395.8454292004704
 30
0.0
 11
378.6263320959338
 21
396.7282656943094
 31
0.0
  0
LINE
  5
46E9
330
46E0
100
AcDbEntity
  8
0
 62
     0
100
AcDbLine
 10
377.7434956020949
 20
395.9868505567078
 30
0.0
 11
378.5420465725224
 21
396.7854015271353
 31
0.0
  0
LINE
  5
46EA
330
46E0
100
AcDbEntity
  8
0
 62
     0
100
AcDbLine
 10
377.7434956020949
 20
396.1282719129451
 30
0.0
 11
378.4549957398563
 21
396.8397720507065
 31
0.0
  0
LINE
  5
46EB
330
46E0
100
AcDbEntity
  8
0
 62
     0
100
AcDbLine
 10
377.7434956020949
 20
396.2696932691824
 30
0.0
 11
378.3651064911784
 21
396.891304158266
 31
0.0
  0
LINE
  5
46EC
330
46E0
100
AcDbEntity
  8
0
 62
     0
100
AcDbLine
 10
377.7434956020949
 20
396.4111146254197
 30
0.0
 11
378.2722896897368
 21
396.9399087130616
 31
0.0
  0
LINE
  5
46ED
330
46E0
100
AcDbEntity
  8
0
 62
     0
100
AcDbLine
 10
377.7434956020949
 20
396.552535981657
 30
0.0
 11
378.1764378919586
 21
396.9854782715208
 31
0.0
  0
LINE
  5
46EE
330
46E0
100
AcDbEntity
  8
0
 62
     0
100
AcDbLine
 10
377.7434956020949
 20
396.6939573378943
 30
0.0
 11
378.077422403359
 21
397.0278841391585
 31
0.0
  0
LINE
  5
46EF
330
46E0
100
AcDbEntity
  8
0
 62
     0
100
AcDbLine
 10
377.7434956020949
 20
396.8353786941317
 30
0.0
 11
377.9750894584854
 21
397.0669725505222
 31
0.0
  0
LINE
  5
46F0
330
46E0
100
AcDbEntity
  8
0
 62
     0
100
AcDbLine
 10
377.7434956020949
 20
396.9768000503689
 30
0.0
 11
377.8692552262845
 21
397.1025596745586
 31
0.0
  0
LINE
  5
46F1
330
46E0
100
AcDbEntity
  8
0
 62
     0
100
AcDbLine
 10
377.9801781767014
 20
395.0921622814159
 30
0.0
 11
379.1423189470854
 21
396.2543030517998
 31
0.0
  0
LINE
  5
46F2
330
46E0
100
AcDbEntity
  8
0
 62
     0
100
AcDbLine
 10
378.1145570353732
 20
395.0851197838503
 30
0.0
 11
379.2056072566253
 21
396.1761700051025
 31
0.0
  0
LINE
  5
46F3
330
46E0
100
AcDbEntity
  8
0
 62
     0
100
AcDbLine
 10
378.2489358940449
 20
395.0780772862847
 30
0.0
 11
379.2662463272785
 21
396.0953877195183
 31
0.0
  0
LINE
  5
46F4
330
46E0
100
AcDbEntity
  8
0
 62
     0
100
AcDbLine
 10
378.3833147527166
 20
395.0710347887191
 30
0.0
 11
379.3241938973693
 21
396.0119139333719
 31
0.0
  0
LINE
  5
46F5
330
46E0
100
AcDbEntity
  8
0
 62
     0
100
AcDbLine
 10
378.5176936113884
 20
395.0639922911536
 30
0.0
 11
379.3793951079966
 21
395.9256937877618
 31
0.0
  0
LINE
  5
46F6
330
46E0
100
AcDbEntity
  8
0
 62
     0
100
AcDbLine
 10
378.6520724700601
 20
395.056949793588
 30
0.0
 11
379.4317812671881
 21
395.8366585907159
 31
0.0
  0
LINE
  5
46F7
330
46E0
100
AcDbEntity
  8
0
 62
     0
100
AcDbLine
 10
378.7864513287319
 20
395.0499072960224
 30
0.0
 11
379.4812682253144
 21
395.7447241926049
 31
0.0
  0
LINE
  5
46F8
330
46E0
100
AcDbEntity
  8
0
 62
     0
100
AcDbLine
 10
378.9208301874036
 20
395.0428647984568
 30
0.0
 11
379.5277542662512
 21
395.6497888773045
 31
0.0
  0
LINE
  5
46F9
330
46E0
100
AcDbEntity
  8
0
 62
     0
100
AcDbLine
 10
379.0552090460753
 20
395.0358223008913
 30
0.0
 11
379.5711173806732
 21
395.5517306354892
 31
0.0
  0
LINE
  5
46FA
330
46E0
100
AcDbEntity
  8
0
 62
     0
100
AcDbLine
 10
379.1895879047471
 20
395.0287798033257
 30
0.0
 11
379.6112117333833
 21
395.450403631962
 31
0.0
  0
LINE
  5
46FB
330
46E0
100
AcDbEntity
  8
0
 62
     0
100
AcDbLine
 10
379.3239667634188
 20
395.0217373057602
 30
0.0
 11
379.6478630567311
 21
395.3456335990725
 31
0.0
  0
LINE
  5
46FC
330
46E0
100
AcDbEntity
  8
0
 62
     0
100
AcDbLine
 10
379.4583456220905
 20
395.0146948081946
 30
0.0
 11
379.6808625821685
 21
395.2372117682725
 31
0.0
  0
LINE
  5
46FD
330
46E0
100
AcDbEntity
  8
0
 62
     0
100
AcDbLine
 10
379.5927244807622
 20
395.007652310629
 30
0.0
 11
379.7099589368252
 21
395.1248867666919
 31
0.0
  0
ENDBLK
  5
46FE
330
46E0
100
AcDbEntity
  8
0
100
AcDbBlockEnd
  0
BLOCK
  5
4700
330
46FF
100
AcDbEntity
  8
0
100
AcDbBlockBegin
  2
*X8
 70
     1
 10
0.0
 20
0.0
 30
0.0
  3
*X8
  1

  0
LINE
  5
4701
330
46FF
100
AcDbEntity
  8
0
 62
     0
100
AcDbLine
 10
376.9297692568469
 20
320.3612267619231
 30
0.0
 11
378.5729275266218
 21
322.0043850316979
 31
0.0
  0
LINE
  5
4702
330
46FF
100
AcDbEntity
  8
0
 62
     0
100
AcDbLine
 10
376.7461502320459
 20
320.4604504495967
 30
0.0
 11
378.2900848141471
 21
322.0043850316979
 31
0.0
  0
LINE
  5
4703
330
46FF
100
AcDbEntity
  8
0
 62
     0
100
AcDbLine
 10
376.57037926431
 20
320.5675221943354
 30
0.0
 11
378.0072421016725
 21
322.0043850316979
 31
0.0
  0
LINE
  5
4704
330
46FF
100
AcDbEntity
  8
0
 62
     0
100
AcDbLine
 10
376.4021673152821
 20
320.6821529577821
 30
0.0
 11
377.7243993891979
 21
322.0043850316979
 31
0.0
  0
LINE
  5
4705
330
46FF
100
AcDbEntity
  8
0
 62
     0
100
AcDbLine
 10
376.2412987567799
 20
320.8041271117546
 30
0.0
 11
377.4415566767233
 21
322.0043850316979
 31
0.0
  0
LINE
  5
4706
330
46FF
100
AcDbEntity
  8
0
 62
     0
100
AcDbLine
 10
376.087622190273
 20
320.9332932577224
 30
0.0
 11
377.1587139642487
 21
322.0043850316979
 31
0.0
  0
LINE
  5
4707
330
46FF
100
AcDbEntity
  8
0
 62
     0
100
AcDbLine
 10
375.9410443455944
 20
321.0695581255183
 30
0.0
 11
376.875871251774
 21
322.0043850316979
 31
0.0
  0
LINE
  5
4708
330
46FF
100
AcDbEntity
  8
0
 62
     0
100
AcDbLine
 10
375.8015264617848
 20
321.2128829541833
 30
0.0
 11
376.5930285392995
 21
322.0043850316979
 31
0.0
  0
LINE
  5
4709
330
46FF
100
AcDbEntity
  8
0
 62
     0
100
AcDbLine
 10
375.6690828140877
 20
321.3632820189609
 30
0.0
 11
376.3101858268248
 21
322.0043850316979
 31
0.0
  0
LINE
  5
470A
330
46FF
100
AcDbEntity
  8
0
 62
     0
100
AcDbLine
 10
375.5437812543292
 20
321.520823171677
 30
0.0
 11
376.0273431143502
 21
322.0043850316979
 31
0.0
  0
LINE
  5
470B
330
46FF
100
AcDbEntity
  8
0
 62
     0
100
AcDbLine
 10
375.4257458131188
 20
321.6856304429411
 30
0.0
 11
375.7445004018756
 21
322.0043850316979
 31
0.0
  0
LINE
  5
470C
330
46FF
100
AcDbEntity
  8
0
 62
     0
100
AcDbLine
 10
375.3151616014795
 20
321.8578889437765
 30
0.0
 11
375.461657689401
 21
322.0043850316979
 31
0.0
  0
LINE
  5
470D
330
46FF
100
AcDbEntity
  8
0
 62
     0
100
AcDbLine
 10
377.1216120152962
 20
320.2702268078978
 30
0.0
 11
378.8501791892096
 21
321.9987939818113
 31
0.0
  0
LINE
  5
470E
330
46FF
100
AcDbEntity
  8
0
 62
     0
100
AcDbLine
 10
377.3221596330643
 20
320.1879317131913
 30
0.0
 11
379.1189369065531
 21
321.9847089866801
 31
0.0
  0
LINE
  5
470F
330
46FF
100
AcDbEntity
  8
0
 62
     0
100
AcDbLine
 10
377.5320255288885
 20
320.1149548965408
 30
0.0
 11
379.3876946238966
 21
321.970623991549
 31
0.0
  0
LINE
  5
4710
330
46FF
100
AcDbEntity
  8
0
 62
     0
100
AcDbLine
 10
377.7519942918195
 20
320.0520809469972
 30
0.0
 11
379.6564523412401
 21
321.9565389964178
 31
0.0
  0
LINE
  5
4711
330
46FF
100
AcDbEntity
  8
0
 62
     0
100
AcDbLine
 10
377.9830793476326
 20
320.0003232903357
 30
0.0
 11
379.9252100585836
 21
321.9424540012866
 31
0.0
  0
LINE
  5
4712
330
46FF
100
AcDbEntity
  8
0
 62
     0
100
AcDbLine
 10
378.2266113398617
 20
319.9610125700902
 30
0.0
 11
380.193967775927
 21
321.9283690061555
 31
0.0
  0
LINE
  5
4713
330
46FF
100
AcDbEntity
  8
0
 62
     0
100
AcDbLine
 10
378.4843794743647
 20
319.9359379921186
 30
0.0
 11
380.4627254932705
 21
321.9142840110243
 31
0.0
  0
LINE
  5
4714
330
46FF
100
AcDbEntity
  8
0
 62
     0
100
AcDbLine
 10
378.7588703177486
 20
319.9275861230278
 30
0.0
 11
380.7314832106139
 21
321.9001990158932
 31
0.0
  0
LINE
  5
4715
330
46FF
100
AcDbEntity
  8
0
 62
     0
100
AcDbLine
 10
379.0537012569821
 20
319.9395743497867
 30
0.0
 11
381.0002409279574
 21
321.886114020762
 31
0.0
  0
LINE
  5
4716
330
46FF
100
AcDbEntity
  8
0
 62
     0
100
AcDbLine
 10
379.3744874134493
 20
319.9775177937792
 30
0.0
 11
381.2689986453009
 21
321.8720290256309
 31
0.0
  0
LINE
  5
4717
330
46FF
100
AcDbEntity
  8
0
 62
     0
100
AcDbLine
 10
379.730832984052
 20
320.0510206519074
 30
0.0
 11
381.5377563626443
 21
321.8579440304997
 31
0.0
  0
LINE
  5
4718
330
46FF
100
AcDbEntity
  8
0
 62
     0
100
AcDbLine
 10
380.1420168346136
 20
320.1793617899943
 30
0.0
 11
381.8065140799878
 21
321.8438590353685
 31
0.0
  0
LINE
  5
4719
330
46FF
100
AcDbEntity
  8
0
 62
     0
100
AcDbLine
 10
380.6616226518871
 20
320.4161248947932
 30
0.0
 11
382.0752717973313
 21
321.8297740402374
 31
0.0
  0
ENDBLK
  5
471A
330
46FF
100
AcDbEntity
  8
0
100
AcDbBlockEnd
  0
BLOCK
  5
471C
330
471B
100
AcDbEntity
  8
0
100
AcDbBlockBegin
  2
*X9
 70
     1
 10
0.0
 20
0.0
 30
0.0
  3
*X9
  1

  0
LINE
  5
471D
330
471B
100
AcDbEntity
  8
0
 62
     0
100
AcDbLine
 10
375.4425436777767
 20
388.2327800036946
 30
0.0
 11
374.2016133822719
 21
389.4737102991993
 31
0.0
  0
LINE
  5
471E
330
471B
100
AcDbEntity
  8
0
 62
     0
100
AcDbLine
 10
464.0533292551266
 20
296.7935673015984
 30
0.0
 11
462.5063748233739
 21
298.3405217333512
 31
0.0
  0
LINE
  5
471F
330
471B
100
AcDbEntity
  8
0
 62
     0
100
AcDbLine
 10
461.3203402108201
 20
296.6981292211588
 30
0.0
 11
459.7733857790674
 21
298.2450836529115
 31
0.0
  0
LINE
  5
4720
330
471B
100
AcDbEntity
  8
0
 62
     0
100
AcDbLine
 10
458.5873511665136
 20
296.6026911407191
 30
0.0
 11
457.0403967347608
 21
298.1496455724719
 31
0.0
  0
LINE
  5
4721
330
471B
100
AcDbEntity
  8
0
 62
     0
100
AcDbLine
 10
455.854362122207
 20
296.5072530602795
 30
0.0
 11
454.2974079269661
 21
298.0642072555204
 31
0.0
  0
LINE
  5
4722
330
471B
100
AcDbEntity
  8
0
 62
     0
100
AcDbLine
 10
453.0033582879538
 20
296.5298297697863
 30
0.0
 11
451.3125510835802
 21
298.22063697416
 31
0.0
  0
LINE
  5
4723
330
471B
100
AcDbEntity
  8
0
 62
     0
100
AcDbLine
 10
435.9705309560228
 20
313.5626571017173
 30
0.0
 11
434.2797237516493
 21
315.2534643060909
 31
0.0
  0
LINE
  5
4724
330
471B
100
AcDbEntity
  8
0
 62
     0
100
AcDbLine
 10
450.018501444568
 20
296.6862594884261
 30
0.0
 11
448.3276942401944
 21
298.3770666927996
 31
0.0
  0
LINE
  5
4725
330
471B
100
AcDbEntity
  8
0
 62
     0
100
AcDbLine
 10
432.985674112637
 20
313.719086820357
 30
0.0
 11
431.2948669082635
 21
315.4098940247306
 31
0.0
  0
LINE
  5
4726
330
471B
100
AcDbEntity
  8
0
 62
     0
100
AcDbLine
 10
430.0008172692511
 20
313.8755165389967
 30
0.0
 11
428.3100100648776
 21
315.5663237433702
 31
0.0
  0
LINE
  5
4727
330
471B
100
AcDbEntity
  8
0
 62
     0
100
AcDbLine
 10
427.0159604258653
 20
314.0319462576363
 30
0.0
 11
425.3251532214917
 21
315.7227534620099
 31
0.0
  0
LINE
  5
4728
330
471B
100
AcDbEntity
  8
0
 62
     0
100
AcDbLine
 10
424.0311035824794
 20
314.188375976276
 30
0.0
 11
422.3402963781059
 21
315.8791831806496
 31
0.0
  0
LINE
  5
4729
330
471B
100
AcDbEntity
  8
0
 62
     0
100
AcDbLine
 10
421.0462467390936
 20
314.3448056949157
 30
0.0
 11
419.35543953472
 21
316.0356128992892
 31
0.0
  0
LINE
  5
472A
330
471B
100
AcDbEntity
  8
0
 62
     0
100
AcDbLine
 10
418.0613898957077
 20
314.5012354135553
 30
0.0
 11
416.3705826913342
 21
316.1920426179289
 31
0.0
  0
LINE
  5
472B
330
471B
100
AcDbEntity
  8
0
 62
     0
100
AcDbLine
 10
415.0765330523219
 20
314.657665132195
 30
0.0
 11
413.3857258479483
 21
316.3484723365686
 31
0.0
  0
LINE
  5
472C
330
471B
100
AcDbEntity
  8
0
 62
     0
100
AcDbLine
 10
412.091676208936
 20
314.8140948508347
 30
0.0
 11
410.4008690045624
 21
316.5049020552082
 31
0.0
  0
LINE
  5
472D
330
471B
100
AcDbEntity
  8
0
 62
     0
100
AcDbLine
 10
409.1068193655501
 20
314.9705245694744
 30
0.0
 11
407.4160121611766
 21
316.6613317738479
 31
0.0
  0
LINE
  5
472E
330
471B
100
AcDbEntity
  8
0
 62
     0
100
AcDbLine
 10
406.1219625221643
 20
315.126954288114
 30
0.0
 11
404.4311553177907
 21
316.8177614924876
 31
0.0
  0
LINE
  5
472F
330
471B
100
AcDbEntity
  8
0
 62
     0
100
AcDbLine
 10
403.1371056787785
 20
315.2833840067537
 30
0.0
 11
401.4462984744048
 21
316.9741912111273
 31
0.0
  0
LINE
  5
4730
330
471B
100
AcDbEntity
  8
0
 62
     0
100
AcDbLine
 10
400.1522488353925
 20
315.4398137253934
 30
0.0
 11
398.4614416310191
 21
317.1306209297669
 31
0.0
  0
LINE
  5
4731
330
471B
100
AcDbEntity
  8
0
 62
     0
100
AcDbLine
 10
397.1673919920068
 20
315.596243444033
 30
0.0
 11
395.4765847876332
 21
317.2870506484066
 31
0.0
  0
LINE
  5
4732
330
471B
100
AcDbEntity
  8
0
 62
     0
100
AcDbLine
 10
394.1825351486209
 20
315.7526731626727
 30
0.0
 11
392.4917279442473
 21
317.4434803670463
 31
0.0
  0
LINE
  5
4733
330
471B
100
AcDbEntity
  8
0
 62
     0
100
AcDbLine
 10
391.1976783052351
 20
315.9091028813124
 30
0.0
 11
389.5068711008615
 21
317.5999100856859
 31
0.0
  0
LINE
  5
4734
330
471B
100
AcDbEntity
  8
0
 62
     0
100
AcDbLine
 10
388.2128214618492
 20
316.0655325999521
 30
0.0
 11
386.5220142574756
 21
317.7563398043256
 31
0.0
  0
LINE
  5
4735
330
471B
100
AcDbEntity
  8
0
 62
     0
100
AcDbLine
 10
385.2279646184633
 20
316.2219623185917
 30
0.0
 11
383.5371574140897
 21
317.9127695229653
 31
0.0
  0
LINE
  5
4736
330
471B
100
AcDbEntity
  8
0
 62
     0
100
AcDbLine
 10
382.2431077750774
 20
316.3783920372314
 30
0.0
 11
380.5523005707039
 21
318.0691992416049
 31
0.0
  0
LINE
  5
4737
330
471B
100
AcDbEntity
  8
0
 62
     0
100
AcDbLine
 10
379.2582509316916
 20
316.5348217558711
 30
0.0
 11
377.5674437273181
 21
318.2256289602446
 31
0.0
  0
LINE
  5
4738
330
471B
100
AcDbEntity
  8
0
 62
     0
100
AcDbLine
 10
376.2733940883058
 20
316.6912514745107
 30
0.0
 11
374.5825868839322
 21
318.3820586788843
 31
0.0
  0
LINE
  5
4739
330
471B
100
AcDbEntity
  8
0
 62
     0
100
AcDbLine
 10
378.4274005211626
 20
388.0763502850549
 30
0.0
 11
376.7365933167893
 21
389.7671574894283
 31
0.0
  0
LINE
  5
473A
330
471B
100
AcDbEntity
  8
0
 62
     0
100
AcDbLine
 10
381.4122573645484
 20
387.9199205664153
 30
0.0
 11
379.7214501601751
 21
389.6107277707886
 31
0.0
  0
LINE
  5
473B
330
471B
100
AcDbEntity
  8
0
 62
     0
100
AcDbLine
 10
384.3971142079342
 20
387.7634908477756
 30
0.0
 11
382.706307003561
 21
389.454298052149
 31
0.0
  0
LINE
  5
473C
330
471B
100
AcDbEntity
  8
0
 62
     0
100
AcDbLine
 10
387.3819710513201
 20
387.607061129136
 30
0.0
 11
385.6911638469468
 21
389.2978683335093
 31
0.0
  0
LINE
  5
473D
330
471B
100
AcDbEntity
  8
0
 62
     0
100
AcDbLine
 10
390.366827894706
 20
387.4506314104963
 30
0.0
 11
388.6760206903326
 21
389.1414386148696
 31
0.0
  0
LINE
  5
473E
330
471B
100
AcDbEntity
  8
0
 62
     0
100
AcDbLine
 10
393.3516847380918
 20
387.2942016918567
 30
0.0
 11
391.6608775337185
 21
388.98500889623
 31
0.0
  0
LINE
  5
473F
330
471B
100
AcDbEntity
  8
0
 62
     0
100
AcDbLine
 10
396.3365415814777
 20
387.137771973217
 30
0.0
 11
394.6457343771043
 21
388.8285791775903
 31
0.0
  0
LINE
  5
4740
330
471B
100
AcDbEntity
  8
0
 62
     0
100
AcDbLine
 10
399.3213984248635
 20
386.9813422545773
 30
0.0
 11
397.6305912204901
 21
388.6721494589507
 31
0.0
  0
LINE
  5
4741
330
471B
100
AcDbEntity
  8
0
 62
     0
100
AcDbLine
 10
402.3062552682493
 20
386.8249125359377
 30
0.0
 11
400.615448063876
 21
388.515719740311
 31
0.0
  0
LINE
  5
4742
330
471B
100
AcDbEntity
  8
0
 62
     0
100
AcDbLine
 10
405.2911121116351
 20
386.668482817298
 30
0.0
 11
403.6003049072617
 21
388.3592900216714
 31
0.0
  0
LINE
  5
4743
330
471B
100
AcDbEntity
  8
0
 62
     0
100
AcDbLine
 10
408.275968955021
 20
386.5120530986583
 30
0.0
 11
406.5851617506476
 21
388.2028603030317
 31
0.0
  0
LINE
  5
4744
330
471B
100
AcDbEntity
  8
0
 62
     0
100
AcDbLine
 10
411.2608257984069
 20
386.3556233800187
 30
0.0
 11
409.5700185940335
 21
388.0464305843921
 31
0.0
  0
LINE
  5
4745
330
471B
100
AcDbEntity
  8
0
 62
     0
100
AcDbLine
 10
414.2456826417928
 20
386.199193661379
 30
0.0
 11
412.5548754374193
 21
387.8900008657524
 31
0.0
  0
LINE
  5
4746
330
471B
100
AcDbEntity
  8
0
 62
     0
100
AcDbLine
 10
417.2305394851786
 20
386.0427639427394
 30
0.0
 11
415.5397322808052
 21
387.7335711471127
 31
0.0
  0
LINE
  5
4747
330
471B
100
AcDbEntity
  8
0
 62
     0
100
AcDbLine
 10
420.2153963285644
 20
385.8863342240997
 30
0.0
 11
418.524589124191
 21
387.5771414284731
 31
0.0
  0
LINE
  5
4748
330
471B
100
AcDbEntity
  8
0
 62
     0
100
AcDbLine
 10
423.2002531719502
 20
385.7299045054601
 30
0.0
 11
421.5094459675769
 21
387.4207117098334
 31
0.0
  0
LINE
  5
4749
330
471B
100
AcDbEntity
  8
0
 62
     0
100
AcDbLine
 10
426.1851100153361
 20
385.5734747868204
 30
0.0
 11
424.4943028109627
 21
387.2642819911938
 31
0.0
  0
LINE
  5
474A
330
471B
100
AcDbEntity
  8
0
 62
     0
100
AcDbLine
 10
446.2027941906533
 20
368.3842177362493
 30
0.0
 11
444.5119869862796
 21
370.075024940623
 31
0.0
  0
LINE
  5
474B
330
471B
100
AcDbEntity
  8
0
 62
     0
100
AcDbLine
 10
429.1699668587219
 20
385.4170450681808
 30
0.0
 11
427.4791596543486
 21
387.1078522725541
 31
0.0
  0
LINE
  5
474C
330
471B
100
AcDbEntity
  8
0
 62
     0
100
AcDbLine
 10
449.1876510340391
 20
368.2277880176097
 30
0.0
 11
447.4968438296654
 21
369.9185952219833
 31
0.0
  0
LINE
  5
474D
330
471B
100
AcDbEntity
  8
0
 62
     0
100
AcDbLine
 10
432.1548237021078
 20
385.2606153495411
 30
0.0
 11
430.4640164977344
 21
386.9514225539145
 31
0.0
  0
LINE
  5
474E
330
471B
100
AcDbEntity
  8
0
 62
     0
100
AcDbLine
 10
452.1725078774251
 20
368.07135829897
 30
0.0
 11
450.4817006730513
 21
369.7621655033437
 31
0.0
  0
LINE
  5
474F
330
471B
100
AcDbEntity
  8
0
 62
     0
100
AcDbLine
 10
455.1573647208108
 20
367.9149285803304
 30
0.0
 11
453.4665575164371
 21
369.6057357847041
 31
0.0
  0
LINE
  5
4750
330
471B
100
AcDbEntity
  8
0
 62
     0
100
AcDbLine
 10
458.1497337719806
 20
367.7509866539068
 30
0.0
 11
456.4514143598229
 21
369.4493060660644
 31
0.0
  0
LINE
  5
4751
330
471B
100
AcDbEntity
  8
0
 62
     0
100
AcDbLine
 10
461.4406721189663
 20
367.2884754316673
 30
0.0
 11
459.5607409002794
 21
369.1684066503541
 31
0.0
  0
LINE
  5
4752
330
471B
100
AcDbEntity
  8
0
 62
     0
100
AcDbLine
 10
464.731610465952
 20
366.8259642094278
 30
0.0
 11
462.8516792472651
 21
368.7058954281146
 31
0.0
  0
LINE
  5
4753
330
471B
100
AcDbEntity
  8
0
 62
     0
100
AcDbLine
 10
468.0100307785001
 20
366.3759710216258
 30
0.0
 11
466.1426175942508
 21
368.2433842058752
 31
0.0
  0
ENDBLK
  5
4754
330
471B
100
AcDbEntity
  8
0
100
AcDbBlockEnd
  0
BLOCK
  5
4756
330
4755
100
AcDbEntity
  8
0
100
AcDbBlockBegin
  2
*X10
 70
     1
 10
0.0
 20
0.0
 30
0.0
  3
*X10
  1

  0
LINE
  5
4757
330
4755
100
AcDbEntity
  8
0
 62
     0
100
AcDbLine
 10
611.9459558056321
 20
624.0766977084527
 30
0.0
 11
610.2551486012581
 21
625.7675049128267
 31
0.0
  0
LINE
  5
4758
330
4755
100
AcDbEntity
  8
0
 62
     0
100
AcDbLine
 10
536.4936843104557
 20
699.5289692036293
 30
0.0
 11
534.8028771060821
 21
701.2197764080028
 31
0.0
  0
LINE
  5
4759
330
4755
100
AcDbEntity
  8
0
 62
     0
100
AcDbLine
 10
608.9610989622463
 20
624.2331274270925
 30
0.0
 11
607.2702917578723
 21
625.9239346314664
 31
0.0
  0
LINE
  5
475A
330
4755
100
AcDbEntity
  8
0
 62
     0
100
AcDbLine
 10
533.50882746707
 20
699.685398922269
 30
0.0
 11
531.8180202626963
 21
701.3762061266423
 31
0.0
  0
LINE
  5
475B
330
4755
100
AcDbEntity
  8
0
 62
     0
100
AcDbLine
 10
605.9762421188604
 20
624.3895571457321
 30
0.0
 11
604.2854349144865
 21
626.0803643501061
 31
0.0
  0
LINE
  5
475C
330
4755
100
AcDbEntity
  8
0
 62
     0
100
AcDbLine
 10
530.5239706236841
 20
699.8418286409085
 30
0.0
 11
528.8331634193105
 21
701.532635845282
 31
0.0
  0
LINE
  5
475D
330
4755
100
AcDbEntity
  8
0
 62
     0
100
AcDbLine
 10
602.9913852754746
 20
624.5459868643719
 30
0.0
 11
601.3005780711006
 21
626.2367940687457
 31
0.0
  0
LINE
  5
475E
330
4755
100
AcDbEntity
  8
0
 62
     0
100
AcDbLine
 10
527.5391137802982
 20
699.9982583595482
 30
0.0
 11
525.8483065759246
 21
701.6890655639217
 31
0.0
  0
LINE
  5
475F
330
4755
100
AcDbEntity
  8
0
 62
     0
100
AcDbLine
 10
600.0065284320887
 20
624.7024165830115
 30
0.0
 11
598.3157212277148
 21
626.3932237873855
 31
0.0
  0
LINE
  5
4760
330
4755
100
AcDbEntity
  8
0
 62
     0
100
AcDbLine
 10
524.5542569369123
 20
700.1546880781879
 30
0.0
 11
522.8634497325388
 21
701.8454952825614
 31
0.0
  0
LINE
  5
4761
330
4755
100
AcDbEntity
  8
0
 62
     0
100
AcDbLine
 10
597.0216715887028
 20
624.8588463016512
 30
0.0
 11
595.3308643843289
 21
626.5496535060251
 31
0.0
  0
LINE
  5
4762
330
4755
100
AcDbEntity
  8
0
 62
     0
100
AcDbLine
 10
521.5694000935265
 20
700.3111177968276
 30
0.0
 11
519.8785928891529
 21
702.001925001201
 31
0.0
  0
LINE
  5
4763
330
4755
100
AcDbEntity
  8
0
 62
     0
100
AcDbLine
 10
594.0368147453169
 20
625.0152760202909
 30
0.0
 11
592.346007540943
 21
626.7060832246648
 31
0.0
  0
LINE
  5
4764
330
4755
100
AcDbEntity
  8
0
 62
     0
100
AcDbLine
 10
518.5845432501406
 20
700.4675475154672
 30
0.0
 11
516.8937360457671
 21
702.1583547198406
 31
0.0
  0
LINE
  5
4765
330
4755
100
AcDbEntity
  8
0
 62
     0
100
AcDbLine
 10
591.0519579019311
 20
625.1717057389305
 30
0.0
 11
589.3611506975571
 21
626.8625129433045
 31
0.0
  0
LINE
  5
4766
330
4755
100
AcDbEntity
  8
0
 62
     0
100
AcDbLine
 10
515.5996864067548
 20
700.623977234107
 30
0.0
 11
513.9088792023812
 21
702.3147844384802
 31
0.0
  0
LINE
  5
4767
330
4755
100
AcDbEntity
  8
0
 62
     0
100
AcDbLine
 10
588.0671010585452
 20
625.3281354575701
 30
0.0
 11
586.3762938541713
 21
627.0189426619441
 31
0.0
  0
LINE
  5
4768
330
4755
100
AcDbEntity
  8
0
 62
     0
100
AcDbLine
 10
512.6148295633689
 20
700.7804069527466
 30
0.0
 11
510.9240223589954
 21
702.47121415712
 31
0.0
  0
LINE
  5
4769
330
4755
100
AcDbEntity
  8
0
 62
     0
100
AcDbLine
 10
585.0822442151594
 20
625.4845651762098
 30
0.0
 11
583.3914370107854
 21
627.1753723805837
 31
0.0
  0
LINE
  5
476A
330
4755
100
AcDbEntity
  8
0
 62
     0
100
AcDbLine
 10
509.6299727199831
 20
700.9368366713862
 30
0.0
 11
507.9391655156095
 21
702.6276438757596
 31
0.0
  0
LINE
  5
476B
330
4755
100
AcDbEntity
  8
0
 62
     0
100
AcDbLine
 10
582.0973873717735
 20
625.6409948948495
 30
0.0
 11
580.4065801673996
 21
627.3318020992235
 31
0.0
  0
LINE
  5
476C
330
4755
100
AcDbEntity
  8
0
 62
     0
100
AcDbLine
 10
506.6451158765972
 20
701.0932663900258
 30
0.0
 11
504.9543086722237
 21
702.7840735943993
 31
0.0
  0
LINE
  5
476D
330
4755
100
AcDbEntity
  8
0
 62
     0
100
AcDbLine
 10
579.1125305283876
 20
625.7974246134891
 30
0.0
 11
577.4217233240137
 21
627.4882318178631
 31
0.0
  0
LINE
  5
476E
330
4755
100
AcDbEntity
  8
0
 62
     0
100
AcDbLine
 10
503.6602590332114
 20
701.2496961086656
 30
0.0
 11
501.9694518288379
 21
702.9405033130388
 31
0.0
  0
LINE
  5
476F
330
4755
100
AcDbEntity
  8
0
 62
     0
100
AcDbLine
 10
576.1276736850017
 20
625.9538543321289
 30
0.0
 11
574.4368664806278
 21
627.6446615365028
 31
0.0
  0
LINE
  5
4770
330
4755
100
AcDbEntity
  8
0
 62
     0
100
AcDbLine
 10
500.6754021898256
 20
701.4061258273052
 30
0.0
 11
498.984594985452
 21
703.0969330316786
 31
0.0
  0
LINE
  5
4771
330
4755
100
AcDbEntity
  8
0
 62
     0
100
AcDbLine
 10
573.1428168416159
 20
626.1102840507685
 30
0.0
 11
571.4520096372419
 21
627.8010912551425
 31
0.0
  0
LINE
  5
4772
330
4755
100
AcDbEntity
  8
0
 62
     0
100
AcDbLine
 10
497.6905453464397
 20
701.5625555459449
 30
0.0
 11
495.9997381420661
 21
703.2533627503182
 31
0.0
  0
LINE
  5
4773
330
4755
100
AcDbEntity
  8
0
 62
     0
100
AcDbLine
 10
570.1579599982301
 20
626.2667137694081
 30
0.0
 11
568.4671527938561
 21
627.9575209737821
 31
0.0
  0
LINE
  5
4774
330
4755
100
AcDbEntity
  8
0
 62
     0
100
AcDbLine
 10
494.7056885030538
 20
701.7189852645844
 30
0.0
 11
493.0148812986803
 21
703.4097924689579
 31
0.0
  0
LINE
  5
4775
330
4755
100
AcDbEntity
  8
0
 62
     0
100
AcDbLine
 10
567.1731031548443
 20
626.4231434880478
 30
0.0
 11
565.4822959504703
 21
628.1139506924217
 31
0.0
  0
LINE
  5
4776
330
4755
100
AcDbEntity
  8
0
 62
     0
100
AcDbLine
 10
491.720831659668
 20
701.8754149832242
 30
0.0
 11
490.0300244552944
 21
703.5662221875975
 31
0.0
  0
LINE
  5
4777
330
4755
100
AcDbEntity
  8
0
 62
     0
100
AcDbLine
 10
564.1882463114582
 20
626.5795732066875
 30
0.0
 11
562.4974391070844
 21
628.2703804110615
 31
0.0
  0
LINE
  5
4778
330
4755
100
AcDbEntity
  8
0
 62
     0
100
AcDbLine
 10
488.7359748162821
 20
702.0318447018638
 30
0.0
 11
487.0451676119087
 21
703.7226519062372
 31
0.0
  0
LINE
  5
4779
330
4755
100
AcDbEntity
  8
0
 62
     0
100
AcDbLine
 10
561.2033894680725
 20
626.7360029253272
 30
0.0
 11
559.5125822636986
 21
628.4268101297011
 31
0.0
  0
LINE
  5
477A
330
4755
100
AcDbEntity
  8
0
 62
     0
100
AcDbLine
 10
485.7511179728963
 20
702.1882744205035
 30
0.0
 11
484.0603107685228
 21
703.8790816248769
 31
0.0
  0
LINE
  5
477B
330
4755
100
AcDbEntity
  8
0
 62
     0
100
AcDbLine
 10
558.2185326246866
 20
626.8924326439669
 30
0.0
 11
556.5277254203127
 21
628.5832398483408
 31
0.0
  0
LINE
  5
477C
330
4755
100
AcDbEntity
  8
0
 62
     0
100
AcDbLine
 10
482.7662611295105
 20
702.3447041391431
 30
0.0
 11
481.0754539251369
 21
704.0355113435165
 31
0.0
  0
LINE
  5
477D
330
4755
100
AcDbEntity
  8
0
 62
     0
100
AcDbLine
 10
555.2336757813008
 20
627.0488623626065
 30
0.0
 11
553.5428685769268
 21
628.7396695669805
 31
0.0
  0
LINE
  5
477E
330
4755
100
AcDbEntity
  8
0
 62
     0
100
AcDbLine
 10
479.7814042861246
 20
702.5011338577829
 30
0.0
 11
478.0905970817511
 21
704.1919410621561
 31
0.0
  0
LINE
  5
477F
330
4755
100
AcDbEntity
  8
0
 62
     0
100
AcDbLine
 10
552.2488189379149
 20
627.2052920812463
 30
0.0
 11
550.5580117335409
 21
628.8960992856202
 31
0.0
  0
LINE
  5
4780
330
4755
100
AcDbEntity
  8
0
 62
     0
100
AcDbLine
 10
476.7965474427388
 20
702.6575635764224
 30
0.0
 11
475.1057402383652
 21
704.3483707807958
 31
0.0
  0
LINE
  5
4781
330
4755
100
AcDbEntity
  8
0
 62
     0
100
AcDbLine
 10
549.2639620945291
 20
627.3617217998859
 30
0.0
 11
547.5731548901551
 21
629.0525290042599
 31
0.0
  0
LINE
  5
4782
330
4755
100
AcDbEntity
  8
0
 62
     0
100
AcDbLine
 10
473.8116905993528
 20
702.8139932950621
 30
0.0
 11
472.1208833949794
 21
704.5048004994355
 31
0.0
  0
LINE
  5
4783
330
4755
100
AcDbEntity
  8
0
 62
     0
100
AcDbLine
 10
546.2791052511432
 20
627.5181515185255
 30
0.0
 11
544.5882980467692
 21
629.2089587228995
 31
0.0
  0
LINE
  5
4784
330
4755
100
AcDbEntity
  8
0
 62
     0
100
AcDbLine
 10
470.8268337559671
 20
702.9704230137018
 30
0.0
 11
469.1360265515935
 21
704.6612302180752
 31
0.0
  0
LINE
  5
4785
330
4755
100
AcDbEntity
  8
0
 62
     0
100
AcDbLine
 10
543.2942484077573
 20
627.6745812371652
 30
0.0
 11
541.6034412033834
 21
629.3653884415391
 31
0.0
  0
LINE
  5
4786
330
4755
100
AcDbEntity
  8
0
 62
     0
100
AcDbLine
 10
467.8419769125812
 20
703.1268527323415
 30
0.0
 11
466.1511697082077
 21
704.8176599367147
 31
0.0
  0
LINE
  5
4787
330
4755
100
AcDbEntity
  8
0
 62
     0
100
AcDbLine
 10
540.3093915643714
 20
627.8310109558049
 30
0.0
 11
538.6185843599975
 21
629.5218181601788
 31
0.0
  0
LINE
  5
4788
330
4755
100
AcDbEntity
  8
0
 62
     0
100
AcDbLine
 10
464.8571200691954
 20
703.2832824509811
 30
0.0
 11
463.1663128648219
 21
704.9740896553544
 31
0.0
  0
LINE
  5
4789
330
4755
100
AcDbEntity
  8
0
 62
     0
100
AcDbLine
 10
537.3245347209856
 20
627.9874406744445
 30
0.0
 11
535.6337275166118
 21
629.6782478788185
 31
0.0
  0
LINE
  5
478A
330
4755
100
AcDbEntity
  8
0
 62
     0
100
AcDbLine
 10
461.8722632258095
 20
703.4397121696208
 30
0.0
 11
460.1814560214361
 21
705.1305193739941
 31
0.0
  0
LINE
  5
478B
330
4755
100
AcDbEntity
  8
0
 62
     0
100
AcDbLine
 10
534.3396778775997
 20
628.1438703930843
 30
0.0
 11
532.6488706732257
 21
629.8346775974581
 31
0.0
  0
LINE
  5
478C
330
4755
100
AcDbEntity
  8
0
 62
     0
100
AcDbLine
 10
458.8874063824237
 20
703.5961418882605
 30
0.0
 11
457.1965991780502
 21
705.2869490926338
 31
0.0
  0
LINE
  5
478D
330
4755
100
AcDbEntity
  8
0
 62
     0
100
AcDbLine
 10
531.354821034214
 20
628.3003001117239
 30
0.0
 11
529.6640138298399
 21
629.9911073160979
 31
0.0
  0
LINE
  5
478E
330
4755
100
AcDbEntity
  8
0
 62
     0
100
AcDbLine
 10
455.9025495390378
 20
703.7525716069001
 30
0.0
 11
454.2117423346644
 21
705.4433788112734
 31
0.0
  0
LINE
  5
478F
330
4755
100
AcDbEntity
  8
0
 62
     0
100
AcDbLine
 10
528.3699641908281
 20
628.4567298303636
 30
0.0
 11
526.6791569864541
 21
630.1475370347375
 31
0.0
  0
LINE
  5
4790
330
4755
100
AcDbEntity
  8
0
 62
     0
100
AcDbLine
 10
452.917692695652
 20
703.9090013255397
 30
0.0
 11
451.2268854912785
 21
705.599808529913
 31
0.0
  0
LINE
  5
4791
330
4755
100
AcDbEntity
  8
0
 62
     0
100
AcDbLine
 10
525.3851073474421
 20
628.6131595490033
 30
0.0
 11
523.6943001430683
 21
630.3039667533771
 31
0.0
  0
LINE
  5
4792
330
4755
100
AcDbEntity
  8
0
 62
     0
100
AcDbLine
 10
449.9328358522661
 20
704.0654310441794
 30
0.0
 11
448.2420286478927
 21
705.7562382485526
 31
0.0
  0
LINE
  5
4793
330
4755
100
AcDbEntity
  8
0
 62
     0
100
AcDbLine
 10
522.4002505040563
 20
628.7695892676429
 30
0.0
 11
520.7094432996824
 21
630.4603964720168
 31
0.0
  0
LINE
  5
4794
330
4755
100
AcDbEntity
  8
0
 62
     0
100
AcDbLine
 10
446.9479790088803
 20
704.2218607628191
 30
0.0
 11
445.2571718045068
 21
705.9126679671924
 31
0.0
  0
LINE
  5
4795
330
4755
100
AcDbEntity
  8
0
 62
     0
100
AcDbLine
 10
519.4153936606705
 20
628.9260189862826
 30
0.0
 11
517.7245864562966
 21
630.6168261906565
 31
0.0
  0
LINE
  5
4796
330
4755
100
AcDbEntity
  8
0
 62
     0
100
AcDbLine
 10
443.9631221654944
 20
704.3782904814587
 30
0.0
 11
442.272314961121
 21
706.069097685832
 31
0.0
  0
LINE
  5
4797
330
4755
100
AcDbEntity
  8
0
 62
     0
100
AcDbLine
 10
516.4305368172846
 20
629.0824487049222
 30
0.0
 11
514.7397296129106
 21
630.7732559092961
 31
0.0
  0
LINE
  5
4798
330
4755
100
AcDbEntity
  8
0
 62
     0
100
AcDbLine
 10
440.9782653221085
 20
704.5347202000983
 30
0.0
 11
439.2874581177351
 21
706.2255274044717
 31
0.0
  0
LINE
  5
4799
330
4755
100
AcDbEntity
  8
0
 62
     0
100
AcDbLine
 10
513.4456799738988
 20
629.2388784235619
 30
0.0
 11
511.7548727695249
 21
630.9296856279359
 31
0.0
  0
LINE
  5
479A
330
4755
100
AcDbEntity
  8
0
 62
     0
100
AcDbLine
 10
437.9934084787227
 20
704.691149918738
 30
0.0
 11
436.3026012743492
 21
706.3819571231113
 31
0.0
  0
LINE
  5
479B
330
4755
100
AcDbEntity
  8
0
 62
     0
100
AcDbLine
 10
510.4608231305128
 20
629.3953081422016
 30
0.0
 11
508.7700159261389
 21
631.0861153465755
 31
0.0
  0
LINE
  5
479C
330
4755
100
AcDbEntity
  8
0
 62
     0
100
AcDbLine
 10
435.0085516353368
 20
704.8475796373777
 30
0.0
 11
433.3177444309634
 21
706.538386841751
 31
0.0
  0
LINE
  5
479D
330
4755
100
AcDbEntity
  8
0
 62
     0
100
AcDbLine
 10
507.4759662871271
 20
629.5517378608413
 30
0.0
 11
505.7851590827531
 21
631.2425450652151
 31
0.0
  0
LINE
  5
479E
330
4755
100
AcDbEntity
  8
0
 62
     0
100
AcDbLine
 10
432.023694791951
 20
705.0040093560173
 30
0.0
 11
430.3328875875775
 21
706.6948165603906
 31
0.0
  0
LINE
  5
479F
330
4755
100
AcDbEntity
  8
0
 62
     0
100
AcDbLine
 10
504.4911094437412
 20
629.7081675794808
 30
0.0
 11
502.8003022393672
 21
631.3989747838548
 31
0.0
  0
LINE
  5
47A0
330
4755
100
AcDbEntity
  8
0
 62
     0
100
AcDbLine
 10
429.0388379485651
 20
705.160439074657
 30
0.0
 11
427.3480307441917
 21
706.8512462790303
 31
0.0
  0
LINE
  5
47A1
330
4755
100
AcDbEntity
  8
0
 62
     0
100
AcDbLine
 10
501.5062526003553
 20
629.8645972981206
 30
0.0
 11
499.8154453959814
 21
631.5554045024945
 31
0.0
  0
LINE
  5
47A2
330
4755
100
AcDbEntity
  8
0
 62
     0
100
AcDbLine
 10
426.0539811051793
 20
705.3168687932967
 30
0.0
 11
424.3631739008058
 21
707.0076759976699
 31
0.0
  0
LINE
  5
47A3
330
4755
100
AcDbEntity
  8
0
 62
     0
100
AcDbLine
 10
498.5213957569694
 20
630.0210270167602
 30
0.0
 11
496.8305885525955
 21
631.7118342211341
 31
0.0
  0
LINE
  5
47A4
330
4755
100
AcDbEntity
  8
0
 62
     0
100
AcDbLine
 10
423.0691242617934
 20
705.4732985119364
 30
0.0
 11
421.3783170574201
 21
707.1641057163096
 31
0.0
  0
LINE
  5
47A5
330
4755
100
AcDbEntity
  8
0
 62
     0
100
AcDbLine
 10
495.5365389135836
 20
630.1774567353999
 30
0.0
 11
493.8457317092097
 21
631.8682639397739
 31
0.0
  0
LINE
  5
47A6
330
4755
100
AcDbEntity
  8
0
 62
     0
100
AcDbLine
 10
420.0842674184076
 20
705.6297282305759
 30
0.0
 11
418.3934602140342
 21
707.3205354349493
 31
0.0
  0
LINE
  5
47A7
330
4755
100
AcDbEntity
  8
0
 62
     0
100
AcDbLine
 10
492.5516820701977
 20
630.3338864540396
 30
0.0
 11
490.8608748658238
 21
632.0246936584135
 31
0.0
  0
LINE
  5
47A8
330
4755
100
AcDbEntity
  8
0
 62
     0
100
AcDbLine
 10
417.0994105750217
 20
705.7861579492156
 30
0.0
 11
415.4086033706484
 21
707.4769651535889
 31
0.0
  0
LINE
  5
47A9
330
4755
100
AcDbEntity
  8
0
 62
     0
100
AcDbLine
 10
489.5668252268118
 20
630.4903161726793
 30
0.0
 11
487.876018022438
 21
632.1811233770533
 31
0.0
  0
LINE
  5
47AA
330
4755
100
AcDbEntity
  8
0
 62
     0
100
AcDbLine
 10
414.114553731636
 20
705.9425876678553
 30
0.0
 11
412.4237465272625
 21
707.6333948722285
 31
0.0
  0
LINE
  5
47AB
330
4755
100
AcDbEntity
  8
0
 62
     0
100
AcDbLine
 10
486.581968383426
 20
630.646745891319
 30
0.0
 11
484.8911611790521
 21
632.3375530956929
 31
0.0
  0
LINE
  5
47AC
330
4755
100
AcDbEntity
  8
0
 62
     0
100
AcDbLine
 10
411.12969688825
 20
706.099017386495
 30
0.0
 11
409.4388896838767
 21
707.7898245908682
 31
0.0
  0
LINE
  5
47AD
330
4755
100
AcDbEntity
  8
0
 62
     0
100
AcDbLine
 10
483.5971115400401
 20
630.8031756099587
 30
0.0
 11
481.9063043356663
 21
632.4939828143325
 31
0.0
  0
LINE
  5
47AE
330
4755
100
AcDbEntity
  8
0
 62
     0
100
AcDbLine
 10
408.1448400448642
 20
706.2554471051346
 30
0.0
 11
406.4540328404908
 21
707.9462543095079
 31
0.0
  0
LINE
  5
47AF
330
4755
100
AcDbEntity
  8
0
 62
     0
100
AcDbLine
 10
480.6122546966543
 20
630.9596053285982
 30
0.0
 11
478.9214474922803
 21
632.6504125329722
 31
0.0
  0
LINE
  5
47B0
330
4755
100
AcDbEntity
  8
0
 62
     0
100
AcDbLine
 10
405.1599832014783
 20
706.4118768237742
 30
0.0
 11
403.469175997105
 21
708.1026840281475
 31
0.0
  0
LINE
  5
47B1
330
4755
100
AcDbEntity
  8
0
 62
     0
100
AcDbLine
 10
477.6273978532684
 20
631.116035047238
 30
0.0
 11
475.9365906488945
 21
632.8068422516119
 31
0.0
  0
LINE
  5
47B2
330
4755
100
AcDbEntity
  8
0
 62
     0
100
AcDbLine
 10
402.1751263580925
 20
706.5683065424139
 30
0.0
 11
400.4843191537191
 21
708.2591137467872
 31
0.0
  0
LINE
  5
47B3
330
4755
100
AcDbEntity
  8
0
 62
     0
100
AcDbLine
 10
474.6425410098825
 20
631.2724647658776
 30
0.0
 11
472.9517338055087
 21
632.9632719702515
 31
0.0
  0
LINE
  5
47B4
330
4755
100
AcDbEntity
  8
0
 62
     0
100
AcDbLine
 10
399.1902695147067
 20
706.7247362610536
 30
0.0
 11
397.4994623103333
 21
708.4155434654268
 31
0.0
  0
LINE
  5
47B5
330
4755
100
AcDbEntity
  8
0
 62
     0
100
AcDbLine
 10
471.6576841664966
 20
631.4288944845173
 30
0.0
 11
469.9668769621228
 21
633.1197016888912
 31
0.0
  0
LINE
  5
47B6
330
4755
100
AcDbEntity
  8
0
 62
     0
100
AcDbLine
 10
396.2054126713209
 20
706.8811659796932
 30
0.0
 11
394.5146054669475
 21
708.5719731840665
 31
0.0
  0
LINE
  5
47B7
330
4755
100
AcDbEntity
  8
0
 62
     0
100
AcDbLine
 10
468.6728273231109
 20
631.585324203157
 30
0.0
 11
466.9820201187369
 21
633.2761314075309
 31
0.0
  0
LINE
  5
47B8
330
4755
100
AcDbEntity
  8
0
 62
     0
100
AcDbLine
 10
393.220555827935
 20
707.037595698333
 30
0.0
 11
391.5297486235616
 21
708.7284029027062
 31
0.0
  0
LINE
  5
47B9
330
4755
100
AcDbEntity
  8
0
 62
     0
100
AcDbLine
 10
465.6879704797249
 20
631.7417539217967
 30
0.0
 11
463.997163275351
 21
633.4325611261705
 31
0.0
  0
LINE
  5
47BA
330
4755
100
AcDbEntity
  8
0
 62
     0
100
AcDbLine
 10
390.2356989845491
 20
707.1940254169726
 30
0.0
 11
388.5448917801758
 21
708.8848326213458
 31
0.0
  0
LINE
  5
47BB
330
4755
100
AcDbEntity
  8
0
 62
     0
100
AcDbLine
 10
462.7031136363391
 20
631.8981836404362
 30
0.0
 11
461.0123064319652
 21
633.5889908448102
 31
0.0
  0
LINE
  5
47BC
330
4755
100
AcDbEntity
  8
0
 62
     0
100
AcDbLine
 10
387.2508421411633
 20
707.3504551356123
 30
0.0
 11
385.5600349367899
 21
709.0412623399855
 31
0.0
  0
LINE
  5
47BD
330
4755
100
AcDbEntity
  8
0
 62
     0
100
AcDbLine
 10
459.7182567929532
 20
632.054613359076
 30
0.0
 11
458.0274495885793
 21
633.7454205634498
 31
0.0
  0
LINE
  5
47BE
330
4755
100
AcDbEntity
  8
0
 62
     0
100
AcDbLine
 10
384.2659852977774
 20
707.5068848542518
 30
0.0
 11
382.5751780934041
 21
709.197692058625
 31
0.0
  0
LINE
  5
47BF
330
4755
100
AcDbEntity
  8
0
 62
     0
100
AcDbLine
 10
456.7333999495674
 20
632.2110430777156
 30
0.0
 11
455.0425927451935
 21
633.9018502820895
 31
0.0
  0
LINE
  5
47C0
330
4755
100
AcDbEntity
  8
0
 62
     0
100
AcDbLine
 10
381.2811284543916
 20
707.6633145728916
 30
0.0
 11
379.5903212500182
 21
709.3541217772648
 31
0.0
  0
LINE
  5
47C1
330
4755
100
AcDbEntity
  8
0
 62
     0
100
AcDbLine
 10
453.7485431061815
 20
632.3674727963553
 30
0.0
 11
452.0577359018076
 21
634.0582800007292
 31
0.0
  0
LINE
  5
47C2
330
4755
100
AcDbEntity
  8
0
 62
     0
100
AcDbLine
 10
378.2962716110057
 20
707.8197442915312
 30
0.0
 11
376.6054644066324
 21
709.5105514959044
 31
0.0
  0
LINE
  5
47C3
330
4755
100
AcDbEntity
  8
0
 62
     0
100
AcDbLine
 10
450.7636862627957
 20
632.523902514995
 30
0.0
 11
449.0728790584218
 21
634.2147097193689
 31
0.0
  0
LINE
  5
47C4
330
4755
100
AcDbEntity
  8
0
 62
     0
100
AcDbLine
 10
375.3114147676199
 20
707.9761740101709
 30
0.0
 11
374.2016133822719
 21
709.0859753955188
 31
0.0
  0
LINE
  5
47C5
330
4755
100
AcDbEntity
  8
0
 62
     0
100
AcDbLine
 10
447.7788294194097
 20
632.6803322336346
 30
0.0
 11
446.0880222150359
 21
634.3711394380085
 31
0.0
  0
LINE
  5
47C6
330
4755
100
AcDbEntity
  8
0
 62
     0
100
AcDbLine
 10
444.793972576024
 20
632.8367619522744
 30
0.0
 11
443.1031653716501
 21
634.5275691566483
 31
0.0
  0
LINE
  5
47C7
330
4755
100
AcDbEntity
  8
0
 62
     0
100
AcDbLine
 10
441.8091157326381
 20
632.993191670914
 30
0.0
 11
440.1183085282641
 21
634.6839988752878
 31
0.0
  0
LINE
  5
47C8
330
4755
100
AcDbEntity
  8
0
 62
     0
100
AcDbLine
 10
438.8242588892522
 20
633.1496213895536
 30
0.0
 11
437.1334516848783
 21
634.8404285939275
 31
0.0
  0
LINE
  5
47C9
330
4755
100
AcDbEntity
  8
0
 62
     0
100
AcDbLine
 10
435.8394020458663
 20
633.3060511081933
 30
0.0
 11
434.1485948414925
 21
634.9968583125672
 31
0.0
  0
LINE
  5
47CA
330
4755
100
AcDbEntity
  8
0
 62
     0
100
AcDbLine
 10
432.8545452024805
 20
633.462480826833
 30
0.0
 11
431.1637379981067
 21
635.1532880312069
 31
0.0
  0
LINE
  5
47CB
330
4755
100
AcDbEntity
  8
0
 62
     0
100
AcDbLine
 10
429.8696883590946
 20
633.6189105454726
 30
0.0
 11
428.1788811547207
 21
635.3097177498466
 31
0.0
  0
LINE
  5
47CC
330
4755
100
AcDbEntity
  8
0
 62
     0
100
AcDbLine
 10
426.8848315157088
 20
633.7753402641124
 30
0.0
 11
425.1940243113349
 21
635.4661474684863
 31
0.0
  0
LINE
  5
47CD
330
4755
100
AcDbEntity
  8
0
 62
     0
100
AcDbLine
 10
423.8999746723229
 20
633.931769982752
 30
0.0
 11
422.209167467949
 21
635.6225771871258
 31
0.0
  0
LINE
  5
47CE
330
4755
100
AcDbEntity
  8
0
 62
     0
100
AcDbLine
 10
420.9151178289371
 20
634.0881997013916
 30
0.0
 11
419.2243106245632
 21
635.7790069057656
 31
0.0
  0
LINE
  5
47CF
330
4755
100
AcDbEntity
  8
0
 62
     0
100
AcDbLine
 10
417.9302609855512
 20
634.2446294200314
 30
0.0
 11
416.2394537811773
 21
635.9354366244052
 31
0.0
  0
LINE
  5
47D0
330
4755
100
AcDbEntity
  8
0
 62
     0
100
AcDbLine
 10
414.9454041421654
 20
634.401059138671
 30
0.0
 11
413.2545969377915
 21
636.0918663430449
 31
0.0
  0
LINE
  5
47D1
330
4755
100
AcDbEntity
  8
0
 62
     0
100
AcDbLine
 10
411.9605472987795
 20
634.5574888573107
 30
0.0
 11
410.2697400944056
 21
636.2482960616846
 31
0.0
  0
LINE
  5
47D2
330
4755
100
AcDbEntity
  8
0
 62
     0
100
AcDbLine
 10
408.9756904553936
 20
634.7139185759504
 30
0.0
 11
407.2848832510198
 21
636.4047257803242
 31
0.0
  0
LINE
  5
47D3
330
4755
100
AcDbEntity
  8
0
 62
     0
100
AcDbLine
 10
405.9908336120078
 20
634.87034829459
 30
0.0
 11
404.3000264076339
 21
636.5611554989639
 31
0.0
  0
LINE
  5
47D4
330
4755
100
AcDbEntity
  8
0
 62
     0
100
AcDbLine
 10
403.0059767686219
 20
635.0267780132297
 30
0.0
 11
401.3151695642481
 21
636.7175852176036
 31
0.0
  0
LINE
  5
47D5
330
4755
100
AcDbEntity
  8
0
 62
     0
100
AcDbLine
 10
400.021119925236
 20
635.1832077318694
 30
0.0
 11
398.3303127208622
 21
636.8740149362432
 31
0.0
  0
LINE
  5
47D6
330
4755
100
AcDbEntity
  8
0
 62
     0
100
AcDbLine
 10
397.0362630818502
 20
635.339637450509
 30
0.0
 11
395.3454558774764
 21
637.0304446548828
 31
0.0
  0
LINE
  5
47D7
330
4755
100
AcDbEntity
  8
0
 62
     0
100
AcDbLine
 10
394.0514062384644
 20
635.4960671691487
 30
0.0
 11
392.3605990340905
 21
637.1868743735226
 31
0.0
  0
LINE
  5
47D8
330
4755
100
AcDbEntity
  8
0
 62
     0
100
AcDbLine
 10
391.0665493950785
 20
635.6524968877883
 30
0.0
 11
389.3757421907046
 21
637.3433040921622
 31
0.0
  0
LINE
  5
47D9
330
4755
100
AcDbEntity
  8
0
 62
     0
100
AcDbLine
 10
388.0816925516926
 20
635.808926606428
 30
0.0
 11
386.3908853473188
 21
637.4997338108019
 31
0.0
  0
LINE
  5
47DA
330
4755
100
AcDbEntity
  8
0
 62
     0
100
AcDbLine
 10
385.0968357083068
 20
635.9653563250677
 30
0.0
 11
383.4060285039329
 21
637.6561635294416
 31
0.0
  0
LINE
  5
47DB
330
4755
100
AcDbEntity
  8
0
 62
     0
100
AcDbLine
 10
382.1119788649209
 20
636.1217860437074
 30
0.0
 11
380.421171660547
 21
637.8125932480813
 31
0.0
  0
LINE
  5
47DC
330
4755
100
AcDbEntity
  8
0
 62
     0
100
AcDbLine
 10
379.127122021535
 20
636.2782157623471
 30
0.0
 11
377.4363148171612
 21
637.9690229667208
 31
0.0
  0
LINE
  5
47DD
330
4755
100
AcDbEntity
  8
0
 62
     0
100
AcDbLine
 10
376.1422651781492
 20
636.4346454809868
 30
0.0
 11
374.4514579737753
 21
638.1254526853606
 31
0.0
  0
LINE
  5
47DE
330
4755
100
AcDbEntity
  8
0
 62
     0
100
AcDbLine
 10
614.9308126490179
 20
623.9202679898132
 30
0.0
 11
613.2400054446439
 21
625.6110751941871
 31
0.0
  0
LINE
  5
47DF
330
4755
100
AcDbEntity
  8
0
 62
     0
100
AcDbLine
 10
539.4785411538416
 20
699.3725394849896
 30
0.0
 11
537.787733949468
 21
701.0633466893631
 31
0.0
  0
LINE
  5
47E0
330
4755
100
AcDbEntity
  8
0
 62
     0
100
AcDbLine
 10
617.9156694924038
 20
623.7638382711735
 30
0.0
 11
616.2248622880299
 21
625.4546454755475
 31
0.0
  0
LINE
  5
47E1
330
4755
100
AcDbEntity
  8
0
 62
     0
100
AcDbLine
 10
542.4633979972274
 20
699.2161097663499
 30
0.0
 11
540.7725907928538
 21
700.9069169707234
 31
0.0
  0
LINE
  5
47E2
330
4755
100
AcDbEntity
  8
0
 62
     0
100
AcDbLine
 10
620.9005263357897
 20
623.6074085525338
 30
0.0
 11
619.2097191314157
 21
625.2982157569078
 31
0.0
  0
LINE
  5
47E3
330
4755
100
AcDbEntity
  8
0
 62
     0
100
AcDbLine
 10
545.4482548406133
 20
699.0596800477103
 30
0.0
 11
543.7574476362397
 21
700.7504872520837
 31
0.0
  0
LINE
  5
47E4
330
4755
100
AcDbEntity
  8
0
 62
     0
100
AcDbLine
 10
623.8853831791756
 20
623.4509788338941
 30
0.0
 11
622.1945759748016
 21
625.1417860382681
 31
0.0
  0
LINE
  5
47E5
330
4755
100
AcDbEntity
  8
0
 62
     0
100
AcDbLine
 10
548.4331116839991
 20
698.9032503290707
 30
0.0
 11
546.7423044796255
 21
700.5940575334441
 31
0.0
  0
LINE
  5
47E6
330
4755
100
AcDbEntity
  8
0
 62
     0
100
AcDbLine
 10
626.8702400225614
 20
623.2945491152545
 30
0.0
 11
625.1794328181874
 21
624.9853563196284
 31
0.0
  0
LINE
  5
47E7
330
4755
100
AcDbEntity
  8
0
 62
     0
100
AcDbLine
 10
551.417968527385
 20
698.746820610431
 30
0.0
 11
549.7271613230114
 21
700.4376278148044
 31
0.0
  0
LINE
  5
47E8
330
4755
100
AcDbEntity
  8
0
 62
     0
100
AcDbLine
 10
629.8550968659473
 20
623.1381193966147
 30
0.0
 11
628.1642896615733
 21
624.8289266009887
 31
0.0
  0
LINE
  5
47E9
330
4755
100
AcDbEntity
  8
0
 62
     0
100
AcDbLine
 10
554.4028253707709
 20
698.5903908917913
 30
0.0
 11
552.7120181663972
 21
700.2811980961647
 31
0.0
  0
LINE
  5
47EA
330
4755
100
AcDbEntity
  8
0
 62
     0
100
AcDbLine
 10
632.8399537093331
 20
622.9816896779752
 30
0.0
 11
631.1491465049591
 21
624.6724968823492
 31
0.0
  0
LINE
  5
47EB
330
4755
100
AcDbEntity
  8
0
 62
     0
100
AcDbLine
 10
557.3876822141567
 20
698.4339611731517
 30
0.0
 11
555.696875009783
 21
700.1247683775251
 31
0.0
  0
LINE
  5
47EC
330
4755
100
AcDbEntity
  8
0
 62
     0
100
AcDbLine
 10
635.824810552719
 20
622.8252599593355
 30
0.0
 11
634.134003348345
 21
624.5160671637094
 31
0.0
  0
LINE
  5
47ED
330
4755
100
AcDbEntity
  8
0
 62
     0
100
AcDbLine
 10
560.3725390575426
 20
698.2775314545119
 30
0.0
 11
558.6817318531688
 21
699.9683386588855
 31
0.0
  0
LINE
  5
47EE
330
4755
100
AcDbEntity
  8
0
 62
     0
100
AcDbLine
 10
638.8096673961049
 20
622.6688302406958
 30
0.0
 11
637.1188601917309
 21
624.3596374450698
 31
0.0
  0
LINE
  5
47EF
330
4755
100
AcDbEntity
  8
0
 62
     0
100
AcDbLine
 10
563.3573959009283
 20
698.1211017358723
 30
0.0
 11
561.6665886965547
 21
699.8119089402458
 31
0.0
  0
LINE
  5
47F0
330
4755
100
AcDbEntity
  8
0
 62
     0
100
AcDbLine
 10
641.7945242394908
 20
622.5124005220561
 30
0.0
 11
640.1037170351168
 21
624.2032077264301
 31
0.0
  0
LINE
  5
47F1
330
4755
100
AcDbEntity
  8
0
 62
     0
100
AcDbLine
 10
566.3422527443142
 20
697.9646720172326
 30
0.0
 11
564.6514455399405
 21
699.6554792216062
 31
0.0
  0
LINE
  5
47F2
330
4755
100
AcDbEntity
  8
0
 62
     0
100
AcDbLine
 10
644.7793810828766
 20
622.3559708034164
 30
0.0
 11
643.0885738785026
 21
624.0467780077904
 31
0.0
  0
LINE
  5
47F3
330
4755
100
AcDbEntity
  8
0
 62
     0
100
AcDbLine
 10
569.3271095877
 20
697.8082422985931
 30
0.0
 11
567.6363023833264
 21
699.4990495029664
 31
0.0
  0
LINE
  5
47F4
330
4755
100
AcDbEntity
  8
0
 62
     0
100
AcDbLine
 10
647.7642379262625
 20
622.1995410847767
 30
0.0
 11
646.0734307218885
 21
623.8903482891507
 31
0.0
  0
LINE
  5
47F5
330
4755
100
AcDbEntity
  8
0
 62
     0
100
AcDbLine
 10
572.311966431086
 20
697.6518125799533
 30
0.0
 11
570.6211592267123
 21
699.3426197843269
 31
0.0
  0
LINE
  5
47F6
330
4755
100
AcDbEntity
  8
0
 62
     0
100
AcDbLine
 10
650.7490947696482
 20
622.0431113661371
 30
0.0
 11
649.0582875652743
 21
623.7339185705111
 31
0.0
  0
LINE
  5
47F7
330
4755
100
AcDbEntity
  8
0
 62
     0
100
AcDbLine
 10
575.2968232744718
 20
697.4953828613137
 30
0.0
 11
573.6060160700981
 21
699.1861900656872
 31
0.0
  0
LINE
  5
47F8
330
4755
100
AcDbEntity
  8
0
 62
     0
100
AcDbLine
 10
653.7339516130341
 20
621.8866816474974
 30
0.0
 11
652.0431444086601
 21
623.5774888518713
 31
0.0
  0
LINE
  5
47F9
330
4755
100
AcDbEntity
  8
0
 62
     0
100
AcDbLine
 10
578.2816801178577
 20
697.338953142674
 30
0.0
 11
576.590872913484
 21
699.0297603470476
 31
0.0
  0
LINE
  5
47FA
330
4755
100
AcDbEntity
  8
0
 62
     0
100
AcDbLine
 10
656.7188084564199
 20
621.7302519288578
 30
0.0
 11
655.028001252046
 21
623.4210591332318
 31
0.0
  0
LINE
  5
47FB
330
4755
100
AcDbEntity
  8
0
 62
     0
100
AcDbLine
 10
581.2665369612435
 20
697.1825234240344
 30
0.0
 11
579.5757297568697
 21
698.8733306284078
 31
0.0
  0
LINE
  5
47FC
330
4755
100
AcDbEntity
  8
0
 62
     0
100
AcDbLine
 10
659.7036652998059
 20
621.5738222102181
 30
0.0
 11
658.0128580954319
 21
623.2646294145921
 31
0.0
  0
LINE
  5
47FD
330
4755
100
AcDbEntity
  8
0
 62
     0
100
AcDbLine
 10
584.2513938046294
 20
697.0260937053947
 30
0.0
 11
582.5605866002556
 21
698.7169009097682
 31
0.0
  0
LINE
  5
47FE
330
4755
100
AcDbEntity
  8
0
 62
     0
100
AcDbLine
 10
662.6885221431917
 20
621.4173924915784
 30
0.0
 11
660.9977149388178
 21
623.1081996959524
 31
0.0
  0
LINE
  5
47FF
330
4755
100
AcDbEntity
  8
0
 62
     0
100
AcDbLine
 10
587.2362506480152
 20
696.8696639867551
 30
0.0
 11
585.5454434436416
 21
698.5604711911285
 31
0.0
  0
LINE
  5
4800
330
4755
100
AcDbEntity
  8
0
 62
     0
100
AcDbLine
 10
665.6733789865776
 20
621.2609627729388
 30
0.0
 11
663.9825717822036
 21
622.9517699773127
 31
0.0
  0
LINE
  5
4801
330
4755
100
AcDbEntity
  8
0
 62
     0
100
AcDbLine
 10
590.2211074914011
 20
696.7132342681154
 30
0.0
 11
588.5303002870274
 21
698.404041472489
 31
0.0
  0
LINE
  5
4802
330
4755
100
AcDbEntity
  8
0
 62
     0
100
AcDbLine
 10
668.6582358299634
 20
621.1045330542991
 30
0.0
 11
666.9674286255895
 21
622.7953402586731
 31
0.0
  0
LINE
  5
4803
330
4755
100
AcDbEntity
  8
0
 62
     0
100
AcDbLine
 10
593.2059643347868
 20
696.5568045494758
 30
0.0
 11
591.5151571304132
 21
698.2476117538492
 31
0.0
  0
LINE
  5
4804
330
4755
100
AcDbEntity
  8
0
 62
     0
100
AcDbLine
 10
671.6430926733493
 20
620.9481033356594
 30
0.0
 11
669.9522854689753
 21
622.6389105400333
 31
0.0
  0
LINE
  5
4805
330
4755
100
AcDbEntity
  8
0
 62
     0
100
AcDbLine
 10
596.1908211781727
 20
696.400374830836
 30
0.0
 11
594.5000139737991
 21
698.0911820352096
 31
0.0
  0
LINE
  5
4806
330
4755
100
AcDbEntity
  8
0
 62
     0
100
AcDbLine
 10
674.6279495167351
 20
620.7916736170197
 30
0.0
 11
672.9371423123612
 21
622.4824808213938
 31
0.0
  0
LINE
  5
4807
330
4755
100
AcDbEntity
  8
0
 62
     0
100
AcDbLine
 10
599.1756780215585
 20
696.2439451121964
 30
0.0
 11
597.4848708171849
 21
697.9347523165699
 31
0.0
  0
LINE
  5
4808
330
4755
100
AcDbEntity
  8
0
 62
     0
100
AcDbLine
 10
677.6128063601211
 20
620.63524389838
 30
0.0
 11
675.9219991557471
 21
622.3260511027541
 31
0.0
  0
LINE
  5
4809
330
4755
100
AcDbEntity
  8
0
 62
     0
100
AcDbLine
 10
602.1605348649444
 20
696.0875153935567
 30
0.0
 11
600.4697276605708
 21
697.7783225979303
 31
0.0
  0
LINE
  5
480A
330
4755
100
AcDbEntity
  8
0
 62
     0
100
AcDbLine
 10
680.5976632035069
 20
620.4788141797404
 30
0.0
 11
678.906855999133
 21
622.1696213841144
 31
0.0
  0
LINE
  5
480B
330
4755
100
AcDbEntity
  8
0
 62
     0
100
AcDbLine
 10
605.1453917083303
 20
695.931085674917
 30
0.0
 11
603.4545845039566
 21
697.6218928792907
 31
0.0
  0
LINE
  5
480C
330
4755
100
AcDbEntity
  8
0
 62
     0
100
AcDbLine
 10
683.5825200468928
 20
620.3223844611008
 30
0.0
 11
681.8917128425188
 21
622.0131916654747
 31
0.0
  0
LINE
  5
480D
330
4755
100
AcDbEntity
  8
0
 62
     0
100
AcDbLine
 10
608.1302485517161
 20
695.7746559562774
 30
0.0
 11
606.4394413473425
 21
697.465463160651
 31
0.0
  0
LINE
  5
480E
330
4755
100
AcDbEntity
  8
0
 62
     0
100
AcDbLine
 10
686.5673768902786
 20
620.165954742461
 30
0.0
 11
684.8765696859047
 21
621.856761946835
 31
0.0
  0
LINE
  5
480F
330
4755
100
AcDbEntity
  8
0
 62
     0
100
AcDbLine
 10
611.115105395102
 20
695.6182262376378
 30
0.0
 11
609.4242981907283
 21
697.3090334420113
 31
0.0
  0
LINE
  5
4810
330
4755
100
AcDbEntity
  8
0
 62
     0
100
AcDbLine
 10
689.5522337336644
 20
620.0095250238214
 30
0.0
 11
687.8614265292904
 21
621.7003322281954
 31
0.0
  0
LINE
  5
4811
330
4755
100
AcDbEntity
  8
0
 62
     0
100
AcDbLine
 10
614.0999622384879
 20
695.4617965189981
 30
0.0
 11
612.4091550341141
 21
697.1526037233717
 31
0.0
  0
LINE
  5
4812
330
4755
100
AcDbEntity
  8
0
 62
     0
100
AcDbLine
 10
692.5370905770503
 20
619.8530953051817
 30
0.0
 11
690.8462833726763
 21
621.5439025095557
 31
0.0
  0
LINE
  5
4813
330
4755
100
AcDbEntity
  8
0
 62
     0
100
AcDbLine
 10
617.0848190818738
 20
695.3053668003584
 30
0.0
 11
615.3940118775
 21
696.996174004732
 31
0.0
  0
LINE
  5
4814
330
4755
100
AcDbEntity
  8
0
 62
     0
100
AcDbLine
 10
695.5219474204362
 20
619.696665586542
 30
0.0
 11
693.8311402160621
 21
621.387472790916
 31
0.0
  0
LINE
  5
4815
330
4755
100
AcDbEntity
  8
0
 62
     0
100
AcDbLine
 10
620.0696759252596
 20
695.1489370817188
 30
0.0
 11
618.3788687208858
 21
696.8397442860923
 31
0.0
  0
LINE
  5
4816
330
4755
100
AcDbEntity
  8
0
 62
     0
100
AcDbLine
 10
698.5068042638221
 20
619.5402358679024
 30
0.0
 11
696.8159970594481
 21
621.2310430722764
 31
0.0
  0
LINE
  5
4817
330
4755
100
AcDbEntity
  8
0
 62
     0
100
AcDbLine
 10
623.0545327686455
 20
694.9925073630792
 30
0.0
 11
621.3637255642717
 21
696.6833145674527
 31
0.0
  0
LINE
  5
4818
330
4755
100
AcDbEntity
  8
0
 62
     0
100
AcDbLine
 10
701.4916611072079
 20
619.3838061492628
 30
0.0
 11
699.8008539028339
 21
621.0746133536368
 31
0.0
  0
LINE
  5
4819
330
4755
100
AcDbEntity
  8
0
 62
     0
100
AcDbLine
 10
626.0393896120312
 20
694.8360776444395
 30
0.0
 11
624.3485824076575
 21
696.5268848488131
 31
0.0
  0
LINE
  5
481A
330
4755
100
AcDbEntity
  8
0
 62
     0
100
AcDbLine
 10
704.4765179505938
 20
619.227376430623
 30
0.0
 11
702.7857107462198
 21
620.918183634997
 31
0.0
  0
LINE
  5
481B
330
4755
100
AcDbEntity
  8
0
 62
     0
100
AcDbLine
 10
629.0242464554171
 20
694.6796479257998
 30
0.0
 11
627.3334392510434
 21
696.3704551301734
 31
0.0
  0
LINE
  5
481C
330
4755
100
AcDbEntity
  8
0
 62
     0
100
AcDbLine
 10
707.4613747939796
 20
619.0709467119834
 30
0.0
 11
705.7705675896056
 21
620.7617539163574
 31
0.0
  0
LINE
  5
481D
330
4755
100
AcDbEntity
  8
0
 62
     0
100
AcDbLine
 10
632.0091032988029
 20
694.5232182071602
 30
0.0
 11
630.3182960944292
 21
696.2140254115338
 31
0.0
  0
LINE
  5
481E
330
4755
100
AcDbEntity
  8
0
 62
     0
100
AcDbLine
 10
710.4462316373655
 20
618.9145169933437
 30
0.0
 11
708.7554244329915
 21
620.6053241977177
 31
0.0
  0
LINE
  5
481F
330
4755
100
AcDbEntity
  8
0
 62
     0
100
AcDbLine
 10
634.9939601421888
 20
694.3667884885205
 30
0.0
 11
633.3031529378151
 21
696.057595692894
 31
0.0
  0
LINE
  5
4820
330
4755
100
AcDbEntity
  8
0
 62
     0
100
AcDbLine
 10
713.4310884807514
 20
618.758087274704
 30
0.0
 11
711.7402812763773
 21
620.448894479078
 31
0.0
  0
LINE
  5
4821
330
4755
100
AcDbEntity
  8
0
 62
     0
100
AcDbLine
 10
637.9788169855746
 20
694.2103587698809
 30
0.0
 11
636.2880097812009
 21
695.9011659742544
 31
0.0
  0
LINE
  5
4822
330
4755
100
AcDbEntity
  8
0
 62
     0
100
AcDbLine
 10
716.4159453241373
 20
618.6016575560643
 30
0.0
 11
714.7251381197633
 21
620.2924647604383
 31
0.0
  0
LINE
  5
4823
330
4755
100
AcDbEntity
  8
0
 62
     0
100
AcDbLine
 10
640.9636738289605
 20
694.0539290512411
 30
0.0
 11
639.2728666245867
 21
695.7447362556148
 31
0.0
  0
LINE
  5
4824
330
4755
100
AcDbEntity
  8
0
 62
     0
100
AcDbLine
 10
719.4008021675231
 20
618.4452278374246
 30
0.0
 11
717.7099949631491
 21
620.1360350417988
 31
0.0
  0
LINE
  5
4825
330
4755
100
AcDbEntity
  8
0
 62
     0
100
AcDbLine
 10
643.9485306723463
 20
693.8974993326016
 30
0.0
 11
642.2577234679725
 21
695.5883065369752
 31
0.0
  0
LINE
  5
4826
330
4755
100
AcDbEntity
  8
0
 62
     0
100
AcDbLine
 10
722.385659010909
 20
618.288798118785
 30
0.0
 11
720.694851806535
 21
619.979605323159
 31
0.0
  0
LINE
  5
4827
330
4755
100
AcDbEntity
  8
0
 62
     0
100
AcDbLine
 10
646.9333875157322
 20
693.7410696139619
 30
0.0
 11
645.2425803113584
 21
695.4318768183354
 31
0.0
  0
LINE
  5
4828
330
4755
100
AcDbEntity
  8
0
 62
     0
100
AcDbLine
 10
725.3705158542948
 20
618.1323684001454
 30
0.0
 11
723.6797086499208
 21
619.8231756045194
 31
0.0
  0
LINE
  5
4829
330
4755
100
AcDbEntity
  8
0
 62
     0
100
AcDbLine
 10
649.918244359118
 20
693.5846398953222
 30
0.0
 11
648.2274371547442
 21
695.2754470996958
 31
0.0
  0
LINE
  5
482A
330
4755
100
AcDbEntity
  8
0
 62
     0
100
AcDbLine
 10
728.3553726976806
 20
617.9759386815057
 30
0.0
 11
726.6645654933066
 21
619.6667458858797
 31
0.0
  0
LINE
  5
482B
330
4755
100
AcDbEntity
  8
0
 62
     0
100
AcDbLine
 10
652.9031012025038
 20
693.4282101766825
 30
0.0
 11
651.2122939981301
 21
695.1190173810561
 31
0.0
  0
LINE
  5
482C
330
4755
100
AcDbEntity
  8
0
 62
     0
100
AcDbLine
 10
731.3402295410664
 20
617.819508962866
 30
0.0
 11
729.6494223366924
 21
619.51031616724
 31
0.0
  0
LINE
  5
482D
330
4755
100
AcDbEntity
  8
0
 62
     0
100
AcDbLine
 10
655.8879580458898
 20
693.2717804580429
 30
0.0
 11
654.1971508415159
 21
694.9625876624166
 31
0.0
  0
LINE
  5
482E
330
4755
100
AcDbEntity
  8
0
 62
     0
100
AcDbLine
 10
734.3250863844524
 20
617.6630792442264
 30
0.0
 11
732.6342791800783
 21
619.3538864486003
 31
0.0
  0
LINE
  5
482F
330
4755
100
AcDbEntity
  8
0
 62
     0
100
AcDbLine
 10
658.8728148892756
 20
693.1153507394033
 30
0.0
 11
657.1820076849018
 21
694.8061579437768
 31
0.0
  0
LINE
  5
4830
330
4755
100
AcDbEntity
  8
0
 62
     0
100
AcDbLine
 10
737.3099432278382
 20
617.5066495255866
 30
0.0
 11
735.6191360234642
 21
619.1974567299608
 31
0.0
  0
LINE
  5
4831
330
4755
100
AcDbEntity
  8
0
 62
     0
100
AcDbLine
 10
661.8576717326615
 20
692.9589210207636
 30
0.0
 11
660.1668645282877
 21
694.6497282251372
 31
0.0
  0
LINE
  5
4832
330
4755
100
AcDbEntity
  8
0
 62
     0
100
AcDbLine
 10
740.2948000712241
 20
617.3502198069471
 30
0.0
 11
738.6039928668501
 21
619.041027011321
 31
0.0
  0
LINE
  5
4833
330
4755
100
AcDbEntity
  8
0
 62
     0
100
AcDbLine
 10
664.8425285760473
 20
692.8024913021239
 30
0.0
 11
663.1517213716734
 21
694.4932985064975
 31
0.0
  0
LINE
  5
4834
330
4755
100
AcDbEntity
  8
0
 62
     0
100
AcDbLine
 10
743.2796569146098
 20
617.1937900883074
 30
0.0
 11
741.5888497102358
 21
618.8845972926814
 31
0.0
  0
LINE
  5
4835
330
4755
100
AcDbEntity
  8
0
 62
     0
100
AcDbLine
 10
667.827385419433
 20
692.6460615834843
 30
0.0
 11
666.1365782150592
 21
694.3368687878579
 31
0.0
  0
LINE
  5
4836
330
4755
100
AcDbEntity
  8
0
 62
     0
100
AcDbLine
 10
746.2645137579957
 20
617.0373603696677
 30
0.0
 11
744.5737065536217
 21
618.7281675740417
 31
0.0
  0
LINE
  5
4837
330
4755
100
AcDbEntity
  8
0
 62
     0
100
AcDbLine
 10
670.8122422628187
 20
692.4896318648446
 30
0.0
 11
669.121435058445
 21
694.1804390692183
 31
0.0
  0
LINE
  5
4838
330
4755
100
AcDbEntity
  8
0
 62
     0
100
AcDbLine
 10
749.2493706013815
 20
616.880930651028
 30
0.0
 11
747.5585633970076
 21
618.571737855402
 31
0.0
  0
LINE
  5
4839
330
4755
100
AcDbEntity
  8
0
 62
     0
100
AcDbLine
 10
673.7970991062046
 20
692.3332021462049
 30
0.0
 11
672.1062919018309
 21
694.0240093505785
 31
0.0
  0
LINE
  5
483A
330
4755
100
AcDbEntity
  8
0
 62
     0
100
AcDbLine
 10
752.2342274447673
 20
616.7245009323884
 30
0.0
 11
750.5434202403933
 21
618.4153081367623
 31
0.0
  0
LINE
  5
483B
330
4755
100
AcDbEntity
  8
0
 62
     0
100
AcDbLine
 10
676.7819559495905
 20
692.1767724275653
 30
0.0
 11
675.0911487452167
 21
693.8675796319389
 31
0.0
  0
LINE
  5
483C
330
4755
100
AcDbEntity
  8
0
 62
     0
100
AcDbLine
 10
755.2190842881532
 20
616.5680712137486
 30
0.0
 11
753.5282770837792
 21
618.2588784181227
 31
0.0
  0
LINE
  5
483D
330
4755
100
AcDbEntity
  8
0
 62
     0
100
AcDbLine
 10
679.7668127929764
 20
692.0203427089257
 30
0.0
 11
678.0760055886026
 21
693.7111499132993
 31
0.0
  0
LINE
  5
483E
330
4755
100
AcDbEntity
  8
0
 62
     0
100
AcDbLine
 10
758.203941131539
 20
616.411641495109
 30
0.0
 11
756.513133927165
 21
618.102448699483
 31
0.0
  0
LINE
  5
483F
330
4755
100
AcDbEntity
  8
0
 62
     0
100
AcDbLine
 10
682.7516696363622
 20
691.863912990286
 30
0.0
 11
681.0608624319884
 21
693.5547201946596
 31
0.0
  0
LINE
  5
4840
330
4755
100
AcDbEntity
  8
0
 62
     0
100
AcDbLine
 10
761.188797974925
 20
616.2552117764692
 30
0.0
 11
759.4979907705509
 21
617.9460189808434
 31
0.0
  0
LINE
  5
4841
330
4755
100
AcDbEntity
  8
0
 62
     0
100
AcDbLine
 10
685.7365264797481
 20
691.7074832716463
 30
0.0
 11
684.0457192753742
 21
693.39829047602
 31
0.0
  0
LINE
  5
4842
330
4755
100
AcDbEntity
  8
0
 62
     0
100
AcDbLine
 10
763.9756085877242
 20
616.2968282884162
 30
0.0
 11
762.4286541559715
 21
617.8437827201689
 31
0.0
  0
LINE
  5
4843
330
4755
100
AcDbEntity
  8
0
 62
     0
100
AcDbLine
 10
688.7213833231339
 20
691.5510535530066
 30
0.0
 11
687.0305761187601
 21
693.2418607573803
 31
0.0
  0
LINE
  5
4844
330
4755
100
AcDbEntity
  8
0
 62
     0
100
AcDbLine
 10
766.7085976320308
 20
616.3922663688558
 30
0.0
 11
765.1616432002781
 21
617.9392208006086
 31
0.0
  0
LINE
  5
4845
330
4755
100
AcDbEntity
  8
0
 62
     0
100
AcDbLine
 10
691.7062401665198
 20
691.394623834367
 30
0.0
 11
690.0154329621459
 21
693.0854310387407
 31
0.0
  0
LINE
  5
4846
330
4755
100
AcDbEntity
  8
0
 62
     0
100
AcDbLine
 10
769.4415866763373
 20
616.4877044492956
 30
0.0
 11
767.8946322445847
 21
618.0346588810482
 31
0.0
  0
LINE
  5
4847
330
4755
100
AcDbEntity
  8
0
 62
     0
100
AcDbLine
 10
694.6910970099057
 20
691.2381941157272
 30
0.0
 11
693.0002898055318
 21
692.929001320101
 31
0.0
  0
LINE
  5
4848
330
4755
100
AcDbEntity
  8
0
 62
     0
100
AcDbLine
 10
771.8085233589091
 20
616.9491948914699
 30
0.0
 11
770.6276212888911
 21
618.1300969614879
 31
0.0
  0
LINE
  5
4849
330
4755
100
AcDbEntity
  8
0
 62
     0
100
AcDbLine
 10
697.6759538532915
 20
691.0817643970877
 30
0.0
 11
695.9851466489176
 21
692.7725716014614
 31
0.0
  0
LINE
  5
484A
330
4755
100
AcDbEntity
  8
0
 62
     0
100
AcDbLine
 10
700.6608106966773
 20
690.925334678448
 30
0.0
 11
698.9700034923035
 21
692.6161418828217
 31
0.0
  0
LINE
  5
484B
330
4755
100
AcDbEntity
  8
0
 62
     0
100
AcDbLine
 10
703.6456675400631
 20
690.7689049598084
 30
0.0
 11
701.9548603356893
 21
692.459712164182
 31
0.0
  0
LINE
  5
484C
330
4755
100
AcDbEntity
  8
0
 62
     0
100
AcDbLine
 10
706.630524383449
 20
690.6124752411686
 30
0.0
 11
704.9397171790751
 21
692.3032824455424
 31
0.0
  0
LINE
  5
484D
330
4755
100
AcDbEntity
  8
0
 62
     0
100
AcDbLine
 10
709.6153812268348
 20
690.456045522529
 30
0.0
 11
707.9245740224609
 21
692.1468527269028
 31
0.0
  0
LINE
  5
484E
330
4755
100
AcDbEntity
  8
0
 62
     0
100
AcDbLine
 10
712.6002380702207
 20
690.2996158038894
 30
0.0
 11
710.9094308658468
 21
691.9904230082631
 31
0.0
  0
LINE
  5
484F
330
4755
100
AcDbEntity
  8
0
 62
     0
100
AcDbLine
 10
715.5850949136065
 20
690.1431860852498
 30
0.0
 11
713.8942877092326
 21
691.8339932896234
 31
0.0
  0
LINE
  5
4850
330
4755
100
AcDbEntity
  8
0
 62
     0
100
AcDbLine
 10
718.5699517569925
 20
689.98675636661
 30
0.0
 11
716.8791445526185
 21
691.6775635709837
 31
0.0
  0
LINE
  5
4851
330
4755
100
AcDbEntity
  8
0
 62
     0
100
AcDbLine
 10
721.5548086003783
 20
689.8303266479704
 30
0.0
 11
719.8640013960043
 21
691.5211338523441
 31
0.0
  0
LINE
  5
4852
330
4755
100
AcDbEntity
  8
0
 62
     0
100
AcDbLine
 10
724.5396654437642
 20
689.6738969293307
 30
0.0
 11
722.8488582393902
 21
691.3647041337045
 31
0.0
  0
LINE
  5
4853
330
4755
100
AcDbEntity
  8
0
 62
     0
100
AcDbLine
 10
727.52452228715
 20
689.5174672106911
 30
0.0
 11
725.833715082776
 21
691.2082744150648
 31
0.0
  0
LINE
  5
4854
330
4755
100
AcDbEntity
  8
0
 62
     0
100
AcDbLine
 10
730.5093791305359
 20
689.3610374920513
 30
0.0
 11
728.8185719261619
 21
691.0518446964251
 31
0.0
  0
LINE
  5
4855
330
4755
100
AcDbEntity
  8
0
 62
     0
100
AcDbLine
 10
733.4942359739216
 20
689.2046077734118
 30
0.0
 11
731.8034287695477
 21
690.8954149777855
 31
0.0
  0
LINE
  5
4856
330
4755
100
AcDbEntity
  8
0
 62
     0
100
AcDbLine
 10
736.4790928173075
 20
689.0481780547721
 30
0.0
 11
734.7882856129335
 21
690.7389852591458
 31
0.0
  0
LINE
  5
4857
330
4755
100
AcDbEntity
  8
0
 62
     0
100
AcDbLine
 10
739.4639496606933
 20
688.8917483361324
 30
0.0
 11
737.7731424563194
 21
690.5825555405061
 31
0.0
  0
LINE
  5
4858
330
4755
100
AcDbEntity
  8
0
 62
     0
100
AcDbLine
 10
742.4488065040792
 20
688.7353186174927
 30
0.0
 11
740.7579992997052
 21
690.4261258218665
 31
0.0
  0
LINE
  5
4859
330
4755
100
AcDbEntity
  8
0
 62
     0
100
AcDbLine
 10
745.4336633474651
 20
688.5788888988531
 30
0.0
 11
743.7428561430911
 21
690.2696961032269
 31
0.0
  0
LINE
  5
485A
330
4755
100
AcDbEntity
  8
0
 62
     0
100
AcDbLine
 10
748.4185201908509
 20
688.4224591802135
 30
0.0
 11
746.7277129864769
 21
690.1132663845872
 31
0.0
  0
LINE
  5
485B
330
4755
100
AcDbEntity
  8
0
 62
     0
100
AcDbLine
 10
751.4033770342368
 20
688.2660294615738
 30
0.0
 11
749.7125698298629
 21
689.9568366659475
 31
0.0
  0
LINE
  5
485C
330
4755
100
AcDbEntity
  8
0
 62
     0
100
AcDbLine
 10
754.3882338776226
 20
688.1095997429341
 30
0.0
 11
752.6974266732487
 21
689.8004069473079
 31
0.0
  0
LINE
  5
485D
330
4755
100
AcDbEntity
  8
0
 62
     0
100
AcDbLine
 10
757.3730907210084
 20
687.9531700242945
 30
0.0
 11
755.6822835166346
 21
689.6439772286683
 31
0.0
  0
LINE
  5
485E
330
4755
100
AcDbEntity
  8
0
 62
     0
100
AcDbLine
 10
760.3579475643944
 20
687.7967403056548
 30
0.0
 11
758.6671403600204
 21
689.4875475100286
 31
0.0
  0
LINE
  5
485F
330
4755
100
AcDbEntity
  8
0
 62
     0
100
AcDbLine
 10
763.3428044077803
 20
687.6403105870151
 30
0.0
 11
761.6519972034062
 21
689.331117791389
 31
0.0
  0
LINE
  5
4860
330
4755
100
AcDbEntity
  8
0
 62
     0
100
AcDbLine
 10
766.4131840574289
 20
687.3983580621125
 30
0.0
 11
764.636854046792
 21
689.1746880727493
 31
0.0
  0
LINE
  5
4861
330
4755
100
AcDbEntity
  8
0
 62
     0
100
AcDbLine
 10
769.7041224044145
 20
686.935846839873
 30
0.0
 11
767.8241911857279
 21
688.8157780585599
 31
0.0
  0
LINE
  5
4862
330
4755
100
AcDbEntity
  8
0
 62
     0
100
AcDbLine
 10
772.9950607514003
 20
686.4733356176335
 30
0.0
 11
771.1151295327136
 21
688.3532668363204
 31
0.0
  0
LINE
  5
4863
330
4755
100
AcDbEntity
  8
0
 62
     0
100
AcDbLine
 10
775.4706220930091
 20
686.826201400771
 30
0.0
 11
774.4060678796992
 21
687.8907556140809
 31
0.0
  0
ENDBLK
  5
4864
330
4755
100
AcDbEntity
  8
0
100
AcDbBlockEnd
  0
BLOCK
  5
4899
330
4898
100
AcDbEntity
  8
0
100
AcDbBlockBegin
  2
*X11
 70
     1
 10
0.0
 20
0.0
 30
0.0
  3
*X11
  1

  0
LINE
  5
489A
330
4898
100
AcDbEntity
  8
0
 62
     0
100
AcDbLine
 10
214.8225376221863
 20
308.1606327388105
 30
0.0
 11
216.8225376221863
 21
310.1606327388105
 31
0.0
  0
LINE
  5
489B
330
4898
100
AcDbEntity
  8
0
 62
     0
100
AcDbLine
 10
211.9941104974401
 20
308.1606327388105
 30
0.0
 11
213.9941104974401
 21
310.1606327388105
 31
0.0
  0
LINE
  5
489C
330
4898
100
AcDbEntity
  8
0
 62
     0
100
AcDbLine
 10
209.1656833726939
 20
308.1606327388105
 30
0.0
 11
211.1656833726939
 21
310.1606327388105
 31
0.0
  0
LINE
  5
489D
330
4898
100
AcDbEntity
  8
0
 62
     0
100
AcDbLine
 10
206.3372562479476
 20
308.1606327388105
 30
0.0
 11
208.3372562479476
 21
310.1606327388105
 31
0.0
  0
LINE
  5
489E
330
4898
100
AcDbEntity
  8
0
 62
     0
100
AcDbLine
 10
203.5088291232015
 20
308.1606327388105
 30
0.0
 11
205.5088291232015
 21
310.1606327388105
 31
0.0
  0
LINE
  5
489F
330
4898
100
AcDbEntity
  8
0
 62
     0
100
AcDbLine
 10
200.6804019984553
 20
308.1606327388105
 30
0.0
 11
202.6804019984553
 21
310.1606327388105
 31
0.0
  0
LINE
  5
48A0
330
4898
100
AcDbEntity
  8
0
 62
     0
100
AcDbLine
 10
197.8519748737091
 20
308.1606327388105
 30
0.0
 11
199.8519748737091
 21
310.1606327388105
 31
0.0
  0
LINE
  5
48A1
330
4898
100
AcDbEntity
  8
0
 62
     0
100
AcDbLine
 10
195.0235477489629
 20
308.1606327388105
 30
0.0
 11
197.0235477489629
 21
310.1606327388105
 31
0.0
  0
LINE
  5
48A2
330
4898
100
AcDbEntity
  8
0
 62
     0
100
AcDbLine
 10
192.1951206242167
 20
308.1606327388105
 30
0.0
 11
194.1951206242167
 21
310.1606327388105
 31
0.0
  0
LINE
  5
48A3
330
4898
100
AcDbEntity
  8
0
 62
     0
100
AcDbLine
 10
189.4573750570849
 20
308.2513142964249
 30
0.0
 11
191.3666934994705
 21
310.1606327388105
 31
0.0
  0
LINE
  5
48A4
330
4898
100
AcDbEntity
  8
0
 62
     0
100
AcDbLine
 10
187.5952614307596
 20
309.2176277948458
 30
0.0
 11
189.0119021089925
 21
310.6342684730787
 31
0.0
  0
LINE
  5
48A5
330
4898
100
AcDbEntity
  8
0
 62
     0
100
AcDbLine
 10
186.4936433655436
 20
310.9444368543759
 30
0.0
 11
188.3042689796255
 21
312.7550624684578
 31
0.0
  0
LINE
  5
48A6
330
4898
100
AcDbEntity
  8
0
 62
     0
100
AcDbLine
 10
186.3042689796254
 20
313.583489593204
 30
0.0
 11
188.3042689796255
 21
315.583489593204
 31
0.0
  0
LINE
  5
48A7
330
4898
100
AcDbEntity
  8
0
 62
     0
100
AcDbLine
 10
186.3042689796254
 20
316.4119167179502
 30
0.0
 11
188.3042689796255
 21
318.4119167179502
 31
0.0
  0
LINE
  5
48A8
330
4898
100
AcDbEntity
  8
0
 62
     0
100
AcDbLine
 10
186.3042689796254
 20
319.2403438426964
 30
0.0
 11
188.3042689796255
 21
321.2403438426964
 31
0.0
  0
LINE
  5
48A9
330
4898
100
AcDbEntity
  8
0
 62
     0
100
AcDbLine
 10
186.3042689796254
 20
322.0687709674426
 30
0.0
 11
188.3042689796255
 21
324.0687709674426
 31
0.0
  0
LINE
  5
48AA
330
4898
100
AcDbEntity
  8
0
 62
     0
100
AcDbLine
 10
186.3042689796254
 20
324.8971980921888
 30
0.0
 11
188.3042689796255
 21
326.8971980921888
 31
0.0
  0
LINE
  5
48AB
330
4898
100
AcDbEntity
  8
0
 62
     0
100
AcDbLine
 10
186.3042689796254
 20
327.7256252169349
 30
0.0
 11
188.3042689796255
 21
329.7256252169349
 31
0.0
  0
LINE
  5
48AC
330
4898
100
AcDbEntity
  8
0
 62
     0
100
AcDbLine
 10
186.3042689796254
 20
330.5540523416811
 30
0.0
 11
188.3042689796255
 21
332.5540523416811
 31
0.0
  0
LINE
  5
48AD
330
4898
100
AcDbEntity
  8
0
 62
     0
100
AcDbLine
 10
186.3042689796254
 20
333.3824794664273
 30
0.0
 11
188.3042689796255
 21
335.3824794664273
 31
0.0
  0
LINE
  5
48AE
330
4898
100
AcDbEntity
  8
0
 62
     0
100
AcDbLine
 10
186.3042689796254
 20
336.2109065911735
 30
0.0
 11
188.3042689796255
 21
338.2109065911735
 31
0.0
  0
LINE
  5
48AF
330
4898
100
AcDbEntity
  8
0
 62
     0
100
AcDbLine
 10
186.3042689796254
 20
339.0393337159197
 30
0.0
 11
188.3042689796255
 21
341.0393337159197
 31
0.0
  0
LINE
  5
48B0
330
4898
100
AcDbEntity
  8
0
 62
     0
100
AcDbLine
 10
186.3042689796254
 20
341.8677608406659
 30
0.0
 11
188.3042689796255
 21
343.8677608406659
 31
0.0
  0
LINE
  5
48B1
330
4898
100
AcDbEntity
  8
0
 62
     0
100
AcDbLine
 10
186.3042689796254
 20
344.6961879654121
 30
0.0
 11
188.3042689796255
 21
346.6961879654121
 31
0.0
  0
LINE
  5
48B2
330
4898
100
AcDbEntity
  8
0
 62
     0
100
AcDbLine
 10
186.3042689796254
 20
347.5246150901583
 30
0.0
 11
188.3042689796255
 21
349.5246150901583
 31
0.0
  0
LINE
  5
48B3
330
4898
100
AcDbEntity
  8
0
 62
     0
100
AcDbLine
 10
186.3042689796254
 20
350.3530422149045
 30
0.0
 11
188.3042689796255
 21
352.3530422149045
 31
0.0
  0
LINE
  5
48B4
330
4898
100
AcDbEntity
  8
0
 62
     0
100
AcDbLine
 10
186.3042689796254
 20
353.1814693396507
 30
0.0
 11
188.3042689796255
 21
355.1814693396507
 31
0.0
  0
LINE
  5
48B5
330
4898
100
AcDbEntity
  8
0
 62
     0
100
AcDbLine
 10
186.3042689796254
 20
356.0098964643968
 30
0.0
 11
188.3042689796255
 21
358.0098964643968
 31
0.0
  0
LINE
  5
48B6
330
4898
100
AcDbEntity
  8
0
 62
     0
100
AcDbLine
 10
217.6509647469324
 20
308.1606327388105
 30
0.0
 11
219.6509647469324
 21
310.1606327388105
 31
0.0
  0
LINE
  5
48B7
330
4898
100
AcDbEntity
  8
0
 62
     0
100
AcDbLine
 10
220.4793918716786
 20
308.1606327388105
 30
0.0
 11
222.4793918716786
 21
310.1606327388105
 31
0.0
  0
LINE
  5
48B8
330
4898
100
AcDbEntity
  8
0
 62
     0
100
AcDbLine
 10
223.3078189964248
 20
308.1606327388105
 30
0.0
 11
225.3078189964248
 21
310.1606327388105
 31
0.0
  0
LINE
  5
48B9
330
4898
100
AcDbEntity
  8
0
 62
     0
100
AcDbLine
 10
226.136246121171
 20
308.1606327388105
 30
0.0
 11
228.136246121171
 21
310.1606327388105
 31
0.0
  0
LINE
  5
48BA
330
4898
100
AcDbEntity
  8
0
 62
     0
100
AcDbLine
 10
228.9646732459172
 20
308.1606327388105
 30
0.0
 11
230.9646732459172
 21
310.1606327388105
 31
0.0
  0
LINE
  5
48BB
330
4898
100
AcDbEntity
  8
0
 62
     0
100
AcDbLine
 10
231.7931003706634
 20
308.1606327388105
 30
0.0
 11
233.7931003706634
 21
310.1606327388105
 31
0.0
  0
LINE
  5
48BC
330
4898
100
AcDbEntity
  8
0
 62
     0
100
AcDbLine
 10
234.6215274954096
 20
308.1606327388105
 30
0.0
 11
236.6215274954096
 21
310.1606327388105
 31
0.0
  0
LINE
  5
48BD
330
4898
100
AcDbEntity
  8
0
 62
     0
100
AcDbLine
 10
237.4499546201557
 20
308.1606327388105
 30
0.0
 11
239.4499546201557
 21
310.1606327388105
 31
0.0
  0
LINE
  5
48BE
330
4898
100
AcDbEntity
  8
0
 62
     0
100
AcDbLine
 10
388.3042689796255
 20
459.0149470982802
 30
0.0
 11
389.4499546201553
 21
460.16063273881
 31
0.0
  0
LINE
  5
48BF
330
4898
100
AcDbEntity
  8
0
 62
     0
100
AcDbLine
 10
240.2783817449019
 20
308.1606327388105
 30
0.0
 11
242.2783817449019
 21
310.1606327388105
 31
0.0
  0
LINE
  5
48C0
330
4898
100
AcDbEntity
  8
0
 62
     0
100
AcDbLine
 10
388.3042689796255
 20
456.186519973534
 30
0.0
 11
390.3042689796255
 21
458.186519973534
 31
0.0
  0
LINE
  5
48C1
330
4898
100
AcDbEntity
  8
0
 62
     0
100
AcDbLine
 10
243.1068088696481
 20
308.1606327388105
 30
0.0
 11
245.1068088696481
 21
310.1606327388105
 31
0.0
  0
LINE
  5
48C2
330
4898
100
AcDbEntity
  8
0
 62
     0
100
AcDbLine
 10
388.3042689796255
 20
453.3580928487878
 30
0.0
 11
390.3042689796255
 21
455.3580928487878
 31
0.0
  0
LINE
  5
48C3
330
4898
100
AcDbEntity
  8
0
 62
     0
100
AcDbLine
 10
245.9352359943943
 20
308.1606327388105
 30
0.0
 11
247.9352359943943
 21
310.1606327388105
 31
0.0
  0
LINE
  5
48C4
330
4898
100
AcDbEntity
  8
0
 62
     0
100
AcDbLine
 10
388.3042689796255
 20
450.5296657240416
 30
0.0
 11
390.3042689796255
 21
452.5296657240416
 31
0.0
  0
LINE
  5
48C5
330
4898
100
AcDbEntity
  8
0
 62
     0
100
AcDbLine
 10
248.7636631191405
 20
308.1606327388105
 30
0.0
 11
250.7636631191405
 21
310.1606327388105
 31
0.0
  0
LINE
  5
48C6
330
4898
100
AcDbEntity
  8
0
 62
     0
100
AcDbLine
 10
388.3042689796255
 20
447.7012385992955
 30
0.0
 11
390.3042689796255
 21
449.7012385992954
 31
0.0
  0
LINE
  5
48C7
330
4898
100
AcDbEntity
  8
0
 62
     0
100
AcDbLine
 10
251.5920902438867
 20
308.1606327388105
 30
0.0
 11
253.5920902438867
 21
310.1606327388105
 31
0.0
  0
LINE
  5
48C8
330
4898
100
AcDbEntity
  8
0
 62
     0
100
AcDbLine
 10
388.3042689796255
 20
444.8728114745493
 30
0.0
 11
390.3042689796255
 21
446.8728114745492
 31
0.0
  0
LINE
  5
48C9
330
4898
100
AcDbEntity
  8
0
 62
     0
100
AcDbLine
 10
254.4205173686329
 20
308.1606327388105
 30
0.0
 11
256.4205173686329
 21
310.1606327388105
 31
0.0
  0
LINE
  5
48CA
330
4898
100
AcDbEntity
  8
0
 62
     0
100
AcDbLine
 10
388.3042689796255
 20
442.0443843498031
 30
0.0
 11
390.3042689796255
 21
444.0443843498031
 31
0.0
  0
LINE
  5
48CB
330
4898
100
AcDbEntity
  8
0
 62
     0
100
AcDbLine
 10
257.2489444933791
 20
308.1606327388105
 30
0.0
 11
259.2489444933791
 21
310.1606327388105
 31
0.0
  0
LINE
  5
48CC
330
4898
100
AcDbEntity
  8
0
 62
     0
100
AcDbLine
 10
388.3042689796255
 20
439.2159572250569
 30
0.0
 11
390.3042689796255
 21
441.2159572250569
 31
0.0
  0
LINE
  5
48CD
330
4898
100
AcDbEntity
  8
0
 62
     0
100
AcDbLine
 10
260.0773716181253
 20
308.1606327388105
 30
0.0
 11
262.0773716181253
 21
310.1606327388105
 31
0.0
  0
LINE
  5
48CE
330
4898
100
AcDbEntity
  8
0
 62
     0
100
AcDbLine
 10
388.3042689796255
 20
436.3875301003107
 30
0.0
 11
390.3042689796255
 21
438.3875301003107
 31
0.0
  0
LINE
  5
48CF
330
4898
100
AcDbEntity
  8
0
 62
     0
100
AcDbLine
 10
262.9057987428715
 20
308.1606327388105
 30
0.0
 11
264.9057987428715
 21
310.1606327388105
 31
0.0
  0
LINE
  5
48D0
330
4898
100
AcDbEntity
  8
0
 62
     0
100
AcDbLine
 10
388.3042689796255
 20
433.5591029755645
 30
0.0
 11
390.3042689796255
 21
435.5591029755645
 31
0.0
  0
LINE
  5
48D1
330
4898
100
AcDbEntity
  8
0
 62
     0
100
AcDbLine
 10
265.7342258676177
 20
308.1606327388105
 30
0.0
 11
267.7342258676177
 21
310.1606327388105
 31
0.0
  0
LINE
  5
48D2
330
4898
100
AcDbEntity
  8
0
 62
     0
100
AcDbLine
 10
388.3042689796255
 20
430.7306758508183
 30
0.0
 11
390.3042689796255
 21
432.7306758508183
 31
0.0
  0
LINE
  5
48D3
330
4898
100
AcDbEntity
  8
0
 62
     0
100
AcDbLine
 10
268.5626529923638
 20
308.1606327388105
 30
0.0
 11
270.5626529923638
 21
310.1606327388105
 31
0.0
  0
LINE
  5
48D4
330
4898
100
AcDbEntity
  8
0
 62
     0
100
AcDbLine
 10
388.3042689796255
 20
427.902248726072
 30
0.0
 11
390.3042689796255
 21
429.9022487260721
 31
0.0
  0
LINE
  5
48D5
330
4898
100
AcDbEntity
  8
0
 62
     0
100
AcDbLine
 10
271.39108011711
 20
308.1606327388105
 30
0.0
 11
273.39108011711
 21
310.1606327388105
 31
0.0
  0
LINE
  5
48D6
330
4898
100
AcDbEntity
  8
0
 62
     0
100
AcDbLine
 10
388.3042689796255
 20
425.0738216013259
 30
0.0
 11
390.3042689796255
 21
427.0738216013259
 31
0.0
  0
LINE
  5
48D7
330
4898
100
AcDbEntity
  8
0
 62
     0
100
AcDbLine
 10
274.2195072418562
 20
308.1606327388105
 30
0.0
 11
276.2195072418562
 21
310.1606327388105
 31
0.0
  0
LINE
  5
48D8
330
4898
100
AcDbEntity
  8
0
 62
     0
100
AcDbLine
 10
388.3042689796255
 20
422.2453944765797
 30
0.0
 11
390.3042689796255
 21
424.2453944765798
 31
0.0
  0
LINE
  5
48D9
330
4898
100
AcDbEntity
  8
0
 62
     0
100
AcDbLine
 10
277.0479343666024
 20
308.1606327388105
 30
0.0
 11
279.0479343666024
 21
310.1606327388105
 31
0.0
  0
LINE
  5
48DA
330
4898
100
AcDbEntity
  8
0
 62
     0
100
AcDbLine
 10
388.3042689796255
 20
419.4169673518335
 30
0.0
 11
390.3042689796255
 21
421.4169673518336
 31
0.0
  0
LINE
  5
48DB
330
4898
100
AcDbEntity
  8
0
 62
     0
100
AcDbLine
 10
279.8763614913486
 20
308.1606327388105
 30
0.0
 11
281.8763614913486
 21
310.1606327388105
 31
0.0
  0
LINE
  5
48DC
330
4898
100
AcDbEntity
  8
0
 62
     0
100
AcDbLine
 10
388.3042689796255
 20
416.5885402270873
 30
0.0
 11
390.3042689796255
 21
418.5885402270874
 31
0.0
  0
LINE
  5
48DD
330
4898
100
AcDbEntity
  8
0
 62
     0
100
AcDbLine
 10
282.7047886160948
 20
308.1606327388105
 30
0.0
 11
284.7047886160948
 21
310.1606327388105
 31
0.0
  0
LINE
  5
48DE
330
4898
100
AcDbEntity
  8
0
 62
     0
100
AcDbLine
 10
388.3042689796255
 20
413.7601131023411
 30
0.0
 11
390.3042689796255
 21
415.7601131023412
 31
0.0
  0
LINE
  5
48DF
330
4898
100
AcDbEntity
  8
0
 62
     0
100
AcDbLine
 10
285.533215740841
 20
308.1606327388105
 30
0.0
 11
287.533215740841
 21
310.1606327388105
 31
0.0
  0
LINE
  5
48E0
330
4898
100
AcDbEntity
  8
0
 62
     0
100
AcDbLine
 10
388.3042689796255
 20
410.9316859775949
 30
0.0
 11
390.3042689796255
 21
412.931685977595
 31
0.0
  0
LINE
  5
48E1
330
4898
100
AcDbEntity
  8
0
 62
     0
100
AcDbLine
 10
288.3616428655871
 20
308.1606327388105
 30
0.0
 11
290.3616428655872
 21
310.1606327388105
 31
0.0
  0
LINE
  5
48E2
330
4898
100
AcDbEntity
  8
0
 62
     0
100
AcDbLine
 10
388.3042689796255
 20
408.1032588528487
 30
0.0
 11
390.3042689796255
 21
410.1032588528488
 31
0.0
  0
LINE
  5
48E3
330
4898
100
AcDbEntity
  8
0
 62
     0
100
AcDbLine
 10
291.1900699903334
 20
308.1606327388105
 30
0.0
 11
293.1900699903334
 21
310.1606327388105
 31
0.0
  0
LINE
  5
48E4
330
4898
100
AcDbEntity
  8
0
 62
     0
100
AcDbLine
 10
388.3042689796255
 20
405.2748317281026
 30
0.0
 11
390.3042689796255
 21
407.2748317281026
 31
0.0
  0
LINE
  5
48E5
330
4898
100
AcDbEntity
  8
0
 62
     0
100
AcDbLine
 10
294.0184971150796
 20
308.1606327388105
 30
0.0
 11
296.0184971150796
 21
310.1606327388105
 31
0.0
  0
LINE
  5
48E6
330
4898
100
AcDbEntity
  8
0
 62
     0
100
AcDbLine
 10
388.3042689796255
 20
402.4464046033564
 30
0.0
 11
390.3042689796255
 21
404.4464046033564
 31
0.0
  0
LINE
  5
48E7
330
4898
100
AcDbEntity
  8
0
 62
     0
100
AcDbLine
 10
296.8469242398257
 20
308.1606327388105
 30
0.0
 11
298.8469242398257
 21
310.1606327388105
 31
0.0
  0
LINE
  5
48E8
330
4898
100
AcDbEntity
  8
0
 62
     0
100
AcDbLine
 10
388.3042689796255
 20
399.6179774786102
 30
0.0
 11
390.3042689796255
 21
401.6179774786102
 31
0.0
  0
LINE
  5
48E9
330
4898
100
AcDbEntity
  8
0
 62
     0
100
AcDbLine
 10
299.675351364572
 20
308.1606327388105
 30
0.0
 11
301.675351364572
 21
310.1606327388105
 31
0.0
  0
LINE
  5
48EA
330
4898
100
AcDbEntity
  8
0
 62
     0
100
AcDbLine
 10
388.3042689796255
 20
396.789550353864
 30
0.0
 11
390.3042689796255
 21
398.789550353864
 31
0.0
  0
LINE
  5
48EB
330
4898
100
AcDbEntity
  8
0
 62
     0
100
AcDbLine
 10
302.5037784893181
 20
308.1606327388105
 30
0.0
 11
304.5037784893181
 21
310.1606327388105
 31
0.0
  0
LINE
  5
48EC
330
4898
100
AcDbEntity
  8
0
 62
     0
100
AcDbLine
 10
388.3042689796255
 20
393.9611232291179
 30
0.0
 11
390.3042689796255
 21
395.9611232291179
 31
0.0
  0
LINE
  5
48ED
330
4898
100
AcDbEntity
  8
0
 62
     0
100
AcDbLine
 10
305.3322056140643
 20
308.1606327388105
 30
0.0
 11
307.3322056140643
 21
310.1606327388105
 31
0.0
  0
LINE
  5
48EE
330
4898
100
AcDbEntity
  8
0
 62
     0
100
AcDbLine
 10
388.3042689796255
 20
391.1326961043717
 30
0.0
 11
390.3042689796255
 21
393.1326961043717
 31
0.0
  0
LINE
  5
48EF
330
4898
100
AcDbEntity
  8
0
 62
     0
100
AcDbLine
 10
308.1606327388105
 20
308.1606327388105
 30
0.0
 11
310.1606327388105
 21
310.1606327388105
 31
0.0
  0
LINE
  5
48F0
330
4898
100
AcDbEntity
  8
0
 62
     0
100
AcDbLine
 10
388.3042689796255
 20
388.3042689796255
 30
0.0
 11
390.3042689796255
 21
390.3042689796255
 31
0.0
  0
LINE
  5
48F1
330
4898
100
AcDbEntity
  8
0
 62
     0
100
AcDbLine
 10
310.9890598635567
 20
308.1606327388105
 30
0.0
 11
312.9890598635567
 21
310.1606327388105
 31
0.0
  0
LINE
  5
48F2
330
4898
100
AcDbEntity
  8
0
 62
     0
100
AcDbLine
 10
388.3042689796255
 20
385.4758418548793
 30
0.0
 11
390.3042689796255
 21
387.4758418548793
 31
0.0
  0
LINE
  5
48F3
330
4898
100
AcDbEntity
  8
0
 62
     0
100
AcDbLine
 10
313.8174869883029
 20
308.1606327388105
 30
0.0
 11
315.8174869883029
 21
310.1606327388105
 31
0.0
  0
LINE
  5
48F4
330
4898
100
AcDbEntity
  8
0
 62
     0
100
AcDbLine
 10
388.3042689796255
 20
382.6474147301331
 30
0.0
 11
390.3042689796255
 21
384.6474147301331
 31
0.0
  0
LINE
  5
48F5
330
4898
100
AcDbEntity
  8
0
 62
     0
100
AcDbLine
 10
316.645914113049
 20
308.1606327388105
 30
0.0
 11
318.6459141130491
 21
310.1606327388105
 31
0.0
  0
LINE
  5
48F6
330
4898
100
AcDbEntity
  8
0
 62
     0
100
AcDbLine
 10
388.3042689796255
 20
379.8189876053869
 30
0.0
 11
390.3042689796255
 21
381.818987605387
 31
0.0
  0
LINE
  5
48F7
330
4898
100
AcDbEntity
  8
0
 62
     0
100
AcDbLine
 10
319.4743412377953
 20
308.1606327388105
 30
0.0
 11
321.4743412377953
 21
310.1606327388105
 31
0.0
  0
LINE
  5
48F8
330
4898
100
AcDbEntity
  8
0
 62
     0
100
AcDbLine
 10
322.3027683625415
 20
308.1606327388105
 30
0.0
 11
324.3027683625415
 21
310.1606327388105
 31
0.0
  0
LINE
  5
48F9
330
4898
100
AcDbEntity
  8
0
 62
     0
100
AcDbLine
 10
325.1311954872877
 20
308.1606327388105
 30
0.0
 11
327.1311954872877
 21
310.1606327388105
 31
0.0
  0
LINE
  5
48FA
330
4898
100
AcDbEntity
  8
0
 62
     0
100
AcDbLine
 10
327.9596226120339
 20
308.1606327388105
 30
0.0
 11
329.9596226120339
 21
310.1606327388105
 31
0.0
  0
LINE
  5
48FB
330
4898
100
AcDbEntity
  8
0
 62
     0
100
AcDbLine
 10
330.78804973678
 20
308.1606327388105
 30
0.0
 11
332.78804973678
 21
310.1606327388105
 31
0.0
  0
LINE
  5
48FC
330
4898
100
AcDbEntity
  8
0
 62
     0
100
AcDbLine
 10
333.6164768615262
 20
308.1606327388105
 30
0.0
 11
335.6164768615262
 21
310.1606327388105
 31
0.0
  0
LINE
  5
48FD
330
4898
100
AcDbEntity
  8
0
 62
     0
100
AcDbLine
 10
336.4449039862724
 20
308.1606327388105
 30
0.0
 11
338.4449039862724
 21
310.1606327388105
 31
0.0
  0
LINE
  5
48FE
330
4898
100
AcDbEntity
  8
0
 62
     0
100
AcDbLine
 10
339.2733311110186
 20
308.1606327388105
 30
0.0
 11
341.2733311110186
 21
310.1606327388105
 31
0.0
  0
LINE
  5
48FF
330
4898
100
AcDbEntity
  8
0
 62
     0
100
AcDbLine
 10
342.1017582357648
 20
308.1606327388105
 30
0.0
 11
344.1017582357648
 21
310.1606327388105
 31
0.0
  0
LINE
  5
4900
330
4898
100
AcDbEntity
  8
0
 62
     0
100
AcDbLine
 10
344.930185360511
 20
308.1606327388105
 30
0.0
 11
346.930185360511
 21
310.1606327388105
 31
0.0
  0
LINE
  5
4901
330
4898
100
AcDbEntity
  8
0
 62
     0
100
AcDbLine
 10
347.7586124852572
 20
308.1606327388105
 30
0.0
 11
349.7586124852572
 21
310.1606327388105
 31
0.0
  0
LINE
  5
4902
330
4898
100
AcDbEntity
  8
0
 62
     0
100
AcDbLine
 10
350.5870396100034
 20
308.1606327388105
 30
0.0
 11
352.5870396100034
 21
310.1606327388105
 31
0.0
  0
LINE
  5
4903
330
4898
100
AcDbEntity
  8
0
 62
     0
100
AcDbLine
 10
353.4154667347495
 20
308.1606327388105
 30
0.0
 11
355.4154667347495
 21
310.1606327388105
 31
0.0
  0
LINE
  5
4904
330
4898
100
AcDbEntity
  8
0
 62
     0
100
AcDbLine
 10
356.2438938594957
 20
308.1606327388105
 30
0.0
 11
358.2438938594957
 21
310.1606327388105
 31
0.0
  0
LINE
  5
4905
330
4898
100
AcDbEntity
  8
0
 62
     0
100
AcDbLine
 10
359.0723209842419
 20
308.1606327388105
 30
0.0
 11
361.0723209842419
 21
310.1606327388105
 31
0.0
  0
LINE
  5
4906
330
4898
100
AcDbEntity
  8
0
 62
     0
100
AcDbLine
 10
361.9007481089881
 20
308.1606327388105
 30
0.0
 11
363.9007481089881
 21
310.1606327388105
 31
0.0
  0
LINE
  5
4907
330
4898
100
AcDbEntity
  8
0
 62
     0
100
AcDbLine
 10
364.7291752337344
 20
308.1606327388105
 30
0.0
 11
366.7291752337344
 21
310.1606327388105
 31
0.0
  0
LINE
  5
4908
330
4898
100
AcDbEntity
  8
0
 62
     0
100
AcDbLine
 10
367.5576023584805
 20
308.1606327388105
 30
0.0
 11
369.5576023584805
 21
310.1606327388105
 31
0.0
  0
LINE
  5
4909
330
4898
100
AcDbEntity
  8
0
 62
     0
100
AcDbLine
 10
370.3860294832267
 20
308.1606327388105
 30
0.0
 11
372.3860294832267
 21
310.1606327388105
 31
0.0
  0
LINE
  5
490A
330
4898
100
AcDbEntity
  8
0
 62
     0
100
AcDbLine
 10
373.2144566079729
 20
308.1606327388105
 30
0.0
 11
375.2144566079729
 21
310.1606327388105
 31
0.0
  0
LINE
  5
490B
330
4898
100
AcDbEntity
  8
0
 62
     0
100
AcDbLine
 10
376.0428837327191
 20
308.1606327388105
 30
0.0
 11
378.0428837327191
 21
310.1606327388105
 31
0.0
  0
LINE
  5
490C
330
4898
100
AcDbEntity
  8
0
 62
     0
100
AcDbLine
 10
378.8713108574653
 20
308.1606327388105
 30
0.0
 11
380.8713108574653
 21
310.1606327388105
 31
0.0
  0
LINE
  5
490D
330
4898
100
AcDbEntity
  8
0
 62
     0
100
AcDbLine
 10
381.6997379822114
 20
308.1606327388105
 30
0.0
 11
383.6997379822114
 21
310.1606327388105
 31
0.0
  0
LINE
  5
490E
330
4898
100
AcDbEntity
  8
0
 62
     0
100
AcDbLine
 10
384.5281651069577
 20
308.1606327388105
 30
0.0
 11
386.5281651069577
 21
310.1606327388105
 31
0.0
  0
LINE
  5
490F
330
4898
100
AcDbEntity
  8
0
 62
     0
100
AcDbLine
 10
387.3565922317038
 20
308.1606327388105
 30
0.0
 11
389.3565922317038
 21
310.1606327388105
 31
0.0
  0
LINE
  5
4910
330
4898
100
AcDbEntity
  8
0
 62
     0
100
AcDbLine
 10
390.18501935645
 20
308.1606327388105
 30
0.0
 11
390.3042689796255
 21
308.279882361986
 31
0.0
  0
ENDBLK
  5
4911
330
4898
100
AcDbEntity
  8
0
100
AcDbBlockEnd
  0
BLOCK
  5
4913
330
4912
100
AcDbEntity
  8
0
100
AcDbBlockBegin
  2
*X12
 70
     1
 10
0.0
 20
0.0
 30
0.0
  3
*X12
  1

  0
LINE
  5
4914
330
4912
100
AcDbEntity
  8
0
 62
     0
100
AcDbLine
 10
214.2777195996324
 20
641.3702154363071
 30
0.0
 11
216.2777195996324
 21
643.3702154363071
 31
0.0
  0
LINE
  5
4915
330
4912
100
AcDbEntity
  8
0
 62
     0
100
AcDbLine
 10
211.4492924748862
 20
641.3702154363071
 30
0.0
 11
213.4492924748862
 21
643.3702154363071
 31
0.0
  0
LINE
  5
4916
330
4912
100
AcDbEntity
  8
0
 62
     0
100
AcDbLine
 10
208.62086535014
 20
641.3702154363071
 30
0.0
 11
210.62086535014
 21
643.3702154363071
 31
0.0
  0
LINE
  5
4917
330
4912
100
AcDbEntity
  8
0
 62
     0
100
AcDbLine
 10
205.7924382253938
 20
641.3702154363071
 30
0.0
 11
207.7924382253938
 21
643.3702154363071
 31
0.0
  0
LINE
  5
4918
330
4912
100
AcDbEntity
  8
0
 62
     0
100
AcDbLine
 10
202.9640111006477
 20
641.3702154363071
 30
0.0
 11
204.9640111006477
 21
643.3702154363071
 31
0.0
  0
LINE
  5
4919
330
4912
100
AcDbEntity
  8
0
 62
     0
100
AcDbLine
 10
200.1355839759014
 20
641.3702154363071
 30
0.0
 11
202.1355839759015
 21
643.3702154363071
 31
0.0
  0
LINE
  5
491A
330
4912
100
AcDbEntity
  8
0
 62
     0
100
AcDbLine
 10
197.3071568511552
 20
641.3702154363071
 30
0.0
 11
199.3071568511552
 21
643.3702154363071
 31
0.0
  0
LINE
  5
491B
330
4912
100
AcDbEntity
  8
0
 62
     0
100
AcDbLine
 10
194.478729726409
 20
641.3702154363071
 30
0.0
 11
196.478729726409
 21
643.3702154363071
 31
0.0
  0
LINE
  5
491C
330
4912
100
AcDbEntity
  8
0
 62
     0
100
AcDbLine
 10
191.6503026016629
 20
641.3702154363071
 30
0.0
 11
193.6503026016628
 21
643.3702154363071
 31
0.0
  0
LINE
  5
491D
330
4912
100
AcDbEntity
  8
0
 62
     0
100
AcDbLine
 10
189.0302053977385
 20
641.5785453571288
 30
0.0
 11
190.8218754769167
 21
643.3702154363071
 31
0.0
  0
LINE
  5
491E
330
4912
100
AcDbEntity
  8
0
 62
     0
100
AcDbLine
 10
187.3247043439106
 20
642.7014714280471
 30
0.0
 11
188.7432101912074
 21
644.1199772753439
 31
0.0
  0
LINE
  5
491F
330
4912
100
AcDbEntity
  8
0
 62
     0
100
AcDbLine
 10
186.3817148267024
 20
644.5869090355852
 30
0.0
 11
188.3042689796254
 21
646.5094631885082
 31
0.0
  0
LINE
  5
4920
330
4912
100
AcDbEntity
  8
0
 62
     0
100
AcDbLine
 10
186.3042689796254
 20
647.3378903132543
 30
0.0
 11
188.3042689796254
 21
649.3378903132543
 31
0.0
  0
LINE
  5
4921
330
4912
100
AcDbEntity
  8
0
 62
     0
100
AcDbLine
 10
186.3042689796254
 20
650.1663174380005
 30
0.0
 11
188.3042689796254
 21
652.1663174380005
 31
0.0
  0
LINE
  5
4922
330
4912
100
AcDbEntity
  8
0
 62
     0
100
AcDbLine
 10
186.3042689796254
 20
652.9947445627467
 30
0.0
 11
188.3042689796254
 21
654.9947445627467
 31
0.0
  0
LINE
  5
4923
330
4912
100
AcDbEntity
  8
0
 62
     0
100
AcDbLine
 10
186.3042689796254
 20
655.8231716874929
 30
0.0
 11
188.3042689796254
 21
657.8231716874929
 31
0.0
  0
LINE
  5
4924
330
4912
100
AcDbEntity
  8
0
 62
     0
100
AcDbLine
 10
186.3042689796254
 20
658.6515988122392
 30
0.0
 11
188.3042689796254
 21
660.6515988122391
 31
0.0
  0
LINE
  5
4925
330
4912
100
AcDbEntity
  8
0
 62
     0
100
AcDbLine
 10
186.3042689796254
 20
661.4800259369852
 30
0.0
 11
188.3042689796254
 21
663.4800259369852
 31
0.0
  0
LINE
  5
4926
330
4912
100
AcDbEntity
  8
0
 62
     0
100
AcDbLine
 10
186.3042689796254
 20
664.3084530617315
 30
0.0
 11
188.3042689796254
 21
666.3084530617314
 31
0.0
  0
LINE
  5
4927
330
4912
100
AcDbEntity
  8
0
 62
     0
100
AcDbLine
 10
186.3042689796254
 20
667.1368801864777
 30
0.0
 11
188.3042689796254
 21
669.1368801864777
 31
0.0
  0
LINE
  5
4928
330
4912
100
AcDbEntity
  8
0
 62
     0
100
AcDbLine
 10
186.3042689796254
 20
669.9653073112239
 30
0.0
 11
188.3042689796254
 21
671.9653073112239
 31
0.0
  0
LINE
  5
4929
330
4912
100
AcDbEntity
  8
0
 62
     0
100
AcDbLine
 10
186.3042689796254
 20
672.7937344359701
 30
0.0
 11
188.3042689796254
 21
674.7937344359701
 31
0.0
  0
LINE
  5
492A
330
4912
100
AcDbEntity
  8
0
 62
     0
100
AcDbLine
 10
186.3042689796254
 20
675.6221615607162
 30
0.0
 11
188.3042689796254
 21
677.6221615607162
 31
0.0
  0
LINE
  5
492B
330
4912
100
AcDbEntity
  8
0
 62
     0
100
AcDbLine
 10
186.3042689796254
 20
678.4505886854624
 30
0.0
 11
188.3042689796254
 21
680.4505886854624
 31
0.0
  0
LINE
  5
492C
330
4912
100
AcDbEntity
  8
0
 62
     0
100
AcDbLine
 10
186.3042689796254
 20
681.2790158102086
 30
0.0
 11
188.3042689796254
 21
683.2790158102086
 31
0.0
  0
LINE
  5
492D
330
4912
100
AcDbEntity
  8
0
 62
     0
100
AcDbLine
 10
186.3042689796254
 20
684.1074429349548
 30
0.0
 11
188.3042689796254
 21
686.1074429349549
 31
0.0
  0
LINE
  5
492E
330
4912
100
AcDbEntity
  8
0
 62
     0
100
AcDbLine
 10
186.3042689796254
 20
686.935870059701
 30
0.0
 11
188.3042689796254
 21
688.9358700597011
 31
0.0
  0
LINE
  5
492F
330
4912
100
AcDbEntity
  8
0
 62
     0
100
AcDbLine
 10
186.3042689796254
 20
689.7642971844471
 30
0.0
 11
187.9101872314852
 21
691.370215436307
 31
0.0
  0
LINE
  5
4930
330
4912
100
AcDbEntity
  8
0
 62
     0
100
AcDbLine
 10
217.1061467243786
 20
641.3702154363071
 30
0.0
 11
219.1061467243786
 21
643.3702154363071
 31
0.0
  0
LINE
  5
4931
330
4912
100
AcDbEntity
  8
0
 62
     0
100
AcDbLine
 10
219.9345738491248
 20
641.3702154363071
 30
0.0
 11
221.9345738491248
 21
643.3702154363071
 31
0.0
  0
LINE
  5
4932
330
4912
100
AcDbEntity
  8
0
 62
     0
100
AcDbLine
 10
222.763000973871
 20
641.3702154363071
 30
0.0
 11
224.763000973871
 21
643.3702154363071
 31
0.0
  0
LINE
  5
4933
330
4912
100
AcDbEntity
  8
0
 62
     0
100
AcDbLine
 10
225.5914280986172
 20
641.3702154363071
 30
0.0
 11
227.5914280986172
 21
643.3702154363071
 31
0.0
  0
LINE
  5
4934
330
4912
100
AcDbEntity
  8
0
 62
     0
100
AcDbLine
 10
228.4198552233633
 20
641.3702154363071
 30
0.0
 11
230.4198552233633
 21
643.3702154363071
 31
0.0
  0
LINE
  5
4935
330
4912
100
AcDbEntity
  8
0
 62
     0
100
AcDbLine
 10
231.2482823481095
 20
641.3702154363071
 30
0.0
 11
233.2482823481095
 21
643.3702154363071
 31
0.0
  0
LINE
  5
4936
330
4912
100
AcDbEntity
  8
0
 62
     0
100
AcDbLine
 10
234.0767094728557
 20
641.3702154363071
 30
0.0
 11
236.0767094728557
 21
643.3702154363071
 31
0.0
  0
LINE
  5
4937
330
4912
100
AcDbEntity
  8
0
 62
     0
100
AcDbLine
 10
236.9051365976019
 20
641.3702154363071
 30
0.0
 11
238.9051365976019
 21
643.3702154363071
 31
0.0
  0
LINE
  5
4938
330
4912
100
AcDbEntity
  8
0
 62
     0
100
AcDbLine
 10
388.3042689796255
 20
792.7693478183306
 30
0.0
 11
388.9051365976014
 21
793.3702154363065
 31
0.0
  0
LINE
  5
4939
330
4912
100
AcDbEntity
  8
0
 62
     0
100
AcDbLine
 10
239.7335637223481
 20
641.3702154363071
 30
0.0
 11
241.7335637223481
 21
643.3702154363071
 31
0.0
  0
LINE
  5
493A
330
4912
100
AcDbEntity
  8
0
 62
     0
100
AcDbLine
 10
388.3042689796255
 20
789.9409206935843
 30
0.0
 11
390.3042689796255
 21
791.9409206935844
 31
0.0
  0
LINE
  5
493B
330
4912
100
AcDbEntity
  8
0
 62
     0
100
AcDbLine
 10
242.5619908470943
 20
641.3702154363071
 30
0.0
 11
244.5619908470943
 21
643.3702154363071
 31
0.0
  0
LINE
  5
493C
330
4912
100
AcDbEntity
  8
0
 62
     0
100
AcDbLine
 10
388.3042689796255
 20
787.1124935688381
 30
0.0
 11
390.3042689796255
 21
789.1124935688383
 31
0.0
  0
LINE
  5
493D
330
4912
100
AcDbEntity
  8
0
 62
     0
100
AcDbLine
 10
245.3904179718405
 20
641.3702154363071
 30
0.0
 11
247.3904179718405
 21
643.3702154363071
 31
0.0
  0
LINE
  5
493E
330
4912
100
AcDbEntity
  8
0
 62
     0
100
AcDbLine
 10
388.3042689796255
 20
784.2840664440921
 30
0.0
 11
390.3042689796255
 21
786.2840664440921
 31
0.0
  0
LINE
  5
493F
330
4912
100
AcDbEntity
  8
0
 62
     0
100
AcDbLine
 10
248.2188450965867
 20
641.3702154363071
 30
0.0
 11
250.2188450965867
 21
643.3702154363071
 31
0.0
  0
LINE
  5
4940
330
4912
100
AcDbEntity
  8
0
 62
     0
100
AcDbLine
 10
388.3042689796255
 20
781.4556393193458
 30
0.0
 11
390.3042689796255
 21
783.4556393193459
 31
0.0
  0
LINE
  5
4941
330
4912
100
AcDbEntity
  8
0
 62
     0
100
AcDbLine
 10
251.0472722213329
 20
641.3702154363071
 30
0.0
 11
253.0472722213329
 21
643.3702154363071
 31
0.0
  0
LINE
  5
4942
330
4912
100
AcDbEntity
  8
0
 62
     0
100
AcDbLine
 10
388.3042689796255
 20
778.6272121945996
 30
0.0
 11
390.3042689796255
 21
780.6272121945997
 31
0.0
  0
LINE
  5
4943
330
4912
100
AcDbEntity
  8
0
 62
     0
100
AcDbLine
 10
253.8756993460791
 20
641.3702154363071
 30
0.0
 11
255.8756993460791
 21
643.3702154363071
 31
0.0
  0
LINE
  5
4944
330
4912
100
AcDbEntity
  8
0
 62
     0
100
AcDbLine
 10
388.3042689796255
 20
775.7987850698534
 30
0.0
 11
390.3042689796255
 21
777.7987850698535
 31
0.0
  0
LINE
  5
4945
330
4912
100
AcDbEntity
  8
0
 62
     0
100
AcDbLine
 10
256.7041264708253
 20
641.3702154363071
 30
0.0
 11
258.7041264708253
 21
643.3702154363071
 31
0.0
  0
LINE
  5
4946
330
4912
100
AcDbEntity
  8
0
 62
     0
100
AcDbLine
 10
388.3042689796255
 20
772.9703579451072
 30
0.0
 11
390.3042689796255
 21
774.9703579451074
 31
0.0
  0
LINE
  5
4947
330
4912
100
AcDbEntity
  8
0
 62
     0
100
AcDbLine
 10
259.5325535955715
 20
641.3702154363071
 30
0.0
 11
261.5325535955715
 21
643.3702154363071
 31
0.0
  0
LINE
  5
4948
330
4912
100
AcDbEntity
  8
0
 62
     0
100
AcDbLine
 10
388.3042689796255
 20
770.1419308203611
 30
0.0
 11
390.3042689796255
 21
772.1419308203611
 31
0.0
  0
LINE
  5
4949
330
4912
100
AcDbEntity
  8
0
 62
     0
100
AcDbLine
 10
262.3609807203176
 20
641.3702154363071
 30
0.0
 11
264.3609807203176
 21
643.3702154363071
 31
0.0
  0
LINE
  5
494A
330
4912
100
AcDbEntity
  8
0
 62
     0
100
AcDbLine
 10
388.3042689796255
 20
767.3135036956149
 30
0.0
 11
390.3042689796255
 21
769.3135036956149
 31
0.0
  0
LINE
  5
494B
330
4912
100
AcDbEntity
  8
0
 62
     0
100
AcDbLine
 10
265.1894078450638
 20
641.3702154363071
 30
0.0
 11
267.1894078450638
 21
643.3702154363071
 31
0.0
  0
LINE
  5
494C
330
4912
100
AcDbEntity
  8
0
 62
     0
100
AcDbLine
 10
388.3042689796255
 20
764.4850765708687
 30
0.0
 11
390.3042689796255
 21
766.4850765708687
 31
0.0
  0
LINE
  5
494D
330
4912
100
AcDbEntity
  8
0
 62
     0
100
AcDbLine
 10
268.01783496981
 20
641.3702154363071
 30
0.0
 11
270.01783496981
 21
643.3702154363071
 31
0.0
  0
LINE
  5
494E
330
4912
100
AcDbEntity
  8
0
 62
     0
100
AcDbLine
 10
388.3042689796255
 20
761.6566494461225
 30
0.0
 11
390.3042689796255
 21
763.6566494461225
 31
0.0
  0
LINE
  5
494F
330
4912
100
AcDbEntity
  8
0
 62
     0
100
AcDbLine
 10
270.8462620945562
 20
641.3702154363071
 30
0.0
 11
272.8462620945562
 21
643.3702154363071
 31
0.0
  0
LINE
  5
4950
330
4912
100
AcDbEntity
  8
0
 62
     0
100
AcDbLine
 10
388.3042689796255
 20
758.8282223213763
 30
0.0
 11
390.3042689796255
 21
760.8282223213763
 31
0.0
  0
LINE
  5
4951
330
4912
100
AcDbEntity
  8
0
 62
     0
100
AcDbLine
 10
273.6746892193024
 20
641.3702154363071
 30
0.0
 11
275.6746892193024
 21
643.3702154363071
 31
0.0
  0
LINE
  5
4952
330
4912
100
AcDbEntity
  8
0
 62
     0
100
AcDbLine
 10
388.3042689796255
 20
755.9997951966302
 30
0.0
 11
390.3042689796255
 21
757.9997951966301
 31
0.0
  0
LINE
  5
4953
330
4912
100
AcDbEntity
  8
0
 62
     0
100
AcDbLine
 10
276.5031163440486
 20
641.3702154363071
 30
0.0
 11
278.5031163440486
 21
643.3702154363071
 31
0.0
  0
LINE
  5
4954
330
4912
100
AcDbEntity
  8
0
 62
     0
100
AcDbLine
 10
388.3042689796255
 20
753.171368071884
 30
0.0
 11
390.3042689796255
 21
755.1713680718839
 31
0.0
  0
LINE
  5
4955
330
4912
100
AcDbEntity
  8
0
 62
     0
100
AcDbLine
 10
279.3315434687948
 20
641.3702154363071
 30
0.0
 11
281.3315434687948
 21
643.3702154363071
 31
0.0
  0
LINE
  5
4956
330
4912
100
AcDbEntity
  8
0
 62
     0
100
AcDbLine
 10
388.3042689796255
 20
750.3429409471378
 30
0.0
 11
390.3042689796255
 21
752.3429409471377
 31
0.0
  0
LINE
  5
4957
330
4912
100
AcDbEntity
  8
0
 62
     0
100
AcDbLine
 10
282.159970593541
 20
641.3702154363071
 30
0.0
 11
284.159970593541
 21
643.3702154363071
 31
0.0
  0
LINE
  5
4958
330
4912
100
AcDbEntity
  8
0
 62
     0
100
AcDbLine
 10
388.3042689796255
 20
747.5145138223915
 30
0.0
 11
390.3042689796255
 21
749.5145138223915
 31
0.0
  0
LINE
  5
4959
330
4912
100
AcDbEntity
  8
0
 62
     0
100
AcDbLine
 10
284.9883977182872
 20
641.3702154363071
 30
0.0
 11
286.9883977182872
 21
643.3702154363071
 31
0.0
  0
LINE
  5
495A
330
4912
100
AcDbEntity
  8
0
 62
     0
100
AcDbLine
 10
388.3042689796255
 20
744.6860866976453
 30
0.0
 11
390.3042689796255
 21
746.6860866976454
 31
0.0
  0
LINE
  5
495B
330
4912
100
AcDbEntity
  8
0
 62
     0
100
AcDbLine
 10
287.8168248430334
 20
641.3702154363071
 30
0.0
 11
289.8168248430334
 21
643.3702154363071
 31
0.0
  0
LINE
  5
495C
330
4912
100
AcDbEntity
  8
0
 62
     0
100
AcDbLine
 10
388.3042689796255
 20
741.8576595728993
 30
0.0
 11
390.3042689796255
 21
743.8576595728992
 31
0.0
  0
LINE
  5
495D
330
4912
100
AcDbEntity
  8
0
 62
     0
100
AcDbLine
 10
290.6452519677795
 20
641.3702154363071
 30
0.0
 11
292.6452519677795
 21
643.3702154363071
 31
0.0
  0
LINE
  5
495E
330
4912
100
AcDbEntity
  8
0
 62
     0
100
AcDbLine
 10
388.3042689796255
 20
739.029232448153
 30
0.0
 11
390.3042689796255
 21
741.029232448153
 31
0.0
  0
LINE
  5
495F
330
4912
100
AcDbEntity
  8
0
 62
     0
100
AcDbLine
 10
293.4736790925257
 20
641.3702154363071
 30
0.0
 11
295.4736790925257
 21
643.3702154363071
 31
0.0
  0
LINE
  5
4960
330
4912
100
AcDbEntity
  8
0
 62
     0
100
AcDbLine
 10
388.3042689796255
 20
736.2008053234068
 30
0.0
 11
390.3042689796255
 21
738.2008053234068
 31
0.0
  0
LINE
  5
4961
330
4912
100
AcDbEntity
  8
0
 62
     0
100
AcDbLine
 10
296.3021062172719
 20
641.3702154363071
 30
0.0
 11
298.3021062172719
 21
643.3702154363071
 31
0.0
  0
LINE
  5
4962
330
4912
100
AcDbEntity
  8
0
 62
     0
100
AcDbLine
 10
388.3042689796255
 20
733.3723781986606
 30
0.0
 11
390.3042689796255
 21
735.3723781986606
 31
0.0
  0
LINE
  5
4963
330
4912
100
AcDbEntity
  8
0
 62
     0
100
AcDbLine
 10
299.1305333420181
 20
641.3702154363071
 30
0.0
 11
301.1305333420181
 21
643.3702154363071
 31
0.0
  0
LINE
  5
4964
330
4912
100
AcDbEntity
  8
0
 62
     0
100
AcDbLine
 10
388.3042689796255
 20
730.5439510739144
 30
0.0
 11
390.3042689796255
 21
732.5439510739145
 31
0.0
  0
LINE
  5
4965
330
4912
100
AcDbEntity
  8
0
 62
     0
100
AcDbLine
 10
301.9589604667643
 20
641.3702154363071
 30
0.0
 11
303.9589604667643
 21
643.3702154363071
 31
0.0
  0
LINE
  5
4966
330
4912
100
AcDbEntity
  8
0
 62
     0
100
AcDbLine
 10
388.3042689796255
 20
727.7155239491682
 30
0.0
 11
390.3042689796255
 21
729.7155239491683
 31
0.0
  0
LINE
  5
4967
330
4912
100
AcDbEntity
  8
0
 62
     0
100
AcDbLine
 10
304.7873875915105
 20
641.3702154363071
 30
0.0
 11
306.7873875915105
 21
643.3702154363071
 31
0.0
  0
LINE
  5
4968
330
4912
100
AcDbEntity
  8
0
 62
     0
100
AcDbLine
 10
388.3042689796255
 20
724.887096824422
 30
0.0
 11
390.3042689796255
 21
726.8870968244221
 31
0.0
  0
LINE
  5
4969
330
4912
100
AcDbEntity
  8
0
 62
     0
100
AcDbLine
 10
307.6158147162566
 20
641.3702154363071
 30
0.0
 11
309.6158147162566
 21
643.3702154363071
 31
0.0
  0
LINE
  5
496A
330
4912
100
AcDbEntity
  8
0
 62
     0
100
AcDbLine
 10
388.3042689796255
 20
722.0586696996758
 30
0.0
 11
390.3042689796255
 21
724.058669699676
 31
0.0
  0
LINE
  5
496B
330
4912
100
AcDbEntity
  8
0
 62
     0
100
AcDbLine
 10
310.4442418410028
 20
641.3702154363071
 30
0.0
 11
312.4442418410029
 21
643.3702154363071
 31
0.0
  0
LINE
  5
496C
330
4912
100
AcDbEntity
  8
0
 62
     0
100
AcDbLine
 10
388.3042689796255
 20
719.2302425749296
 30
0.0
 11
390.3042689796255
 21
721.2302425749298
 31
0.0
  0
LINE
  5
496D
330
4912
100
AcDbEntity
  8
0
 62
     0
100
AcDbLine
 10
313.272668965749
 20
641.3702154363071
 30
0.0
 11
315.272668965749
 21
643.3702154363071
 31
0.0
  0
LINE
  5
496E
330
4912
100
AcDbEntity
  8
0
 62
     0
100
AcDbLine
 10
388.3042689796255
 20
716.4018154501835
 30
0.0
 11
390.3042689796255
 21
718.4018154501835
 31
0.0
  0
LINE
  5
496F
330
4912
100
AcDbEntity
  8
0
 62
     0
100
AcDbLine
 10
316.1010960904952
 20
641.3702154363071
 30
0.0
 11
318.1010960904952
 21
643.3702154363071
 31
0.0
  0
LINE
  5
4970
330
4912
100
AcDbEntity
  8
0
 62
     0
100
AcDbLine
 10
388.3042689796255
 20
713.5733883254373
 30
0.0
 11
390.3042689796255
 21
715.5733883254373
 31
0.0
  0
LINE
  5
4971
330
4912
100
AcDbEntity
  8
0
 62
     0
100
AcDbLine
 10
318.9295232152414
 20
641.3702154363071
 30
0.0
 11
320.9295232152414
 21
643.3702154363071
 31
0.0
  0
LINE
  5
4972
330
4912
100
AcDbEntity
  8
0
 62
     0
100
AcDbLine
 10
321.7579503399876
 20
641.3702154363071
 30
0.0
 11
323.7579503399876
 21
643.3702154363071
 31
0.0
  0
LINE
  5
4973
330
4912
100
AcDbEntity
  8
0
 62
     0
100
AcDbLine
 10
324.5863774647338
 20
641.3702154363071
 30
0.0
 11
326.5863774647338
 21
643.3702154363071
 31
0.0
  0
LINE
  5
4974
330
4912
100
AcDbEntity
  8
0
 62
     0
100
AcDbLine
 10
327.41480458948
 20
641.3702154363071
 30
0.0
 11
329.41480458948
 21
643.3702154363071
 31
0.0
  0
LINE
  5
4975
330
4912
100
AcDbEntity
  8
0
 62
     0
100
AcDbLine
 10
330.2432317142262
 20
641.3702154363071
 30
0.0
 11
332.2432317142262
 21
643.3702154363071
 31
0.0
  0
LINE
  5
4976
330
4912
100
AcDbEntity
  8
0
 62
     0
100
AcDbLine
 10
333.0716588389724
 20
641.3702154363071
 30
0.0
 11
335.0716588389724
 21
643.3702154363071
 31
0.0
  0
LINE
  5
4977
330
4912
100
AcDbEntity
  8
0
 62
     0
100
AcDbLine
 10
335.9000859637185
 20
641.3702154363071
 30
0.0
 11
337.9000859637185
 21
643.3702154363071
 31
0.0
  0
LINE
  5
4978
330
4912
100
AcDbEntity
  8
0
 62
     0
100
AcDbLine
 10
338.7285130884647
 20
641.3702154363071
 30
0.0
 11
340.7285130884647
 21
643.3702154363071
 31
0.0
  0
LINE
  5
4979
330
4912
100
AcDbEntity
  8
0
 62
     0
100
AcDbLine
 10
341.5569402132109
 20
641.3702154363071
 30
0.0
 11
343.5569402132109
 21
643.3702154363071
 31
0.0
  0
LINE
  5
497A
330
4912
100
AcDbEntity
  8
0
 62
     0
100
AcDbLine
 10
344.3853673379571
 20
641.3702154363071
 30
0.0
 11
346.3853673379571
 21
643.3702154363071
 31
0.0
  0
LINE
  5
497B
330
4912
100
AcDbEntity
  8
0
 62
     0
100
AcDbLine
 10
347.2137944627033
 20
641.3702154363071
 30
0.0
 11
349.2137944627033
 21
643.3702154363071
 31
0.0
  0
LINE
  5
497C
330
4912
100
AcDbEntity
  8
0
 62
     0
100
AcDbLine
 10
350.0422215874495
 20
641.3702154363071
 30
0.0
 11
352.0422215874495
 21
643.3702154363071
 31
0.0
  0
LINE
  5
497D
330
4912
100
AcDbEntity
  8
0
 62
     0
100
AcDbLine
 10
352.8706487121957
 20
641.3702154363071
 30
0.0
 11
354.8706487121957
 21
643.3702154363071
 31
0.0
  0
LINE
  5
497E
330
4912
100
AcDbEntity
  8
0
 62
     0
100
AcDbLine
 10
355.6990758369419
 20
641.3702154363071
 30
0.0
 11
357.6990758369419
 21
643.3702154363071
 31
0.0
  0
LINE
  5
497F
330
4912
100
AcDbEntity
  8
0
 62
     0
100
AcDbLine
 10
358.5275029616881
 20
641.3702154363071
 30
0.0
 11
360.5275029616881
 21
643.3702154363071
 31
0.0
  0
LINE
  5
4980
330
4912
100
AcDbEntity
  8
0
 62
     0
100
AcDbLine
 10
361.3559300864343
 20
641.3702154363071
 30
0.0
 11
363.3559300864343
 21
643.3702154363071
 31
0.0
  0
LINE
  5
4981
330
4912
100
AcDbEntity
  8
0
 62
     0
100
AcDbLine
 10
364.1843572111804
 20
641.3702154363071
 30
0.0
 11
366.1843572111804
 21
643.3702154363071
 31
0.0
  0
LINE
  5
4982
330
4912
100
AcDbEntity
  8
0
 62
     0
100
AcDbLine
 10
367.0127843359267
 20
641.3702154363071
 30
0.0
 11
369.0127843359267
 21
643.3702154363071
 31
0.0
  0
LINE
  5
4983
330
4912
100
AcDbEntity
  8
0
 62
     0
100
AcDbLine
 10
369.8412114606729
 20
641.3702154363071
 30
0.0
 11
371.8412114606729
 21
643.3702154363071
 31
0.0
  0
LINE
  5
4984
330
4912
100
AcDbEntity
  8
0
 62
     0
100
AcDbLine
 10
372.669638585419
 20
641.3702154363071
 30
0.0
 11
374.669638585419
 21
643.3702154363071
 31
0.0
  0
LINE
  5
4985
330
4912
100
AcDbEntity
  8
0
 62
     0
100
AcDbLine
 10
375.4980657101652
 20
641.3702154363071
 30
0.0
 11
377.4980657101652
 21
643.3702154363071
 31
0.0
  0
LINE
  5
4986
330
4912
100
AcDbEntity
  8
0
 62
     0
100
AcDbLine
 10
378.3264928349114
 20
641.3702154363071
 30
0.0
 11
380.3264928349114
 21
643.3702154363071
 31
0.0
  0
LINE
  5
4987
330
4912
100
AcDbEntity
  8
0
 62
     0
100
AcDbLine
 10
381.1549199596576
 20
641.3702154363071
 30
0.0
 11
383.1549199596576
 21
643.3702154363071
 31
0.0
  0
LINE
  5
4988
330
4912
100
AcDbEntity
  8
0
 62
     0
100
AcDbLine
 10
383.9833470844038
 20
641.3702154363071
 30
0.0
 11
385.9833470844038
 21
643.3702154363071
 31
0.0
  0
LINE
  5
4989
330
4912
100
AcDbEntity
  8
0
 62
     0
100
AcDbLine
 10
386.81177420915
 20
641.3702154363071
 30
0.0
 11
388.81177420915
 21
643.3702154363071
 31
0.0
  0
LINE
  5
498A
330
4912
100
AcDbEntity
  8
0
 62
     0
100
AcDbLine
 10
389.6402013338962
 20
641.3702154363071
 30
0.0
 11
390.3042689796255
 21
642.0342830820364
 31
0.0
  0
ENDBLK
  5
498B
330
4912
100
AcDbEntity
  8
0
100
AcDbBlockEnd
  0
BLOCK
  5
4EE1
330
4ED6
100
AcDbEntity
  8
0
100
AcDbBlockBegin
  2
*D13
 70
     1
 10
0.0
 20
0.0
 30
0.0
  3
*D13
  1

  0
LINE
  5
500E
330
4ED6
100
AcDbEntity
  8
BEM
 62
     0
370
    -2
100
AcDbLine
 10
472.5018529030334
 20
287.7126652264
 30
0.0
 11
503.9919729658651
 21
286.0623379645517
 31
0.0
  0
LINE
  5
500F
330
4ED6
100
AcDbEntity
  8
BEM
 62
     0
370
    -2
100
AcDbLine
 10
476.3223777087659
 20
360.6126212634842
 30
0.0
 11
507.8124977715976
 21
358.9622940016359
 31
0.0
  0
LINE
  5
5010
330
4ED6
100
AcDbEntity
  8
BEM
 62
     0
370
    -2
100
AcDbLine
 10
502.3610655900563
 20
293.1574166203196
 30
0.0
 11
505.4488870083881
 21
352.0765591708397
 31
0.0
  0
SOLID
  5
5011
330
4ED6
100
AcDbEntity
  8
BEM
 62
     0
100
AcDbTrace
 10
501.1959977995093
 20
293.2184752359363
 30
0.0
 11
503.5261333806034
 21
293.0963580047029
 31
0.0
 12
501.9947138963559
 22
286.1670098770376
 32
0.0
 13
501.9947138963559
 23
286.1670098770376
 33
0.0
  0
SOLID
  5
5012
330
4ED6
100
AcDbEntity
  8
BEM
 62
     0
100
AcDbTrace
 10
504.283819217841
 20
352.1376177864565
 30
0.0
 11
506.6139547989351
 21
352.015500555223
 31
0.0
 12
505.8152387020885
 22
359.0669659141218
 32
0.0
 13
505.8152387020885
 23
359.0669659141218
 33
0.0
  0
MTEXT
  5
5013
330
4ED6
100
AcDbEntity
  8
BEM
 62
     1
100
AcDbMText
 10
497.5248273239441
 20
325.0740901706637
 30
0.0
 40
7.0
 41
0.0
 71
     5
 72
     1
  1
\A1;%%c73
 11
0.0523359562429105
 21
0.9986295347545757
 31
0.0
 73
     1
 44
1.0
  0
POINT
  5
5014
330
4ED6
100
AcDbEntity
  8
DEFPOINTS
 62
     0
100
AcDbPoint
 10
470.5045938335242
 20
287.8173371388859
 30
0.0
  0
POINT
  5
5015
330
4ED6
100
AcDbEntity
  8
DEFPOINTS
 62
     0
100
AcDbPoint
 10
474.3251186392567
 20
360.7172931759701
 30
0.0
  0
POINT
  5
5016
330
4ED6
100
AcDbEntity
  8
DEFPOINTS
 62
     0
100
AcDbPoint
 10
505.8152387020885
 20
359.0669659141218
 30
0.0
  0
ENDBLK
  5
4EE2
330
4ED6
100
AcDbEntity
  8
0
100
AcDbBlockEnd
  0
BLOCK
  5
4EEE
330
4EE3
100
AcDbEntity
  8
0
100
AcDbBlockBegin
  2
*D14
 70
     1
 10
0.0
 20
0.0
 30
0.0
  3
*D14
  1

  0
LINE
  5
4FFC
330
4EE3
100
AcDbEntity
  8
BEM
 62
     0
370
    -2
100
AcDbLine
 10
559.3808560778283
 20
358.1606327388103
 30
0.0
 11
541.9962096198349
 21
358.1606327388103
 31
0.0
  0
LINE
  5
4FFD
330
4EE3
100
AcDbEntity
  8
BEM
 62
     0
370
    -2
100
AcDbLine
 10
676.3808560778287
 20
308.1606327388111
 30
0.0
 11
541.9962096198349
 21
308.1606327388111
 31
0.0
  0
LINE
  5
4FFE
330
4EE3
100
AcDbEntity
  8
BEM
 62
     0
370
    -2
100
AcDbLine
 10
543.996209619835
 20
351.1606327388102
 30
0.0
 11
543.996209619835
 21
315.1606327388111
 31
0.0
  0
SOLID
  5
4FFF
330
4EE3
100
AcDbEntity
  8
BEM
 62
     0
100
AcDbTrace
 10
542.8295429531683
 20
351.1606327388102
 30
0.0
 11
545.1628762865015
 21
351.1606327388102
 31
0.0
 12
543.996209619835
 22
358.1606327388103
 32
0.0
 13
543.996209619835
 23
358.1606327388103
 33
0.0
  0
SOLID
  5
5000
330
4EE3
100
AcDbEntity
  8
BEM
 62
     0
100
AcDbTrace
 10
542.8295429531683
 20
315.1606327388111
 30
0.0
 11
545.1628762865015
 21
315.1606327388111
 31
0.0
 12
543.996209619835
 22
308.1606327388111
 32
0.0
 13
543.996209619835
 23
308.1606327388111
 33
0.0
  0
MTEXT
  5
5001
330
4EE3
100
AcDbEntity
  8
BEM
 62
     1
100
AcDbMText
 10
537.4962096198348
 20
333.1606327388108
 30
0.0
 40
7.0
 41
0.0
 71
     5
 72
     1
  1
\A1;50
 11
0.0000000000000001
 21
1.0
 31
0.0
 73
     1
 44
1.0
  0
POINT
  5
5002
330
4EE3
100
AcDbEntity
  8
DEFPOINTS
 62
     0
100
AcDbPoint
 10
561.3808560778283
 20
358.1606327388103
 30
0.0
  0
POINT
  5
5003
330
4EE3
100
AcDbEntity
  8
DEFPOINTS
 62
     0
100
AcDbPoint
 10
678.3808560778287
 20
308.1606327388111
 30
0.0
  0
POINT
  5
5004
330
4EE3
100
AcDbEntity
  8
DEFPOINTS
 62
     0
100
AcDbPoint
 10
543.996209619835
 20
308.1606327388111
 30
0.0
  0
ENDBLK
  5
4EEF
330
4EE3
100
AcDbEntity
  8
0
100
AcDbBlockEnd
  0
BLOCK
  5
4EFB
330
4EF0
100
AcDbEntity
  8
0
100
AcDbBlockBegin
  2
*D15
 70
     1
 10
0.0
 20
0.0
 30
0.0
  3
*D15
  1

  0
LINE
  5
4FF3
330
4EF0
100
AcDbEntity
  8
BEM
 62
     0
370
    -2
100
AcDbLine
 10
579.3808560778282
 20
575.1606327388101
 30
0.0
 11
541.9962096198349
 21
575.1606327388101
 31
0.0
  0
LINE
  5
4FF4
330
4EF0
100
AcDbEntity
  8
BEM
 62
     0
370
    -2
100
AcDbLine
 10
559.3808560778283
 20
358.1606327388103
 30
0.0
 11
541.9962096198349
 21
358.1606327388103
 31
0.0
  0
LINE
  5
4FF5
330
4EF0
100
AcDbEntity
  8
BEM
 62
     0
370
    -2
100
AcDbLine
 10
543.996209619835
 20
568.1606327388101
 30
0.0
 11
543.996209619835
 21
365.1606327388102
 31
0.0
  0
SOLID
  5
4FF6
330
4EF0
100
AcDbEntity
  8
BEM
 62
     0
100
AcDbTrace
 10
542.8295429531683
 20
568.1606327388101
 30
0.0
 11
545.1628762865015
 21
568.1606327388101
 31
0.0
 12
543.996209619835
 22
575.1606327388101
 32
0.0
 13
543.996209619835
 23
575.1606327388101
 33
0.0
  0
SOLID
  5
4FF7
330
4EF0
100
AcDbEntity
  8
BEM
 62
     0
100
AcDbTrace
 10
542.8295429531683
 20
365.1606327388102
 30
0.0
 11
545.1628762865015
 21
365.1606327388102
 31
0.0
 12
543.996209619835
 22
358.1606327388103
 32
0.0
 13
543.996209619835
 23
358.1606327388103
 33
0.0
  0
MTEXT
  5
4FF8
330
4EF0
100
AcDbEntity
  8
BEM
 62
     1
100
AcDbMText
 10
537.4962096198348
 20
466.6606327388102
 30
0.0
 40
7.0
 41
0.0
 71
     5
 72
     1
  1
\A1;217
 11
0.0000000000000001
 21
1.0
 31
0.0
 73
     1
 44
1.0
  0
POINT
  5
4FF9
330
4EF0
100
AcDbEntity
  8
DEFPOINTS
 62
     0
100
AcDbPoint
 10
581.3808560778283
 20
575.1606327388101
 30
0.0
  0
POINT
  5
4FFA
330
4EF0
100
AcDbEntity
  8
DEFPOINTS
 62
     0
100
AcDbPoint
 10
561.3808560778283
 20
358.1606327388103
 30
0.0
  0
POINT
  5
4FFB
330
4EF0
100
AcDbEntity
  8
DEFPOINTS
 62
     0
100
AcDbPoint
 10
543.996209619835
 20
358.1606327388103
 30
0.0
  0
ENDBLK
  5
4EFC
330
4EF0
100
AcDbEntity
  8
0
100
AcDbBlockEnd
  0
BLOCK
  5
4F08
330
4EFD
100
AcDbEntity
  8
0
100
AcDbBlockBegin
  2
*D16
 70
     1
 10
0.0
 20
0.0
 30
0.0
  3
*D16
  1

  0
LINE
  5
506C
330
4EFD
100
AcDbEntity
  8
BEM
 62
     0
370
    -2
100
AcDbLine
 10
390.3042689796254
 20
306.0906430929166
 30
0.0
 11
390.3042689796254
 21
289.2788428047976
 31
0.0
  0
LINE
  5
506D
330
4EFD
100
AcDbEntity
  8
BEM
 62
     0
370
    -2
100
AcDbLine
 10
186.3042689796253
 20
310.1606327388105
 30
0.0
 11
186.3042689796253
 21
289.2788428047976
 31
0.0
  0
LINE
  5
506E
330
4EFD
100
AcDbEntity
  8
BEM
 62
     0
370
    -2
100
AcDbLine
 10
383.3042689796254
 20
291.2788428047976
 30
0.0
 11
193.3042689796253
 21
291.2788428047976
 31
0.0
  0
SOLID
  5
506F
330
4EFD
100
AcDbEntity
  8
BEM
 62
     0
100
AcDbTrace
 10
383.3042689796254
 20
292.4455094714643
 30
0.0
 11
383.3042689796254
 21
290.1121761381309
 31
0.0
 12
390.3042689796254
 22
291.2788428047976
 32
0.0
 13
390.3042689796254
 23
291.2788428047976
 33
0.0
  0
SOLID
  5
5070
330
4EFD
100
AcDbEntity
  8
BEM
 62
     0
100
AcDbTrace
 10
193.3042689796253
 20
292.4455094714643
 30
0.0
 11
193.3042689796253
 21
290.1121761381309
 31
0.0
 12
186.3042689796253
 22
291.2788428047976
 32
0.0
 13
186.3042689796253
 23
291.2788428047976
 33
0.0
  0
MTEXT
  5
5071
330
4EFD
100
AcDbEntity
  8
BEM
 62
     1
100
AcDbMText
 10
288.3042689796253
 20
297.7788428047976
 30
0.0
 40
7.0
 41
0.0
 71
     5
 72
     1
  1
\A1;204
 73
     1
 44
1.0
  0
POINT
  5
5072
330
4EFD
100
AcDbEntity
  8
DEFPOINTS
 62
     0
100
AcDbPoint
 10
390.3042689796254
 20
308.0906430929166
 30
0.0
  0
POINT
  5
5073
330
4EFD
100
AcDbEntity
  8
DEFPOINTS
 62
     0
100
AcDbPoint
 10
186.3042689796253
 20
312.1606327388105
 30
0.0
  0
POINT
  5
5074
330
4EFD
100
AcDbEntity
  8
DEFPOINTS
 62
     0
100
AcDbPoint
 10
186.3042689796253
 20
291.2788428047976
 30
0.0
  0
ENDBLK
  5
4F09
330
4EFD
100
AcDbEntity
  8
0
100
AcDbBlockEnd
  0
BLOCK
  5
4F15
330
4F0A
100
AcDbEntity
  8
0
100
AcDbBlockBegin
  2
*D17
 70
     1
 10
0.0
 20
0.0
 30
0.0
  3
*D17
  1

  0
LINE
  5
4FE1
330
4F0A
100
AcDbEntity
  8
BEM
 62
     0
370
    -2
100
AcDbLine
 10
280.9394361354456
 20
454.6597609253086
 30
0.0
 11
280.9394361354456
 21
565.6496067587749
 31
0.0
  0
LINE
  5
4FE2
330
4F0A
100
AcDbEntity
  8
BEM
 62
     0
370
    -2
100
AcDbLine
 10
388.3042689796253
 20
573.1606327388101
 30
0.0
 11
388.3042689796253
 21
561.6496067587749
 31
0.0
  0
LINE
  5
4FE3
330
4F0A
100
AcDbEntity
  8
BEM
 62
     0
370
    -2
100
AcDbLine
 10
287.9394361354456
 20
563.6496067587748
 30
0.0
 11
381.3042689796254
 21
563.6496067587748
 31
0.0
  0
SOLID
  5
4FE4
330
4F0A
100
AcDbEntity
  8
BEM
 62
     0
100
AcDbTrace
 10
287.9394361354456
 20
564.8162734254415
 30
0.0
 11
287.9394361354456
 21
562.4829400921083
 31
0.0
 12
280.9394361354456
 22
563.6496067587748
 32
0.0
 13
280.9394361354456
 23
563.6496067587748
 33
0.0
  0
SOLID
  5
4FE5
330
4F0A
100
AcDbEntity
  8
BEM
 62
     0
100
AcDbTrace
 10
381.3042689796254
 20
564.8162734254415
 30
0.0
 11
381.3042689796254
 21
562.4829400921083
 31
0.0
 12
388.3042689796253
 22
563.6496067587748
 32
0.0
 13
388.3042689796253
 23
563.6496067587748
 33
0.0
  0
MTEXT
  5
4FE6
330
4F0A
100
AcDbEntity
  8
BEM
 62
     1
100
AcDbMText
 10
334.6218525575355
 20
570.1496067587749
 30
0.0
 40
7.0
 41
0.0
 71
     5
 72
     1
  1
\A1;107
 73
     1
 44
1.0
  0
POINT
  5
4FE7
330
4F0A
100
AcDbEntity
  8
DEFPOINTS
 62
     0
100
AcDbPoint
 10
280.9394361354456
 20
452.6597609253086
 30
0.0
  0
POINT
  5
4FE8
330
4F0A
100
AcDbEntity
  8
DEFPOINTS
 62
     0
100
AcDbPoint
 10
388.3042689796253
 20
575.1606327388101
 30
0.0
  0
POINT
  5
4FE9
330
4F0A
100
AcDbEntity
  8
DEFPOINTS
 62
     0
100
AcDbPoint
 10
388.3042689796253
 20
563.6496067587748
 30
0.0
  0
ENDBLK
  5
4F16
330
4F0A
100
AcDbEntity
  8
0
100
AcDbBlockEnd
  0
BLOCK
  5
4F22
330
4F17
100
AcDbEntity
  8
0
100
AcDbBlockBegin
  2
*D18
 70
     1
 10
0.0
 20
0.0
 30
0.0
  3
*D18
  1

  0
LINE
  5
5063
330
4F17
100
AcDbEntity
  8
BEM
 62
     0
370
    -2
100
AcDbLine
 10
71.30426897962536
 20
360.16063273881
 30
0.0
 11
56.23055015834061
 21
360.16063273881
 31
0.0
  0
LINE
  5
5064
330
4F17
100
AcDbEntity
  8
BEM
 62
     0
370
    -2
100
AcDbLine
 10
289.3861567866998
 20
457.1597609253086
 30
0.0
 11
56.23055015834061
 21
457.1597609253087
 31
0.0
  0
LINE
  5
5065
330
4F17
100
AcDbEntity
  8
BEM
 62
     0
370
    -2
100
AcDbLine
 10
58.23055015834061
 20
367.16063273881
 30
0.0
 11
58.23055015834063
 21
450.1597609253087
 31
0.0
  0
SOLID
  5
5066
330
4F17
100
AcDbEntity
  8
BEM
 62
     0
100
AcDbTrace
 10
57.06388349167395
 20
367.16063273881
 30
0.0
 11
59.39721682500728
 21
367.16063273881
 31
0.0
 12
58.23055015834061
 22
360.16063273881
 32
0.0
 13
58.23055015834061
 23
360.16063273881
 33
0.0
  0
SOLID
  5
5067
330
4F17
100
AcDbEntity
  8
BEM
 62
     0
100
AcDbTrace
 10
57.06388349167397
 20
450.1597609253087
 30
0.0
 11
59.3972168250073
 21
450.1597609253087
 31
0.0
 12
58.23055015834063
 22
457.1597609253087
 32
0.0
 13
58.23055015834063
 23
457.1597609253087
 33
0.0
  0
MTEXT
  5
5068
330
4F17
100
AcDbEntity
  8
BEM
 62
     1
100
AcDbMText
 10
51.73055015834056
 20
408.6601968320593
 30
0.0
 40
7.0
 41
0.0
 71
     5
 72
     1
  1
\A1;97
 11
0.0000000000000001
 21
1.0
 31
0.0
 73
     1
 44
1.0
  0
POINT
  5
5069
330
4F17
100
AcDbEntity
  8
DEFPOINTS
 62
     0
100
AcDbPoint
 10
73.30426897962536
 20
360.16063273881
 30
0.0
  0
POINT
  5
506A
330
4F17
100
AcDbEntity
  8
DEFPOINTS
 62
     0
100
AcDbPoint
 10
291.3861567866998
 20
457.1597609253086
 30
0.0
  0
POINT
  5
506B
330
4F17
100
AcDbEntity
  8
DEFPOINTS
 62
     0
100
AcDbPoint
 10
58.23055015834063
 20
457.1597609253087
 30
0.0
  0
ENDBLK
  5
4F23
330
4F17
100
AcDbEntity
  8
0
100
AcDbBlockEnd
  0
BLOCK
  5
4F48
330
4F3D
100
AcDbEntity
  8
0
100
AcDbBlockBegin
  2
*D19
 70
     1
 10
0.0
 20
0.0
 30
0.0
  3
*D19
  1

  0
LINE
  5
505A
330
4F3D
100
AcDbEntity
  8
BEM
 62
     0
370
    -2
100
AcDbLine
 10
73.30426897962536
 20
356.1606327388101
 30
0.0
 11
73.30426897962536
 21
274.1883914423504
 31
0.0
  0
LINE
  5
505B
330
4F3D
100
AcDbEntity
  8
BEM
 62
     0
370
    -2
100
AcDbLine
 10
482.3313898125713
 20
321.7476116545143
 30
0.0
 11
482.3313898125713
 21
274.1883914423504
 31
0.0
  0
LINE
  5
505C
330
4F3D
100
AcDbEntity
  8
BEM
 62
     0
370
    -2
100
AcDbLine
 10
80.30426897962536
 20
276.1883914423504
 30
0.0
 11
475.3313898125712
 21
276.1883914423504
 31
0.0
  0
SOLID
  5
505D
330
4F3D
100
AcDbEntity
  8
BEM
 62
     0
100
AcDbTrace
 10
80.30426897962536
 20
277.3550581090171
 30
0.0
 11
80.30426897962536
 21
275.0217247756837
 31
0.0
 12
73.30426897962536
 22
276.1883914423504
 32
0.0
 13
73.30426897962536
 23
276.1883914423504
 33
0.0
  0
SOLID
  5
505E
330
4F3D
100
AcDbEntity
  8
BEM
 62
     0
100
AcDbTrace
 10
475.3313898125712
 20
277.3550581090171
 30
0.0
 11
475.3313898125712
 21
275.0217247756837
 31
0.0
 12
482.3313898125713
 22
276.1883914423504
 32
0.0
 13
482.3313898125713
 23
276.1883914423504
 33
0.0
  0
MTEXT
  5
505F
330
4F3D
100
AcDbEntity
  8
BEM
 62
     1
100
AcDbMText
 10
277.8178293960983
 20
282.6883914423504
 30
0.0
 40
7.0
 41
0.0
 71
     5
 72
     1
  1
\A1;717
 73
     1
 44
1.0
  0
POINT
  5
5060
330
4F3D
100
AcDbEntity
  8
DEFPOINTS
 62
     0
100
AcDbPoint
 10
73.30426897962536
 20
358.1606327388101
 30
0.0
  0
POINT
  5
5061
330
4F3D
100
AcDbEntity
  8
DEFPOINTS
 62
     0
100
AcDbPoint
 10
482.3313898125713
 20
323.7476116545143
 30
0.0
  0
POINT
  5
5062
330
4F3D
100
AcDbEntity
  8
DEFPOINTS
 62
     0
100
AcDbPoint
 10
482.3313898125713
 20
276.1883914423504
 30
0.0
  0
ENDBLK
  5
4F49
330
4F3D
100
AcDbEntity
  8
0
100
AcDbBlockEnd
  0
BLOCK
  5
4F55
330
4F4A
100
AcDbEntity
  8
0
100
AcDbBlockBegin
  2
*D20
 70
     1
 10
0.0
 20
0.0
 30
0.0
  3
*D20
  1

  0
LINE
  5
5051
330
4F4A
100
AcDbEntity
  8
BEM
 62
     0
370
    -2
100
AcDbLine
 10
62.36216020258132
 20
158.439007675562
 30
0.0
 11
62.36216020258132
 21
196.1697231535064
 31
0.0
  0
LINE
  5
5052
330
4F4A
100
AcDbEntity
  8
BEM
 62
     0
370
    -2
100
AcDbLine
 10
379.3621602025818
 20
178.4390076755618
 30
0.0
 11
379.3621602025818
 21
196.1697231535064
 31
0.0
  0
LINE
  5
5053
330
4F4A
100
AcDbEntity
  8
BEM
 62
     0
370
    -2
100
AcDbLine
 10
69.36216020258132
 20
194.1697231535064
 30
0.0
 11
372.3621602025818
 21
194.1697231535064
 31
0.0
  0
SOLID
  5
5054
330
4F4A
100
AcDbEntity
  8
BEM
 62
     0
100
AcDbTrace
 10
69.36216020258132
 20
195.3363898201731
 30
0.0
 11
69.36216020258132
 21
193.0030564868397
 31
0.0
 12
62.36216020258132
 22
194.1697231535064
 32
0.0
 13
62.36216020258132
 23
194.1697231535064
 33
0.0
  0
SOLID
  5
5055
330
4F4A
100
AcDbEntity
  8
BEM
 62
     0
100
AcDbTrace
 10
372.3621602025818
 20
195.3363898201731
 30
0.0
 11
372.3621602025818
 21
193.0030564868397
 31
0.0
 12
379.3621602025818
 22
194.1697231535064
 32
0.0
 13
379.3621602025818
 23
194.1697231535064
 33
0.0
  0
MTEXT
  5
5056
330
4F4A
100
AcDbEntity
  8
BEM
 62
     1
100
AcDbMText
 10
172.0468109781086
 20
200.6697231535064
 30
0.0
 40
7.0
 41
0.0
 71
     5
 72
     1
  1
\A1;317
 73
     1
 44
1.0
  0
POINT
  5
5057
330
4F4A
100
AcDbEntity
  8
DEFPOINTS
 62
     0
100
AcDbPoint
 10
62.36216020258132
 20
156.439007675562
 30
0.0
  0
POINT
  5
5058
330
4F4A
100
AcDbEntity
  8
DEFPOINTS
 62
     0
100
AcDbPoint
 10
379.3621602025818
 20
176.4390076755618
 30
0.0
  0
POINT
  5
5059
330
4F4A
100
AcDbEntity
  8
DEFPOINTS
 62
     0
100
AcDbPoint
 10
379.3621602025818
 20
194.1697231535064
 30
0.0
  0
ENDBLK
  5
4F56
330
4F4A
100
AcDbEntity
  8
0
100
AcDbBlockEnd
  0
BLOCK
  5
502C
330
5022
100
AcDbEntity
  8
0
100
AcDbBlockBegin
  2
*D21
 70
     1
 10
0.0
 20
0.0
 30
0.0
  3
*D21
  1

  0
LINE
  5
5037
330
5022
100
AcDbEntity
  8
BEM
 62
     0
370
    -2
100
AcDbLine
 10
390.408940892116
 20
346.7079824372436
 30
0.0
 11
393.2481009050413
 21
400.8823827221928
 31
0.0
  0
LINE
  5
5038
330
5022
100
AcDbEntity
  8
BEM
 62
     0
370
    -2
100
AcDbLine
 10
484.3008559630255
 20
361.3272644731755
 30
0.0
 11
486.1187755658884
 21
396.0152369026992
 31
0.0
  0
LINE
  5
5039
330
5022
100
AcDbEntity
  8
BEM
 62
     0
370
    -2
100
AcDbLine
 10
400.1338357358373
 20
398.5187719589831
 30
0.0
 11
479.0236969101205
 21
394.3843295268907
 31
0.0
  0
SOLID
  5
503A
330
5022
100
AcDbEntity
  8
BEM
 62
     0
100
AcDbTrace
 10
400.1948943514541
 20
399.6838397495301
 30
0.0
 11
400.0727771202205
 21
397.353704168436
 31
0.0
 12
393.1434289925554
 22
398.8851236526837
 32
0.0
 13
393.1434289925554
 23
398.8851236526837
 33
0.0
  0
SOLID
  5
503B
330
5022
100
AcDbEntity
  8
BEM
 62
     0
100
AcDbTrace
 10
479.0847555257373
 20
395.5493973174378
 30
0.0
 11
478.9626382945037
 21
393.2192617363437
 31
0.0
 12
486.0141036534026
 22
394.0179778331901
 32
0.0
 13
486.0141036534026
 23
394.0179778331901
 33
0.0
  0
MTEXT
  5
503C
330
5022
100
AcDbEntity
  8
BEM
 62
     1
100
AcDbMText
 10
439.9189500385581
 20
402.9426427188416
 30
0.0
 40
7.0
 41
0.0
 71
     5
 72
     1
  1
\A1;400
 11
0.9986295347545736
 21
-0.052335956242953
 31
0.0
 73
     1
 44
1.0
  0
POINT
  5
503D
330
5022
100
AcDbEntity
  8
DEFPOINTS
 62
     0
100
AcDbPoint
 10
390.3042689796301
 20
344.7107233677344
 30
0.0
  0
POINT
  5
503E
330
5022
100
AcDbEntity
  8
DEFPOINTS
 62
     0
100
AcDbPoint
 10
484.1961840505395
 20
359.3300054036664
 30
0.0
  0
POINT
  5
503F
330
5022
100
AcDbEntity
  8
DEFPOINTS
 62
     0
100
AcDbPoint
 10
486.0141036534026
 20
394.0179778331901
 30
0.0
  0
ENDBLK
  5
502D
330
5022
100
AcDbEntity
  8
0
100
AcDbBlockEnd
  0
BLOCK
  5
504F
330
5041
100
AcDbEntity
  8
0
100
AcDbBlockBegin
  2
*D22
 70
     1
 10
0.0
 20
0.0
 30
0.0
  3
*D22
  1

  0
ARC
  5
5042
330
5041
100
AcDbEntity
  8
BEM
 62
     0
370
    -2
100
AcDbCircle
 10
390.3042689796297
 20
344.7107233677344
 30
0.0
 40
46.23173689011123
100
AcDbArc
 50
339.5825738848983
 51
356.9999999999995
  0
LINE
  5
5043
330
5041
100
AcDbEntity
  8
BEM
 62
     0
370
    -2
100
AcDbLine
 10
433.63154001202
 20
328.5824537531027
 30
0.0
 11
429.3057119840401
 21
316.9614722165738
 31
0.0
  0
ARC
  5
5044
330
5041
100
AcDbEntity
  8
BEM
 62
     0
370
    -2
100
AcDbCircle
 10
390.3042689796297
 20
344.7107233677344
 30
0.0
 40
46.23173689011123
100
AcDbArc
 50
339.6329449647762
 51
348.3164724823879
  0
ARC
  5
5045
330
5041
100
AcDbEntity
  8
BEM
 62
     0
370
    -2
100
AcDbCircle
 10
390.3042689796297
 20
344.7107233677344
 30
0.0
 40
46.23173689011123
100
AcDbArc
 50
8.683527517611642
 51
17.36705503522328
  0
ARC
  5
5046
330
5041
100
AcDbEntity
  8
BEM
 62
     0
370
    -2
100
AcDbCircle
 10
390.3042689796297
 20
344.7107233677344
 30
0.0
 40
46.23173689011123
100
AcDbArc
 50
356.9999999999995
 51
0.0
  0
SOLID
  5
5047
330
5041
100
AcDbEntity
  8
BEM
 62
     0
100
AcDbTrace
 10
434.4210319900299
 20
335.4976158022367
 30
0.0
 11
436.7352356295193
 21
335.1994447784626
 31
0.0
 12
436.4726468810973
 22
342.2911412088178
 32
0.0
 13
436.4726468810973
 23
342.2911412088178
 33
0.0
  0
SOLID
  5
5048
330
5041
100
AcDbEntity
  8
BEM
 62
     0
100
AcDbTrace
 10
437.1693854634768
 20
351.7789580413534
 30
0.0
 11
434.8427482939929
 21
351.6023117110182
 31
0.0
 12
436.5360058697409
 22
344.7107233677344
 32
0.0
 13
436.5360058697409
 23
344.7107233677344
 33
0.0
  0
MTEXT
  5
5049
330
5041
100
AcDbEntity
  8
BEM
 62
     1
100
AcDbMText
 10
425.376982450656
 20
325.0395341285375
 30
0.0
 40
7.0
 41
0.0
 71
     5
 72
     1
  1
\A1;3°
 11
0.348857099030634
 21
0.9371759303652281
 31
0.0
 73
     1
 44
1.0
  0
POINT
  5
504A
330
5041
100
AcDbEntity
  8
DEFPOINTS
 62
     0
100
AcDbPoint
 10
436.5289645522841
 20
343.9038683052265
 30
0.0
  0
POINT
  5
504B
330
5041
100
AcDbEntity
  8
DEFPOINTS
 62
     0
100
AcDbPoint
 10
390.3042689796301
 20
344.7107233677344
 30
0.0
  0
POINT
  5
504C
330
5041
100
AcDbEntity
  8
DEFPOINTS
 62
     0
100
AcDbPoint
 10
390.3042689796292
 20
344.7107233677344
 30
0.0
  0
POINT
  5
504D
330
5041
100
AcDbEntity
  8
DEFPOINTS
 62
     0
100
AcDbPoint
 10
439.3475334306598
 20
344.7107233677344
 30
0.0
  0
POINT
  5
504E
330
5041
100
AcDbEntity
  8
DEFPOINTS
 62
     0
100
AcDbPoint
 10
468.2702687275559
 20
340.6246984613627
 30
0.0
  0
ENDBLK
  5
5050
330
5041
100
AcDbEntity
  8
0
100
AcDbBlockEnd
  0
ENDSEC
  0
SECTION
  2
ENTITIES
  0
LINE
  5
58
330
1E
100
AcDbEntity
  8
STEMPEL
100
AcDbLine
 10
830.0000000000002
 20
110.0
 30
0.0
 11
470.0000000000001
 21
110.0
 31
0.0
  0
LINE
  5
59
330
1E
100
AcDbEntity
  8
STEMPEL
100
AcDbLine
 10
470.0000000000001
 20
110.0
 30
0.0
 11
470.0000000000001
 21
10.0
 31
0.0
  0
LINE
  5
5A
330
1E
100
AcDbEntity
  8
STEMPEL
100
AcDbLine
 10
566.0000000000002
 20
109.9999999999999
 30
0.0
 11
566.0000000000001
 21
9.999999999999886
 31
0.0
  0
LINE
  5
5B
330
1E
100
AcDbEntity
  8
STEMPEL
100
AcDbLine
 10
650.0
 20
110.0
 30
0.0
 11
650.0
 21
10.0
 31
0.0
  0
LINE
  5
5C
330
1E
100
AcDbEntity
  8
STEMPEL
100
AcDbLine
 10
752.0000000000002
 20
109.9999999999997
 30
0.0
 11
752.0000000000002
 21
40.0
 31
0.0
  0
LINE
  5
5D
330
1E
100
AcDbEntity
  8
STEMPEL
100
AcDbLine
 10
566.0
 20
30.0
 30
0.0
 11
470.0000000000001
 21
30.0
 31
0.0
  0
LINE
  5
5E
330
1E
100
AcDbEntity
  8
STEMPEL
100
AcDbLine
 10
830.0000000000002
 20
40.0
 30
0.0
 11
566.0000000000001
 21
40.0
 31
0.0
  0
LINE
  5
5F
330
1E
100
AcDbEntity
  8
STEMPEL
100
AcDbLine
 10
830.0000000000002
 20
80.0
 30
0.0
 11
566.0000000000002
 21
80.0
 31
0.0
  0
LINE
  5
60
330
1E
100
AcDbEntity
  8
VOLL
100
AcDbLine
 10
484.0000000000002
 20
110.0
 30
0.0
 11
484.0000000000001
 21
9.999999999999985
 31
0.0
  0
LINE
  5
61
330
1E
100
AcDbEntity
  8
VOLL
100
AcDbLine
 10
524.0000000000001
 20
109.9999999999999
 30
0.0
 11
524.0000000000001
 21
9.999999999999943
 31
0.0
  0
LINE
  5
62
330
1E
100
AcDbEntity
  8
VOLL
100
AcDbLine
 10
544.0000000000002
 20
109.9999999999999
 30
0.0
 11
544.0000000000001
 21
9.999999999999914
 31
0.0
  0
LINE
  5
63
330
1E
100
AcDbEntity
  8
VOLL
100
AcDbLine
 10
584.0000000000002
 20
80.0
 30
0.0
 11
584.0000000000002
 21
40.0
 31
0.0
  0
LINE
  5
64
330
1E
100
AcDbEntity
  8
VOLL
100
AcDbLine
 10
610.0000000000002
 20
109.9999999999998
 30
0.0
 11
610.0000000000001
 21
40.0
 31
0.0
  0
LINE
  5
65
330
1E
100
AcDbEntity
  8
HILF
100
AcDbLine
 10
470.0000000000001
 20
100.0
 30
0.0
 11
566.0000000000002
 21
100.0
 31
0.0
  0
LINE
  5
66
330
1E
100
AcDbEntity
  8
HILF
100
AcDbLine
 10
470.0000000000001
 20
90.0
 30
0.0
 11
566.0000000000002
 21
90.0
 31
0.0
  0
LINE
  5
67
330
1E
100
AcDbEntity
  8
HILF
100
AcDbLine
 10
470.0000000000001
 20
80.0
 30
0.0
 11
566.0000000000002
 21
80.0
 31
0.0
  0
LINE
  5
68
330
1E
100
AcDbEntity
  8
HILF
100
AcDbLine
 10
470.0000000000001
 20
70.0
 30
0.0
 11
566.0000000000002
 21
70.0
 31
0.0
  0
LINE
  5
69
330
1E
100
AcDbEntity
  8
HILF
100
AcDbLine
 10
470.0000000000001
 20
60.0
 30
0.0
 11
566.0000000000002
 21
60.0
 31
0.0
  0
LINE
  5
6A
330
1E
100
AcDbEntity
  8
HILF
100
AcDbLine
 10
470.0000000000001
 20
50.0
 30
0.0
 11
566.0000000000002
 21
50.0
 31
0.0
  0
LINE
  5
6B
330
1E
100
AcDbEntity
  8
HILF
100
AcDbLine
 10
470.0000000000001
 20
40.0
 30
0.0
 11
566.0000000000002
 21
40.0
 31
0.0
  0
LINE
  5
6C
330
1E
100
AcDbEntity
  8
HILF
100
AcDbLine
 10
566.0000000000002
 20
70.0
 30
0.0
 11
650.0
 21
70.0
 31
0.0
  0
LINE
  5
6D
330
1E
100
AcDbEntity
  8
HILF
100
AcDbLine
 10
566.0000000000002
 20
60.0
 30
0.0
 11
650.0
 21
60.0
 31
0.0
  0
LINE
  5
6E
330
1E
100
AcDbEntity
  8
HILF
100
AcDbLine
 10
566.0000000000002
 20
50.0
 30
0.0
 11
650.0
 21
50.0
 31
0.0
  0
LINE
  5
6F
330
1E
100
AcDbEntity
  8
HILF
100
AcDbLine
 10
654.7736801096948
 20
84.03758247564136
 30
0.0
 11
746.6297842514811
 21
84.03758247564136
 31
0.0
  0
LINE
  5
70
330
1E
100
AcDbEntity
  8
HILF
100
AcDbLine
 10
654.7736801096948
 20
70.0
 30
0.0
 11
746.6297842514811
 21
70.0
 31
0.0
  0
LINE
  5
71
330
1E
100
AcDbEntity
  8
HILF
100
AcDbLine
 10
654.7736801096948
 20
60.0
 30
0.0
 11
746.6297842514811
 21
60.0
 31
0.0
  0
LINE
  5
72
330
1E
100
AcDbEntity
  8
HILF
100
AcDbLine
 10
654.7736801096948
 20
50.0
 30
0.0
 11
746.6297842514811
 21
50.0
 31
0.0
  0
LINE
  5
73
330
1E
100
AcDbEntity
  8
VOLL
100
AcDbLine
 10
752.0000000000002
 20
60.0
 30
0.0
 11
830.0000000000002
 21
60.0
 31
0.0
  0
LINE
  5
74
330
1E
100
AcDbEntity
  8
HILF
100
AcDbLine
 10
756.7238616296995
 20
83.77983636955823
 30
0.0
 11
824.858883932673
 21
83.77983636955823
 31
0.0
  0
LINE
  5
75
330
1E
100
AcDbEntity
  8
HILF
100
AcDbLine
 10
654.7736801096948
 20
14.89398258028305
 30
0.0
 11
824.858883932673
 21
14.89398258028305
 31
0.0
  0
TEXT
  5
76
330
1E
100
AcDbEntity
  8
TEXT
100
AcDbText
 10
492.3998239263297
 20
18.67381894984129
 30
0.0
 40
4.0
  1
Änderung
 41
0.8
  7
GREEKS
 72
     1
 11
503.1426810691868
 21
18.67381894984129
 31
0.0
100
AcDbText
  0
TEXT
  5
78
330
1E
100
AcDbEntity
  8
TEXT
100
AcDbText
 10
573.5163572150378
 20
102.4620895087088
 30
0.0
 40
5.0
  1
Maßstab
 41
0.8
  7
GREEKS
100
AcDbText
  0
TEXT
  5
79
330
1E
100
AcDbEntity
  8
TEXT
100
AcDbText
 10
654.8779403809011
 20
102.5489328011779
 30
0.0
 40
5.0
  1
Benennung
 41
0.8
  7
GREEKS
100
AcDbText
  0
TEXT
  5
7A
330
1E
100
AcDbEntity
  8
TEXT
100
AcDbText
 10
756.1787549576343
 20
102.3132034537135
 30
0.0
 40
5.0
  1
Zeichnungs Nr.
 41
0.8
  7
GREEKS
100
AcDbText
  0
TEXT
  5
7B
330
1E
100
AcDbEntity
  8
TEXT
100
AcDbText
 10
654.742238391136
 20
30.84560570193055
 30
0.0
 40
5.0
  1
Bauvorhaben
 41
0.8
  7
GREEKS
100
AcDbText
  0
TEXT
  5
7C
330
1E
100
AcDbEntity
  8
TEXT
100
AcDbText
 10
756.7238616296995
 20
73.18118237099965
 30
0.0
 40
5.0
  1
Ersatz für:
 41
0.8
  7
GREEKS
100
AcDbText
  0
TEXT
  5
7D
330
1E
100
AcDbEntity
  8
TEXT
100
AcDbText
 10
478.2664110704577
 20
13.65465846027187
 30
0.0
 40
4.0
  1
Index
 50
90.0
 41
0.8
  7
GREEKS
100
AcDbText
  0
TEXT
  5
7E
330
1E
100
AcDbEntity
  8
TEXT
100
AcDbText
 10
529.8990113186979
 20
18.67156269339808
 30
0.0
 40
4.0
  1
Tag
 41
0.8
  7
GREEKS
 72
     1
 11
533.6323446520313
 21
18.67156269339808
 31
0.0
100
AcDbText
  0
TEXT
  5
7F
330
1E
100
AcDbEntity
  8
TEXT
100
AcDbText
 10
548.9795678138293
 20
18.59324216966404
 30
0.0
 40
4.0
  1
Name
 41
0.8
  7
GREEKS
 72
     1
 11
555.3033773376388
 21
18.59324216966404
 31
0.0
100
AcDbText
  0
TEXT
  5
80
330
1E
100
AcDbEntity
  8
TEXT
100
AcDbText
 10
592.3311673153651
 20
73.31880501229919
 30
0.0
 40
4.0
  1
Tag
 41
0.8
  7
GREEKS
100
AcDbText
  0
TEXT
  5
81
330
1E
100
AcDbEntity
  8
TEXT
100
AcDbText
 10
622.4626584226296
 20
73.3096109191522
 30
0.0
 40
4.0
  1
Name
 41
0.8
  7
GREEKS
100
AcDbText
  0
TEXT
  5
82
330
1E
100
AcDbEntity
  8
TEXT
100
AcDbText
 10
567.5836127167616
 20
63.62990369617961
 30
0.0
 40
4.0
  1
Gez.
 41
0.8
  7
GREEKS
100
AcDbText
  0
TEXT
  5
83
330
1E
100
AcDbEntity
  8
TEXT
100
AcDbText
 10
567.5515086571673
 20
53.68926291428373
 30
0.0
 40
4.0
  1
Gepr.
 41
0.8
  7
GREEKS
100
AcDbText
  0
TEXT
  5
84
330
1E
100
AcDbEntity
  8
TEXT
100
AcDbText
 10
567.6006777387304
 20
43.52946389649804
 30
0.0
 40
4.0
  1
Norm.
 41
0.8
  7
GREEKS
100
AcDbText
  0
TEXT
  5
85
330
1E
100
AcDbEntity
  8
TEXT
100
AcDbText
 10
757.2400861497007
 20
52.07416177878596
 30
0.0
 40
5.0
  1
ersetzt durch:
 41
0.8
  7
GREEKS
100
AcDbText
  0
TEXT
  5
86
330
1E
100
AcDbEntity
  8
TEXT
100
AcDbText
 10
568.8693027807324
 20
72.96682596523723
 30
0.0
 40
4.0
  1
2008
 41
0.8
  7
GREEKS
100
AcDbText
  0
LINE
  5
87
330
1E
100
AcDbEntity
  8
HILF
100
AcDbLine
 10
0.0
 20
0.0
 30
0.0
 11
840.0
 21
0.0
 31
0.0
  0
LINE
  5
88
330
1E
100
AcDbEntity
  8
HILF
100
AcDbLine
 10
840.0
 20
0.0
 30
0.0
 11
840.0
 21
594.0
 31
0.0
  0
LINE
  5
89
330
1E
100
AcDbEntity
  8
HILF
100
AcDbLine
 10
840.0
 20
594.0
 30
0.0
 11
0.0
 21
594.0
 31
0.0
  0
LINE
  5
8B
330
1E
100
AcDbEntity
  8
STEMPEL
100
AcDbLine
 10
830.0
 20
584.0
 30
0.0
 11
40.0
 21
584.0
 31
0.0
  0
LINE
  5
8D
330
1E
100
AcDbEntity
  8
STEMPEL
100
AcDbLine
 10
40.0
 20
10.0
 30
0.0
 11
830.0
 21
10.0
 31
0.0
  0
LINE
  5
8E
330
1E
100
AcDbEntity
  8
STEMPEL
100
AcDbLine
 10
830.0
 20
10.0
 30
0.0
 11
830.0
 21
584.0
 31
0.0
  0
TEXT
  5
8F
330
1E
100
AcDbEntity
  8
TEXT
 62
     1
100
AcDbText
 10
655.0390572473189
 20
87.37343075652544
 30
0.0
 40
7.0
  1
LORO-Drainlet-Dachablauf
 41
0.65
  7
GREEKS
100
AcDbText
  0
TEXT
  5
90
330
1E
100
AcDbEntity
  8
TEXT
 62
     1
100
AcDbText
 10
766.6628088850802
 20
87.37343075652544
 30
0.0
 40
7.0
  1
01330070W
 41
0.8
  7
GREEKS
 72
     1
 11
790.1294755517469
 21
87.37343075652544
 31
0.0
100
AcDbText
  0
TEXT
  5
91
330
1E
100
AcDbEntity
  8
TEXT
100
AcDbText
 10
618.509022641583
 20
102.83989611379
 30
0.0
 40
5.0
  1
Zul.Abw.
 41
0.8
  7
GREEKS
100
AcDbText
  0
TEXT
  5
93
330
1E
100
AcDbEntity
  8
TEXT
100
AcDbText
 10
590.4612856559488
 20
63.1508587612022
 30
0.0
 40
4.0
  1
14.05.
 41
0.8
  7
GREEKS
 72
     1
 11
597.1660475607107
 21
63.1508587612022
 31
0.0
100
AcDbText
  0
TEXT
  5
94
330
1E
100
AcDbEntity
  8
TEXT
100
AcDbText
 10
624.023175322661
 20
62.94297655165468
 30
0.0
 40
4.0
  1
Koeh
 41
0.8
  7
GREEKS
 72
     1
 11
629.2803181798038
 21
62.94297655165468
 31
0.0
100
AcDbText
  0
TEXT
  5
95
330
1E
100
AcDbEntity
  8
TEXT
100
AcDbText
 10
654.3410940884992
 20
72.10021383107525
 30
0.0
 40
5.0
  1
DN70 für Attika mit Klebeflansch
 41
0.7
  7
GREEKS
100
AcDbText
  0
TEXT
  5
96
330
1E
100
AcDbEntity
  8
TEXT
100
AcDbText
 10
654.3410940884992
 20
62.34559085209035
 30
0.0
 40
5.0
  1
Bitumen-Abdeckbahnen
 41
0.8
  7
GREEKS
100
AcDbText
  0
TEXT
  5
97
330
1E
100
AcDbEntity
  8
TEXT
100
AcDbText
 10
654.3410940884992
 20
52.59097337846058
 30
0.0
 40
5.0
  1
EDV-Art.Nr. 01330.070X
 41
0.8
  7
GREEKS
100
AcDbText
  0
TEXT
  5
98
330
1E
100
AcDbEntity
  8
TEXT
100
AcDbText
 10
654.1676050109348
 20
43.31127624791508
 30
0.0
 40
4.0
  1
01330070W.DWG
 41
0.8
  7
GREEKS
100
AcDbText
  0
TEXT
  5
99
330
1E
100
AcDbEntity
  8
TEXT
 62
     1
100
AcDbText
 10
582.7034912034222
 20
92.23360758171185
 30
0.0
 40
7.0
  1
1:2
 41
0.8
  7
GREEKS
100
AcDbText
  0
TEXT
  5
9A
330
1E
100
AcDbEntity
  8
TEXT
100
AcDbText
 10
470.0441139350127
 20
114.1143585051043
 30
0.0
 40
5.0
  1
Erstellt mit AUTOCAD 2004
 41
0.8
  7
GREEKS
100
AcDbText
  0
INSERT
  5
9B
330
1E
100
AcDbEntity
  8
HILF
100
AcDbBlockReference
  2
LORO
 10
573.0624985962354
 20
36.9805930029896
 30
0.0
 41
2.0
 42
2.0
 43
2.0
  0
LINE
  5
9C
330
1E
100
AcDbEntity
  8
BEM
100
AcDbLine
 10
456.0
 20
0.0
 30
0.0
 11
456.0
 21
10.0
 31
0.0
  0
LINE
  5
13E
330
1E
100
AcDbEntity
  8
HILF
100
AcDbLine
 10
0.0
 20
0.0
 30
0.0
 11
0.0
 21
594.0
 31
0.0
  0
LINE
  5
13F
330
1E
100
AcDbEntity
  8
STEMPEL
100
AcDbLine
 10
40.0
 20
10.0
 30
0.0
 11
40.0
 21
584.0
 31
0.0
  0
LINE
  5
14A
330
1E
100
AcDbEntity
  8
HILF
100
AcDbLine
 10
0.0
 20
297.0
 30
0.0
 11
40.0
 21
297.0
 31
0.0
  0
TEXT
  5
15B
330
1E
100
AcDbEntity
  8
BEM
100
AcDbText
 10
837.3022923857165
 20
10.16790107998861
 30
0.0
 40
4.0
  1
Diese Zeichnung ist urheberrechtlich geschützt und bleibt unser Eigentum. Sie darf weder ganz noch teilweise verfielfältigt und nicht an Dritte weitergegeben werden.
 50
90.0
 41
0.8
  7
GREEKS
100
AcDbText
  0
TEXT
  5
1016
330
1E
100
AcDbEntity
  8
TEXT
 62
     1
100
AcDbText
 10
582.7034912034222
 20
82.23164939917234
 30
0.0
 40
7.0
  1
1:10
 41
0.8
  7
GREEKS
100
AcDbText
  0
TEXT
  5
1017
330
1E
100
AcDbEntity
  8
TEXT
100
AcDbText
 10
612.2898419893276
 20
90.56743414756596
 30
0.0
 40
4.0
  1
DIN EN1123-2
 41
0.8
  7
GREEKS
 72
     1
 11
629.2803181798038
 21
90.56743414756596
 31
0.0
100
AcDbText
  0
LINE
  5
4403
330
1E
100
AcDbEntity
  8
BEM
100
AcDbLine
 10
460.0
 20
0.0
 30
0.0
 11
460.0
 21
10.0
 31
0.0
  0
LINE
  5
4404
330
1E
100
AcDbEntity
  8
STEMPEL
100
AcDbLine
 10
39.99999999999989
 20
10.0
 30
0.0
 11
830.0
 21
10.0
 31
0.0
  0
LINE
  5
4CF3
330
1E
100
AcDbEntity
  8
STEMPEL
100
AcDbLine
 10
676.3808560778287
 20
457.1597609253101
 30
0.0
 11
676.3808560778287
 21
460.1606327388101
 31
0.0
  0
LINE
  5
4CF4
330
1E
100
AcDbEntity
  8
MITTEL
100
AcDbLine
 10
589.8808560778283
 20
525.1606327388101
 30
0.0
 11
612.8808560778282
 21
525.1606327388101
 31
0.0
  0
POINT
  5
4CF5
330
1E
100
AcDbEntity
  8
DEFPOINTS
  6
ByBlock
 62
     0
100
AcDbPoint
 10
561.3808560778283
 20
555.1606327388101
 30
0.0
  0
LINE
  5
4CF6
330
1E
100
AcDbEntity
  8
STEMPEL
100
AcDbLine
 10
581.3808560778283
 20
575.1606327388101
 30
0.0
 11
561.3808560778283
 21
555.1606327388101
 31
0.0
  0
CIRCLE
  5
4CF7
330
1E
100
AcDbEntity
  8
STEMPEL
100
AcDbCircle
 10
601.3808560778283
 20
525.1606327388101
 30
0.0
 40
6.5
  0
CIRCLE
  5
4CF8
330
1E
100
AcDbEntity
  8
STEMPEL
100
AcDbCircle
 10
601.3808560778283
 20
525.1606327388101
 30
0.0
 40
3.5
  0
LINE
  5
4CF9
330
1E
100
AcDbEntity
  8
MITTEL
100
AcDbLine
 10
601.3808560778283
 20
513.6606327388101
 30
0.0
 11
601.3808560778283
 21
536.6606327388101
 31
0.0
  0
LINE
  5
4CFA
330
1E
100
AcDbEntity
  8
HILF
100
AcDbLine
 10
563.3808560778283
 20
460.2236929988269
 30
0.0
 11
674.3808560778287
 21
460.2236929988269
 31
0.0
  0
LINE
  5
4CFB
330
1E
100
AcDbEntity
  8
STEMPEL
100
AcDbLine
 10
676.3808560778287
 20
460.1606327388101
 30
0.0
 11
801.3808560778286
 21
460.1606327388103
 31
0.0
  0
LINE
  5
4CFC
330
1E
100
AcDbEntity
  8
STEMPEL
100
AcDbLine
 10
581.3808560778283
 20
575.1606327388101
 30
0.0
 11
801.3808560778286
 21
575.1606327388101
 31
0.0
  0
LINE
  5
4CFD
330
1E
100
AcDbEntity
  8
STEMPEL
100
AcDbLine
 10
801.3808560778286
 20
457.1597609253101
 30
0.0
 11
665.8808560778278
 21
457.1597609253101
 31
0.0
  0
LINE
  5
4CFE
330
1E
100
AcDbEntity
  8
STEMPEL
100
AcDbLine
 10
761.3808560778287
 20
430.1606327388106
 30
0.0
 11
761.3808560778287
 21
420.1606327388105
 31
0.0
  0
LINE
  5
4CFF
330
1E
100
AcDbEntity
  8
STEMPEL
100
AcDbLine
 10
748.3808560778287
 20
430.1606327388106
 30
0.0
 11
748.3808560778287
 21
420.1606327388105
 31
0.0
  0
LINE
  5
4D00
330
1E
100
AcDbEntity
  8
STEMPEL
100
AcDbLine
 10
748.3808560778287
 20
448.1597609253101
 30
0.0
 11
748.3808560778287
 21
435.1606327388106
 31
0.0
  0
LINE
  5
4D01
330
1E
100
AcDbEntity
  8
STEMPEL
100
AcDbLine
 10
761.3808560778287
 20
448.1597609253101
 30
0.0
 11
761.3808560778287
 21
435.1606327388106
 31
0.0
  0
LINE
  5
4D02
330
1E
100
AcDbEntity
  8
STEMPEL
100
AcDbLine
 10
761.3808560778287
 20
415.1606327388106
 30
0.0
 11
761.3808560778287
 21
405.1606327388107
 31
0.0
  0
LINE
  5
4D03
330
1E
100
AcDbEntity
  8
STEMPEL
100
AcDbLine
 10
748.3808560778287
 20
415.1606327388106
 30
0.0
 11
748.3808560778287
 21
405.1606327388107
 31
0.0
  0
LINE
  5
4D04
330
1E
100
AcDbEntity
  8
STEMPEL
100
AcDbLine
 10
761.3808560778287
 20
400.1606327388107
 30
0.0
 11
761.3808560778287
 21
390.1606327388107
 31
0.0
  0
LINE
  5
4D05
330
1E
100
AcDbEntity
  8
STEMPEL
100
AcDbLine
 10
748.3808560778287
 20
400.1606327388107
 30
0.0
 11
748.3808560778287
 21
390.1606327388107
 31
0.0
  0
LINE
  5
4D06
330
1E
100
AcDbEntity
  8
STEMPEL
100
AcDbLine
 10
801.3808560778286
 20
448.1597609253101
 30
0.0
 11
761.3808560778287
 21
448.1597609253101
 31
0.0
  0
LINE
  5
4D07
330
1E
100
AcDbEntity
  8
STEMPEL
100
AcDbLine
 10
801.3808560778286
 20
405.1606327388107
 30
0.0
 11
761.3808560778287
 21
405.1606327388107
 31
0.0
  0
LINE
  5
4D08
330
1E
100
AcDbEntity
  8
STEMPEL
100
AcDbLine
 10
801.3808560778286
 20
400.1606327388107
 30
0.0
 11
761.3808560778287
 21
400.1606327388107
 31
0.0
  0
LINE
  5
4D09
330
1E
100
AcDbEntity
  8
STEMPEL
100
AcDbLine
 10
801.3808560778286
 20
390.1606327388107
 30
0.0
 11
761.3808560778287
 21
390.1606327388107
 31
0.0
  0
LINE
  5
4D0A
330
1E
100
AcDbEntity
  8
STEMPEL
100
AcDbLine
 10
801.3808560778286
 20
385.1606327388107
 30
0.0
 11
761.3808560778287
 21
385.1606327388107
 31
0.0
  0
LINE
  5
4D0B
330
1E
100
AcDbEntity
  8
STEMPEL
100
AcDbLine
 10
801.3808560778286
 20
435.1606327388106
 30
0.0
 11
761.3808560778287
 21
435.1606327388106
 31
0.0
  0
LINE
  5
4D0C
330
1E
100
AcDbEntity
  8
STEMPEL
100
AcDbLine
 10
801.3808560778286
 20
430.1606327388106
 30
0.0
 11
761.3808560778287
 21
430.1606327388106
 31
0.0
  0
LINE
  5
4D0D
330
1E
100
AcDbEntity
  8
STEMPEL
100
AcDbLine
 10
801.3808560778286
 20
420.1606327388105
 30
0.0
 11
761.3808560778287
 21
420.1606327388105
 31
0.0
  0
LINE
  5
4D0E
330
1E
100
AcDbEntity
  8
STEMPEL
100
AcDbLine
 10
801.3808560778286
 20
415.1606327388106
 30
0.0
 11
761.3808560778287
 21
415.1606327388106
 31
0.0
  0
ARC
  5
4D0F
330
1E
100
AcDbEntity
  8
STEMPEL
100
AcDbCircle
 10
801.3808560778286
 20
342.7107233677338
 30
0.0
 40
36.5
100
AcDbArc
 50
90.0
 51
117.2473130642625
  0
ARC
  5
4D10
330
1E
100
AcDbEntity
  8
STEMPEL
100
AcDbCircle
 10
801.3808560778286
 20
342.7107233677338
 30
0.0
 40
36.5
100
AcDbArc
 50
131.2315304447523
 51
147.8001385838197
  0
LINE
  5
4D11
330
1E
100
AcDbEntity
  8
STEMPEL
100
AcDbLine
 10
748.3808560778287
 20
370.1606327388107
 30
0.0
 11
748.3808560778287
 21
362.1606327388107
 31
0.0
  0
LINE
  5
4D12
330
1E
100
AcDbEntity
  8
STEMPEL
100
AcDbLine
 10
761.3808560778287
 20
370.1606327388107
 30
0.0
 11
761.3808560778287
 21
362.1606327388107
 31
0.0
  0
LINE
  5
4D13
330
1E
100
AcDbEntity
  8
STEMPEL
100
AcDbLine
 10
801.3808560778286
 20
375.1606327388107
 30
0.0
 11
761.3808560778287
 21
375.1606327388107
 31
0.0
  0
LINE
  5
4D14
330
1E
100
AcDbEntity
  8
STEMPEL
100
AcDbLine
 10
801.3808560778286
 20
370.1606327388107
 30
0.0
 11
761.3808560778287
 21
370.1606327388107
 31
0.0
  0
LINE
  5
4D15
330
1E
100
AcDbEntity
  8
STEMPEL
100
AcDbLine
 10
761.3808560778287
 20
385.1606327388107
 30
0.0
 11
761.3808560778287
 21
375.1606327388107
 31
0.0
  0
LINE
  5
4D16
330
1E
100
AcDbEntity
  8
STEMPEL
100
AcDbLine
 10
748.3808560778287
 20
385.1606327388107
 30
0.0
 11
748.3808560778287
 21
375.1606327388107
 31
0.0
  0
LINE
  5
4D17
330
1E
100
AcDbEntity
  8
STEMPEL
100
AcDbLine
 10
686.8808560778287
 20
367.7453746406662
 30
0.0
 11
686.8808560778287
 21
366.9739661750615
 31
0.0
  0
LINE
  5
4D18
330
1E
100
AcDbEntity
  8
STEMPEL
100
AcDbLine
 10
685.8808560778287
 20
367.7453746406662
 30
0.0
 11
685.8808560778287
 21
366.9739661750615
 31
0.0
  0
LINE
  5
4D19
330
1E
100
AcDbEntity
  8
STEMPEL
100
AcDbLine
 10
685.8808560778287
 20
366.9739661750615
 30
0.0
 11
686.8808560778287
 21
366.9739661750615
 31
0.0
  0
ARC
  5
4D1A
330
1E
100
AcDbEntity
  8
STEMPEL
100
AcDbCircle
 10
686.3808560778287
 20
359.56063273881
 30
0.0
 40
8.199999999999999
100
AcDbArc
 50
48.81164025226026
 51
86.50418636761342
  0
LINE
  5
4D1B
330
1E
100
AcDbEntity
  8
STEMPEL
100
AcDbLine
 10
692.3808560778287
 20
362.1606327388101
 30
0.0
 11
692.3808560778287
 21
363.76063273881
 31
0.0
  0
LINE
  5
4D1C
330
1E
100
AcDbEntity
  8
STEMPEL
100
AcDbLine
 10
686.3808560778287
 20
350.7606327388101
 30
0.0
 11
683.6308560778284
 21
355.5237724596246
 31
0.0
  0
LINE
  5
4D1D
330
1E
100
AcDbEntity
  8
HILF
100
AcDbLine
 10
684.4308560778287
 20
358.1606327388101
 30
0.0
 11
684.4308560778287
 21
354.1381318135692
 31
0.0
  0
LINE
  5
4D1E
330
1E
100
AcDbEntity
  8
STEMPEL
100
AcDbLine
 10
683.6308560778287
 20
358.1606327388101
 30
0.0
 11
683.6308560778287
 21
355.5237724596242
 31
0.0
  0
LINE
  5
4D1F
330
1E
100
AcDbEntity
  8
HILF
100
AcDbLine
 10
688.330856077829
 20
358.1606327388101
 30
0.0
 11
688.330856077829
 21
354.1381318135698
 31
0.0
  0
LINE
  5
4D20
330
1E
100
AcDbEntity
  8
STEMPEL
100
AcDbLine
 10
689.130856077829
 20
358.1606327388101
 30
0.0
 11
689.130856077829
 21
355.5237724596246
 31
0.0
  0
LINE
  5
4D21
330
1E
100
AcDbEntity
  8
STEMPEL
100
AcDbLine
 10
686.3808560778287
 20
350.7606327388101
 30
0.0
 11
689.130856077829
 21
355.5237724596246
 31
0.0
  0
LINE
  5
4D22
330
1E
100
AcDbEntity
  8
STEMPEL
100
AcDbLine
 10
691.7808560778285
 20
365.7315321870268
 30
0.0
 11
691.7808560778285
 21
363.7606327388102
 31
0.0
  0
LINE
  5
4D23
330
1E
100
AcDbEntity
  8
MITTEL
100
AcDbLine
 10
686.3808560778287
 20
370.7268569047615
 30
0.0
 11
686.3808560778287
 21
348.325595551641
 31
0.0
  0
ARC
  5
4D24
330
1E
100
AcDbEntity
  8
STEMPEL
100
AcDbCircle
 10
801.3808560778286
 20
323.7476116545126
 30
0.0
 40
36.5
100
AcDbArc
 50
205.27989007768
 51
270.0
  0
TEXT
  5
4D25
330
1E
100
AcDbEntity
  8
BEM
 62
     1
100
AcDbText
 10
768.4056623195052
 20
268.9473179009901
 30
0.0
 40
7.0
  1
254
 41
0.8
  7
GREEKS
 72
     1
 11
775.7389956528385
 21
272.4473179009901
 31
0.0
100
AcDbText
 73
     2
  0
TEXT
  5
4D26
330
1E
100
AcDbEntity
  8
BEM
 62
     1
100
AcDbText
 10
768.2818465947205
 20
252.9473179009901
 30
0.0
 40
7.0
  1
480
 41
0.8
  7
GREEKS
 72
     1
 11
775.4818465947205
 21
256.4473179009901
 31
0.0
100
AcDbText
 73
     2
  0
LINE
  5
4D27
330
1E
100
AcDbEntity
  8
STEMPEL
100
AcDbLine
 10
676.3808560778283
 20
430.1606327388106
 30
0.0
 11
676.3808560778283
 21
420.1606327388105
 31
0.0
  0
LINE
  5
4D28
330
1E
100
AcDbEntity
  8
STEMPEL
100
AcDbLine
 10
676.3808560778283
 20
448.1597609253101
 30
0.0
 11
676.3808560778283
 21
435.1606327388106
 31
0.0
  0
LINE
  5
4D29
330
1E
100
AcDbEntity
  8
STEMPEL
100
AcDbLine
 10
676.3808560778283
 20
415.1606327388106
 30
0.0
 11
676.3808560778283
 21
405.1606327388107
 31
0.0
  0
LINE
  5
4D2A
330
1E
100
AcDbEntity
  8
STEMPEL
100
AcDbLine
 10
676.3808560778283
 20
400.1606327388107
 30
0.0
 11
676.3808560778283
 21
390.1606327388107
 31
0.0
  0
LINE
  5
4D2B
330
1E
100
AcDbEntity
  8
STEMPEL
100
AcDbLine
 10
680.3808560778287
 20
362.1606327388101
 30
0.0
 11
680.3808560778287
 21
363.76063273881
 31
0.0
  0
ARC
  5
4D2C
330
1E
100
AcDbEntity
  8
SCHRAFF
100
AcDbCircle
 10
674.3808560778287
 20
358.1606327388103
 30
0.0
 40
4.0
100
AcDbArc
 50
180.0
 51
270.0
  0
INSERT
  5
4D2D
330
1E
100
AcDbEntity
  8
SCHRAFF
100
AcDbBlockReference
  2
*X5
 10
-0.0000000000001137
 20
0.0
 30
0.0
1001
ACAD
1000
HATCH
1002
{
1070
    16
1000
_U,I
1040
0.1
1040
0.7853981633974483
1070
     0
1002
}
  0
LINE
  5
4D2E
330
1E
100
AcDbEntity
  8
STEMPEL
100
AcDbLine
 10
680.9808560778284
 20
365.7315321870263
 30
0.0
 11
680.9808560778284
 21
363.7606327388102
 31
0.0
  0
LINE
  5
4D2F
330
1E
100
AcDbEntity
  8
STEMPEL
100
AcDbLine
 10
676.3808560778283
 20
370.1606327388107
 30
0.0
 11
676.3808560778283
 21
362.1606327388107
 31
0.0
  0
LINE
  5
4D30
330
1E
100
AcDbEntity
  8
STEMPEL
100
AcDbLine
 10
676.3808560778283
 20
385.1606327388107
 30
0.0
 11
676.3808560778283
 21
375.1606327388107
 31
0.0
  0
LINE
  5
4D31
330
1E
100
AcDbEntity
  8
STEMPEL
100
AcDbLine
 10
661.3808560778283
 20
452.6597609253128
 30
0.0
 11
661.3808560778283
 21
360.1606327388104
 31
0.0
  0
LINE
  5
4D32
330
1E
100
AcDbEntity
  8
MITTEL
100
AcDbLine
 10
601.3808560778283
 20
353.1606327388102
 30
0.0
 11
601.3808560778287
 21
365.1606327388107
 31
0.0
  0
LINE
  5
4D33
330
1E
100
AcDbEntity
  8
STEMPEL
100
AcDbLine
 10
581.3808560778283
 20
358.1606327388103
 30
0.0
 11
581.3808560778283
 21
360.1606327388103
 31
0.0
  0
POINT
  5
4D34
330
1E
100
AcDbEntity
  8
DEFPOINTS
  6
ByBlock
 62
     0
100
AcDbPoint
 10
561.3808560778283
 20
358.1606327388103
 30
0.0
  0
POINT
  5
4D35
330
1E
100
AcDbEntity
  8
DEFPOINTS
  6
ByBlock
 62
     0
100
AcDbPoint
 10
674.3808560778287
 20
312.1606327388108
 30
0.0
  0
ARC
  5
4D36
330
1E
100
AcDbEntity
  8
STEMPEL
100
AcDbCircle
 10
678.3808560778287
 20
312.1606327388108
 30
0.0
 40
4.0
100
AcDbArc
 50
180.0
 51
270.0
  0
SOLID
  5
4D37
330
1E
100
AcDbEntity
  8
BEM
100
AcDbTrace
 10
681.3808560778287
 20
266.6139845676567
 30
0.0
 11
681.3808560778287
 21
264.2806512343234
 31
0.0
 12
674.3808560778287
 22
265.4473179009901
 32
0.0
 13
674.3808560778287
 23
265.4473179009901
 33
0.0
  0
LINE
  5
4D38
330
1E
100
AcDbEntity
  8
BEM
100
AcDbLine
 10
674.3808560778287
 20
310.1606327388108
 30
0.0
 11
674.3808560778287
 21
263.4473179009901
 31
0.0
  0
SOLID
  5
4D39
330
1E
100
AcDbEntity
  8
BEM
100
AcDbTrace
 10
568.3808560778283
 20
250.6139845676568
 30
0.0
 11
568.3808560778283
 21
248.2806512343234
 31
0.0
 12
561.3808560778283
 22
249.4473179009901
 32
0.0
 13
561.3808560778283
 23
249.4473179009901
 33
0.0
  0
LINE
  5
4D3A
330
1E
100
AcDbEntity
  8
STEMPEL
100
AcDbLine
 10
674.3808560778287
 20
312.1606327388108
 30
0.0
 11
674.3808560778287
 21
358.1606327388103
 31
0.0
  0
LINE
  5
4D3B
330
1E
100
AcDbEntity
  8
BEM
100
AcDbLine
 10
561.3808560778283
 20
356.1606327388103
 30
0.0
 11
561.3808560778283
 21
247.4473179009901
 31
0.0
  0
LINE
  5
4D3C
330
1E
100
AcDbEntity
  8
STEMPEL
100
AcDbLine
 10
474.3251186392566
 20
360.7172931759698
 30
0.0
 11
484.1961840505395
 21
359.3300054036662
 31
0.0
  0
LINE
  5
4D3D
330
1E
100
AcDbEntity
  8
STEMPEL
100
AcDbLine
 10
474.171619337905
 20
359.1231419798784
 30
0.0
 11
484.1121266567896
 21
357.7260947839171
 31
0.0
  0
LINE
  5
4D3E
330
1E
100
AcDbEntity
  8
STEMPEL
100
AcDbLine
 10
458.7492604028001
 20
361.5335893165699
 30
0.0
 11
474.3251186392566
 21
360.7172931759698
 31
0.0
  0
LINE
  5
4D3F
330
1E
100
AcDbEntity
  8
STEMPEL
100
AcDbLine
 10
459.3693413771774
 20
359.8988964961305
 30
0.0
 11
474.171619337905
 21
359.1231419798784
 31
0.0
  0
LINE
  5
4D40
330
1E
100
AcDbEntity
  8
MITTEL
100
AcDbLine
 10
451.3964698956868
 20
325.3688421096573
 30
0.0
 11
488.0110733268146
 21
323.4499520545022
 31
0.0
  0
LINE
  5
4D41
330
1E
100
AcDbEntity
  8
STEMPEL
100
AcDbLine
 10
470.5185695921462
 20
289.4188004540093
 30
0.0
 11
480.5506529683524
 21
289.7691285251116
 31
0.0
  0
LINE
  5
4D42
330
1E
100
AcDbEntity
  8
STEMPEL
100
AcDbLine
 10
470.5045938335237
 20
287.8173371388858
 30
0.0
 11
480.466595574603
 21
288.1652179053623
 31
0.0
  0
LINE
  5
4D43
330
1E
100
AcDbEntity
  8
STEMPEL
100
AcDbLine
 10
462.4642738572664
 20
289.8409082071631
 30
0.0
 11
470.5185695921462
 21
289.4188004540093
 31
0.0
  0
LINE
  5
4D44
330
1E
100
AcDbEntity
  8
STEMPEL
100
AcDbLine
 10
463.4654239805135
 20
288.1862443988783
 30
0.0
 11
470.5045938335237
 21
287.8173371388858
 31
0.0
  0
POLYLINE
  5
4D45
330
1E
100
AcDbEntity
  8
HILF
100
AcDb2dPolyline
 66
     1
 10
0.0
 20
0.0
 30
0.0
 70
     4
 75
     6
  0
VERTEX
  5
4D46
330
4D45
100
AcDbEntity
  8
HILF
100
AcDbVertex
100
AcDb2dVertex
 10
458.7492604028001
 20
361.5335893165699
 30
0.0
 70
    16
  0
VERTEX
  5
4D47
330
4D45
100
AcDbEntity
  8
HILF
100
AcDbVertex
100
AcDb2dVertex
 10
458.7492604028001
 20
361.5335893165699
 30
0.0
 70
     8
  0
VERTEX
  5
4D48
330
4D45
100
AcDbEntity
  8
HILF
100
AcDbVertex
100
AcDb2dVertex
 10
460.5897344907833
 20
356.68162658565
 30
0.0
 70
     8
  0
VERTEX
  5
4D49
330
4D45
100
AcDbEntity
  8
HILF
100
AcDbVertex
100
AcDb2dVertex
 10
462.01608016245
 20
352.5431327463856
 30
0.0
 70
     8
  0
VERTEX
  5
4D4A
330
4D45
100
AcDbEntity
  8
HILF
100
AcDbVertex
100
AcDb2dVertex
 10
463.0788963141156
 20
349.0361947805867
 30
0.0
 70
     8
  0
VERTEX
  5
4D4B
330
4D45
100
AcDbEntity
  8
HILF
100
AcDbVertex
100
AcDb2dVertex
 10
463.8287818420943
 20
346.0788996700629
 30
0.0
 70
     8
  0
VERTEX
  5
4D4C
330
4D45
100
AcDbEntity
  8
HILF
100
AcDbVertex
100
AcDb2dVertex
 10
464.3163356427006
 20
343.5893343966244
 30
0.0
 70
     8
  0
VERTEX
  5
4D4D
330
4D45
100
AcDbEntity
  8
HILF
100
AcDbVertex
100
AcDb2dVertex
 10
464.5921566122495
 20
341.4855859420808
 30
0.0
 70
     8
  0
VERTEX
  5
4D4E
330
4D45
100
AcDbEntity
  8
HILF
100
AcDbVertex
100
AcDb2dVertex
 10
464.7068436470553
 20
339.6857412882422
 30
0.0
 70
     8
  0
VERTEX
  5
4D4F
330
4D45
100
AcDbEntity
  8
HILF
100
AcDbVertex
100
AcDb2dVertex
 10
464.7109956434332
 20
338.1078874169183
 30
0.0
 70
     8
  0
VERTEX
  5
4D50
330
4D45
100
AcDbEntity
  8
HILF
100
AcDbVertex
100
AcDb2dVertex
 10
464.6473134924375
 20
336.6812505094027
 30
0.0
 70
     8
  0
VERTEX
  5
4D51
330
4D45
100
AcDbEntity
  8
HILF
100
AcDbVertex
100
AcDb2dVertex
 10
464.5269060640843
 20
335.3796135449226
 30
0.0
 70
     8
  0
VERTEX
  5
4D52
330
4D45
100
AcDbEntity
  8
HILF
100
AcDbVertex
100
AcDb2dVertex
 10
464.3529842231295
 20
334.1878987021888
 30
0.0
 70
     8
  0
VERTEX
  5
4D53
330
4D45
100
AcDbEntity
  8
HILF
100
AcDbVertex
100
AcDb2dVertex
 10
464.1287588343292
 20
333.0910281599123
 30
0.0
 70
     8
  0
VERTEX
  5
4D54
330
4D45
100
AcDbEntity
  8
HILF
100
AcDbVertex
100
AcDb2dVertex
 10
463.85744076244
 20
332.0739240968038
 30
0.0
 70
     8
  0
VERTEX
  5
4D55
330
4D45
100
AcDbEntity
  8
HILF
100
AcDbVertex
100
AcDb2dVertex
 10
463.5422408722173
 20
331.1215086915746
 30
0.0
 70
     8
  0
VERTEX
  5
4D56
330
4D45
100
AcDbEntity
  8
HILF
100
AcDbVertex
100
AcDb2dVertex
 10
463.1863700284178
 20
330.2187041229351
 30
0.0
 70
     8
  0
VERTEX
  5
4D57
330
4D45
100
AcDbEntity
  8
HILF
100
AcDbVertex
100
AcDb2dVertex
 10
462.7930390957966
 20
329.3504325695963
 30
0.0
 70
     8
  0
VERTEX
  5
4D58
330
4D45
100
AcDbEntity
  8
HILF
100
AcDbVertex
100
AcDb2dVertex
 10
462.3660832750946
 20
328.5025889767743
 30
0.0
 70
     8
  0
VERTEX
  5
4D59
330
4D45
100
AcDbEntity
  8
HILF
100
AcDbVertex
100
AcDb2dVertex
 10
461.9118351109845
 20
327.6649593557048
 30
0.0
 70
     8
  0
VERTEX
  5
4D5A
330
4D45
100
AcDbEntity
  8
HILF
100
AcDbVertex
100
AcDb2dVertex
 10
461.4372514841233
 20
326.8283024841293
 30
0.0
 70
     8
  0
VERTEX
  5
4D5B
330
4D45
100
AcDbEntity
  8
HILF
100
AcDbVertex
100
AcDb2dVertex
 10
460.949289275168
 20
325.9833771397888
 30
0.0
 70
     8
  0
VERTEX
  5
4D5C
330
4D45
100
AcDbEntity
  8
HILF
100
AcDbVertex
100
AcDb2dVertex
 10
460.4549053647755
 20
325.1209421004245
 30
0.0
 70
     8
  0
VERTEX
  5
4D5D
330
4D45
100
AcDbEntity
  8
HILF
100
AcDbVertex
100
AcDb2dVertex
 10
459.9610566336026
 20
324.2317561437775
 30
0.0
 70
     8
  0
VERTEX
  5
4D5E
330
4D45
100
AcDbEntity
  8
HILF
100
AcDbVertex
100
AcDb2dVertex
 10
459.4746999623065
 20
323.3065780475889
 30
0.0
 70
     8
  0
VERTEX
  5
4D5F
330
4D45
100
AcDbEntity
  8
HILF
100
AcDbVertex
100
AcDb2dVertex
 10
459.0027922315438
 20
322.3361665896001
 30
0.0
 70
     8
  0
VERTEX
  5
4D60
330
4D45
100
AcDbEntity
  8
HILF
100
AcDbVertex
100
AcDb2dVertex
 10
458.5516659836488
 20
321.3140367008874
 30
0.0
 70
     8
  0
VERTEX
  5
4D61
330
4D45
100
AcDbEntity
  8
HILF
100
AcDbVertex
100
AcDb2dVertex
 10
458.1251564076628
 20
320.2447279258698
 30
0.0
 70
     8
  0
VERTEX
  5
4D62
330
4D45
100
AcDbEntity
  8
HILF
100
AcDbVertex
100
AcDb2dVertex
 10
457.7264743543045
 20
319.1355359623015
 30
0.0
 70
     8
  0
VERTEX
  5
4D63
330
4D45
100
AcDbEntity
  8
HILF
100
AcDbVertex
100
AcDb2dVertex
 10
457.3588306742926
 20
317.9937565079373
 30
0.0
 70
     8
  0
VERTEX
  5
4D64
330
4D45
100
AcDbEntity
  8
HILF
100
AcDbVertex
100
AcDb2dVertex
 10
457.0254362183458
 20
316.826685260531
 30
0.0
 70
     8
  0
VERTEX
  5
4D65
330
4D45
100
AcDbEntity
  8
HILF
100
AcDbVertex
100
AcDb2dVertex
 10
456.7295018371822
 20
315.6416179178372
 30
0.0
 70
     8
  0
VERTEX
  5
4D66
330
4D45
100
AcDbEntity
  8
HILF
100
AcDbVertex
100
AcDb2dVertex
 10
456.4742383815208
 20
314.4458501776102
 30
0.0
 70
     8
  0
VERTEX
  5
4D67
330
4D45
100
AcDbEntity
  8
HILF
100
AcDbVertex
100
AcDb2dVertex
 10
456.2628567020805
 20
313.2466777376043
 30
0.0
 70
     8
  0
VERTEX
  5
4D68
330
4D45
100
AcDbEntity
  8
HILF
100
AcDbVertex
100
AcDb2dVertex
 10
456.0986568437764
 20
312.0490454577172
 30
0.0
 70
     8
  0
VERTEX
  5
4D69
330
4D45
100
AcDbEntity
  8
HILF
100
AcDbVertex
100
AcDb2dVertex
 10
455.9852956283124
 20
310.8484948464189
 30
0.0
 70
     8
  0
VERTEX
  5
4D6A
330
4D45
100
AcDbEntity
  8
HILF
100
AcDbVertex
100
AcDb2dVertex
 10
455.9265190715895
 20
309.6382165743231
 30
0.0
 70
     8
  0
VERTEX
  5
4D6B
330
4D45
100
AcDbEntity
  8
HILF
100
AcDbVertex
100
AcDb2dVertex
 10
455.9260731895082
 20
308.411401312043
 30
0.0
 70
     8
  0
VERTEX
  5
4D6C
330
4D45
100
AcDbEntity
  8
HILF
100
AcDbVertex
100
AcDb2dVertex
 10
455.98770399797
 20
307.1612397301921
 30
0.0
 70
     8
  0
VERTEX
  5
4D6D
330
4D45
100
AcDbEntity
  8
HILF
100
AcDbVertex
100
AcDb2dVertex
 10
456.115157512875
 20
305.8809224993837
 30
0.0
 70
     8
  0
VERTEX
  5
4D6E
330
4D45
100
AcDbEntity
  8
HILF
100
AcDbVertex
100
AcDb2dVertex
 10
456.3121797501247
 20
304.5636402902311
 30
0.0
 70
     8
  0
VERTEX
  5
4D6F
330
4D45
100
AcDbEntity
  8
HILF
100
AcDbVertex
100
AcDb2dVertex
 10
456.5825167256192
 20
303.2025837733482
 30
0.0
 70
     8
  0
VERTEX
  5
4D70
330
4D45
100
AcDbEntity
  8
HILF
100
AcDbVertex
100
AcDb2dVertex
 10
456.9331007032409
 20
301.7875551571707
 30
0.0
 70
     8
  0
VERTEX
  5
4D71
330
4D45
100
AcDbEntity
  8
HILF
100
AcDbVertex
100
AcDb2dVertex
 10
457.3836089387917
 20
300.2948028014263
 30
0.0
 70
     8
  0
VERTEX
  5
4D72
330
4D45
100
AcDbEntity
  8
HILF
100
AcDbVertex
100
AcDb2dVertex
 10
457.9569049360564
 20
298.6971866036655
 30
0.0
 70
     8
  0
VERTEX
  5
4D73
330
4D45
100
AcDbEntity
  8
HILF
100
AcDbVertex
100
AcDb2dVertex
 10
458.6758521988184
 20
296.9675664614387
 30
0.0
 70
     8
  0
VERTEX
  5
4D74
330
4D45
100
AcDbEntity
  8
HILF
100
AcDbVertex
100
AcDb2dVertex
 10
459.5633142308614
 20
295.078802272296
 30
0.0
 70
     8
  0
VERTEX
  5
4D75
330
4D45
100
AcDbEntity
  8
HILF
100
AcDbVertex
100
AcDb2dVertex
 10
460.6421545359693
 20
293.0037539337883
 30
0.0
 70
     8
  0
VERTEX
  5
4D76
330
4D45
100
AcDbEntity
  8
HILF
100
AcDbVertex
100
AcDb2dVertex
 10
461.9352366179254
 20
290.7152813434656
 30
0.0
 70
     8
  0
VERTEX
  5
4D77
330
4D45
100
AcDbEntity
  8
HILF
100
AcDbVertex
100
AcDb2dVertex
 10
463.4654239805135
 20
288.1862443988783
 30
0.0
 70
     8
  0
VERTEX
  5
4D78
330
4D45
100
AcDbEntity
  8
HILF
100
AcDbVertex
100
AcDb2dVertex
 10
464.2543393225672
 20
347.5709186068517
 30
0.0
 70
    16
  0
VERTEX
  5
4D79
330
4D45
100
AcDbEntity
  8
HILF
100
AcDbVertex
100
AcDb2dVertex
 10
465.3503144926452
 20
336.6137245974552
 30
0.0
 70
    16
  0
VERTEX
  5
4D7A
330
4D45
100
AcDbEntity
  8
HILF
100
AcDbVertex
100
AcDb2dVertex
 10
463.1583641524892
 20
329.1429105001392
 30
0.0
 70
    16
  0
VERTEX
  5
4D7B
330
4D45
100
AcDbEntity
  8
HILF
100
AcDbVertex
100
AcDb2dVertex
 10
458.7744634721783
 20
322.9172288195656
 30
0.0
 70
    16
  0
VERTEX
  5
4D7C
330
4D45
100
AcDbEntity
  8
HILF
100
AcDbVertex
100
AcDb2dVertex
 10
455.7605353480611
 20
313.2051737591988
 30
0.0
 70
    16
  0
VERTEX
  5
4D7D
330
4D45
100
AcDbEntity
  8
HILF
100
AcDbVertex
100
AcDb2dVertex
 10
455.7605353480611
 20
303.7421425692654
 30
0.0
 70
    16
  0
VERTEX
  5
4D7E
330
4D45
100
AcDbEntity
  8
HILF
100
AcDbVertex
100
AcDb2dVertex
 10
459.0484608582945
 20
295.2752199256407
 30
0.0
 70
    16
  0
VERTEX
  5
4D7F
330
4D45
100
AcDbEntity
  8
HILF
100
AcDbVertex
100
AcDb2dVertex
 10
463.4654239805135
 20
288.1862443988783
 30
0.0
 70
    16
  0
SEQEND
  5
4D80
330
4D45
100
AcDbEntity
  8
HILF
  0
LWPOLYLINE
  5
4D81
330
1E
100
AcDbEntity
  8
HILF
100
AcDbPolyline
 90
       48
 70
     0
 43
0.0
 10
448.9572310937968
 20
378.1869425038823
 10
451.2050603598208
 20
372.4830544329681
 10
453.1362141966545
 20
367.5663866802985
 10
454.7799461405896
 20
363.3467711916045
 10
456.1655097279175
 20
359.7340399126173
 10
457.32215849493
 20
356.638024789068
 10
458.2791459779185
 20
353.9685577666875
 10
459.0657257131741
 20
351.635470791207
 10
459.7111512369891
 20
349.5485958083576
 10
460.2410614720859
 20
347.6306767468271
 10
460.6666368869149
 20
345.8561054671294
 10
460.9954433363571
 20
344.2121858127349
 10
461.2350466752944
 20
342.6862216271139
 10
461.393012758608
 20
341.2655167537372
 10
461.4769074411801
 20
339.9373750360754
 10
461.4942965778912
 20
338.6891003175987
 10
461.4527460236239
 20
337.5079964417779
 10
461.358917420196
 20
336.3827537054191
 10
461.2158555571745
 20
335.3076082186723
 10
461.0257010110639
 20
334.278182545023
 10
460.7905943583686
 20
333.2900992479571
 10
460.5126761755912
 20
332.33898089096
 10
460.1940870392375
 20
331.4204500375175
 10
459.8369675258103
 20
330.5301292511152
 10
459.4434582118146
 20
329.6636410952388
 10
459.016502391112
 20
328.8157975024168
 10
458.5622542270019
 20
327.9781678813473
 10
458.0876706001407
 20
327.141511009772
 10
457.5997083911856
 20
326.2965856654315
 10
457.105324480793
 20
325.4341506260672
 10
456.6114757496201
 20
324.5449646694202
 10
456.125119078324
 20
323.6197865732316
 10
455.6532113475612
 20
322.6493751152426
 10
455.2020850996663
 20
321.6272452265299
 10
454.7755755236802
 20
320.5579364515123
 10
454.3768934703219
 20
319.448744487944
 10
454.0092497903104
 20
318.3069650335798
 10
453.6758553343632
 20
317.1398937861735
 10
453.3799209531998
 20
315.9548264434797
 10
453.1246574975388
 20
314.7590587032527
 10
452.9132758180979
 20
313.559886263247
 10
452.7490759597939
 20
312.3622539833599
 10
452.6357147443299
 20
311.1617033720616
 10
452.5769381876069
 20
309.9514250999658
 10
452.5764923055256
 20
308.7246098376858
 10
452.638123113987
 20
307.4744482558348
 10
452.7655766288924
 20
306.1941310250264
 10
452.9625988661417
 20
304.8768488158734
  0
LINE
  5
4D82
330
1E
100
AcDbEntity
  8
STEMPEL
100
AcDbLine
 10
480.466595574603
 20
288.1652179053623
 30
0.0
 11
484.1961840505395
 21
359.3300054036662
 31
0.0
  0
DIMENSION
  5
4D83
330
1E
100
AcDbEntity
  8
BEM
100
AcDbDimension
  2
*D13
 10
505.8152387020885
 20
359.0669659141218
 30
0.0
 11
504.0159192998488
 21
324.7339064550847
 31
0.0
 70
   161
  1
%%c<>
 71
     5
 42
73.00000000000017
  3
Standard
100
AcDbAlignedDimension
 13
470.5045938335241
 23
287.8173371388858
 33
0.0
 14
474.3251186392566
 24
360.71729317597
 34
0.0
1001
ACAD
1000
DSTYLE
1002
{
1070
    40
1040
2.0
1070
    41
1040
3.5
1070
    42
1040
1.0
1070
    43
1040
7.0
1070
    44
1040
1.0
1070
    73
1070
     0
1070
    74
1070
     0
1070
    77
1070
     1
1070
    78
1070
     8
1070
    79
1070
     2
1070
   140
1040
3.5
1070
   141
1040
1.5
1070
   146
1040
0.5142857142857144
1070
   147
1040
1.5
1070
   172
1070
     1
1070
   178
1070
     1
1070
   179
1070
     2
1070
   271
1070
     2
1070
   272
1070
     2
1070
   284
1070
     8
1070
   285
1070
     8
1070
   286
1070
     8
1002
}
  0
LINE
  5
4D84
330
1E
100
AcDbEntity
  8
HILF
100
AcDbLine
 10
470.6026269858957
 20
291.0227110737586
 30
0.0
 11
474.0875619441547
 21
357.5192313601291
 31
0.0
  0
DIMENSION
  5
4D85
330
1E
100
AcDbEntity
  8
BEM
100
AcDbDimension
  2
*D14
 10
543.996209619835
 20
308.1606327388111
 30
0.0
 11
537.4962096198348
 21
333.1606327388108
 31
0.0
 70
    32
 71
     5
 42
49.99999999999914
  3
Standard
100
AcDbAlignedDimension
 13
561.3808560778283
 23
358.1606327388103
 33
0.0
 14
678.3808560778287
 24
308.1606327388111
 34
0.0
 50
90.0
100
AcDbRotatedDimension
1001
ACAD
1000
DSTYLE
1002
{
1070
    40
1040
2.0
1070
    41
1040
3.5
1070
    42
1040
1.0
1070
    43
1040
7.0
1070
    44
1040
1.0
1070
    73
1070
     0
1070
    74
1070
     0
1070
    77
1070
     1
1070
    78
1070
     8
1070
    79
1070
     2
1070
   140
1040
3.5
1070
   141
1040
1.5
1070
   146
1040
0.5142857142857144
1070
   147
1040
1.5
1070
   172
1070
     1
1070
   178
1070
     1
1070
   179
1070
     2
1070
   271
1070
     2
1070
   272
1070
     2
1070
   284
1070
     8
1070
   285
1070
     8
1070
   286
1070
     8
1002
}
  0
LINE
  5
4D86
330
1E
100
AcDbEntity
  8
STEMPEL
100
AcDbLine
 10
561.3808560778283
 20
358.1606327388103
 30
0.0
 11
801.3808560778286
 21
358.1606327388103
 31
0.0
  0
LINE
  5
4D87
330
1E
100
AcDbEntity
  8
STEMPEL
100
AcDbLine
 10
561.3808560778283
 20
360.1606327388103
 30
0.0
 11
801.3808560778286
 21
360.1606327388103
 31
0.0
  0
LINE
  5
4D88
330
1E
100
AcDbEntity
  8
STEMPEL
100
AcDbLine
 10
678.3808560778287
 20
308.1606327388111
 30
0.0
 11
801.3808560778283
 21
308.1606327388108
 31
0.0
  0
LINE
  5
4D89
330
1E
100
AcDbEntity
  8
HILF
100
AcDbLine
 10
801.3808560778286
 20
452.6597609253101
 30
0.0
 11
663.3808560778283
 21
452.6597609253101
 31
0.0
  0
LINE
  5
4D8A
330
1E
100
AcDbEntity
  8
STEMPEL
100
AcDbLine
 10
748.3808560778287
 20
435.1606327388106
 30
0.0
 11
676.3808560778283
 21
435.1606327388106
 31
0.0
  0
LINE
  5
4D8B
330
1E
100
AcDbEntity
  8
STEMPEL
100
AcDbLine
 10
748.3808560778287
 20
448.1597609253101
 30
0.0
 11
676.3808560778283
 21
448.1597609253101
 31
0.0
  0
LINE
  5
4D8C
330
1E
100
AcDbEntity
  8
STEMPEL
100
AcDbLine
 10
748.3808560778287
 20
405.1606327388107
 30
0.0
 11
676.3808560778283
 21
405.1606327388107
 31
0.0
  0
LINE
  5
4D8D
330
1E
100
AcDbEntity
  8
STEMPEL
100
AcDbLine
 10
748.3808560778287
 20
430.1606327388106
 30
0.0
 11
676.3808560778283
 21
430.1606327388106
 31
0.0
  0
LINE
  5
4D8E
330
1E
100
AcDbEntity
  8
STEMPEL
100
AcDbLine
 10
748.3808560778287
 20
415.1606327388106
 30
0.0
 11
676.3808560778283
 21
415.1606327388106
 31
0.0
  0
LINE
  5
4D8F
330
1E
100
AcDbEntity
  8
STEMPEL
100
AcDbLine
 10
748.3808560778287
 20
420.1606327388105
 30
0.0
 11
676.3808560778283
 21
420.1606327388105
 31
0.0
  0
LINE
  5
4D90
330
1E
100
AcDbEntity
  8
STEMPEL
100
AcDbLine
 10
748.3808560778287
 20
375.1606327388107
 30
0.0
 11
676.3808560778283
 21
375.1606327388107
 31
0.0
  0
LINE
  5
4D91
330
1E
100
AcDbEntity
  8
STEMPEL
100
AcDbLine
 10
748.3808560778287
 20
385.1606327388107
 30
0.0
 11
676.3808560778283
 21
385.1606327388107
 31
0.0
  0
LINE
  5
4D92
330
1E
100
AcDbEntity
  8
STEMPEL
100
AcDbLine
 10
748.3808560778287
 20
390.1606327388107
 30
0.0
 11
676.3808560778283
 21
390.1606327388107
 31
0.0
  0
LINE
  5
4D93
330
1E
100
AcDbEntity
  8
STEMPEL
100
AcDbLine
 10
748.3808560778287
 20
400.1606327388107
 30
0.0
 11
676.3808560778283
 21
400.1606327388107
 31
0.0
  0
LINE
  5
4D94
330
1E
100
AcDbEntity
  8
STEMPEL
100
AcDbLine
 10
801.3808560778283
 20
362.1606327388107
 30
0.0
 11
661.3808560778283
 21
362.1606327388107
 31
0.0
  0
LINE
  5
4D95
330
1E
100
AcDbEntity
  8
STEMPEL
100
AcDbLine
 10
680.9808560778286
 20
363.76063273881
 30
0.0
 11
691.7808560778284
 21
363.76063273881
 31
0.0
  0
LINE
  5
4D96
330
1E
100
AcDbEntity
  8
STEMPEL
100
AcDbLine
 10
692.3808560778287
 20
363.76063273881
 30
0.0
 11
680.3808560778287
 21
363.76063273881
 31
0.0
  0
ARC
  5
4D97
330
1E
100
AcDbEntity
  8
STEMPEL
100
AcDbCircle
 10
686.3808560778287
 20
359.56063273881
 30
0.0
 40
8.199999999999999
100
AcDbArc
 50
93.49581363238657
 51
131.1883597477446
  0
LINE
  5
4D98
330
1E
100
AcDbEntity
  8
STEMPEL
100
AcDbLine
 10
748.3808560778287
 20
370.1606327388107
 30
0.0
 11
676.3808560778283
 21
370.1606327388107
 31
0.0
  0
LINE
  5
4D99
330
1E
100
AcDbEntity
  8
BEM
100
AcDbLine
 10
681.3808560778287
 20
265.4473179009901
 30
0.0
 11
807.0872074279948
 21
265.4473179009901
 31
0.0
  0
LINE
  5
4D9A
330
1E
100
AcDbEntity
  8
BEM
100
AcDbLine
 10
568.3808560778283
 20
249.4473179009901
 30
0.0
 11
807.0872074279948
 21
249.44731790099
 31
0.0
  0
DIMENSION
  5
4D9B
330
1E
100
AcDbEntity
  8
BEM
100
AcDbDimension
  2
*D15
 10
543.996209619835
 20
358.1606327388103
 30
0.0
 11
537.4962096198348
 21
466.6606327388102
 31
0.0
 70
    32
 71
     5
 42
216.9999999999999
  3
Standard
100
AcDbAlignedDimension
 13
581.3808560778283
 23
575.1606327388101
 33
0.0
 14
561.3808560778283
 24
358.1606327388103
 34
0.0
 50
90.0
100
AcDbRotatedDimension
1001
ACAD
1000
DSTYLE
1002
{
1070
    40
1040
2.0
1070
    41
1040
3.5
1070
    42
1040
1.0
1070
    43
1040
7.0
1070
    44
1040
1.0
1070
    73
1070
     0
1070
    74
1070
     0
1070
    77
1070
     1
1070
    78
1070
     8
1070
    79
1070
     2
1070
   140
1040
3.5
1070
   141
1040
1.5
1070
   146
1040
0.5142857142857144
1070
   147
1040
1.5
1070
   172
1070
     1
1070
   178
1070
     1
1070
   179
1070
     2
1070
   271
1070
     2
1070
   272
1070
     2
1070
   284
1070
     8
1070
   285
1070
     8
1070
   286
1070
     8
1002
}
  0
LINE
  5
4D9C
330
1E
100
AcDbEntity
  8
STEMPEL
100
AcDbLine
 10
561.3808560778283
 20
358.1606327388103
 30
0.0
 11
561.3808560778283
 21
555.1606327388101
 31
0.0
  0
LINE
  5
4D9D
330
1E
100
AcDbEntity
  8
MITTEL
100
AcDbLine
 10
801.3808560778286
 20
282.4688377928906
 30
0.0
 11
801.3808560778286
 21
580.1606327388101
 31
0.0
  0
ARC
  5
4D9E
330
1E
100
AcDbEntity
  8
STEMPEL
100
AcDbCircle
 10
665.8808560778278
 20
452.6597609253128
 30
0.0
 40
4.5
100
AcDbArc
 50
90.0
 51
180.0
  0
LINE
  5
4D9F
330
1E
100
AcDbEntity
  8
STEMPEL
100
AcDbLine
 10
388.3042689796253
 20
575.1606327388101
 30
0.0
 11
390.3042689796254
 21
575.1606327388101
 31
0.0
  0
LINE
  5
4DA0
330
1E
100
AcDbEntity
  8
STEMPEL
100
AcDbLine
 10
388.1246284218743
 20
460.16063273881
 30
0.0
 11
390.3042689796254
 21
460.16063273881
 31
0.0
  0
ARC
  5
4DA1
330
1E
100
AcDbEntity
  8
STEMPEL
100
AcDbCircle
 10
386.3042689796253
 20
460.9890598635566
 30
0.0
 40
4.0
100
AcDbArc
 50
348.0471441092907
 51
0.0
  0
ARC
  5
4DA2
330
1E
100
AcDbEntity
  8
STEMPEL
100
AcDbCircle
 10
386.3042689796253
 20
460.9890598635566
 30
0.0
 40
2.0
100
AcDbArc
 50
315.0
 51
0.0
  0
LINE
  5
4DA3
330
1E
100
AcDbEntity
  8
STEMPEL
100
AcDbLine
 10
359.9443793317129
 20
455.1597609253086
 30
0.0
 11
359.9443793317129
 21
457.1597609253086
 31
0.0
  0
LINE
  5
4DA4
330
1E
100
AcDbEntity
  8
STEMPEL
100
AcDbLine
 10
390.3042689796254
 20
460.9890598635566
 30
0.0
 11
390.3042689796254
 21
575.1606327388101
 31
0.0
  0
LINE
  5
4DA5
330
1E
100
AcDbEntity
  8
STEMPEL
100
AcDbLine
 10
388.3042689796253
 20
460.9890598635566
 30
0.0
 11
388.3042689796253
 21
575.1606327388101
 31
0.0
  0
LINE
  5
4DA6
330
1E
100
AcDbEntity
  8
TEXT
 62
     2
100
AcDbLine
 10
413.2888032010995
 20
528.3554469010739
 30
0.0
 11
390.3042689796254
 21
517.4924387117466
 31
0.0
  0
LINE
  5
4DA7
330
1E
100
AcDbEntity
  8
STEMPEL
100
AcDbLine
 10
351.4197663018323
 20
455.1597609253086
 30
0.0
 11
351.4197663018323
 21
457.1597609253086
 31
0.0
  0
LINE
  5
4DA8
330
1E
100
AcDbEntity
  8
STEMPEL
100
AcDbLine
 10
308.4591059690573
 20
455.1597609253086
 30
0.0
 11
308.4591059690573
 21
457.1597609253091
 31
0.0
  0
LINE
  5
4DA9
330
1E
100
AcDbEntity
  8
STEMPEL
100
AcDbLine
 10
299.9344929391769
 20
455.1597609253086
 30
0.0
 11
299.9344929391767
 21
457.1597609253086
 31
0.0
  0
LINE
  5
4DAA
330
1E
100
AcDbEntity
  8
TEXT
 62
     2
100
AcDbLine
 10
413.6294059219715
 20
499.6403588869195
 30
0.0
 11
323.7466827775093
 21
457.1597609253087
 31
0.0
  0
LINE
  5
4DAB
330
1E
100
AcDbEntity
  8
STEMPEL
100
AcDbLine
 10
374.4394361354451
 20
457.1597609253086
 30
0.0
 11
285.4394361354451
 21
457.1597609253086
 31
0.0
  0
LINE
  5
4DAC
330
1E
100
AcDbEntity
  8
STEMPEL
100
AcDbLine
 10
374.4394361354451
 20
455.1597609253086
 30
0.0
 11
285.4394361354451
 21
455.1597609253086
 31
0.0
  0
LINE
  5
4DAD
330
1E
100
AcDbEntity
  8
STEMPEL
100
AcDbLine
 10
376.2072030884113
 20
450.8919939723419
 30
0.0
 11
372.3181157918856
 21
447.0029066758162
 31
0.0
  0
LINE
  5
4DAE
330
1E
100
AcDbEntity
  8
STEMPEL
100
AcDbLine
 10
372.3181157918852
 20
447.0029066758162
 30
0.0
 11
373.7323293542585
 21
445.5886931134438
 31
0.0
  0
LINE
  5
4DAF
330
1E
100
AcDbEntity
  8
STEMPEL
100
AcDbLine
 10
371.233201167758
 20
450.1606327388091
 30
0.0
 11
356.233201167758
 21
435.1606327388091
 31
0.0
  0
LINE
  5
4DB0
330
1E
100
AcDbEntity
  8
STEMPEL
100
AcDbLine
 10
390.3042689796301
 20
379.6586182430623
 30
0.0
 11
388.3042689796301
 21
379.6586182430623
 31
0.0
  0
POINT
  5
4DB1
330
1E
100
AcDbEntity
  8
DEFPOINTS
  6
ByBlock
 62
     0
100
AcDbPoint
 10
388.3042689796253
 20
359.2654482973764
 30
0.0
  0
POINT
  5
4DB2
330
1E
100
AcDbEntity
  8
DEFPOINTS
  6
ByBlock
 62
     0
100
AcDbPoint
 10
388.3042689796253
 20
359.2654482973764
 30
0.0
  0
ARC
  5
4DB3
330
1E
100
AcDbEntity
  8
SCHRAFF
100
AcDbCircle
 10
389.6125480007303
 20
380.6524968542054
 30
0.0
 40
2.731506745740781
100
AcDbArc
 50
10.63006587281734
 51
75.33080364923153
  0
INSERT
  5
4DB4
330
1E
100
AcDbEntity
  8
SCHRAFF
100
AcDbBlockReference
  2
*X7
 10
12.5607733775355
 20
-13.84375229288764
 30
0.0
1001
ACAD
1000
HATCH
1002
{
1070
    16
1000
_U,I
1040
0.1
1040
0.7853981633974483
1070
     0
1002
}
  0
LINE
  5
4DB5
330
1E
100
AcDbEntity
  8
STEMPEL
100
AcDbLine
 10
351.2332011677576
 20
430.1606327388086
 30
0.0
 11
341.2332011677589
 21
420.16063273881
 31
0.0
  0
LINE
  5
4DB6
330
1E
100
AcDbEntity
  8
STEMPEL
100
AcDbLine
 10
336.2332011677589
 20
415.1606327388099
 30
0.0
 11
326.2332011677589
 21
405.1606327388101
 31
0.0
  0
LINE
  5
4DB7
330
1E
100
AcDbEntity
  8
STEMPEL
100
AcDbLine
 10
288.9394361354456
 20
420.160632738809
 30
0.0
 11
288.9394361354456
 21
430.1606327388091
 31
0.0
  0
LINE
  5
4DB8
330
1E
100
AcDbEntity
  8
STEMPEL
100
AcDbLine
 10
288.9394361354456
 20
435.1606327388091
 30
0.0
 11
288.9394361354456
 21
450.1606327388091
 31
0.0
  0
LINE
  5
4DB9
330
1E
100
AcDbEntity
  8
STEMPEL
100
AcDbLine
 10
321.2332011677585
 20
400.1606327388096
 30
0.0
 11
311.2332011677589
 21
390.1606327388102
 31
0.0
  0
LINE
  5
4DBA
330
1E
100
AcDbEntity
  8
STEMPEL
100
AcDbLine
 10
288.9394361354456
 20
405.1606327388101
 30
0.0
 11
288.9394361354456
 21
415.1606327388099
 31
0.0
  0
LINE
  5
4DBB
330
1E
100
AcDbEntity
  8
STEMPEL
100
AcDbLine
 10
288.9394361354456
 20
390.1606327388102
 30
0.0
 11
288.9394361354456
 21
400.1606327388101
 31
0.0
  0
LINE
  5
4DBC
330
1E
100
AcDbEntity
  8
STEMPEL
100
AcDbLine
 10
321.2332011677589
 20
400.1606327388101
 30
0.0
 11
288.9394361354456
 21
400.1606327388101
 31
0.0
  0
LINE
  5
4DBD
330
1E
100
AcDbEntity
  8
STEMPEL
100
AcDbLine
 10
311.2332011677589
 20
390.1606327388102
 30
0.0
 11
288.9394361354456
 21
390.1606327388102
 31
0.0
  0
LINE
  5
4DBE
330
1E
100
AcDbEntity
  8
STEMPEL
100
AcDbLine
 10
306.2332011677589
 20
385.1606327388101
 30
0.0
 11
288.9394361354456
 21
385.1606327388101
 31
0.0
  0
LINE
  5
4DBF
330
1E
100
AcDbEntity
  8
STEMPEL
100
AcDbLine
 10
326.2332011677589
 20
405.1606327388101
 30
0.0
 11
288.9394361354456
 21
405.1606327388101
 31
0.0
  0
LINE
  5
4DC0
330
1E
100
AcDbEntity
  8
STEMPEL
100
AcDbLine
 10
351.233201167758
 20
430.1606327388091
 30
0.0
 11
288.9394361354456
 21
430.1606327388091
 31
0.0
  0
LINE
  5
4DC1
330
1E
100
AcDbEntity
  8
STEMPEL
100
AcDbLine
 10
341.2332011677589
 20
420.16063273881
 30
0.0
 11
288.9394361354456
 21
420.160632738809
 31
0.0
  0
LINE
  5
4DC2
330
1E
100
AcDbEntity
  8
STEMPEL
100
AcDbLine
 10
336.2332011677589
 20
415.1606327388099
 30
0.0
 11
288.9394361354456
 21
415.1606327388099
 31
0.0
  0
LINE
  5
4DC3
330
1E
100
AcDbEntity
  8
STEMPEL
100
AcDbLine
 10
296.2332011677589
 20
375.1606327388101
 30
0.0
 11
288.9394361354456
 21
375.1606327388101
 31
0.0
  0
LINE
  5
4DC4
330
1E
100
AcDbEntity
  8
STEMPEL
100
AcDbLine
 10
298.3042689796242
 20
370.1606327388097
 30
0.0
 11
288.9394361354456
 21
370.1606327388101
 31
0.0
  0
LINE
  5
4DC5
330
1E
100
AcDbEntity
  8
STEMPEL
100
AcDbLine
 10
288.9394361354456
 20
363.6247343539483
 30
0.0
 11
288.9394361354456
 21
370.1606327388101
 31
0.0
  0
LINE
  5
4DC6
330
1E
100
AcDbEntity
  8
STEMPEL
100
AcDbLine
 10
288.9394361354456
 20
375.1606327388101
 30
0.0
 11
288.9394361354456
 21
385.1606327388101
 31
0.0
  0
LINE
  5
4DC7
330
1E
100
AcDbEntity
  8
STEMPEL
100
AcDbLine
 10
306.2332011677589
 20
385.1606327388101
 30
0.0
 11
296.2332011677589
 21
375.1606327388101
 31
0.0
  0
LINE
  5
4DC8
330
1E
100
AcDbEntity
  8
STEMPEL
100
AcDbLine
 10
356.233201167758
 20
435.1606327388091
 30
0.0
 11
288.9394361354456
 21
435.1606327388091
 31
0.0
  0
LINE
  5
4DC9
330
1E
100
AcDbEntity
  8
STEMPEL
100
AcDbLine
 10
371.233201167758
 20
450.1606327388091
 30
0.0
 11
288.9394361354456
 21
450.1606327388091
 31
0.0
  0
ARC
  5
4DCA
330
1E
100
AcDbEntity
  8
STEMPEL
100
AcDbCircle
 10
386.3042689796253
 20
312.1606327388105
 30
0.0
 40
4.0
100
AcDbArc
 50
329.9999999999995
 51
0.0
  0
ARC
  5
4DCB
330
1E
100
AcDbEntity
  8
STEMPEL
100
AcDbCircle
 10
386.3042689796253
 20
312.1606327388105
 30
0.0
 40
2.0
100
AcDbArc
 50
270.0
 51
0.0
  0
ARC
  5
4DCC
330
1E
100
AcDbEntity
  8
SCHRAFF
100
AcDbCircle
 10
390.3042689796297
 20
310.0933877849121
 30
0.0
 40
4.009583431992041
100
AcDbArc
 50
208.8183221745892
 51
328.2248693433771
  0
INSERT
  5
4DCD
330
1E
100
AcDbEntity
  8
SCHRAFF
100
AcDbBlockReference
  2
*X8
 10
11.56077337753538
 20
-13.84375229288776
 30
0.0
1001
ACAD
1000
HATCH
1002
{
1070
    16
1000
_U,I
1040
0.2
1040
0.7853981633974483
1070
     0
1002
}
  0
LINE
  5
4DCE
330
1E
100
AcDbEntity
  8
STEMPEL
100
AcDbLine
 10
379.3621602025813
 20
238.1490788104192
 30
0.0
 11
377.3621602025813
 21
238.1490788104191
 31
0.0
  0
LINE
  5
4DCF
330
1E
100
AcDbEntity
  8
STEMPEL
100
AcDbLine
 10
282.9394361354456
 20
448.1606327388091
 30
0.0
 11
280.9394361354456
 21
448.1606327388091
 31
0.0
  0
ARC
  5
4DD0
330
1E
100
AcDbEntity
  8
SCHRAFF
100
AcDbCircle
 10
284.981131527907
 20
427.556297550551
 30
0.0
 40
2.592830535988874
100
AcDbArc
 50
40.95044298616509
 51
141.9468043941345
  0
ARC
  5
4DD1
330
1E
100
AcDbEntity
  8
SCHRAFF
100
AcDbCircle
 10
284.981131527907
 20
430.4871893619012
 30
0.0
 40
2.592830535988874
100
AcDbArc
 50
40.95044298616509
 51
141.9468043941345
  0
ARC
  5
4DD2
330
1E
100
AcDbEntity
  8
SCHRAFF
100
AcDbCircle
 10
284.981131527907
 20
433.4180811732505
 30
0.0
 40
2.592830535988874
100
AcDbArc
 50
40.95044298616509
 51
141.9468043941345
  0
LINE
  5
4DD3
330
1E
100
AcDbEntity
  8
STEMPEL
100
AcDbLine
 10
282.9394361354456
 20
430.1606327388095
 30
0.0
 11
280.9394361354451
 21
430.1606327388095
 31
0.0
  0
LINE
  5
4DD4
330
1E
100
AcDbEntity
  8
STEMPEL
100
AcDbLine
 10
282.9394361354456
 20
435.1606327388091
 30
0.0
 11
280.9394361354451
 21
435.1606327388091
 31
0.0
  0
LINE
  5
4DD5
330
1E
100
AcDbEntity
  8
STEMPEL
100
AcDbLine
 10
282.9394361354456
 20
420.160632738809
 30
0.0
 11
280.9394361354451
 21
420.160632738809
 31
0.0
  0
ARC
  5
4DD6
330
1E
100
AcDbEntity
  8
SCHRAFF
100
AcDbCircle
 10
285.2770882516185
 20
400.8371302332537
 30
0.0
 40
2.592830535988874
100
AcDbArc
 50
40.95044298616509
 51
141.9468043941345
  0
ARC
  5
4DD7
330
1E
100
AcDbEntity
  8
SCHRAFF
100
AcDbCircle
 10
285.2770882516185
 20
403.7680220446029
 30
0.0
 40
2.592830535988874
100
AcDbArc
 50
40.95044298616509
 51
141.9468043941345
  0
LINE
  5
4DD8
330
1E
100
AcDbEntity
  8
STEMPEL
100
AcDbLine
 10
282.9394361354451
 20
405.1606327388101
 30
0.0
 11
280.9394361354451
 21
405.1606327388101
 31
0.0
  0
LINE
  5
4DD9
330
1E
100
AcDbEntity
  8
STEMPEL
100
AcDbLine
 10
282.9394361354451
 20
415.1606327388099
 30
0.0
 11
280.9394361354451
 21
415.1606327388099
 31
0.0
  0
ARC
  5
4DDA
330
1E
100
AcDbEntity
  8
SCHRAFF
100
AcDbCircle
 10
285.2770882516185
 20
397.9062384219044
 30
0.0
 40
2.592830535988874
100
AcDbArc
 50
40.95044298616509
 51
141.9468043941345
  0
LINE
  5
4DDB
330
1E
100
AcDbEntity
  8
STEMPEL
100
AcDbLine
 10
282.9394361354451
 20
400.1606327388101
 30
0.0
 11
280.9394361354451
 21
400.1606327388101
 31
0.0
  0
LINE
  5
4DDC
330
1E
100
AcDbEntity
  8
STEMPEL
100
AcDbLine
 10
282.9394361354451
 20
385.1606327388101
 30
0.0
 11
280.9394361354451
 21
385.1606327388101
 31
0.0
  0
LINE
  5
4DDD
330
1E
100
AcDbEntity
  8
STEMPEL
100
AcDbLine
 10
282.9394361354451
 20
390.1606327388102
 30
0.0
 11
280.9394361354451
 21
390.1606327388102
 31
0.0
  0
LINE
  5
4DDE
330
1E
100
AcDbEntity
  8
STEMPEL
100
AcDbLine
 10
282.9394361354451
 20
370.1606327388101
 30
0.0
 11
280.9394361354451
 21
370.1606327388101
 31
0.0
  0
LINE
  5
4DDF
330
1E
100
AcDbEntity
  8
STEMPEL
100
AcDbLine
 10
282.9394361354451
 20
375.1606327388101
 30
0.0
 11
280.9394361354451
 21
375.1606327388101
 31
0.0
  0
ARC
  5
4DE0
330
1E
100
AcDbEntity
  8
SCHRAFF
100
AcDbCircle
 10
284.981131527907
 20
364.0487434995876
 30
0.0
 40
2.592830535988874
100
AcDbArc
 50
40.95044298616509
 51
141.9468043941345
  0
ARC
  5
4DE1
330
1E
100
AcDbEntity
  8
SCHRAFF
100
AcDbCircle
 10
284.981131527907
 20
366.9796353109368
 30
0.0
 40
2.592830535988874
100
AcDbArc
 50
40.95044298616509
 51
141.9468043941345
  0
ARC
  5
4DE2
330
1E
100
AcDbEntity
  8
SCHRAFF
100
AcDbCircle
 10
284.981131527907
 20
369.910527122287
 30
0.0
 40
2.592830535988874
100
AcDbArc
 50
40.95044298616509
 51
141.9468043941345
  0
ARC
  5
4DE3
330
1E
100
AcDbEntity
  8
STEMPEL
100
AcDbCircle
 10
273.3042689796242
 20
359.56063273881
 30
0.0
 40
8.199999999999999
100
AcDbArc
 50
48.81164025226026
 51
86.50418636761342
  0
LINE
  5
4DE4
330
1E
100
AcDbEntity
  8
STEMPEL
100
AcDbLine
 10
272.8042689796242
 20
367.7453746406662
 30
0.0
 11
272.8042689796242
 21
366.9739661750615
 31
0.0
  0
LINE
  5
4DE5
330
1E
100
AcDbEntity
  8
STEMPEL
100
AcDbLine
 10
273.8042689796242
 20
367.7453746406662
 30
0.0
 11
273.8042689796242
 21
366.9739661750615
 31
0.0
  0
LINE
  5
4DE6
330
1E
100
AcDbEntity
  8
STEMPEL
100
AcDbLine
 10
272.8042689796242
 20
366.9739661750615
 30
0.0
 11
273.8042689796242
 21
366.9739661750615
 31
0.0
  0
LINE
  5
4DE7
330
1E
100
AcDbEntity
  8
STEMPEL
100
AcDbLine
 10
279.3042689796242
 20
362.1606327388101
 30
0.0
 11
279.3042689796242
 21
363.76063273881
 31
0.0
  0
LINE
  5
4DE8
330
1E
100
AcDbEntity
  8
STEMPEL
100
AcDbLine
 10
279.7113151499015
 20
362.1606327388101
 30
0.0
 11
279.7113151499015
 21
360.2701567915731
 31
0.0
  0
LINE
  5
4DE9
330
1E
100
AcDbEntity
  8
STEMPEL
100
AcDbLine
 10
279.3042689796242
 20
360.1606327388101
 30
0.0
 11
279.3042689796242
 21
358.1606327388101
 31
0.0
  0
LINE
  5
4DEA
330
1E
100
AcDbEntity
  8
STEMPEL
100
AcDbLine
 10
276.0542689796245
 20
358.1606327388101
 30
0.0
 11
276.0542689796245
 21
355.5237724596246
 31
0.0
  0
LINE
  5
4DEB
330
1E
100
AcDbEntity
  8
STEMPEL
100
AcDbLine
 10
273.3042689796242
 20
350.7606327388101
 30
0.0
 11
276.0542689796245
 21
355.5237724596246
 31
0.0
  0
LINE
  5
4DEC
330
1E
100
AcDbEntity
  8
HILF
100
AcDbLine
 10
275.2542689796245
 20
358.1606327388101
 30
0.0
 11
275.2542689796245
 21
354.1381318135698
 31
0.0
  0
ARC
  5
4DED
330
1E
100
AcDbEntity
  8
STEMPEL
100
AcDbCircle
 10
278.9394361354451
 20
364.1606327388101
 30
0.0
 40
4.0
100
AcDbArc
 50
270.0
 51
0.0
  0
ARC
  5
4DEE
330
1E
100
AcDbEntity
  8
STEMPEL
100
AcDbCircle
 10
278.9394361354451
 20
364.1606327388101
 30
0.0
 40
2.0
100
AcDbArc
 50
270.0
 51
0.0
  0
LINE
  5
4DEF
330
1E
100
AcDbEntity
  8
MITTEL
100
AcDbLine
 10
274.9394361354451
 20
356.2029064255801
 30
0.0
 11
274.9394361354451
 21
365.8916940458191
 31
0.0
  0
LINE
  5
4DF0
330
1E
100
AcDbEntity
  8
MITTEL
100
AcDbLine
 10
273.3042689796242
 20
370.7268569047615
 30
0.0
 11
273.3042689796242
 21
348.325595551641
 31
0.0
  0
LINE
  5
4DF1
330
1E
100
AcDbEntity
  8
STEMPEL
100
AcDbLine
 10
278.7042689796241
 20
365.7315321870268
 30
0.0
 11
278.7042689796241
 21
363.7606327388102
 31
0.0
  0
LINE
  5
4DF2
330
1E
100
AcDbEntity
  8
STEMPEL
100
AcDbLine
 10
267.3042689796242
 20
362.1606327388101
 30
0.0
 11
267.3042689796242
 21
363.76063273881
 31
0.0
  0
LINE
  5
4DF3
330
1E
100
AcDbEntity
  8
STEMPEL
100
AcDbLine
 10
267.3042689796242
 20
360.1606327388101
 30
0.0
 11
267.3042689796242
 21
358.1606327388101
 31
0.0
  0
LINE
  5
4DF4
330
1E
100
AcDbEntity
  8
STEMPEL
100
AcDbLine
 10
270.9394361354442
 20
362.1606327388101
 30
0.0
 11
270.9394361354442
 21
360.1606327388104
 31
0.0
  0
LINE
  5
4DF5
330
1E
100
AcDbEntity
  8
STEMPEL
100
AcDbLine
 10
270.5542689796242
 20
358.1606327388101
 30
0.0
 11
270.5542689796242
 21
355.5237724596242
 31
0.0
  0
LINE
  5
4DF6
330
1E
100
AcDbEntity
  8
HILF
100
AcDbLine
 10
271.3542689796242
 20
358.1606327388101
 30
0.0
 11
271.3542689796242
 21
354.1381318135692
 31
0.0
  0
LINE
  5
4DF7
330
1E
100
AcDbEntity
  8
STEMPEL
100
AcDbLine
 10
261.9394361354451
 20
359.1606327388102
 30
0.0
 11
261.9394361354451
 21
350.1606327388101
 31
0.0
  0
LINE
  5
4DF8
330
1E
100
AcDbEntity
  8
STEMPEL
100
AcDbLine
 10
263.9394361354451
 20
359.1606327388102
 30
0.0
 11
263.9394361354451
 21
350.1606327388101
 31
0.0
  0
LINE
  5
4DF9
330
1E
100
AcDbEntity
  8
STEMPEL
100
AcDbLine
 10
263.9394361354451
 20
350.1606327388101
 30
0.0
 11
261.9394361354451
 21
350.1606327388101
 31
0.0
  0
ARC
  5
4DFA
330
1E
100
AcDbEntity
  8
STEMPEL
100
AcDbCircle
 10
264.9394361354451
 20
359.1606327388102
 30
0.0
 40
1.0
100
AcDbArc
 50
90.0
 51
180.0
  0
ARC
  5
4DFB
330
1E
100
AcDbEntity
  8
STEMPEL
100
AcDbCircle
 10
264.9394361354451
 20
359.1606327388102
 30
0.0
 40
3.0
100
AcDbArc
 50
90.0
 51
180.0
  0
LINE
  5
4DFC
330
1E
100
AcDbEntity
  8
STEMPEL
100
AcDbLine
 10
267.9042689796239
 20
365.7315321870263
 30
0.0
 11
267.9042689796239
 21
363.7606327388102
 31
0.0
  0
LINE
  5
4DFD
330
1E
100
AcDbEntity
  8
STEMPEL
100
AcDbLine
 10
279.3042689796242
 20
363.76063273881
 30
0.0
 11
267.3042689796242
 21
363.76063273881
 31
0.0
  0
LINE
  5
4DFE
330
1E
100
AcDbEntity
  8
STEMPEL
100
AcDbLine
 10
278.9394361354451
 20
360.1606327388101
 30
0.0
 11
264.9394361354451
 21
360.1606327388101
 31
0.0
  0
LINE
  5
4DFF
330
1E
100
AcDbEntity
  8
STEMPEL
100
AcDbLine
 10
287.4758418548791
 20
360.1606327388101
 30
0.0
 11
264.9394361354451
 21
360.1606327388101
 31
0.0
  0
LINE
  5
4E00
330
1E
100
AcDbEntity
  8
STEMPEL
100
AcDbLine
 10
263.9394361354451
 20
358.1606327388101
 30
0.0
 11
287.4758418548791
 21
358.1606327388101
 31
0.0
  0
LINE
  5
4E01
330
1E
100
AcDbEntity
  8
STEMPEL
100
AcDbLine
 10
263.9394361354451
 20
358.1606327388101
 30
0.0
 11
286.3042689796253
 21
358.1606327388101
 31
0.0
  0
LINE
  5
4E02
330
1E
100
AcDbEntity
  8
STEMPEL
100
AcDbLine
 10
267.9042689796241
 20
363.76063273881
 30
0.0
 11
278.7042689796239
 21
363.76063273881
 31
0.0
  0
LINE
  5
4E03
330
1E
100
AcDbEntity
  8
STEMPEL
100
AcDbLine
 10
273.3042689796242
 20
350.7606327388101
 30
0.0
 11
270.554268979624
 21
355.5237724596246
 31
0.0
  0
ARC
  5
4E04
330
1E
100
AcDbEntity
  8
STEMPEL
100
AcDbCircle
 10
273.3042689796242
 20
359.56063273881
 30
0.0
 40
8.199999999999999
100
AcDbArc
 50
93.49581363238657
 51
131.1883597477446
  0
LINE
  5
4E05
330
1E
100
AcDbEntity
  8
STEMPEL
100
AcDbLine
 10
250.9394361354452
 20
362.1606327388101
 30
0.0
 11
250.9394361354452
 21
360.1606327388104
 31
0.0
  0
LINE
  5
4E06
330
1E
100
AcDbEntity
  8
STEMPEL
100
AcDbLine
 10
241.9394361354456
 20
359.1606327388102
 30
0.0
 11
241.9394361354456
 21
350.1606327388101
 31
0.0
  0
LINE
  5
4E07
330
1E
100
AcDbEntity
  8
STEMPEL
100
AcDbLine
 10
243.9394361354456
 20
359.1606327388102
 30
0.0
 11
243.9394361354456
 21
350.1606327388101
 31
0.0
  0
ARC
  5
4E08
330
1E
100
AcDbEntity
  8
STEMPEL
100
AcDbCircle
 10
244.9394361354456
 20
359.1606327388102
 30
0.0
 40
1.0
100
AcDbArc
 50
90.0
 51
180.0
  0
LINE
  5
4E09
330
1E
100
AcDbEntity
  8
STEMPEL
100
AcDbLine
 10
243.9394361354456
 20
350.1606327388101
 30
0.0
 11
241.9394361354456
 21
350.1606327388101
 31
0.0
  0
ARC
  5
4E0A
330
1E
100
AcDbEntity
  8
STEMPEL
100
AcDbCircle
 10
244.9394361354456
 20
359.1606327388102
 30
0.0
 40
3.0
100
AcDbArc
 50
90.0
 51
180.0
  0
LINE
  5
4E0B
330
1E
100
AcDbEntity
  8
STEMPEL
100
AcDbLine
 10
230.9394361354456
 20
362.1606327388101
 30
0.0
 11
230.9394361354456
 21
360.1606327388104
 31
0.0
  0
LINE
  5
4E0C
330
1E
100
AcDbEntity
  8
STEMPEL
100
AcDbLine
 10
223.9394361354456
 20
359.1606327388102
 30
0.0
 11
223.9394361354456
 21
350.1606327388101
 31
0.0
  0
ARC
  5
4E0D
330
1E
100
AcDbEntity
  8
STEMPEL
100
AcDbCircle
 10
224.9394361354456
 20
359.1606327388102
 30
0.0
 40
1.0
100
AcDbArc
 50
90.0
 51
180.0
  0
LINE
  5
4E0E
330
1E
100
AcDbEntity
  8
STEMPEL
100
AcDbLine
 10
242.1110090106994
 20
360.1606327388101
 30
0.0
 11
224.9394361354456
 21
360.1606327388101
 31
0.0
  0
LINE
  5
4E0F
330
1E
100
AcDbEntity
  8
STEMPEL
100
AcDbLine
 10
242.1110090106994
 20
360.1606327388101
 30
0.0
 11
224.9394361354456
 21
360.1606327388101
 31
0.0
  0
LINE
  5
4E10
330
1E
100
AcDbEntity
  8
STEMPEL
100
AcDbLine
 10
223.9394361354456
 20
358.1606327388101
 30
0.0
 11
241.9394361354456
 21
358.1606327388103
 31
0.0
  0
LINE
  5
4E11
330
1E
100
AcDbEntity
  8
STEMPEL
100
AcDbLine
 10
223.9394361354456
 20
358.1606327388103
 30
0.0
 11
241.9394361354456
 21
358.1606327388101
 31
0.0
  0
LINE
  5
4E12
330
1E
100
AcDbEntity
  8
STEMPEL
100
AcDbLine
 10
262.1110090106989
 20
360.1606327388101
 30
0.0
 11
244.9394361354456
 21
360.1606327388101
 31
0.0
  0
LINE
  5
4E13
330
1E
100
AcDbEntity
  8
STEMPEL
100
AcDbLine
 10
262.1110090106989
 20
360.1606327388101
 30
0.0
 11
244.9394361354456
 21
360.1606327388101
 31
0.0
  0
LINE
  5
4E14
330
1E
100
AcDbEntity
  8
STEMPEL
100
AcDbLine
 10
243.9394361354456
 20
358.1606327388103
 30
0.0
 11
261.9394361354451
 21
358.1606327388101
 31
0.0
  0
LINE
  5
4E15
330
1E
100
AcDbEntity
  8
STEMPEL
100
AcDbLine
 10
243.9394361354456
 20
358.1606327388101
 30
0.0
 11
261.9394361354451
 21
358.1606327388101
 31
0.0
  0
LINE
  5
4E16
330
1E
100
AcDbEntity
  8
STEMPEL
100
AcDbLine
 10
282.9394361354456
 20
452.6597609253086
 30
0.0
 11
282.9394361354451
 21
360.1606327388101
 31
0.0
  0
LINE
  5
4E17
330
1E
100
AcDbEntity
  8
STEMPEL
100
AcDbLine
 10
280.9394361354456
 20
452.6597609253086
 30
0.0
 11
280.9394361354451
 21
364.1606327388101
 31
0.0
  0
LINE
  5
4E18
330
1E
100
AcDbEntity
  8
STEMPEL
100
AcDbLine
 10
221.9394361354456
 20
359.1606327388102
 30
0.0
 11
221.9394361354456
 21
350.1606327388101
 31
0.0
  0
LINE
  5
4E19
330
1E
100
AcDbEntity
  8
STEMPEL
100
AcDbLine
 10
210.9394361354456
 20
362.1606327388101
 30
0.0
 11
210.9394361354456
 21
360.1606327388101
 31
0.0
  0
LINE
  5
4E1A
330
1E
100
AcDbEntity
  8
STEMPEL
100
AcDbLine
 10
208.3042689796235
 20
358.1606327388101
 30
0.0
 11
221.9394361354456
 21
358.1606327388103
 31
0.0
  0
LINE
  5
4E1B
330
1E
100
AcDbEntity
  8
STEMPEL
100
AcDbLine
 10
201.9394361354451
 20
359.160632738811
 30
0.0
 11
201.9394361354451
 21
350.1606327388111
 31
0.0
  0
LINE
  5
4E1C
330
1E
100
AcDbEntity
  8
STEMPEL
100
AcDbLine
 10
203.9394361354451
 20
359.160632738811
 30
0.0
 11
203.9394361354451
 21
350.1606327388111
 31
0.0
  0
LINE
  5
4E1D
330
1E
100
AcDbEntity
  8
STEMPEL
100
AcDbLine
 10
203.9394361354451
 20
350.1606327388111
 30
0.0
 11
201.9394361354451
 21
350.1606327388111
 31
0.0
  0
ARC
  5
4E1E
330
1E
100
AcDbEntity
  8
STEMPEL
100
AcDbCircle
 10
204.9394361354451
 20
359.160632738811
 30
0.0
 40
1.0
100
AcDbArc
 50
90.0
 51
180.0
  0
ARC
  5
4E1F
330
1E
100
AcDbEntity
  8
STEMPEL
100
AcDbCircle
 10
204.9394361354451
 20
359.160632738811
 30
0.0
 40
3.0
100
AcDbArc
 50
90.0
 51
180.0
  0
LINE
  5
4E20
330
1E
100
AcDbEntity
  8
STEMPEL
100
AcDbLine
 10
190.9394361354451
 20
362.1606327388111
 30
0.0
 11
190.9394361354451
 21
360.1606327388101
 31
0.0
  0
LINE
  5
4E21
330
1E
100
AcDbEntity
  8
STEMPEL
100
AcDbLine
 10
222.1110090106994
 20
360.1606327388101
 30
0.0
 11
204.9394361354451
 21
360.1606327388101
 31
0.0
  0
LINE
  5
4E22
330
1E
100
AcDbEntity
  8
STEMPEL
100
AcDbLine
 10
222.1110090106994
 20
360.1606327388101
 30
0.0
 11
204.9394361354451
 21
360.1606327388101
 31
0.0
  0
LINE
  5
4E23
330
1E
100
AcDbEntity
  8
STEMPEL
100
AcDbLine
 10
203.9394361354451
 20
358.1606327388101
 30
0.0
 11
221.9394361354456
 21
358.1606327388101
 31
0.0
  0
INSERT
  5
4E24
330
1E
100
AcDbEntity
  8
SCHRAFF
  6
Continuous
100
AcDbBlockReference
  2
*X3
 10
-456.7395000318879
 20
-707.1959512588505
 30
0.0
1001
ACAD
1000
HATCH
1002
{
1070
    19
1000
_U
1040
0.2
1040
0.7853981633974483
1070
     0
1000
R14_HATCH_DATA
1000
1BFF
1011
-27.36023885032807
1021
-539.2201726022194
1031
0.0
1011
-28.36023885032807
1021
-538.2201726022194
1031
0.0
1011
-28.36023885032807
1021
-539.2201726022194
1031
1.0
1040
0.0
1010
0.0
1020
0.0
1030
1.0
1000
_U
1070
     0
1070
     0
1071
        1
1071
        7
1070
     1
1070
     1
1071
        3
1040
643.0437690115133
1040
1065.356583997661
1040
0.0
1040
639.0437690115133
1040
1065.356583997661
1040
0.4142135623730951
1040
643.0437690115133
1040
1061.356583997661
1040
0.0
1071
        0
1070
     0
1070
     0
1040
0.7853981633974483
1040
0.2
1070
     0
1070
     1
1040
0.7853981633974483
1040
0.0
1040
0.0
1040
-0.1414213562373095
1040
0.1414213562373095
1070
     0
1040
0.5811394727782519
1071
        1
1040
641.7004893300254
1040
1063.5438458803
1040
0.0
1002
}
  0
LINE
  5
4E25
330
1E
100
AcDbEntity
  8
STEMPEL
100
AcDbLine
 10
175.9394361354451
 20
362.1606327388101
 30
0.0
 11
175.9394361354451
 21
360.1606327388101
 31
0.0
  0
ARC
  5
4E26
330
1E
100
AcDbEntity
  8
SCHRAFF
100
AcDbCircle
 10
186.3042689796253
 20
358.1606327388101
 30
0.0
 40
4.0
100
AcDbArc
 50
180.0
 51
270.0
  0
LINE
  5
4E27
330
1E
100
AcDbEntity
  8
STEMPEL
100
AcDbLine
 10
188.3042689796253
 20
358.1606327388101
 30
0.0
 11
193.3042689796235
 21
358.1606327388101
 31
0.0
  0
LINE
  5
4E28
330
1E
100
AcDbEntity
  8
STEMPEL
100
AcDbLine
 10
223.9394361354456
 20
350.1606327388101
 30
0.0
 11
221.9394361354456
 21
350.1606327388101
 31
0.0
  0
LINE
  5
4E29
330
1E
100
AcDbEntity
  8
STEMPEL
100
AcDbLine
 10
278.9394361354451
 20
362.1606327388101
 30
0.0
 11
175.9394361354451
 21
362.1606327388101
 31
0.0
  0
ARC
  5
4E2A
330
1E
100
AcDbEntity
  8
STEMPEL
100
AcDbCircle
 10
224.9394361354456
 20
359.1606327388102
 30
0.0
 40
3.0
100
AcDbArc
 50
90.0
 51
180.0
  0
ARC
  5
4E2B
330
1E
100
AcDbEntity
  8
STEMPEL
100
AcDbCircle
 10
190.3042689796253
 20
312.1606327388105
 30
0.0
 40
4.0
100
AcDbArc
 50
180.0
 51
270.0
  0
ARC
  5
4E2C
330
1E
100
AcDbEntity
  8
STEMPEL
100
AcDbCircle
 10
190.3042689796253
 20
312.1606327388105
 30
0.0
 40
2.0
100
AcDbArc
 50
180.0
 51
270.0
  0
LINE
  5
4E2D
330
1E
100
AcDbEntity
  8
STEMPEL
100
AcDbLine
 10
186.3042689796253
 20
312.1606327388105
 30
0.0
 11
186.3042689796253
 21
358.1606327388101
 31
0.0
  0
LINE
  5
4E2E
330
1E
100
AcDbEntity
  8
STEMPEL
100
AcDbLine
 10
188.3042689796253
 20
312.1606327388105
 30
0.0
 11
188.3042689796253
 21
360.1606327388101
 31
0.0
  0
DIMENSION
  5
4E2F
330
1E
100
AcDbEntity
  8
BEM
100
AcDbDimension
  2
*D16
 10
186.3042689796253
 20
291.2788428047976
 30
0.0
 11
288.3042689796253
 21
297.7788428047976
 31
0.0
 70
    32
 71
     5
 42
204.0
  3
Standard
100
AcDbAlignedDimension
 13
390.3042689796254
 23
308.0906430929166
 33
0.0
 14
186.3042689796253
 24
312.1606327388105
 34
0.0
100
AcDbRotatedDimension
1001
ACAD
1000
DSTYLE
1002
{
1070
    40
1040
2.0
1070
    41
1040
3.5
1070
    42
1040
1.0
1070
    43
1040
7.0
1070
    44
1040
1.0
1070
    73
1070
     0
1070
    74
1070
     0
1070
    77
1070
     1
1070
    78
1070
     8
1070
    79
1070
     2
1070
   140
1040
3.5
1070
   141
1040
1.5
1070
   146
1040
0.5142857142857144
1070
   147
1040
1.5
1070
   172
1070
     1
1070
   178
1070
     1
1070
   179
1070
     2
1070
   271
1070
     2
1070
   272
1070
     2
1070
   284
1070
     8
1070
   285
1070
     8
1070
   286
1070
     8
1002
}
  0
LINE
  5
4E30
330
1E
100
AcDbEntity
  8
STEMPEL
100
AcDbLine
 10
190.3042689796253
 20
308.1606327388105
 30
0.0
 11
390.3042689796254
 21
308.1606327388105
 31
0.0
  0
LINE
  5
4E31
330
1E
100
AcDbEntity
  8
STEMPEL
100
AcDbLine
 10
190.3042689796253
 20
310.1606327388105
 30
0.0
 11
390.3042689796254
 21
310.1606327388105
 31
0.0
  0
ARC
  5
4E32
330
1E
100
AcDbEntity
  8
STEMPEL
100
AcDbCircle
 10
287.4758418548791
 20
362.1606327388101
 30
0.0
 40
2.0
100
AcDbArc
 50
270.0
 51
315.0
  0
ARC
  5
4E33
330
1E
100
AcDbEntity
  8
STEMPEL
100
AcDbCircle
 10
287.4758418548791
 20
362.1606327388101
 30
0.0
 40
4.0
100
AcDbArc
 50
270.0
 51
315.0
  0
LINE
  5
4E34
330
1E
100
AcDbEntity
  8
STEMPEL
100
AcDbLine
 10
282.9394361354451
 20
360.1606327388101
 30
0.0
 11
288.9394361354456
 21
363.6247343539483
 31
0.0
  0
LINE
  5
4E35
330
1E
100
AcDbEntity
  8
HILF
100
AcDbLine
 10
277.299099942565
 20
258.1490788104192
 30
0.0
 11
277.299099942565
 21
158.149078810419
 31
0.0
  0
LINE
  5
4E36
330
1E
100
AcDbEntity
  8
STEMPEL
100
AcDbLine
 10
377.3621602025813
 20
258.1490788104192
 30
0.0
 11
377.3621602025816
 21
18.14907881041904
 31
0.0
  0
LINE
  5
4E37
330
1E
100
AcDbEntity
  8
STEMPEL
100
AcDbLine
 10
379.3621602025813
 20
258.1490788104192
 30
0.0
 11
379.3621602025816
 21
18.14907881041904
 31
0.0
  0
LINE
  5
4E38
330
1E
100
AcDbEntity
  8
MITTEL
100
AcDbLine
 10
123.3042689796253
 20
353.1606327388101
 30
0.0
 11
123.3042689796253
 21
365.1606327388102
 31
0.0
  0
LINE
  5
4E39
330
1E
100
AcDbEntity
  8
STEMPEL
100
AcDbLine
 10
73.30426897962536
 20
358.1606327388101
 30
0.0
 11
73.30426897962536
 21
360.1606327388101
 31
0.0
  0
LINE
  5
4E3A
330
1E
100
AcDbEntity
  8
STEMPEL
100
AcDbLine
 10
82.36216020258131
 20
258.1490788104191
 30
0.0
 11
62.36216020258132
 21
238.1490788104191
 31
0.0
  0
LINE
  5
4E3B
330
1E
100
AcDbEntity
  8
STEMPEL
100
AcDbLine
 10
62.36216020258132
 20
238.1490788104191
 30
0.0
 11
62.36216020258132
 21
18.14907881041893
 31
0.0
  0
LINE
  5
4E3C
330
1E
100
AcDbEntity
  8
STEMPEL
100
AcDbLine
 10
379.3621602025813
 20
258.1490788104192
 30
0.0
 11
82.36216020258131
 21
258.1490788104191
 31
0.0
  0
LINE
  5
4E3D
330
1E
100
AcDbEntity
  8
STEMPEL
100
AcDbLine
 10
73.30426897962536
 20
358.1606327388101
 30
0.0
 11
201.9394361354451
 21
358.1606327388101
 31
0.0
  0
LINE
  5
4E3E
330
1E
100
AcDbEntity
  8
STEMPEL
100
AcDbLine
 10
202.1110090106987
 20
360.1606327388101
 30
0.0
 11
73.30426897962536
 21
360.1606327388101
 31
0.0
  0
INSERT
  5
4E3F
330
1E
100
AcDbEntity
  8
SCHRAFF
100
AcDbBlockReference
  2
*X4
 10
-401.204721078227
 20
-707.1959512588505
 30
0.0
1001
ACAD
1000
HATCH
1002
{
1070
    16
1000
_U,I
1040
2.0
1040
2.356194490192344
1070
     0
1002
}
  0
LINE
  5
4E40
330
1E
100
AcDbEntity
  8
STEMPEL
100
AcDbLine
 10
290.3042689796254
 20
359.3322056140639
 30
0.0
 11
388.3042689796253
 21
457.3322056140638
 31
0.0
  0
LINE
  5
4E41
330
1E
100
AcDbEntity
  8
STEMPEL
100
AcDbLine
 10
288.890055417252
 20
360.7464191764373
 30
0.0
 11
387.7184825419978
 21
459.5748463011845
 31
0.0
  0
LINE
  5
4E42
330
1E
100
AcDbEntity
  8
STEMPEL
100
AcDbLine
 10
390.3042689796254
 20
308.1606327388105
 30
0.0
 11
390.3042689796254
 21
460.16063273881
 31
0.0
  0
LINE
  5
4E43
330
1E
100
AcDbEntity
  8
STEMPEL
100
AcDbLine
 10
388.3042689796253
 20
312.1606327388105
 30
0.0
 11
388.3042689796253
 21
460.16063273881
 31
0.0
  0
INSERT
  5
4E44
330
1E
100
AcDbEntity
  8
SCHRAFF
100
AcDbBlockReference
  2
*X2
 10
-683.5296827545885
 20
-8.639196161665267
 30
0.0
1001
ACAD
1000
HATCH
1002
{
1070
    16
1000
_U,I
1040
3.0
1040
0.7853981633974483
1070
     0
1002
}
  0
ARC
  5
4E45
330
1E
100
AcDbEntity
  8
STEMPEL
100
AcDbCircle
 10
374.4394361354451
 20
452.6597609253086
 30
0.0
 40
2.5
100
AcDbArc
 50
315.0
 51
90.0
  0
ARC
  5
4E46
330
1E
100
AcDbEntity
  8
STEMPEL
100
AcDbCircle
 10
374.4394361354451
 20
452.6597609253086
 30
0.0
 40
4.5
100
AcDbArc
 50
315.0
 51
90.0
  0
ARC
  5
4E47
330
1E
100
AcDbEntity
  8
SCHRAFF
100
AcDbCircle
 10
330.5041859129746
 20
453.8661831698492
 30
0.0
 40
2.592830535988874
100
AcDbArc
 50
318.8425098051346
 51
29.92762352415139
  0
ARC
  5
4E48
330
1E
100
AcDbEntity
  8
STEMPEL
100
AcDbCircle
 10
285.4394361354451
 20
452.6597609253086
 30
0.0
 40
4.5
100
AcDbArc
 50
90.0
 51
180.0
  0
ARC
  5
4E49
330
1E
100
AcDbEntity
  8
STEMPEL
100
AcDbCircle
 10
285.4394361354451
 20
452.6597609253086
 30
0.0
 40
2.5
100
AcDbArc
 50
90.0
 51
180.0
  0
ARC
  5
4E4A
330
1E
100
AcDbEntity
  8
SCHRAFF
100
AcDbCircle
 10
291.4047315550914
 20
453.8661831698492
 30
0.0
 40
2.592830535988874
100
AcDbArc
 50
318.8425098051346
 51
29.92762352415139
  0
ARC
  5
4E4B
330
1E
100
AcDbEntity
  8
SCHRAFF
100
AcDbCircle
 10
293.9803889120848
 20
453.8661831698492
 30
0.0
 40
2.592830535988874
100
AcDbArc
 50
318.8425098051346
 51
29.92762352415139
  0
ARC
  5
4E4C
330
1E
100
AcDbEntity
  8
SCHRAFF
100
AcDbCircle
 10
296.5560462690781
 20
453.8661831698492
 30
0.0
 40
2.592830535988874
100
AcDbArc
 50
318.8425098051346
 51
29.92762352415139
  0
ARC
  5
4E4D
330
1E
100
AcDbEntity
  8
SCHRAFF
100
AcDbCircle
 10
327.9285285559808
 20
453.8661831698492
 30
0.0
 40
2.592830535988874
100
AcDbArc
 50
318.8425098051346
 51
29.92762352415139
  0
ARC
  5
4E4E
330
1E
100
AcDbEntity
  8
SCHRAFF
100
AcDbCircle
 10
333.0798432699684
 20
453.8661831698492
 30
0.0
 40
2.592830535988874
100
AcDbArc
 50
318.8425098051346
 51
29.92762352415139
  0
ARC
  5
4E4F
330
1E
100
AcDbEntity
  8
SCHRAFF
100
AcDbCircle
 10
364.2296483195531
 20
453.8661831698492
 30
0.0
 40
2.592830535988874
100
AcDbArc
 50
318.8425098051346
 51
29.92762352415139
  0
ARC
  5
4E50
330
1E
100
AcDbEntity
  8
SCHRAFF
100
AcDbCircle
 10
361.6539909625597
 20
453.8661831698492
 30
0.0
 40
2.592830535988874
100
AcDbArc
 50
318.8425098051346
 51
29.92762352415139
  0
ARC
  5
4E51
330
1E
100
AcDbEntity
  8
SCHRAFF
100
AcDbCircle
 10
366.8053056765474
 20
453.8661831698492
 30
0.0
 40
2.592830535988874
100
AcDbArc
 50
318.8425098051346
 51
29.92762352415139
  0
DIMENSION
  5
4E52
330
1E
100
AcDbEntity
  8
BEM
100
AcDbDimension
  2
*D17
 10
388.3042689796253
 20
563.6496067587748
 30
0.0
 11
334.6218525575355
 21
570.1496067587749
 31
0.0
 70
    32
  1
107
 71
     5
 42
107.3648328441797
  3
Standard
100
AcDbAlignedDimension
 13
280.9394361354456
 23
452.6597609253086
 33
0.0
 14
388.3042689796253
 24
575.1606327388101
 34
0.0
100
AcDbRotatedDimension
1001
ACAD
1000
DSTYLE
1002
{
1070
    40
1040
2.0
1070
    41
1040
3.5
1070
    42
1040
1.0
1070
    43
1040
7.0
1070
    44
1040
1.0
1070
    73
1070
     0
1070
    74
1070
     0
1070
    77
1070
     1
1070
    78
1070
     8
1070
    79
1070
     2
1070
   140
1040
3.5
1070
   141
1040
1.5
1070
   146
1040
0.5142857142857144
1070
   147
1040
1.5
1070
   172
1070
     1
1070
   178
1070
     1
1070
   179
1070
     2
1070
   271
1070
     2
1070
   272
1070
     2
1070
   284
1070
     8
1070
   285
1070
     8
1070
   286
1070
     8
1002
}
  0
INSERT
  5
4E53
330
1E
100
AcDbEntity
  8
SCHRAFF
100
AcDbBlockReference
  2
*X11
 10
-0.0000000000001137
 20
0.0
 30
0.0
1001
ACAD
1000
HATCH
1002
{
1070
    16
1000
_U,I
1040
2.0
1040
0.7853981633974483
1070
     0
1002
}
  0
DIMENSION
  5
4E54
330
1E
100
AcDbEntity
  8
BEM
100
AcDbDimension
  2
*D18
 10
58.23055015834063
 20
457.1597609253087
 30
0.0
 11
51.73055015834056
 21
408.6601968320593
 31
0.0
 70
    32
 71
     5
 42
96.9991281864987
  3
Standard
100
AcDbAlignedDimension
 13
73.30426897962536
 23
360.16063273881
 33
0.0
 14
291.3861567866998
 24
457.1597609253086
 34
0.0
 50
90.0
100
AcDbRotatedDimension
1001
ACAD
1000
DSTYLE
1002
{
1070
    40
1040
2.0
1070
    41
1040
3.5
1070
    42
1040
1.0
1070
    43
1040
7.0
1070
    44
1040
1.0
1070
    73
1070
     0
1070
    74
1070
     0
1070
    77
1070
     1
1070
    78
1070
     8
1070
    79
1070
     2
1070
   140
1040
3.5
1070
   141
1040
1.5
1070
   146
1040
0.5142857142857144
1070
   147
1040
1.5
1070
   172
1070
     1
1070
   178
1070
     1
1070
   179
1070
     2
1070
   271
1070
     2
1070
   272
1070
     2
1070
   284
1070
     8
1070
   285
1070
     8
1070
   286
1070
     8
1002
}
  0
INSERT
  5
4E57
330
1E
100
AcDbEntity
  8
SCHRAFF
100
AcDbBlockReference
  2
*X9
 10
16.10265559735774
 20
-8.639196161664926
 30
0.0
1001
ACAD
1000
HATCH
1002
{
1070
    16
1000
_U,I
1040
2.0
1040
2.356194490192344
1070
     0
1002
}
  0
LINE
  5
4E58
330
1E
100
AcDbEntity
  8
STEMPEL
100
AcDbLine
 10
390.3042689796301
 20
379.658618243062
 30
0.0
 11
449.6019514903236
 21
376.5509583860454
 31
0.0
  0
LINE
  5
4E59
330
1E
100
AcDbEntity
  8
BEM
100
AcDbLine
 10
390.3042689796292
 20
344.7107233677344
 30
0.0
 11
439.3475334306598
 21
344.7107233677344
 31
0.0
  0
LINE
  5
4E5A
330
1E
100
AcDbEntity
  8
MITTEL
100
AcDbLine
 10
390.3042689796301
 20
344.7107233677344
 30
0.0
 11
468.2702687275558
 21
340.6246984613627
 31
0.0
  0
LINE
  5
4E5B
330
1E
100
AcDbEntity
  8
STEMPEL
100
AcDbLine
 10
390.3042689796301
 20
381.2608139966584
 30
0.0
 11
448.9572310937968
 21
378.1869425038823
 31
0.0
  0
LINE
  5
4E5C
330
1E
100
AcDbEntity
  8
STEMPEL
100
AcDbLine
 10
390.3042689796292
 20
308.1606327388105
 30
0.0
 11
452.9625988661417
 21
304.8768488158736
 31
0.0
  0
LINE
  5
4E5D
330
1E
100
AcDbEntity
  8
STEMPEL
100
AcDbLine
 10
390.3042689796297
 20
308.1606327388103
 30
0.0
 11
452.9625988661417
 21
304.8768488158734
 31
0.0
  0
LINE
  5
4E5E
330
1E
100
AcDbEntity
  8
STEMPEL
100
AcDbLine
 10
390.3042689796297
 20
309.762828492407
 30
0.0
 11
452.7360319205175
 21
306.4909184399493
 31
0.0
  0
DIMENSION
  5
4E5F
330
1E
100
AcDbEntity
  8
BEM
100
AcDbDimension
  2
*D19
 10
482.3313898125713
 20
276.1883914423504
 30
0.0
 11
277.8178293960983
 21
282.6883914423504
 31
0.0
 70
    32
  1
717
 71
     5
 42
409.0271208329459
  3
Standard
100
AcDbAlignedDimension
 13
73.30426897962536
 23
358.1606327388101
 33
0.0
 14
482.3313898125713
 24
323.7476116545143
 34
0.0
100
AcDbRotatedDimension
1001
ACAD
1000
DSTYLE
1002
{
1070
    40
1040
2.0
1070
    41
1040
3.5
1070
    42
1040
1.0
1070
    43
1040
7.0
1070
    44
1040
1.0
1070
    73
1070
     0
1070
    74
1070
     0
1070
    77
1070
     1
1070
    78
1070
     8
1070
    79
1070
     2
1070
   140
1040
3.5
1070
   141
1040
1.5
1070
   146
1040
0.5142857142857144
1070
   147
1040
1.5
1070
   172
1070
     1
1070
   178
1070
     1
1070
   179
1070
     2
1070
   271
1070
     2
1070
   272
1070
     2
1070
   284
1070
     8
1070
   285
1070
     8
1070
   286
1070
     8
1002
}
  0
TEXT
  5
4E60
330
1E
100
AcDbEntity
  8
TEXT
 62
     1
100
AcDbText
 10
414.3485653552987
 20
489.8385811402103
 30
0.0
 40
7.0
  1
EDV-Art.Nr. 13204.000X
 41
0.8
  7
GREEKS
100
AcDbText
  0
TEXT
  5
4E61
330
1E
100
AcDbEntity
  8
TEXT
 62
     1
100
AcDbText
 10
414.4357404500164
 20
502.5331697909673
 30
0.0
 40
7.0
  1
Sieb
 41
0.8
  7
GREEKS
100
AcDbText
  0
TEXT
  5
4E62
330
1E
100
AcDbEntity
  8
TEXT
 62
     1
100
AcDbText
 10
414.159242098453
 20
518.5402342323429
 30
0.0
 40
7.0
  1
EDV-Art.Nr. 13301.070X
 41
0.8
  7
GREEKS
100
AcDbText
  0
TEXT
  5
4E63
330
1E
100
AcDbEntity
  8
TEXT
 62
     1
100
AcDbText
 10
414.159242098453
 20
531.4212688620885
 30
0.0
 40
7.0
  1
Ablauftopf
 41
0.8
  7
GREEKS
100
AcDbText
  0
LINE
  5
4E64
330
1E
100
AcDbEntity
  8
TEXT
 62
     2
100
AcDbLine
 10
518.1953981666135
 20
499.6403588869195
 30
0.0
 11
413.6294059219715
 21
499.6403588869195
 31
0.0
  0
LINE
  5
4E65
330
1E
100
AcDbEntity
  8
TEXT
 62
     2
100
AcDbLine
 10
517.3900514077748
 20
528.3554469010739
 30
0.0
 11
413.2888032010995
 21
528.3554469010739
 31
0.0
  0
LINE
  5
4E66
330
1E
100
AcDbEntity
  8
MITTEL
100
AcDbLine
 10
372.3621602025813
 20
218.149078810419
 30
0.0
 11
384.3621602025813
 21
218.149078810419
 31
0.0
  0
CIRCLE
  5
4E67
330
1E
100
AcDbEntity
  8
STEMPEL
100
AcDbCircle
 10
227.299099942565
 20
218.1490788104189
 30
0.0
 40
3.5
  0
LINE
  5
4E68
330
1E
100
AcDbEntity
  8
MITTEL
100
AcDbLine
 10
227.299099942565
 20
206.6490788104189
 30
0.0
 11
227.299099942565
 21
229.6490788104189
 31
0.0
  0
CIRCLE
  5
4E69
330
1E
100
AcDbEntity
  8
STEMPEL
100
AcDbCircle
 10
227.299099942565
 20
218.1490788104189
 30
0.0
 40
6.5
  0
LINE
  5
4E6A
330
1E
100
AcDbEntity
  8
MITTEL
100
AcDbLine
 10
215.799099942565
 20
218.1490788104189
 30
0.0
 11
238.799099942565
 21
218.1490788104189
 31
0.0
  0
LINE
  5
4E6B
330
1E
100
AcDbEntity
  8
STEMPEL
100
AcDbLine
 10
367.9973273584011
 20
18.14907881041904
 30
0.0
 11
367.9973273584011
 21
158.149078810419
 31
0.0
  0
LINE
  5
4E6C
330
1E
100
AcDbEntity
  8
STEMPEL
100
AcDbLine
 10
164.9973273584011
 20
158.149078810419
 30
0.0
 11
164.9973273584006
 21
18.14907881041893
 31
0.0
  0
LINE
  5
4E6D
330
1E
100
AcDbEntity
  8
STEMPEL
100
AcDbLine
 10
269.9973273584011
 20
158.149078810419
 30
0.0
 11
269.9973273584006
 21
18.14907881041893
 31
0.0
  0
LINE
  5
4E6E
330
1E
100
AcDbEntity
  8
STEMPEL
100
AcDbLine
 10
365.9973273584011
 20
158.149078810419
 30
0.0
 11
266.4973273584011
 21
158.149078810419
 31
0.0
  0
LINE
  5
4E6F
330
1E
100
AcDbEntity
  8
STEMPEL
100
AcDbLine
 10
367.9973273584011
 20
158.149078810419
 30
0.0
 11
164.9973273584011
 21
158.149078810419
 31
0.0
  0
LINE
  5
4E70
330
1E
100
AcDbEntity
  8
TEXT
 62
     2
100
AcDbLine
 10
262.3621602025802
 20
133.149078810419
 30
0.0
 11
413.6294059219715
 21
190.5680634274994
 31
0.0
  0
DIMENSION
  5
4E71
330
1E
100
AcDbEntity
  8
BEM
100
AcDbDimension
  2
*D20
 10
379.3621602025818
 20
194.1697231535064
 30
0.0
 11
172.0468109781086
 21
194.1697231535064
 31
0.0
 70
   160
 71
     5
 42
317.0000000000005
  3
Standard
100
AcDbAlignedDimension
 13
62.36216020258132
 23
156.439007675562
 33
0.0
 14
379.3621602025818
 24
176.4390076755618
 34
0.0
 50
180.0
100
AcDbRotatedDimension
1001
ACAD
1000
DSTYLE
1002
{
1070
    40
1040
2.0
1070
    41
1040
3.5
1070
    42
1040
1.0
1070
    43
1040
7.0
1070
    44
1040
1.0
1070
    73
1070
     0
1070
    74
1070
     0
1070
    77
1070
     1
1070
    78
1070
     8
1070
    79
1070
     2
1070
   140
1040
3.5
1070
   141
1040
1.5
1070
   146
1040
0.5142857142857144
1070
   147
1040
1.5
1070
   172
1070
     1
1070
   178
1070
     1
1070
   179
1070
     2
1070
   271
1070
     2
1070
   272
1070
     2
1070
   284
1070
     8
1070
   285
1070
     8
1070
   286
1070
     8
1002
}
  0
TEXT
  5
4E72
330
1E
100
AcDbEntity
  8
TEXT
 62
     1
100
AcDbText
 10
414.5260346410867
 20
180.9659272886682
 30
0.0
 40
7.0
  1
Scheibe DIN 125-A6,4-1.4301
 41
0.8
  7
GREEKS
100
AcDbText
  0
TEXT
  5
4E73
330
1E
100
AcDbEntity
  8
TEXT
 62
     1
100
AcDbText
 10
414.5260346410867
 20
193.648095880247
 30
0.0
 40
7.0
  1
Blechschraube DIN 7981-St5.5x13-C-H-1.4301 
 41
0.8
  7
GREEKS
100
AcDbText
  0
LINE
  5
4E74
330
1E
100
AcDbEntity
  8
TEXT
 62
     2
100
AcDbLine
 10
619.3437646256815
 20
190.5680634274994
 30
0.0
 11
413.6294059219715
 21
190.5680634274994
 31
0.0
  0
CIRCLE
  5
4E75
330
1E
100
AcDbEntity
  8
STEMPEL
100
AcDbCircle
 10
112.3621602025813
 20
218.149078810419
 30
0.0
 40
3.5
  0
LINE
  5
4E76
330
1E
100
AcDbEntity
  8
MITTEL
100
AcDbLine
 10
112.3621602025813
 20
206.649078810419
 30
0.0
 11
112.3621602025813
 21
229.649078810419
 31
0.0
  0
CIRCLE
  5
4E77
330
1E
100
AcDbEntity
  8
STEMPEL
100
AcDbCircle
 10
112.3621602025813
 20
218.149078810419
 30
0.0
 40
6.5
  0
LINE
  5
4E78
330
1E
100
AcDbEntity
  8
MITTEL
100
AcDbLine
 10
100.8621602025813
 20
218.149078810419
 30
0.0
 11
123.8621602025813
 21
218.149078810419
 31
0.0
  0
LINE
  5
4E79
330
1E
100
AcDbEntity
  8
STEMPEL
100
AcDbLine
 10
377.3621602025813
 20
143.1490788104187
 30
0.0
 11
367.9973273584011
 21
143.1490788104187
 31
0.0
  0
ARC
  5
4E7A
330
1E
100
AcDbEntity
  8
SCHRAFF
100
AcDbCircle
 10
379.3621602025813
 20
54.64907881041916
 30
0.0
 40
4.0
100
AcDbArc
 50
0.0
 51
90.0
  0
ARC
  5
4E7B
330
1E
100
AcDbEntity
  8
SCHRAFF
100
AcDbCircle
 10
381.3621602025813
 20
52.46961943025792
 30
0.0
 40
2.612129785912539
100
AcDbArc
 50
220.0343679295611
 51
319.9656320704388
  0
INSERT
  5
4E7C
330
1E
100
AcDbEntity
  8
SCHRAFF
100
AcDbBlockReference
  2
*X6
 10
-0.0000000000001137
 20
-14.5
 30
0.0
1001
ACAD
1000
HATCH
1002
{
1070
    16
1000
_U,I
1040
0.1
1040
0.7853981633974483
1070
     0
1002
}
  0
ARC
  5
4E7D
330
1E
100
AcDbEntity
  8
SCHRAFF
100
AcDbCircle
 10
381.3621602025813
 20
42.46961943025792
 30
0.0
 40
2.612129785912539
100
AcDbArc
 50
220.0343679295611
 51
319.9656320704388
  0
ARC
  5
4E7E
330
1E
100
AcDbEntity
  8
SCHRAFF
100
AcDbCircle
 10
381.3621602025813
 20
32.46961943025815
 30
0.0
 40
2.612129785912539
100
AcDbArc
 50
220.0343679295611
 51
319.9656320704388
  0
ARC
  5
4E7F
330
1E
100
AcDbEntity
  8
SCHRAFF
100
AcDbCircle
 10
381.3621602025813
 20
37.46961943025815
 30
0.0
 40
2.612129785912539
100
AcDbArc
 50
220.0343679295611
 51
319.9656320704388
  0
ARC
  5
4E80
330
1E
100
AcDbEntity
  8
SCHRAFF
100
AcDbCircle
 10
381.3621602025813
 20
47.46961943025792
 30
0.0
 40
2.612129785912539
100
AcDbArc
 50
220.0343679295611
 51
319.9656320704388
  0
LINE
  5
4E81
330
1E
100
AcDbEntity
  8
STEMPEL
100
AcDbLine
 10
409.5438601514619
 20
54.64907881041892
 30
0.0
 11
379.3621602025804
 21
54.64907881041892
 31
0.0
  0
ARC
  5
4E82
330
1E
100
AcDbEntity
  8
STEMPEL
100
AcDbCircle
 10
326.2327037841734
 20
37.86326984067386
 30
0.0
 40
4.0
100
AcDbArc
 50
159.8461759419462
 51
339.8461759419462
  0
ARC
  5
4E83
330
1E
100
AcDbEntity
  8
STEMPEL
100
AcDbCircle
 10
311.7619509326283
 20
37.86326984067386
 30
0.0
 40
4.0
100
AcDbArc
 50
200.1538240580538
 51
20.15382405805377
  0
LINE
  5
4E84
330
1E
100
AcDbEntity
  8
STEMPEL
100
AcDbLine
 10
322.4776197784105
 20
39.24143677891607
 30
0.0
 11
350.7999842358096
 21
116.1957233135083
 31
0.0
  0
LINE
  5
4E85
330
1E
100
AcDbEntity
  8
STEMPEL
100
AcDbLine
 10
329.9877877899363
 20
36.48510290243144
 30
0.0
 11
358.310152247335
 21
113.4393894370234
 31
0.0
  0
ARC
  5
4E86
330
1E
100
AcDbEntity
  8
STEMPEL
100
AcDbCircle
 10
354.5669518821889
 20
114.8503777255157
 30
0.0
 40
4.0
100
AcDbArc
 50
340.3461759419467
 51
160.3461759419467
  0
ARC
  5
4E87
330
1E
100
AcDbEntity
  8
SCHRAFF
100
AcDbCircle
 10
381.3621602025813
 20
22.46961943025815
 30
0.0
 40
2.612129785912539
100
AcDbArc
 50
220.0343679295611
 51
319.9656320704388
  0
ARC
  5
4E88
330
1E
100
AcDbEntity
  8
SCHRAFF
100
AcDbCircle
 10
381.3621602025813
 20
27.46961943025815
 30
0.0
 40
2.612129785912539
100
AcDbArc
 50
220.0343679295611
 51
319.9656320704388
  0
ARC
  5
4E89
330
1E
100
AcDbEntity
  8
STEMPEL
100
AcDbCircle
 10
318.9973273584011
 20
18.14907881041904
 30
0.0
 40
7.0
100
AcDbArc
 50
0.0
 51
180.0
  0
LINE
  5
4E8A
330
1E
100
AcDbEntity
  8
MITTEL
100
AcDbLine
 10
357.5981606152456
 20
123.3245604953557
 30
0.0
 11
318.9973273584011
 21
18.14907881041904
 31
0.0
  0
LINE
  5
4E8B
330
1E
100
AcDbEntity
  8
MITTEL
100
AcDbLine
 10
318.9973273584011
 20
18.14907881041904
 30
0.0
 11
318.9973273584011
 21
30.14907881041916
 31
0.0
  0
LWPOLYLINE
  5
4E8C
330
1E
100
AcDbEntity
  8
HILF
100
AcDbPolyline
 90
       19
 70
     0
 43
0.0
 10
409.5438601514619
 20
54.64907881041892
 10
411.3246578153542
 20
50.93520404959474
 10
412.7880459432329
 20
47.56246771098324
 10
413.9719989829521
 20
44.50127357368649
 10
414.9144913823587
 20
41.72202541680792
 10
415.6534975893103
 20
39.19512701945098
 10
416.2269920516522
 20
36.89098216071909
 10
416.672949217242
 20
34.77999461971478
 10
417.0293435339265
 20
32.8325681755415
 10
417.32720621662
 20
31.02041109554614
 10
417.569795548485
 20
29.32044960005044
 10
417.7534265797461
 20
27.7109143976196
 10
417.8744143606257
 20
26.17003619681884
 10
417.9290739413448
 20
24.67604570621381
 10
417.9137203721315
 20
23.20717363436973
 10
417.8246687032063
 20
21.74165068985224
 10
417.658233984794
 20
20.25770758122565
 10
417.4118060453787
 20
18.73734277851383
 10
417.2893298102795
 20
18.14907881041893
  0
LINE
  5
4E8D
330
1E
100
AcDbEntity
  8
STEMPEL
100
AcDbLine
 10
261.8621602025802
 20
136.399078810419
 30
0.0
 11
262.8621602025803
 21
136.399078810419
 31
0.0
  0
ARC
  5
4E8E
330
1E
100
AcDbEntity
  8
STEMPEL
100
AcDbCircle
 10
283.4277028346134
 20
114.8503777255157
 30
0.0
 40
4.0
100
AcDbArc
 50
19.65382405805331
 51
199.6538240580533
  0
LINE
  5
4E8F
330
1E
100
AcDbEntity
  8
STEMPEL
100
AcDbLine
 10
265.6121602025802
 20
132.649078810419
 30
0.0
 11
265.6121602025802
 21
133.649078810419
 31
0.0
  0
LINE
  5
4E90
330
1E
100
AcDbEntity
  8
STEMPEL
100
AcDbLine
 10
259.1121602025803
 20
132.649078810419
 30
0.0
 11
259.1121602025803
 21
133.649078810419
 31
0.0
  0
LINE
  5
4E91
330
1E
100
AcDbEntity
  8
STEMPEL
100
AcDbLine
 10
261.8621602025801
 20
129.899078810419
 30
0.0
 11
262.8621602025802
 21
129.8990788104191
 31
0.0
  0
LINE
  5
4E92
330
1E
100
AcDbEntity
  8
STEMPEL
100
AcDbLine
 10
262.8621602025802
 20
129.899078810419
 30
0.0
 11
262.8621602025802
 21
132.649078810419
 31
0.0
  0
LINE
  5
4E93
330
1E
100
AcDbEntity
  8
STEMPEL
100
AcDbLine
 10
261.8621602025801
 20
129.899078810419
 30
0.0
 11
261.8621602025802
 21
132.649078810419
 31
0.0
  0
LINE
  5
4E94
330
1E
100
AcDbEntity
  8
STEMPEL
100
AcDbLine
 10
259.1121602025802
 20
133.649078810419
 30
0.0
 11
261.8621602025802
 21
133.649078810419
 31
0.0
  0
LINE
  5
4E95
330
1E
100
AcDbEntity
  8
STEMPEL
100
AcDbLine
 10
259.1121602025802
 20
132.649078810419
 30
0.0
 11
261.8621602025802
 21
132.649078810419
 31
0.0
  0
LINE
  5
4E96
330
1E
100
AcDbEntity
  8
STEMPEL
100
AcDbLine
 10
262.8621602025802
 20
133.649078810419
 30
0.0
 11
265.6121602025802
 21
133.649078810419
 31
0.0
  0
LINE
  5
4E97
330
1E
100
AcDbEntity
  8
STEMPEL
100
AcDbLine
 10
262.8621602025802
 20
132.649078810419
 30
0.0
 11
265.6121602025802
 21
132.649078810419
 31
0.0
  0
CIRCLE
  5
4E98
330
1E
100
AcDbEntity
  8
STEMPEL
100
AcDbCircle
 10
262.3621602025802
 20
133.149078810419
 30
0.0
 40
5.399999999999863
  0
LINE
  5
4E99
330
1E
100
AcDbEntity
  8
STEMPEL
100
AcDbLine
 10
261.8621602025802
 20
133.649078810419
 30
0.0
 11
261.8621602025802
 21
136.399078810419
 31
0.0
  0
LINE
  5
4E9A
330
1E
100
AcDbEntity
  8
STEMPEL
100
AcDbLine
 10
262.8621602025802
 20
133.649078810419
 30
0.0
 11
262.8621602025803
 21
136.399078810419
 31
0.0
  0
CIRCLE
  5
4E9B
330
1E
100
AcDbEntity
  8
STEMPEL
100
AcDbCircle
 10
262.3621602025802
 20
133.149078810419
 30
0.0
 40
6.0
  0
LINE
  5
4E9C
330
1E
100
AcDbEntity
  8
MITTEL
100
AcDbLine
 10
262.3621602025802
 20
140.149078810419
 30
0.0
 11
262.3621602025802
 21
126.149078810419
 31
0.0
  0
LINE
  5
4E9D
330
1E
100
AcDbEntity
  8
STEMPEL
100
AcDbLine
 10
252.9973273584007
 20
143.1490788104188
 30
0.0
 11
252.9973273584007
 21
141.149078810419
 31
0.0
  0
LINE
  5
4E9E
330
1E
100
AcDbEntity
  8
STEMPEL
100
AcDbLine
 10
252.9973273584011
 20
141.149078810419
 30
0.0
 11
250.9973273584011
 21
141.149078810419
 31
0.0
  0
LINE
  5
4E9F
330
1E
100
AcDbEntity
  8
STEMPEL
100
AcDbLine
 10
252.9973273584007
 20
143.1490788104188
 30
0.0
 11
239.9973273584011
 21
143.149078810419
 31
0.0
  0
LINE
  5
4EA0
330
1E
100
AcDbEntity
  8
STEMPEL
100
AcDbLine
 10
232.9973273584006
 20
143.1490788104188
 30
0.0
 11
232.9973273584006
 21
141.149078810419
 31
0.0
  0
LINE
  5
4EA1
330
1E
100
AcDbEntity
  8
STEMPEL
100
AcDbLine
 10
232.9973273584011
 20
141.149078810419
 30
0.0
 11
230.9973273584011
 21
141.149078810419
 31
0.0
  0
LINE
  5
4EA2
330
1E
100
AcDbEntity
  8
MITTEL
100
AcDbLine
 10
269.3621602025802
 20
133.149078810419
 30
0.0
 11
255.3621602025802
 21
133.149078810419
 31
0.0
  0
LINE
  5
4EA3
330
1E
100
AcDbEntity
  8
STEMPEL
100
AcDbLine
 10
252.9973273584007
 20
71.1490788104195
 30
0.0
 11
252.9973273584007
 21
73.14907881041927
 31
0.0
  0
LINE
  5
4EA4
330
1E
100
AcDbEntity
  8
STEMPEL
100
AcDbLine
 10
252.9973273584011
 20
73.14907881041927
 30
0.0
 11
250.9973273584011
 21
73.14907881041927
 31
0.0
  0
LINE
  5
4EA5
330
1E
100
AcDbEntity
  8
STEMPEL
100
AcDbLine
 10
252.9973273584011
 20
71.14907881041904
 30
0.0
 11
239.9973273584011
 21
71.14907881041904
 31
0.0
  0
LINE
  5
4EA6
330
1E
100
AcDbEntity
  8
STEMPEL
100
AcDbLine
 10
232.9973273584006
 20
71.1490788104195
 30
0.0
 11
232.9973273584006
 21
73.14907881041927
 31
0.0
  0
LINE
  5
4EA7
330
1E
100
AcDbEntity
  8
STEMPEL
100
AcDbLine
 10
232.9973273584011
 20
73.14907881041927
 30
0.0
 11
230.9973273584011
 21
73.14907881041927
 31
0.0
  0
LINE
  5
4EA8
330
1E
100
AcDbEntity
  8
STEMPEL
100
AcDbLine
 10
252.9973273584011
 20
56.14907881041904
 30
0.0
 11
250.9973273584011
 21
56.14907881041904
 31
0.0
  0
LINE
  5
4EA9
330
1E
100
AcDbEntity
  8
STEMPEL
100
AcDbLine
 10
252.9973273584007
 20
58.14907881041904
 30
0.0
 11
252.9973273584007
 21
56.14907881041904
 31
0.0
  0
LINE
  5
4EAA
330
1E
100
AcDbEntity
  8
STEMPEL
100
AcDbLine
 10
252.9973273584007
 20
58.14907881041904
 30
0.0
 11
239.9973273584011
 21
58.14907881041904
 31
0.0
  0
LINE
  5
4EAB
330
1E
100
AcDbEntity
  8
STEMPEL
100
AcDbLine
 10
232.9973273584006
 20
58.14907881041904
 30
0.0
 11
232.9973273584006
 21
56.14907881041904
 31
0.0
  0
LINE
  5
4EAC
330
1E
100
AcDbEntity
  8
STEMPEL
100
AcDbLine
 10
232.9973273584011
 20
56.14907881041904
 30
0.0
 11
230.9973273584011
 21
56.14907881041904
 31
0.0
  0
LINE
  5
4EAD
330
1E
100
AcDbEntity
  8
STEMPEL
100
AcDbLine
 10
230.9973273584006
 20
141.149078810419
 30
0.0
 11
230.9973273584011
 21
73.14907881041927
 31
0.0
  0
LINE
  5
4EAE
330
1E
100
AcDbEntity
  8
STEMPEL
100
AcDbLine
 10
239.9973273584011
 20
143.149078810419
 30
0.0
 11
239.9973273584011
 21
71.14907881041904
 31
0.0
  0
LINE
  5
4EAF
330
1E
100
AcDbEntity
  8
STEMPEL
100
AcDbLine
 10
250.9973273584007
 20
141.149078810419
 30
0.0
 11
250.9973273584011
 21
73.14907881041927
 31
0.0
  0
LINE
  5
4EB0
330
1E
100
AcDbEntity
  8
STEMPEL
100
AcDbLine
 10
212.9973273584011
 20
141.149078810419
 30
0.0
 11
210.9973273584011
 21
141.149078810419
 31
0.0
  0
LINE
  5
4EB1
330
1E
100
AcDbEntity
  8
STEMPEL
100
AcDbLine
 10
212.9973273584006
 20
143.1490788104188
 30
0.0
 11
212.9973273584006
 21
141.149078810419
 31
0.0
  0
LINE
  5
4EB2
330
1E
100
AcDbEntity
  8
STEMPEL
100
AcDbLine
 10
192.9973273584006
 20
143.1490788104188
 30
0.0
 11
192.9973273584006
 21
141.1490788104188
 31
0.0
  0
LINE
  5
4EB3
330
1E
100
AcDbEntity
  8
STEMPEL
100
AcDbLine
 10
192.9973273584011
 20
141.1490788104188
 30
0.0
 11
190.9973273584011
 21
141.1490788104188
 31
0.0
  0
LINE
  5
4EB4
330
1E
100
AcDbEntity
  8
STEMPEL
100
AcDbLine
 10
212.9973273584006
 20
143.1490788104188
 30
0.0
 11
199.9973273584011
 21
143.149078810419
 31
0.0
  0
LINE
  5
4EB5
330
1E
100
AcDbEntity
  8
STEMPEL
100
AcDbLine
 10
192.9973273584006
 20
143.1490788104188
 30
0.0
 11
179.9973273584011
 21
143.1490788104188
 31
0.0
  0
LINE
  5
4EB6
330
1E
100
AcDbEntity
  8
STEMPEL
100
AcDbLine
 10
212.9973273584011
 20
73.14907881041927
 30
0.0
 11
210.9973273584011
 21
73.14907881041927
 31
0.0
  0
LINE
  5
4EB7
330
1E
100
AcDbEntity
  8
STEMPEL
100
AcDbLine
 10
212.9973273584006
 20
71.1490788104195
 30
0.0
 11
212.9973273584006
 21
73.14907881041927
 31
0.0
  0
LINE
  5
4EB8
330
1E
100
AcDbEntity
  8
STEMPEL
100
AcDbLine
 10
192.9973273584011
 20
73.14907881041927
 30
0.0
 11
190.9973273584011
 21
73.14907881041927
 31
0.0
  0
LINE
  5
4EB9
330
1E
100
AcDbEntity
  8
STEMPEL
100
AcDbLine
 10
192.9973273584006
 20
71.14907881041927
 30
0.0
 11
192.9973273584006
 21
73.14907881041927
 31
0.0
  0
LINE
  5
4EBA
330
1E
100
AcDbEntity
  8
STEMPEL
100
AcDbLine
 10
212.9973273584011
 20
71.14907881041904
 30
0.0
 11
199.9973273584011
 21
71.14907881041904
 31
0.0
  0
LINE
  5
4EBB
330
1E
100
AcDbEntity
  8
STEMPEL
100
AcDbLine
 10
212.9973273584011
 20
56.14907881041904
 30
0.0
 11
210.9973273584011
 21
56.14907881041904
 31
0.0
  0
LINE
  5
4EBC
330
1E
100
AcDbEntity
  8
STEMPEL
100
AcDbLine
 10
212.9973273584006
 20
58.14907881041904
 30
0.0
 11
212.9973273584006
 21
56.14907881041904
 31
0.0
  0
LINE
  5
4EBD
330
1E
100
AcDbEntity
  8
STEMPEL
100
AcDbLine
 10
192.9973273584011
 20
56.14907881041904
 30
0.0
 11
190.9973273584011
 21
56.14907881041904
 31
0.0
  0
LINE
  5
4EBE
330
1E
100
AcDbEntity
  8
STEMPEL
100
AcDbLine
 10
192.9973273584006
 20
58.14907881041904
 30
0.0
 11
192.9973273584006
 21
56.14907881041904
 31
0.0
  0
LINE
  5
4EBF
330
1E
100
AcDbEntity
  8
STEMPEL
100
AcDbLine
 10
212.9973273584006
 20
58.14907881041904
 30
0.0
 11
199.9973273584011
 21
58.14907881041904
 31
0.0
  0
LINE
  5
4EC0
330
1E
100
AcDbEntity
  8
STEMPEL
100
AcDbLine
 10
192.9973273584006
 20
58.14907881041904
 30
0.0
 11
179.9973273584011
 21
58.14907881041904
 31
0.0
  0
LINE
  5
4EC1
330
1E
100
AcDbEntity
  8
STEMPEL
100
AcDbLine
 10
192.9973273584011
 20
71.14907881041904
 30
0.0
 11
179.9973273584011
 21
71.14907881041904
 31
0.0
  0
LINE
  5
4EC2
330
1E
100
AcDbEntity
  8
STEMPEL
100
AcDbLine
 10
179.9973273584011
 20
143.149078810419
 30
0.0
 11
179.9973273584011
 21
71.14907881041904
 31
0.0
  0
LINE
  5
4EC3
330
1E
100
AcDbEntity
  8
STEMPEL
100
AcDbLine
 10
190.9973273584006
 20
141.1490788104188
 30
0.0
 11
190.9973273584011
 21
73.14907881041927
 31
0.0
  0
LINE
  5
4EC4
330
1E
100
AcDbEntity
  8
STEMPEL
100
AcDbLine
 10
219.9973273584011
 20
143.149078810419
 30
0.0
 11
219.9973273584011
 21
71.14907881041904
 31
0.0
  0
LINE
  5
4EC5
330
1E
100
AcDbEntity
  8
STEMPEL
100
AcDbLine
 10
199.9973273584011
 20
143.149078810419
 30
0.0
 11
199.9973273584011
 21
71.14907881041904
 31
0.0
  0
LINE
  5
4EC6
330
1E
100
AcDbEntity
  8
STEMPEL
100
AcDbLine
 10
210.9973273584006
 20
141.149078810419
 30
0.0
 11
210.9973273584011
 21
73.14907881041927
 31
0.0
  0
LINE
  5
4EC7
330
1E
100
AcDbEntity
  8
STEMPEL
100
AcDbLine
 10
232.9973273584006
 20
58.14907881041904
 30
0.0
 11
219.9973273584011
 21
58.14907881041904
 31
0.0
  0
LINE
  5
4EC8
330
1E
100
AcDbEntity
  8
STEMPEL
100
AcDbLine
 10
232.9973273584011
 20
71.14907881041904
 30
0.0
 11
219.9973273584011
 21
71.14907881041904
 31
0.0
  0
LINE
  5
4EC9
330
1E
100
AcDbEntity
  8
STEMPEL
100
AcDbLine
 10
232.9973273584006
 20
143.1490788104188
 30
0.0
 11
219.9973273584011
 21
143.149078810419
 31
0.0
  0
LINE
  5
4ECA
330
1E
100
AcDbEntity
  8
STEMPEL
100
AcDbLine
 10
239.9973273584011
 20
58.14907881041904
 30
0.0
 11
239.9973273584011
 21
18.14907881041904
 31
0.0
  0
LINE
  5
4ECB
330
1E
100
AcDbEntity
  8
STEMPEL
100
AcDbLine
 10
250.9973273584007
 20
56.14907881041904
 30
0.0
 11
250.9973273584011
 21
18.14907881041904
 31
0.0
  0
LINE
  5
4ECC
330
1E
100
AcDbEntity
  8
STEMPEL
100
AcDbLine
 10
199.9973273584011
 20
58.14907881041904
 30
0.0
 11
199.9973273584011
 21
18.14907881041904
 31
0.0
  0
LINE
  5
4ECD
330
1E
100
AcDbEntity
  8
STEMPEL
100
AcDbLine
 10
219.9973273584011
 20
58.14907881041904
 30
0.0
 11
219.9973273584011
 21
18.14907881041904
 31
0.0
  0
LINE
  5
4ECE
330
1E
100
AcDbEntity
  8
STEMPEL
100
AcDbLine
 10
190.9973273584006
 20
56.14907881041904
 30
0.0
 11
190.9973273584011
 21
18.14907881041904
 31
0.0
  0
LINE
  5
4ECF
330
1E
100
AcDbEntity
  8
STEMPEL
100
AcDbLine
 10
210.9973273584006
 20
56.14907881041904
 30
0.0
 11
210.9973273584011
 21
18.14907881041904
 31
0.0
  0
LINE
  5
4ED0
330
1E
100
AcDbEntity
  8
STEMPEL
100
AcDbLine
 10
230.9973273584006
 20
56.14907881041904
 30
0.0
 11
230.9973273584011
 21
18.14907881041904
 31
0.0
  0
LINE
  5
4ED1
330
1E
100
AcDbEntity
  8
STEMPEL
100
AcDbLine
 10
179.9973273584011
 20
58.14907881041904
 30
0.0
 11
179.9973273584011
 21
18.14907881041904
 31
0.0
  0
LINE
  5
4ED2
330
1E
100
AcDbEntity
  8
STEMPEL
100
AcDbLine
 10
308.0068669268659
 20
36.48510290243144
 30
0.0
 11
279.6845024694668
 21
113.4393894370234
 31
0.0
  0
LINE
  5
4ED3
330
1E
100
AcDbEntity
  8
STEMPEL
100
AcDbLine
 10
315.5170349383912
 20
39.2414367789163
 30
0.0
 11
287.1946704809926
 21
116.1957233135083
 31
0.0
  0
LINE
  5
4ED4
330
1E
100
AcDbEntity
  8
MITTEL
100
AcDbLine
 10
280.3964941015568
 20
123.3245604953553
 30
0.0
 11
318.9973273584009
 21
18.14907881041893
 31
0.0
  0
LINE
  5
4ED5
330
1E
100
AcDbEntity
  8
MITTEL
100
AcDbLine
 10
422.33051909934
 20
18.14907881041893
 30
0.0
 11
57.36216020258132
 21
18.14907881041893
 31
0.0
  0
DIMENSION
  5
5021
330
1E
100
AcDbEntity
  8
BEM
100
AcDbDimension
  2
*D21
 10
486.0141036534026
 20
394.0179778331901
 30
0.0
 11
439.9189500385581
 21
402.9426427188416
 31
0.0
 70
    32
  1
400
 71
     5
 42
92.99812535954231
 51
3.000000000000525
  3
Standard
100
AcDbAlignedDimension
 13
390.3042689796301
 23
344.7107233677344
 33
0.0
 14
484.1961840505396
 24
359.3300054036663
 34
0.0
 50
356.9999999999995
100
AcDbRotatedDimension
1001
ACAD
1000
DSTYLE
1002
{
1070
    40
1040
2.0
1070
    41
1040
3.5
1070
    42
1040
1.0
1070
    43
1040
7.0
1070
    44
1040
1.0
1070
    73
1070
     0
1070
    74
1070
     0
1070
    77
1070
     1
1070
    78
1070
     8
1070
    79
1070
     2
1070
   140
1040
3.5
1070
   141
1040
1.5
1070
   146
1040
0.5142857142857144
1070
   147
1040
1.5
1070
   172
1070
     1
1070
   178
1070
     1
1070
   179
1070
     2
1070
   271
1070
     2
1070
   272
1070
     2
1070
   284
1070
     8
1070
   285
1070
     8
1070
   286
1070
     8
1002
}
  0
DIMENSION
  5
5040
330
1E
100
AcDbEntity
  8
BEM
100
AcDbDimension
  2
*D22
 10
468.2702687275558
 20
340.6246984613627
 30
0.0
 11
425.3769824506561
 21
325.0395341285375
 31
0.0
 70
    34
 71
     5
 42
0.0523598775598391
  3
Standard
100
AcDb2LineAngularDimension
 13
390.3042689796292
 23
344.7107233677344
 33
0.0
 14
439.3475334306598
 24
344.7107233677344
 34
0.0
 15
390.3042689796301
 25
344.7107233677344
 35
0.0
 16
436.5289645522841
 26
343.9038683052265
 36
0.0
1001
ACAD
1000
DSTYLE
1002
{
1070
    40
1040
2.0
1070
    41
1040
3.5
1070
    42
1040
1.0
1070
    43
1040
7.0
1070
    44
1040
1.0
1070
    73
1070
     0
1070
    74
1070
     0
1070
    77
1070
     1
1070
    78
1070
     8
1070
    79
1070
     2
1070
   140
1040
3.5
1070
   141
1040
1.5
1070
   146
1040
0.5142857142857144
1070
   147
1040
1.5
1070
   172
1070
     1
1070
   178
1070
     1
1070
   179
1070
     2
1070
   271
1070
     2
1070
   272
1070
     2
1070
   284
1070
     8
1070
   285
1070
     8
1070
   286
1070
     8
1002
}
  0
ENDSEC
  0
SECTION
  2
OBJECTS
  0
DICTIONARY
  5
C
330
0
100
AcDbDictionary
281
     1
  3
ACAD_COLOR
350
11A
  3
ACAD_GROUP
350
D
  3
ACAD_LAYOUT
350
19
  3
ACAD_MATERIAL
350
119
  3
ACAD_MLINESTYLE
350
16
  3
ACAD_PLOTSETTINGS
350
18
  3
ACAD_PLOTSTYLENAME
350
E
  3
AcDbVariableDictionary
350
125
  0
DICTIONARY
  5
DB
330
1E
100
AcDbDictionary
280
     1
281
     1
  3
ACAD_LAYOUTSELFREF
360
10F
  0
DICTIONARY
  5
DD
330
1A
100
AcDbDictionary
280
     1
281
     1
  3
ACAD_LAYOUTSELFREF
360
10E
  0
DICTIONARY
  5
11A
102
{ACAD_REACTORS
330
C
102
}
330
C
100
AcDbDictionary
281
     1
  0
DICTIONARY
  5
D
102
{ACAD_REACTORS
330
C
102
}
330
C
100
AcDbDictionary
281
     1
  0
DICTIONARY
  5
19
102
{ACAD_REACTORS
330
C
102
}
330
C
100
AcDbDictionary
281
     1
  3
Layout1
350
1D
  3
Model
350
21
  0
DICTIONARY
  5
119
102
{ACAD_REACTORS
330
C
102
}
330
C
100
AcDbDictionary
281
     1
  0
DICTIONARY
  5
16
102
{ACAD_REACTORS
330
C
102
}
330
C
100
AcDbDictionary
281
     1
  3
Standard
350
17
  0
DICTIONARY
  5
18
102
{ACAD_REACTORS
330
C
102
}
330
C
100
AcDbDictionary
281
     1
  0
ACDBDICTIONARYWDFLT
  5
E
102
{ACAD_REACTORS
330
C
102
}
330
C
100
AcDbDictionary
281
     1
  3
Normal
350
F
100
AcDbDictionaryWithDefault
340
F
  0
DICTIONARY
  5
125
102
{ACAD_REACTORS
330
C
102
}
330
C
100
AcDbDictionary
281
     1
  3
DIMASSOC
350
126
  3
PROJECTNAME
350
127
  0
XRECORD
  5
10F
102
{ACAD_REACTORS
330
DB
102
}
330
DB
100
AcDbXrecord
280
     1
340
1E
  0
XRECORD
  5
10E
102
{ACAD_REACTORS
330
DD
102
}
330
DD
100
AcDbXrecord
280
     1
340
1A
  0
LAYOUT
  5
1D
102
{ACAD_REACTORS
330
19
102
}
330
19
100
AcDbPlotSettings
  1

  2
\\NT_WORK01\HP LaserJet 5000 PCL 6
  4

  6

 40
0.0
 41
0.0
 42
0.0
 43
0.0
 44
0.0
 45
0.0
 46
0.0
 47
0.0
 48
0.0
 49
0.0
140
0.0
141
0.0
142
1.0
143
1.0
 70
   688
 72
     0
 73
     0
 74
     5
  7

 75
    16
147
1.0
 76
     0
 77
     2
 78
   300
148
0.0
149
0.0
100
AcDbLayout
  1
Layout1
 70
     0
 71
     1
 10
0.0
 20
0.0
 11
12.0
 21
9.0
 12
0.0
 22
0.0
 32
0.0
 14
1.000000000000000E+20
 24
1.000000000000000E+20
 34
1.000000000000000E+20
 15
-1.000000000000000E+20
 25
-1.000000000000000E+20
 35
-1.000000000000000E+20
146
0.0
 13
0.0
 23
0.0
 33
0.0
 16
1.0
 26
0.0
 36
0.0
 17
0.0
 27
1.0
 37
0.0
 76
     0
330
1A
  0
LAYOUT
  5
21
102
{ACAD_REACTORS
330
19
102
}
330
19
100
AcDbPlotSettings
  1

  2
\\NT_WORK01\HP LaserJet 5000 PCL 6
  4

  6

 40
0.0
 41
0.0
 42
0.0
 43
0.0
 44
0.0
 45
0.0
 46
0.0
 47
0.0
 48
0.0
 49
0.0
140
0.0
141
0.0
142
1.0
143
1.0
 70
  1712
 72
     0
 73
     0
 74
     0
  7

 75
     0
147
1.0
 76
     0
 77
     2
 78
   300
148
0.0
149
0.0
100
AcDbLayout
  1
Model
 70
     1
 71
     0
 10
0.0
 20
0.0
 11
12.0
 21
9.0
 12
0.0
 22
0.0
 32
0.0
 14
0.0
 24
0.0
 34
0.0
 15
0.0
 25
0.0
 35
0.0
146
0.0
 13
0.0
 23
0.0
 33
0.0
 16
1.0
 26
0.0
 36
0.0
 17
0.0
 27
1.0
 37
0.0
 76
     0
330
1E
  0
MLINESTYLE
  5
17
102
{ACAD_REACTORS
330
16
102
}
330
16
100
AcDbMlineStyle
  2
STANDARD
 70
     0
  3

 62
   256
 51
90.0
 52
90.0
 71
     2
 49
0.5
 62
   256
  6
BYLAYER
 49
-0.5
 62
   256
  6
BYLAYER
  0
ACDBPLACEHOLDER
  5
F
102
{ACAD_REACTORS
330
E
102
}
330
E
  0
DICTIONARYVAR
  5
126
102
{ACAD_REACTORS
330
125
102
}
330
125
100
DictionaryVariables
280
     0
  1
1
  0
DICTIONARYVAR
  5
127
102
{ACAD_REACTORS
330
125
102
}
330
125
100
DictionaryVariables
280
     0
  1

  0
ENDSEC
  0
EOF
