  0
SECTION
  2
HEADER
  9
$ACADVER
  1
AC1018
  9
$ACADMAINTVER
 70
     2
  9
$DWGCODEPAGE
  3
ANSI_1252
  9
$INSBASE
 10
0.0
 20
0.0
 30
0.0
  9
$EXTMIN
 10
-0.0064082024694017
 20
-0.0090630292066862
 30
-0.0015258207003583
  9
$EXTMAX
 10
210.006409180358
 20
297.0090644122208
 30
0.0000000349246037
  9
$LIMMIN
 10
0.0
 20
0.0
  9
$LIMMAX
 10
210.0
 20
297.0
  9
$ORTHOMODE
 70
     1
  9
$REGENMODE
 70
     1
  9
$FILLMODE
 70
     1
  9
$QTEXTMODE
 70
     0
  9
$MIRRTEXT
 70
     1
  9
$LTSCALE
 40
10.0
  9
$ATTMODE
 70
     1
  9
$TEXTSIZE
 40
3.5
  9
$TRACEWID
 40
0.5
  9
$TEXTSTYLE
  7
STANDARD
  9
$CLAYER
  8
BEM
  9
$CELTYPE
  6
ByLayer
  9
$CECOLOR
 62
   256
  9
$CELTSCALE
 40
1.0
  9
$DISPSILH
 70
     0
  9
$DIMSCALE
 40
1.0
  9
$DIMASZ
 40
3.5
  9
$DIMEXO
 40
1.0
  9
$DIMDLI
 40
7.0
  9
$DIMRND
 40
0.0
  9
$DIMDLE
 40
0.0
  9
$DIMEXE
 40
1.0
  9
$DIMTP
 40
0.0
  9
$DIMTM
 40
0.0
  9
$DIMTXT
 40
3.5
  9
$DIMCEN
 40
1.5
  9
$DIMTSZ
 40
0.0
  9
$DIMTOL
 70
     0
  9
$DIMLIM
 70
     0
  9
$DIMTIH
 70
     0
  9
$DIMTOH
 70
     0
  9
$DIMSE1
 70
     0
  9
$DIMSE2
 70
     0
  9
$DIMTAD
 70
     1
  9
$DIMZIN
 70
     8
  9
$DIMBLK
  1

  9
$DIMASO
 70
     1
  9
$DIMSHO
 70
     0
  9
$DIMPOST
  1

  9
$DIMAPOST
  1

  9
$DIMALT
 70
     0
  9
$DIMALTD
 70
     2
  9
$DIMALTF
 40
25.4
  9
$DIMLFAC
 40
1.0
  9
$DIMTOFL
 70
     1
  9
$DIMTVP
 40
0.0
  9
$DIMTIX
 70
     0
  9
$DIMSOXD
 70
     0
  9
$DIMSAH
 70
     0
  9
$DIMBLK1
  1

  9
$DIMBLK2
  1

  9
$DIMSTYLE
  2
Standard
  9
$DIMCLRD
 70
     0
  9
$DIMCLRE
 70
     0
  9
$DIMCLRT
 70
     1
  9
$DIMTFAC
 40
0.5142857142857144
  9
$DIMGAP
 40
1.5
  9
$DIMJUST
 70
     0
  9
$DIMSD1
 70
     0
  9
$DIMSD2
 70
     0
  9
$DIMTOLJ
 70
     1
  9
$DIMTZIN
 70
     8
  9
$DIMALTZ
 70
     8
  9
$DIMALTTZ
 70
     8
  9
$DIMUPT
 70
     0
  9
$DIMDEC
 70
     2
  9
$DIMTDEC
 70
     2
  9
$DIMALTU
 70
     2
  9
$DIMALTTD
 70
     2
  9
$DIMTXSTY
  7
STANDARD
  9
$DIMAUNIT
 70
     0
  9
$DIMADEC
 70
     2
  9
$DIMALTRND
 40
0.0
  9
$DIMAZIN
 70
     2
  9
$DIMDSEP
 70
    46
  9
$DIMATFIT
 70
     3
  9
$DIMFRAC
 70
     0
  9
$DIMLDRBLK
  1

  9
$DIMLUNIT
 70
     2
  9
$DIMLWD
 70
    -2
  9
$DIMLWE
 70
    -2
  9
$DIMTMOVE
 70
     0
  9
$LUNITS
 70
     2
  9
$LUPREC
 70
     2
  9
$SKETCHINC
 40
1.0
  9
$FILLETRAD
 40
0.0
  9
$AUNITS
 70
     0
  9
$AUPREC
 70
     0
  9
$MENU
  1
ACAD
  9
$ELEVATION
 40
0.0
  9
$PELEVATION
 40
0.0
  9
$THICKNESS
 40
0.0
  9
$LIMCHECK
 70
     0
  9
$CHAMFERA
 40
0.0
  9
$CHAMFERB
 40
0.0
  9
$CHAMFERC
 40
0.0
  9
$CHAMFERD
 40
0.0
  9
$SKPOLY
 70
     0
  9
$TDCREATE
 40
2455397.864709028
  9
$TDUCREATE
 40
2455397.781375695
  9
$TDUPDATE
 40
2455658.575019792
  9
$TDUUPDATE
 40
2455658.491686458
  9
$TDINDWG
 40
0.0369381597
  9
$TDUSRTIMER
 40
0.0369381597
  9
$USRTIMER
 70
     1
  9
$ANGBASE
 50
0.0
  9
$ANGDIR
 70
     0
  9
$PDMODE
 70
     0
  9
$PDSIZE
 40
0.0
  9
$PLINEWID
 40
0.0
  9
$SPLFRAME
 70
     0
  9
$SPLINETYPE
 70
     6
  9
$SPLINESEGS
 70
     8
  9
$HANDSEED
  5
372
  9
$SURFTAB1
 70
     6
  9
$SURFTAB2
 70
     6
  9
$SURFTYPE
 70
     6
  9
$SURFU
 70
     6
  9
$SURFV
 70
     6
  9
$UCSBASE
  2

  9
$UCSNAME
  2

  9
$UCSORG
 10
0.0
 20
0.0
 30
0.0
  9
$UCSXDIR
 10
1.0
 20
0.0
 30
0.0
  9
$UCSYDIR
 10
0.0
 20
1.0
 30
0.0
  9
$UCSORTHOREF
  2

  9
$UCSORTHOVIEW
 70
     0
  9
$UCSORGTOP
 10
0.0
 20
0.0
 30
0.0
  9
$UCSORGBOTTOM
 10
0.0
 20
0.0
 30
0.0
  9
$UCSORGLEFT
 10
0.0
 20
0.0
 30
0.0
  9
$UCSORGRIGHT
 10
0.0
 20
0.0
 30
0.0
  9
$UCSORGFRONT
 10
0.0
 20
0.0
 30
0.0
  9
$UCSORGBACK
 10
0.0
 20
0.0
 30
0.0
  9
$PUCSBASE
  2

  9
$PUCSNAME
  2

  9
$PUCSORG
 10
0.0
 20
0.0
 30
0.0
  9
$PUCSXDIR
 10
1.0
 20
0.0
 30
0.0
  9
$PUCSYDIR
 10
0.0
 20
1.0
 30
0.0
  9
$PUCSORTHOREF
  2

  9
$PUCSORTHOVIEW
 70
     0
  9
$PUCSORGTOP
 10
0.0
 20
0.0
 30
0.0
  9
$PUCSORGBOTTOM
 10
0.0
 20
0.0
 30
0.0
  9
$PUCSORGLEFT
 10
0.0
 20
0.0
 30
0.0
  9
$PUCSORGRIGHT
 10
0.0
 20
0.0
 30
0.0
  9
$PUCSORGFRONT
 10
0.0
 20
0.0
 30
0.0
  9
$PUCSORGBACK
 10
0.0
 20
0.0
 30
0.0
  9
$USERI1
 70
     0
  9
$USERI2
 70
     0
  9
$USERI3
 70
     0
  9
$USERI4
 70
     0
  9
$USERI5
 70
     0
  9
$USERR1
 40
0.0
  9
$USERR2
 40
0.0
  9
$USERR3
 40
0.0
  9
$USERR4
 40
0.0
  9
$USERR5
 40
0.0
  9
$WORLDVIEW
 70
     1
  9
$SHADEDGE
 70
     3
  9
$SHADEDIF
 70
    70
  9
$TILEMODE
 70
     1
  9
$MAXACTVP
 70
    16
  9
$PINSBASE
 10
0.0
 20
0.0
 30
0.0
  9
$PLIMCHECK
 70
     0
  9
$PEXTMIN
 10
1.000000000000000E+20
 20
1.000000000000000E+20
 30
1.000000000000000E+20
  9
$PEXTMAX
 10
-1.000000000000000E+20
 20
-1.000000000000000E+20
 30
-1.000000000000000E+20
  9
$PLIMMIN
 10
0.0
 20
0.0
  9
$PLIMMAX
 10
12.0
 20
9.0
  9
$UNITMODE
 70
     0
  9
$VISRETAIN
 70
     0
  9
$PLINEGEN
 70
     0
  9
$PSLTSCALE
 70
     0
  9
$TREEDEPTH
 70
  3020
  9
$CMLSTYLE
  2
Standard
  9
$CMLJUST
 70
     0
  9
$CMLSCALE
 40
1.0
  9
$PROXYGRAPHICS
 70
     1
  9
$MEASUREMENT
 70
     0
  9
$CELWEIGHT
370
    -1
  9
$ENDCAPS
280
     0
  9
$JOINSTYLE
280
     0
  9
$LWDISPLAY
290
     0
  9
$INSUNITS
 70
     0
  9
$HYPERLINKBASE
  1

  9
$STYLESHEET
  1
monochrome 1.ctb
  9
$XEDIT
290
     1
  9
$CEPSNTYPE
380
     0
  9
$PSTYLEMODE
290
     1
  9
$FINGERPRINTGUID
  2
{D68B0D02-A558-11D7-B632-000102183313}
  9
$VERSIONGUID
  2
{453F8FA6-4BF5-4A65-9ABF-2BA7977323EC}
  9
$EXTNAMES
290
     1
  9
$PSVPSCALE
 40
0.0
  9
$OLESTARTUP
290
     0
  9
$SORTENTS
280
   127
  9
$INDEXCTL
280
     0
  9
$HIDETEXT
280
     0
  9
$XCLIPFRAME
290
     0
  9
$HALOGAP
280
     0
  9
$OBSCOLOR
 70
   257
  9
$OBSLTYPE
280
     0
  9
$INTERSECTIONDISPLAY
280
     0
  9
$INTERSECTIONCOLOR
 70
   257
  9
$DIMASSOC
280
     1
  9
$PROJECTNAME
  1

  0
ENDSEC
  0
SECTION
  2
CLASSES
  0
CLASS
  1
ACDBDICTIONARYWDFLT
  2
AcDbDictionaryWithDefault
  3
ObjectDBX Classes
 90
        0
 91
        1
280
     0
281
     0
  0
CLASS
  1
DICTIONARYVAR
  2
AcDbDictionaryVar
  3
ObjectDBX Classes
 90
        0
 91
        2
280
     0
281
     0
  0
ENDSEC
  0
SECTION
  2
TABLES
  0
TABLE
  2
VPORT
  5
8
330
0
100
AcDbSymbolTable
 70
     3
  0
VPORT
  5
371
330
8
100
AcDbSymbolTableRecord
100
AcDbViewportTableRecord
  2
*Active
 70
     0
 10
0.0
 20
0.0
 11
1.0
 21
1.0
 12
105.0
 22
148.5
 13
0.0
 23
0.0
 14
1.0
 24
1.0
 15
10.0
 25
10.0
 16
0.0
 26
0.0
 36
1.0
 17
0.0
 27
0.0
 37
0.0
 40
297.0
 41
1.334231805929919
 42
50.0
 43
0.0
 44
0.0
 50
0.0
 51
0.0
 71
     0
 72
  1500
 73
     1
 74
     0
 75
     0
 76
     0
 77
     0
 78
     0
281
     0
 65
     1
110
0.0
120
0.0
130
0.0
111
1.0
121
0.0
131
0.0
112
0.0
122
1.0
132
0.0
 79
     0
146
0.0
  0
ENDTAB
  0
TABLE
  2
LTYPE
  5
5
330
0
100
AcDbSymbolTable
 70
     2
  0
LTYPE
  5
13
330
5
100
AcDbSymbolTableRecord
100
AcDbLinetypeTableRecord
  2
ByBlock
 70
     0
  3

 72
    65
 73
     0
 40
0.0
  0
LTYPE
  5
14
330
5
100
AcDbSymbolTableRecord
100
AcDbLinetypeTableRecord
  2
ByLayer
 70
     0
  3

 72
    65
 73
     0
 40
0.0
  0
LTYPE
  5
15
330
5
100
AcDbSymbolTableRecord
100
AcDbLinetypeTableRecord
  2
Continuous
 70
     0
  3
Solid line
 72
    65
 73
     0
 40
0.0
  0
LTYPE
  5
25
330
5
100
AcDbSymbolTableRecord
100
AcDbLinetypeTableRecord
  2
STRICHPUNKT
 70
     0
  3
__ . __ . __ . __ . __ . __ . __ . __ . __ . __
 72
    65
 73
     4
 40
1.0
 49
0.5
 74
     0
 49
-0.25
 74
     0
 49
0.0
 74
     0
 49
-0.25
 74
     0
  0
ENDTAB
  0
TABLE
  2
LAYER
  5
2
330
0
100
AcDbSymbolTable
 70
     9
  0
LAYER
  5
10
330
2
100
AcDbSymbolTableRecord
100
AcDbLayerTableRecord
  2
0
 70
     0
 62
     7
  6
Continuous
370
    -3
390
F
  0
LAYER
  5
2A
330
2
100
AcDbSymbolTableRecord
100
AcDbLayerTableRecord
  2
VOLL
 70
     0
 62
     1
  6
Continuous
370
    -3
390
F
  0
LAYER
  5
2B
330
2
100
AcDbSymbolTableRecord
100
AcDbLayerTableRecord
  2
HILF
 70
     0
 62
     2
  6
Continuous
370
    -3
390
F
  0
LAYER
  5
2C
330
2
100
AcDbSymbolTableRecord
100
AcDbLayerTableRecord
  2
MITTEL
 70
     0
 62
     2
  6
STRICHPUNKT
370
    -3
390
F
  0
LAYER
  5
2F
330
2
100
AcDbSymbolTableRecord
100
AcDbLayerTableRecord
  2
BEM
 70
     0
 62
     7
  6
Continuous
370
    -3
390
F
  0
LAYER
  5
30
330
2
100
AcDbSymbolTableRecord
100
AcDbLayerTableRecord
  2
STEMPEL
 70
     0
 62
     3
  6
Continuous
370
    -3
390
F
  0
LAYER
  5
31
330
2
100
AcDbSymbolTableRecord
100
AcDbLayerTableRecord
  2
TEXT
 70
     0
 62
     7
  6
Continuous
370
    -3
390
F
  0
LAYER
  5
156
330
2
100
AcDbSymbolTableRecord
100
AcDbLayerTableRecord
  2
Defpoints
 70
     0
 62
     7
  6
Continuous
290
     0
370
    -3
390
F
  0
ENDTAB
  0
TABLE
  2
STYLE
  5
3
330
0
100
AcDbSymbolTable
 70
     2
  0
STYLE
  5
11
330
3
100
AcDbSymbolTableRecord
100
AcDbTextStyleTableRecord
  2
STANDARD
 70
     0
 40
0.0
 41
0.8
 50
0.0
 71
     0
 42
3.5
  3
simplex.shx
  4

  0
STYLE
  5
24
330
3
100
AcDbSymbolTableRecord
100
AcDbTextStyleTableRecord
  2
GREEKS
 70
     0
 40
0.0
 41
0.8
 50
0.0
 71
     0
 42
2.5
  3
SIMPLEX.shx
  4

  0
ENDTAB
  0
TABLE
  2
VIEW
  5
6
330
0
100
AcDbSymbolTable
 70
     0
  0
ENDTAB
  0
TABLE
  2
UCS
  5
7
330
0
100
AcDbSymbolTable
 70
     0
  0
ENDTAB
  0
TABLE
  2
APPID
  5
9
330
0
100
AcDbSymbolTable
 70
     1
  0
APPID
  5
12
330
9
100
AcDbSymbolTableRecord
100
AcDbRegAppTableRecord
  2
ACAD
 70
     0
  0
ENDTAB
  0
TABLE
  2
DIMSTYLE
  5
A
330
0
100
AcDbSymbolTable
 70
     1
100
AcDbDimStyleTable
 71
     1
340
9D
  0
DIMSTYLE
105
9D
102
{ACAD_REACTORS
330
155
330
163
330
267
330
27D
102
}
330
A
100
AcDbSymbolTableRecord
100
AcDbDimStyleTableRecord
  2
Standard
 70
     0
340
11
  0
ENDTAB
  0
TABLE
  2
BLOCK_RECORD
  5
1
330
0
100
AcDbSymbolTable
 70
     6
  0
BLOCK_RECORD
  5
1E
102
{ACAD_XDICTIONARY
360
A0
102
}
330
1
100
AcDbSymbolTableRecord
100
AcDbBlockTableRecord
  2
*Model_Space
340
21
  0
BLOCK_RECORD
  5
1A
102
{ACAD_XDICTIONARY
360
A2
102
}
330
1
100
AcDbSymbolTableRecord
100
AcDbBlockTableRecord
  2
*Paper_Space
340
1D
  0
BLOCK_RECORD
  5
22
330
1
100
AcDbSymbolTableRecord
100
AcDbBlockTableRecord
  2
LOGO
340
0
102
{BLKREFS
331
9B
102
}
  0
BLOCK_RECORD
  5
157
330
1
100
AcDbSymbolTableRecord
100
AcDbBlockTableRecord
  2
*D1
340
0
  0
BLOCK_RECORD
  5
164
330
1
100
AcDbSymbolTableRecord
100
AcDbBlockTableRecord
  2
*D2
340
0
  0
BLOCK_RECORD
  5
268
330
1
100
AcDbSymbolTableRecord
100
AcDbBlockTableRecord
  2
*D4
340
0
  0
BLOCK_RECORD
  5
27E
330
1
100
AcDbSymbolTableRecord
100
AcDbBlockTableRecord
  2
*D5
340
0
  0
ENDTAB
  0
ENDSEC
  0
SECTION
  2
BLOCKS
  0
BLOCK
  5
35
330
1E
100
AcDbEntity
  8
0
100
AcDbBlockBegin
  2
*Model_Space
 70
     0
 10
0.0
 20
0.0
 30
0.0
  3
*Model_Space
  1

  0
ENDBLK
  5
36
330
1E
100
AcDbEntity
  8
0
100
AcDbBlockEnd
  0
BLOCK
  5
33
330
1A
100
AcDbEntity
 67
     1
  8
0
100
AcDbBlockBegin
  2
*Paper_Space
 70
     0
 10
0.0
 20
0.0
 30
0.0
  3
*Paper_Space
  1

  0
ENDBLK
  5
34
330
1A
100
AcDbEntity
 67
     1
  8
0
100
AcDbBlockEnd
  0
BLOCK
  5
37
330
22
100
AcDbEntity
  8
0
100
AcDbBlockBegin
  2
LOGO
 70
     0
 10
0.0
 20
0.0
 30
0.0
  3
LOGO
  1

  0
ARC
  5
38
330
22
100
AcDbEntity
  8
0
100
AcDbCircle
 10
11.59973089678112
 20
-9.271599258481501
 30
0.0
 40
4.5
100
AcDbArc
 50
270.0
 51
231.0575587310159
  0
LINE
  5
39
330
22
100
AcDbEntity
  8
0
100
AcDbLine
 10
3.599730896781125
 20
-4.771599258481529
 30
0.0
 11
3.599730896781153
 21
-11.77159925848133
 31
0.0
  0
LINE
  5
3A
330
22
100
AcDbEntity
  8
0
100
AcDbLine
 10
2.599730896781125
 20
-4.771599258481529
 30
0.0
 11
2.599730896781153
 21
-11.77159925848133
 31
0.0
  0
CIRCLE
  5
3B
330
22
100
AcDbEntity
  8
0
100
AcDbCircle
 10
11.59973089678112
 20
-9.271599258481501
 30
0.0
 40
3.5
  0
ARC
  5
3C
330
22
100
AcDbEntity
  8
0
100
AcDbCircle
 10
31.59973089678115
 20
-9.271599258481472
 30
0.0
 40
4.5
100
AcDbArc
 50
270.0
 51
231.0575587310182
  0
LINE
  5
3D
330
22
100
AcDbEntity
  8
0
100
AcDbLine
 10
17.59973089678112
 20
-4.771599258481472
 30
0.0
 11
17.59973089678115
 21
-13.77159925848147
 31
0.0
  0
ARC
  5
3E
330
22
100
AcDbEntity
  8
0
100
AcDbCircle
 10
22.59973089678116
 20
-7.271599258481472
 30
0.0
 40
2.5
100
AcDbArc
 50
293.1161887722295
 51
90.0
  0
CIRCLE
  5
3F
330
22
100
AcDbEntity
  8
0
100
AcDbCircle
 10
31.59973089678115
 20
-9.271599258481472
 30
0.0
 40
3.5
  0
ARC
  5
40
330
22
100
AcDbEntity
  8
0
100
AcDbCircle
 10
4.599730896781153
 20
-11.77159925848133
 30
0.0
 40
1.0
100
AcDbArc
 50
180.0
 51
270.0
  0
ARC
  5
41
330
22
100
AcDbEntity
  8
0
100
AcDbCircle
 10
4.599730896781153
 20
-11.77159925848133
 30
0.0
 40
2.0
100
AcDbArc
 50
179.9999999999992
 51
270.0
  0
LINE
  5
42
330
22
100
AcDbEntity
  8
0
100
AcDbLine
 10
11.59973089678115
 20
-13.77159925848144
 30
0.0
 11
4.599730896781153
 21
-13.77159925848147
 31
0.0
  0
LINE
  5
43
330
22
100
AcDbEntity
  8
0
100
AcDbLine
 10
8.771303772034769
 20
-12.77159925848136
 30
0.0
 11
4.599730896781153
 21
-12.77159925848133
 31
0.0
  0
LINE
  5
44
330
22
100
AcDbEntity
  8
0
100
AcDbLine
 10
31.59973089678115
 20
-13.77159925848147
 30
0.0
 11
23.6715276665056
 21
-13.77159925848144
 31
0.0
  0
LINE
  5
45
330
22
100
AcDbEntity
  8
0
100
AcDbLine
 10
23.56565672307022
 20
-9.51278021337896
 30
0.0
 11
24.4388546544846
 21
-12.77159925848144
 31
0.0
  0
LINE
  5
46
330
22
100
AcDbEntity
  8
0
100
AcDbLine
 10
22.59973089678116
 20
-9.771599258481472
 30
0.0
 11
18.59973089678112
 21
-9.771599258481472
 31
0.0
  0
LINE
  5
47
330
22
100
AcDbEntity
  8
0
100
AcDbLine
 10
18.59973089678115
 20
-13.77159925848144
 30
0.0
 11
17.59973089678115
 21
-13.77159925848144
 31
0.0
  0
LINE
  5
48
330
22
100
AcDbEntity
  8
0
100
AcDbLine
 10
18.59973089678115
 20
-9.771599258481472
 30
0.0
 11
18.59973089678115
 21
-13.77159925848144
 31
0.0
  0
LINE
  5
49
330
22
100
AcDbEntity
  8
0
100
AcDbLine
 10
22.59973089678116
 20
-9.771599258481472
 30
0.0
 11
23.67152766650562
 21
-13.77159925848147
 31
0.0
  0
ARC
  5
4A
330
22
100
AcDbEntity
  8
0
100
AcDbCircle
 10
22.59973089678116
 20
-7.271599258481472
 30
0.0
 40
2.5
100
AcDbArc
 50
270.0
 51
270.0000000000007
  0
LINE
  5
4B
330
22
100
AcDbEntity
  8
0
100
AcDbLine
 10
28.77130377203494
 20
-12.77159925848147
 30
0.0
 11
24.43885465448463
 21
-12.77159925848144
 31
0.0
  0
LINE
  5
4C
330
22
100
AcDbEntity
  8
0
100
AcDbLine
 10
3.599730896781125
 20
-4.771599258481472
 30
0.0
 11
2.599730896781125
 21
-4.771599258481472
 31
0.0
  0
LINE
  5
4D
330
22
100
AcDbEntity
  8
0
100
AcDbLine
 10
22.59973089678116
 20
-8.771599258481472
 30
0.0
 11
18.59973089678115
 21
-8.771599258481472
 31
0.0
  0
LINE
  5
4E
330
22
100
AcDbEntity
  8
0
100
AcDbLine
 10
22.59973089678116
 20
-5.771599258481472
 30
0.0
 11
18.59973089678115
 21
-5.771599258481472
 31
0.0
  0
LINE
  5
4F
330
22
100
AcDbEntity
  8
0
100
AcDbLine
 10
22.59973089678116
 20
-4.771599258481472
 30
0.0
 11
17.59973089678115
 21
-4.771599258481472
 31
0.0
  0
LINE
  5
50
330
22
100
AcDbEntity
  8
0
100
AcDbLine
 10
18.59973089678115
 20
-5.771599258481472
 30
0.0
 11
18.59973089678115
 21
-8.771599258481472
 31
0.0
  0
ARC
  5
51
330
22
100
AcDbEntity
  8
0
100
AcDbCircle
 10
22.59973089678116
 20
-7.271599258481472
 30
0.0
 40
1.5
100
AcDbArc
 50
270.0
 51
90.0
  0
ENDBLK
  5
52
330
22
100
AcDbEntity
  8
0
100
AcDbBlockEnd
  0
BLOCK
  5
161
330
157
100
AcDbEntity
  8
0
100
AcDbBlockBegin
  2
*D1
 70
     1
 10
0.0
 20
0.0
 30
0.0
  3
*D1
  1

  0
LINE
  5
2C9
330
157
100
AcDbEntity
  8
BEM
 62
     0
370
    -2
100
AcDbLine
 10
77.43744331762957
 20
93.20927406657359
 30
0.0
 11
60.57557952467958
 21
93.20927406657359
 31
0.0
  0
LINE
  5
2CA
330
157
100
AcDbEntity
  8
BEM
 62
     0
370
    -2
100
AcDbLine
 10
76.99999999999997
 20
153.2092740665736
 30
0.0
 11
60.57557952467959
 21
153.2092740665736
 31
0.0
  0
LINE
  5
2CB
330
157
100
AcDbEntity
  8
BEM
 62
     0
370
    -2
100
AcDbLine
 10
61.57557952467958
 20
96.70927406657359
 30
0.0
 11
61.5755795246796
 21
149.7092740665736
 31
0.0
  0
SOLID
  5
2CC
330
157
100
AcDbEntity
  8
BEM
 62
     0
100
AcDbTrace
 10
60.99224619134624
 20
96.70927406657359
 30
0.0
 11
62.15891285801292
 21
96.70927406657359
 31
0.0
 12
61.57557952467958
 22
93.20927406657359
 32
0.0
 13
61.57557952467958
 23
93.20927406657359
 33
0.0
  0
SOLID
  5
2CD
330
157
100
AcDbEntity
  8
BEM
 62
     0
100
AcDbTrace
 10
60.99224619134626
 20
149.7092740665736
 30
0.0
 11
62.15891285801293
 21
149.7092740665736
 31
0.0
 12
61.5755795246796
 22
153.2092740665736
 32
0.0
 13
61.5755795246796
 23
153.2092740665736
 33
0.0
  0
MTEXT
  5
2CE
330
157
100
AcDbEntity
  8
BEM
 62
     1
100
AcDbMText
 10
58.32557952467957
 20
123.2092740665736
 30
0.0
 40
3.5
 41
0.0
 71
     5
 72
     1
  1
\A1;60
 11
0.0000000000000001
 21
1.0
 31
0.0
 73
     1
 44
1.0
  0
POINT
  5
2CF
330
157
100
AcDbEntity
  8
Defpoints
 62
     0
100
AcDbPoint
 10
78.43744331762957
 20
93.20927406657359
 30
0.0
  0
POINT
  5
2D0
330
157
100
AcDbEntity
  8
Defpoints
 62
     0
100
AcDbPoint
 10
77.99999999999997
 20
153.2092740665736
 30
0.0
  0
POINT
  5
2D1
330
157
100
AcDbEntity
  8
Defpoints
 62
     0
100
AcDbPoint
 10
61.5755795246796
 20
153.2092740665736
 30
0.0
  0
ENDBLK
  5
162
330
157
100
AcDbEntity
  8
0
100
AcDbBlockEnd
  0
BLOCK
  5
16E
330
164
100
AcDbEntity
  8
0
100
AcDbBlockBegin
  2
*D2
 70
     1
 10
0.0
 20
0.0
 30
0.0
  3
*D2
  1

  0
LINE
  5
327
330
164
100
AcDbEntity
  8
BEM
 62
     0
370
    -2
100
AcDbLine
 10
76.99999999999997
 20
153.2092740665736
 30
0.0
 11
60.5755795246796
 21
153.2092740665736
 31
0.0
  0
LINE
  5
328
330
164
100
AcDbEntity
  8
BEM
 62
     0
370
    -2
100
AcDbLine
 10
74.99999999999997
 20
273.2092740665736
 30
0.0
 11
60.57557952467963
 21
273.2092740665736
 31
0.0
  0
LINE
  5
329
330
164
100
AcDbEntity
  8
BEM
 62
     0
370
    -2
100
AcDbLine
 10
61.57557952467961
 20
156.7092740665736
 30
0.0
 11
61.57557952467962
 21
269.7092740665736
 31
0.0
  0
SOLID
  5
32A
330
164
100
AcDbEntity
  8
BEM
 62
     0
100
AcDbTrace
 10
60.99224619134627
 20
156.7092740665736
 30
0.0
 11
62.15891285801294
 21
156.7092740665736
 31
0.0
 12
61.57557952467961
 22
153.2092740665736
 32
0.0
 13
61.57557952467961
 23
153.2092740665736
 33
0.0
  0
SOLID
  5
32B
330
164
100
AcDbEntity
  8
BEM
 62
     0
100
AcDbTrace
 10
60.99224619134629
 20
269.7092740665736
 30
0.0
 11
62.15891285801296
 21
269.7092740665736
 31
0.0
 12
61.57557952467963
 22
273.2092740665736
 32
0.0
 13
61.57557952467963
 23
273.2092740665736
 33
0.0
  0
MTEXT
  5
32C
330
164
100
AcDbEntity
  8
BEM
 62
     1
100
AcDbMText
 10
58.32557952467958
 20
213.2092740665736
 30
0.0
 40
3.5
 41
0.0
 71
     5
 72
     1
  1
\A1;3000
 11
0.0000000000000001
 21
1.0
 31
0.0
 73
     1
 44
1.0
  0
POINT
  5
32D
330
164
100
AcDbEntity
  8
Defpoints
 62
     0
100
AcDbPoint
 10
77.99999999999997
 20
153.2092740665736
 30
0.0
  0
POINT
  5
32E
330
164
100
AcDbEntity
  8
Defpoints
 62
     0
100
AcDbPoint
 10
75.99999999999997
 20
273.2092740665736
 30
0.0
  0
POINT
  5
32F
330
164
100
AcDbEntity
  8
Defpoints
 62
     0
100
AcDbPoint
 10
61.57557952467963
 20
273.2092740665736
 30
0.0
  0
ENDBLK
  5
16F
330
164
100
AcDbEntity
  8
0
100
AcDbBlockEnd
  0
BLOCK
  5
272
330
268
100
AcDbEntity
  8
0
100
AcDbBlockBegin
  2
*D4
 70
     1
 10
0.0
 20
0.0
 30
0.0
  3
*D4
  1

  0
LINE
  5
2AE
330
268
100
AcDbEntity
  8
BEM
 62
     0
370
    -2
100
AcDbLine
 10
75.99999999999997
 20
274.2092740665736
 30
0.0
 11
75.99999999999997
 21
281.5799320279009
 31
0.0
  0
LINE
  5
2AF
330
268
100
AcDbEntity
  8
BEM
 62
     0
370
    -2
100
AcDbLine
 10
148.9999999999999
 20
274.2092740665735
 30
0.0
 11
148.9999999999999
 21
281.5799320279009
 31
0.0
  0
LINE
  5
2B0
330
268
100
AcDbEntity
  8
BEM
 62
     0
370
    -2
100
AcDbLine
 10
79.49999999999997
 20
280.5799320279009
 30
0.0
 11
145.4999999999999
 21
280.5799320279009
 31
0.0
  0
SOLID
  5
2B1
330
268
100
AcDbEntity
  8
BEM
 62
     0
100
AcDbTrace
 10
79.49999999999997
 20
281.1632653612342
 30
0.0
 11
79.49999999999997
 21
279.9965986945676
 31
0.0
 12
75.99999999999997
 22
280.5799320279009
 32
0.0
 13
75.99999999999997
 23
280.5799320279009
 33
0.0
  0
SOLID
  5
2B2
330
268
100
AcDbEntity
  8
BEM
 62
     0
100
AcDbTrace
 10
145.4999999999999
 20
281.1632653612342
 30
0.0
 11
145.4999999999999
 21
279.9965986945676
 31
0.0
 12
148.9999999999999
 22
280.5799320279009
 32
0.0
 13
148.9999999999999
 23
280.5799320279009
 33
0.0
  0
MTEXT
  5
2B3
330
268
100
AcDbEntity
  8
BEM
 62
     1
100
AcDbMText
 10
112.4999999999999
 20
283.8299320279009
 30
0.0
 40
3.5
 41
0.0
 71
     5
 72
     1
  1
\A1;%%c73
 73
     1
 44
1.0
  0
POINT
  5
2B4
330
268
100
AcDbEntity
  8
Defpoints
 62
     0
100
AcDbPoint
 10
75.99999999999997
 20
273.2092740665736
 30
0.0
  0
POINT
  5
2B5
330
268
100
AcDbEntity
  8
Defpoints
 62
     0
100
AcDbPoint
 10
148.9999999999999
 20
273.2092740665735
 30
0.0
  0
POINT
  5
2B6
330
268
100
AcDbEntity
  8
Defpoints
 62
     0
100
AcDbPoint
 10
148.9999999999999
 20
280.5799320279009
 30
0.0
  0
ENDBLK
  5
273
330
268
100
AcDbEntity
  8
0
100
AcDbBlockEnd
  0
BLOCK
  5
288
330
27E
100
AcDbEntity
  8
0
100
AcDbBlockBegin
  2
*D5
 70
     1
 10
0.0
 20
0.0
 30
0.0
  3
*D5
  1

  0
LINE
  5
2A5
330
27E
100
AcDbEntity
  8
BEM
 62
     0
370
    -2
100
AcDbLine
 10
77.99999999999994
 20
97.20927406657359
 30
0.0
 11
77.99999999999994
 21
79.90780774127711
 31
0.0
  0
LINE
  5
2A6
330
27E
100
AcDbEntity
  8
BEM
 62
     0
370
    -2
100
AcDbLine
 10
146.9999999999999
 20
97.20927406657359
 30
0.0
 11
146.9999999999999
 21
79.90780774127711
 31
0.0
  0
LINE
  5
2A7
330
27E
100
AcDbEntity
  8
BEM
 62
     0
370
    -2
100
AcDbLine
 10
81.49999999999995
 20
80.90780774127711
 30
0.0
 11
143.4999999999999
 21
80.90780774127711
 31
0.0
  0
SOLID
  5
2A8
330
27E
100
AcDbEntity
  8
BEM
 62
     0
100
AcDbTrace
 10
81.49999999999995
 20
81.49114107461043
 30
0.0
 11
81.49999999999995
 21
80.32447440794378
 31
0.0
 12
77.99999999999994
 22
80.90780774127711
 32
0.0
 13
77.99999999999994
 23
80.90780774127711
 33
0.0
  0
SOLID
  5
2A9
330
27E
100
AcDbEntity
  8
BEM
 62
     0
100
AcDbTrace
 10
143.4999999999999
 20
81.49114107461043
 30
0.0
 11
143.4999999999999
 21
80.32447440794378
 31
0.0
 12
146.9999999999999
 22
80.90780774127711
 32
0.0
 13
146.9999999999999
 23
80.90780774127711
 33
0.0
  0
MTEXT
  5
2AA
330
27E
100
AcDbEntity
  8
BEM
 62
     1
100
AcDbMText
 10
112.4999999999999
 20
84.15780774127711
 30
0.0
 40
3.5
 41
0.0
 71
     5
 72
     1
  1
\A1;%%c69
 73
     1
 44
1.0
  0
POINT
  5
2AB
330
27E
100
AcDbEntity
  8
Defpoints
 62
     0
100
AcDbPoint
 10
77.99999999999994
 20
98.20927406657359
 30
0.0
  0
POINT
  5
2AC
330
27E
100
AcDbEntity
  8
Defpoints
 62
     0
100
AcDbPoint
 10
146.9999999999999
 20
98.20927406657359
 30
0.0
  0
POINT
  5
2AD
330
27E
100
AcDbEntity
  8
Defpoints
 62
     0
100
AcDbPoint
 10
146.9999999999999
 20
80.90780774127711
 30
0.0
  0
ENDBLK
  5
289
330
27E
100
AcDbEntity
  8
0
100
AcDbBlockEnd
  0
ENDSEC
  0
SECTION
  2
ENTITIES
  0
LINE
  5
57
330
1E
100
AcDbEntity
  8
STEMPEL
100
AcDbLine
 10
205.0
 20
55.00000000000003
 30
0.0
 11
19.99999999999998
 21
55.0
 31
0.0
  0
LINE
  5
58
330
1E
100
AcDbEntity
  8
STEMPEL
100
AcDbLine
 10
68.00000000000006
 20
54.99999999999997
 30
0.0
 11
68.0
 21
4.999999999999985
 31
0.0
  0
LINE
  5
59
330
1E
100
AcDbEntity
  8
STEMPEL
100
AcDbLine
 10
110.0
 20
55.00000000000003
 30
0.0
 11
110.0
 21
4.999999999999985
 31
0.0
  0
LINE
  5
5A
330
1E
100
AcDbEntity
  8
STEMPEL
100
AcDbLine
 10
166.0
 20
54.99999999999989
 30
0.0
 11
166.0
 21
20.0
 31
0.0
  0
LINE
  5
5B
330
1E
100
AcDbEntity
  8
STEMPEL
100
AcDbLine
 10
67.99999999999994
 20
14.99999999999998
 30
0.0
 11
19.99999999999998
 21
14.99999999999998
 31
0.0
  0
LINE
  5
5C
330
1E
100
AcDbEntity
  8
STEMPEL
100
AcDbLine
 10
205.0
 20
20.0
 30
0.0
 11
68.00000000000006
 21
19.99999999999998
 31
0.0
  0
LINE
  5
5D
330
1E
100
AcDbEntity
  8
STEMPEL
100
AcDbLine
 10
205.0
 20
40.0
 30
0.0
 11
68.00000000000006
 21
39.99999999999997
 31
0.0
  0
LINE
  5
5E
330
1E
100
AcDbEntity
  8
VOLL
100
AcDbLine
 10
27.00000000000005
 20
55.00000000000003
 30
0.0
 11
26.99999999999999
 21
4.999999999999985
 31
0.0
  0
LINE
  5
5F
330
1E
100
AcDbEntity
  8
VOLL
100
AcDbLine
 10
47.00000000000005
 20
54.99999999999997
 30
0.0
 11
47.0
 21
4.999999999999985
 31
0.0
  0
LINE
  5
60
330
1E
100
AcDbEntity
  8
VOLL
100
AcDbLine
 10
57.00000000000006
 20
54.99999999999997
 30
0.0
 11
57.0
 21
4.999999999999985
 31
0.0
  0
LINE
  5
61
330
1E
100
AcDbEntity
  8
VOLL
100
AcDbLine
 10
77.00000000000006
 20
39.99999999999997
 30
0.0
 11
77.00000000000006
 21
19.99999999999998
 31
0.0
  0
LINE
  5
62
330
1E
100
AcDbEntity
  8
VOLL
100
AcDbLine
 10
90.00000000000005
 20
54.99999999999992
 30
0.0
 11
90.0
 21
19.99999999999998
 31
0.0
  0
LINE
  5
63
330
1E
100
AcDbEntity
  8
HILF
100
AcDbLine
 10
20.00000000000004
 20
50.00000000000003
 30
0.0
 11
68.00000000000006
 21
50.00000000000003
 31
0.0
  0
LINE
  5
64
330
1E
100
AcDbEntity
  8
HILF
100
AcDbLine
 10
20.00000000000004
 20
45.00000000000002
 30
0.0
 11
68.00000000000006
 21
45.00000000000002
 31
0.0
  0
LINE
  5
65
330
1E
100
AcDbEntity
  8
HILF
100
AcDbLine
 10
20.00000000000004
 20
39.99999999999997
 30
0.0
 11
68.00000000000006
 21
39.99999999999997
 31
0.0
  0
LINE
  5
66
330
1E
100
AcDbEntity
  8
HILF
100
AcDbLine
 10
20.00000000000004
 20
34.99999999999997
 30
0.0
 11
68.00000000000006
 21
34.99999999999997
 31
0.0
  0
LINE
  5
67
330
1E
100
AcDbEntity
  8
HILF
100
AcDbLine
 10
20.00000000000004
 20
29.99999999999999
 30
0.0
 11
68.00000000000006
 21
29.99999999999999
 31
0.0
  0
LINE
  5
68
330
1E
100
AcDbEntity
  8
HILF
100
AcDbLine
 10
20.00000000000004
 20
24.99999999999999
 30
0.0
 11
68.00000000000006
 21
24.99999999999999
 31
0.0
  0
LINE
  5
69
330
1E
100
AcDbEntity
  8
HILF
100
AcDbLine
 10
20.00000000000004
 20
19.99999999999998
 30
0.0
 11
68.00000000000006
 21
19.99999999999998
 31
0.0
  0
LINE
  5
6A
330
1E
100
AcDbEntity
  8
HILF
100
AcDbLine
 10
68.00000000000006
 20
34.99999999999997
 30
0.0
 11
110.0
 21
34.99999999999997
 31
0.0
  0
LINE
  5
6B
330
1E
100
AcDbEntity
  8
HILF
100
AcDbLine
 10
68.00000000000006
 20
29.99999999999999
 30
0.0
 11
110.0
 21
29.99999999999999
 31
0.0
  0
LINE
  5
6C
330
1E
100
AcDbEntity
  8
HILF
100
AcDbLine
 10
68.00000000000006
 20
24.99999999999999
 30
0.0
 11
110.0
 21
24.99999999999999
 31
0.0
  0
LINE
  5
6D
330
1E
100
AcDbEntity
  8
HILF
100
AcDbLine
 10
112.3868400548474
 20
42.01879123782069
 30
0.0
 11
162.4176958278155
 21
42.01879123782069
 31
0.0
  0
LINE
  5
6E
330
1E
100
AcDbEntity
  8
HILF
100
AcDbLine
 10
112.3868400548474
 20
34.99999999999997
 30
0.0
 11
162.4176958278155
 21
34.99999999999997
 31
0.0
  0
LINE
  5
6F
330
1E
100
AcDbEntity
  8
HILF
100
AcDbLine
 10
112.3868400548474
 20
29.99999999999999
 30
0.0
 11
162.4176958278155
 21
29.99999999999999
 31
0.0
  0
LINE
  5
70
330
1E
100
AcDbEntity
  8
HILF
100
AcDbLine
 10
112.3868400548474
 20
24.99999999999999
 30
0.0
 11
162.4176958278155
 21
24.99999999999999
 31
0.0
  0
LINE
  5
71
330
1E
100
AcDbEntity
  8
VOLL
100
AcDbLine
 10
166.0
 20
30.0
 30
0.0
 11
205.0
 21
30.0
 31
0.0
  0
LINE
  5
72
330
1E
100
AcDbEntity
  8
HILF
100
AcDbLine
 10
168.3619308148496
 20
41.88991818477913
 30
0.0
 11
202.4294419663364
 21
41.88991818477913
 31
0.0
  0
LINE
  5
73
330
1E
100
AcDbEntity
  8
HILF
100
AcDbLine
 10
111.7454849644942
 20
7.446991290141568
 30
0.0
 11
202.4294419663364
 21
7.446991290141568
 31
0.0
  0
TEXT
  5
74
330
1E
100
AcDbEntity
  8
TEXT
100
AcDbText
 10
31.9308298981591
 20
9.336909474920659
 30
0.0
 40
2.0
  1
Änderung
 41
0.8
  7
GREEKS
 72
     1
 11
37.30225846958767
 21
9.336909474920659
 31
0.0
100
AcDbText
  0
TEXT
  5
75
330
1E
100
AcDbEntity
  8
TEXT
100
AcDbText
 10
71.75817860751886
 20
51.23104475435443
 30
0.0
 40
2.5
  1
Maßstab
 41
0.8
  7
GREEKS
100
AcDbText
  0
TEXT
  5
76
330
1E
100
AcDbEntity
  8
TEXT
100
AcDbText
 10
92.14294773670257
 20
51.20920842174095
 30
0.0
 40
2.5
  1
Zul. Abw.
 41
0.8
  7
GREEKS
100
AcDbText
  0
TEXT
  5
77
330
1E
100
AcDbEntity
  8
TEXT
100
AcDbText
 10
112.4389701904505
 20
51.27446640058898
 30
0.0
 40
2.5
  1
Benennung
 41
0.8
  7
GREEKS
100
AcDbText
  0
TEXT
  5
78
330
1E
100
AcDbEntity
  8
TEXT
100
AcDbText
 10
168.089377478817
 20
51.15660172685682
 30
0.0
 40
2.5
  1
Zeichnungs Nr.
 41
0.8
  7
GREEKS
100
AcDbText
  0
TEXT
  5
79
330
1E
100
AcDbEntity
  8
TEXT
100
AcDbText
 10
112.371119195568
 20
15.42280285096528
 30
0.0
 40
2.5
  1
Bauvorhaben
 41
0.8
  7
GREEKS
100
AcDbText
  0
TEXT
  5
7A
330
1E
100
AcDbEntity
  8
TEXT
100
AcDbText
 10
168.3619308148496
 20
36.59059118549985
 30
0.0
 40
2.5
  1
Ersatz für:
 41
0.8
  7
GREEKS
100
AcDbText
  0
TEXT
  5
7B
330
1E
100
AcDbEntity
  8
TEXT
100
AcDbText
 10
24.13320553522878
 20
6.827329230135958
 30
0.0
 40
2.0
  1
Index
 50
90.0
 41
0.8
  7
GREEKS
100
AcDbText
  0
TEXT
  5
7C
330
1E
100
AcDbEntity
  8
TEXT
100
AcDbText
 10
50.04673380377405
 20
9.33578134669905
 30
0.0
 40
2.0
  1
Tag
 41
0.8
  7
GREEKS
 72
     1
 11
51.91340047044072
 21
9.33578134669905
 31
0.0
100
AcDbText
  0
TEXT
  5
7D
330
1E
100
AcDbEntity
  8
TEXT
100
AcDbText
 10
59.50613721932963
 20
9.29662108483204
 30
0.0
 40
2.0
  1
Name
 41
0.8
  7
GREEKS
 72
     1
 11
62.66804198123439
 21
9.29662108483204
 31
0.0
100
AcDbText
  0
TEXT
  5
7E
330
1E
100
AcDbEntity
  8
TEXT
100
AcDbText
 10
81.16558365768254
 20
36.65940250614963
 30
0.0
 40
2.0
  1
Tag
 41
0.8
  7
GREEKS
100
AcDbText
  0
TEXT
  5
7F
330
1E
100
AcDbEntity
  8
TEXT
100
AcDbText
 10
96.23132921131475
 20
36.65480545957612
 30
0.0
 40
2.0
  1
Name
 41
0.8
  7
GREEKS
100
AcDbText
  0
TEXT
  5
80
330
1E
100
AcDbEntity
  8
TEXT
100
AcDbText
 10
68.79180635838077
 20
31.81495184808982
 30
0.0
 40
2.0
  1
Gez.
 41
0.8
  7
GREEKS
100
AcDbText
  0
TEXT
  5
81
330
1E
100
AcDbEntity
  8
TEXT
100
AcDbText
 10
68.77575432858361
 20
26.84463145714189
 30
0.0
 40
2.0
  1
Gepr.
 41
0.8
  7
GREEKS
100
AcDbText
  0
TEXT
  5
82
330
1E
100
AcDbEntity
  8
TEXT
100
AcDbText
 10
68.80033886936519
 20
21.76473194824904
 30
0.0
 40
2.0
  1
Norm.
 41
0.8
  7
GREEKS
100
AcDbText
  0
LINE
  5
83
330
1E
100
AcDbEntity
  8
STEMPEL
100
AcDbLine
 10
24.99999999999995
 20
5.0
 30
0.0
 11
205.0
 21
5.0
 31
0.0
  0
TEXT
  5
84
330
1E
100
AcDbEntity
  8
TEXT
100
AcDbText
 10
168.6200430748503
 20
26.03708088939301
 30
0.0
 40
2.5
  1
ersetzt durch:
 41
0.8
  7
GREEKS
100
AcDbText
  0
LINE
  5
85
330
1E
100
AcDbEntity
  8
STEMPEL
100
AcDbLine
 10
205.0
 20
5.0
 30
0.0
 11
19.99999999999994
 21
5.0
 31
0.0
  0
LINE
  5
86
330
1E
100
AcDbEntity
  8
STEMPEL
100
AcDbLine
 10
205.0
 20
5.0
 30
0.0
 11
205.0
 21
292.0
 31
0.0
  0
LINE
  5
87
330
1E
100
AcDbEntity
  8
STEMPEL
100
AcDbLine
 10
20.0
 20
5.0
 30
0.0
 11
19.99999999999994
 21
292.0
 31
0.0
  0
LINE
  5
88
330
1E
100
AcDbEntity
  8
STEMPEL
100
AcDbLine
 10
205.0
 20
292.0
 30
0.0
 11
19.99999999999994
 21
292.0
 31
0.0
  0
LINE
  5
89
330
1E
100
AcDbEntity
  8
HILF
100
AcDbLine
 10
0.0
 20
0.0
 30
0.0
 11
-0.0000000000000568
 21
297.0
 31
0.0
  0
LINE
  5
8A
330
1E
100
AcDbEntity
  8
HILF
100
AcDbLine
 10
210.0
 20
297.0000000000001
 30
0.0
 11
0.0
 21
297.0
 31
0.0
  0
LINE
  5
8B
330
1E
100
AcDbEntity
  8
HILF
100
AcDbLine
 10
210.0
 20
0.0
 30
0.0
 11
0.0
 21
0.0
 31
0.0
  0
LINE
  5
8C
330
1E
100
AcDbEntity
  8
HILF
100
AcDbLine
 10
15.54383567856928
 20
148.5
 30
0.0
 11
0.0000000000000568
 21
148.5
 31
0.0
  0
TEXT
  5
8D
330
1E
100
AcDbEntity
  8
TEXT
100
AcDbText
 10
69.31105491105199
 20
36.57012735575833
 30
0.0
 40
2.0
  1
2011
 41
0.8
  7
GREEKS
100
AcDbText
  0
LINE
  5
8E
330
1E
100
AcDbEntity
  8
HILF
100
AcDbLine
 10
210.0
 20
-0.0000000000000568
 30
0.0
 11
210.0
 21
297.0
 31
0.0
  0
TEXT
  5
8F
330
1E
100
AcDbEntity
  8
VOLL
100
AcDbText
 10
78.07675471698113
 20
31.02594776470585
 30
0.0
 40
1.8
  1

  7
GREEKS
100
AcDbText
  0
TEXT
  5
90
330
1E
100
AcDbEntity
  8
TEXT
100
AcDbText
 10
20.92754975488837
 20
55.83599999999997
 30
0.0
 40
2.5
  1
Erstellt mit AUTOCAD 2004
 41
0.8
  7
GREEKS
100
AcDbText
  0
TEXT
  5
91
330
1E
100
AcDbEntity
  8
TEXT
100
AcDbText
 10
97.21080242906285
 20
31.54481959861755
 30
0.0
 40
2.0
  1
Koeh
 41
0.8
  7
GREEKS
 72
     1
 11
99.83937385763429
 21
31.54481959861755
 31
0.0
100
AcDbText
  0
TEXT
  5
92
330
1E
100
AcDbEntity
  8
TEXT
 62
     1
100
AcDbText
 10
173.1925980563927
 20
44.07450714456979
 30
0.0
 40
3.5
  1
01104070W
 41
0.8
  7
GREEKS
 72
     1
 11
184.6592647230593
 21
44.07450714456979
 31
0.0
100
AcDbText
  0
TEXT
  5
93
330
1E
100
AcDbEntity
  8
TEXT
 62
     1
100
AcDbText
 10
75.25031532409435
 20
44.07450714456979
 30
0.0
 40
3.5
  1
1:1
 41
0.8
  7
GREEKS
100
AcDbText
  0
TEXT
  5
94
330
1E
100
AcDbEntity
  8
TEXT
100
AcDbText
 10
80.19949855411802
 20
31.55382520412866
 30
0.0
 40
2.0
  1
06.04.
 41
0.8
  7
GREEKS
 72
     1
 11
83.70426045887993
 21
31.55382520412866
 31
0.0
100
AcDbText
  0
TEXT
  5
95
330
1E
100
AcDbEntity
  8
TEXT
 62
     1
100
AcDbText
 10
113.4467865528701
 20
43.70874394626889
 30
0.0
 40
3.5
  1
Rohr DN70
 41
0.8
  7
GREEKS
100
AcDbText
  0
TEXT
  5
96
330
1E
100
AcDbEntity
  8
TEXT
100
AcDbText
 10
112.5648195562657
 20
35.75167208792644
 30
0.0
 40
2.5
  1
mit reduziertem Einschubende
 41
0.8
  7
GREEKS
100
AcDbText
  0
TEXT
  5
97
330
1E
100
AcDbEntity
  8
TEXT
100
AcDbText
 10
112.5648195562657
 20
31.05790353387428
 30
0.0
 40
2.5
  1
3000mm lang
 41
0.8
  7
GREEKS
100
AcDbText
  0
TEXT
  5
98
330
1E
100
AcDbEntity
  8
TEXT
100
AcDbText
 10
112.5648195562657
 20
25.82005971521079
 30
0.0
 40
2.5
  1
EDV-Art.Nr. 01104.070X
 41
0.8
  7
GREEKS
100
AcDbText
  0
TEXT
  5
99
330
1E
100
AcDbEntity
  8
TEXT
100
AcDbText
 10
112.4918750788913
 20
21.31487076511316
 30
0.0
 40
2.0
  1
01104070W.DWG
 41
0.8
  7
GREEKS
100
AcDbText
  0
TEXT
  5
9A
330
1E
100
AcDbEntity
  8
TEXT
100
AcDbText
 10
91.31306610404202
 20
45.38181920511511
 30
0.0
 40
2.0
  1
DIN EN1123-2
 41
0.8
  7
GREEKS
 72
     1
 11
99.80830419928011
 21
45.38181920511511
 31
0.0
100
AcDbText
  0
INSERT
  5
9B
330
1E
100
AcDbEntity
  8
STEMPEL
100
AcDbBlockReference
  2
LOGO
 10
70.4977742728897
 20
22.51052638224161
 30
0.0
  0
TEXT
  5
118
330
1E
100
AcDbEntity
  8
BEM
100
AcDbText
 10
208.6511461928583
 20
5.083950539994247
 30
0.0
 40
2.0
  1
Diese Zeichnung ist urheberrechtlich geschützt und bleibt unser Eigentum. Sie darf weder ganz noch teilweise verfielfältigt und nicht an Dritte weitergegeben werden.
 50
90.0
 41
0.8
  7
GREEKS
100
AcDbText
  0
LINE
  5
137
330
1E
100
AcDbEntity
  8
MITTEL
100
AcDbLine
 10
112.5
 20
278.2092740665735
 30
0.0
 11
112.4999999999999
 21
88.20927406657359
 31
0.0
  0
LINE
  5
138
330
1E
100
AcDbEntity
  8
STEMPEL
100
AcDbLine
 10
148.9999999999999
 20
273.2092740665735
 30
0.0
 11
75.99999999999997
 21
273.2092740665736
 31
0.0
  0
LINE
  5
139
330
1E
100
AcDbEntity
  8
STEMPEL
100
AcDbLine
 10
146.5625566823703
 20
93.20927406657359
 30
0.0
 11
78.43744331762957
 21
93.20927406657359
 31
0.0
  0
LINE
  5
13A
330
1E
100
AcDbEntity
  8
STEMPEL
100
AcDbLine
 10
75.99999999999997
 20
273.2092740665736
 30
0.0
 11
75.99999999999996
 21
230.9148864787351
 31
0.0
  0
LINE
  5
13B
330
1E
100
AcDbEntity
  8
STEMPEL
100
AcDbLine
 10
148.9999999999999
 20
273.2092740665735
 30
0.0
 11
149.0
 21
230.9148864787351
 31
0.0
  0
LINE
  5
147
330
1E
100
AcDbEntity
  8
STEMPEL
100
AcDbLine
 10
77.99999999999996
 20
153.2092740665736
 30
0.0
 11
77.99999999999994
 21
98.20927406657359
 31
0.0
  0
LINE
  5
148
330
1E
100
AcDbEntity
  8
STEMPEL
100
AcDbLine
 10
146.9999999999999
 20
153.2092740665736
 30
0.0
 11
146.9999999999999
 21
98.20927406657359
 31
0.0
  0
LINE
  5
149
330
1E
100
AcDbEntity
  8
HILF
100
AcDbLine
 10
145.3938882599306
 20
98.20927406657359
 30
0.0
 11
79.60611174006931
 21
98.20927406657359
 31
0.0
  0
LINE
  5
14A
330
1E
100
AcDbEntity
  8
STEMPEL
100
AcDbLine
 10
77.99999999999994
 20
98.20927406657359
 30
0.0
 11
78.43744331762957
 21
93.20927406657359
 31
0.0
  0
LINE
  5
14B
330
1E
100
AcDbEntity
  8
STEMPEL
100
AcDbLine
 10
146.9999999999999
 20
98.20927406657359
 30
0.0
 11
146.5625566823703
 21
93.20927406657359
 31
0.0
  0
DIMENSION
  5
155
330
1E
100
AcDbEntity
  8
BEM
100
AcDbDimension
  2
*D1
 10
61.5755795246796
 20
153.2092740665736
 30
0.0
 11
58.32557952467957
 21
123.2092740665736
 31
0.0
 70
    32
 71
     5
 42
60.00000000000001
  3
Standard
100
AcDbAlignedDimension
 13
78.43744331762957
 23
93.20927406657359
 33
0.0
 14
77.99999999999997
 24
153.2092740665736
 34
0.0
 50
90.0
100
AcDbRotatedDimension
1001
ACAD
1000
DSTYLE
1002
{
1070
    41
1040
3.5
1070
    42
1040
1.0
1070
    43
1040
7.0
1070
    44
1040
1.0
1070
    73
1070
     0
1070
    74
1070
     0
1070
    77
1070
     1
1070
    78
1070
     8
1070
    79
1070
     2
1070
   140
1040
3.5
1070
   141
1040
1.5
1070
   146
1040
0.5142857142857144
1070
   147
1040
1.5
1070
   172
1070
     1
1070
   178
1070
     1
1070
   179
1070
     2
1070
   271
1070
     2
1070
   272
1070
     2
1070
   284
1070
     8
1070
   285
1070
     8
1070
   286
1070
     8
1002
}
  0
DIMENSION
  5
163
330
1E
100
AcDbEntity
  8
BEM
100
AcDbDimension
  2
*D2
 10
61.57557952467963
 20
273.2092740665736
 30
0.0
 11
58.32557952467958
 21
213.2092740665736
 31
0.0
 70
    32
  1
3000
 71
     5
 42
119.9999999999999
  3
Standard
100
AcDbAlignedDimension
 13
77.99999999999997
 23
153.2092740665736
 33
0.0
 14
75.99999999999997
 24
273.2092740665736
 34
0.0
 50
90.0
100
AcDbRotatedDimension
1001
ACAD
1000
DSTYLE
1002
{
1070
   279
1070
     1
1070
    41
1040
3.5
1070
    42
1040
1.0
1070
    43
1040
7.0
1070
    44
1040
1.0
1070
    73
1070
     0
1070
    74
1070
     0
1070
    77
1070
     1
1070
    78
1070
     8
1070
    79
1070
     2
1070
   140
1040
3.5
1070
   141
1040
1.5
1070
   146
1040
0.5142857142857144
1070
   147
1040
1.5
1070
   172
1070
     1
1070
   178
1070
     1
1070
   179
1070
     2
1070
   271
1070
     2
1070
   272
1070
     2
1070
   284
1070
     8
1070
   285
1070
     8
1070
   286
1070
     8
1002
}
  0
POLYLINE
  5
22D
330
1E
100
AcDbEntity
  8
HILF
100
AcDb2dPolyline
 66
     1
 10
0.0
 20
0.0
 30
0.0
 70
     4
 75
     6
  0
VERTEX
  5
22E
330
22D
100
AcDbEntity
  8
HILF
100
AcDbVertex
100
AcDb2dVertex
 10
75.99999999999997
 20
225.9148864787352
 30
0.0
 70
    16
  0
VERTEX
  5
234
330
22D
100
AcDbEntity
  8
HILF
100
AcDbVertex
100
AcDb2dVertex
 10
75.99999999999997
 20
225.9148864787352
 30
0.0
 70
     8
  0
VERTEX
  5
235
330
22D
100
AcDbEntity
  8
HILF
100
AcDbVertex
100
AcDb2dVertex
 10
82.43383789062496
 20
227.4529724162352
 30
0.0
 70
     8
  0
VERTEX
  5
236
330
22D
100
AcDbEntity
  8
HILF
100
AcDbVertex
100
AcDb2dVertex
 10
88.11914062499997
 20
228.3758239787352
 30
0.0
 70
     8
  0
VERTEX
  5
237
330
22D
100
AcDbEntity
  8
HILF
100
AcDbVertex
100
AcDb2dVertex
 10
93.16284179687496
 20
228.7713317912352
 30
0.0
 70
     8
  0
VERTEX
  5
238
330
22D
100
AcDbEntity
  8
HILF
100
AcDbVertex
100
AcDb2dVertex
 10
97.67187499999996
 20
228.7273864787352
 30
0.0
 70
     8
  0
VERTEX
  5
239
330
22D
100
AcDbEntity
  8
HILF
100
AcDbVertex
100
AcDb2dVertex
 10
101.7531738281249
 20
228.3318786662352
 30
0.0
 70
     8
  0
VERTEX
  5
23A
330
22D
100
AcDbEntity
  8
HILF
100
AcDbVertex
100
AcDb2dVertex
 10
105.5136718749999
 20
227.6726989787352
 30
0.0
 70
     8
  0
VERTEX
  5
23B
330
22D
100
AcDbEntity
  8
HILF
100
AcDbVertex
100
AcDb2dVertex
 10
109.0603027343749
 20
226.8377380412352
 30
0.0
 70
     8
  0
VERTEX
  5
23C
330
22D
100
AcDbEntity
  8
HILF
100
AcDbVertex
100
AcDb2dVertex
 10
112.5
 20
225.9148864787352
 30
0.0
 70
     8
  0
VERTEX
  5
23D
330
22D
100
AcDbEntity
  8
HILF
100
AcDbVertex
100
AcDb2dVertex
 10
115.9396972656249
 20
224.9920349162352
 30
0.0
 70
     8
  0
VERTEX
  5
23E
330
22D
100
AcDbEntity
  8
HILF
100
AcDbVertex
100
AcDb2dVertex
 10
119.4863281249999
 20
224.1570739787352
 30
0.0
 70
     8
  0
VERTEX
  5
23F
330
22D
100
AcDbEntity
  8
HILF
100
AcDbVertex
100
AcDb2dVertex
 10
123.2468261718749
 20
223.4978942912352
 30
0.0
 70
     8
  0
VERTEX
  5
240
330
22D
100
AcDbEntity
  8
HILF
100
AcDbVertex
100
AcDb2dVertex
 10
127.3281249999999
 20
223.1023864787352
 30
0.0
 70
     8
  0
VERTEX
  5
241
330
22D
100
AcDbEntity
  8
HILF
100
AcDbVertex
100
AcDb2dVertex
 10
131.837158203125
 20
223.0584411662352
 30
0.0
 70
     8
  0
VERTEX
  5
242
330
22D
100
AcDbEntity
  8
HILF
100
AcDbVertex
100
AcDb2dVertex
 10
136.8808593749999
 20
223.4539489787352
 30
0.0
 70
     8
  0
VERTEX
  5
243
330
22D
100
AcDbEntity
  8
HILF
100
AcDbVertex
100
AcDb2dVertex
 10
142.566162109375
 20
224.3768005412352
 30
0.0
 70
     8
  0
VERTEX
  5
244
330
22D
100
AcDbEntity
  8
HILF
100
AcDbVertex
100
AcDb2dVertex
 10
149.0
 20
225.9148864787352
 30
0.0
 70
     8
  0
VERTEX
  5
22F
330
22D
100
AcDbEntity
  8
HILF
100
AcDbVertex
100
AcDb2dVertex
 10
94.24999999999997
 20
230.9148864787352
 30
0.0
 70
    16
  0
VERTEX
  5
230
330
22D
100
AcDbEntity
  8
HILF
100
AcDbVertex
100
AcDb2dVertex
 10
112.5
 20
225.9148864787352
 30
0.0
 70
    16
  0
VERTEX
  5
231
330
22D
100
AcDbEntity
  8
HILF
100
AcDbVertex
100
AcDb2dVertex
 10
130.7499999999999
 20
220.9148864787352
 30
0.0
 70
    16
  0
VERTEX
  5
232
330
22D
100
AcDbEntity
  8
HILF
100
AcDbVertex
100
AcDb2dVertex
 10
149.0
 20
225.9148864787352
 30
0.0
 70
    16
  0
SEQEND
  5
233
330
22D
100
AcDbEntity
  8
HILF
  0
POLYLINE
  5
245
330
1E
100
AcDbEntity
  8
HILF
100
AcDb2dPolyline
 66
     1
 10
0.0
 20
0.0
 30
0.0
 70
     4
 75
     6
  0
VERTEX
  5
246
330
245
100
AcDbEntity
  8
HILF
100
AcDbVertex
100
AcDb2dVertex
 10
75.99999999999997
 20
230.9148864787352
 30
0.0
 70
    16
  0
VERTEX
  5
247
330
245
100
AcDbEntity
  8
HILF
100
AcDbVertex
100
AcDb2dVertex
 10
75.99999999999997
 20
230.9148864787352
 30
0.0
 70
     8
  0
VERTEX
  5
248
330
245
100
AcDbEntity
  8
HILF
100
AcDbVertex
100
AcDb2dVertex
 10
82.43383789062496
 20
232.4529724162352
 30
0.0
 70
     8
  0
VERTEX
  5
249
330
245
100
AcDbEntity
  8
HILF
100
AcDbVertex
100
AcDb2dVertex
 10
88.11914062499997
 20
233.3758239787352
 30
0.0
 70
     8
  0
VERTEX
  5
24A
330
245
100
AcDbEntity
  8
HILF
100
AcDbVertex
100
AcDb2dVertex
 10
93.16284179687496
 20
233.7713317912352
 30
0.0
 70
     8
  0
VERTEX
  5
24B
330
245
100
AcDbEntity
  8
HILF
100
AcDbVertex
100
AcDb2dVertex
 10
97.67187499999996
 20
233.7273864787352
 30
0.0
 70
     8
  0
VERTEX
  5
24C
330
245
100
AcDbEntity
  8
HILF
100
AcDbVertex
100
AcDb2dVertex
 10
101.7531738281249
 20
233.3318786662352
 30
0.0
 70
     8
  0
VERTEX
  5
24D
330
245
100
AcDbEntity
  8
HILF
100
AcDbVertex
100
AcDb2dVertex
 10
105.5136718749999
 20
232.6726989787352
 30
0.0
 70
     8
  0
VERTEX
  5
24E
330
245
100
AcDbEntity
  8
HILF
100
AcDbVertex
100
AcDb2dVertex
 10
109.0603027343749
 20
231.8377380412352
 30
0.0
 70
     8
  0
VERTEX
  5
24F
330
245
100
AcDbEntity
  8
HILF
100
AcDbVertex
100
AcDb2dVertex
 10
112.5
 20
230.9148864787352
 30
0.0
 70
     8
  0
VERTEX
  5
250
330
245
100
AcDbEntity
  8
HILF
100
AcDbVertex
100
AcDb2dVertex
 10
115.9396972656249
 20
229.9920349162352
 30
0.0
 70
     8
  0
VERTEX
  5
251
330
245
100
AcDbEntity
  8
HILF
100
AcDbVertex
100
AcDb2dVertex
 10
119.4863281249999
 20
229.1570739787352
 30
0.0
 70
     8
  0
VERTEX
  5
252
330
245
100
AcDbEntity
  8
HILF
100
AcDbVertex
100
AcDb2dVertex
 10
123.2468261718749
 20
228.4978942912352
 30
0.0
 70
     8
  0
VERTEX
  5
253
330
245
100
AcDbEntity
  8
HILF
100
AcDbVertex
100
AcDb2dVertex
 10
127.3281249999999
 20
228.1023864787352
 30
0.0
 70
     8
  0
VERTEX
  5
254
330
245
100
AcDbEntity
  8
HILF
100
AcDbVertex
100
AcDb2dVertex
 10
131.837158203125
 20
228.0584411662352
 30
0.0
 70
     8
  0
VERTEX
  5
255
330
245
100
AcDbEntity
  8
HILF
100
AcDbVertex
100
AcDb2dVertex
 10
136.8808593749999
 20
228.4539489787352
 30
0.0
 70
     8
  0
VERTEX
  5
256
330
245
100
AcDbEntity
  8
HILF
100
AcDbVertex
100
AcDb2dVertex
 10
142.566162109375
 20
229.3768005412352
 30
0.0
 70
     8
  0
VERTEX
  5
257
330
245
100
AcDbEntity
  8
HILF
100
AcDbVertex
100
AcDb2dVertex
 10
149.0
 20
230.9148864787352
 30
0.0
 70
     8
  0
VERTEX
  5
258
330
245
100
AcDbEntity
  8
HILF
100
AcDbVertex
100
AcDb2dVertex
 10
94.24999999999997
 20
235.9148864787352
 30
0.0
 70
    16
  0
VERTEX
  5
259
330
245
100
AcDbEntity
  8
HILF
100
AcDbVertex
100
AcDb2dVertex
 10
112.5
 20
230.9148864787352
 30
0.0
 70
    16
  0
VERTEX
  5
25A
330
245
100
AcDbEntity
  8
HILF
100
AcDbVertex
100
AcDb2dVertex
 10
130.7499999999999
 20
225.9148864787352
 30
0.0
 70
    16
  0
VERTEX
  5
25B
330
245
100
AcDbEntity
  8
HILF
100
AcDbVertex
100
AcDb2dVertex
 10
149.0
 20
230.9148864787352
 30
0.0
 70
    16
  0
SEQEND
  5
25C
330
245
100
AcDbEntity
  8
HILF
  0
LINE
  5
25D
330
1E
100
AcDbEntity
  8
STEMPEL
100
AcDbLine
 10
75.99999999999996
 20
225.9148864787352
 30
0.0
 11
75.99999999999997
 21
161.357893581559
 31
0.0
  0
LINE
  5
25E
330
1E
100
AcDbEntity
  8
STEMPEL
100
AcDbLine
 10
149.0
 20
225.9148864787352
 30
0.0
 11
149.0
 21
161.357893581559
 31
0.0
  0
DIMENSION
  5
267
330
1E
100
AcDbEntity
  8
BEM
100
AcDbDimension
  2
*D4
 10
148.9999999999999
 20
280.5799320279009
 30
0.0
 11
112.4999999999999
 21
283.8299320279009
 31
0.0
 70
    32
  1
%%c<>
 71
     5
 42
72.99999999999997
  3
Standard
100
AcDbAlignedDimension
 13
75.99999999999997
 23
273.2092740665736
 33
0.0
 14
148.9999999999999
 24
273.2092740665735
 34
0.0
100
AcDbRotatedDimension
1001
ACAD
1000
DSTYLE
1002
{
1070
    41
1040
3.5
1070
    42
1040
1.0
1070
    43
1040
7.0
1070
    44
1040
1.0
1070
    73
1070
     0
1070
    74
1070
     0
1070
    77
1070
     1
1070
    78
1070
     8
1070
    79
1070
     2
1070
   140
1040
3.5
1070
   141
1040
1.5
1070
   146
1040
0.5142857142857144
1070
   147
1040
1.5
1070
   172
1070
     1
1070
   178
1070
     1
1070
   179
1070
     2
1070
   271
1070
     2
1070
   272
1070
     2
1070
   284
1070
     8
1070
   285
1070
     8
1070
   286
1070
     8
1002
}
  0
DIMENSION
  5
27D
330
1E
100
AcDbEntity
  8
BEM
100
AcDbDimension
  2
*D5
 10
146.9999999999999
 20
80.90780774127711
 30
0.0
 11
112.4999999999999
 21
84.15780774127711
 31
0.0
 70
    32
  1
%%c<>
 71
     5
 42
69.0
  3
Standard
100
AcDbAlignedDimension
 13
77.99999999999994
 23
98.20927406657359
 33
0.0
 14
146.9999999999999
 24
98.20927406657359
 34
0.0
100
AcDbRotatedDimension
1001
ACAD
1000
DSTYLE
1002
{
1070
    41
1040
3.5
1070
    42
1040
1.0
1070
    43
1040
7.0
1070
    44
1040
1.0
1070
    73
1070
     0
1070
    74
1070
     0
1070
    77
1070
     1
1070
    78
1070
     8
1070
    79
1070
     2
1070
   140
1040
3.5
1070
   141
1040
1.5
1070
   146
1040
0.5142857142857144
1070
   147
1040
1.5
1070
   172
1070
     1
1070
   178
1070
     1
1070
   179
1070
     2
1070
   271
1070
     2
1070
   272
1070
     2
1070
   284
1070
     8
1070
   285
1070
     8
1070
   286
1070
     8
1002
}
  0
TEXT
  5
2D9
330
1E
100
AcDbEntity
  8
TEXT
 62
     1
100
AcDbText
 10
117.3028829473234
 20
60.40642123671296
 30
0.0
 40
3.5
  1
und innen beschichtet
 41
0.8
  7
GREEKS
100
AcDbText
  0
TEXT
  5
2DA
330
1E
100
AcDbEntity
  8
TEXT
 62
     1
100
AcDbText
 10
93.32802422862448
 20
65.76747714421469
 30
0.0
 40
3.5
  1
Werkstoff: E195 EN10305 feuerverzinkt
 41
0.8
  7
GREEKS
100
AcDbText
  0
TEXT
  5
340
330
1E
100
AcDbEntity
  8
TEXT
 62
     1
100
AcDbText
 10
106.7678568956774
 20
207.40900462338
 30
0.0
 40
3.5
  1
DN70
 50
90.0
 41
0.8
  7
GREEKS
100
AcDbText
  0
LINE
  5
360
330
1E
100
AcDbEntity
  8
HILF
100
AcDbLine
 10
145.5912999642013
 20
155.1161992450648
 30
0.0
 11
79.40870003579853
 21
155.1161992450648
 31
0.0
  0
LINE
  5
361
330
1E
100
AcDbEntity
  8
HILF
100
AcDbLine
 10
77.93425565495183
 20
159.0695833673695
 30
0.0
 11
147.065744345048
 21
159.0695833673696
 31
0.0
  0
ARC
  5
362
330
1E
100
AcDbEntity
  8
STEMPEL
100
AcDbCircle
 10
69.99999999999996
 20
153.2092740665736
 30
0.0
 40
8.0
100
AcDbArc
 50
0.0
 51
27.58019920358895
  0
ARC
  5
363
330
1E
100
AcDbEntity
  8
STEMPEL
100
AcDbCircle
 10
85.59999999999986
 20
161.357893581559
 30
0.0
 40
9.599999999999999
100
AcDbArc
 50
180.0
 51
207.5801992035889
  0
ARC
  5
364
330
1E
100
AcDbEntity
  8
STEMPEL
100
AcDbCircle
 10
154.9999999999999
 20
153.2092740665736
 30
0.0
 40
8.0
100
AcDbArc
 50
152.419800796411
 51
180.0
  0
ARC
  5
365
330
1E
100
AcDbEntity
  8
STEMPEL
100
AcDbCircle
 10
139.4
 20
161.357893581559
 30
0.0
 40
9.599999999999999
100
AcDbArc
 50
332.419800796411
 51
0.0
  0
ENDSEC
  0
SECTION
  2
OBJECTS
  0
DICTIONARY
  5
C
330
0
100
AcDbDictionary
281
     1
  3
ACAD_COLOR
350
DF
  3
ACAD_GROUP
350
D
  3
ACAD_LAYOUT
350
19
  3
ACAD_MATERIAL
350
DE
  3
ACAD_MLINESTYLE
350
16
  3
ACAD_PLOTSETTINGS
350
18
  3
ACAD_PLOTSTYLENAME
350
E
  3
AcDbVariableDictionary
350
EA
  0
DICTIONARY
  5
A0
330
1E
100
AcDbDictionary
280
     1
281
     1
  3
ACAD_LAYOUTSELFREF
360
D4
  0
DICTIONARY
  5
A2
330
1A
100
AcDbDictionary
280
     1
281
     1
  3
ACAD_LAYOUTSELFREF
360
D3
  0
DICTIONARY
  5
DF
102
{ACAD_REACTORS
330
C
102
}
330
C
100
AcDbDictionary
281
     1
  0
DICTIONARY
  5
D
102
{ACAD_REACTORS
330
C
102
}
330
C
100
AcDbDictionary
281
     1
  0
DICTIONARY
  5
19
102
{ACAD_REACTORS
330
C
102
}
330
C
100
AcDbDictionary
281
     1
  3
Layout1
350
1D
  3
Model
350
21
  0
DICTIONARY
  5
DE
102
{ACAD_REACTORS
330
C
102
}
330
C
100
AcDbDictionary
281
     1
  0
DICTIONARY
  5
16
102
{ACAD_REACTORS
330
C
102
}
330
C
100
AcDbDictionary
281
     1
  3
Standard
350
17
  0
DICTIONARY
  5
18
102
{ACAD_REACTORS
330
C
102
}
330
C
100
AcDbDictionary
281
     1
  0
ACDBDICTIONARYWDFLT
  5
E
102
{ACAD_REACTORS
330
C
102
}
330
C
100
AcDbDictionary
281
     1
  3
Normal
350
F
100
AcDbDictionaryWithDefault
340
F
  0
DICTIONARY
  5
EA
102
{ACAD_REACTORS
330
C
102
}
330
C
100
AcDbDictionary
281
     1
  3
DIMASSOC
350
EB
  3
PROJECTNAME
350
EC
  0
XRECORD
  5
D4
102
{ACAD_REACTORS
330
A0
102
}
330
A0
100
AcDbXrecord
280
     1
340
1E
  0
XRECORD
  5
D3
102
{ACAD_REACTORS
330
A2
102
}
330
A2
100
AcDbXrecord
280
     1
340
1A
  0
LAYOUT
  5
1D
102
{ACAD_REACTORS
330
19
102
}
330
19
100
AcDbPlotSettings
  1

  2
\\NT_WORK01\HP LaserJet 5000 PCL 6
  4

  6

 40
0.0
 41
0.0
 42
0.0
 43
0.0
 44
0.0
 45
0.0
 46
0.0
 47
0.0
 48
0.0
 49
0.0
140
0.0
141
0.0
142
1.0
143
1.0
 70
   688
 72
     0
 73
     0
 74
     5
  7

 75
    16
147
1.0
 76
     0
 77
     2
 78
   300
148
0.0
149
0.0
100
AcDbLayout
  1
Layout1
 70
     0
 71
     1
 10
0.0
 20
0.0
 11
12.0
 21
9.0
 12
0.0
 22
0.0
 32
0.0
 14
1.000000000000000E+20
 24
1.000000000000000E+20
 34
1.000000000000000E+20
 15
-1.000000000000000E+20
 25
-1.000000000000000E+20
 35
-1.000000000000000E+20
146
0.0
 13
0.0
 23
0.0
 33
0.0
 16
1.0
 26
0.0
 36
0.0
 17
0.0
 27
1.0
 37
0.0
 76
     0
330
1A
  0
LAYOUT
  5
21
102
{ACAD_REACTORS
330
19
102
}
330
19
100
AcDbPlotSettings
  1

  2
none_device
  4
Letter_(8.50_x_11.00_Inches)
  6

 40
6.349999904632568
 41
6.349999904632568
 42
6.350006103515625
 43
6.350006103515625
 44
215.8999938964844
 45
279.3999938964844
 46
0.0
 47
0.0
 48
0.0
 49
0.0
140
0.0
141
0.0
142
1.0
143
1.0
 70
 11952
 72
     0
 73
     1
 74
     0
  7

 75
     0
147
1.0
 76
     0
 77
     2
 78
   300
148
1104.9
149
0.0
100
AcDbLayout
  1
Model
 70
     1
 71
     0
 10
0.0
 20
0.0
 11
12.0
 21
9.0
 12
0.0
 22
0.0
 32
0.0
 14
0.0
 24
0.0
 34
0.0
 15
0.0
 25
0.0
 35
0.0
146
0.0
 13
0.0
 23
0.0
 33
0.0
 16
1.0
 26
0.0
 36
0.0
 17
0.0
 27
1.0
 37
0.0
 76
     0
330
1E
  0
MLINESTYLE
  5
17
102
{ACAD_REACTORS
330
16
102
}
330
16
100
AcDbMlineStyle
  2
STANDARD
 70
     0
  3

 62
   256
 51
90.0
 52
90.0
 71
     2
 49
0.5
 62
   256
  6
BYLAYER
 49
-0.5
 62
   256
  6
BYLAYER
  0
ACDBPLACEHOLDER
  5
F
102
{ACAD_REACTORS
330
E
102
}
330
E
  0
DICTIONARYVAR
  5
EB
102
{ACAD_REACTORS
330
EA
102
}
330
EA
100
DictionaryVariables
280
     0
  1
1
  0
DICTIONARYVAR
  5
EC
102
{ACAD_REACTORS
330
EA
102
}
330
EA
100
DictionaryVariables
280
     0
  1

  0
ENDSEC
  0
EOF
