  0
SECTION
  2
HEADER
  9
$ACADVER
  1
AC1018
  9
$ACADMAINTVER
 70
     2
  9
$DWGCODEPAGE
  3
ANSI_1252
  9
$INSBASE
 10
0.0
 20
0.0
 30
0.0
  9
$EXTMIN
 10
-0.0000000000001137
 20
-0.0000000000001137
 30
0.0
  9
$EXTMAX
 10
420.0
 20
594.0000000000002
 30
0.0
  9
$LIMMIN
 10
0.0
 20
0.0
  9
$LIMMAX
 10
419.9999999999999
 20
594.0
  9
$ORTHOMODE
 70
     1
  9
$REGENMODE
 70
     1
  9
$FILLMODE
 70
     1
  9
$QTEXTMODE
 70
     0
  9
$MIRRTEXT
 70
     1
  9
$LTSCALE
 40
20.0
  9
$ATTMODE
 70
     1
  9
$TEXTSIZE
 40
2.5
  9
$TRACEWID
 40
0.5
  9
$TEXTSTYLE
  7
GREEKS
  9
$CLAYER
  8
BEM
  9
$CELTYPE
  6
ByLayer
  9
$CECOLOR
 62
   256
  9
$CELTSCALE
 40
1.0
  9
$DISPSILH
 70
     0
  9
$DIMSCALE
 40
2.0
  9
$DIMASZ
 40
3.5
  9
$DIMEXO
 40
1.0
  9
$DIMDLI
 40
7.0
  9
$DIMRND
 40
0.0
  9
$DIMDLE
 40
0.0
  9
$DIMEXE
 40
1.0
  9
$DIMTP
 40
0.0
  9
$DIMTM
 40
0.0
  9
$DIMTXT
 40
3.5
  9
$DIMCEN
 40
1.5
  9
$DIMTSZ
 40
0.0
  9
$DIMTOL
 70
     0
  9
$DIMLIM
 70
     0
  9
$DIMTIH
 70
     0
  9
$DIMTOH
 70
     0
  9
$DIMSE1
 70
     0
  9
$DIMSE2
 70
     0
  9
$DIMTAD
 70
     1
  9
$DIMZIN
 70
     8
  9
$DIMBLK
  1

  9
$DIMASO
 70
     1
  9
$DIMSHO
 70
     0
  9
$DIMPOST
  1

  9
$DIMAPOST
  1

  9
$DIMALT
 70
     0
  9
$DIMALTD
 70
     2
  9
$DIMALTF
 40
25.4
  9
$DIMLFAC
 40
1.0
  9
$DIMTOFL
 70
     1
  9
$DIMTVP
 40
0.0
  9
$DIMTIX
 70
     0
  9
$DIMSOXD
 70
     0
  9
$DIMSAH
 70
     0
  9
$DIMBLK1
  1

  9
$DIMBLK2
  1

  9
$DIMSTYLE
  2
Standard
  9
$DIMCLRD
 70
     0
  9
$DIMCLRE
 70
     0
  9
$DIMCLRT
 70
     1
  9
$DIMTFAC
 40
0.5
  9
$DIMGAP
 40
1.5
  9
$DIMJUST
 70
     0
  9
$DIMSD1
 70
     0
  9
$DIMSD2
 70
     0
  9
$DIMTOLJ
 70
     1
  9
$DIMTZIN
 70
     8
  9
$DIMALTZ
 70
     8
  9
$DIMALTTZ
 70
     8
  9
$DIMUPT
 70
     0
  9
$DIMDEC
 70
     2
  9
$DIMTDEC
 70
     2
  9
$DIMALTU
 70
     2
  9
$DIMALTTD
 70
     2
  9
$DIMTXSTY
  7
STANDARD
  9
$DIMAUNIT
 70
     0
  9
$DIMADEC
 70
     2
  9
$DIMALTRND
 40
0.0
  9
$DIMAZIN
 70
     2
  9
$DIMDSEP
 70
    46
  9
$DIMATFIT
 70
     3
  9
$DIMFRAC
 70
     0
  9
$DIMLDRBLK
  1

  9
$DIMLUNIT
 70
     2
  9
$DIMLWD
 70
    -2
  9
$DIMLWE
 70
    -2
  9
$DIMTMOVE
 70
     0
  9
$LUNITS
 70
     2
  9
$LUPREC
 70
     2
  9
$SKETCHINC
 40
1.0
  9
$FILLETRAD
 40
0.0
  9
$AUNITS
 70
     0
  9
$AUPREC
 70
     0
  9
$MENU
  1
ACAD
  9
$ELEVATION
 40
0.0
  9
$PELEVATION
 40
0.0
  9
$THICKNESS
 40
0.0
  9
$LIMCHECK
 70
     0
  9
$CHAMFERA
 40
0.0
  9
$CHAMFERB
 40
0.0
  9
$CHAMFERC
 40
0.0
  9
$CHAMFERD
 40
0.0
  9
$SKPOLY
 70
     0
  9
$TDCREATE
 40
2455397.823042361
  9
$TDUCREATE
 40
2455397.781375695
  9
$TDUPDATE
 40
2456230.335832014
  9
$TDUUPDATE
 40
2456230.294165347
  9
$TDINDWG
 40
0.4625370023
  9
$TDUSRTIMER
 40
0.4625370023
  9
$USRTIMER
 70
     1
  9
$ANGBASE
 50
0.0
  9
$ANGDIR
 70
     0
  9
$PDMODE
 70
     0
  9
$PDSIZE
 40
0.0
  9
$PLINEWID
 40
0.0
  9
$SPLFRAME
 70
     0
  9
$SPLINETYPE
 70
     6
  9
$SPLINESEGS
 70
     8
  9
$HANDSEED
  5
2351
  9
$SURFTAB1
 70
     6
  9
$SURFTAB2
 70
     6
  9
$SURFTYPE
 70
     6
  9
$SURFU
 70
     6
  9
$SURFV
 70
     6
  9
$UCSBASE
  2

  9
$UCSNAME
  2

  9
$UCSORG
 10
0.0
 20
0.0
 30
0.0
  9
$UCSXDIR
 10
1.0
 20
0.0
 30
0.0
  9
$UCSYDIR
 10
0.0
 20
1.0
 30
0.0
  9
$UCSORTHOREF
  2

  9
$UCSORTHOVIEW
 70
     0
  9
$UCSORGTOP
 10
0.0
 20
0.0
 30
0.0
  9
$UCSORGBOTTOM
 10
0.0
 20
0.0
 30
0.0
  9
$UCSORGLEFT
 10
0.0
 20
0.0
 30
0.0
  9
$UCSORGRIGHT
 10
0.0
 20
0.0
 30
0.0
  9
$UCSORGFRONT
 10
0.0
 20
0.0
 30
0.0
  9
$UCSORGBACK
 10
0.0
 20
0.0
 30
0.0
  9
$PUCSBASE
  2

  9
$PUCSNAME
  2

  9
$PUCSORG
 10
0.0
 20
0.0
 30
0.0
  9
$PUCSXDIR
 10
1.0
 20
0.0
 30
0.0
  9
$PUCSYDIR
 10
0.0
 20
1.0
 30
0.0
  9
$PUCSORTHOREF
  2

  9
$PUCSORTHOVIEW
 70
     0
  9
$PUCSORGTOP
 10
0.0
 20
0.0
 30
0.0
  9
$PUCSORGBOTTOM
 10
0.0
 20
0.0
 30
0.0
  9
$PUCSORGLEFT
 10
0.0
 20
0.0
 30
0.0
  9
$PUCSORGRIGHT
 10
0.0
 20
0.0
 30
0.0
  9
$PUCSORGFRONT
 10
0.0
 20
0.0
 30
0.0
  9
$PUCSORGBACK
 10
0.0
 20
0.0
 30
0.0
  9
$USERI1
 70
     0
  9
$USERI2
 70
     0
  9
$USERI3
 70
     0
  9
$USERI4
 70
     0
  9
$USERI5
 70
     0
  9
$USERR1
 40
0.0
  9
$USERR2
 40
0.0
  9
$USERR3
 40
0.0
  9
$USERR4
 40
0.0
  9
$USERR5
 40
0.0
  9
$WORLDVIEW
 70
     1
  9
$SHADEDGE
 70
     3
  9
$SHADEDIF
 70
    70
  9
$TILEMODE
 70
     1
  9
$MAXACTVP
 70
    16
  9
$PINSBASE
 10
0.0
 20
0.0
 30
0.0
  9
$PLIMCHECK
 70
     0
  9
$PEXTMIN
 10
1.000000000000000E+20
 20
1.000000000000000E+20
 30
1.000000000000000E+20
  9
$PEXTMAX
 10
-1.000000000000000E+20
 20
-1.000000000000000E+20
 30
-1.000000000000000E+20
  9
$PLIMMIN
 10
0.0
 20
0.0
  9
$PLIMMAX
 10
12.0
 20
9.0
  9
$UNITMODE
 70
     0
  9
$VISRETAIN
 70
     0
  9
$PLINEGEN
 70
     0
  9
$PSLTSCALE
 70
     0
  9
$TREEDEPTH
 70
  3020
  9
$CMLSTYLE
  2
Standard
  9
$CMLJUST
 70
     0
  9
$CMLSCALE
 40
1.0
  9
$PROXYGRAPHICS
 70
     1
  9
$MEASUREMENT
 70
     0
  9
$CELWEIGHT
370
    -1
  9
$ENDCAPS
280
     0
  9
$JOINSTYLE
280
     0
  9
$LWDISPLAY
290
     0
  9
$INSUNITS
 70
     0
  9
$HYPERLINKBASE
  1

  9
$STYLESHEET
  1
monochrome 1.ctb
  9
$XEDIT
290
     1
  9
$CEPSNTYPE
380
     0
  9
$PSTYLEMODE
290
     1
  9
$FINGERPRINTGUID
  2
{D68B0D02-A558-11D7-B632-000102183313}
  9
$VERSIONGUID
  2
{D14B4F58-FDBF-45C3-8C83-F3862A83D96B}
  9
$EXTNAMES
290
     1
  9
$PSVPSCALE
 40
0.0
  9
$OLESTARTUP
290
     0
  9
$SORTENTS
280
   127
  9
$INDEXCTL
280
     0
  9
$HIDETEXT
280
     0
  9
$XCLIPFRAME
290
     0
  9
$HALOGAP
280
     0
  9
$OBSCOLOR
 70
   257
  9
$OBSLTYPE
280
     0
  9
$INTERSECTIONDISPLAY
280
     0
  9
$INTERSECTIONCOLOR
 70
   257
  9
$DIMASSOC
280
     1
  9
$PROJECTNAME
  1

  0
ENDSEC
  0
SECTION
  2
CLASSES
  0
CLASS
  1
ACDBDICTIONARYWDFLT
  2
AcDbDictionaryWithDefault
  3
ObjectDBX Classes
 90
        0
 91
        1
280
     0
281
     0
  0
CLASS
  1
DICTIONARYVAR
  2
AcDbDictionaryVar
  3
ObjectDBX Classes
 90
        0
 91
        2
280
     0
281
     0
  0
ENDSEC
  0
SECTION
  2
TABLES
  0
TABLE
  2
VPORT
  5
8
330
0
100
AcDbSymbolTable
 70
     3
  0
VPORT
  5
2350
330
8
100
AcDbSymbolTableRecord
100
AcDbViewportTableRecord
  2
*Active
 70
     0
 10
0.0
 20
0.0
 11
1.0
 21
1.0
 12
209.9999999999999
 22
297.0
 13
0.0
 23
0.0
 14
1.0
 24
1.0
 15
10.0
 25
10.0
 16
0.0
 26
0.0
 36
1.0
 17
0.0
 27
0.0
 37
0.0
 40
594.0
 41
1.404858299595141
 42
50.0
 43
0.0
 44
0.0
 50
0.0
 51
0.0
 71
     0
 72
  1500
 73
     1
 74
     0
 75
     0
 76
     0
 77
     0
 78
     0
281
     0
 65
     1
110
0.0
120
0.0
130
0.0
111
1.0
121
0.0
131
0.0
112
0.0
122
1.0
132
0.0
 79
     0
146
0.0
  0
ENDTAB
  0
TABLE
  2
LTYPE
  5
5
330
0
100
AcDbSymbolTable
 70
     3
  0
LTYPE
  5
13
330
5
100
AcDbSymbolTableRecord
100
AcDbLinetypeTableRecord
  2
ByBlock
 70
     0
  3

 72
    65
 73
     0
 40
0.0
  0
LTYPE
  5
14
330
5
100
AcDbSymbolTableRecord
100
AcDbLinetypeTableRecord
  2
ByLayer
 70
     0
  3

 72
    65
 73
     0
 40
0.0
  0
LTYPE
  5
15
330
5
100
AcDbSymbolTableRecord
100
AcDbLinetypeTableRecord
  2
Continuous
 70
     0
  3
Solid line
 72
    65
 73
     0
 40
0.0
  0
LTYPE
  5
25
330
5
100
AcDbSymbolTableRecord
100
AcDbLinetypeTableRecord
  2
STRICHPUNKT
 70
     0
  3
__ . __ . __ . __ . __ . __ . __ . __ . __ . __
 72
    65
 73
     4
 40
1.0
 49
0.5
 74
     0
 49
-0.25
 74
     0
 49
0.0
 74
     0
 49
-0.25
 74
     0
  0
LTYPE
  5
1E9D
330
5
100
AcDbSymbolTableRecord
100
AcDbLinetypeTableRecord
  2
VERDECKT2
 70
     0
  3
Verdeckt (.5x) _ _ _ _ _ _ _ _ _ _ _ _ _ _ _ _ 
 72
    65
 73
     2
 40
0.1875
 49
0.125
 74
     0
 49
-0.0625
 74
     0
  0
ENDTAB
  0
TABLE
  2
LAYER
  5
2
330
0
100
AcDbSymbolTable
 70
    10
  0
LAYER
  5
10
330
2
100
AcDbSymbolTableRecord
100
AcDbLayerTableRecord
  2
0
 70
     0
 62
     7
  6
Continuous
370
    -3
390
F
  0
LAYER
  5
2A
330
2
100
AcDbSymbolTableRecord
100
AcDbLayerTableRecord
  2
VOLL
 70
     0
 62
     1
  6
Continuous
370
    -3
390
F
  0
LAYER
  5
2B
330
2
100
AcDbSymbolTableRecord
100
AcDbLayerTableRecord
  2
HILF
 70
     0
 62
     2
  6
Continuous
370
    -3
390
F
  0
LAYER
  5
2C
330
2
100
AcDbSymbolTableRecord
100
AcDbLayerTableRecord
  2
MITTEL
 70
     0
 62
     2
  6
STRICHPUNKT
370
    -3
390
F
  0
LAYER
  5
2F
330
2
100
AcDbSymbolTableRecord
100
AcDbLayerTableRecord
  2
BEM
 70
     0
 62
     7
  6
Continuous
370
    -3
390
F
  0
LAYER
  5
30
330
2
100
AcDbSymbolTableRecord
100
AcDbLayerTableRecord
  2
STEMPEL
 70
     0
 62
     3
  6
Continuous
370
    -3
390
F
  0
LAYER
  5
31
330
2
100
AcDbSymbolTableRecord
100
AcDbLayerTableRecord
  2
TEXT
 70
     0
 62
     7
  6
Continuous
370
    -3
390
F
  0
LAYER
  5
1A8
330
2
100
AcDbSymbolTableRecord
100
AcDbLayerTableRecord
  2
Defpoints
 70
     0
 62
     7
  6
Continuous
290
     0
370
    -3
390
F
  0
LAYER
  5
1E9E
330
2
100
AcDbSymbolTableRecord
100
AcDbLayerTableRecord
  2
SCHRAFF
 70
     0
 62
     7
  6
Continuous
370
    -3
390
F
  0
LAYER
  5
1E9F
330
2
100
AcDbSymbolTableRecord
100
AcDbLayerTableRecord
  2
VERDECKT
 70
     0
 62
     6
  6
VERDECKT2
370
    -3
390
F
  0
ENDTAB
  0
TABLE
  2
STYLE
  5
3
330
0
100
AcDbSymbolTable
 70
     2
  0
STYLE
  5
11
330
3
100
AcDbSymbolTableRecord
100
AcDbTextStyleTableRecord
  2
STANDARD
 70
     0
 40
0.0
 41
0.8
 50
0.0
 71
     0
 42
3.5
  3
simplex.shx
  4

  0
STYLE
  5
24
330
3
100
AcDbSymbolTableRecord
100
AcDbTextStyleTableRecord
  2
GREEKS
 70
     0
 40
0.0
 41
0.8
 50
0.0
 71
     0
 42
2.5
  3
SIMPLEX.shx
  4

  0
ENDTAB
  0
TABLE
  2
VIEW
  5
6
330
0
100
AcDbSymbolTable
 70
     0
  0
ENDTAB
  0
TABLE
  2
UCS
  5
7
330
0
100
AcDbSymbolTable
 70
     0
  0
ENDTAB
  0
TABLE
  2
APPID
  5
9
330
0
100
AcDbSymbolTable
 70
     1
  0
APPID
  5
12
330
9
100
AcDbSymbolTableRecord
100
AcDbRegAppTableRecord
  2
ACAD
 70
     0
  0
ENDTAB
  0
TABLE
  2
DIMSTYLE
  5
A
330
0
100
AcDbSymbolTable
 70
     1
100
AcDbDimStyleTable
 71
     1
340
9D
  0
DIMSTYLE
105
9D
102
{ACAD_REACTORS
330
1F73
330
1F75
330
1F8C
330
1F8D
330
1F8E
330
2292
330
1F8F
330
22FD
102
}
330
A
100
AcDbSymbolTableRecord
100
AcDbDimStyleTableRecord
  2
Standard
 70
     0
340
11
  0
ENDTAB
  0
TABLE
  2
BLOCK_RECORD
  5
1
330
0
100
AcDbSymbolTable
 70
     9
  0
BLOCK_RECORD
  5
1E
102
{ACAD_XDICTIONARY
360
A0
102
}
330
1
100
AcDbSymbolTableRecord
100
AcDbBlockTableRecord
  2
*Model_Space
340
21
  0
BLOCK_RECORD
  5
1A
102
{ACAD_XDICTIONARY
360
A2
102
}
330
1
100
AcDbSymbolTableRecord
100
AcDbBlockTableRecord
  2
*Paper_Space
340
1D
  0
BLOCK_RECORD
  5
22
330
1
100
AcDbSymbolTableRecord
100
AcDbBlockTableRecord
  2
LOGO
340
0
102
{BLKREFS
331
9B
102
}
  0
BLOCK_RECORD
  5
2041
330
1
100
AcDbSymbolTableRecord
100
AcDbBlockTableRecord
  2
*D1
340
0
  0
BLOCK_RECORD
  5
2059
330
1
100
AcDbSymbolTableRecord
100
AcDbBlockTableRecord
  2
*D2
340
0
  0
BLOCK_RECORD
  5
2065
330
1
100
AcDbSymbolTableRecord
100
AcDbBlockTableRecord
  2
*D3
340
0
  0
BLOCK_RECORD
  5
2071
330
1
100
AcDbSymbolTableRecord
100
AcDbBlockTableRecord
  2
*D4
340
0
  0
BLOCK_RECORD
  5
207D
330
1
100
AcDbSymbolTableRecord
100
AcDbBlockTableRecord
  2
*D5
340
0
  0
BLOCK_RECORD
  5
208B
330
1
100
AcDbSymbolTableRecord
100
AcDbBlockTableRecord
  2
*D6
340
0
  0
BLOCK_RECORD
  5
2293
330
1
100
AcDbSymbolTableRecord
100
AcDbBlockTableRecord
  2
*D7
340
0
  0
BLOCK_RECORD
  5
22FE
330
1
100
AcDbSymbolTableRecord
100
AcDbBlockTableRecord
  2
*D8
340
0
  0
ENDTAB
  0
ENDSEC
  0
SECTION
  2
BLOCKS
  0
BLOCK
  5
35
330
1E
100
AcDbEntity
  8
0
100
AcDbBlockBegin
  2
*Model_Space
 70
     0
 10
0.0
 20
0.0
 30
0.0
  3
*Model_Space
  1

  0
ENDBLK
  5
36
330
1E
100
AcDbEntity
  8
0
100
AcDbBlockEnd
  0
BLOCK
  5
33
330
1A
100
AcDbEntity
 67
     1
  8
0
100
AcDbBlockBegin
  2
*Paper_Space
 70
     0
 10
0.0
 20
0.0
 30
0.0
  3
*Paper_Space
  1

  0
ENDBLK
  5
34
330
1A
100
AcDbEntity
 67
     1
  8
0
100
AcDbBlockEnd
  0
BLOCK
  5
37
330
22
100
AcDbEntity
  8
0
100
AcDbBlockBegin
  2
LOGO
 70
     0
 10
0.0
 20
0.0
 30
0.0
  3
LOGO
  1

  0
ARC
  5
38
330
22
100
AcDbEntity
  8
0
100
AcDbCircle
 10
11.59973089678112
 20
-9.271599258481501
 30
0.0
 40
4.5
100
AcDbArc
 50
270.0
 51
231.0575587310159
  0
LINE
  5
39
330
22
100
AcDbEntity
  8
0
100
AcDbLine
 10
3.599730896781125
 20
-4.771599258481529
 30
0.0
 11
3.599730896781153
 21
-11.77159925848133
 31
0.0
  0
LINE
  5
3A
330
22
100
AcDbEntity
  8
0
100
AcDbLine
 10
2.599730896781125
 20
-4.771599258481529
 30
0.0
 11
2.599730896781153
 21
-11.77159925848133
 31
0.0
  0
CIRCLE
  5
3B
330
22
100
AcDbEntity
  8
0
100
AcDbCircle
 10
11.59973089678112
 20
-9.271599258481501
 30
0.0
 40
3.5
  0
ARC
  5
3C
330
22
100
AcDbEntity
  8
0
100
AcDbCircle
 10
31.59973089678115
 20
-9.271599258481472
 30
0.0
 40
4.5
100
AcDbArc
 50
270.0
 51
231.0575587310182
  0
LINE
  5
3D
330
22
100
AcDbEntity
  8
0
100
AcDbLine
 10
17.59973089678112
 20
-4.771599258481472
 30
0.0
 11
17.59973089678115
 21
-13.77159925848147
 31
0.0
  0
ARC
  5
3E
330
22
100
AcDbEntity
  8
0
100
AcDbCircle
 10
22.59973089678116
 20
-7.271599258481472
 30
0.0
 40
2.5
100
AcDbArc
 50
293.1161887722295
 51
90.0
  0
CIRCLE
  5
3F
330
22
100
AcDbEntity
  8
0
100
AcDbCircle
 10
31.59973089678115
 20
-9.271599258481472
 30
0.0
 40
3.5
  0
ARC
  5
40
330
22
100
AcDbEntity
  8
0
100
AcDbCircle
 10
4.599730896781153
 20
-11.77159925848133
 30
0.0
 40
1.0
100
AcDbArc
 50
180.0
 51
270.0
  0
ARC
  5
41
330
22
100
AcDbEntity
  8
0
100
AcDbCircle
 10
4.599730896781153
 20
-11.77159925848133
 30
0.0
 40
2.0
100
AcDbArc
 50
179.9999999999992
 51
270.0
  0
LINE
  5
42
330
22
100
AcDbEntity
  8
0
100
AcDbLine
 10
11.59973089678115
 20
-13.77159925848144
 30
0.0
 11
4.599730896781153
 21
-13.77159925848147
 31
0.0
  0
LINE
  5
43
330
22
100
AcDbEntity
  8
0
100
AcDbLine
 10
8.771303772034769
 20
-12.77159925848136
 30
0.0
 11
4.599730896781153
 21
-12.77159925848133
 31
0.0
  0
LINE
  5
44
330
22
100
AcDbEntity
  8
0
100
AcDbLine
 10
31.59973089678115
 20
-13.77159925848147
 30
0.0
 11
23.6715276665056
 21
-13.77159925848144
 31
0.0
  0
LINE
  5
45
330
22
100
AcDbEntity
  8
0
100
AcDbLine
 10
23.56565672307022
 20
-9.51278021337896
 30
0.0
 11
24.4388546544846
 21
-12.77159925848144
 31
0.0
  0
LINE
  5
46
330
22
100
AcDbEntity
  8
0
100
AcDbLine
 10
22.59973089678116
 20
-9.771599258481472
 30
0.0
 11
18.59973089678112
 21
-9.771599258481472
 31
0.0
  0
LINE
  5
47
330
22
100
AcDbEntity
  8
0
100
AcDbLine
 10
18.59973089678115
 20
-13.77159925848144
 30
0.0
 11
17.59973089678115
 21
-13.77159925848144
 31
0.0
  0
LINE
  5
48
330
22
100
AcDbEntity
  8
0
100
AcDbLine
 10
18.59973089678115
 20
-9.771599258481472
 30
0.0
 11
18.59973089678115
 21
-13.77159925848144
 31
0.0
  0
LINE
  5
49
330
22
100
AcDbEntity
  8
0
100
AcDbLine
 10
22.59973089678116
 20
-9.771599258481472
 30
0.0
 11
23.67152766650562
 21
-13.77159925848147
 31
0.0
  0
ARC
  5
4A
330
22
100
AcDbEntity
  8
0
100
AcDbCircle
 10
22.59973089678116
 20
-7.271599258481472
 30
0.0
 40
2.5
100
AcDbArc
 50
270.0
 51
270.0000000000007
  0
LINE
  5
4B
330
22
100
AcDbEntity
  8
0
100
AcDbLine
 10
28.77130377203494
 20
-12.77159925848147
 30
0.0
 11
24.43885465448463
 21
-12.77159925848144
 31
0.0
  0
LINE
  5
4C
330
22
100
AcDbEntity
  8
0
100
AcDbLine
 10
3.599730896781125
 20
-4.771599258481472
 30
0.0
 11
2.599730896781125
 21
-4.771599258481472
 31
0.0
  0
LINE
  5
4D
330
22
100
AcDbEntity
  8
0
100
AcDbLine
 10
22.59973089678116
 20
-8.771599258481472
 30
0.0
 11
18.59973089678115
 21
-8.771599258481472
 31
0.0
  0
LINE
  5
4E
330
22
100
AcDbEntity
  8
0
100
AcDbLine
 10
22.59973089678116
 20
-5.771599258481472
 30
0.0
 11
18.59973089678115
 21
-5.771599258481472
 31
0.0
  0
LINE
  5
4F
330
22
100
AcDbEntity
  8
0
100
AcDbLine
 10
22.59973089678116
 20
-4.771599258481472
 30
0.0
 11
17.59973089678115
 21
-4.771599258481472
 31
0.0
  0
LINE
  5
50
330
22
100
AcDbEntity
  8
0
100
AcDbLine
 10
18.59973089678115
 20
-5.771599258481472
 30
0.0
 11
18.59973089678115
 21
-8.771599258481472
 31
0.0
  0
ARC
  5
51
330
22
100
AcDbEntity
  8
0
100
AcDbCircle
 10
22.59973089678116
 20
-7.271599258481472
 30
0.0
 40
1.5
100
AcDbArc
 50
270.0
 51
90.0
  0
ENDBLK
  5
52
330
22
100
AcDbEntity
  8
0
100
AcDbBlockEnd
  0
BLOCK
  5
204B
330
2041
100
AcDbEntity
  8
0
100
AcDbBlockBegin
  2
*D1
 70
     1
 10
0.0
 20
0.0
 30
0.0
  3
*D1
  1

  0
LINE
  5
22AA
330
2041
100
AcDbEntity
  8
BEM
 62
     0
370
    -2
100
AcDbLine
 10
142.6832613544287
 20
243.1461356709508
 30
0.0
 11
142.6832613544287
 21
189.7760916180487
 31
0.0
  0
LINE
  5
22AB
330
2041
100
AcDbEntity
  8
BEM
 62
     0
370
    -2
100
AcDbLine
 10
304.6832613544288
 20
243.1461356709507
 30
0.0
 11
304.6832613544288
 21
189.7760916180487
 31
0.0
  0
LINE
  5
22AC
330
2041
100
AcDbEntity
  8
BEM
 62
     0
370
    -2
100
AcDbLine
 10
149.6832613544287
 20
191.7760916180488
 30
0.0
 11
297.6832613544287
 21
191.7760916180488
 31
0.0
  0
SOLID
  5
22AD
330
2041
100
AcDbEntity
  8
BEM
 62
     0
100
AcDbTrace
 10
149.6832613544287
 20
192.9427582847154
 30
0.0
 11
149.6832613544287
 21
190.6094249513821
 31
0.0
 12
142.6832613544287
 22
191.7760916180488
 32
0.0
 13
142.6832613544287
 23
191.7760916180488
 33
0.0
  0
SOLID
  5
22AE
330
2041
100
AcDbEntity
  8
BEM
 62
     0
100
AcDbTrace
 10
297.6832613544287
 20
192.9427582847154
 30
0.0
 11
297.6832613544287
 21
190.6094249513821
 31
0.0
 12
304.6832613544288
 22
191.7760916180488
 32
0.0
 13
304.6832613544288
 23
191.7760916180488
 33
0.0
  0
MTEXT
  5
22AF
330
2041
100
AcDbEntity
  8
BEM
 62
     1
100
AcDbMText
 10
223.6832613544287
 20
198.2760916180487
 30
0.0
 40
7.0
 41
0.0
 71
     5
 72
     1
  1
\A1;162
 73
     1
 44
1.0
  0
POINT
  5
22B0
330
2041
100
AcDbEntity
  8
Defpoints
 62
     0
100
AcDbPoint
 10
142.6832613544287
 20
245.1461356709508
 30
0.0
  0
POINT
  5
22B1
330
2041
100
AcDbEntity
  8
Defpoints
 62
     0
100
AcDbPoint
 10
304.6832613544288
 20
245.1461356709507
 30
0.0
  0
POINT
  5
22B2
330
2041
100
AcDbEntity
  8
Defpoints
 62
     0
100
AcDbPoint
 10
304.6832613544288
 20
191.7760916180488
 30
0.0
  0
ENDBLK
  5
204C
330
2041
100
AcDbEntity
  8
0
100
AcDbBlockEnd
  0
BLOCK
  5
2063
330
2059
100
AcDbEntity
  8
0
100
AcDbBlockBegin
  2
*D2
 70
     1
 10
0.0
 20
0.0
 30
0.0
  3
*D2
  1

  0
LINE
  5
21E4
330
2059
100
AcDbEntity
  8
BEM
 62
     0
370
    -2
100
AcDbLine
 10
151.0008029889108
 20
227.6461356709507
 30
0.0
 11
128.9461395699071
 21
227.6461356709507
 31
0.0
  0
LINE
  5
21E5
330
2059
100
AcDbEntity
  8
BEM
 62
     0
370
    -2
100
AcDbLine
 10
151.0008029889102
 20
262.646135670951
 30
0.0
 11
128.9461395699071
 21
262.646135670951
 31
0.0
  0
LINE
  5
21E6
330
2059
100
AcDbEntity
  8
BEM
 62
     0
370
    -2
100
AcDbLine
 10
130.9461395699071
 20
234.6461356709507
 30
0.0
 11
130.9461395699071
 21
255.646135670951
 31
0.0
  0
SOLID
  5
21E7
330
2059
100
AcDbEntity
  8
BEM
 62
     0
100
AcDbTrace
 10
129.7794729032404
 20
234.6461356709507
 30
0.0
 11
132.1128062365738
 21
234.6461356709507
 31
0.0
 12
130.9461395699071
 22
227.6461356709507
 32
0.0
 13
130.9461395699071
 23
227.6461356709507
 33
0.0
  0
SOLID
  5
21E8
330
2059
100
AcDbEntity
  8
BEM
 62
     0
100
AcDbTrace
 10
129.7794729032404
 20
255.646135670951
 30
0.0
 11
132.1128062365738
 21
255.646135670951
 31
0.0
 12
130.9461395699071
 22
262.646135670951
 32
0.0
 13
130.9461395699071
 23
262.646135670951
 33
0.0
  0
MTEXT
  5
21E9
330
2059
100
AcDbEntity
  8
BEM
 62
     1
100
AcDbMText
 10
124.4461395699071
 20
245.1461356709509
 30
0.0
 40
7.0
 41
0.0
 71
     5
 72
     1
  1
\A1;35
 11
0.0000000000000001
 21
1.0
 31
0.0
 73
     1
 44
1.0
  0
POINT
  5
21EA
330
2059
100
AcDbEntity
  8
Defpoints
 62
     0
100
AcDbPoint
 10
153.0008029889108
 20
227.6461356709507
 30
0.0
  0
POINT
  5
21EB
330
2059
100
AcDbEntity
  8
Defpoints
 62
     0
100
AcDbPoint
 10
153.0008029889102
 20
262.646135670951
 30
0.0
  0
POINT
  5
21EC
330
2059
100
AcDbEntity
  8
Defpoints
 62
     0
100
AcDbPoint
 10
130.9461395699071
 20
262.646135670951
 30
0.0
  0
ENDBLK
  5
2064
330
2059
100
AcDbEntity
  8
0
100
AcDbBlockEnd
  0
BLOCK
  5
206F
330
2065
100
AcDbEntity
  8
0
100
AcDbBlockBegin
  2
*D3
 70
     1
 10
0.0
 20
0.0
 30
0.0
  3
*D3
  1

  0
LINE
  5
2341
330
2065
100
AcDbEntity
  8
BEM
 62
     0
370
    -2
100
AcDbLine
 10
234.183261354429
 20
333.2081322933309
 30
0.0
 11
339.2204419521911
 21
333.2081322933309
 31
0.0
  0
LINE
  5
2342
330
2065
100
AcDbEntity
  8
BEM
 62
     0
370
    -2
100
AcDbLine
 10
306.6832613544288
 20
408.7081322933309
 30
0.0
 11
339.2204419521912
 21
408.7081322933309
 31
0.0
  0
LINE
  5
2343
330
2065
100
AcDbEntity
  8
BEM
 62
     0
370
    -2
100
AcDbLine
 10
337.2204419521911
 20
340.2081322933308
 30
0.0
 11
337.2204419521912
 21
401.7081322933309
 31
0.0
  0
SOLID
  5
2344
330
2065
100
AcDbEntity
  8
BEM
 62
     0
100
AcDbTrace
 10
336.0537752855245
 20
340.2081322933308
 30
0.0
 11
338.3871086188579
 21
340.2081322933308
 31
0.0
 12
337.2204419521911
 22
333.2081322933309
 32
0.0
 13
337.2204419521911
 23
333.2081322933309
 33
0.0
  0
SOLID
  5
2345
330
2065
100
AcDbEntity
  8
BEM
 62
     0
100
AcDbTrace
 10
336.0537752855245
 20
401.7081322933309
 30
0.0
 11
338.3871086188579
 21
401.7081322933309
 31
0.0
 12
337.2204419521912
 22
408.7081322933309
 32
0.0
 13
337.2204419521912
 23
408.7081322933309
 33
0.0
  0
MTEXT
  5
2346
330
2065
100
AcDbEntity
  8
BEM
 62
     1
100
AcDbMText
 10
330.7204419521911
 20
370.9581322933309
 30
0.0
 40
7.0
 41
0.0
 71
     5
 72
     1
  1
\A1;75.5
 11
0.0000000000000001
 21
1.0
 31
0.0
 73
     1
 44
1.0
  0
POINT
  5
2347
330
2065
100
AcDbEntity
  8
Defpoints
 62
     0
100
AcDbPoint
 10
232.183261354429
 20
333.2081322933309
 30
0.0
  0
POINT
  5
2348
330
2065
100
AcDbEntity
  8
Defpoints
 62
     0
100
AcDbPoint
 10
304.6832613544288
 20
408.7081322933309
 30
0.0
  0
POINT
  5
2349
330
2065
100
AcDbEntity
  8
Defpoints
 62
     0
100
AcDbPoint
 10
337.2204419521912
 20
408.7081322933309
 30
0.0
  0
ENDBLK
  5
2070
330
2065
100
AcDbEntity
  8
0
100
AcDbBlockEnd
  0
BLOCK
  5
207B
330
2071
100
AcDbEntity
  8
0
100
AcDbBlockBegin
  2
*D4
 70
     1
 10
0.0
 20
0.0
 30
0.0
  3
*D4
  1

  0
LINE
  5
2338
330
2071
100
AcDbEntity
  8
BEM
 62
     0
370
    -2
100
AcDbLine
 10
272.9332613544287
 20
462.4081322933308
 30
0.0
 11
339.2204419521912
 21
462.4081322933308
 31
0.0
  0
LINE
  5
2339
330
2071
100
AcDbEntity
  8
BEM
 62
     0
370
    -2
100
AcDbLine
 10
306.6832613544288
 20
411.7081322933309
 30
0.0
 11
339.2204419521912
 21
411.7081322933309
 31
0.0
  0
LINE
  5
233A
330
2071
100
AcDbEntity
  8
BEM
 62
     0
370
    -2
100
AcDbLine
 10
337.2204419521912
 20
455.4081322933308
 30
0.0
 11
337.2204419521912
 21
418.7081322933309
 31
0.0
  0
SOLID
  5
233B
330
2071
100
AcDbEntity
  8
BEM
 62
     0
100
AcDbTrace
 10
336.0537752855245
 20
455.4081322933308
 30
0.0
 11
338.3871086188579
 21
455.4081322933308
 31
0.0
 12
337.2204419521912
 22
462.4081322933308
 32
0.0
 13
337.2204419521912
 23
462.4081322933308
 33
0.0
  0
SOLID
  5
233C
330
2071
100
AcDbEntity
  8
BEM
 62
     0
100
AcDbTrace
 10
336.0537752855245
 20
418.7081322933309
 30
0.0
 11
338.3871086188579
 21
418.7081322933309
 31
0.0
 12
337.2204419521912
 22
411.7081322933309
 32
0.0
 13
337.2204419521912
 23
411.7081322933309
 33
0.0
  0
MTEXT
  5
233D
330
2071
100
AcDbEntity
  8
BEM
 62
     1
100
AcDbMText
 10
330.7204419521911
 20
437.0581322933309
 30
0.0
 40
7.0
 41
0.0
 71
     5
 72
     1
  1
\A1;50.7
 11
0.0000000000000001
 21
1.0
 31
0.0
 73
     1
 44
1.0
  0
POINT
  5
233E
330
2071
100
AcDbEntity
  8
Defpoints
 62
     0
100
AcDbPoint
 10
270.9332613544287
 20
462.4081322933308
 30
0.0
  0
POINT
  5
233F
330
2071
100
AcDbEntity
  8
Defpoints
 62
     0
100
AcDbPoint
 10
304.6832613544288
 20
411.7081322933309
 30
0.0
  0
POINT
  5
2340
330
2071
100
AcDbEntity
  8
Defpoints
 62
     0
100
AcDbPoint
 10
337.2204419521912
 20
411.7081322933309
 30
0.0
  0
ENDBLK
  5
207C
330
2071
100
AcDbEntity
  8
0
100
AcDbBlockEnd
  0
BLOCK
  5
2089
330
207D
100
AcDbEntity
  8
0
100
AcDbBlockBegin
  2
*D5
 70
     1
 10
0.0
 20
0.0
 30
0.0
  3
*D5
  1

  0
LINE
  5
22BC
330
207D
100
AcDbEntity
  8
BEM
 62
     0
370
    -2
100
AcDbLine
 10
306.6832613544288
 20
411.7081322933309
 30
0.0
 11
323.5980555092778
 21
411.7081322933309
 31
0.0
  0
LINE
  5
22BD
330
207D
100
AcDbEntity
  8
BEM
 62
     0
370
    -2
100
AcDbLine
 10
306.6832613544288
 20
408.7081322933308
 30
0.0
 11
323.5980555092778
 21
408.7081322933308
 31
0.0
  0
LINE
  5
22BE
330
207D
100
AcDbEntity
  8
BEM
 62
     0
370
    -2
100
AcDbLine
 10
321.5980555092778
 20
418.7081322933308
 30
0.0
 11
321.5980555092778
 21
425.7081322933308
 31
0.0
  0
LINE
  5
22BF
330
207D
100
AcDbEntity
  8
BEM
 62
     0
370
    -2
100
AcDbLine
 10
321.5980555092778
 20
401.7081322933308
 30
0.0
 11
321.5980555092778
 21
384.9747989599975
 31
0.0
  0
LINE
  5
22C0
330
207D
100
AcDbEntity
  8
BEM
 62
     0
370
    -2
100
AcDbLine
 10
321.5980555092778
 20
411.7081322933309
 30
0.0
 11
321.5980555092778
 21
408.7081322933308
 31
0.0
  0
SOLID
  5
22C1
330
207D
100
AcDbEntity
  8
BEM
 62
     0
100
AcDbTrace
 10
320.431388842611
 20
418.7081322933308
 30
0.0
 11
322.7647221759444
 21
418.7081322933308
 31
0.0
 12
321.5980555092778
 22
411.7081322933309
 32
0.0
 13
321.5980555092778
 23
411.7081322933309
 33
0.0
  0
SOLID
  5
22C2
330
207D
100
AcDbEntity
  8
BEM
 62
     0
100
AcDbTrace
 10
320.431388842611
 20
401.7081322933308
 30
0.0
 11
322.7647221759444
 21
401.7081322933308
 31
0.0
 12
321.5980555092778
 22
408.7081322933308
 32
0.0
 13
321.5980555092778
 23
408.7081322933308
 33
0.0
  0
MTEXT
  5
22C3
330
207D
100
AcDbEntity
  8
BEM
 62
     1
100
AcDbMText
 10
315.0980555092776
 20
389.8414656266642
 30
0.0
 40
7.0
 41
0.0
 71
     5
 72
     1
  1
\A1;3
 11
0.0000000000000001
 21
1.0
 31
0.0
 73
     1
 44
1.0
  0
POINT
  5
22C4
330
207D
100
AcDbEntity
  8
Defpoints
 62
     0
100
AcDbPoint
 10
304.6832613544288
 20
411.7081322933309
 30
0.0
  0
POINT
  5
22C5
330
207D
100
AcDbEntity
  8
Defpoints
 62
     0
100
AcDbPoint
 10
304.6832613544288
 20
408.7081322933308
 30
0.0
  0
POINT
  5
22C6
330
207D
100
AcDbEntity
  8
Defpoints
 62
     0
100
AcDbPoint
 10
321.5980555092778
 20
408.7081322933308
 30
0.0
  0
ENDBLK
  5
208A
330
207D
100
AcDbEntity
  8
0
100
AcDbBlockEnd
  0
BLOCK
  5
2095
330
208B
100
AcDbEntity
  8
0
100
AcDbBlockBegin
  2
*D6
 70
     1
 10
0.0
 20
0.0
 30
0.0
  3
*D6
  1

  0
LINE
  5
22F4
330
208B
100
AcDbEntity
  8
BEM
 62
     0
370
    -2
100
AcDbLine
 10
173.4332613544287
 20
459.2081322933308
 30
0.0
 11
173.4332613544287
 21
476.0225605138486
 31
0.0
  0
LINE
  5
22F5
330
208B
100
AcDbEntity
  8
BEM
 62
     0
370
    -2
100
AcDbLine
 10
273.9332613544287
 20
459.2081322933309
 30
0.0
 11
273.9332613544287
 21
476.0225605138486
 31
0.0
  0
LINE
  5
22F6
330
208B
100
AcDbEntity
  8
BEM
 62
     0
370
    -2
100
AcDbLine
 10
180.4332613544287
 20
474.0225605138485
 30
0.0
 11
266.9332613544288
 21
474.0225605138485
 31
0.0
  0
SOLID
  5
22F7
330
208B
100
AcDbEntity
  8
BEM
 62
     0
100
AcDbTrace
 10
180.4332613544287
 20
475.1892271805153
 30
0.0
 11
180.4332613544287
 21
472.8558938471818
 31
0.0
 12
173.4332613544287
 22
474.0225605138485
 32
0.0
 13
173.4332613544287
 23
474.0225605138485
 33
0.0
  0
SOLID
  5
22F8
330
208B
100
AcDbEntity
  8
BEM
 62
     0
100
AcDbTrace
 10
266.9332613544288
 20
475.1892271805153
 30
0.0
 11
266.9332613544288
 21
472.8558938471818
 31
0.0
 12
273.9332613544287
 22
474.0225605138485
 32
0.0
 13
273.9332613544287
 23
474.0225605138485
 33
0.0
  0
MTEXT
  5
22F9
330
208B
100
AcDbEntity
  8
BEM
 62
     1
100
AcDbMText
 10
223.6832613544287
 20
480.5225605138486
 30
0.0
 40
7.0
 41
0.0
 71
     5
 72
     1
  1
\A1;100.5
 73
     1
 44
1.0
  0
POINT
  5
22FA
330
208B
100
AcDbEntity
  8
Defpoints
 62
     0
100
AcDbPoint
 10
173.4332613544287
 20
457.2081322933309
 30
0.0
  0
POINT
  5
22FB
330
208B
100
AcDbEntity
  8
Defpoints
 62
     0
100
AcDbPoint
 10
273.9332613544287
 20
457.2081322933309
 30
0.0
  0
POINT
  5
22FC
330
208B
100
AcDbEntity
  8
Defpoints
 62
     0
100
AcDbPoint
 10
273.9332613544287
 20
474.0225605138485
 30
0.0
  0
ENDBLK
  5
2096
330
208B
100
AcDbEntity
  8
0
100
AcDbBlockEnd
  0
BLOCK
  5
229D
330
2293
100
AcDbEntity
  8
0
100
AcDbBlockBegin
  2
*D7
 70
     1
 10
0.0
 20
0.0
 30
0.0
  3
*D7
  1

  0
LINE
  5
22D0
330
2293
100
AcDbEntity
  8
BEM
 62
     0
370
    -2
100
AcDbLine
 10
154.6832613544287
 20
231.646135670951
 30
0.0
 11
154.6832613544287
 21
206.7802564513681
 31
0.0
  0
LINE
  5
22D1
330
2293
100
AcDbEntity
  8
BEM
 62
     0
370
    -2
100
AcDbLine
 10
292.6832613544288
 20
231.6461356709508
 30
0.0
 11
292.6832613544288
 21
206.7802564513681
 31
0.0
  0
LINE
  5
22D2
330
2293
100
AcDbEntity
  8
BEM
 62
     0
370
    -2
100
AcDbLine
 10
161.6832613544287
 20
208.7802564513681
 30
0.0
 11
285.6832613544288
 21
208.7802564513681
 31
0.0
  0
SOLID
  5
22D3
330
2293
100
AcDbEntity
  8
BEM
 62
     0
100
AcDbTrace
 10
161.6832613544287
 20
209.9469231180348
 30
0.0
 11
161.6832613544287
 21
207.6135897847015
 31
0.0
 12
154.6832613544287
 22
208.7802564513681
 32
0.0
 13
154.6832613544287
 23
208.7802564513681
 33
0.0
  0
SOLID
  5
22D4
330
2293
100
AcDbEntity
  8
BEM
 62
     0
100
AcDbTrace
 10
285.6832613544288
 20
209.9469231180348
 30
0.0
 11
285.6832613544288
 21
207.6135897847015
 31
0.0
 12
292.6832613544288
 22
208.7802564513681
 32
0.0
 13
292.6832613544288
 23
208.7802564513681
 33
0.0
  0
MTEXT
  5
22D5
330
2293
100
AcDbEntity
  8
BEM
 62
     1
100
AcDbMText
 10
223.6832613544287
 20
215.2802564513681
 30
0.0
 40
7.0
 41
0.0
 71
     5
 72
     1
  1
\A1;138
 73
     1
 44
1.0
  0
POINT
  5
22D6
330
2293
100
AcDbEntity
  8
Defpoints
 62
     0
100
AcDbPoint
 10
154.6832613544287
 20
233.646135670951
 30
0.0
  0
POINT
  5
22D7
330
2293
100
AcDbEntity
  8
Defpoints
 62
     0
100
AcDbPoint
 10
292.6832613544288
 20
233.6461356709508
 30
0.0
  0
POINT
  5
22D8
330
2293
100
AcDbEntity
  8
Defpoints
 62
     0
100
AcDbPoint
 10
292.6832613544288
 20
208.7802564513681
 30
0.0
  0
ENDBLK
  5
229E
330
2293
100
AcDbEntity
  8
0
100
AcDbBlockEnd
  0
BLOCK
  5
2308
330
22FE
100
AcDbEntity
  8
0
100
AcDbBlockBegin
  2
*D8
 70
     1
 10
0.0
 20
0.0
 30
0.0
  3
*D8
  1

  0
LINE
  5
232F
330
22FE
100
AcDbEntity
  8
BEM
 62
     0
370
    -2
100
AcDbLine
 10
174.4332613544287
 20
460.2081322933309
 30
0.0
 11
126.0504800146377
 21
460.208132293331
 31
0.0
  0
LINE
  5
2330
330
22FE
100
AcDbEntity
  8
BEM
 62
     0
370
    -2
100
AcDbLine
 10
174.4332613544287
 20
360.2081322933309
 30
0.0
 11
126.0504800146377
 21
360.2081322933309
 31
0.0
  0
LINE
  5
2331
330
22FE
100
AcDbEntity
  8
BEM
 62
     0
370
    -2
100
AcDbLine
 10
128.0504800146377
 20
453.2081322933309
 30
0.0
 11
128.0504800146377
 21
367.2081322933309
 31
0.0
  0
SOLID
  5
2332
330
22FE
100
AcDbEntity
  8
BEM
 62
     0
100
AcDbTrace
 10
126.8838133479711
 20
453.208132293331
 30
0.0
 11
129.2171466813044
 21
453.2081322933309
 31
0.0
 12
128.0504800146377
 22
460.2081322933309
 32
0.0
 13
128.0504800146377
 23
460.2081322933309
 33
0.0
  0
SOLID
  5
2333
330
22FE
100
AcDbEntity
  8
BEM
 62
     0
100
AcDbTrace
 10
126.883813347971
 20
367.2081322933309
 30
0.0
 11
129.2171466813044
 21
367.2081322933309
 31
0.0
 12
128.0504800146377
 22
360.2081322933309
 32
0.0
 13
128.0504800146377
 23
360.2081322933309
 33
0.0
  0
MTEXT
  5
2334
330
22FE
100
AcDbEntity
  8
BEM
 62
     1
100
AcDbMText
 10
121.5504800146377
 20
410.208132293331
 30
0.0
 40
7.0
 41
0.0
 71
     5
 72
     1
  1
\A1;100.5
 11
0.0000000000000001
 21
1.0
 31
0.0
 73
     1
 44
1.0
  0
POINT
  5
2335
330
22FE
100
AcDbEntity
  8
Defpoints
 62
     0
100
AcDbPoint
 10
176.4332613544287
 20
460.2081322933309
 30
0.0
  0
POINT
  5
2336
330
22FE
100
AcDbEntity
  8
Defpoints
 62
     0
100
AcDbPoint
 10
176.4332613544287
 20
360.2081322933309
 30
0.0
  0
POINT
  5
2337
330
22FE
100
AcDbEntity
  8
Defpoints
 62
     0
100
AcDbPoint
 10
128.0504800146377
 20
360.2081322933309
 30
0.0
  0
ENDBLK
  5
2309
330
22FE
100
AcDbEntity
  8
0
100
AcDbBlockEnd
  0
ENDSEC
  0
SECTION
  2
ENTITIES
  0
LINE
  5
57
330
1E
100
AcDbEntity
  8
STEMPEL
100
AcDbLine
 10
410.0
 20
110.0
 30
0.0
 11
39.99999999999997
 21
110.0
 31
0.0
  0
LINE
  5
58
330
1E
100
AcDbEntity
  8
STEMPEL
100
AcDbLine
 10
136.0000000000001
 20
109.9999999999999
 30
0.0
 11
136.0
 21
9.999999999999971
 31
0.0
  0
LINE
  5
59
330
1E
100
AcDbEntity
  8
STEMPEL
100
AcDbLine
 10
220.0
 20
110.0
 30
0.0
 11
220.0
 21
9.999999999999971
 31
0.0
  0
LINE
  5
5A
330
1E
100
AcDbEntity
  8
STEMPEL
100
AcDbLine
 10
332.0
 20
109.9999999999997
 30
0.0
 11
332.0
 21
40.0
 31
0.0
  0
LINE
  5
5B
330
1E
100
AcDbEntity
  8
STEMPEL
100
AcDbLine
 10
135.9999999999999
 20
29.99999999999997
 30
0.0
 11
39.99999999999997
 21
29.99999999999997
 31
0.0
  0
LINE
  5
5C
330
1E
100
AcDbEntity
  8
STEMPEL
100
AcDbLine
 10
410.0
 20
40.0
 30
0.0
 11
136.0000000000001
 21
39.99999999999997
 31
0.0
  0
LINE
  5
5D
330
1E
100
AcDbEntity
  8
STEMPEL
100
AcDbLine
 10
410.0
 20
80.0
 30
0.0
 11
136.0000000000001
 21
79.99999999999994
 31
0.0
  0
LINE
  5
5E
330
1E
100
AcDbEntity
  8
VOLL
100
AcDbLine
 10
54.00000000000009
 20
110.0
 30
0.0
 11
53.99999999999997
 21
9.999999999999971
 31
0.0
  0
LINE
  5
5F
330
1E
100
AcDbEntity
  8
VOLL
100
AcDbLine
 10
94.00000000000011
 20
109.9999999999999
 30
0.0
 11
94.0
 21
9.999999999999971
 31
0.0
  0
LINE
  5
60
330
1E
100
AcDbEntity
  8
VOLL
100
AcDbLine
 10
114.0000000000001
 20
109.9999999999999
 30
0.0
 11
114.0
 21
9.999999999999971
 31
0.0
  0
LINE
  5
61
330
1E
100
AcDbEntity
  8
VOLL
100
AcDbLine
 10
154.0000000000001
 20
79.99999999999994
 30
0.0
 11
154.0000000000001
 21
39.99999999999997
 31
0.0
  0
LINE
  5
62
330
1E
100
AcDbEntity
  8
VOLL
100
AcDbLine
 10
180.0000000000001
 20
109.9999999999998
 30
0.0
 11
180.0
 21
39.99999999999997
 31
0.0
  0
LINE
  5
63
330
1E
100
AcDbEntity
  8
HILF
100
AcDbLine
 10
40.00000000000008
 20
100.0
 30
0.0
 11
136.0000000000001
 21
100.0
 31
0.0
  0
LINE
  5
64
330
1E
100
AcDbEntity
  8
HILF
100
AcDbLine
 10
40.00000000000008
 20
90.00000000000005
 30
0.0
 11
136.0000000000001
 21
90.00000000000005
 31
0.0
  0
LINE
  5
65
330
1E
100
AcDbEntity
  8
HILF
100
AcDbLine
 10
40.00000000000008
 20
79.99999999999994
 30
0.0
 11
136.0000000000001
 21
79.99999999999994
 31
0.0
  0
LINE
  5
66
330
1E
100
AcDbEntity
  8
HILF
100
AcDbLine
 10
40.00000000000008
 20
69.99999999999994
 30
0.0
 11
136.0000000000001
 21
69.99999999999994
 31
0.0
  0
LINE
  5
67
330
1E
100
AcDbEntity
  8
HILF
100
AcDbLine
 10
40.00000000000008
 20
59.99999999999997
 30
0.0
 11
136.0000000000001
 21
59.99999999999997
 31
0.0
  0
LINE
  5
68
330
1E
100
AcDbEntity
  8
HILF
100
AcDbLine
 10
40.00000000000008
 20
49.99999999999997
 30
0.0
 11
136.0000000000001
 21
49.99999999999997
 31
0.0
  0
LINE
  5
69
330
1E
100
AcDbEntity
  8
HILF
100
AcDbLine
 10
40.00000000000008
 20
39.99999999999997
 30
0.0
 11
136.0000000000001
 21
39.99999999999997
 31
0.0
  0
LINE
  5
6A
330
1E
100
AcDbEntity
  8
HILF
100
AcDbLine
 10
136.0000000000001
 20
69.99999999999994
 30
0.0
 11
220.0
 21
69.99999999999994
 31
0.0
  0
LINE
  5
6B
330
1E
100
AcDbEntity
  8
HILF
100
AcDbLine
 10
136.0000000000001
 20
59.99999999999997
 30
0.0
 11
220.0
 21
59.99999999999997
 31
0.0
  0
LINE
  5
6C
330
1E
100
AcDbEntity
  8
HILF
100
AcDbLine
 10
136.0000000000001
 20
49.99999999999997
 30
0.0
 11
220.0
 21
49.99999999999997
 31
0.0
  0
LINE
  5
6D
330
1E
100
AcDbEntity
  8
HILF
100
AcDbLine
 10
224.7736801096948
 20
84.03758247564139
 30
0.0
 11
324.8353916556311
 21
84.03758247564139
 31
0.0
  0
LINE
  5
6E
330
1E
100
AcDbEntity
  8
HILF
100
AcDbLine
 10
224.7736801096948
 20
69.99999999999994
 30
0.0
 11
324.835391655631
 21
69.99999999999994
 31
0.0
  0
LINE
  5
6F
330
1E
100
AcDbEntity
  8
HILF
100
AcDbLine
 10
224.7736801096948
 20
59.99999999999997
 30
0.0
 11
324.835391655631
 21
59.99999999999997
 31
0.0
  0
LINE
  5
70
330
1E
100
AcDbEntity
  8
HILF
100
AcDbLine
 10
224.7736801096948
 20
49.99999999999997
 30
0.0
 11
324.835391655631
 21
49.99999999999997
 31
0.0
  0
LINE
  5
71
330
1E
100
AcDbEntity
  8
VOLL
100
AcDbLine
 10
332.0
 20
60.0
 30
0.0
 11
410.0
 21
60.0
 31
0.0
  0
LINE
  5
72
330
1E
100
AcDbEntity
  8
HILF
100
AcDbLine
 10
336.7238616296993
 20
83.77983636955827
 30
0.0
 11
404.8588839326728
 21
83.77983636955827
 31
0.0
  0
LINE
  5
73
330
1E
100
AcDbEntity
  8
HILF
100
AcDbLine
 10
223.4909699289885
 20
14.89398258028314
 30
0.0
 11
404.8588839326728
 21
14.89398258028314
 31
0.0
  0
TEXT
  5
74
330
1E
100
AcDbEntity
  8
TEXT
100
AcDbText
 10
63.86165979631819
 20
18.67381894984132
 30
0.0
 40
4.0
  1
Änderung
 41
0.8
  7
GREEKS
 72
     1
 11
74.60451693917534
 21
18.67381894984132
 31
0.0
100
AcDbText
  0
TEXT
  5
75
330
1E
100
AcDbEntity
  8
TEXT
100
AcDbText
 10
143.5163572150377
 20
102.4620895087088
 30
0.0
 40
5.0
  1
Maßstab
 41
0.8
  7
GREEKS
100
AcDbText
  0
TEXT
  5
76
330
1E
100
AcDbEntity
  8
TEXT
100
AcDbText
 10
184.2858954734051
 20
102.4184168434819
 30
0.0
 40
5.0
  1
Zul. Abw.
 41
0.8
  7
GREEKS
100
AcDbText
  0
TEXT
  5
77
330
1E
100
AcDbEntity
  8
TEXT
100
AcDbText
 10
224.877940380901
 20
102.5489328011779
 30
0.0
 40
5.0
  1
Benennung
 41
0.8
  7
GREEKS
100
AcDbText
  0
TEXT
  5
78
330
1E
100
AcDbEntity
  8
TEXT
100
AcDbText
 10
336.178754957634
 20
102.3132034537136
 30
0.0
 40
5.0
  1
Zeichnungs Nr.
 41
0.8
  7
GREEKS
100
AcDbText
  0
TEXT
  5
79
330
1E
100
AcDbEntity
  8
TEXT
100
AcDbText
 10
224.742238391136
 20
30.84560570193057
 30
0.0
 40
5.0
  1
Bauvorhaben
 41
0.8
  7
GREEKS
100
AcDbText
  0
TEXT
  5
7A
330
1E
100
AcDbEntity
  8
TEXT
100
AcDbText
 10
336.7238616296993
 20
73.1811823709997
 30
0.0
 40
5.0
  1
Ersatz für:
 41
0.8
  7
GREEKS
100
AcDbText
  0
TEXT
  5
7B
330
1E
100
AcDbEntity
  8
TEXT
100
AcDbText
 10
48.26641107045756
 20
13.65465846027192
 30
0.0
 40
4.0
  1
Index
 50
90.0
 41
0.8
  7
GREEKS
100
AcDbText
  0
TEXT
  5
7C
330
1E
100
AcDbEntity
  8
TEXT
100
AcDbText
 10
100.0934676075481
 20
18.6715626933981
 30
0.0
 40
4.0
  1
Tag
 41
0.8
  7
GREEKS
 72
     1
 11
103.8268009408814
 21
18.6715626933981
 31
0.0
100
AcDbText
  0
TEXT
  5
7D
330
1E
100
AcDbEntity
  8
TEXT
100
AcDbText
 10
119.0122744386592
 20
18.59324216966408
 30
0.0
 40
4.0
  1
Name
 41
0.8
  7
GREEKS
 72
     1
 11
125.3360839624688
 21
18.59324216966408
 31
0.0
100
AcDbText
  0
TEXT
  5
7E
330
1E
100
AcDbEntity
  8
TEXT
100
AcDbText
 10
162.3311673153651
 20
73.31880501229926
 30
0.0
 40
4.0
  1
Tag
 41
0.8
  7
GREEKS
100
AcDbText
  0
TEXT
  5
7F
330
1E
100
AcDbEntity
  8
TEXT
100
AcDbText
 10
192.4626584226295
 20
73.30961091915225
 30
0.0
 40
4.0
  1
Name
 41
0.8
  7
GREEKS
100
AcDbText
  0
TEXT
  5
80
330
1E
100
AcDbEntity
  8
TEXT
100
AcDbText
 10
137.5836127167615
 20
63.62990369617964
 30
0.0
 40
4.0
  1
Gez.
 41
0.8
  7
GREEKS
100
AcDbText
  0
TEXT
  5
81
330
1E
100
AcDbEntity
  8
TEXT
100
AcDbText
 10
137.5515086571672
 20
53.68926291428377
 30
0.0
 40
4.0
  1
Gepr.
 41
0.8
  7
GREEKS
100
AcDbText
  0
TEXT
  5
82
330
1E
100
AcDbEntity
  8
TEXT
100
AcDbText
 10
137.6006777387304
 20
43.52946389649807
 30
0.0
 40
4.0
  1
Norm.
 41
0.8
  7
GREEKS
100
AcDbText
  0
LINE
  5
83
330
1E
100
AcDbEntity
  8
STEMPEL
100
AcDbLine
 10
49.99999999999989
 20
10.0
 30
0.0
 11
410.0
 21
10.0
 31
0.0
  0
TEXT
  5
84
330
1E
100
AcDbEntity
  8
TEXT
100
AcDbText
 10
337.2400861497006
 20
52.07416177878602
 30
0.0
 40
5.0
  1
ersetzt durch:
 41
0.8
  7
GREEKS
100
AcDbText
  0
LINE
  5
85
330
1E
100
AcDbEntity
  8
STEMPEL
100
AcDbLine
 10
410.0
 20
10.0
 30
0.0
 11
39.99999999999989
 21
10.0
 31
0.0
  0
LINE
  5
86
330
1E
100
AcDbEntity
  8
STEMPEL
100
AcDbLine
 10
410.0
 20
10.0
 30
0.0
 11
410.0
 21
584.0
 31
0.0
  0
LINE
  5
87
330
1E
100
AcDbEntity
  8
STEMPEL
100
AcDbLine
 10
40.0
 20
10.0
 30
0.0
 11
39.99999999999989
 21
584.0
 31
0.0
  0
LINE
  5
88
330
1E
100
AcDbEntity
  8
STEMPEL
100
AcDbLine
 10
410.0
 20
584.0
 30
0.0
 11
39.99999999999989
 21
584.0
 31
0.0
  0
LINE
  5
89
330
1E
100
AcDbEntity
  8
HILF
100
AcDbLine
 10
0.0
 20
0.0
 30
0.0
 11
-0.0000000000001137
 21
594.0
 31
0.0
  0
LINE
  5
8A
330
1E
100
AcDbEntity
  8
HILF
100
AcDbLine
 10
419.9999999999999
 20
594.0000000000002
 30
0.0
 11
0.0
 21
594.0
 31
0.0
  0
LINE
  5
8B
330
1E
100
AcDbEntity
  8
HILF
100
AcDbLine
 10
420.0
 20
0.0
 30
0.0
 11
0.0
 21
0.0
 31
0.0
  0
LINE
  5
8C
330
1E
100
AcDbEntity
  8
HILF
100
AcDbLine
 10
31.08767135713856
 20
297.0
 30
0.0
 11
0.0000000000001137
 21
297.0
 31
0.0
  0
TEXT
  5
8D
330
1E
100
AcDbEntity
  8
TEXT
100
AcDbText
 10
138.622109822104
 20
73.14025471151666
 30
0.0
 40
4.0
  1
2012
 41
0.8
  7
GREEKS
100
AcDbText
  0
LINE
  5
8E
330
1E
100
AcDbEntity
  8
HILF
100
AcDbLine
 10
420.0
 20
-0.0000000000001137
 30
0.0
 11
419.9999999999999
 21
594.0
 31
0.0
  0
TEXT
  5
8F
330
1E
100
AcDbEntity
  8
VOLL
100
AcDbText
 10
78.07675471698113
 20
31.02594776470585
 30
0.0
 40
1.8
  1

  7
GREEKS
100
AcDbText
  0
TEXT
  5
90
330
1E
100
AcDbEntity
  8
TEXT
100
AcDbText
 10
41.85509950977674
 20
111.6719999999999
 30
0.0
 40
5.0
  1
Erstellt mit AUTOCAD 2004
 41
0.8
  7
GREEKS
100
AcDbText
  0
TEXT
  5
91
330
1E
100
AcDbEntity
  8
TEXT
100
AcDbText
 10
194.4216048581257
 20
63.0896391972351
 30
0.0
 40
4.0
  1
Koeh
 41
0.8
  7
GREEKS
 72
     1
 11
199.6787477152685
 21
63.0896391972351
 31
0.0
100
AcDbText
  0
TEXT
  5
92
330
1E
100
AcDbEntity
  8
TEXT
 62
     1
100
AcDbText
 10
347.0868845003094
 20
88.14901428913959
 30
0.0
 40
7.0
  1
00991100W
 41
0.8
  7
GREEKS
 72
     1
 11
370.0202178336427
 21
88.14901428913959
 31
0.0
100
AcDbText
  0
TEXT
  5
93
330
1E
100
AcDbEntity
  8
TEXT
 62
     1
100
AcDbText
 10
150.5006306481887
 20
88.14901428913959
 30
0.0
 40
7.0
  1
1:2
 41
0.8
  7
GREEKS
100
AcDbText
  0
TEXT
  5
94
330
1E
100
AcDbEntity
  8
TEXT
100
AcDbText
 10
160.7037590129979
 20
63.10765040825732
 30
0.0
 40
4.0
  1
29.10.
 41
0.8
  7
GREEKS
 72
     1
 11
167.4085209177598
 21
63.10765040825732
 31
0.0
100
AcDbText
  0
TEXT
  5
95
330
1E
100
AcDbEntity
  8
TEXT
 62
     1
100
AcDbText
 10
226.8935731057402
 20
87.41748789253779
 30
0.0
 40
7.0
  1
Rohrschelle   DN100
 41
0.8
  7
GREEKS
100
AcDbText
  0
TEXT
  5
96
330
1E
100
AcDbEntity
  8
TEXT
100
AcDbText
 10
225.1296391125315
 20
71.50334417585288
 30
0.0
 40
5.0
  1
mit Anschlußgewinde M10
 41
0.8
  7
GREEKS
100
AcDbText
  0
TEXT
  5
98
330
1E
100
AcDbEntity
  8
TEXT
100
AcDbText
 10
225.1296391125315
 20
51.64011943042158
 30
0.0
 40
5.0
  1
EDV-Art.Nr. 00991.100X
 41
0.8
  7
GREEKS
100
AcDbText
  0
TEXT
  5
99
330
1E
100
AcDbEntity
  8
TEXT
100
AcDbText
 10
224.9837501577827
 20
42.62974153022632
 30
0.0
 40
4.0
  1
00991100W.DWG
 41
0.8
  7
GREEKS
100
AcDbText
  0
TEXT
  5
9A
330
1E
100
AcDbEntity
  8
TEXT
100
AcDbText
 10
182.626132208084
 20
90.76363841023022
 30
0.0
 40
4.0
  1
DIN EN1123-2
 41
0.8
  7
GREEKS
 72
     1
 11
199.6166083985602
 21
90.76363841023022
 31
0.0
100
AcDbText
  0
INSERT
  5
9B
330
1E
100
AcDbEntity
  8
STEMPEL
100
AcDbBlockReference
  2
LOGO
 10
140.9955485457794
 20
45.02105276448322
 30
0.0
 41
2.0
 42
2.0
 43
2.0
  0
TEXT
  5
118
330
1E
100
AcDbEntity
  8
BEM
100
AcDbText
 10
417.3022923857165
 20
10.16790107998849
 30
0.0
 40
4.0
  1
Diese Zeichnung ist urheberrechtlich geschützt und bleibt unser Eigentum. Sie darf weder ganz noch teilweise verfielfältigt und nicht an Dritte weitergegeben werden.
 50
90.0
 41
0.8
  7
GREEKS
100
AcDbText
  0
TEXT
  5
7A1
330
1E
100
AcDbEntity
  8
TEXT
 62
     1
100
AcDbText
 10
242.8365522679117
 20
115.6405708316599
 30
0.0
 40
7.0
  1
Werkstoff: St37 Dickschichtpassiviert
 41
0.8
  7
GREEKS
100
AcDbText
  0
LWPOLYLINE
  5
18E9
330
1E
100
AcDbEntity
  8
TEXT
 62
     1
100
AcDbPolyline
 90
        4
 70
     1
 43
0.0
 10
279.5439296435284
 20
94.3882247546162
 10
279.5439296435284
 20
87.38822475461621
 10
286.5439296435284
 20
87.38822475461621
 10
286.5439296435284
 20
94.3882247546162
  0
DIMENSION
  5
1F73
330
1E
100
AcDbEntity
  8
BEM
100
AcDbDimension
  2
*D1
 10
304.6832613544288
 20
191.7760916180488
 30
0.0
 11
223.6832613544287
 21
198.2760916180487
 31
0.0
 70
    32
 71
     5
 42
162.0
  3
Standard
100
AcDbAlignedDimension
 13
142.6832613544287
 23
245.1461356709508
 33
0.0
 14
304.6832613544288
 24
245.1461356709507
 34
0.0
100
AcDbRotatedDimension
1001
ACAD
1000
DSTYLE
1002
{
1070
    40
1040
2.0
1070
    41
1040
3.5
1070
    42
1040
1.0
1070
    43
1040
7.0
1070
    44
1040
1.0
1070
    73
1070
     0
1070
    74
1070
     0
1070
    77
1070
     1
1070
    78
1070
     8
1070
    79
1070
     2
1070
   140
1040
3.5
1070
   141
1040
1.5
1070
   146
1040
0.5
1070
   147
1040
1.5
1070
   172
1070
     1
1070
   178
1070
     1
1070
   179
1070
     2
1070
   271
1070
     2
1070
   272
1070
     2
1070
   284
1070
     8
1070
   285
1070
     8
1070
   286
1070
     8
1002
}
  0
DIMENSION
  5
1F75
330
1E
100
AcDbEntity
  8
BEM
100
AcDbDimension
  2
*D2
 10
130.9461395699071
 20
262.646135670951
 30
0.0
 11
124.4461395699071
 21
245.1461356709509
 31
0.0
 70
    32
 71
     5
 42
35.00000000000031
  3
Standard
100
AcDbAlignedDimension
 13
153.0008029889108
 23
227.6461356709507
 33
0.0
 14
153.0008029889102
 24
262.646135670951
 34
0.0
 50
90.0
100
AcDbRotatedDimension
1001
ACAD
1000
DSTYLE
1002
{
1070
    40
1040
2.0
1070
    41
1040
3.5
1070
    42
1040
1.0
1070
    43
1040
7.0
1070
    44
1040
1.0
1070
    73
1070
     0
1070
    74
1070
     0
1070
    77
1070
     1
1070
    78
1070
     8
1070
    79
1070
     2
1070
   140
1040
3.5
1070
   141
1040
1.5
1070
   146
1040
0.5
1070
   147
1040
1.5
1070
   172
1070
     1
1070
   178
1070
     1
1070
   179
1070
     2
1070
   271
1070
     2
1070
   272
1070
     2
1070
   284
1070
     8
1070
   285
1070
     8
1070
   286
1070
     8
1002
}
  0
ARC
  5
1F76
330
1E
100
AcDbEntity
  8
STEMPEL
100
AcDbCircle
 10
162.6832613544287
 20
245.146135670951
 30
0.0
 40
20.0
100
AcDbArc
 50
118.9550243718606
 51
241.0449756281393
  0
LINE
  5
1F77
330
1E
100
AcDbEntity
  8
MITTEL
100
AcDbLine
 10
154.6832613544288
 20
256.646135670951
 30
0.0
 11
154.6832613544287
 21
233.646135670951
 31
0.0
  0
ARC
  5
1F78
330
1E
100
AcDbEntity
  8
STEMPEL
  6
Continuous
100
AcDbCircle
 10
154.6832613544287
 20
245.146135670951
 30
0.0
 40
6.5
100
AcDbArc
 50
98.84988309843112
 51
261.1501169015689
  0
LINE
  5
1F79
330
1E
100
AcDbEntity
  8
STEMPEL
  6
Continuous
100
AcDbLine
 10
158.4360381041614
 20
251.646135670951
 30
0.0
 11
162.1888148538938
 21
245.146135670951
 31
0.0
  0
LINE
  5
1F7A
330
1E
100
AcDbEntity
  8
STEMPEL
  6
Continuous
100
AcDbLine
 10
162.1888148538938
 20
245.146135670951
 30
0.0
 11
158.4360381041614
 21
238.646135670951
 31
0.0
  0
LINE
  5
1F7B
330
1E
100
AcDbEntity
  8
STEMPEL
  6
Continuous
100
AcDbLine
 10
158.4360381041614
 20
238.646135670951
 30
0.0
 11
150.9304846046963
 21
238.646135670951
 31
0.0
  0
LINE
  5
1F7C
330
1E
100
AcDbEntity
  8
STEMPEL
  6
Continuous
100
AcDbLine
 10
150.9304846046963
 20
238.646135670951
 30
0.0
 11
147.1777078549636
 21
245.1461356709511
 31
0.0
  0
LINE
  5
1F7D
330
1E
100
AcDbEntity
  8
STEMPEL
  6
Continuous
100
AcDbLine
 10
147.1777078549636
 20
245.1461356709511
 30
0.0
 11
150.9304846046963
 21
251.646135670951
 31
0.0
  0
LINE
  5
1F7E
330
1E
100
AcDbEntity
  8
STEMPEL
  6
Continuous
100
AcDbLine
 10
150.9304846046963
 20
251.646135670951
 30
0.0
 11
158.4360381041614
 21
251.646135670951
 31
0.0
  0
LINE
  5
1F7F
330
1E
100
AcDbEntity
  8
STEMPEL
100
AcDbLine
 10
155.6832613544288
 20
251.646135670951
 30
0.0
 11
155.6832613544287
 21
238.646135670951
 31
0.0
  0
LINE
  5
1F80
330
1E
100
AcDbEntity
  8
STEMPEL
100
AcDbLine
 10
153.6832613544288
 20
251.646135670951
 30
0.0
 11
153.6832613544287
 21
238.646135670951
 31
0.0
  0
ARC
  5
1F81
330
1E
100
AcDbEntity
  8
STEMPEL
  6
Continuous
100
AcDbCircle
 10
154.6832613544287
 20
245.146135670951
 30
0.0
 40
6.5
100
AcDbArc
 50
278.8498830984311
 51
81.15011690156888
  0
ARC
  5
1F82
330
1E
100
AcDbEntity
  8
STEMPEL
  6
Continuous
100
AcDbCircle
 10
292.6832613544288
 20
245.1461356709507
 30
0.0
 40
6.5
100
AcDbArc
 50
98.84988309843112
 51
261.1501169015689
  0
LINE
  5
1F83
330
1E
100
AcDbEntity
  8
STEMPEL
100
AcDbLine
 10
293.6832613544287
 20
251.6461356709507
 30
0.0
 11
293.6832613544287
 21
238.6461356709508
 31
0.0
  0
LINE
  5
1F84
330
1E
100
AcDbEntity
  8
STEMPEL
100
AcDbLine
 10
291.6832613544287
 20
251.6461356709507
 30
0.0
 11
291.6832613544287
 21
238.6461356709508
 31
0.0
  0
LINE
  5
1F85
330
1E
100
AcDbEntity
  8
STEMPEL
  6
Continuous
100
AcDbLine
 10
296.4360381041612
 20
251.6461356709507
 30
0.0
 11
288.9304846046961
 21
251.6461356709507
 31
0.0
  0
LINE
  5
1F86
330
1E
100
AcDbEntity
  8
STEMPEL
  6
Continuous
100
AcDbLine
 10
300.1888148538939
 20
245.1461356709507
 30
0.0
 11
296.4360381041612
 21
251.6461356709507
 31
0.0
  0
LINE
  5
1F87
330
1E
100
AcDbEntity
  8
STEMPEL
  6
Continuous
100
AcDbLine
 10
296.4360381041612
 20
238.6461356709507
 30
0.0
 11
300.1888148538939
 21
245.1461356709507
 31
0.0
  0
LINE
  5
1F88
330
1E
100
AcDbEntity
  8
STEMPEL
  6
Continuous
100
AcDbLine
 10
288.9304846046961
 20
238.6461356709507
 30
0.0
 11
296.4360381041612
 21
238.6461356709507
 31
0.0
  0
LINE
  5
1F89
330
1E
100
AcDbEntity
  8
STEMPEL
  6
Continuous
100
AcDbLine
 10
285.1777078549636
 20
245.1461356709507
 30
0.0
 11
288.9304846046961
 21
238.6461356709507
 31
0.0
  0
LINE
  5
1F8A
330
1E
100
AcDbEntity
  8
STEMPEL
  6
Continuous
100
AcDbLine
 10
288.9304846046961
 20
251.6461356709507
 30
0.0
 11
285.1777078549636
 21
245.1461356709507
 31
0.0
  0
ARC
  5
1F8B
330
1E
100
AcDbEntity
  8
STEMPEL
  6
Continuous
100
AcDbCircle
 10
292.6832613544288
 20
245.1461356709507
 30
0.0
 40
6.5
100
AcDbArc
 50
278.8498830984311
 51
81.15011690156888
  0
DIMENSION
  5
1F8C
330
1E
100
AcDbEntity
  8
BEM
100
AcDbDimension
  2
*D3
 10
337.2204419521912
 20
408.7081322933309
 30
0.0
 11
330.7204419521911
 21
370.9581322933309
 31
0.0
 70
    32
 71
     5
 42
75.50000000000011
  3
Standard
100
AcDbAlignedDimension
 13
232.183261354429
 23
333.2081322933309
 33
0.0
 14
304.6832613544288
 24
408.7081322933309
 34
0.0
 50
90.0
100
AcDbRotatedDimension
1001
ACAD
1000
DSTYLE
1002
{
1070
    40
1040
2.0
1070
    41
1040
3.5
1070
    42
1040
1.0
1070
    43
1040
7.0
1070
    44
1040
1.0
1070
    73
1070
     0
1070
    74
1070
     0
1070
    77
1070
     1
1070
    78
1070
     8
1070
    79
1070
     2
1070
   140
1040
3.5
1070
   141
1040
1.5
1070
   146
1040
0.5
1070
   147
1040
1.5
1070
   172
1070
     1
1070
   178
1070
     1
1070
   179
1070
     2
1070
   271
1070
     2
1070
   272
1070
     2
1070
   284
1070
     8
1070
   285
1070
     8
1070
   286
1070
     8
1002
}
  0
DIMENSION
  5
1F8D
330
1E
100
AcDbEntity
  8
BEM
100
AcDbDimension
  2
*D4
 10
337.2204419521912
 20
411.7081322933309
 30
0.0
 11
330.7204419521911
 21
437.0581322933309
 31
0.0
 70
    32
 71
     5
 42
50.69999999999993
  3
Standard
100
AcDbAlignedDimension
 13
270.9332613544287
 23
462.4081322933308
 33
0.0
 14
304.6832613544288
 24
411.7081322933309
 34
0.0
 50
90.0
100
AcDbRotatedDimension
1001
ACAD
1000
DSTYLE
1002
{
1070
    40
1040
2.0
1070
    41
1040
3.5
1070
    42
1040
1.0
1070
    43
1040
7.0
1070
    44
1040
1.0
1070
    73
1070
     0
1070
    74
1070
     0
1070
    77
1070
     1
1070
    78
1070
     8
1070
    79
1070
     2
1070
   140
1040
3.5
1070
   141
1040
1.5
1070
   146
1040
0.5
1070
   147
1040
1.5
1070
   172
1070
     1
1070
   178
1070
     1
1070
   179
1070
     2
1070
   271
1070
     2
1070
   272
1070
     2
1070
   284
1070
     8
1070
   285
1070
     8
1070
   286
1070
     8
1002
}
  0
DIMENSION
  5
1F8E
330
1E
100
AcDbEntity
  8
BEM
100
AcDbDimension
  2
*D5
 10
321.5980555092778
 20
408.7081322933308
 30
0.0
 11
315.0980555092776
 21
389.8414656266642
 31
0.0
 70
    32
 71
     5
 42
3.000000000000056
  3
Standard
100
AcDbAlignedDimension
 13
304.6832613544288
 23
411.7081322933309
 33
0.0
 14
304.6832613544288
 24
408.7081322933308
 34
0.0
 50
90.0
100
AcDbRotatedDimension
1001
ACAD
1000
DSTYLE
1002
{
1070
    40
1040
2.0
1070
    41
1040
3.5
1070
    42
1040
1.0
1070
    43
1040
7.0
1070
    44
1040
1.0
1070
    73
1070
     0
1070
    74
1070
     0
1070
    77
1070
     1
1070
    78
1070
     8
1070
    79
1070
     2
1070
   140
1040
3.5
1070
   141
1040
1.5
1070
   146
1040
0.5
1070
   147
1040
1.5
1070
   172
1070
     1
1070
   178
1070
     1
1070
   179
1070
     2
1070
   271
1070
     2
1070
   272
1070
     2
1070
   284
1070
     8
1070
   285
1070
     8
1070
   286
1070
     8
1002
}
  0
DIMENSION
  5
1F8F
330
1E
100
AcDbEntity
  8
BEM
100
AcDbDimension
  2
*D6
 10
273.9332613544287
 20
474.0225605138485
 30
0.0
 11
223.6832613544287
 21
480.5225605138486
 31
0.0
 70
    32
 71
     5
 42
100.5
  3
Standard
100
AcDbAlignedDimension
 13
173.4332613544287
 23
457.2081322933309
 33
0.0
 14
273.9332613544287
 24
457.2081322933309
 34
0.0
100
AcDbRotatedDimension
1001
ACAD
1000
DSTYLE
1002
{
1070
    40
1040
2.0
1070
    41
1040
3.5
1070
    42
1040
1.0
1070
    43
1040
7.0
1070
    44
1040
1.0
1070
    73
1070
     0
1070
    74
1070
     0
1070
    77
1070
     1
1070
    78
1070
     8
1070
    79
1070
     2
1070
   140
1040
3.5
1070
   141
1040
1.5
1070
   146
1040
0.5
1070
   147
1040
1.5
1070
   172
1070
     1
1070
   178
1070
     1
1070
   179
1070
     2
1070
   271
1070
     2
1070
   272
1070
     2
1070
   284
1070
     8
1070
   285
1070
     8
1070
   286
1070
     8
1002
}
  0
TEXT
  5
1F90
330
1E
100
AcDbEntity
  8
TEXT
 62
     1
100
AcDbText
 10
310.0416362461659
 20
467.1231158954945
 30
0.0
 40
7.0
  1
DIN933
 41
0.8
  7
GREEKS
100
AcDbText
  0
LWPOLYLINE
  5
1F91
330
1E
100
AcDbEntity
  8
VERDECKT
100
AcDbPolyline
 90
        6
 70
     1
 43
0.0
 10
215.1832613544288
 20
240.2386583828389
 10
223.6832613544287
 20
235.3311810947271
 10
232.1832613544287
 20
240.2386583828389
 10
232.1832613544287
 20
250.0536129590626
 10
223.6832613544287
 20
254.9610902471743
 10
215.1832613544288
 20
250.0536129590626
  0
LINE
  5
1F92
330
1E
100
AcDbEntity
  8
STEMPEL
100
AcDbLine
 10
142.6832613544289
 20
413.9081322933306
 30
0.0
 11
142.6832613544287
 21
411.7081322933307
 31
0.0
  0
LINE
  5
1F93
330
1E
100
AcDbEntity
  8
STEMPEL
100
AcDbLine
 10
142.6832613544287
 20
408.7081322933306
 30
0.0
 11
142.6832613544287
 21
406.5081322933306
 31
0.0
  0
LINE
  5
1F94
330
1E
100
AcDbEntity
  8
MITTEL
100
AcDbLine
 10
154.6832613544294
 20
424.2046730933306
 30
0.0
 11
154.6832613544285
 21
383.9081322933308
 31
0.0
  0
LINE
  5
1F95
330
1E
100
AcDbEntity
  8
STEMPEL
100
AcDbLine
 10
149.6832613544289
 20
404.9081322933306
 30
0.0
 11
159.6832613544289
 21
404.9081322933306
 31
0.0
  0
LINE
  5
1F96
330
1E
100
AcDbEntity
  8
STEMPEL
100
AcDbLine
 10
159.6832613544289
 20
406.5081322933307
 30
0.0
 11
159.6832613544289
 21
404.9081322933306
 31
0.0
  0
LINE
  5
1F97
330
1E
100
AcDbEntity
  8
STEMPEL
100
AcDbLine
 10
149.6832613544292
 20
406.5081322933307
 30
0.0
 11
149.6832613544289
 21
404.9081322933306
 31
0.0
  0
LINE
  5
1F98
330
1E
100
AcDbEntity
  8
STEMPEL
100
AcDbLine
 10
153.0008029889103
 20
406.5081322933306
 30
0.0
 11
153.0008029889103
 21
408.7081322933307
 31
0.0
  0
LINE
  5
1F99
330
1E
100
AcDbEntity
  8
STEMPEL
100
AcDbLine
 10
153.0008029889103
 20
411.7081322933307
 30
0.0
 11
153.0008029889101
 21
413.9081322933308
 31
0.0
  0
LINE
  5
1F9A
330
1E
100
AcDbEntity
  8
STEMPEL
100
AcDbLine
 10
148.4332613544289
 20
410.4581322933308
 30
0.0
 11
160.9332613544289
 21
410.4581322933308
 31
0.0
  0
LINE
  5
1F9B
330
1E
100
AcDbEntity
  8
STEMPEL
100
AcDbLine
 10
148.4332613544289
 20
409.9581322933307
 30
0.0
 11
160.9332613544289
 21
409.9581322933308
 31
0.0
  0
LINE
  5
1F9C
330
1E
100
AcDbEntity
  8
STEMPEL
100
AcDbLine
 10
160.9332613544289
 20
410.4581322933307
 30
0.0
 11
160.9332613544289
 21
409.9581322933308
 31
0.0
  0
LINE
  5
1F9D
330
1E
100
AcDbEntity
  8
STEMPEL
100
AcDbLine
 10
148.4332613544289
 20
410.4581322933308
 30
0.0
 11
148.4332613544289
 21
409.9581322933308
 31
0.0
  0
LINE
  5
1F9E
330
1E
100
AcDbEntity
  8
HILF
  6
Continuous
100
AcDbLine
 10
151.8832613544292
 20
409.9581322933307
 30
0.0
 11
151.883261354429
 21
408.7081322933308
 31
0.0
  0
LINE
  5
1F9F
330
1E
100
AcDbEntity
  8
HILF
  6
Continuous
100
AcDbLine
 10
157.4832613544289
 20
409.9581322933308
 30
0.0
 11
157.4832613544289
 21
408.7081322933307
 31
0.0
  0
LINE
  5
1FA0
330
1E
100
AcDbEntity
  8
STEMPEL
100
AcDbLine
 10
158.6832613544289
 20
411.7081322933308
 30
0.0
 11
158.6832613544289
 21
410.4581322933308
 31
0.0
  0
LINE
  5
1FA1
330
1E
100
AcDbEntity
  8
STEMPEL
100
AcDbLine
 10
150.683261354429
 20
411.7081322933308
 30
0.0
 11
150.683261354429
 21
410.4581322933308
 31
0.0
  0
LINE
  5
1FA2
330
1E
100
AcDbEntity
  8
STEMPEL
100
AcDbLine
 10
157.4832613544289
 20
388.9081322933308
 30
0.0
 11
151.883261354429
 21
388.9081322933308
 31
0.0
  0
LINE
  5
1FA3
330
1E
100
AcDbEntity
  8
STEMPEL
100
AcDbLine
 10
158.6832613544289
 20
390.1081322933308
 30
0.0
 11
150.683261354429
 21
390.1081322933308
 31
0.0
  0
LINE
  5
1FA4
330
1E
100
AcDbEntity
  8
STEMPEL
100
AcDbLine
 10
158.6832613544289
 20
390.1081322933308
 30
0.0
 11
157.4832613544289
 21
388.9081322933308
 31
0.0
  0
LINE
  5
1FA5
330
1E
100
AcDbEntity
  8
STEMPEL
100
AcDbLine
 10
151.883261354429
 20
388.9081322933308
 30
0.0
 11
150.683261354429
 21
390.1081322933308
 31
0.0
  0
ARC
  5
1FA6
330
1E
100
AcDbEntity
  8
STEMPEL
100
AcDbCircle
 10
154.6832613544289
 20
408.4219678933307
 30
0.0
 40
10.7827052
100
AcDbArc
 50
95.32132063695506
 51
109.4721726186137
  0
LINE
  5
1FA7
330
1E
100
AcDbEntity
  8
STEMPEL
100
AcDbLine
 10
160.0743415492544
 20
419.2046730933308
 30
0.0
 11
155.6832613544292
 21
419.2046730933308
 31
0.0
  0
ARC
  5
1FA8
330
1E
100
AcDbEntity
  8
STEMPEL
100
AcDbCircle
 10
160.0748673205411
 20
416.2777221554673
 30
0.0
 40
2.926950985085932
100
AcDbArc
 50
58.53080547591871
 51
127.8806357171815
  0
LINE
  5
1FA9
330
1E
100
AcDbEntity
  8
STEMPEL
100
AcDbLine
 10
161.8720693092449
 20
418.6187479042642
 30
0.0
 11
161.4728704126483
 21
418.8492254946745
 31
0.0
  0
LINE
  5
1FAA
330
1E
100
AcDbEntity
  8
STEMPEL
100
AcDbLine
 10
161.8720693092449
 20
418.6187479042642
 30
0.0
 11
161.8720693092449
 21
413.9081322933307
 31
0.0
  0
LINE
  5
1FAB
330
1E
100
AcDbEntity
  8
STEMPEL
100
AcDbLine
 10
158.277665331837
 20
418.5879401280607
 30
0.0
 11
158.277665331837
 21
413.9081322933307
 31
0.0
  0
ARC
  5
1FAC
330
1E
100
AcDbEntity
  8
STEMPEL
100
AcDbCircle
 10
149.291655388317
 20
416.2777221554673
 30
0.0
 40
2.926950985085932
100
AcDbArc
 50
52.11936428281847
 51
121.4691945240813
  0
LINE
  5
1FAD
330
1E
100
AcDbEntity
  8
STEMPEL
100
AcDbLine
 10
151.0888573770211
 20
418.5879401280607
 30
0.0
 11
151.0888573770211
 21
413.9081322933307
 31
0.0
  0
LINE
  5
1FAE
330
1E
100
AcDbEntity
  8
STEMPEL
100
AcDbLine
 10
149.2968106296701
 20
419.2046730933308
 30
0.0
 11
149.2921811596233
 21
419.2046730933308
 31
0.0
  0
LINE
  5
1FAF
330
1E
100
AcDbEntity
  8
STEMPEL
100
AcDbLine
 10
147.494453399613
 20
418.6187479042642
 30
0.0
 11
147.8936522962098
 21
418.8492254946745
 31
0.0
  0
LINE
  5
1FB0
330
1E
100
AcDbEntity
  8
STEMPEL
100
AcDbLine
 10
147.494453399613
 20
418.6187479042642
 30
0.0
 11
147.494453399613
 21
413.9081322933307
 31
0.0
  0
LINE
  5
1FB1
330
1E
100
AcDbEntity
  8
HILF
100
AcDbLine
 10
151.3872613544289
 20
411.7081322933308
 30
0.0
 11
151.787261354429
 21
410.4581322933307
 31
0.0
  0
LINE
  5
1FB2
330
1E
100
AcDbEntity
  8
HILF
100
AcDbLine
 10
157.979261354429
 20
411.7081322933308
 30
0.0
 11
157.5792613544289
 21
410.4581322933309
 31
0.0
  0
LINE
  5
1FB3
330
1E
100
AcDbEntity
  8
HILF
  6
Continuous
100
AcDbLine
 10
157.4832613544289
 20
404.9081322933306
 30
0.0
 11
157.4832613544289
 21
388.9081322933308
 31
0.0
  0
LINE
  5
1FB4
330
1E
100
AcDbEntity
  8
STEMPEL
100
AcDbLine
 10
158.6832613544289
 20
404.9081322933306
 30
0.0
 11
158.6832613544289
 21
390.1081322933308
 31
0.0
  0
LINE
  5
1FB5
330
1E
100
AcDbEntity
  8
HILF
  6
Continuous
100
AcDbLine
 10
151.8832613544292
 20
404.9081322933306
 30
0.0
 11
151.883261354429
 21
388.9081322933308
 31
0.0
  0
LINE
  5
1FB6
330
1E
100
AcDbEntity
  8
STEMPEL
100
AcDbLine
 10
150.683261354429
 20
404.9081322933306
 30
0.0
 11
150.683261354429
 21
390.1081322933308
 31
0.0
  0
LINE
  5
1FB7
330
1E
100
AcDbEntity
  8
STEMPEL
100
AcDbLine
 10
150.683261354429
 20
409.9581322933307
 30
0.0
 11
150.683261354429
 21
408.7081322933308
 31
0.0
  0
LINE
  5
1FB8
330
1E
100
AcDbEntity
  8
STEMPEL
100
AcDbLine
 10
158.6832613544289
 20
409.9581322933307
 30
0.0
 11
158.6832613544289
 21
408.7081322933308
 31
0.0
  0
LINE
  5
1FB9
330
1E
100
AcDbEntity
  8
STEMPEL
100
AcDbLine
 10
155.6832613544292
 20
417.2046730933308
 30
0.0
 11
153.6832613544292
 21
417.2046730933308
 31
0.0
  0
LINE
  5
1FBA
330
1E
100
AcDbEntity
  8
STEMPEL
100
AcDbLine
 10
155.6832613544292
 20
419.2046730933308
 30
0.0
 11
155.6832613544292
 21
417.2046730933308
 31
0.0
  0
LINE
  5
1FBB
330
1E
100
AcDbEntity
  8
STEMPEL
100
AcDbLine
 10
153.6832613544292
 20
419.2046730933308
 30
0.0
 11
153.6832613544292
 21
417.2046730933308
 31
0.0
  0
LINE
  5
1FBC
330
1E
100
AcDbEntity
  8
STEMPEL
100
AcDbLine
 10
153.6832613544292
 20
419.2046730933308
 30
0.0
 11
149.292181159613
 21
419.2046730933308
 31
0.0
  0
ARC
  5
1FBD
330
1E
100
AcDbEntity
  8
STEMPEL
100
AcDbCircle
 10
154.6832613544289
 20
408.4219678933307
 30
0.0
 40
10.7827052
100
AcDbArc
 50
70.52782738138624
 51
84.67867936304493
  0
ARC
  5
1FBE
330
1E
100
AcDbEntity
  8
STEMPEL
100
AcDbCircle
 10
292.6832613544285
 20
408.4219678933309
 30
0.0
 40
10.7827052
100
AcDbArc
 50
95.32132063695506
 51
109.4721726186137
  0
LINE
  5
1FBF
330
1E
100
AcDbEntity
  8
STEMPEL
100
AcDbLine
 10
293.6832613544283
 20
419.2046730933309
 30
0.0
 11
298.0743415492444
 21
419.2046730933308
 31
0.0
  0
LINE
  5
1FC0
330
1E
100
AcDbEntity
  8
STEMPEL
100
AcDbLine
 10
293.6832613544283
 20
419.2046730933309
 30
0.0
 11
293.6832613544283
 21
417.204673093331
 31
0.0
  0
LINE
  5
1FC1
330
1E
100
AcDbEntity
  8
STEMPEL
100
AcDbLine
 10
291.6832613544283
 20
419.2046730933308
 30
0.0
 11
291.6832613544283
 21
417.204673093331
 31
0.0
  0
LINE
  5
1FC2
330
1E
100
AcDbEntity
  8
STEMPEL
100
AcDbLine
 10
291.6832613544283
 20
417.204673093331
 30
0.0
 11
293.6832613544283
 21
417.204673093331
 31
0.0
  0
LINE
  5
1FC3
330
1E
100
AcDbEntity
  8
STEMPEL
100
AcDbLine
 10
288.6832613544285
 20
409.9581322933308
 30
0.0
 11
288.6832613544285
 21
408.7081322933308
 31
0.0
  0
LINE
  5
1FC4
330
1E
100
AcDbEntity
  8
STEMPEL
100
AcDbLine
 10
296.6832613544285
 20
409.9581322933308
 30
0.0
 11
296.6832613544285
 21
408.7081322933308
 31
0.0
  0
LINE
  5
1FC5
330
1E
100
AcDbEntity
  8
STEMPEL
100
AcDbLine
 10
296.6832613544285
 20
404.9081322933308
 30
0.0
 11
296.6832613544285
 21
390.1081322933309
 31
0.0
  0
LINE
  5
1FC6
330
1E
100
AcDbEntity
  8
HILF
  6
Continuous
100
AcDbLine
 10
295.4832613544283
 20
404.9081322933306
 30
0.0
 11
295.4832613544285
 21
388.9081322933309
 31
0.0
  0
LINE
  5
1FC7
330
1E
100
AcDbEntity
  8
STEMPEL
100
AcDbLine
 10
288.6832613544285
 20
404.9081322933308
 30
0.0
 11
288.6832613544285
 21
390.1081322933309
 31
0.0
  0
LINE
  5
1FC8
330
1E
100
AcDbEntity
  8
HILF
  6
Continuous
100
AcDbLine
 10
289.8832613544286
 20
404.9081322933306
 30
0.0
 11
289.8832613544286
 21
388.9081322933309
 31
0.0
  0
LINE
  5
1FC9
330
1E
100
AcDbEntity
  8
HILF
100
AcDbLine
 10
289.3872613544285
 20
411.7081322933309
 30
0.0
 11
289.7872613544286
 21
410.4581322933309
 31
0.0
  0
LINE
  5
1FCA
330
1E
100
AcDbEntity
  8
HILF
100
AcDbLine
 10
295.9792613544286
 20
411.7081322933309
 30
0.0
 11
295.5792613544285
 21
410.4581322933308
 31
0.0
  0
LINE
  5
1FCB
330
1E
100
AcDbEntity
  8
STEMPEL
100
AcDbLine
 10
299.8720693092445
 20
418.6187479042643
 30
0.0
 11
299.8720693092445
 21
413.9081322933308
 31
0.0
  0
LINE
  5
1FCC
330
1E
100
AcDbEntity
  8
STEMPEL
100
AcDbLine
 10
299.8720693092445
 20
418.6187479042643
 30
0.0
 11
299.4728704126477
 21
418.8492254946746
 31
0.0
  0
LINE
  5
1FCD
330
1E
100
AcDbEntity
  8
STEMPEL
100
AcDbLine
 10
298.0697120791873
 20
419.2046730933308
 30
0.0
 11
298.0743415492342
 21
419.2046730933308
 31
0.0
  0
LINE
  5
1FCE
330
1E
100
AcDbEntity
  8
STEMPEL
100
AcDbLine
 10
296.2776653318364
 20
418.5879401280608
 30
0.0
 11
296.2776653318364
 21
413.9081322933308
 31
0.0
  0
ARC
  5
1FCF
330
1E
100
AcDbEntity
  8
STEMPEL
100
AcDbCircle
 10
298.0748673205404
 20
416.2777221554674
 30
0.0
 40
2.926950985085932
100
AcDbArc
 50
58.53080547591871
 51
127.8806357171815
  0
LINE
  5
1FD0
330
1E
100
AcDbEntity
  8
STEMPEL
100
AcDbLine
 10
289.0888573770204
 20
418.5879401280608
 30
0.0
 11
289.0888573770204
 21
413.9081322933308
 31
0.0
  0
LINE
  5
1FD1
330
1E
100
AcDbEntity
  8
STEMPEL
100
AcDbLine
 10
285.4944533996126
 20
418.6187479042643
 30
0.0
 11
285.4944533996126
 21
413.9081322933308
 31
0.0
  0
LINE
  5
1FD2
330
1E
100
AcDbEntity
  8
STEMPEL
100
AcDbLine
 10
285.4944533996126
 20
418.6187479042643
 30
0.0
 11
285.8936522962091
 21
418.8492254946746
 31
0.0
  0
ARC
  5
1FD3
330
1E
100
AcDbEntity
  8
STEMPEL
100
AcDbCircle
 10
287.2916553883164
 20
416.2777221554674
 30
0.0
 40
2.926950985085932
100
AcDbArc
 50
52.11936428281847
 51
121.4691945240813
  0
LINE
  5
1FD4
330
1E
100
AcDbEntity
  8
STEMPEL
100
AcDbLine
 10
287.2921811596031
 20
419.2046730933308
 30
0.0
 11
291.6832613544283
 21
419.2046730933309
 31
0.0
  0
ARC
  5
1FD5
330
1E
100
AcDbEntity
  8
STEMPEL
100
AcDbCircle
 10
292.6832613544285
 20
408.4219678933309
 30
0.0
 40
10.7827052
100
AcDbArc
 50
70.52782738138624
 51
84.67867936304493
  0
LINE
  5
1FD6
330
1E
100
AcDbEntity
  8
STEMPEL
100
AcDbLine
 10
295.4832613544285
 20
388.9081322933309
 30
0.0
 11
296.6832613544285
 21
390.1081322933309
 31
0.0
  0
LINE
  5
1FD7
330
1E
100
AcDbEntity
  8
STEMPEL
100
AcDbLine
 10
288.6832613544285
 20
390.1081322933309
 30
0.0
 11
289.8832613544286
 21
388.9081322933309
 31
0.0
  0
LINE
  5
1FD8
330
1E
100
AcDbEntity
  8
STEMPEL
100
AcDbLine
 10
288.6832613544285
 20
390.1081322933309
 30
0.0
 11
296.6832613544285
 21
390.1081322933309
 31
0.0
  0
LINE
  5
1FD9
330
1E
100
AcDbEntity
  8
STEMPEL
100
AcDbLine
 10
289.8832613544286
 20
388.9081322933309
 30
0.0
 11
295.4832613544285
 21
388.9081322933309
 31
0.0
  0
LINE
  5
1FDA
330
1E
100
AcDbEntity
  8
STEMPEL
100
AcDbLine
 10
296.6832613544285
 20
411.7081322933309
 30
0.0
 11
296.6832613544285
 21
410.4581322933309
 31
0.0
  0
LINE
  5
1FDB
330
1E
100
AcDbEntity
  8
STEMPEL
100
AcDbLine
 10
288.6832613544285
 20
411.7081322933309
 30
0.0
 11
288.6832613544285
 21
410.4581322933309
 31
0.0
  0
LINE
  5
1FDC
330
1E
100
AcDbEntity
  8
HILF
  6
Continuous
100
AcDbLine
 10
289.8832613544286
 20
409.9581322933309
 30
0.0
 11
289.8832613544286
 21
408.7081322933308
 31
0.0
  0
LINE
  5
1FDD
330
1E
100
AcDbEntity
  8
HILF
  6
Continuous
100
AcDbLine
 10
295.4832613544283
 20
409.9581322933308
 30
0.0
 11
295.4832613544285
 21
408.7081322933308
 31
0.0
  0
LINE
  5
1FDE
330
1E
100
AcDbEntity
  8
STEMPEL
100
AcDbLine
 10
298.9332613544285
 20
410.4581322933309
 30
0.0
 11
298.9332613544285
 21
409.9581322933309
 31
0.0
  0
LINE
  5
1FDF
330
1E
100
AcDbEntity
  8
STEMPEL
100
AcDbLine
 10
286.4332613544285
 20
410.4581322933308
 30
0.0
 11
286.4332613544285
 21
409.9581322933309
 31
0.0
  0
LINE
  5
1FE0
330
1E
100
AcDbEntity
  8
STEMPEL
100
AcDbLine
 10
298.9332613544285
 20
409.9581322933308
 30
0.0
 11
286.4332613544285
 21
409.9581322933309
 31
0.0
  0
LINE
  5
1FE1
330
1E
100
AcDbEntity
  8
STEMPEL
100
AcDbLine
 10
298.9332613544285
 20
410.4581322933309
 30
0.0
 11
286.4332613544285
 21
410.4581322933309
 31
0.0
  0
LINE
  5
1FE2
330
1E
100
AcDbEntity
  8
HILF
100
AcDbLine
 10
214.3191009542646
 20
462.4081322933308
 30
0.0
 11
214.3191009542644
 21
463.9081322933306
 31
0.0
  0
LINE
  5
1FE3
330
1E
100
AcDbEntity
  8
HILF
100
AcDbLine
 10
233.0474217545928
 20
462.4081322933309
 30
0.0
 11
233.0474217545928
 21
463.9081322933308
 31
0.0
  0
ARC
  5
1FE4
330
1E
100
AcDbEntity
  8
STEMPEL
100
AcDbCircle
 10
178.5278966650361
 20
458.9081322933309
 30
0.0
 40
5.0
100
AcDbArc
 50
90.0
 51
140.2576374969469
  0
ARC
  5
1FE5
330
1E
100
AcDbEntity
  8
STEMPEL
100
AcDbCircle
 10
268.8386260438211
 20
458.9081322933309
 30
0.0
 40
5.0
100
AcDbArc
 50
39.74236250305309
 51
90.0
  0
ARC
  5
1FE6
330
1E
100
AcDbEntity
  8
HILF
100
AcDbCircle
 10
266.6832613544287
 20
245.1461356709507
 30
0.0
 40
6.0
100
AcDbArc
 50
307.6584620062076
 51
52.34153799379142
  0
ARC
  5
1FE7
330
1E
100
AcDbEntity
  8
HILF
100
AcDbCircle
 10
180.6832613544287
 20
245.1461356709507
 30
0.0
 40
6.0
100
AcDbArc
 50
127.6584620062086
 51
232.3415379937924
  0
LINE
  5
1FE8
330
1E
100
AcDbEntity
  8
STEMPEL
100
AcDbLine
 10
294.3657197199471
 20
411.7081322933309
 30
0.0
 11
294.3657197199474
 21
413.9081322933309
 31
0.0
  0
LINE
  5
1FE9
330
1E
100
AcDbEntity
  8
STEMPEL
100
AcDbLine
 10
294.3657197199471
 20
406.5081322933307
 30
0.0
 11
294.3657197199471
 21
408.7081322933308
 31
0.0
  0
LINE
  5
1FEA
330
1E
100
AcDbEntity
  8
STEMPEL
100
AcDbLine
 10
268.8386260438211
 20
463.9081322933309
 30
0.0
 11
178.5278966650361
 21
463.9081322933308
 31
0.0
  0
LINE
  5
1FEB
330
1E
100
AcDbEntity
  8
HILF
100
AcDbLine
 10
233.0474217545928
 20
240.3961356709507
 30
0.0
 11
270.3489809290826
 21
240.3961356709507
 31
0.0
  0
LINE
  5
1FEC
330
1E
100
AcDbEntity
  8
HILF
100
AcDbLine
 10
233.0474217545928
 20
249.8961356709507
 30
0.0
 11
270.3489809290826
 21
249.8961356709507
 31
0.0
  0
CIRCLE
  5
1FED
330
1E
100
AcDbEntity
  8
HILF
100
AcDbCircle
 10
223.6832613544287
 20
245.1461356709507
 30
0.0
 40
9.5
  0
TEXT
  5
1FEE
330
1E
100
AcDbEntity
  8
TEXT
 62
     1
100
AcDbText
 10
217.498574738511
 20
239.9711356709507
 30
0.0
 40
3.5
  1
DN100
 41
0.8
 72
     1
 11
223.698574738511
 21
239.9711356709507
 31
0.0
100
AcDbText
  0
TEXT
  5
1FEF
330
1E
100
AcDbEntity
  8
TEXT
 62
     1
100
AcDbText
 10
218.9778073006096
 20
247.0731356709507
 30
0.0
 40
3.5
  1
LORO
 41
0.8
 72
     1
 11
224.0444739672763
 21
247.0731356709507
 31
0.0
100
AcDbText
  0
CIRCLE
  5
1FF0
330
1E
100
AcDbEntity
  8
HILF
100
AcDbCircle
 10
223.6832613544287
 20
245.1461356709507
 30
0.0
 40
10.5
  0
LINE
  5
1FF1
330
1E
100
AcDbEntity
  8
HILF
100
AcDbLine
 10
177.0175417797749
 20
240.3961356709507
 30
0.0
 11
214.3191009542649
 21
240.3961356709507
 31
0.0
  0
LINE
  5
1FF2
330
1E
100
AcDbEntity
  8
HILF
100
AcDbLine
 10
177.0175417797749
 20
249.8961356709507
 30
0.0
 11
214.3191009542649
 21
249.8961356709507
 31
0.0
  0
LINE
  5
1FF3
330
1E
100
AcDbEntity
  8
STEMPEL
100
AcDbLine
 10
171.2332613544287
 20
262.6461356709511
 30
0.0
 11
171.2332613544287
 21
227.646135670951
 31
0.0
  0
LINE
  5
1FF4
330
1E
100
AcDbEntity
  8
STEMPEL
100
AcDbLine
 10
276.1332613544288
 20
262.6461356709508
 30
0.0
 11
276.1332613544288
 21
227.6461356709507
 31
0.0
  0
LINE
  5
1FF5
330
1E
100
AcDbEntity
  8
MITTEL
100
AcDbLine
 10
292.6832613544288
 20
256.6461356709508
 30
0.0
 11
292.6832613544288
 21
233.6461356709508
 31
0.0
  0
ARC
  5
1FF6
330
1E
100
AcDbEntity
  8
STEMPEL
100
AcDbCircle
 10
284.6832613544287
 20
245.1461356709507
 30
0.0
 40
20.0
100
AcDbArc
 50
298.9550243718607
 51
61.04497562813933
  0
LINE
  5
1FF7
330
1E
100
AcDbEntity
  8
STEMPEL
100
AcDbLine
 10
153.0008029889108
 20
227.6461356709507
 30
0.0
 11
294.3657197199474
 21
227.6461356709507
 31
0.0
  0
LINE
  5
1FF8
330
1E
100
AcDbEntity
  8
STEMPEL
100
AcDbLine
 10
153.0008029889094
 20
262.6461356709508
 30
0.0
 11
294.3657197199474
 21
262.6461356709508
 31
0.0
  0
LINE
  5
1FF9
330
1E
100
AcDbEntity
  8
MITTEL
100
AcDbLine
 10
223.6832613544287
 20
267.6461356709507
 30
0.0
 11
223.6832613544287
 21
222.6461356709507
 31
0.0
  0
LINE
  5
1FFA
330
1E
100
AcDbEntity
  8
MITTEL
100
AcDbLine
 10
137.6832613544286
 20
245.1461356709507
 30
0.0
 11
309.6832613544287
 21
245.1461356709507
 31
0.0
  0
HATCH
  5
1FFB
330
1E
100
AcDbEntity
  8
SCHRAFF
100
AcDbHatch
 10
0.0
 20
0.0
 30
0.0
210
0.0
220
0.0
230
1.0
  2
_USER
 70
     0
 71
     1
 91
        2
 92
        7
 72
     1
 73
     1
 93
        4
 10
215.1832613544285
 20
343.7081322933309
 42
0.0
 10
215.1832613544285
 20
346.7081322933309
 42
0.0
 10
212.6832613544287
 20
346.7081322933309
 42
-0.0250418312599962
 10
212.1833659592281
 20
346.7331845957307
 42
0.4166615944819538
 97
        4
330
2011
330
200F
330
1FFC
330
2000
 92
        7
 72
     1
 73
     1
 93
        4
 10
232.1832613544285
 20
343.7081322933309
 42
0.4166615944819427
 10
235.1831567496289
 20
346.7331845957307
 42
-0.025041831259972
 10
234.6832613544287
 20
346.7081322933309
 42
0.0
 10
232.1832613544285
 20
346.7081322933309
 42
0.0
 97
        4
330
2008
330
2011
330
1FFF
330
1FFD
 75
     0
 76
     0
 52
0.0
 41
0.1
 77
     0
 78
     1
 53
0.0
 43
-357.3922263680208
 44
14.7339164174623
 45
0.0
 46
0.1
 79
     0
 47
0.0837457659635581
 98
        2
 10
213.3914433526933
 20
344.9179302845644
 10
233.0793441392879
 20
345.3366598469843
  0
ARC
  5
1FFC
102
{ACAD_REACTORS
330
1FFB
102
}
330
1E
100
AcDbEntity
  8
SCHRAFF
100
AcDbCircle
 10
215.1832613544285
 20
346.7081322933309
 30
0.0
 40
3.0
100
AcDbArc
 50
179.5215307073227
 51
270.0
  0
ARC
  5
1FFD
102
{ACAD_REACTORS
330
1FFB
102
}
330
1E
100
AcDbEntity
  8
SCHRAFF
100
AcDbCircle
 10
232.1832613544285
 20
346.7081322933309
 30
0.0
 40
3.0
100
AcDbArc
 50
270.0
 51
0.4784692926755988
  0
LINE
  5
1FFE
330
1E
100
AcDbEntity
  8
STEMPEL
100
AcDbLine
 10
223.6832613544285
 20
346.7081322933308
 30
0.0
 11
223.6832613544285
 21
333.2081322933309
 31
0.0
  0
LINE
  5
1FFF
102
{ACAD_REACTORS
330
1FFB
102
}
330
1E
100
AcDbEntity
  8
STEMPEL
100
AcDbLine
 10
232.1832613544285
 20
346.7081322933308
 30
0.0
 11
232.1832613544285
 21
333.2081322933309
 31
0.0
  0
LINE
  5
2000
102
{ACAD_REACTORS
330
1FFB
102
}
330
1E
100
AcDbEntity
  8
STEMPEL
100
AcDbLine
 10
215.1832613544285
 20
346.7081322933308
 30
0.0
 11
215.1832613544285
 21
333.2081322933309
 31
0.0
  0
LINE
  5
2001
330
1E
100
AcDbEntity
  8
STEMPEL
100
AcDbLine
 10
232.1832613544287
 20
333.2081322933309
 30
0.0
 11
215.1832613544285
 21
333.2081322933309
 31
0.0
  0
ARC
  5
2002
330
1E
100
AcDbEntity
  8
STEMPEL
100
AcDbCircle
 10
202.8105717512862
 20
357.208132293331
 30
0.0
 40
0.7999999999999999
100
AcDbArc
 50
30.00000000000055
 51
90.0
  0
ARC
  5
2003
330
1E
100
AcDbEntity
  8
STEMPEL
100
AcDbCircle
 10
244.5559509575716
 20
357.208132293331
 30
0.0
 40
0.7999999999999999
100
AcDbArc
 50
90.0
 51
149.9999999999994
  0
ARC
  5
2004
330
1E
100
AcDbEntity
  8
STEMPEL
100
AcDbCircle
 10
202.8105717512862
 20
357.208132293331
 30
0.0
 40
3.0
100
AcDbArc
 50
30.00000000000055
 51
90.0
  0
ARC
  5
2005
330
1E
100
AcDbEntity
  8
STEMPEL
100
AcDbCircle
 10
244.5559509575716
 20
357.208132293331
 30
0.0
 40
3.0
100
AcDbArc
 50
90.0
 51
149.9999999999994
  0
LINE
  5
2006
330
1E
100
AcDbEntity
  8
STEMPEL
100
AcDbLine
 10
202.8105717512862
 20
358.008132293331
 30
0.0
 11
176.4332613544287
 21
358.0081322933309
 31
0.0
  0
LINE
  5
2007
330
1E
100
AcDbEntity
  8
STEMPEL
100
AcDbLine
 10
202.8105717512862
 20
360.208132293331
 30
0.0
 11
176.4332613544287
 21
360.2081322933309
 31
0.0
  0
ARC
  5
2008
102
{ACAD_REACTORS
330
1FFB
102
}
330
1E
100
AcDbEntity
  8
STEMPEL
100
AcDbCircle
 10
234.6832613544287
 20
351.7081322933309
 30
0.0
 40
5.0
100
AcDbArc
 50
270.0
 51
329.9999999999995
  0
ARC
  5
2009
330
1E
100
AcDbEntity
  8
STEMPEL
100
AcDbCircle
 10
234.6832613544287
 20
351.7081322933309
 30
0.0
 40
2.799999999999999
100
AcDbArc
 50
270.0
 51
329.9999999999995
  0
LINE
  5
200A
330
1E
100
AcDbEntity
  8
STEMPEL
100
AcDbLine
 10
243.8631306345438
 20
357.608132293331
 30
0.0
 11
239.0133883733509
 21
349.2081322933309
 31
0.0
  0
LINE
  5
200B
330
1E
100
AcDbEntity
  8
STEMPEL
100
AcDbLine
 10
241.9578747462182
 20
358.7081322933309
 30
0.0
 11
237.1081324850253
 21
350.3081322933309
 31
0.0
  0
LINE
  5
200C
330
1E
100
AcDbEntity
  8
STEMPEL
100
AcDbLine
 10
205.4086479626395
 20
358.708132293331
 30
0.0
 11
210.2583902238322
 21
350.3081322933309
 31
0.0
  0
LINE
  5
200D
330
1E
100
AcDbEntity
  8
STEMPEL
100
AcDbLine
 10
203.5033920743136
 20
357.6081322933309
 30
0.0
 11
208.3531343355065
 21
349.2081322933309
 31
0.0
  0
ARC
  5
200E
330
1E
100
AcDbEntity
  8
STEMPEL
100
AcDbCircle
 10
212.6832613544287
 20
351.7081322933309
 30
0.0
 40
2.799999999999999
100
AcDbArc
 50
210.0000000000005
 51
270.0
  0
ARC
  5
200F
102
{ACAD_REACTORS
330
1FFB
102
}
330
1E
100
AcDbEntity
  8
STEMPEL
100
AcDbCircle
 10
212.6832613544287
 20
351.7081322933309
 30
0.0
 40
5.0
100
AcDbArc
 50
210.0000000000005
 51
270.0
  0
LINE
  5
2010
330
1E
100
AcDbEntity
  8
STEMPEL
100
AcDbLine
 10
234.6832613544285
 20
348.9081322933308
 30
0.0
 11
212.6832613544287
 21
348.9081322933308
 31
0.0
  0
LINE
  5
2011
102
{ACAD_REACTORS
330
1FFB
102
}
330
1E
100
AcDbEntity
  8
STEMPEL
100
AcDbLine
 10
234.6832613544285
 20
346.7081322933309
 30
0.0
 11
212.6832613544287
 21
346.7081322933309
 31
0.0
  0
LINE
  5
2012
330
1E
100
AcDbEntity
  8
STEMPEL
100
AcDbLine
 10
297.6832613544283
 20
406.5081322933308
 30
0.0
 11
297.6832613544285
 21
404.9081322933307
 31
0.0
  0
LINE
  5
2013
330
1E
100
AcDbEntity
  8
STEMPEL
100
AcDbLine
 10
287.6832613544285
 20
406.5081322933308
 30
0.0
 11
287.6832613544285
 21
404.9081322933307
 31
0.0
  0
LINE
  5
2014
330
1E
100
AcDbEntity
  8
STEMPEL
100
AcDbLine
 10
297.6832613544285
 20
404.9081322933307
 30
0.0
 11
287.6832613544285
 21
404.9081322933307
 31
0.0
  0
LINE
  5
2015
330
1E
100
AcDbEntity
  8
MITTEL
100
AcDbLine
 10
292.6832613544281
 20
424.2046730933307
 30
0.0
 11
292.683261354429
 21
383.9081322933309
 31
0.0
  0
ARC
  5
2016
330
1E
100
AcDbEntity
  8
STEMPEL
100
AcDbCircle
 10
279.1332613544288
 20
416.9081322933308
 30
0.0
 40
5.2
100
AcDbArc
 50
180.0
 51
270.0
  0
ARC
  5
2017
330
1E
100
AcDbEntity
  8
STEMPEL
100
AcDbCircle
 10
279.1332613544288
 20
403.5081322933309
 30
0.0
 40
5.2
100
AcDbArc
 50
90.0
 51
180.0
  0
ARC
  5
2018
330
1E
100
AcDbEntity
  8
STEMPEL
100
AcDbCircle
 10
168.2332613544289
 20
403.5081322933309
 30
0.0
 40
5.2
100
AcDbArc
 50
0.0
 51
90.0
  0
ARC
  5
2019
330
1E
100
AcDbEntity
  8
STEMPEL
100
AcDbCircle
 10
168.2332613544287
 20
416.9081322933309
 30
0.0
 40
5.2
100
AcDbArc
 50
270.0
 51
0.0
  0
ARC
  5
201A
330
1E
100
AcDbEntity
  8
STEMPEL
100
AcDbCircle
 10
168.2332613544289
 20
403.5081322933309
 30
0.0
 40
3.0
100
AcDbArc
 50
0.0
 51
90.0
  0
ARC
  5
201B
330
1E
100
AcDbEntity
  8
STEMPEL
100
AcDbCircle
 10
168.2332613544287
 20
416.9081322933309
 30
0.0
 40
3.0
100
AcDbArc
 50
270.0
 51
0.0
  0
ARC
  5
201C
330
1E
100
AcDbEntity
  8
STEMPEL
100
AcDbCircle
 10
279.1332613544288
 20
403.5081322933309
 30
0.0
 40
3.0
100
AcDbArc
 50
90.0
 51
180.0
  0
ARC
  5
201D
330
1E
100
AcDbEntity
  8
STEMPEL
100
AcDbCircle
 10
279.1332613544288
 20
416.9081322933308
 30
0.0
 40
3.0
100
AcDbArc
 50
180.0
 51
270.0
  0
LINE
  5
201E
330
1E
100
AcDbEntity
  8
STEMPEL
100
AcDbLine
 10
276.1332613544288
 20
457.2081322933309
 30
0.0
 11
276.1332613544288
 21
416.9081322933308
 31
0.0
  0
ARC
  5
201F
330
1E
100
AcDbEntity
  8
STEMPEL
100
AcDbCircle
 10
270.9332613544287
 20
457.2081322933309
 30
0.0
 40
5.2
100
AcDbArc
 50
0.0
 51
90.0
  0
LINE
  5
2020
330
1E
100
AcDbEntity
  8
STEMPEL
100
AcDbLine
 10
270.9332613544287
 20
462.4081322933309
 30
0.0
 11
176.4332613544287
 21
462.4081322933308
 31
0.0
  0
ARC
  5
2021
330
1E
100
AcDbEntity
  8
STEMPEL
100
AcDbCircle
 10
176.4332613544287
 20
457.2081322933309
 30
0.0
 40
5.2
100
AcDbArc
 50
90.0
 51
180.0
  0
LINE
  5
2022
330
1E
100
AcDbEntity
  8
STEMPEL
100
AcDbLine
 10
171.2332613544287
 20
457.2081322933309
 30
0.0
 11
171.2332613544287
 21
416.9081322933309
 31
0.0
  0
LINE
  5
2023
330
1E
100
AcDbEntity
  8
STEMPEL
100
AcDbLine
 10
171.2332613544289
 20
403.5081322933309
 30
0.0
 11
171.2332613544287
 21
363.2081322933309
 31
0.0
  0
ARC
  5
2024
330
1E
100
AcDbEntity
  8
STEMPEL
100
AcDbCircle
 10
176.4332613544287
 20
363.2081322933309
 30
0.0
 40
5.2
100
AcDbArc
 50
180.0
 51
270.0
  0
LINE
  5
2025
330
1E
100
AcDbEntity
  8
STEMPEL
100
AcDbLine
 10
270.9332613544287
 20
358.0081322933309
 30
0.0
 11
244.5559509575716
 21
358.008132293331
 31
0.0
  0
ARC
  5
2026
330
1E
100
AcDbEntity
  8
STEMPEL
100
AcDbCircle
 10
270.9332613544287
 20
363.2081322933309
 30
0.0
 40
5.2
100
AcDbArc
 50
270.0
 51
0.0
  0
LINE
  5
2027
330
1E
100
AcDbEntity
  8
STEMPEL
100
AcDbLine
 10
276.1332613544288
 20
403.5081322933309
 30
0.0
 11
276.1332613544288
 21
363.2081322933309
 31
0.0
  0
LINE
  5
2028
330
1E
100
AcDbEntity
  8
STEMPEL
100
AcDbLine
 10
168.2332613544287
 20
413.9081322933309
 30
0.0
 11
142.6832613544287
 21
413.9081322933309
 31
0.0
  0
LINE
  5
2029
330
1E
100
AcDbEntity
  8
STEMPEL
100
AcDbLine
 10
168.2332613544287
 20
411.7081322933309
 30
0.0
 11
142.6832613544287
 21
411.7081322933309
 31
0.0
  0
LINE
  5
202A
330
1E
100
AcDbEntity
  8
STEMPEL
100
AcDbLine
 10
168.2332613544289
 20
408.7081322933308
 30
0.0
 11
142.6832613544287
 21
408.7081322933309
 31
0.0
  0
LINE
  5
202B
330
1E
100
AcDbEntity
  8
STEMPEL
100
AcDbLine
 10
168.2332613544289
 20
406.5081322933308
 30
0.0
 11
142.6832613544287
 21
406.5081322933309
 31
0.0
  0
ARC
  5
202C
330
1E
100
AcDbEntity
  8
STEMPEL
100
AcDbCircle
 10
270.9332613544287
 20
363.2081322933309
 30
0.0
 40
3.0
100
AcDbArc
 50
270.0
 51
0.0
  0
ARC
  5
202D
330
1E
100
AcDbEntity
  8
STEMPEL
100
AcDbCircle
 10
176.4332613544287
 20
363.2081322933309
 30
0.0
 40
3.0
100
AcDbArc
 50
180.0
 51
270.0
  0
ARC
  5
202E
330
1E
100
AcDbEntity
  8
STEMPEL
100
AcDbCircle
 10
176.4332613544287
 20
457.2081322933309
 30
0.0
 40
3.0
100
AcDbArc
 50
90.0
 51
180.0
  0
ARC
  5
202F
330
1E
100
AcDbEntity
  8
STEMPEL
100
AcDbCircle
 10
270.9332613544287
 20
457.2081322933309
 30
0.0
 40
3.0
100
AcDbArc
 50
0.0
 51
90.0
  0
LINE
  5
2030
330
1E
100
AcDbEntity
  8
STEMPEL
100
AcDbLine
 10
270.9332613544287
 20
460.2081322933309
 30
0.0
 11
176.4332613544287
 21
460.2081322933308
 31
0.0
  0
LINE
  5
2031
330
1E
100
AcDbEntity
  8
STEMPEL
100
AcDbLine
 10
173.4332613544287
 20
403.5081322933309
 30
0.0
 11
173.4332613544287
 21
363.2081322933309
 31
0.0
  0
LINE
  5
2032
330
1E
100
AcDbEntity
  8
STEMPEL
100
AcDbLine
 10
273.9332613544287
 20
403.5081322933309
 30
0.0
 11
273.9332613544287
 21
363.2081322933309
 31
0.0
  0
LINE
  5
2033
330
1E
100
AcDbEntity
  8
STEMPEL
100
AcDbLine
 10
273.9332613544287
 20
457.2081322933309
 30
0.0
 11
273.9332613544287
 21
416.9081322933308
 31
0.0
  0
LINE
  5
2034
330
1E
100
AcDbEntity
  8
STEMPEL
100
AcDbLine
 10
173.4332613544287
 20
457.2081322933309
 30
0.0
 11
173.4332613544287
 21
416.9081322933309
 31
0.0
  0
LINE
  5
2035
330
1E
100
AcDbEntity
  8
STEMPEL
100
AcDbLine
 10
270.9332613544287
 20
360.2081322933309
 30
0.0
 11
244.5559509575716
 21
360.2081322933309
 31
0.0
  0
LINE
  5
2036
330
1E
100
AcDbEntity
  8
STEMPEL
100
AcDbLine
 10
304.6832613544288
 20
406.5081322933308
 30
0.0
 11
279.1332613544288
 21
406.5081322933308
 31
0.0
  0
LINE
  5
2037
330
1E
100
AcDbEntity
  8
STEMPEL
100
AcDbLine
 10
304.6832613544288
 20
413.9081322933308
 30
0.0
 11
279.1332613544288
 21
413.9081322933308
 31
0.0
  0
LINE
  5
2038
330
1E
100
AcDbEntity
  8
STEMPEL
100
AcDbLine
 10
304.6832613544288
 20
408.7081322933308
 30
0.0
 11
304.6832613544288
 21
406.5081322933308
 31
0.0
  0
LINE
  5
2039
330
1E
100
AcDbEntity
  8
STEMPEL
100
AcDbLine
 10
304.6832613544285
 20
413.9081322933308
 30
0.0
 11
304.6832613544288
 21
411.7081322933309
 31
0.0
  0
LINE
  5
203A
330
1E
100
AcDbEntity
  8
STEMPEL
100
AcDbLine
 10
304.6832613544288
 20
408.7081322933308
 30
0.0
 11
279.1332613544288
 21
408.7081322933308
 31
0.0
  0
LINE
  5
203B
330
1E
100
AcDbEntity
  8
STEMPEL
100
AcDbLine
 10
304.6832613544288
 20
411.7081322933309
 30
0.0
 11
279.1332613544288
 21
411.7081322933308
 31
0.0
  0
LINE
  5
203C
330
1E
100
AcDbEntity
  8
MITTEL
100
AcDbLine
 10
309.6832613544287
 20
410.2081322933308
 30
0.0
 11
137.6832613544287
 21
410.2081322933308
 31
0.0
  0
LINE
  5
203D
330
1E
100
AcDbEntity
  8
MITTEL
100
AcDbLine
 10
223.6832613544287
 20
468.9081322933308
 30
0.0
 11
223.6832613544287
 21
328.2081322933309
 31
0.0
  0
LINE
  5
203E
330
1E
100
AcDbEntity
  8
TEXT
 62
     2
100
AcDbLine
 10
307.9217432501206
 20
476.8081000954073
 30
0.0
 11
292.6832613544281
 21
415.5788584925799
 31
0.0
  0
LINE
  5
203F
330
1E
100
AcDbEntity
  8
TEXT
 62
     2
100
AcDbLine
 10
307.9217432501206
 20
476.8081000954073
 30
0.0
 11
378.9628288948221
 21
476.8081000954073
 31
0.0
  0
TEXT
  5
2040
330
1E
100
AcDbEntity
  8
TEXT
 62
     1
100
AcDbText
 10
310.0416362461659
 20
480.1880055123038
 30
0.0
 40
7.0
  1
Schraube M8x25
 41
0.8
  7
GREEKS
100
AcDbText
  0
DIMENSION
  5
2292
330
1E
100
AcDbEntity
  8
BEM
100
AcDbDimension
  2
*D7
 10
292.6832613544288
 20
208.7802564513681
 30
0.0
 11
223.6832613544287
 21
215.2802564513681
 31
0.0
 70
    32
 71
     5
 42
138.0
  3
Standard
100
AcDbAlignedDimension
 13
154.6832613544287
 23
233.646135670951
 33
0.0
 14
292.6832613544288
 24
233.6461356709508
 34
0.0
100
AcDbRotatedDimension
1001
ACAD
1000
DSTYLE
1002
{
1070
    40
1040
2.0
1070
    41
1040
3.5
1070
    42
1040
1.0
1070
    43
1040
7.0
1070
    44
1040
1.0
1070
    73
1070
     0
1070
    74
1070
     0
1070
    77
1070
     1
1070
    78
1070
     8
1070
    79
1070
     2
1070
   140
1040
3.5
1070
   141
1040
1.5
1070
   146
1040
0.5
1070
   147
1040
1.5
1070
   172
1070
     1
1070
   178
1070
     1
1070
   179
1070
     2
1070
   271
1070
     2
1070
   272
1070
     2
1070
   284
1070
     8
1070
   285
1070
     8
1070
   286
1070
     8
1002
}
  0
DIMENSION
  5
22FD
330
1E
100
AcDbEntity
  8
BEM
100
AcDbDimension
  2
*D8
 10
128.0504800146377
 20
360.2081322933309
 30
0.0
 11
121.5504800146377
 21
410.208132293331
 31
0.0
 70
    32
  1
<>.5
 71
     5
 42
100.0
  3
Standard
100
AcDbAlignedDimension
 13
176.4332613544287
 23
460.2081322933309
 33
0.0
 14
176.4332613544287
 24
360.2081322933309
 34
0.0
 50
90.0
100
AcDbRotatedDimension
1001
ACAD
1000
DSTYLE
1002
{
1070
    40
1040
2.0
1070
    41
1040
3.5
1070
    42
1040
1.0
1070
    43
1040
7.0
1070
    44
1040
1.0
1070
    73
1070
     0
1070
    74
1070
     0
1070
    77
1070
     1
1070
    78
1070
     8
1070
    79
1070
     2
1070
   140
1040
3.5
1070
   141
1040
1.5
1070
   146
1040
0.5
1070
   147
1040
1.5
1070
   172
1070
     1
1070
   178
1070
     1
1070
   179
1070
     2
1070
   271
1070
     2
1070
   272
1070
     2
1070
   284
1070
     8
1070
   285
1070
     8
1070
   286
1070
     8
1002
}
  0
ENDSEC
  0
SECTION
  2
OBJECTS
  0
DICTIONARY
  5
C
330
0
100
AcDbDictionary
281
     1
  3
ACAD_COLOR
350
DF
  3
ACAD_GROUP
350
D
  3
ACAD_LAYOUT
350
19
  3
ACAD_MATERIAL
350
DE
  3
ACAD_MLINESTYLE
350
16
  3
ACAD_PLOTSETTINGS
350
18
  3
ACAD_PLOTSTYLENAME
350
E
  3
AcDbVariableDictionary
350
EA
  0
DICTIONARY
  5
A0
330
1E
100
AcDbDictionary
280
     1
281
     1
  3
ACAD_LAYOUTSELFREF
360
D4
  0
DICTIONARY
  5
A2
330
1A
100
AcDbDictionary
280
     1
281
     1
  3
ACAD_LAYOUTSELFREF
360
D3
  0
DICTIONARY
  5
DF
102
{ACAD_REACTORS
330
C
102
}
330
C
100
AcDbDictionary
281
     1
  0
DICTIONARY
  5
D
102
{ACAD_REACTORS
330
C
102
}
330
C
100
AcDbDictionary
281
     1
  0
DICTIONARY
  5
19
102
{ACAD_REACTORS
330
C
102
}
330
C
100
AcDbDictionary
281
     1
  3
Layout1
350
1D
  3
Model
350
21
  0
DICTIONARY
  5
DE
102
{ACAD_REACTORS
330
C
102
}
330
C
100
AcDbDictionary
281
     1
  0
DICTIONARY
  5
16
102
{ACAD_REACTORS
330
C
102
}
330
C
100
AcDbDictionary
281
     1
  3
Standard
350
17
  0
DICTIONARY
  5
18
102
{ACAD_REACTORS
330
C
102
}
330
C
100
AcDbDictionary
281
     1
  0
ACDBDICTIONARYWDFLT
  5
E
102
{ACAD_REACTORS
330
C
102
}
330
C
100
AcDbDictionary
281
     1
  3
Normal
350
F
100
AcDbDictionaryWithDefault
340
F
  0
DICTIONARY
  5
EA
102
{ACAD_REACTORS
330
C
102
}
330
C
100
AcDbDictionary
281
     1
  3
DIMASSOC
350
EB
  3
PROJECTNAME
350
EC
  0
XRECORD
  5
D4
102
{ACAD_REACTORS
330
A0
102
}
330
A0
100
AcDbXrecord
280
     1
340
1E
  0
XRECORD
  5
D3
102
{ACAD_REACTORS
330
A2
102
}
330
A2
100
AcDbXrecord
280
     1
340
1A
  0
LAYOUT
  5
1D
102
{ACAD_REACTORS
330
19
102
}
330
19
100
AcDbPlotSettings
  1

  2
\\NT_WORK01\HP LaserJet 5000 PCL 6
  4

  6

 40
0.0
 41
0.0
 42
0.0
 43
0.0
 44
0.0
 45
0.0
 46
0.0
 47
0.0
 48
0.0
 49
0.0
140
0.0
141
0.0
142
1.0
143
1.0
 70
   688
 72
     0
 73
     0
 74
     5
  7

 75
    16
147
1.0
 76
     0
 77
     2
 78
   300
148
0.0
149
0.0
100
AcDbLayout
  1
Layout1
 70
     0
 71
     1
 10
0.0
 20
0.0
 11
12.0
 21
9.0
 12
0.0
 22
0.0
 32
0.0
 14
1.000000000000000E+20
 24
1.000000000000000E+20
 34
1.000000000000000E+20
 15
-1.000000000000000E+20
 25
-1.000000000000000E+20
 35
-1.000000000000000E+20
146
0.0
 13
0.0
 23
0.0
 33
0.0
 16
1.0
 26
0.0
 36
0.0
 17
0.0
 27
1.0
 37
0.0
 76
     0
330
1A
  0
LAYOUT
  5
21
102
{ACAD_REACTORS
330
19
102
}
330
19
100
AcDbPlotSettings
  1

  2
none_device
  4
Letter_(8.50_x_11.00_Inches)
  6

 40
6.349999904632568
 41
6.349999904632568
 42
6.350006103515625
 43
6.350006103515625
 44
215.8999938964844
 45
279.3999938964844
 46
0.0
 47
0.0
 48
0.0
 49
0.0
140
0.0
141
0.0
142
1.0
143
1.0
 70
 11952
 72
     0
 73
     1
 74
     0
  7

 75
     0
147
1.0
 76
     0
 77
     2
 78
   300
148
-230.4417396561563
149
47.00486644638983
100
AcDbLayout
  1
Model
 70
     1
 71
     0
 10
0.0
 20
0.0
 11
12.0
 21
9.0
 12
0.0
 22
0.0
 32
0.0
 14
0.0
 24
0.0
 34
0.0
 15
0.0
 25
0.0
 35
0.0
146
0.0
 13
0.0
 23
0.0
 33
0.0
 16
1.0
 26
0.0
 36
0.0
 17
0.0
 27
1.0
 37
0.0
 76
     0
330
1E
  0
MLINESTYLE
  5
17
102
{ACAD_REACTORS
330
16
102
}
330
16
100
AcDbMlineStyle
  2
STANDARD
 70
     0
  3

 62
   256
 51
90.0
 52
90.0
 71
     2
 49
0.5
 62
   256
  6
BYLAYER
 49
-0.5
 62
   256
  6
BYLAYER
  0
ACDBPLACEHOLDER
  5
F
102
{ACAD_REACTORS
330
E
102
}
330
E
  0
DICTIONARYVAR
  5
EB
102
{ACAD_REACTORS
330
EA
102
}
330
EA
100
DictionaryVariables
280
     0
  1
1
  0
DICTIONARYVAR
  5
EC
102
{ACAD_REACTORS
330
EA
102
}
330
EA
100
DictionaryVariables
280
     0
  1

  0
ENDSEC
  0
EOF
