  0
SECTION
  2
HEADER
  9
$ACADVER
  1
AC1018
  9
$ACADMAINTVER
 70
     2
  9
$DWGCODEPAGE
  3
ANSI_1252
  9
$INSBASE
 10
0.0
 20
0.0
 30
0.0
  9
$EXTMIN
 10
-0.0394398256603381
 20
-0.0557736496120924
 30
-0.0000000000000053
  9
$EXTMAX
 10
594.0086916143589
 20
840.0073612097541
 30
0.0000000000000099
  9
$LIMMIN
 10
0.0
 20
0.0
  9
$LIMMAX
 10
594.0
 20
840.0
  9
$ORTHOMODE
 70
     0
  9
$REGENMODE
 70
     1
  9
$FILLMODE
 70
     1
  9
$QTEXTMODE
 70
     0
  9
$MIRRTEXT
 70
     1
  9
$LTSCALE
 40
20.0
  9
$ATTMODE
 70
     1
  9
$TEXTSIZE
 40
2.5
  9
$TRACEWID
 40
0.5
  9
$TEXTSTYLE
  7
GREEKS
  9
$CLAYER
  8
BEM
  9
$CELTYPE
  6
ByLayer
  9
$CECOLOR
 62
   256
  9
$CELTSCALE
 40
1.0
  9
$DISPSILH
 70
     0
  9
$DIMSCALE
 40
2.0
  9
$DIMASZ
 40
3.5
  9
$DIMEXO
 40
1.0
  9
$DIMDLI
 40
7.0
  9
$DIMRND
 40
0.0
  9
$DIMDLE
 40
0.0
  9
$DIMEXE
 40
1.0
  9
$DIMTP
 40
0.0
  9
$DIMTM
 40
0.0
  9
$DIMTXT
 40
3.5
  9
$DIMCEN
 40
1.5
  9
$DIMTSZ
 40
0.0
  9
$DIMTOL
 70
     0
  9
$DIMLIM
 70
     0
  9
$DIMTIH
 70
     0
  9
$DIMTOH
 70
     0
  9
$DIMSE1
 70
     0
  9
$DIMSE2
 70
     0
  9
$DIMTAD
 70
     1
  9
$DIMZIN
 70
     8
  9
$DIMBLK
  1

  9
$DIMASO
 70
     1
  9
$DIMSHO
 70
     0
  9
$DIMPOST
  1

  9
$DIMAPOST
  1

  9
$DIMALT
 70
     0
  9
$DIMALTD
 70
     2
  9
$DIMALTF
 40
25.4
  9
$DIMLFAC
 40
1.0
  9
$DIMTOFL
 70
     1
  9
$DIMTVP
 40
0.0
  9
$DIMTIX
 70
     0
  9
$DIMSOXD
 70
     0
  9
$DIMSAH
 70
     0
  9
$DIMBLK1
  1

  9
$DIMBLK2
  1

  9
$DIMSTYLE
  2
Standard
  9
$DIMCLRD
 70
     0
  9
$DIMCLRE
 70
     0
  9
$DIMCLRT
 70
     1
  9
$DIMTFAC
 40
0.5
  9
$DIMGAP
 40
1.5
  9
$DIMJUST
 70
     0
  9
$DIMSD1
 70
     0
  9
$DIMSD2
 70
     0
  9
$DIMTOLJ
 70
     1
  9
$DIMTZIN
 70
     8
  9
$DIMALTZ
 70
     8
  9
$DIMALTTZ
 70
     8
  9
$DIMUPT
 70
     0
  9
$DIMDEC
 70
     2
  9
$DIMTDEC
 70
     2
  9
$DIMALTU
 70
     2
  9
$DIMALTTD
 70
     2
  9
$DIMTXSTY
  7
STANDARD
  9
$DIMAUNIT
 70
     0
  9
$DIMADEC
 70
     2
  9
$DIMALTRND
 40
0.0
  9
$DIMAZIN
 70
     2
  9
$DIMDSEP
 70
    46
  9
$DIMATFIT
 70
     3
  9
$DIMFRAC
 70
     0
  9
$DIMLDRBLK
  1

  9
$DIMLUNIT
 70
     2
  9
$DIMLWD
 70
    -2
  9
$DIMLWE
 70
    -2
  9
$DIMTMOVE
 70
     0
  9
$LUNITS
 70
     2
  9
$LUPREC
 70
     2
  9
$SKETCHINC
 40
1.0
  9
$FILLETRAD
 40
0.0
  9
$AUNITS
 70
     0
  9
$AUPREC
 70
     0
  9
$MENU
  1
ACAD
  9
$ELEVATION
 40
0.0
  9
$PELEVATION
 40
0.0
  9
$THICKNESS
 40
0.0
  9
$LIMCHECK
 70
     0
  9
$CHAMFERA
 40
0.0
  9
$CHAMFERB
 40
0.0
  9
$CHAMFERC
 40
0.0
  9
$CHAMFERD
 40
0.0
  9
$SKPOLY
 70
     0
  9
$TDCREATE
 40
2455397.823042361
  9
$TDUCREATE
 40
2455397.781375695
  9
$TDUPDATE
 40
2456230.330393380
  9
$TDUUPDATE
 40
2456230.288726713
  9
$TDINDWG
 40
0.3912471065
  9
$TDUSRTIMER
 40
0.3912471065
  9
$USRTIMER
 70
     1
  9
$ANGBASE
 50
0.0
  9
$ANGDIR
 70
     0
  9
$PDMODE
 70
     0
  9
$PDSIZE
 40
0.0
  9
$PLINEWID
 40
0.0
  9
$SPLFRAME
 70
     0
  9
$SPLINETYPE
 70
     6
  9
$SPLINESEGS
 70
     8
  9
$HANDSEED
  5
2841
  9
$SURFTAB1
 70
     6
  9
$SURFTAB2
 70
     6
  9
$SURFTYPE
 70
     6
  9
$SURFU
 70
     6
  9
$SURFV
 70
     6
  9
$UCSBASE
  2

  9
$UCSNAME
  2

  9
$UCSORG
 10
0.0
 20
0.0
 30
0.0
  9
$UCSXDIR
 10
1.0
 20
0.0
 30
0.0
  9
$UCSYDIR
 10
0.0
 20
1.0
 30
0.0
  9
$UCSORTHOREF
  2

  9
$UCSORTHOVIEW
 70
     0
  9
$UCSORGTOP
 10
0.0
 20
0.0
 30
0.0
  9
$UCSORGBOTTOM
 10
0.0
 20
0.0
 30
0.0
  9
$UCSORGLEFT
 10
0.0
 20
0.0
 30
0.0
  9
$UCSORGRIGHT
 10
0.0
 20
0.0
 30
0.0
  9
$UCSORGFRONT
 10
0.0
 20
0.0
 30
0.0
  9
$UCSORGBACK
 10
0.0
 20
0.0
 30
0.0
  9
$PUCSBASE
  2

  9
$PUCSNAME
  2

  9
$PUCSORG
 10
0.0
 20
0.0
 30
0.0
  9
$PUCSXDIR
 10
1.0
 20
0.0
 30
0.0
  9
$PUCSYDIR
 10
0.0
 20
1.0
 30
0.0
  9
$PUCSORTHOREF
  2

  9
$PUCSORTHOVIEW
 70
     0
  9
$PUCSORGTOP
 10
0.0
 20
0.0
 30
0.0
  9
$PUCSORGBOTTOM
 10
0.0
 20
0.0
 30
0.0
  9
$PUCSORGLEFT
 10
0.0
 20
0.0
 30
0.0
  9
$PUCSORGRIGHT
 10
0.0
 20
0.0
 30
0.0
  9
$PUCSORGFRONT
 10
0.0
 20
0.0
 30
0.0
  9
$PUCSORGBACK
 10
0.0
 20
0.0
 30
0.0
  9
$USERI1
 70
     0
  9
$USERI2
 70
     0
  9
$USERI3
 70
     0
  9
$USERI4
 70
     0
  9
$USERI5
 70
     0
  9
$USERR1
 40
0.0
  9
$USERR2
 40
0.0
  9
$USERR3
 40
0.0
  9
$USERR4
 40
0.0
  9
$USERR5
 40
0.0
  9
$WORLDVIEW
 70
     1
  9
$SHADEDGE
 70
     3
  9
$SHADEDIF
 70
    70
  9
$TILEMODE
 70
     1
  9
$MAXACTVP
 70
    16
  9
$PINSBASE
 10
0.0
 20
0.0
 30
0.0
  9
$PLIMCHECK
 70
     0
  9
$PEXTMIN
 10
1.000000000000000E+20
 20
1.000000000000000E+20
 30
1.000000000000000E+20
  9
$PEXTMAX
 10
-1.000000000000000E+20
 20
-1.000000000000000E+20
 30
-1.000000000000000E+20
  9
$PLIMMIN
 10
0.0
 20
0.0
  9
$PLIMMAX
 10
12.0
 20
9.0
  9
$UNITMODE
 70
     0
  9
$VISRETAIN
 70
     0
  9
$PLINEGEN
 70
     0
  9
$PSLTSCALE
 70
     0
  9
$TREEDEPTH
 70
  3020
  9
$CMLSTYLE
  2
Standard
  9
$CMLJUST
 70
     0
  9
$CMLSCALE
 40
1.0
  9
$PROXYGRAPHICS
 70
     1
  9
$MEASUREMENT
 70
     0
  9
$CELWEIGHT
370
    -1
  9
$ENDCAPS
280
     0
  9
$JOINSTYLE
280
     0
  9
$LWDISPLAY
290
     0
  9
$INSUNITS
 70
     0
  9
$HYPERLINKBASE
  1

  9
$STYLESHEET
  1
monochrome 1.ctb
  9
$XEDIT
290
     1
  9
$CEPSNTYPE
380
     0
  9
$PSTYLEMODE
290
     1
  9
$FINGERPRINTGUID
  2
{D68B0D02-A558-11D7-B632-000102183313}
  9
$VERSIONGUID
  2
{7630A67A-69B6-4507-98A3-4BFED14F5103}
  9
$EXTNAMES
290
     1
  9
$PSVPSCALE
 40
0.0
  9
$OLESTARTUP
290
     0
  9
$SORTENTS
280
   127
  9
$INDEXCTL
280
     0
  9
$HIDETEXT
280
     0
  9
$XCLIPFRAME
290
     0
  9
$HALOGAP
280
     0
  9
$OBSCOLOR
 70
   257
  9
$OBSLTYPE
280
     0
  9
$INTERSECTIONDISPLAY
280
     0
  9
$INTERSECTIONCOLOR
 70
   257
  9
$DIMASSOC
280
     1
  9
$PROJECTNAME
  1

  0
ENDSEC
  0
SECTION
  2
CLASSES
  0
CLASS
  1
ACDBDICTIONARYWDFLT
  2
AcDbDictionaryWithDefault
  3
ObjectDBX Classes
 90
        0
 91
        1
280
     0
281
     0
  0
CLASS
  1
DICTIONARYVAR
  2
AcDbDictionaryVar
  3
ObjectDBX Classes
 90
        0
 91
        2
280
     0
281
     0
  0
ENDSEC
  0
SECTION
  2
TABLES
  0
TABLE
  2
VPORT
  5
8
330
0
100
AcDbSymbolTable
 70
     3
  0
VPORT
  5
2840
330
8
100
AcDbSymbolTableRecord
100
AcDbViewportTableRecord
  2
*Active
 70
     0
 10
0.0
 20
0.0
 11
1.0
 21
1.0
 12
297.0
 22
420.0
 13
0.0
 23
0.0
 14
1.0
 24
1.0
 15
10.0
 25
10.0
 16
0.0
 26
0.0
 36
1.0
 17
0.0
 27
0.0
 37
0.0
 40
840.0
 41
1.404858299595141
 42
50.0
 43
0.0
 44
0.0
 50
0.0
 51
0.0
 71
     0
 72
  1500
 73
     1
 74
     0
 75
     0
 76
     0
 77
     0
 78
     0
281
     0
 65
     1
110
0.0
120
0.0
130
0.0
111
1.0
121
0.0
131
0.0
112
0.0
122
1.0
132
0.0
 79
     0
146
0.0
  0
ENDTAB
  0
TABLE
  2
LTYPE
  5
5
330
0
100
AcDbSymbolTable
 70
     2
  0
LTYPE
  5
13
330
5
100
AcDbSymbolTableRecord
100
AcDbLinetypeTableRecord
  2
ByBlock
 70
     0
  3

 72
    65
 73
     0
 40
0.0
  0
LTYPE
  5
14
330
5
100
AcDbSymbolTableRecord
100
AcDbLinetypeTableRecord
  2
ByLayer
 70
     0
  3

 72
    65
 73
     0
 40
0.0
  0
LTYPE
  5
15
330
5
100
AcDbSymbolTableRecord
100
AcDbLinetypeTableRecord
  2
Continuous
 70
     0
  3
Solid line
 72
    65
 73
     0
 40
0.0
  0
LTYPE
  5
25
330
5
100
AcDbSymbolTableRecord
100
AcDbLinetypeTableRecord
  2
STRICHPUNKT
 70
     0
  3
__ . __ . __ . __ . __ . __ . __ . __ . __ . __
 72
    65
 73
     4
 40
1.0
 49
0.5
 74
     0
 49
-0.25
 74
     0
 49
0.0
 74
     0
 49
-0.25
 74
     0
  0
ENDTAB
  0
TABLE
  2
LAYER
  5
2
330
0
100
AcDbSymbolTable
 70
     8
  0
LAYER
  5
10
330
2
100
AcDbSymbolTableRecord
100
AcDbLayerTableRecord
  2
0
 70
     0
 62
     7
  6
Continuous
370
    -3
390
F
  0
LAYER
  5
2A
330
2
100
AcDbSymbolTableRecord
100
AcDbLayerTableRecord
  2
VOLL
 70
     0
 62
     1
  6
Continuous
370
    -3
390
F
  0
LAYER
  5
2B
330
2
100
AcDbSymbolTableRecord
100
AcDbLayerTableRecord
  2
HILF
 70
     0
 62
     2
  6
Continuous
370
    -3
390
F
  0
LAYER
  5
2C
330
2
100
AcDbSymbolTableRecord
100
AcDbLayerTableRecord
  2
MITTEL
 70
     0
 62
     2
  6
STRICHPUNKT
370
    -3
390
F
  0
LAYER
  5
2F
330
2
100
AcDbSymbolTableRecord
100
AcDbLayerTableRecord
  2
BEM
 70
     0
 62
     7
  6
Continuous
370
    -3
390
F
  0
LAYER
  5
30
330
2
100
AcDbSymbolTableRecord
100
AcDbLayerTableRecord
  2
STEMPEL
 70
     0
 62
     3
  6
Continuous
370
    -3
390
F
  0
LAYER
  5
31
330
2
100
AcDbSymbolTableRecord
100
AcDbLayerTableRecord
  2
TEXT
 70
     0
 62
     7
  6
Continuous
370
    -3
390
F
  0
LAYER
  5
1A8
330
2
100
AcDbSymbolTableRecord
100
AcDbLayerTableRecord
  2
Defpoints
 70
     0
 62
     7
  6
Continuous
290
     0
370
    -3
390
F
  0
ENDTAB
  0
TABLE
  2
STYLE
  5
3
330
0
100
AcDbSymbolTable
 70
     2
  0
STYLE
  5
11
330
3
100
AcDbSymbolTableRecord
100
AcDbTextStyleTableRecord
  2
STANDARD
 70
     0
 40
0.0
 41
0.8
 50
0.0
 71
     0
 42
3.5
  3
simplex.shx
  4

  0
STYLE
  5
24
330
3
100
AcDbSymbolTableRecord
100
AcDbTextStyleTableRecord
  2
GREEKS
 70
     0
 40
0.0
 41
0.8
 50
0.0
 71
     0
 42
2.5
  3
SIMPLEX.shx
  4

  0
ENDTAB
  0
TABLE
  2
VIEW
  5
6
330
0
100
AcDbSymbolTable
 70
     0
  0
ENDTAB
  0
TABLE
  2
UCS
  5
7
330
0
100
AcDbSymbolTable
 70
     0
  0
ENDTAB
  0
TABLE
  2
APPID
  5
9
330
0
100
AcDbSymbolTable
 70
     1
  0
APPID
  5
12
330
9
100
AcDbSymbolTableRecord
100
AcDbRegAppTableRecord
  2
ACAD
 70
     0
  0
ENDTAB
  0
TABLE
  2
DIMSTYLE
  5
A
330
0
100
AcDbSymbolTable
 70
     1
100
AcDbDimStyleTable
 71
     1
340
9D
  0
DIMSTYLE
105
9D
102
{ACAD_REACTORS
330
275A
330
2767
330
27A5
330
27C7
330
27D4
330
27E3
330
27F2
330
282E
102
}
330
A
100
AcDbSymbolTableRecord
100
AcDbDimStyleTableRecord
  2
Standard
 70
     0
340
11
  0
ENDTAB
  0
TABLE
  2
BLOCK_RECORD
  5
1
330
0
100
AcDbSymbolTable
 70
     9
  0
BLOCK_RECORD
  5
1E
102
{ACAD_XDICTIONARY
360
A0
102
}
330
1
100
AcDbSymbolTableRecord
100
AcDbBlockTableRecord
  2
*Model_Space
340
21
  0
BLOCK_RECORD
  5
1A
102
{ACAD_XDICTIONARY
360
A2
102
}
330
1
100
AcDbSymbolTableRecord
100
AcDbBlockTableRecord
  2
*Paper_Space
340
1D
  0
BLOCK_RECORD
  5
22
330
1
100
AcDbSymbolTableRecord
100
AcDbBlockTableRecord
  2
LOGO
340
0
102
{BLKREFS
331
26D0
102
}
  0
BLOCK_RECORD
  5
275B
330
1
100
AcDbSymbolTableRecord
100
AcDbBlockTableRecord
  2
*D1
340
0
  0
BLOCK_RECORD
  5
2768
330
1
100
AcDbSymbolTableRecord
100
AcDbBlockTableRecord
  2
*D2
340
0
  0
BLOCK_RECORD
  5
27A6
330
1
100
AcDbSymbolTableRecord
100
AcDbBlockTableRecord
  2
*D3
340
0
  0
BLOCK_RECORD
  5
27C8
330
1
100
AcDbSymbolTableRecord
100
AcDbBlockTableRecord
  2
*D4
340
0
  0
BLOCK_RECORD
  5
27D5
330
1
100
AcDbSymbolTableRecord
100
AcDbBlockTableRecord
  2
*D5
340
0
  0
BLOCK_RECORD
  5
27E4
330
1
100
AcDbSymbolTableRecord
100
AcDbBlockTableRecord
  2
*D6
340
0
  0
BLOCK_RECORD
  5
27F3
330
1
100
AcDbSymbolTableRecord
100
AcDbBlockTableRecord
  2
*D7
340
0
  0
BLOCK_RECORD
  5
282F
330
1
100
AcDbSymbolTableRecord
100
AcDbBlockTableRecord
  2
*D8
340
0
  0
ENDTAB
  0
ENDSEC
  0
SECTION
  2
BLOCKS
  0
BLOCK
  5
35
330
1E
100
AcDbEntity
  8
0
100
AcDbBlockBegin
  2
*Model_Space
 70
     0
 10
0.0
 20
0.0
 30
0.0
  3
*Model_Space
  1

  0
ENDBLK
  5
36
330
1E
100
AcDbEntity
  8
0
100
AcDbBlockEnd
  0
BLOCK
  5
33
330
1A
100
AcDbEntity
 67
     1
  8
0
100
AcDbBlockBegin
  2
*Paper_Space
 70
     0
 10
0.0
 20
0.0
 30
0.0
  3
*Paper_Space
  1

  0
ENDBLK
  5
34
330
1A
100
AcDbEntity
 67
     1
  8
0
100
AcDbBlockEnd
  0
BLOCK
  5
37
330
22
100
AcDbEntity
  8
0
100
AcDbBlockBegin
  2
LOGO
 70
     0
 10
0.0
 20
0.0
 30
0.0
  3
LOGO
  1

  0
ARC
  5
38
330
22
100
AcDbEntity
  8
0
100
AcDbCircle
 10
11.59973089678112
 20
-9.271599258481501
 30
0.0
 40
4.5
100
AcDbArc
 50
270.0
 51
231.0575587310159
  0
LINE
  5
39
330
22
100
AcDbEntity
  8
0
100
AcDbLine
 10
3.599730896781125
 20
-4.771599258481529
 30
0.0
 11
3.599730896781153
 21
-11.77159925848133
 31
0.0
  0
LINE
  5
3A
330
22
100
AcDbEntity
  8
0
100
AcDbLine
 10
2.599730896781125
 20
-4.771599258481529
 30
0.0
 11
2.599730896781153
 21
-11.77159925848133
 31
0.0
  0
CIRCLE
  5
3B
330
22
100
AcDbEntity
  8
0
100
AcDbCircle
 10
11.59973089678112
 20
-9.271599258481501
 30
0.0
 40
3.5
  0
ARC
  5
3C
330
22
100
AcDbEntity
  8
0
100
AcDbCircle
 10
31.59973089678115
 20
-9.271599258481472
 30
0.0
 40
4.5
100
AcDbArc
 50
270.0
 51
231.0575587310182
  0
LINE
  5
3D
330
22
100
AcDbEntity
  8
0
100
AcDbLine
 10
17.59973089678112
 20
-4.771599258481472
 30
0.0
 11
17.59973089678115
 21
-13.77159925848147
 31
0.0
  0
ARC
  5
3E
330
22
100
AcDbEntity
  8
0
100
AcDbCircle
 10
22.59973089678116
 20
-7.271599258481472
 30
0.0
 40
2.5
100
AcDbArc
 50
293.1161887722295
 51
90.0
  0
CIRCLE
  5
3F
330
22
100
AcDbEntity
  8
0
100
AcDbCircle
 10
31.59973089678115
 20
-9.271599258481472
 30
0.0
 40
3.5
  0
ARC
  5
40
330
22
100
AcDbEntity
  8
0
100
AcDbCircle
 10
4.599730896781153
 20
-11.77159925848133
 30
0.0
 40
1.0
100
AcDbArc
 50
180.0
 51
270.0
  0
ARC
  5
41
330
22
100
AcDbEntity
  8
0
100
AcDbCircle
 10
4.599730896781153
 20
-11.77159925848133
 30
0.0
 40
2.0
100
AcDbArc
 50
179.9999999999992
 51
270.0
  0
LINE
  5
42
330
22
100
AcDbEntity
  8
0
100
AcDbLine
 10
11.59973089678115
 20
-13.77159925848144
 30
0.0
 11
4.599730896781153
 21
-13.77159925848147
 31
0.0
  0
LINE
  5
43
330
22
100
AcDbEntity
  8
0
100
AcDbLine
 10
8.771303772034769
 20
-12.77159925848136
 30
0.0
 11
4.599730896781153
 21
-12.77159925848133
 31
0.0
  0
LINE
  5
44
330
22
100
AcDbEntity
  8
0
100
AcDbLine
 10
31.59973089678115
 20
-13.77159925848147
 30
0.0
 11
23.6715276665056
 21
-13.77159925848144
 31
0.0
  0
LINE
  5
45
330
22
100
AcDbEntity
  8
0
100
AcDbLine
 10
23.56565672307022
 20
-9.51278021337896
 30
0.0
 11
24.4388546544846
 21
-12.77159925848144
 31
0.0
  0
LINE
  5
46
330
22
100
AcDbEntity
  8
0
100
AcDbLine
 10
22.59973089678116
 20
-9.771599258481472
 30
0.0
 11
18.59973089678112
 21
-9.771599258481472
 31
0.0
  0
LINE
  5
47
330
22
100
AcDbEntity
  8
0
100
AcDbLine
 10
18.59973089678115
 20
-13.77159925848144
 30
0.0
 11
17.59973089678115
 21
-13.77159925848144
 31
0.0
  0
LINE
  5
48
330
22
100
AcDbEntity
  8
0
100
AcDbLine
 10
18.59973089678115
 20
-9.771599258481472
 30
0.0
 11
18.59973089678115
 21
-13.77159925848144
 31
0.0
  0
LINE
  5
49
330
22
100
AcDbEntity
  8
0
100
AcDbLine
 10
22.59973089678116
 20
-9.771599258481472
 30
0.0
 11
23.67152766650562
 21
-13.77159925848147
 31
0.0
  0
ARC
  5
4A
330
22
100
AcDbEntity
  8
0
100
AcDbCircle
 10
22.59973089678116
 20
-7.271599258481472
 30
0.0
 40
2.5
100
AcDbArc
 50
270.0
 51
270.0000000000007
  0
LINE
  5
4B
330
22
100
AcDbEntity
  8
0
100
AcDbLine
 10
28.77130377203494
 20
-12.77159925848147
 30
0.0
 11
24.43885465448463
 21
-12.77159925848144
 31
0.0
  0
LINE
  5
4C
330
22
100
AcDbEntity
  8
0
100
AcDbLine
 10
3.599730896781125
 20
-4.771599258481472
 30
0.0
 11
2.599730896781125
 21
-4.771599258481472
 31
0.0
  0
LINE
  5
4D
330
22
100
AcDbEntity
  8
0
100
AcDbLine
 10
22.59973089678116
 20
-8.771599258481472
 30
0.0
 11
18.59973089678115
 21
-8.771599258481472
 31
0.0
  0
LINE
  5
4E
330
22
100
AcDbEntity
  8
0
100
AcDbLine
 10
22.59973089678116
 20
-5.771599258481472
 30
0.0
 11
18.59973089678115
 21
-5.771599258481472
 31
0.0
  0
LINE
  5
4F
330
22
100
AcDbEntity
  8
0
100
AcDbLine
 10
22.59973089678116
 20
-4.771599258481472
 30
0.0
 11
17.59973089678115
 21
-4.771599258481472
 31
0.0
  0
LINE
  5
50
330
22
100
AcDbEntity
  8
0
100
AcDbLine
 10
18.59973089678115
 20
-5.771599258481472
 30
0.0
 11
18.59973089678115
 21
-8.771599258481472
 31
0.0
  0
ARC
  5
51
330
22
100
AcDbEntity
  8
0
100
AcDbCircle
 10
22.59973089678116
 20
-7.271599258481472
 30
0.0
 40
1.5
100
AcDbArc
 50
270.0
 51
90.0
  0
ENDBLK
  5
52
330
22
100
AcDbEntity
  8
0
100
AcDbBlockEnd
  0
BLOCK
  5
2765
330
275B
100
AcDbEntity
  8
0
100
AcDbBlockBegin
  2
*D1
 70
     1
 10
0.0
 20
0.0
 30
0.0
  3
*D1
  1

  0
LINE
  5
2785
330
275B
100
AcDbEntity
  8
BEM
 62
     0
370
    -2
100
AcDbLine
 10
137.8673482343729
 20
194.6247260916976
 30
0.0
 11
137.8673482343729
 21
173.762055311106
 31
0.0
  0
LINE
  5
2786
330
275B
100
AcDbEntity
  8
BEM
 62
     0
370
    -2
100
AcDbLine
 10
385.867348234373
 20
194.6247260916976
 30
0.0
 11
385.867348234373
 21
173.762055311106
 31
0.0
  0
LINE
  5
2787
330
275B
100
AcDbEntity
  8
BEM
 62
     0
370
    -2
100
AcDbLine
 10
144.8673482343729
 20
175.762055311106
 30
0.0
 11
378.867348234373
 21
175.762055311106
 31
0.0
  0
SOLID
  5
2788
330
275B
100
AcDbEntity
  8
BEM
 62
     0
100
AcDbTrace
 10
144.8673482343729
 20
176.9287219777726
 30
0.0
 11
144.8673482343729
 21
174.5953886444393
 31
0.0
 12
137.8673482343729
 22
175.762055311106
 32
0.0
 13
137.8673482343729
 23
175.762055311106
 33
0.0
  0
SOLID
  5
2789
330
275B
100
AcDbEntity
  8
BEM
 62
     0
100
AcDbTrace
 10
378.867348234373
 20
176.9287219777726
 30
0.0
 11
378.867348234373
 21
174.5953886444393
 31
0.0
 12
385.867348234373
 22
175.762055311106
 32
0.0
 13
385.867348234373
 23
175.762055311106
 33
0.0
  0
MTEXT
  5
278A
330
275B
100
AcDbEntity
  8
BEM
 62
     1
100
AcDbMText
 10
261.8673482343729
 20
182.262055311106
 30
0.0
 40
7.0
 41
0.0
 71
     5
 72
     1
  1
\A1;248
 73
     1
 44
1.0
  0
POINT
  5
278B
330
275B
100
AcDbEntity
  8
Defpoints
 62
     0
100
AcDbPoint
 10
137.8673482343729
 20
196.6247260916976
 30
0.0
  0
POINT
  5
278C
330
275B
100
AcDbEntity
  8
Defpoints
 62
     0
100
AcDbPoint
 10
385.867348234373
 20
196.6247260916976
 30
0.0
  0
POINT
  5
278D
330
275B
100
AcDbEntity
  8
Defpoints
 62
     0
100
AcDbPoint
 10
385.867348234373
 20
175.762055311106
 30
0.0
  0
ENDBLK
  5
2766
330
275B
100
AcDbEntity
  8
0
100
AcDbBlockEnd
  0
BLOCK
  5
2772
330
2768
100
AcDbEntity
  8
0
100
AcDbBlockBegin
  2
*D2
 70
     1
 10
0.0
 20
0.0
 30
0.0
  3
*D2
  1

  0
LINE
  5
277C
330
2768
100
AcDbEntity
  8
BEM
 62
     0
370
    -2
100
AcDbLine
 10
127.3673482343729
 20
206.1247260916977
 30
0.0
 11
127.3673482343729
 21
159.0185044164857
 31
0.0
  0
LINE
  5
277D
330
2768
100
AcDbEntity
  8
BEM
 62
     0
370
    -2
100
AcDbLine
 10
396.3673482343729
 20
206.1247260916977
 30
0.0
 11
396.3673482343729
 21
159.0185044164857
 31
0.0
  0
LINE
  5
277E
330
2768
100
AcDbEntity
  8
BEM
 62
     0
370
    -2
100
AcDbLine
 10
134.3673482343729
 20
161.0185044164857
 30
0.0
 11
389.3673482343729
 21
161.0185044164857
 31
0.0
  0
SOLID
  5
277F
330
2768
100
AcDbEntity
  8
BEM
 62
     0
100
AcDbTrace
 10
134.3673482343729
 20
162.1851710831523
 30
0.0
 11
134.3673482343729
 21
159.851837749819
 31
0.0
 12
127.3673482343729
 22
161.0185044164857
 32
0.0
 13
127.3673482343729
 23
161.0185044164857
 33
0.0
  0
SOLID
  5
2780
330
2768
100
AcDbEntity
  8
BEM
 62
     0
100
AcDbTrace
 10
389.3673482343729
 20
162.1851710831523
 30
0.0
 11
389.3673482343729
 21
159.851837749819
 31
0.0
 12
396.3673482343729
 22
161.0185044164857
 32
0.0
 13
396.3673482343729
 23
161.0185044164857
 33
0.0
  0
MTEXT
  5
2781
330
2768
100
AcDbEntity
  8
BEM
 62
     1
100
AcDbMText
 10
261.8673482343729
 20
167.5185044164857
 30
0.0
 40
7.0
 41
0.0
 71
     5
 72
     1
  1
\A1;269
 73
     1
 44
1.0
  0
POINT
  5
2782
330
2768
100
AcDbEntity
  8
Defpoints
 62
     0
100
AcDbPoint
 10
127.3673482343729
 20
208.1247260916977
 30
0.0
  0
POINT
  5
2783
330
2768
100
AcDbEntity
  8
Defpoints
 62
     0
100
AcDbPoint
 10
396.3673482343729
 20
208.1247260916977
 30
0.0
  0
POINT
  5
2784
330
2768
100
AcDbEntity
  8
Defpoints
 62
     0
100
AcDbPoint
 10
396.3673482343729
 20
161.0185044164857
 30
0.0
  0
ENDBLK
  5
2773
330
2768
100
AcDbEntity
  8
0
100
AcDbBlockEnd
  0
BLOCK
  5
27B2
330
27A6
100
AcDbEntity
  8
0
100
AcDbBlockBegin
  2
*D3
 70
     1
 10
0.0
 20
0.0
 30
0.0
  3
*D3
  1

  0
LINE
  5
27B4
330
27A6
100
AcDbEntity
  8
BEM
 62
     0
370
    -2
100
AcDbLine
 10
265.3673482343729
 20
326.5160342497375
 30
0.0
 11
265.3673482343729
 21
326.5734402509722
 31
0.0
  0
LINE
  5
27B5
330
27A6
100
AcDbEntity
  8
BEM
 62
     0
370
    -2
100
AcDbLine
 10
258.3673482343729
 20
326.5160342497375
 30
0.0
 11
258.3673482343729
 21
326.5734402509722
 31
0.0
  0
LINE
  5
27B6
330
27A6
100
AcDbEntity
  8
BEM
 62
     0
370
    -2
100
AcDbLine
 10
272.3673482343729
 20
324.5734402509722
 30
0.0
 11
279.3673482343729
 21
324.5734402509722
 31
0.0
  0
LINE
  5
27B7
330
27A6
100
AcDbEntity
  8
BEM
 62
     0
370
    -2
100
AcDbLine
 10
251.3673482343729
 20
324.5734402509722
 30
0.0
 11
234.6340149010396
 21
324.5734402509722
 31
0.0
  0
LINE
  5
27B8
330
27A6
100
AcDbEntity
  8
BEM
 62
     0
370
    -2
100
AcDbLine
 10
265.3673482343729
 20
324.5734402509722
 30
0.0
 11
258.3673482343729
 21
324.5734402509722
 31
0.0
  0
SOLID
  5
27B9
330
27A6
100
AcDbEntity
  8
BEM
 62
     0
100
AcDbTrace
 10
272.3673482343729
 20
325.7401069176389
 30
0.0
 11
272.3673482343729
 21
323.4067735843055
 31
0.0
 12
265.3673482343729
 22
324.5734402509722
 32
0.0
 13
265.3673482343729
 23
324.5734402509722
 33
0.0
  0
SOLID
  5
27BA
330
27A6
100
AcDbEntity
  8
BEM
 62
     0
100
AcDbTrace
 10
251.3673482343729
 20
325.7401069176389
 30
0.0
 11
251.3673482343729
 21
323.4067735843055
 31
0.0
 12
258.3673482343729
 22
324.5734402509722
 32
0.0
 13
258.3673482343729
 23
324.5734402509722
 33
0.0
  0
MTEXT
  5
27BB
330
27A6
100
AcDbEntity
  8
BEM
 62
     1
100
AcDbMText
 10
239.5006815677062
 20
331.0734402509722
 30
0.0
 40
7.0
 41
0.0
 71
     5
 72
     1
  1
\A1;7
 73
     1
 44
1.0
  0
POINT
  5
27BC
330
27A6
100
AcDbEntity
  8
Defpoints
 62
     0
100
AcDbPoint
 10
265.3673482343729
 20
324.5160342497375
 30
0.0
  0
POINT
  5
27BD
330
27A6
100
AcDbEntity
  8
Defpoints
 62
     0
100
AcDbPoint
 10
258.3673482343729
 20
324.5160342497375
 30
0.0
  0
POINT
  5
27BE
330
27A6
100
AcDbEntity
  8
Defpoints
 62
     0
100
AcDbPoint
 10
258.3673482343729
 20
324.5734402509722
 30
0.0
  0
ENDBLK
  5
27B3
330
27A6
100
AcDbEntity
  8
0
100
AcDbBlockEnd
  0
BLOCK
  5
27D2
330
27C8
100
AcDbEntity
  8
0
100
AcDbBlockBegin
  2
*D4
 70
     1
 10
0.0
 20
0.0
 30
0.0
  3
*D4
  1

  0
LINE
  5
27C9
330
27C8
100
AcDbEntity
  8
BEM
 62
     0
370
    -2
100
AcDbLine
 10
259.8673482343729
 20
280.7803300115603
 30
0.0
 11
108.3492457441779
 21
280.7803300115604
 31
0.0
  0
LINE
  5
27CA
330
27C8
100
AcDbEntity
  8
BEM
 62
     0
370
    -2
100
AcDbLine
 10
250.6363482343729
 20
430.7803300115603
 30
0.0
 11
108.349245744178
 21
430.7803300115603
 31
0.0
  0
LINE
  5
27CB
330
27C8
100
AcDbEntity
  8
BEM
 62
     0
370
    -2
100
AcDbLine
 10
110.3492457441779
 20
287.7803300115603
 30
0.0
 11
110.349245744178
 21
423.7803300115603
 31
0.0
  0
SOLID
  5
27CC
330
27C8
100
AcDbEntity
  8
BEM
 62
     0
100
AcDbTrace
 10
109.1825790775113
 20
287.7803300115603
 30
0.0
 11
111.5159124108446
 21
287.7803300115603
 31
0.0
 12
110.3492457441779
 22
280.7803300115604
 32
0.0
 13
110.3492457441779
 23
280.7803300115604
 33
0.0
  0
SOLID
  5
27CD
330
27C8
100
AcDbEntity
  8
BEM
 62
     0
100
AcDbTrace
 10
109.1825790775113
 20
423.7803300115603
 30
0.0
 11
111.5159124108447
 21
423.7803300115603
 31
0.0
 12
110.349245744178
 22
430.7803300115603
 32
0.0
 13
110.349245744178
 23
430.7803300115603
 33
0.0
  0
MTEXT
  5
27CE
330
27C8
100
AcDbEntity
  8
BEM
 62
     1
100
AcDbMText
 10
103.8492457441779
 20
355.7803300115604
 30
0.0
 40
7.0
 41
0.0
 71
     5
 72
     1
  1
\A1;150
 11
0.0000000000000001
 21
1.0
 31
0.0
 73
     1
 44
1.0
  0
POINT
  5
27CF
330
27C8
100
AcDbEntity
  8
Defpoints
 62
     0
100
AcDbPoint
 10
261.8673482343729
 20
280.7803300115603
 30
0.0
  0
POINT
  5
27D0
330
27C8
100
AcDbEntity
  8
Defpoints
 62
     0
100
AcDbPoint
 10
252.6363482343729
 20
430.7803300115603
 30
0.0
  0
POINT
  5
27D1
330
27C8
100
AcDbEntity
  8
Defpoints
 62
     0
100
AcDbPoint
 10
110.349245744178
 20
430.7803300115603
 30
0.0
  0
ENDBLK
  5
27D3
330
27C8
100
AcDbEntity
  8
0
100
AcDbBlockEnd
  0
BLOCK
  5
27E1
330
27D5
100
AcDbEntity
  8
0
100
AcDbBlockBegin
  2
*D5
 70
     1
 10
0.0
 20
0.0
 30
0.0
  3
*D5
  1

  0
LINE
  5
27D6
330
27D5
100
AcDbEntity
  8
BEM
 62
     0
370
    -2
100
AcDbLine
 10
125.3673482343729
 20
557.7803300115602
 30
0.0
 11
108.349245744178
 21
557.7803300115602
 31
0.0
  0
LINE
  5
27D7
330
27D5
100
AcDbEntity
  8
BEM
 62
     0
370
    -2
100
AcDbLine
 10
125.3673482343729
 20
560.7803300115603
 30
0.0
 11
108.349245744178
 21
560.7803300115603
 31
0.0
  0
LINE
  5
27D8
330
27D5
100
AcDbEntity
  8
BEM
 62
     0
370
    -2
100
AcDbLine
 10
110.349245744178
 20
550.7803300115603
 30
0.0
 11
110.349245744178
 21
543.7803300115603
 31
0.0
  0
LINE
  5
27D9
330
27D5
100
AcDbEntity
  8
BEM
 62
     0
370
    -2
100
AcDbLine
 10
110.349245744178
 20
567.7803300115603
 30
0.0
 11
110.349245744178
 21
584.5136633448936
 31
0.0
  0
LINE
  5
27DA
330
27D5
100
AcDbEntity
  8
BEM
 62
     0
370
    -2
100
AcDbLine
 10
110.349245744178
 20
557.7803300115602
 30
0.0
 11
110.349245744178
 21
560.7803300115603
 31
0.0
  0
SOLID
  5
27DB
330
27D5
100
AcDbEntity
  8
BEM
 62
     0
100
AcDbTrace
 10
109.1825790775113
 20
550.7803300115603
 30
0.0
 11
111.5159124108447
 21
550.7803300115603
 31
0.0
 12
110.349245744178
 22
557.7803300115602
 32
0.0
 13
110.349245744178
 23
557.7803300115602
 33
0.0
  0
SOLID
  5
27DC
330
27D5
100
AcDbEntity
  8
BEM
 62
     0
100
AcDbTrace
 10
109.1825790775113
 20
567.7803300115603
 30
0.0
 11
111.5159124108447
 21
567.7803300115603
 31
0.0
 12
110.349245744178
 22
560.7803300115603
 32
0.0
 13
110.349245744178
 23
560.7803300115603
 33
0.0
  0
MTEXT
  5
27DD
330
27D5
100
AcDbEntity
  8
BEM
 62
     1
100
AcDbMText
 10
103.8492457441779
 20
579.6469966782269
 30
0.0
 40
7.0
 41
0.0
 71
     5
 72
     1
  1
\A1;3
 11
0.0000000000000001
 21
1.0
 31
0.0
 73
     1
 44
1.0
  0
POINT
  5
27DE
330
27D5
100
AcDbEntity
  8
Defpoints
 62
     0
100
AcDbPoint
 10
127.3673482343729
 20
557.7803300115602
 30
0.0
  0
POINT
  5
27DF
330
27D5
100
AcDbEntity
  8
Defpoints
 62
     0
100
AcDbPoint
 10
127.3673482343729
 20
560.7803300115603
 30
0.0
  0
POINT
  5
27E0
330
27D5
100
AcDbEntity
  8
Defpoints
 62
     0
100
AcDbPoint
 10
110.349245744178
 20
560.7803300115603
 30
0.0
  0
ENDBLK
  5
27E2
330
27D5
100
AcDbEntity
  8
0
100
AcDbBlockEnd
  0
BLOCK
  5
27EE
330
27E4
100
AcDbEntity
  8
0
100
AcDbBlockBegin
  2
*D6
 70
     1
 10
0.0
 20
0.0
 30
0.0
  3
*D6
  1

  0
LINE
  5
27E5
330
27E4
100
AcDbEntity
  8
BEM
 62
     0
370
    -2
100
AcDbLine
 10
259.8673482343729
 20
280.7803300115603
 30
0.0
 11
86.97131474303152
 21
280.7803300115604
 31
0.0
  0
LINE
  5
27E6
330
27E4
100
AcDbEntity
  8
BEM
 62
     0
370
    -2
100
AcDbLine
 10
259.8673482343729
 20
672.7803300115603
 30
0.0
 11
86.9713147430316
 21
672.7803300115604
 31
0.0
  0
LINE
  5
27E7
330
27E4
100
AcDbEntity
  8
BEM
 62
     0
370
    -2
100
AcDbLine
 10
88.97131474303151
 20
287.7803300115603
 30
0.0
 11
88.9713147430316
 21
665.7803300115603
 31
0.0
  0
SOLID
  5
27E8
330
27E4
100
AcDbEntity
  8
BEM
 62
     0
100
AcDbTrace
 10
87.80464807636484
 20
287.7803300115603
 30
0.0
 11
90.13798140969818
 21
287.7803300115603
 31
0.0
 12
88.97131474303151
 22
280.7803300115604
 32
0.0
 13
88.97131474303151
 23
280.7803300115604
 33
0.0
  0
SOLID
  5
27E9
330
27E4
100
AcDbEntity
  8
BEM
 62
     0
100
AcDbTrace
 10
87.80464807636493
 20
665.7803300115603
 30
0.0
 11
90.13798140969827
 21
665.7803300115603
 31
0.0
 12
88.97131474303161
 22
672.7803300115604
 32
0.0
 13
88.97131474303161
 23
672.7803300115604
 33
0.0
  0
MTEXT
  5
27EA
330
27E4
100
AcDbEntity
  8
BEM
 62
     1
100
AcDbMText
 10
82.47131474303149
 20
476.7803300115604
 30
0.0
 40
7.0
 41
0.0
 71
     5
 72
     1
  1
\A1;392
 11
0.0000000000000001
 21
1.0
 31
0.0
 73
     1
 44
1.0
  0
POINT
  5
27EB
330
27E4
100
AcDbEntity
  8
Defpoints
 62
     0
100
AcDbPoint
 10
261.8673482343729
 20
280.7803300115603
 30
0.0
  0
POINT
  5
27EC
330
27E4
100
AcDbEntity
  8
Defpoints
 62
     0
100
AcDbPoint
 10
261.8673482343729
 20
672.7803300115603
 30
0.0
  0
POINT
  5
27ED
330
27E4
100
AcDbEntity
  8
Defpoints
 62
     0
100
AcDbPoint
 10
88.97131474303161
 20
672.7803300115604
 30
0.0
  0
ENDBLK
  5
27EF
330
27E4
100
AcDbEntity
  8
0
100
AcDbBlockEnd
  0
BLOCK
  5
27FB
330
27F3
100
AcDbEntity
  8
0
100
AcDbBlockBegin
  2
*D7
 70
     1
 10
0.0
 20
0.0
 30
0.0
  3
*D7
  1

  0
LINE
  5
2804
330
27F3
100
AcDbEntity
  8
BEM
 62
     0
370
    -2
100
AcDbLine
 10
186.4481355887942
 20
479.868792034255
 30
0.0
 11
186.3857071790687
 21
479.925950182007
 31
0.0
  0
LINE
  5
2805
330
27F3
100
AcDbEntity
  8
BEM
 62
     0
370
    -2
100
AcDbLine
 10
334.336346624352
 20
641.3930225283279
 30
0.0
 11
334.2739182146265
 21
641.4501806760799
 31
0.0
  0
LINE
  5
2806
330
27F3
100
AcDbEntity
  8
BEM
 62
     0
370
    -2
100
AcDbLine
 10
192.5878347509274
 20
483.7382478595749
 30
0.0
 11
331.0220048983674
 21
634.9367284590496
 31
0.0
  0
SOLID
  5
2807
330
27F3
100
AcDbEntity
  8
BEM
 62
     0
100
AcDbTrace
 10
191.7273555930442
 20
484.5260846002514
 30
0.0
 11
193.4483139088106
 21
482.9504111188985
 31
0.0
 12
187.8608143068685
 22
478.5753729122758
 32
0.0
 13
187.8608143068685
 23
478.5753729122758
 33
0.0
  0
SOLID
  5
2808
330
27F3
100
AcDbEntity
  8
BEM
 62
     0
100
AcDbTrace
 10
330.1615257404842
 20
635.724565199726
 30
0.0
 11
331.8824840562506
 21
634.148891718373
 31
0.0
 12
335.7490253424263
 22
640.0996034063487
 32
0.0
 13
335.7490253424263
 23
640.0996034063487
 33
0.0
  0
MTEXT
  5
2809
330
27F3
100
AcDbEntity
  8
BEM
 62
     1
100
AcDbMText
 10
277.1204731153503
 20
585.6907243813306
 30
0.0
 40
7.0
 41
0.0
 71
     5
 72
     1
  1
\A1;219
 11
0.6752886348655604
 21
0.7375535638998756
 31
0.0
 73
     1
 44
1.0
  0
POINT
  5
280A
330
27F3
100
AcDbEntity
  8
Defpoints
 62
     0
100
AcDbPoint
 10
187.923242716594
 20
478.5182147645238
 30
0.0
  0
POINT
  5
280B
330
27F3
100
AcDbEntity
  8
Defpoints
 62
     0
100
AcDbPoint
 10
335.8114537521518
 20
640.0424452585967
 30
0.0
  0
POINT
  5
280C
330
27F3
100
AcDbEntity
  8
Defpoints
 62
     0
100
AcDbPoint
 10
335.7490253424263
 20
640.0996034063487
 30
0.0
  0
ENDBLK
  5
27FC
330
27F3
100
AcDbEntity
  8
0
100
AcDbBlockEnd
  0
BLOCK
  5
2839
330
282F
100
AcDbEntity
  8
0
100
AcDbBlockBegin
  2
*D8
 70
     1
 10
0.0
 20
0.0
 30
0.0
  3
*D8
  1

  0
LINE
  5
2830
330
282F
100
AcDbEntity
  8
BEM
 62
     0
370
    -2
100
AcDbLine
 10
128.716714502646
 20
220.6247284522818
 30
0.0
 11
110.0642920584682
 21
220.6247284522818
 31
0.0
  0
LINE
  5
2831
330
282F
100
AcDbEntity
  8
BEM
 62
     0
370
    -2
100
AcDbLine
 10
128.716711776878
 20
195.6247284522822
 30
0.0
 11
110.0642920584682
 21
195.6247284522822
 31
0.0
  0
LINE
  5
2832
330
282F
100
AcDbEntity
  8
BEM
 62
     0
370
    -2
100
AcDbLine
 10
112.0642920584682
 20
213.6247284522818
 30
0.0
 11
112.0642920584682
 21
202.6247284522822
 31
0.0
  0
SOLID
  5
2833
330
282F
100
AcDbEntity
  8
BEM
 62
     0
100
AcDbTrace
 10
110.8976253918016
 20
213.6247284522818
 30
0.0
 11
113.2309587251349
 21
213.6247284522818
 31
0.0
 12
112.0642920584682
 22
220.6247284522818
 32
0.0
 13
112.0642920584682
 23
220.6247284522818
 33
0.0
  0
SOLID
  5
2834
330
282F
100
AcDbEntity
  8
BEM
 62
     0
100
AcDbTrace
 10
110.8976253918016
 20
202.6247284522822
 30
0.0
 11
113.2309587251349
 21
202.6247284522822
 31
0.0
 12
112.0642920584682
 22
195.6247284522822
 32
0.0
 13
112.0642920584682
 23
195.6247284522822
 33
0.0
  0
MTEXT
  5
2835
330
282F
100
AcDbEntity
  8
BEM
 62
     1
100
AcDbMText
 10
105.5642920584682
 20
208.1247284522821
 30
0.0
 40
7.0
 41
0.0
 71
     5
 72
     1
  1
\A1;25
 11
0.0000000000000001
 21
1.0
 31
0.0
 73
     1
 44
1.0
  0
POINT
  5
2836
330
282F
100
AcDbEntity
  8
Defpoints
 62
     0
100
AcDbPoint
 10
130.716714502646
 20
220.6247284522818
 30
0.0
  0
POINT
  5
2837
330
282F
100
AcDbEntity
  8
Defpoints
 62
     0
100
AcDbPoint
 10
130.716711776878
 20
195.6247284522822
 30
0.0
  0
POINT
  5
2838
330
282F
100
AcDbEntity
  8
Defpoints
 62
     0
100
AcDbPoint
 10
112.0642920584682
 20
195.6247284522822
 30
0.0
  0
ENDBLK
  5
283A
330
282F
100
AcDbEntity
  8
0
100
AcDbBlockEnd
  0
ENDSEC
  0
SECTION
  2
ENTITIES
  0
TEXT
  5
8F
330
1E
100
AcDbEntity
  8
VOLL
100
AcDbText
 10
78.07675471698113
 20
31.02594776470585
 30
0.0
 40
1.8
  1

  7
GREEKS
100
AcDbText
  0
TEXT
  5
C1B
330
1E
100
AcDbEntity
  8
TEXT
 62
     1
100
AcDbText
 10
394.3349651297247
 20
591.7265844862629
 30
0.0
 40
7.0
  1
Schraube M8x30
 41
0.8
  7
GREEKS
100
AcDbText
  0
LINE
  5
C1C
330
1E
100
AcDbEntity
  8
TEXT
 62
     2
100
AcDbLine
 10
392.2150721336792
 20
588.3466790693664
 30
0.0
 11
467.2167539513096
 21
588.3466790693664
 31
0.0
  0
LINE
  5
C1D
330
1E
100
AcDbEntity
  8
TEXT
 62
     2
100
AcDbLine
 10
392.2150721336792
 20
588.3466790693664
 30
0.0
 11
388.5577527235786
 21
565.2969760280198
 31
0.0
  0
LINE
  5
25B4
330
1E
100
AcDbEntity
  8
HILF
100
AcDbLine
 10
382.5623482343729
 20
532.7803300115602
 30
0.0
 11
382.5623482343729
 21
553.7803300115602
 31
0.0
  0
LINE
  5
25B5
330
1E
100
AcDbEntity
  8
HILF
100
AcDbLine
 10
389.0623482343729
 20
532.7803300115602
 30
0.0
 11
389.0623482343729
 21
553.7803300115602
 31
0.0
  0
LINE
  5
25B6
330
1E
100
AcDbEntity
  8
STEMPEL
100
AcDbLine
 10
389.8123482343729
 20
533.5303300115603
 30
0.0
 11
381.8123482343728
 21
533.5303300115603
 31
0.0
  0
LINE
  5
25B7
330
1E
100
AcDbEntity
  8
HILF
100
AcDbLine
 10
389.8123482343729
 20
559.9813300115603
 30
0.0
 11
381.8123482343728
 21
559.9813300115603
 31
0.0
  0
LINE
  5
25B9
330
1E
100
AcDbEntity
  8
HILF
100
AcDbLine
 10
382.5623482343729
 20
557.7803300115602
 30
0.0
 11
382.5623482343729
 21
559.9813300115603
 31
0.0
  0
LINE
  5
25BB
330
1E
100
AcDbEntity
  8
HILF
100
AcDbLine
 10
389.0623482343729
 20
557.7803300115602
 30
0.0
 11
389.0623482343729
 21
559.9813300115603
 31
0.0
  0
LINE
  5
25BC
330
1E
100
AcDbEntity
  8
STEMPEL
100
AcDbLine
 10
381.8123482343728
 20
557.7803300115602
 30
0.0
 11
381.8123482343728
 21
562.7803300115602
 31
0.0
  0
LINE
  5
25BD
330
1E
100
AcDbEntity
  8
STEMPEL
100
AcDbLine
 10
389.8123482343729
 20
561.3403300115603
 30
0.0
 11
389.8123482343729
 21
557.7803300115602
 31
0.0
  0
ARC
  5
25BE
330
1E
100
AcDbEntity
  8
STEMPEL
100
AcDbCircle
 10
385.8123482343728
 20
556.9223300115602
 30
0.0
 40
11.158
100
AcDbArc
 50
95.91552076700024
 51
109.652859632001
  0
ARC
  5
25BF
330
1E
100
AcDbEntity
  8
STEMPEL
100
AcDbCircle
 10
385.8123482343728
 20
556.9223300115602
 30
0.0
 40
11.158
100
AcDbArc
 50
70.34714036799893
 51
84.08447923299975
  0
LINE
  5
25C0
330
1E
100
AcDbEntity
  8
STEMPEL
100
AcDbLine
 10
384.662348234373
 20
568.0803300115603
 30
0.0
 11
380.1833482343729
 21
568.0803300115603
 31
0.0
  0
LINE
  5
25C1
330
1E
100
AcDbEntity
  8
STEMPEL
100
AcDbLine
 10
384.662348234373
 20
565.5803300115604
 30
0.0
 11
384.662348234373
 21
568.0803300115603
 31
0.0
  0
LINE
  5
25C2
330
1E
100
AcDbEntity
  8
STEMPEL
100
AcDbLine
 10
386.962348234373
 20
565.5803300115604
 30
0.0
 11
384.662348234373
 21
565.5803300115604
 31
0.0
  0
LINE
  5
25C3
330
1E
100
AcDbEntity
  8
STEMPEL
100
AcDbLine
 10
386.962348234373
 20
568.0803300115603
 30
0.0
 11
386.962348234373
 21
565.5803300115604
 31
0.0
  0
LINE
  5
25C4
330
1E
100
AcDbEntity
  8
STEMPEL
100
AcDbLine
 10
391.441348234373
 20
568.0803300115603
 30
0.0
 11
386.962348234373
 21
568.0803300115603
 31
0.0
  0
LINE
  5
25C5
330
1E
100
AcDbEntity
  8
STEMPEL
100
AcDbLine
 10
381.8123482343728
 20
533.5303300115603
 30
0.0
 11
381.8123482343728
 21
553.7803300115602
 31
0.0
  0
LINE
  5
25C6
330
1E
100
AcDbEntity
  8
STEMPEL
100
AcDbLine
 10
382.5623482343729
 20
532.7803300115602
 30
0.0
 11
381.8123482343728
 21
533.5303300115603
 31
0.0
  0
LINE
  5
25C7
330
1E
100
AcDbEntity
  8
STEMPEL
100
AcDbLine
 10
389.0623482343729
 20
532.7803300115602
 30
0.0
 11
382.5623482343729
 21
532.7803300115602
 31
0.0
  0
LINE
  5
25C8
330
1E
100
AcDbEntity
  8
STEMPEL
100
AcDbLine
 10
389.8123482343729
 20
533.5303300115603
 30
0.0
 11
389.0623482343729
 21
532.7803300115602
 31
0.0
  0
LINE
  5
25C9
330
1E
100
AcDbEntity
  8
STEMPEL
100
AcDbLine
 10
389.8123482343729
 20
553.7803300115602
 30
0.0
 11
389.8123482343729
 21
533.5303300115603
 31
0.0
  0
LINE
  5
25CA
330
1E
100
AcDbEntity
  8
STEMPEL
100
AcDbLine
 10
389.565348234373
 20
567.4303300115602
 30
0.0
 11
389.565348234373
 21
564.7803300115603
 31
0.0
  0
ARC
  5
25CB
330
1E
100
AcDbEntity
  8
STEMPEL
100
AcDbCircle
 10
391.441348234373
 20
565.0473300115602
 30
0.0
 40
3.032999999999999
100
AcDbArc
 50
90.0
 51
128.2132107020002
  0
ARC
  5
25CC
330
1E
100
AcDbEntity
  8
STEMPEL
100
AcDbCircle
 10
391.441348234373
 20
565.0473300115602
 30
0.0
 40
3.032999999999999
100
AcDbArc
 50
51.78678929799973
 51
90.0
  0
LINE
  5
25CD
330
1E
100
AcDbEntity
  8
STEMPEL
100
AcDbLine
 10
393.317348234373
 20
562.7803300115602
 30
0.0
 11
393.317348234373
 21
567.4303300115602
 31
0.0
  0
LINE
  5
25CE
330
1E
100
AcDbEntity
  8
STEMPEL
100
AcDbLine
 10
391.1153482343729
 20
562.7803300115602
 30
0.0
 11
393.317348234373
 21
562.7803300115602
 31
0.0
  0
LINE
  5
25CF
330
1E
100
AcDbEntity
  8
STEMPEL
100
AcDbLine
 10
381.412348234373
 20
562.7803300115602
 30
0.0
 11
388.969348234373
 21
562.7803300115602
 31
0.0
  0
LINE
  5
25D0
330
1E
100
AcDbEntity
  8
STEMPEL
100
AcDbLine
 10
378.306348234373
 20
562.7803300115602
 30
0.0
 11
381.412348234373
 21
562.7803300115602
 31
0.0
  0
LINE
  5
25D1
330
1E
100
AcDbEntity
  8
STEMPEL
100
AcDbLine
 10
378.306348234373
 20
567.4303300115602
 30
0.0
 11
378.306348234373
 21
562.7803300115602
 31
0.0
  0
ARC
  5
25D2
330
1E
100
AcDbEntity
  8
STEMPEL
100
AcDbCircle
 10
380.1833482343729
 20
565.0473300115602
 30
0.0
 40
3.032999999999999
100
AcDbArc
 50
90.0
 51
128.2132107020002
  0
ARC
  5
25D3
330
1E
100
AcDbEntity
  8
STEMPEL
100
AcDbCircle
 10
380.1833482343729
 20
565.0473300115602
 30
0.0
 40
3.032999999999999
100
AcDbArc
 50
51.78678929799973
 51
90.0
  0
LINE
  5
25D4
330
1E
100
AcDbEntity
  8
STEMPEL
100
AcDbLine
 10
382.0593482343729
 20
562.7803300115602
 30
0.0
 11
382.0593482343729
 21
567.4303300115602
 31
0.0
  0
LINE
  5
25D5
330
1E
100
AcDbEntity
  8
HILF
100
AcDbLine
 10
134.6723482343729
 20
532.7803300115602
 30
0.0
 11
134.6723482343729
 21
553.7803300115602
 31
0.0
  0
LINE
  5
25D6
330
1E
100
AcDbEntity
  8
HILF
100
AcDbLine
 10
141.1723482343729
 20
532.7803300115602
 30
0.0
 11
141.1723482343729
 21
553.7803300115602
 31
0.0
  0
LINE
  5
25D7
330
1E
100
AcDbEntity
  8
STEMPEL
100
AcDbLine
 10
141.9223482343729
 20
533.5303300115603
 30
0.0
 11
133.9223482343729
 21
533.5303300115603
 31
0.0
  0
LINE
  5
25D8
330
1E
100
AcDbEntity
  8
HILF
100
AcDbLine
 10
141.9223482343729
 20
559.9813300115603
 30
0.0
 11
133.9223482343729
 21
559.9813300115603
 31
0.0
  0
LINE
  5
25DA
330
1E
100
AcDbEntity
  8
HILF
100
AcDbLine
 10
134.6723482343729
 20
557.7803300115602
 30
0.0
 11
134.6723482343729
 21
559.9813300115603
 31
0.0
  0
LINE
  5
25DC
330
1E
100
AcDbEntity
  8
HILF
100
AcDbLine
 10
141.1723482343729
 20
557.7803300115602
 30
0.0
 11
141.1723482343729
 21
559.9813300115603
 31
0.0
  0
LINE
  5
25DD
330
1E
100
AcDbEntity
  8
STEMPEL
100
AcDbLine
 10
133.9223482343729
 20
557.7803300115602
 30
0.0
 11
133.9223482343729
 21
560.7803300115603
 31
0.0
  0
LINE
  5
25DE
330
1E
100
AcDbEntity
  8
STEMPEL
100
AcDbLine
 10
141.9223482343729
 20
560.7803300115603
 30
0.0
 11
141.9223482343729
 21
557.7803300115602
 31
0.0
  0
ARC
  5
25DF
330
1E
100
AcDbEntity
  8
STEMPEL
100
AcDbCircle
 10
137.9223482343729
 20
556.9223300115602
 30
0.0
 40
11.158
100
AcDbArc
 50
95.91552076700024
 51
109.652859632001
  0
ARC
  5
25E0
330
1E
100
AcDbEntity
  8
STEMPEL
100
AcDbCircle
 10
137.9223482343729
 20
556.9223300115602
 30
0.0
 40
11.158
100
AcDbArc
 50
70.34714036799893
 51
84.08447923299975
  0
LINE
  5
25E1
330
1E
100
AcDbEntity
  8
STEMPEL
100
AcDbLine
 10
136.7723482343729
 20
568.0803300115603
 30
0.0
 11
132.2923482343728
 21
568.0803300115603
 31
0.0
  0
LINE
  5
25E2
330
1E
100
AcDbEntity
  8
STEMPEL
100
AcDbLine
 10
136.7723482343729
 20
565.5803300115604
 30
0.0
 11
136.7723482343729
 21
568.0803300115603
 31
0.0
  0
LINE
  5
25E3
330
1E
100
AcDbEntity
  8
STEMPEL
100
AcDbLine
 10
139.0723482343729
 20
565.5803300115604
 30
0.0
 11
136.7723482343729
 21
565.5803300115604
 31
0.0
  0
LINE
  5
25E4
330
1E
100
AcDbEntity
  8
STEMPEL
100
AcDbLine
 10
139.0723482343729
 20
568.0803300115603
 30
0.0
 11
139.0723482343729
 21
565.5803300115604
 31
0.0
  0
LINE
  5
25E5
330
1E
100
AcDbEntity
  8
STEMPEL
100
AcDbLine
 10
143.5513482343728
 20
568.0803300115603
 30
0.0
 11
139.0723482343729
 21
568.0803300115603
 31
0.0
  0
LINE
  5
25E6
330
1E
100
AcDbEntity
  8
STEMPEL
100
AcDbLine
 10
133.9223482343729
 20
533.5303300115603
 30
0.0
 11
133.9223482343729
 21
553.7803300115602
 31
0.0
  0
LINE
  5
25E7
330
1E
100
AcDbEntity
  8
STEMPEL
100
AcDbLine
 10
134.6723482343729
 20
532.7803300115602
 30
0.0
 11
133.9223482343729
 21
533.5303300115603
 31
0.0
  0
LINE
  5
25E8
330
1E
100
AcDbEntity
  8
STEMPEL
100
AcDbLine
 10
141.1723482343729
 20
532.7803300115602
 30
0.0
 11
134.6723482343729
 21
532.7803300115602
 31
0.0
  0
LINE
  5
25E9
330
1E
100
AcDbEntity
  8
STEMPEL
100
AcDbLine
 10
141.9223482343729
 20
533.5303300115603
 30
0.0
 11
141.1723482343729
 21
532.7803300115602
 31
0.0
  0
LINE
  5
25EA
330
1E
100
AcDbEntity
  8
STEMPEL
100
AcDbLine
 10
141.9223482343729
 20
553.7803300115602
 30
0.0
 11
141.9223482343729
 21
533.5303300115603
 31
0.0
  0
LINE
  5
25EB
330
1E
100
AcDbEntity
  8
STEMPEL
100
AcDbLine
 10
141.6743482343729
 20
567.4303300115602
 30
0.0
 11
141.6743482343729
 21
562.7803300115602
 31
0.0
  0
ARC
  5
25EC
330
1E
100
AcDbEntity
  8
STEMPEL
100
AcDbCircle
 10
143.5513482343728
 20
565.0473300115602
 30
0.0
 40
3.032999999999999
100
AcDbArc
 50
90.0
 51
128.2132107020002
  0
ARC
  5
25ED
330
1E
100
AcDbEntity
  8
STEMPEL
100
AcDbCircle
 10
143.5513482343728
 20
565.0473300115602
 30
0.0
 40
3.032999999999999
100
AcDbArc
 50
51.78678929799973
 51
90.0
  0
LINE
  5
25EE
330
1E
100
AcDbEntity
  8
STEMPEL
100
AcDbLine
 10
145.4273482343729
 20
562.7803300115602
 30
0.0
 11
145.4273482343729
 21
567.4303300115602
 31
0.0
  0
LINE
  5
25EF
330
1E
100
AcDbEntity
  8
STEMPEL
100
AcDbLine
 10
142.3223482343729
 20
562.7803300115602
 30
0.0
 11
145.4273482343729
 21
562.7803300115602
 31
0.0
  0
LINE
  5
25F0
330
1E
100
AcDbEntity
  8
STEMPEL
100
AcDbLine
 10
133.5223482343729
 20
562.7803300115602
 30
0.0
 11
142.3223482343729
 21
562.7803300115602
 31
0.0
  0
LINE
  5
25F1
330
1E
100
AcDbEntity
  8
STEMPEL
100
AcDbLine
 10
130.4163482343729
 20
562.7803300115602
 30
0.0
 11
133.5223482343729
 21
562.7803300115602
 31
0.0
  0
LINE
  5
25F2
330
1E
100
AcDbEntity
  8
STEMPEL
100
AcDbLine
 10
130.4163482343729
 20
567.4303300115602
 30
0.0
 11
130.4163482343729
 21
562.7803300115602
 31
0.0
  0
ARC
  5
25F3
330
1E
100
AcDbEntity
  8
STEMPEL
100
AcDbCircle
 10
132.2923482343728
 20
565.0473300115602
 30
0.0
 40
3.032999999999999
100
AcDbArc
 50
90.0
 51
128.2132107020002
  0
ARC
  5
25F4
330
1E
100
AcDbEntity
  8
STEMPEL
100
AcDbCircle
 10
132.2923482343728
 20
565.0473300115602
 30
0.0
 40
3.032999999999999
100
AcDbArc
 50
51.78678929799973
 51
90.0
  0
LINE
  5
25F5
330
1E
100
AcDbEntity
  8
STEMPEL
100
AcDbLine
 10
134.1693482343729
 20
562.7803300115602
 30
0.0
 11
134.1693482343729
 21
567.4303300115602
 31
0.0
  0
LINE
  5
25F6
330
1E
100
AcDbEntity
  8
STEMPEL
100
AcDbLine
 10
384.717348234373
 20
201.6247260916976
 30
0.0
 11
384.717348234373
 21
214.6247260916977
 31
0.0
  0
LINE
  5
25F7
330
1E
100
AcDbEntity
  8
STEMPEL
100
AcDbLine
 10
387.017348234373
 20
201.6247260916976
 30
0.0
 11
387.017348234373
 21
214.6247260916977
 31
0.0
  0
LINE
  5
25F8
330
1E
100
AcDbEntity
  8
MITTEL
100
AcDbLine
 10
385.867348234373
 20
196.6247260916976
 30
0.0
 11
385.8673482343729
 21
219.6247260916976
 31
0.0
  0
ARC
  5
25F9
330
1E
100
AcDbEntity
  8
STEMPEL
100
AcDbCircle
 10
385.8673482343729
 20
208.1247260916977
 30
0.0
 40
6.5
100
AcDbArc
 50
280.1905887679999
 51
79.80941123200008
  0
ARC
  5
25FA
330
1E
100
AcDbEntity
  8
STEMPEL
100
AcDbCircle
 10
385.8673482343729
 20
208.1247260916977
 30
0.0
 40
6.5
100
AcDbArc
 50
100.1905887679999
 51
259.8094112320001
  0
LINE
  5
25FB
330
1E
100
AcDbEntity
  8
STEMPEL
100
AcDbLine
 10
382.114348234373
 20
201.6247260916976
 30
0.0
 11
378.3613482343729
 21
208.1247260916977
 31
0.0
  0
LINE
  5
25FC
330
1E
100
AcDbEntity
  8
STEMPEL
100
AcDbLine
 10
389.6193482343729
 20
201.6247260916976
 30
0.0
 11
382.114348234373
 21
201.6247260916976
 31
0.0
  0
LINE
  5
25FD
330
1E
100
AcDbEntity
  8
STEMPEL
100
AcDbLine
 10
393.3723482343729
 20
208.1247260916977
 30
0.0
 11
389.6193482343729
 21
201.6247260916976
 31
0.0
  0
LINE
  5
25FE
330
1E
100
AcDbEntity
  8
STEMPEL
100
AcDbLine
 10
389.6193482343729
 20
214.6247260916977
 30
0.0
 11
393.3723482343729
 21
208.1247260916977
 31
0.0
  0
LINE
  5
25FF
330
1E
100
AcDbEntity
  8
STEMPEL
100
AcDbLine
 10
382.114348234373
 20
214.6247260916977
 30
0.0
 11
389.6193482343729
 21
214.6247260916977
 31
0.0
  0
LINE
  5
2600
330
1E
100
AcDbEntity
  8
STEMPEL
100
AcDbLine
 10
378.3613482343729
 20
208.1247260916977
 30
0.0
 11
382.114348234373
 21
214.6247260916977
 31
0.0
  0
LINE
  5
2601
330
1E
100
AcDbEntity
  8
STEMPEL
100
AcDbLine
 10
136.7173482343729
 20
201.6247260916976
 30
0.0
 11
136.7173482343729
 21
214.6247260916977
 31
0.0
  0
LINE
  5
2602
330
1E
100
AcDbEntity
  8
STEMPEL
100
AcDbLine
 10
139.0173482343729
 20
201.6247260916976
 30
0.0
 11
139.0173482343729
 21
214.6247260916977
 31
0.0
  0
LINE
  5
2603
330
1E
100
AcDbEntity
  8
MITTEL
100
AcDbLine
 10
137.8673482343729
 20
196.6247260916976
 30
0.0
 11
137.8673482343729
 21
219.6247260916977
 31
0.0
  0
ARC
  5
2604
330
1E
100
AcDbEntity
  8
STEMPEL
100
AcDbCircle
 10
137.8673482343729
 20
208.1247260916977
 30
0.0
 40
6.5
100
AcDbArc
 50
280.1905887679999
 51
79.80941123200008
  0
ARC
  5
2605
330
1E
100
AcDbEntity
  8
STEMPEL
100
AcDbCircle
 10
137.8673482343729
 20
208.1247260916977
 30
0.0
 40
6.5
100
AcDbArc
 50
100.1905887679999
 51
259.8094112320001
  0
LINE
  5
2606
330
1E
100
AcDbEntity
  8
STEMPEL
100
AcDbLine
 10
134.114348234373
 20
201.6247260916976
 30
0.0
 11
130.3613482343729
 21
208.1247260916977
 31
0.0
  0
LINE
  5
2607
330
1E
100
AcDbEntity
  8
STEMPEL
100
AcDbLine
 10
141.6193482343729
 20
201.6247260916976
 30
0.0
 11
134.114348234373
 21
201.6247260916976
 31
0.0
  0
LINE
  5
2608
330
1E
100
AcDbEntity
  8
STEMPEL
100
AcDbLine
 10
145.3723482343729
 20
208.1247260916977
 30
0.0
 11
141.6193482343729
 21
201.6247260916976
 31
0.0
  0
LINE
  5
2609
330
1E
100
AcDbEntity
  8
STEMPEL
100
AcDbLine
 10
141.6193482343729
 20
214.6247260916977
 30
0.0
 11
145.3723482343729
 21
208.1247260916977
 31
0.0
  0
LINE
  5
260A
330
1E
100
AcDbEntity
  8
STEMPEL
100
AcDbLine
 10
134.114348234373
 20
214.6247260916977
 30
0.0
 11
141.6193482343729
 21
214.6247260916977
 31
0.0
  0
LINE
  5
260B
330
1E
100
AcDbEntity
  8
STEMPEL
100
AcDbLine
 10
130.3613482343729
 20
208.1247260916977
 30
0.0
 11
134.114348234373
 21
214.6247260916977
 31
0.0
  0
ARC
  5
260C
330
1E
100
AcDbEntity
  8
STEMPEL
100
AcDbCircle
 10
152.3673482343729
 20
208.1247260916977
 30
0.0
 40
25.0
100
AcDbArc
 50
149.9999937530001
 51
209.9999937529995
  0
ARC
  5
260D
330
1E
100
AcDbEntity
  8
STEMPEL
100
AcDbCircle
 10
371.3673482343729
 20
208.1247260916977
 30
0.0
 40
25.0
100
AcDbArc
 50
329.9999982440005
 51
29.99999824399996
  0
LINE
  5
260E
330
1E
100
AcDbEntity
  8
STEMPEL
100
AcDbLine
 10
381.547348234373
 20
202.6067260916976
 30
0.0
 11
380.566348234373
 21
195.6247260916976
 31
0.0
  0
LINE
  5
260F
330
1E
100
AcDbEntity
  8
STEMPEL
100
AcDbLine
 10
388.4783482343729
 20
201.6247260916976
 30
0.0
 11
387.6353482343729
 21
195.6247260916976
 31
0.0
  0
LINE
  5
2610
330
1E
100
AcDbEntity
  8
HILF
100
AcDbLine
 10
147.4283482343729
 20
220.6247260916977
 30
0.0
 11
147.4283482343729
 21
195.6247260916976
 31
0.0
  0
LINE
  5
2611
330
1E
100
AcDbEntity
  8
HILF
100
AcDbLine
 10
376.306348234373
 20
220.6247260916977
 30
0.0
 11
376.306348234373
 21
195.6247260916976
 31
0.0
  0
LINE
  5
2612
330
1E
100
AcDbEntity
  8
HILF
100
AcDbLine
 10
376.306348234373
 20
203.1247260916976
 30
0.0
 11
147.4283482343729
 21
203.1247260916976
 31
0.0
  0
LINE
  5
2613
330
1E
100
AcDbEntity
  8
HILF
100
AcDbLine
 10
376.306348234373
 20
213.1247260916977
 30
0.0
 11
147.4283482343729
 21
213.1247260916977
 31
0.0
  0
LINE
  5
2614
330
1E
100
AcDbEntity
  8
MITTEL
100
AcDbLine
 10
401.3673482343729
 20
208.1247260916977
 30
0.0
 11
122.3673482343729
 21
208.1247260916977
 31
0.0
  0
LINE
  5
2615
330
1E
100
AcDbEntity
  8
MITTEL
100
AcDbLine
 10
261.8673482343729
 20
225.6247260916977
 30
0.0
 11
261.8673482343729
 21
190.6247260916976
 31
0.0
  0
LINE
  5
2616
330
1E
100
AcDbEntity
  8
STEMPEL
100
AcDbLine
 10
389.6893482343729
 20
199.7527260916977
 30
0.0
 11
389.1093482343729
 21
195.6247260916976
 31
0.0
  0
LINE
  5
2617
330
1E
100
AcDbEntity
  8
STEMPEL
100
AcDbLine
 10
388.2433482343729
 20
199.9557260916976
 30
0.0
 11
389.6893482343729
 21
199.7527260916977
 31
0.0
  0
LINE
  5
2618
330
1E
100
AcDbEntity
  8
STEMPEL
100
AcDbLine
 10
393.017348234373
 20
220.6247260916977
 30
0.0
 11
130.7163482343729
 21
220.6247260916977
 31
0.0
  0
LINE
  5
2619
330
1E
100
AcDbEntity
  8
STEMPEL
100
AcDbLine
 10
130.7163482343729
 20
195.6247260916976
 30
0.0
 11
393.017348234373
 21
195.6247260916976
 31
0.0
  0
LINE
  5
261F
330
1E
100
AcDbEntity
  8
HILF
100
AcDbLine
 10
258.3673482343729
 20
425.7803300115602
 30
0.0
 11
265.3673482343729
 21
425.7803300115602
 31
0.0
  0
LINE
  5
2620
330
1E
100
AcDbEntity
  8
STEMPEL
100
AcDbLine
 10
261.8673482343729
 20
280.7803300115603
 30
0.0
 11
265.3673482343729
 21
290.7803300115603
 31
0.0
  0
LINE
  5
2621
330
1E
100
AcDbEntity
  8
STEMPEL
100
AcDbLine
 10
258.3673482343729
 20
290.7803300115603
 30
0.0
 11
261.8673482343729
 21
280.7803300115603
 31
0.0
  0
LINE
  5
2622
330
1E
100
AcDbEntity
  8
STEMPEL
100
AcDbLine
 10
267.3673482343729
 20
433.2803300115602
 30
0.0
 11
267.3673482343729
 21
432.7803300115602
 31
0.0
  0
ARC
  5
2623
330
1E
100
AcDbEntity
  8
STEMPEL
100
AcDbCircle
 10
266.3673482343729
 20
433.2803300115602
 30
0.0
 40
1.0
100
AcDbArc
 50
0.0
 51
90.0
  0
LINE
  5
2624
330
1E
100
AcDbEntity
  8
STEMPEL
100
AcDbLine
 10
257.3673482343729
 20
434.2803300115603
 30
0.0
 11
266.3673482343729
 21
434.2803300115603
 31
0.0
  0
ARC
  5
2625
330
1E
100
AcDbEntity
  8
STEMPEL
100
AcDbCircle
 10
257.3673482343729
 20
433.2803300115602
 30
0.0
 40
1.0
100
AcDbArc
 50
90.0
 51
180.0
  0
LINE
  5
2626
330
1E
100
AcDbEntity
  8
STEMPEL
100
AcDbLine
 10
256.3673482343729
 20
432.7803300115602
 30
0.0
 11
256.3673482343729
 21
433.2803300115602
 31
0.0
  0
LINE
  5
2627
330
1E
100
AcDbEntity
  8
STEMPEL
100
AcDbLine
 10
258.3673482343729
 20
290.7803300115603
 30
0.0
 11
265.3673482343729
 21
290.7803300115603
 31
0.0
  0
LINE
  5
2628
330
1E
100
AcDbEntity
  8
STEMPEL
100
AcDbLine
 10
258.3673482343729
 20
425.4293300115603
 30
0.0
 11
258.3673482343729
 21
290.7803300115603
 31
0.0
  0
ARC
  5
2629
330
1E
100
AcDbEntity
  8
STEMPEL
100
AcDbCircle
 10
257.3673482343729
 20
425.4293300115603
 30
0.0
 40
1.0
100
AcDbArc
 50
0.0
 51
38.65980825399905
  0
LINE
  5
262A
330
1E
100
AcDbEntity
  8
STEMPEL
100
AcDbLine
 10
254.3673482343729
 20
430.7803300115603
 30
0.0
 11
258.1483482343728
 21
426.0543300115602
 31
0.0
  0
LINE
  5
262B
330
1E
100
AcDbEntity
  8
STEMPEL
100
AcDbLine
 10
265.5863482343729
 20
426.0543300115602
 30
0.0
 11
269.3673482343729
 21
430.7803300115603
 31
0.0
  0
ARC
  5
262C
330
1E
100
AcDbEntity
  8
STEMPEL
100
AcDbCircle
 10
266.3673482343729
 20
425.4293300115603
 30
0.0
 40
1.0
100
AcDbArc
 50
141.3401917460009
 51
180.0
  0
LINE
  5
262D
330
1E
100
AcDbEntity
  8
STEMPEL
100
AcDbLine
 10
265.3673482343729
 20
290.7803300115603
 30
0.0
 11
265.3673482343729
 21
425.4293300115603
 31
0.0
  0
ARC
  5
262E
330
1E
100
AcDbEntity
  8
HILF
100
AcDbCircle
 10
261.8673482343729
 20
559.2803300115603
 30
0.0
 40
113.5
100
AcDbArc
 50
181.8229694969993
 51
262.5436126870012
  0
ARC
  5
262F
330
1E
100
AcDbEntity
  8
HILF
100
AcDbCircle
 10
261.8673482343729
 20
559.2803300115603
 30
0.0
 40
113.5
100
AcDbArc
 50
277.4563873129988
 51
358.1770305030007
  0
LINE
  5
2630
330
1E
100
AcDbEntity
  8
STEMPEL
100
AcDbLine
 10
252.6363482343729
 20
430.7803300115603
 30
0.0
 11
271.0973482343729
 21
430.7803300115603
 31
0.0
  0
ARC
  5
2631
330
1E
100
AcDbEntity
  8
STEMPEL
100
AcDbCircle
 10
252.6363482343729
 20
434.7803300115603
 30
0.0
 40
4.0
100
AcDbArc
 50
186.9999999999995
 51
270.0
  0
ARC
  5
2632
330
1E
100
AcDbEntity
  8
STEMPEL
100
AcDbCircle
 10
271.0973482343729
 20
434.7803300115603
 30
0.0
 40
2.0
100
AcDbArc
 50
270.0
 51
353.0000000000005
  0
LINE
  5
2633
330
1E
100
AcDbEntity
  8
STEMPEL
100
AcDbLine
 10
271.0973482343729
 20
432.7803300115602
 30
0.0
 11
252.6363482343729
 21
432.7803300115602
 31
0.0
  0
LINE
  5
2634
330
1E
100
AcDbEntity
  8
STEMPEL
100
AcDbLine
 10
269.3673482343729
 20
430.7803300115603
 30
0.0
 11
254.3673482343729
 21
430.7803300115603
 31
0.0
  0
ARC
  5
2635
330
1E
100
AcDbEntity
  8
STEMPEL
100
AcDbCircle
 10
278.6463482343729
 20
447.0273300115603
 30
0.0
 40
2.0
100
AcDbArc
 50
98.50153173599967
 51
173.0000000000004
  0
ARC
  5
2636
330
1E
100
AcDbEntity
  8
STEMPEL
100
AcDbCircle
 10
261.8673482343729
 20
559.2803300115603
 30
0.0
 40
111.5
100
AcDbArc
 50
278.5015317359996
 51
357.0603079879997
  0
LINE
  5
2637
330
1E
100
AcDbEntity
  8
STEMPEL
100
AcDbLine
 10
275.067348234373
 20
434.2933300115602
 30
0.0
 11
276.661348234373
 21
447.2713300115603
 31
0.0
  0
ARC
  5
2638
330
1E
100
AcDbEntity
  8
STEMPEL
100
AcDbCircle
 10
278.6463482343729
 20
447.0273300115603
 30
0.0
 40
4.0
100
AcDbArc
 50
98.50153173599967
 51
173.0000000000004
  0
LINE
  5
2639
330
1E
100
AcDbEntity
  8
STEMPEL
100
AcDbLine
 10
274.6763482343729
 20
447.5153300115603
 30
0.0
 11
273.0823482343729
 21
434.5363300115603
 31
0.0
  0
ARC
  5
263A
330
1E
100
AcDbEntity
  8
STEMPEL
100
AcDbCircle
 10
271.0973482343729
 20
434.7803300115603
 30
0.0
 40
4.0
100
AcDbArc
 50
270.0
 51
353.0000000000005
  0
ARC
  5
263B
330
1E
100
AcDbEntity
  8
STEMPEL
100
AcDbCircle
 10
252.6363482343729
 20
434.7803300115603
 30
0.0
 40
2.0
100
AcDbArc
 50
186.9999999999995
 51
270.0
  0
LINE
  5
263C
330
1E
100
AcDbEntity
  8
STEMPEL
100
AcDbLine
 10
250.6513482343729
 20
434.5363300115603
 30
0.0
 11
249.057348234373
 21
447.5153300115603
 31
0.0
  0
LINE
  5
263D
330
1E
100
AcDbEntity
  8
STEMPEL
100
AcDbLine
 10
247.0723482343729
 20
447.2713300115603
 30
0.0
 11
248.6663482343729
 21
434.2933300115602
 31
0.0
  0
ARC
  5
263E
330
1E
100
AcDbEntity
  8
STEMPEL
100
AcDbCircle
 10
245.0873482343729
 20
447.0273300115603
 30
0.0
 40
2.0
100
AcDbArc
 50
6.999999999999538
 51
81.49846826400034
  0
ARC
  5
263F
330
1E
100
AcDbEntity
  8
STEMPEL
100
AcDbCircle
 10
245.0873482343729
 20
447.0273300115603
 30
0.0
 40
4.0
100
AcDbArc
 50
6.999999999999538
 51
81.49846826400034
  0
ARC
  5
2640
330
1E
100
AcDbEntity
  8
STEMPEL
100
AcDbCircle
 10
147.6173482343729
 20
552.7803300115603
 30
0.0
 40
3.0
100
AcDbArc
 50
15.10458161700039
 51
90.0
  0
ARC
  5
2641
330
1E
100
AcDbEntity
  8
STEMPEL
100
AcDbCircle
 10
147.6173482343729
 20
552.7803300115603
 30
0.0
 40
5.0
100
AcDbArc
 50
12.34454049700011
 51
90.0
  0
ARC
  5
2642
330
1E
100
AcDbEntity
  8
STEMPEL
100
AcDbCircle
 10
261.8673482343729
 20
559.2803300115603
 30
0.0
 40
111.5
100
AcDbArc
 50
182.9396920120004
 51
261.4984682640003
  0
ARC
  5
2643
330
1E
100
AcDbEntity
  8
STEMPEL
100
AcDbCircle
 10
261.8673482343729
 20
559.2803300115603
 30
0.0
 40
109.5
100
AcDbArc
 50
182.8429589919996
 51
261.4984682640003
  0
ARC
  5
2644
330
1E
100
AcDbEntity
  8
STEMPEL
100
AcDbCircle
 10
261.8673482343729
 20
559.2803300115603
 30
0.0
 40
109.5
100
AcDbArc
 50
278.5015317359996
 51
357.1570410080004
  0
ARC
  5
2645
330
1E
100
AcDbEntity
  8
STEMPEL
100
AcDbCircle
 10
376.1163482343729
 20
552.7803300115603
 30
0.0
 40
3.0
100
AcDbArc
 50
90.0
 51
164.8954183829996
  0
ARC
  5
2646
330
1E
100
AcDbEntity
  8
STEMPEL
100
AcDbCircle
 10
376.1163482343729
 20
552.7803300115603
 30
0.0
 40
5.0
100
AcDbArc
 50
90.0
 51
167.6554595029998
  0
ARC
  5
2647
330
1E
100
AcDbEntity
  8
STEMPEL
100
AcDbCircle
 10
380.3123482343729
 20
554.7803300115602
 30
0.0
 40
1.0
100
AcDbArc
 50
0.0
 51
90.0
  0
LINE
  5
2648
330
1E
100
AcDbEntity
  8
STEMPEL
100
AcDbLine
 10
381.3123482343728
 20
554.7803300115602
 30
0.0
 11
381.3123482343728
 21
553.7803300115602
 31
0.0
  0
LINE
  5
2649
330
1E
100
AcDbEntity
  8
STEMPEL
100
AcDbLine
 10
381.3123482343728
 20
553.7803300115602
 30
0.0
 11
390.3123482343728
 21
553.7803300115602
 31
0.0
  0
LINE
  5
264A
330
1E
100
AcDbEntity
  8
STEMPEL
100
AcDbLine
 10
390.3123482343728
 20
553.7803300115602
 30
0.0
 11
390.3123482343728
 21
554.7803300115602
 31
0.0
  0
ARC
  5
264B
330
1E
100
AcDbEntity
  8
STEMPEL
100
AcDbCircle
 10
391.3123482343729
 20
554.7803300115602
 30
0.0
 40
1.0
100
AcDbArc
 50
90.0
 51
180.0
  0
ARC
  5
264C
330
1E
100
AcDbEntity
  8
STEMPEL
100
AcDbCircle
 10
143.422348234373
 20
554.7803300115602
 30
0.0
 40
1.0
100
AcDbArc
 50
90.0
 51
180.0
  0
LINE
  5
264D
330
1E
100
AcDbEntity
  8
STEMPEL
100
AcDbLine
 10
142.422348234373
 20
553.7803300115602
 30
0.0
 11
142.422348234373
 21
554.7803300115602
 31
0.0
  0
LINE
  5
264E
330
1E
100
AcDbEntity
  8
STEMPEL
100
AcDbLine
 10
133.422348234373
 20
553.7803300115602
 30
0.0
 11
142.422348234373
 21
553.7803300115602
 31
0.0
  0
LINE
  5
264F
330
1E
100
AcDbEntity
  8
STEMPEL
100
AcDbLine
 10
133.422348234373
 20
554.7803300115602
 30
0.0
 11
133.422348234373
 21
553.7803300115602
 31
0.0
  0
ARC
  5
2650
330
1E
100
AcDbEntity
  8
STEMPEL
100
AcDbCircle
 10
132.4223482343729
 20
554.7803300115602
 30
0.0
 40
1.0
100
AcDbArc
 50
0.0
 51
90.0
  0
LINE
  5
2651
330
1E
100
AcDbEntity
  8
STEMPEL
100
AcDbLine
 10
130.7163482343729
 20
557.7803300115602
 30
0.0
 11
130.7163482343729
 21
555.7803300115603
 31
0.0
  0
LINE
  5
2652
330
1E
100
AcDbEntity
  8
STEMPEL
100
AcDbLine
 10
127.3673482343729
 20
557.7803300115602
 30
0.0
 11
127.3673482343729
 21
555.7803300115603
 31
0.0
  0
LINE
  5
2653
330
1E
100
AcDbEntity
  8
STEMPEL
100
AcDbLine
 10
147.6173482343729
 20
557.7803300115602
 30
0.0
 11
127.3673482343729
 21
557.7803300115602
 31
0.0
  0
LINE
  5
2654
330
1E
100
AcDbEntity
  8
STEMPEL
100
AcDbLine
 10
127.3673482343729
 20
555.7803300115603
 30
0.0
 11
147.6173482343729
 21
555.7803300115603
 31
0.0
  0
LINE
  5
2655
330
1E
100
AcDbEntity
  8
STEMPEL
100
AcDbLine
 10
393.017348234373
 20
557.7803300115602
 30
0.0
 11
393.017348234373
 21
555.7803300115603
 31
0.0
  0
LINE
  5
2656
330
1E
100
AcDbEntity
  8
STEMPEL
100
AcDbLine
 10
380.8123482343729
 20
555.7803300115603
 30
0.0
 11
396.3673482343729
 21
555.7803300115603
 31
0.0
  0
LINE
  5
2657
330
1E
100
AcDbEntity
  8
STEMPEL
100
AcDbLine
 10
396.3673482343729
 20
557.7803300115602
 30
0.0
 11
376.1163482343729
 21
557.7803300115602
 31
0.0
  0
LINE
  5
2658
330
1E
100
AcDbEntity
  8
STEMPEL
100
AcDbLine
 10
396.3673482343729
 20
555.7803300115603
 30
0.0
 11
396.3673482343729
 21
557.7803300115602
 31
0.0
  0
LINE
  5
2659
330
1E
100
AcDbEntity
  8
STEMPEL
100
AcDbLine
 10
376.1163482343729
 20
555.7803300115603
 30
0.0
 11
380.8123482343729
 21
555.7803300115603
 31
0.0
  0
LINE
  5
265A
330
1E
100
AcDbEntity
  8
STEMPEL
100
AcDbLine
 10
380.5113482343729
 20
562.7803300115602
 30
0.0
 11
380.5113482343729
 21
560.7803300115603
 31
0.0
  0
ARC
  5
265B
330
1E
100
AcDbEntity
  8
HILF
100
AcDbCircle
 10
261.8673482343729
 20
559.2803300115603
 30
0.0
 40
113.5
100
AcDbArc
 50
1.822969496999282
 51
178.1770305030007
  0
ARC
  5
265C
330
1E
100
AcDbEntity
  8
STEMPEL
100
AcDbCircle
 10
376.1163482343729
 20
565.7803300115602
 30
0.0
 40
3.0
100
AcDbArc
 50
195.1045816170003
 51
270.0
  0
ARC
  5
265D
330
1E
100
AcDbEntity
  8
STEMPEL
100
AcDbCircle
 10
147.6173482343729
 20
565.7803300115602
 30
0.0
 40
3.0
100
AcDbArc
 50
270.0
 51
344.8954183829996
  0
ARC
  5
265E
330
1E
100
AcDbEntity
  8
STEMPEL
100
AcDbCircle
 10
147.6173482343729
 20
565.7803300115602
 30
0.0
 40
5.0
100
AcDbArc
 50
270.0
 51
347.6554595029999
  0
ARC
  5
265F
330
1E
100
AcDbEntity
  8
STEMPEL
100
AcDbCircle
 10
261.8673482343729
 20
559.2803300115603
 30
0.0
 40
111.5
100
AcDbArc
 50
2.939692012000372
 51
177.0603079879996
  0
ARC
  5
2660
330
1E
100
AcDbEntity
  8
STEMPEL
100
AcDbCircle
 10
376.1163482343729
 20
565.7803300115602
 30
0.0
 40
5.0
100
AcDbArc
 50
192.3445404970001
 51
270.0
  0
ARC
  5
2661
330
1E
100
AcDbEntity
  8
STEMPEL
100
AcDbCircle
 10
261.8673482343729
 20
559.2803300115603
 30
0.0
 40
109.5
100
AcDbArc
 50
2.8429589919996
 51
177.1570410080004
  0
LINE
  5
2662
330
1E
100
AcDbEntity
  8
STEMPEL
100
AcDbLine
 10
376.1163482343729
 20
562.7803300115602
 30
0.0
 11
388.969348234373
 21
562.7803300115602
 31
0.0
  0
LINE
  5
2663
330
1E
100
AcDbEntity
  8
STEMPEL
100
AcDbLine
 10
381.412348234373
 20
562.7803300115602
 30
0.0
 11
388.469348234373
 21
562.7803300115602
 31
0.0
  0
ARC
  5
2664
330
1E
100
AcDbEntity
  8
STEMPEL
100
AcDbCircle
 10
391.3913482343729
 20
563.2303300115603
 30
0.0
 40
2.463
100
AcDbArc
 50
185.8375244180006
 51
264.1736792309999
  0
LINE
  5
2665
330
1E
100
AcDbEntity
  8
STEMPEL
100
AcDbLine
 10
396.3673482343729
 20
562.7803300115602
 30
0.0
 11
396.3673482343729
 21
560.7803300115603
 31
0.0
  0
LINE
  5
2666
330
1E
100
AcDbEntity
  8
STEMPEL
100
AcDbLine
 10
391.1153482343729
 20
562.7803300115602
 30
0.0
 11
396.3673482343729
 21
562.7803300115602
 31
0.0
  0
LINE
  5
2667
330
1E
100
AcDbEntity
  8
STEMPEL
100
AcDbLine
 10
393.017348234373
 20
562.7803300115602
 30
0.0
 11
393.017348234373
 21
560.7803300115603
 31
0.0
  0
LINE
  5
2668
330
1E
100
AcDbEntity
  8
STEMPEL
100
AcDbLine
 10
391.1153482343729
 20
562.7803300115602
 30
0.0
 11
393.3723482343729
 21
562.7803300115602
 31
0.0
  0
ARC
  5
2669
330
1E
100
AcDbEntity
  8
STEMPEL
100
AcDbCircle
 10
391.1153482343729
 20
563.4803300115603
 30
0.0
 40
0.7
100
AcDbArc
 50
180.0
 51
270.0
  0
LINE
  5
266A
330
1E
100
AcDbEntity
  8
STEMPEL
100
AcDbLine
 10
388.941348234373
 20
562.9793300115602
 30
0.0
 11
388.941348234373
 21
564.7803300115603
 31
0.0
  0
LINE
  5
266B
330
1E
100
AcDbEntity
  8
STEMPEL
100
AcDbLine
 10
388.941348234373
 20
564.7803300115603
 30
0.0
 11
390.9723482343729
 21
564.7803300115603
 31
0.0
  0
LINE
  5
266C
330
1E
100
AcDbEntity
  8
STEMPEL
100
AcDbLine
 10
390.4153482343729
 20
564.7803300115603
 30
0.0
 11
390.4153482343729
 21
563.4803300115603
 31
0.0
  0
LINE
  5
266D
330
1E
100
AcDbEntity
  8
STEMPEL
100
AcDbLine
 10
390.9723482343729
 20
564.7803300115603
 30
0.0
 11
390.9723482343729
 21
562.7943300115602
 31
0.0
  0
LINE
  5
266E
330
1E
100
AcDbEntity
  8
STEMPEL
100
AcDbLine
 10
378.306348234373
 20
562.7803300115602
 30
0.0
 11
381.412348234373
 21
562.7803300115602
 31
0.0
  0
LINE
  5
266F
330
1E
100
AcDbEntity
  8
STEMPEL
100
AcDbLine
 10
381.8123482343728
 20
560.7803300115603
 30
0.0
 11
376.1163482343729
 21
560.7803300115603
 31
0.0
  0
LINE
  5
2670
330
1E
100
AcDbEntity
  8
STEMPEL
100
AcDbLine
 10
396.3673482343729
 20
560.7803300115603
 30
0.0
 11
389.8123482343729
 21
560.7803300115603
 31
0.0
  0
LINE
  5
2671
330
1E
100
AcDbEntity
  8
STEMPEL
100
AcDbLine
 10
130.7163482343729
 20
562.7803300115602
 30
0.0
 11
130.7163482343729
 21
560.7803300115603
 31
0.0
  0
LINE
  5
2672
330
1E
100
AcDbEntity
  8
STEMPEL
100
AcDbLine
 10
127.3673482343729
 20
560.7803300115603
 30
0.0
 11
127.3673482343729
 21
562.7803300115602
 31
0.0
  0
LINE
  5
2673
330
1E
100
AcDbEntity
  8
STEMPEL
100
AcDbLine
 10
147.6173482343729
 20
560.7803300115603
 30
0.0
 11
127.3673482343729
 21
560.7803300115603
 31
0.0
  0
LINE
  5
2674
330
1E
100
AcDbEntity
  8
STEMPEL
100
AcDbLine
 10
127.3673482343729
 20
562.7803300115602
 30
0.0
 11
147.6173482343729
 21
562.7803300115602
 31
0.0
  0
LINE
  5
2675
330
1E
100
AcDbEntity
  8
MITTEL
100
AcDbLine
 10
137.9223482343729
 20
527.7803300115603
 30
0.0
 11
137.9223482343729
 21
573.0803300115603
 31
0.0
  0
LINE
  5
2676
330
1E
100
AcDbEntity
  8
MITTEL
100
AcDbLine
 10
385.8123482343728
 20
573.0803300115603
 30
0.0
 11
385.8123482343728
 21
527.7803300115603
 31
0.0
  0
LINE
  5
2677
330
1E
100
AcDbEntity
  8
MITTEL
100
AcDbLine
 10
122.3673482343729
 20
559.2803300115601
 30
0.0
 11
401.3673482343729
 21
559.2803300115603
 31
0.0
  0
LINE
  5
2678
330
1E
100
AcDbEntity
  8
MITTEL
100
AcDbLine
 10
261.8673482343729
 20
275.7803300115603
 30
0.0
 11
261.8673482343729
 21
677.7803300115603
 31
0.0
  0
TEXT
  5
26CF
330
1E
100
AcDbEntity
  8
TEXT
100
AcDbText
 10
532.4966558241467
 20
645.1296391125315
 30
0.0
 40
5.0
  1

 50
90.0
 41
0.8
  7
GREEKS
100
AcDbText
  0
INSERT
  5
26D0
330
1E
100
AcDbEntity
  8
STEMPEL
100
AcDbBlockReference
  2
LOGO
 10
548.9789472355164
 20
560.9955485457795
 30
0.0
 41
2.0
 42
2.0
 43
2.0
 50
90.0
  0
TEXT
  5
26D1
330
1E
100
AcDbEntity
  8
TEXT
100
AcDbText
 10
503.2363615897695
 20
602.626132208084
 30
0.0
 40
4.0
  1
DIN EN1123-2
 50
90.0
 41
0.8
  7
GREEKS
 72
     1
 11
503.2363615897695
 21
619.6166083985602
 31
0.0
100
AcDbText
  0
TEXT
  5
26D2
330
1E
100
AcDbEntity
  8
TEXT
100
AcDbText
 10
551.3702584697734
 20
644.9837501577826
 30
0.0
 40
4.0
  1
00990200W.DWG
 50
90.0
 41
0.8
  7
GREEKS
100
AcDbText
  0
TEXT
  5
26D3
330
1E
100
AcDbEntity
  8
TEXT
100
AcDbText
 10
542.3598805695783
 20
645.1296391125315
 30
0.0
 40
5.0
  1
EDV-Art.Nr. 00990.200X
 50
90.0
 41
0.8
  7
GREEKS
100
AcDbText
  0
TEXT
  5
26D4
330
1E
100
AcDbEntity
  8
TEXT
100
AcDbText
 10
522.4966558241469
 20
645.1296391125315
 30
0.0
 40
5.0
  1
mit Schlagstift
 50
90.0
 41
0.8
  7
GREEKS
100
AcDbText
  0
TEXT
  5
26D5
330
1E
100
AcDbEntity
  8
TEXT
 62
     1
100
AcDbText
 10
506.5825121074619
 20
646.8935731057402
 30
0.0
 40
7.0
  1
Rohrschelle DN200
 50
90.0
 41
0.8
  7
GREEKS
100
AcDbText
  0
TEXT
  5
26D6
330
1E
100
AcDbEntity
  8
TEXT
100
AcDbText
 10
530.8923495917424
 20
580.703759012998
 30
0.0
 40
4.0
  1
29.10.
 50
90.0
 41
0.8
  7
GREEKS
 72
     1
 11
530.8923495917424
 21
587.4085209177599
 31
0.0
100
AcDbText
  0
TEXT
  5
26D7
330
1E
100
AcDbEntity
  8
TEXT
 62
     1
100
AcDbText
 10
505.8509857108601
 20
570.5006306481887
 30
0.0
 40
7.0
  1
1:2
 50
90.0
 41
0.8
  7
GREEKS
100
AcDbText
  0
TEXT
  5
26D8
330
1E
100
AcDbEntity
  8
TEXT
 62
     1
100
AcDbText
 10
505.8509857108601
 20
763.2477174542668
 30
0.0
 40
7.0
  1
00990200W
 50
90.0
 41
0.8
  7
GREEKS
 72
     1
 11
505.8509857108601
 21
787.2477174542669
 31
0.0
100
AcDbText
  0
TEXT
  5
26D9
330
1E
100
AcDbEntity
  8
TEXT
100
AcDbText
 10
530.9103608027647
 20
614.4216048581257
 30
0.0
 40
4.0
  1
Koeh
 50
90.0
 41
0.8
  7
GREEKS
 72
     1
 11
530.9103608027647
 21
619.6787477152686
 31
0.0
100
AcDbText
  0
TEXT
  5
26DA
330
1E
100
AcDbEntity
  8
TEXT
100
AcDbText
 10
482.3279999999999
 20
461.8550995097767
 30
0.0
 40
5.0
  1
Erstellt mit AUTOCAD 2004
 50
90.0
 41
0.8
  7
GREEKS
100
AcDbText
  0
TEXT
  5
26DB
330
1E
100
AcDbEntity
  8
TEXT
100
AcDbText
 10
520.859745288483
 20
558.622109822104
 30
0.0
 40
4.0
  1
2012
 50
90.0
 41
0.8
  7
GREEKS
100
AcDbText
  0
TEXT
  5
26DD
330
1E
100
AcDbEntity
  8
TEXT
100
AcDbText
 10
541.9258382212137
 20
757.2400861497006
 30
0.0
 40
5.0
  1
ersetzt durch:
 50
90.0
 41
0.8
  7
GREEKS
100
AcDbText
  0
TEXT
  5
26DF
330
1E
100
AcDbEntity
  8
TEXT
100
AcDbText
 10
550.4705361035016
 20
557.6006777387304
 30
0.0
 40
4.0
  1
Norm.
 50
90.0
 41
0.8
  7
GREEKS
100
AcDbText
  0
TEXT
  5
26E0
330
1E
100
AcDbEntity
  8
TEXT
100
AcDbText
 10
540.310737085716
 20
557.5515086571672
 30
0.0
 40
4.0
  1
Gepr.
 50
90.0
 41
0.8
  7
GREEKS
100
AcDbText
  0
TEXT
  5
26E1
330
1E
100
AcDbEntity
  8
TEXT
100
AcDbText
 10
530.37009630382
 20
557.5836127167615
 30
0.0
 40
4.0
  1
Gez.
 50
90.0
 41
0.8
  7
GREEKS
100
AcDbText
  0
TEXT
  5
26E2
330
1E
100
AcDbEntity
  8
TEXT
100
AcDbText
 10
520.6903890808475
 20
612.4626584226294
 30
0.0
 40
4.0
  1
Name
 50
90.0
 41
0.8
  7
GREEKS
100
AcDbText
  0
TEXT
  5
26E3
330
1E
100
AcDbEntity
  8
TEXT
100
AcDbText
 10
520.6811949877005
 20
582.331167315365
 30
0.0
 40
4.0
  1
Tag
 50
90.0
 41
0.8
  7
GREEKS
100
AcDbText
  0
TEXT
  5
26E4
330
1E
100
AcDbEntity
  8
TEXT
100
AcDbText
 10
575.4067578303356
 20
539.0122744386594
 30
0.0
 40
4.0
  1
Name
 50
90.0
 41
0.8
  7
GREEKS
 72
     1
 11
575.4067578303356
 21
545.3360839624687
 31
0.0
100
AcDbText
  0
TEXT
  5
26E5
330
1E
100
AcDbEntity
  8
TEXT
100
AcDbText
 10
575.3284373066017
 20
520.0934676075481
 30
0.0
 40
4.0
  1
Tag
 50
90.0
 41
0.8
  7
GREEKS
 72
     1
 11
575.3284373066017
 21
523.8268009408813
 31
0.0
100
AcDbText
  0
TEXT
  5
26E6
330
1E
100
AcDbEntity
  8
TEXT
100
AcDbText
 10
580.345341539728
 20
468.2664110704575
 30
0.0
 40
4.0
  1
Index
 50
180.0
 41
0.8
  7
GREEKS
100
AcDbText
  0
TEXT
  5
26E7
330
1E
100
AcDbEntity
  8
TEXT
100
AcDbText
 10
520.818817629
 20
756.7238616296992
 30
0.0
 40
5.0
  1
Ersatz für:
 50
90.0
 41
0.8
  7
GREEKS
100
AcDbText
  0
TEXT
  5
26E8
330
1E
100
AcDbEntity
  8
TEXT
100
AcDbText
 10
563.1543942980693
 20
644.742238391136
 30
0.0
 40
5.0
  1
Bauvorhaben
 50
90.0
 41
0.8
  7
GREEKS
100
AcDbText
  0
TEXT
  5
26E9
330
1E
100
AcDbEntity
  8
TEXT
100
AcDbText
 10
491.6867965462861
 20
756.178754957634
 30
0.0
 40
5.0
  1
Zeichnungs Nr.
 50
90.0
 41
0.8
  7
GREEKS
100
AcDbText
  0
TEXT
  5
26EA
330
1E
100
AcDbEntity
  8
TEXT
100
AcDbText
 10
491.4510671988218
 20
644.877940380901
 30
0.0
 40
5.0
  1
Benennung
 50
90.0
 41
0.8
  7
GREEKS
100
AcDbText
  0
TEXT
  5
26EB
330
1E
100
AcDbEntity
  8
TEXT
100
AcDbText
 10
491.5815831565177
 20
604.2858954734051
 30
0.0
 40
5.0
  1
Zul. Abw.
 50
90.0
 41
0.8
  7
GREEKS
100
AcDbText
  0
TEXT
  5
26EC
330
1E
100
AcDbEntity
  8
TEXT
100
AcDbText
 10
491.5379104912908
 20
563.5163572150377
 30
0.0
 40
5.0
  1
Maßstab
 50
90.0
 41
0.8
  7
GREEKS
100
AcDbText
  0
TEXT
  5
26ED
330
1E
100
AcDbEntity
  8
TEXT
100
AcDbText
 10
575.3261810501585
 20
483.8616597963181
 30
0.0
 40
4.0
  1
Änderung
 50
90.0
 41
0.8
  7
GREEKS
 72
     1
 11
575.3261810501585
 21
494.6045169391752
 31
0.0
100
AcDbText
  0
LINE
  5
26EE
330
1E
100
AcDbEntity
  8
HILF
100
AcDbLine
 10
579.1060174197168
 20
643.4909699289885
 30
0.0
 11
579.1060174197168
 21
824.8588839326728
 31
0.0
  0
LINE
  5
26EF
330
1E
100
AcDbEntity
  8
HILF
100
AcDbLine
 10
510.2201636304417
 20
756.7238616296992
 30
0.0
 11
510.2201636304417
 21
824.8588839326728
 31
0.0
  0
LINE
  5
26F0
330
1E
100
AcDbEntity
  8
VOLL
100
AcDbLine
 10
534.0
 20
752.0
 30
0.0
 11
534.0
 21
830.0
 31
0.0
  0
LINE
  5
26F1
330
1E
100
AcDbEntity
  8
HILF
100
AcDbLine
 10
544.0
 20
644.7736801096948
 30
0.0
 11
544.0
 21
744.8353916556309
 31
0.0
  0
LINE
  5
26F2
330
1E
100
AcDbEntity
  8
HILF
100
AcDbLine
 10
534.0
 20
644.7736801096948
 30
0.0
 11
534.0
 21
744.8353916556309
 31
0.0
  0
LINE
  5
26F3
330
1E
100
AcDbEntity
  8
HILF
100
AcDbLine
 10
524.0
 20
644.7736801096948
 30
0.0
 11
524.0
 21
744.8353916556309
 31
0.0
  0
LINE
  5
26F4
330
1E
100
AcDbEntity
  8
HILF
100
AcDbLine
 10
509.9624175243584
 20
644.7736801096948
 30
0.0
 11
509.9624175243584
 21
744.8353916556311
 31
0.0
  0
LINE
  5
26F5
330
1E
100
AcDbEntity
  8
HILF
100
AcDbLine
 10
543.9999999999997
 20
556.0
 30
0.0
 11
544.0
 21
640.0
 31
0.0
  0
LINE
  5
26F6
330
1E
100
AcDbEntity
  8
HILF
100
AcDbLine
 10
533.9999999999998
 20
556.0
 30
0.0
 11
534.0
 21
640.0
 31
0.0
  0
LINE
  5
26F7
330
1E
100
AcDbEntity
  8
HILF
100
AcDbLine
 10
524.0
 20
556.0
 30
0.0
 11
524.0
 21
640.0
 31
0.0
  0
LINE
  5
26F8
330
1E
100
AcDbEntity
  8
HILF
100
AcDbLine
 10
553.9999999999998
 20
460.0
 30
0.0
 11
553.9999999999998
 21
556.0
 31
0.0
  0
LINE
  5
26F9
330
1E
100
AcDbEntity
  8
HILF
100
AcDbLine
 10
543.9999999999997
 20
460.0
 30
0.0
 11
543.9999999999997
 21
556.0
 31
0.0
  0
LINE
  5
26FA
330
1E
100
AcDbEntity
  8
HILF
100
AcDbLine
 10
533.9999999999998
 20
460.0
 30
0.0
 11
533.9999999999998
 21
556.0
 31
0.0
  0
LINE
  5
26FB
330
1E
100
AcDbEntity
  8
HILF
100
AcDbLine
 10
524.0
 20
460.0
 30
0.0
 11
524.0
 21
556.0
 31
0.0
  0
LINE
  5
26FC
330
1E
100
AcDbEntity
  8
HILF
100
AcDbLine
 10
514.0
 20
460.0
 30
0.0
 11
514.0
 21
556.0
 31
0.0
  0
LINE
  5
26FD
330
1E
100
AcDbEntity
  8
HILF
100
AcDbLine
 10
504.0
 20
460.0
 30
0.0
 11
504.0
 21
556.0
 31
0.0
  0
LINE
  5
26FE
330
1E
100
AcDbEntity
  8
HILF
100
AcDbLine
 10
494.0
 20
460.0
 30
0.0
 11
494.0
 21
556.0
 31
0.0
  0
LINE
  5
26FF
330
1E
100
AcDbEntity
  8
VOLL
100
AcDbLine
 10
484.0
 20
600.0
 30
0.0
 11
553.9999999999998
 21
600.0
 31
0.0
  0
LINE
  5
2700
330
1E
100
AcDbEntity
  8
VOLL
100
AcDbLine
 10
514.0
 20
574.0
 30
0.0
 11
553.9999999999998
 21
574.0
 31
0.0
  0
LINE
  5
2701
330
1E
100
AcDbEntity
  8
VOLL
100
AcDbLine
 10
484.0
 20
534.0
 30
0.0
 11
583.9999999999998
 21
534.0
 31
0.0
  0
LINE
  5
2702
330
1E
100
AcDbEntity
  8
VOLL
100
AcDbLine
 10
484.0
 20
514.0
 30
0.0
 11
583.9999999999998
 21
514.0
 31
0.0
  0
LINE
  5
2703
330
1E
100
AcDbEntity
  8
VOLL
100
AcDbLine
 10
484.0
 20
474.0
 30
0.0
 11
583.9999999999998
 21
474.0
 31
0.0
  0
LINE
  5
2704
330
1E
100
AcDbEntity
  8
STEMPEL
100
AcDbLine
 10
514.0
 20
830.0
 30
0.0
 11
514.0
 21
556.0
 31
0.0
  0
LINE
  5
2705
330
1E
100
AcDbEntity
  8
STEMPEL
100
AcDbLine
 10
554.0
 20
830.0
 30
0.0
 11
553.9999999999998
 21
556.0
 31
0.0
  0
LINE
  5
2706
330
1E
100
AcDbEntity
  8
STEMPEL
100
AcDbLine
 10
563.9999999999997
 20
556.0
 30
0.0
 11
563.9999999999997
 21
460.0
 31
0.0
  0
LINE
  5
2707
330
1E
100
AcDbEntity
  8
STEMPEL
100
AcDbLine
 10
484.0
 20
752.0
 30
0.0
 11
554.0
 21
752.0
 31
0.0
  0
LINE
  5
2708
330
1E
100
AcDbEntity
  8
STEMPEL
100
AcDbLine
 10
484.0
 20
640.0
 30
0.0
 11
584.0
 21
640.0
 31
0.0
  0
LINE
  5
2709
330
1E
100
AcDbEntity
  8
STEMPEL
100
AcDbLine
 10
484.0
 20
556.0
 30
0.0
 11
583.9999999999998
 21
556.0
 31
0.0
  0
LINE
  5
270A
330
1E
100
AcDbEntity
  8
STEMPEL
100
AcDbLine
 10
484.0
 20
830.0
 30
0.0
 11
484.0
 21
460.0
 31
0.0
  0
LINE
  5
2739
330
1E
100
AcDbEntity
  8
HILF
100
AcDbLine
 10
594.0
 20
-0.0000000000000568
 30
0.0
 11
594.0
 21
840.0
 31
0.0
  0
LINE
  5
273A
330
1E
100
AcDbEntity
  8
HILF
100
AcDbLine
 10
594.0
 20
840.0
 30
0.0
 11
0.0
 21
840.0
 31
0.0
  0
LINE
  5
273B
330
1E
100
AcDbEntity
  8
HILF
100
AcDbLine
 10
0.0
 20
840.0
 30
0.0
 11
0.0
 21
0.0
 31
0.0
  0
LINE
  5
273C
330
1E
100
AcDbEntity
  8
STEMPEL
100
AcDbLine
 10
10.0
 20
830.0
 30
0.0
 11
10.0
 21
39.99999999999995
 31
0.0
  0
LINE
  5
273D
330
1E
100
AcDbEntity
  8
STEMPEL
100
AcDbLine
 10
584.0
 20
39.99999999999995
 30
0.0
 11
584.0
 21
830.0
 31
0.0
  0
LINE
  5
273E
330
1E
100
AcDbEntity
  8
STEMPEL
100
AcDbLine
 10
584.0
 20
830.0
 30
0.0
 11
10.0
 21
830.0
 31
0.0
  0
LINE
  5
274B
330
1E
100
AcDbEntity
  8
BEM
100
AcDbLine
 10
594.0
 20
455.9999999999999
 30
0.0
 11
584.0
 21
455.9999999999999
 31
0.0
  0
LINE
  5
274C
330
1E
100
AcDbEntity
  8
HILF
100
AcDbLine
 10
594.0
 20
-0.0000000000000568
 30
0.0
 11
0.0
 21
0.0
 31
0.0
  0
LINE
  5
274D
330
1E
100
AcDbEntity
  8
STEMPEL
100
AcDbLine
 10
584.0
 20
39.99999999999995
 30
0.0
 11
10.0
 21
39.99999999999995
 31
0.0
  0
LINE
  5
274E
330
1E
100
AcDbEntity
  8
HILF
100
AcDbLine
 10
297.0
 20
-0.0000000000000568
 30
0.0
 11
297.0
 21
39.99999999999995
 31
0.0
  0
TEXT
  5
274F
330
1E
100
AcDbEntity
  8
BEM
100
AcDbText
 10
583.8320989200114
 20
837.3022923857165
 30
0.0
 40
4.0
  1
Diese Zeichnung ist urheberrechtlich geschützt und bleibt unser Eigentum. Sie darf weder ganz noch teilweise verfielfältigt und nicht an Dritte weitergegeben werden.
 50
180.0
 41
0.8
  7
GREEKS
100
AcDbText
  0
LINE
  5
2751
330
1E
100
AcDbEntity
  8
STEMPEL
100
AcDbLine
 10
484.0
 20
460.0
 30
0.0
 11
583.9999999999998
 21
460.0
 31
0.0
  0
DIMENSION
  5
275A
330
1E
100
AcDbEntity
  8
BEM
100
AcDbDimension
  2
*D1
 10
385.867348234373
 20
175.762055311106
 30
0.0
 11
261.8673482343729
 21
182.262055311106
 31
0.0
 70
    32
 71
     5
 42
248.0
  3
Standard
100
AcDbAlignedDimension
 13
137.8673482343729
 23
196.6247260916976
 33
0.0
 14
385.867348234373
 24
196.6247260916976
 34
0.0
100
AcDbRotatedDimension
1001
ACAD
1000
DSTYLE
1002
{
1070
    40
1040
2.0
1070
    41
1040
3.5
1070
    42
1040
1.0
1070
    43
1040
7.0
1070
    44
1040
1.0
1070
    73
1070
     0
1070
    74
1070
     0
1070
    77
1070
     1
1070
    78
1070
     8
1070
    79
1070
     2
1070
   140
1040
3.5
1070
   141
1040
1.5
1070
   146
1040
0.5
1070
   147
1040
1.5
1070
   172
1070
     1
1070
   178
1070
     1
1070
   179
1070
     2
1070
   271
1070
     2
1070
   272
1070
     2
1070
   284
1070
     8
1070
   285
1070
     8
1070
   286
1070
     8
1002
}
  0
DIMENSION
  5
2767
330
1E
100
AcDbEntity
  8
BEM
100
AcDbDimension
  2
*D2
 10
396.3673482343729
 20
161.0185044164857
 30
0.0
 11
261.8673482343729
 21
167.5185044164857
 31
0.0
 70
    32
 71
     5
 42
269.0
  3
Standard
100
AcDbAlignedDimension
 13
127.3673482343729
 23
208.1247260916977
 33
0.0
 14
396.3673482343729
 24
208.1247260916977
 34
0.0
100
AcDbRotatedDimension
1001
ACAD
1000
DSTYLE
1002
{
1070
    40
1040
2.0
1070
    41
1040
3.5
1070
    42
1040
1.0
1070
    43
1040
7.0
1070
    44
1040
1.0
1070
    73
1070
     0
1070
    74
1070
     0
1070
    77
1070
     1
1070
    78
1070
     8
1070
    79
1070
     2
1070
   140
1040
3.5
1070
   141
1040
1.5
1070
   146
1040
0.5
1070
   147
1040
1.5
1070
   172
1070
     1
1070
   178
1070
     1
1070
   179
1070
     2
1070
   271
1070
     2
1070
   272
1070
     2
1070
   284
1070
     8
1070
   285
1070
     8
1070
   286
1070
     8
1002
}
  0
LWPOLYLINE
  5
27A4
330
1E
100
AcDbEntity
  8
BEM
 62
     1
100
AcDbPolyline
 90
        4
 70
     1
 43
0.0
 10
228.1931073477983
 20
334.7223773914448
 10
228.1931073477983
 20
327.7223773914448
 10
235.1931073477983
 20
327.7223773914448
 10
235.1931073477983
 20
334.7223773914448
  0
DIMENSION
  5
27A5
330
1E
100
AcDbEntity
  8
BEM
100
AcDbDimension
  2
*D3
 10
258.3673482343729
 20
324.5734402509722
 30
0.0
 11
239.5006815677062
 21
324.5734402509722
 31
0.0
 70
   160
 71
     5
 42
7.0
  3
Standard
100
AcDbAlignedDimension
 13
265.3673482343729
 23
324.5160342497375
 33
0.0
 14
258.3673482343729
 24
324.5160342497375
 34
0.0
100
AcDbRotatedDimension
1001
ACAD
1000
DSTYLE
1002
{
1070
    40
1040
2.0
1070
    41
1040
3.5
1070
    42
1040
1.0
1070
    43
1040
7.0
1070
    44
1040
1.0
1070
    73
1070
     0
1070
    74
1070
     0
1070
    77
1070
     1
1070
    78
1070
     8
1070
    79
1070
     2
1070
   140
1040
3.5
1070
   141
1040
1.5
1070
   146
1040
0.5
1070
   147
1040
1.5
1070
   172
1070
     1
1070
   178
1070
     1
1070
   179
1070
     2
1070
   271
1070
     2
1070
   272
1070
     2
1070
   284
1070
     8
1070
   285
1070
     8
1070
   286
1070
     8
1002
}
  0
DIMENSION
  5
27C7
330
1E
100
AcDbEntity
  8
BEM
100
AcDbDimension
  2
*D4
 10
110.349245744178
 20
430.7803300115603
 30
0.0
 11
103.8492457441779
 21
355.7803300115604
 31
0.0
 70
    32
 71
     5
 42
150.0
  3
Standard
100
AcDbAlignedDimension
 13
261.8673482343729
 23
280.7803300115603
 33
0.0
 14
252.6363482343729
 24
430.7803300115603
 34
0.0
 50
90.0
100
AcDbRotatedDimension
1001
ACAD
1000
DSTYLE
1002
{
1070
    40
1040
2.0
1070
    41
1040
3.5
1070
    42
1040
1.0
1070
    43
1040
7.0
1070
    44
1040
1.0
1070
    73
1070
     0
1070
    74
1070
     0
1070
    77
1070
     1
1070
    78
1070
     8
1070
    79
1070
     2
1070
   140
1040
3.5
1070
   141
1040
1.5
1070
   146
1040
0.5
1070
   147
1040
1.5
1070
   172
1070
     1
1070
   178
1070
     1
1070
   179
1070
     2
1070
   271
1070
     2
1070
   272
1070
     2
1070
   284
1070
     8
1070
   285
1070
     8
1070
   286
1070
     8
1002
}
  0
DIMENSION
  5
27D4
330
1E
100
AcDbEntity
  8
BEM
100
AcDbDimension
  2
*D5
 10
110.349245744178
 20
560.7803300115603
 30
0.0
 11
103.8492457441779
 21
579.6469966782269
 31
0.0
 70
    32
 71
     5
 42
3.0
  3
Standard
100
AcDbAlignedDimension
 13
127.3673482343729
 23
557.7803300115602
 33
0.0
 14
127.3673482343729
 24
560.7803300115603
 34
0.0
 50
90.0
100
AcDbRotatedDimension
1001
ACAD
1000
DSTYLE
1002
{
1070
    40
1040
2.0
1070
    41
1040
3.5
1070
    42
1040
1.0
1070
    43
1040
7.0
1070
    44
1040
1.0
1070
    73
1070
     0
1070
    74
1070
     0
1070
    77
1070
     1
1070
    78
1070
     8
1070
    79
1070
     2
1070
   140
1040
3.5
1070
   141
1040
1.5
1070
   146
1040
0.5
1070
   147
1040
1.5
1070
   172
1070
     1
1070
   178
1070
     1
1070
   179
1070
     2
1070
   271
1070
     2
1070
   272
1070
     2
1070
   284
1070
     8
1070
   285
1070
     8
1070
   286
1070
     8
1002
}
  0
DIMENSION
  5
27E3
330
1E
100
AcDbEntity
  8
BEM
100
AcDbDimension
  2
*D6
 10
88.97131474303161
 20
672.7803300115604
 30
0.0
 11
82.47131474303149
 21
476.7803300115604
 31
0.0
 70
    32
 71
     5
 42
392.0000000000001
  3
Standard
100
AcDbAlignedDimension
 13
261.8673482343729
 23
280.7803300115603
 33
0.0
 14
261.8673482343729
 24
672.7803300115603
 34
0.0
 50
90.0
100
AcDbRotatedDimension
1001
ACAD
1000
DSTYLE
1002
{
1070
    40
1040
2.0
1070
    41
1040
3.5
1070
    42
1040
1.0
1070
    43
1040
7.0
1070
    44
1040
1.0
1070
    73
1070
     0
1070
    74
1070
     0
1070
    77
1070
     1
1070
    78
1070
     8
1070
    79
1070
     2
1070
   140
1040
3.5
1070
   141
1040
1.5
1070
   146
1040
0.5
1070
   147
1040
1.5
1070
   172
1070
     1
1070
   178
1070
     1
1070
   179
1070
     2
1070
   271
1070
     2
1070
   272
1070
     2
1070
   284
1070
     8
1070
   285
1070
     8
1070
   286
1070
     8
1002
}
  0
DIMENSION
  5
27F2
330
1E
100
AcDbEntity
  8
BEM
100
AcDbDimension
  2
*D7
 10
335.7490253424263
 20
640.0996034063487
 30
0.0
 11
281.9145712806994
 21
581.3013482547043
 31
0.0
 70
   161
 71
     5
 42
219.0000000000001
  3
Standard
100
AcDbAlignedDimension
 13
187.9232427165939
 23
478.5182147645238
 33
0.0
 14
335.8114537521518
 24
640.0424452585967
 34
0.0
1001
ACAD
1000
DSTYLE
1002
{
1070
    40
1040
2.0
1070
    41
1040
3.5
1070
    42
1040
1.0
1070
    43
1040
7.0
1070
    44
1040
1.0
1070
    73
1070
     0
1070
    74
1070
     0
1070
    77
1070
     1
1070
    78
1070
     8
1070
    79
1070
     2
1070
   140
1040
3.5
1070
   141
1040
1.5
1070
   146
1040
0.5
1070
   147
1040
1.5
1070
   172
1070
     1
1070
   178
1070
     1
1070
   179
1070
     2
1070
   271
1070
     2
1070
   272
1070
     2
1070
   284
1070
     8
1070
   285
1070
     8
1070
   286
1070
     8
1002
}
  0
TEXT
  5
2829
330
1E
100
AcDbEntity
  8
TEXT
 62
     1
100
AcDbText
 10
478.35942916834
 20
647.8365522679117
 30
0.0
 40
7.0
  1
Werkstoff: St37 Dickschichtpassiviert
 50
90.0
 41
0.8
  7
GREEKS
100
AcDbText
  0
DIMENSION
  5
282E
330
1E
100
AcDbEntity
  8
BEM
100
AcDbDimension
  2
*D8
 10
112.0642920584682
 20
195.6247284522822
 30
0.0
 11
105.5642920584682
 21
208.1247284522821
 31
0.0
 70
    32
 71
     5
 42
24.99999999999963
  3
Standard
100
AcDbAlignedDimension
 13
130.716714502646
 23
220.6247284522818
 33
0.0
 14
130.716711776878
 24
195.6247284522822
 34
0.0
 50
90.0
100
AcDbRotatedDimension
1001
ACAD
1000
DSTYLE
1002
{
1070
    40
1040
2.0
1070
    41
1040
3.5
1070
    42
1040
1.0
1070
    43
1040
7.0
1070
    44
1040
1.0
1070
    73
1070
     0
1070
    74
1070
     0
1070
    77
1070
     1
1070
    78
1070
     8
1070
    79
1070
     2
1070
   140
1040
3.5
1070
   141
1040
1.5
1070
   146
1040
0.5
1070
   147
1040
1.5
1070
   172
1070
     1
1070
   178
1070
     1
1070
   179
1070
     2
1070
   271
1070
     2
1070
   272
1070
     2
1070
   284
1070
     8
1070
   285
1070
     8
1070
   286
1070
     8
1002
}
  0
ENDSEC
  0
SECTION
  2
OBJECTS
  0
DICTIONARY
  5
C
330
0
100
AcDbDictionary
281
     1
  3
ACAD_COLOR
350
DF
  3
ACAD_GROUP
350
D
  3
ACAD_LAYOUT
350
19
  3
ACAD_MATERIAL
350
DE
  3
ACAD_MLINESTYLE
350
16
  3
ACAD_PLOTSETTINGS
350
18
  3
ACAD_PLOTSTYLENAME
350
E
  3
AcDbVariableDictionary
350
EA
  0
DICTIONARY
  5
A0
330
1E
100
AcDbDictionary
280
     1
281
     1
  3
ACAD_LAYOUTSELFREF
360
D4
  0
DICTIONARY
  5
A2
330
1A
100
AcDbDictionary
280
     1
281
     1
  3
ACAD_LAYOUTSELFREF
360
D3
  0
DICTIONARY
  5
DF
102
{ACAD_REACTORS
330
C
102
}
330
C
100
AcDbDictionary
281
     1
  0
DICTIONARY
  5
D
102
{ACAD_REACTORS
330
C
102
}
330
C
100
AcDbDictionary
281
     1
  0
DICTIONARY
  5
19
102
{ACAD_REACTORS
330
C
102
}
330
C
100
AcDbDictionary
281
     1
  3
Layout1
350
1D
  3
Model
350
21
  0
DICTIONARY
  5
DE
102
{ACAD_REACTORS
330
C
102
}
330
C
100
AcDbDictionary
281
     1
  0
DICTIONARY
  5
16
102
{ACAD_REACTORS
330
C
102
}
330
C
100
AcDbDictionary
281
     1
  3
Standard
350
17
  0
DICTIONARY
  5
18
102
{ACAD_REACTORS
330
C
102
}
330
C
100
AcDbDictionary
281
     1
  0
ACDBDICTIONARYWDFLT
  5
E
102
{ACAD_REACTORS
330
C
102
}
330
C
100
AcDbDictionary
281
     1
  3
Normal
350
F
100
AcDbDictionaryWithDefault
340
F
  0
DICTIONARY
  5
EA
102
{ACAD_REACTORS
330
C
102
}
330
C
100
AcDbDictionary
281
     1
  3
DIMASSOC
350
EB
  3
PROJECTNAME
350
EC
  0
XRECORD
  5
D4
102
{ACAD_REACTORS
330
A0
102
}
330
A0
100
AcDbXrecord
280
     1
340
1E
  0
XRECORD
  5
D3
102
{ACAD_REACTORS
330
A2
102
}
330
A2
100
AcDbXrecord
280
     1
340
1A
  0
LAYOUT
  5
1D
102
{ACAD_REACTORS
330
19
102
}
330
19
100
AcDbPlotSettings
  1

  2
\\NT_WORK01\HP LaserJet 5000 PCL 6
  4

  6

 40
0.0
 41
0.0
 42
0.0
 43
0.0
 44
0.0
 45
0.0
 46
0.0
 47
0.0
 48
0.0
 49
0.0
140
0.0
141
0.0
142
1.0
143
1.0
 70
   688
 72
     0
 73
     0
 74
     5
  7

 75
    16
147
1.0
 76
     0
 77
     2
 78
   300
148
0.0
149
0.0
100
AcDbLayout
  1
Layout1
 70
     0
 71
     1
 10
0.0
 20
0.0
 11
12.0
 21
9.0
 12
0.0
 22
0.0
 32
0.0
 14
1.000000000000000E+20
 24
1.000000000000000E+20
 34
1.000000000000000E+20
 15
-1.000000000000000E+20
 25
-1.000000000000000E+20
 35
-1.000000000000000E+20
146
0.0
 13
0.0
 23
0.0
 33
0.0
 16
1.0
 26
0.0
 36
0.0
 17
0.0
 27
1.0
 37
0.0
 76
     0
330
1A
  0
LAYOUT
  5
21
102
{ACAD_REACTORS
330
19
102
}
330
19
100
AcDbPlotSettings
  1

  2
none_device
  4
Letter_(8.50_x_11.00_Inches)
  6

 40
6.349999904632568
 41
6.349999904632568
 42
6.350006103515625
 43
6.350006103515625
 44
215.8999938964844
 45
279.3999938964844
 46
0.0
 47
0.0
 48
0.0
 49
0.0
140
0.0
141
0.0
142
1.0
143
1.0
 70
 11952
 72
     0
 73
     1
 74
     0
  7

 75
     0
147
1.0
 76
     0
 77
     2
 78
   300
148
-230.4417396561563
149
47.00486644638983
100
AcDbLayout
  1
Model
 70
     1
 71
     0
 10
0.0
 20
0.0
 11
12.0
 21
9.0
 12
0.0
 22
0.0
 32
0.0
 14
0.0
 24
0.0
 34
0.0
 15
0.0
 25
0.0
 35
0.0
146
0.0
 13
0.0
 23
0.0
 33
0.0
 16
1.0
 26
0.0
 36
0.0
 17
0.0
 27
1.0
 37
0.0
 76
     0
330
1E
  0
MLINESTYLE
  5
17
102
{ACAD_REACTORS
330
16
102
}
330
16
100
AcDbMlineStyle
  2
STANDARD
 70
     0
  3

 62
   256
 51
90.0
 52
90.0
 71
     2
 49
0.5
 62
   256
  6
BYLAYER
 49
-0.5
 62
   256
  6
BYLAYER
  0
ACDBPLACEHOLDER
  5
F
102
{ACAD_REACTORS
330
E
102
}
330
E
  0
DICTIONARYVAR
  5
EB
102
{ACAD_REACTORS
330
EA
102
}
330
EA
100
DictionaryVariables
280
     0
  1
1
  0
DICTIONARYVAR
  5
EC
102
{ACAD_REACTORS
330
EA
102
}
330
EA
100
DictionaryVariables
280
     0
  1

  0
ENDSEC
  0
EOF
