  0
SECTION
  2
HEADER
  9
$ACADVER
  1
AC1018
  9
$ACADMAINTVER
 70
     2
  9
$DWGCODEPAGE
  3
ANSI_1252
  9
$INSBASE
 10
0.0
 20
0.0
 30
0.0
  9
$EXTMIN
 10
-0.0160019244119667
 20
-0.0226312930976747
 30
-0.0000000000000129
  9
$EXTMAX
 10
420.0160227065394
 20
594.0226606849619
 30
0.0000000000000023
  9
$LIMMIN
 10
0.0
 20
0.0
  9
$LIMMAX
 10
419.9999999999999
 20
594.0
  9
$ORTHOMODE
 70
     1
  9
$REGENMODE
 70
     1
  9
$FILLMODE
 70
     1
  9
$QTEXTMODE
 70
     0
  9
$MIRRTEXT
 70
     1
  9
$LTSCALE
 40
20.0
  9
$ATTMODE
 70
     1
  9
$TEXTSIZE
 40
2.5
  9
$TRACEWID
 40
0.5
  9
$TEXTSTYLE
  7
GREEKS
  9
$CLAYER
  8
BEM
  9
$CELTYPE
  6
ByLayer
  9
$CECOLOR
 62
   256
  9
$CELTSCALE
 40
1.0
  9
$DISPSILH
 70
     0
  9
$DIMSCALE
 40
2.0
  9
$DIMASZ
 40
3.5
  9
$DIMEXO
 40
1.0
  9
$DIMDLI
 40
7.0
  9
$DIMRND
 40
0.0
  9
$DIMDLE
 40
0.0
  9
$DIMEXE
 40
1.0
  9
$DIMTP
 40
0.0
  9
$DIMTM
 40
0.0
  9
$DIMTXT
 40
3.5
  9
$DIMCEN
 40
1.5
  9
$DIMTSZ
 40
0.0
  9
$DIMTOL
 70
     0
  9
$DIMLIM
 70
     0
  9
$DIMTIH
 70
     0
  9
$DIMTOH
 70
     0
  9
$DIMSE1
 70
     0
  9
$DIMSE2
 70
     0
  9
$DIMTAD
 70
     1
  9
$DIMZIN
 70
     8
  9
$DIMBLK
  1

  9
$DIMASO
 70
     1
  9
$DIMSHO
 70
     0
  9
$DIMPOST
  1

  9
$DIMAPOST
  1

  9
$DIMALT
 70
     0
  9
$DIMALTD
 70
     2
  9
$DIMALTF
 40
25.4
  9
$DIMLFAC
 40
1.0
  9
$DIMTOFL
 70
     1
  9
$DIMTVP
 40
0.0
  9
$DIMTIX
 70
     0
  9
$DIMSOXD
 70
     0
  9
$DIMSAH
 70
     0
  9
$DIMBLK1
  1

  9
$DIMBLK2
  1

  9
$DIMSTYLE
  2
Standard
  9
$DIMCLRD
 70
     0
  9
$DIMCLRE
 70
     0
  9
$DIMCLRT
 70
     1
  9
$DIMTFAC
 40
0.5
  9
$DIMGAP
 40
1.5
  9
$DIMJUST
 70
     0
  9
$DIMSD1
 70
     0
  9
$DIMSD2
 70
     0
  9
$DIMTOLJ
 70
     1
  9
$DIMTZIN
 70
     8
  9
$DIMALTZ
 70
     8
  9
$DIMALTTZ
 70
     8
  9
$DIMUPT
 70
     0
  9
$DIMDEC
 70
     2
  9
$DIMTDEC
 70
     2
  9
$DIMALTU
 70
     2
  9
$DIMALTTD
 70
     2
  9
$DIMTXSTY
  7
STANDARD
  9
$DIMAUNIT
 70
     0
  9
$DIMADEC
 70
     2
  9
$DIMALTRND
 40
0.0
  9
$DIMAZIN
 70
     2
  9
$DIMDSEP
 70
    46
  9
$DIMATFIT
 70
     3
  9
$DIMFRAC
 70
     0
  9
$DIMLDRBLK
  1

  9
$DIMLUNIT
 70
     2
  9
$DIMLWD
 70
    -2
  9
$DIMLWE
 70
    -2
  9
$DIMTMOVE
 70
     0
  9
$LUNITS
 70
     2
  9
$LUPREC
 70
     2
  9
$SKETCHINC
 40
1.0
  9
$FILLETRAD
 40
0.0
  9
$AUNITS
 70
     0
  9
$AUPREC
 70
     0
  9
$MENU
  1
ACAD
  9
$ELEVATION
 40
0.0
  9
$PELEVATION
 40
0.0
  9
$THICKNESS
 40
0.0
  9
$LIMCHECK
 70
     0
  9
$CHAMFERA
 40
0.0
  9
$CHAMFERB
 40
0.0
  9
$CHAMFERC
 40
0.0
  9
$CHAMFERD
 40
0.0
  9
$SKPOLY
 70
     0
  9
$TDCREATE
 40
2455397.823042361
  9
$TDUCREATE
 40
2455397.781375695
  9
$TDUPDATE
 40
2456230.322624745
  9
$TDUUPDATE
 40
2456230.280958079
  9
$TDINDWG
 40
0.3633254398
  9
$TDUSRTIMER
 40
0.3633254398
  9
$USRTIMER
 70
     1
  9
$ANGBASE
 50
0.0
  9
$ANGDIR
 70
     0
  9
$PDMODE
 70
     0
  9
$PDSIZE
 40
0.0
  9
$PLINEWID
 40
0.0
  9
$SPLFRAME
 70
     0
  9
$SPLINETYPE
 70
     6
  9
$SPLINESEGS
 70
     8
  9
$HANDSEED
  5
2480
  9
$SURFTAB1
 70
     6
  9
$SURFTAB2
 70
     6
  9
$SURFTYPE
 70
     6
  9
$SURFU
 70
     6
  9
$SURFV
 70
     6
  9
$UCSBASE
  2

  9
$UCSNAME
  2

  9
$UCSORG
 10
0.0
 20
0.0
 30
0.0
  9
$UCSXDIR
 10
1.0
 20
0.0
 30
0.0
  9
$UCSYDIR
 10
0.0
 20
1.0
 30
0.0
  9
$UCSORTHOREF
  2

  9
$UCSORTHOVIEW
 70
     0
  9
$UCSORGTOP
 10
0.0
 20
0.0
 30
0.0
  9
$UCSORGBOTTOM
 10
0.0
 20
0.0
 30
0.0
  9
$UCSORGLEFT
 10
0.0
 20
0.0
 30
0.0
  9
$UCSORGRIGHT
 10
0.0
 20
0.0
 30
0.0
  9
$UCSORGFRONT
 10
0.0
 20
0.0
 30
0.0
  9
$UCSORGBACK
 10
0.0
 20
0.0
 30
0.0
  9
$PUCSBASE
  2

  9
$PUCSNAME
  2

  9
$PUCSORG
 10
0.0
 20
0.0
 30
0.0
  9
$PUCSXDIR
 10
1.0
 20
0.0
 30
0.0
  9
$PUCSYDIR
 10
0.0
 20
1.0
 30
0.0
  9
$PUCSORTHOREF
  2

  9
$PUCSORTHOVIEW
 70
     0
  9
$PUCSORGTOP
 10
0.0
 20
0.0
 30
0.0
  9
$PUCSORGBOTTOM
 10
0.0
 20
0.0
 30
0.0
  9
$PUCSORGLEFT
 10
0.0
 20
0.0
 30
0.0
  9
$PUCSORGRIGHT
 10
0.0
 20
0.0
 30
0.0
  9
$PUCSORGFRONT
 10
0.0
 20
0.0
 30
0.0
  9
$PUCSORGBACK
 10
0.0
 20
0.0
 30
0.0
  9
$USERI1
 70
     0
  9
$USERI2
 70
     0
  9
$USERI3
 70
     0
  9
$USERI4
 70
     0
  9
$USERI5
 70
     0
  9
$USERR1
 40
0.0
  9
$USERR2
 40
0.0
  9
$USERR3
 40
0.0
  9
$USERR4
 40
0.0
  9
$USERR5
 40
0.0
  9
$WORLDVIEW
 70
     1
  9
$SHADEDGE
 70
     3
  9
$SHADEDIF
 70
    70
  9
$TILEMODE
 70
     1
  9
$MAXACTVP
 70
    16
  9
$PINSBASE
 10
0.0
 20
0.0
 30
0.0
  9
$PLIMCHECK
 70
     0
  9
$PEXTMIN
 10
1.000000000000000E+20
 20
1.000000000000000E+20
 30
1.000000000000000E+20
  9
$PEXTMAX
 10
-1.000000000000000E+20
 20
-1.000000000000000E+20
 30
-1.000000000000000E+20
  9
$PLIMMIN
 10
0.0
 20
0.0
  9
$PLIMMAX
 10
12.0
 20
9.0
  9
$UNITMODE
 70
     0
  9
$VISRETAIN
 70
     0
  9
$PLINEGEN
 70
     0
  9
$PSLTSCALE
 70
     0
  9
$TREEDEPTH
 70
  3020
  9
$CMLSTYLE
  2
Standard
  9
$CMLJUST
 70
     0
  9
$CMLSCALE
 40
1.0
  9
$PROXYGRAPHICS
 70
     1
  9
$MEASUREMENT
 70
     0
  9
$CELWEIGHT
370
    -1
  9
$ENDCAPS
280
     0
  9
$JOINSTYLE
280
     0
  9
$LWDISPLAY
290
     0
  9
$INSUNITS
 70
     0
  9
$HYPERLINKBASE
  1

  9
$STYLESHEET
  1
monochrome 1.ctb
  9
$XEDIT
290
     1
  9
$CEPSNTYPE
380
     0
  9
$PSTYLEMODE
290
     1
  9
$FINGERPRINTGUID
  2
{D68B0D02-A558-11D7-B632-000102183313}
  9
$VERSIONGUID
  2
{B52B0D8E-8473-4D43-B29A-F685CF355B21}
  9
$EXTNAMES
290
     1
  9
$PSVPSCALE
 40
0.0
  9
$OLESTARTUP
290
     0
  9
$SORTENTS
280
   127
  9
$INDEXCTL
280
     0
  9
$HIDETEXT
280
     0
  9
$XCLIPFRAME
290
     0
  9
$HALOGAP
280
     0
  9
$OBSCOLOR
 70
   257
  9
$OBSLTYPE
280
     0
  9
$INTERSECTIONDISPLAY
280
     0
  9
$INTERSECTIONCOLOR
 70
   257
  9
$DIMASSOC
280
     1
  9
$PROJECTNAME
  1

  0
ENDSEC
  0
SECTION
  2
CLASSES
  0
CLASS
  1
ACDBDICTIONARYWDFLT
  2
AcDbDictionaryWithDefault
  3
ObjectDBX Classes
 90
        0
 91
        1
280
     0
281
     0
  0
CLASS
  1
DICTIONARYVAR
  2
AcDbDictionaryVar
  3
ObjectDBX Classes
 90
        0
 91
        2
280
     0
281
     0
  0
ENDSEC
  0
SECTION
  2
TABLES
  0
TABLE
  2
VPORT
  5
8
330
0
100
AcDbSymbolTable
 70
     3
  0
VPORT
  5
247F
330
8
100
AcDbSymbolTableRecord
100
AcDbViewportTableRecord
  2
*Active
 70
     0
 10
0.0
 20
0.0
 11
1.0
 21
1.0
 12
209.9999999999999
 22
297.0
 13
0.0
 23
0.0
 14
1.0
 24
1.0
 15
10.0
 25
10.0
 16
0.0
 26
0.0
 36
1.0
 17
0.0
 27
0.0
 37
0.0
 40
594.0
 41
1.404858299595141
 42
50.0
 43
0.0
 44
0.0
 50
0.0
 51
0.0
 71
     0
 72
  1500
 73
     1
 74
     0
 75
     0
 76
     0
 77
     0
 78
     0
281
     0
 65
     1
110
0.0
120
0.0
130
0.0
111
1.0
121
0.0
131
0.0
112
0.0
122
1.0
132
0.0
 79
     0
146
0.0
  0
ENDTAB
  0
TABLE
  2
LTYPE
  5
5
330
0
100
AcDbSymbolTable
 70
     2
  0
LTYPE
  5
13
330
5
100
AcDbSymbolTableRecord
100
AcDbLinetypeTableRecord
  2
ByBlock
 70
     0
  3

 72
    65
 73
     0
 40
0.0
  0
LTYPE
  5
14
330
5
100
AcDbSymbolTableRecord
100
AcDbLinetypeTableRecord
  2
ByLayer
 70
     0
  3

 72
    65
 73
     0
 40
0.0
  0
LTYPE
  5
15
330
5
100
AcDbSymbolTableRecord
100
AcDbLinetypeTableRecord
  2
Continuous
 70
     0
  3
Solid line
 72
    65
 73
     0
 40
0.0
  0
LTYPE
  5
25
330
5
100
AcDbSymbolTableRecord
100
AcDbLinetypeTableRecord
  2
STRICHPUNKT
 70
     0
  3
__ . __ . __ . __ . __ . __ . __ . __ . __ . __
 72
    65
 73
     4
 40
1.0
 49
0.5
 74
     0
 49
-0.25
 74
     0
 49
0.0
 74
     0
 49
-0.25
 74
     0
  0
ENDTAB
  0
TABLE
  2
LAYER
  5
2
330
0
100
AcDbSymbolTable
 70
     8
  0
LAYER
  5
10
330
2
100
AcDbSymbolTableRecord
100
AcDbLayerTableRecord
  2
0
 70
     0
 62
     7
  6
Continuous
370
    -3
390
F
  0
LAYER
  5
2A
330
2
100
AcDbSymbolTableRecord
100
AcDbLayerTableRecord
  2
VOLL
 70
     0
 62
     1
  6
Continuous
370
    -3
390
F
  0
LAYER
  5
2B
330
2
100
AcDbSymbolTableRecord
100
AcDbLayerTableRecord
  2
HILF
 70
     0
 62
     2
  6
Continuous
370
    -3
390
F
  0
LAYER
  5
2C
330
2
100
AcDbSymbolTableRecord
100
AcDbLayerTableRecord
  2
MITTEL
 70
     0
 62
     2
  6
STRICHPUNKT
370
    -3
390
F
  0
LAYER
  5
2F
330
2
100
AcDbSymbolTableRecord
100
AcDbLayerTableRecord
  2
BEM
 70
     0
 62
     7
  6
Continuous
370
    -3
390
F
  0
LAYER
  5
30
330
2
100
AcDbSymbolTableRecord
100
AcDbLayerTableRecord
  2
STEMPEL
 70
     0
 62
     3
  6
Continuous
370
    -3
390
F
  0
LAYER
  5
31
330
2
100
AcDbSymbolTableRecord
100
AcDbLayerTableRecord
  2
TEXT
 70
     0
 62
     7
  6
Continuous
370
    -3
390
F
  0
LAYER
  5
1A8
330
2
100
AcDbSymbolTableRecord
100
AcDbLayerTableRecord
  2
Defpoints
 70
     0
 62
     7
  6
Continuous
290
     0
370
    -3
390
F
  0
ENDTAB
  0
TABLE
  2
STYLE
  5
3
330
0
100
AcDbSymbolTable
 70
     2
  0
STYLE
  5
11
330
3
100
AcDbSymbolTableRecord
100
AcDbTextStyleTableRecord
  2
STANDARD
 70
     0
 40
0.0
 41
0.8
 50
0.0
 71
     0
 42
3.5
  3
simplex.shx
  4

  0
STYLE
  5
24
330
3
100
AcDbSymbolTableRecord
100
AcDbTextStyleTableRecord
  2
GREEKS
 70
     0
 40
0.0
 41
0.8
 50
0.0
 71
     0
 42
2.5
  3
SIMPLEX.shx
  4

  0
ENDTAB
  0
TABLE
  2
VIEW
  5
6
330
0
100
AcDbSymbolTable
 70
     0
  0
ENDTAB
  0
TABLE
  2
UCS
  5
7
330
0
100
AcDbSymbolTable
 70
     0
  0
ENDTAB
  0
TABLE
  2
APPID
  5
9
330
0
100
AcDbSymbolTable
 70
     1
  0
APPID
  5
12
330
9
100
AcDbSymbolTableRecord
100
AcDbRegAppTableRecord
  2
ACAD
 70
     0
  0
ENDTAB
  0
TABLE
  2
DIMSTYLE
  5
A
330
0
100
AcDbSymbolTable
 70
     1
100
AcDbDimStyleTable
 71
     1
340
9D
  0
DIMSTYLE
105
9D
102
{ACAD_REACTORS
330
1DD2
330
23D4
330
23E1
330
240E
330
241B
330
242A
330
2438
330
245D
102
}
330
A
100
AcDbSymbolTableRecord
100
AcDbDimStyleTableRecord
  2
Standard
 70
     0
340
11
  0
ENDTAB
  0
TABLE
  2
BLOCK_RECORD
  5
1
330
0
100
AcDbSymbolTable
 70
     9
  0
BLOCK_RECORD
  5
1E
102
{ACAD_XDICTIONARY
360
A0
102
}
330
1
100
AcDbSymbolTableRecord
100
AcDbBlockTableRecord
  2
*Model_Space
340
21
  0
BLOCK_RECORD
  5
1A
102
{ACAD_XDICTIONARY
360
A2
102
}
330
1
100
AcDbSymbolTableRecord
100
AcDbBlockTableRecord
  2
*Paper_Space
340
1D
  0
BLOCK_RECORD
  5
22
330
1
100
AcDbSymbolTableRecord
100
AcDbBlockTableRecord
  2
LOGO
340
0
102
{BLKREFS
331
9B
102
}
  0
BLOCK_RECORD
  5
1DD4
330
1
100
AcDbSymbolTableRecord
100
AcDbBlockTableRecord
  2
*D1
340
0
  0
BLOCK_RECORD
  5
23D5
330
1
100
AcDbSymbolTableRecord
100
AcDbBlockTableRecord
  2
*D2
340
0
  0
BLOCK_RECORD
  5
23E2
330
1
100
AcDbSymbolTableRecord
100
AcDbBlockTableRecord
  2
*D3
340
0
  0
BLOCK_RECORD
  5
240F
330
1
100
AcDbSymbolTableRecord
100
AcDbBlockTableRecord
  2
*D4
340
0
  0
BLOCK_RECORD
  5
241C
330
1
100
AcDbSymbolTableRecord
100
AcDbBlockTableRecord
  2
*D5
340
0
  0
BLOCK_RECORD
  5
242B
330
1
100
AcDbSymbolTableRecord
100
AcDbBlockTableRecord
  2
*D6
340
0
  0
BLOCK_RECORD
  5
2439
330
1
100
AcDbSymbolTableRecord
100
AcDbBlockTableRecord
  2
*D7
340
0
  0
BLOCK_RECORD
  5
245E
330
1
100
AcDbSymbolTableRecord
100
AcDbBlockTableRecord
  2
*D8
340
0
  0
ENDTAB
  0
ENDSEC
  0
SECTION
  2
BLOCKS
  0
BLOCK
  5
35
330
1E
100
AcDbEntity
  8
0
100
AcDbBlockBegin
  2
*Model_Space
 70
     0
 10
0.0
 20
0.0
 30
0.0
  3
*Model_Space
  1

  0
ENDBLK
  5
36
330
1E
100
AcDbEntity
  8
0
100
AcDbBlockEnd
  0
BLOCK
  5
33
330
1A
100
AcDbEntity
 67
     1
  8
0
100
AcDbBlockBegin
  2
*Paper_Space
 70
     0
 10
0.0
 20
0.0
 30
0.0
  3
*Paper_Space
  1

  0
ENDBLK
  5
34
330
1A
100
AcDbEntity
 67
     1
  8
0
100
AcDbBlockEnd
  0
BLOCK
  5
37
330
22
100
AcDbEntity
  8
0
100
AcDbBlockBegin
  2
LOGO
 70
     0
 10
0.0
 20
0.0
 30
0.0
  3
LOGO
  1

  0
ARC
  5
38
330
22
100
AcDbEntity
  8
0
100
AcDbCircle
 10
11.59973089678112
 20
-9.271599258481501
 30
0.0
 40
4.5
100
AcDbArc
 50
270.0
 51
231.0575587310159
  0
LINE
  5
39
330
22
100
AcDbEntity
  8
0
100
AcDbLine
 10
3.599730896781125
 20
-4.771599258481529
 30
0.0
 11
3.599730896781153
 21
-11.77159925848133
 31
0.0
  0
LINE
  5
3A
330
22
100
AcDbEntity
  8
0
100
AcDbLine
 10
2.599730896781125
 20
-4.771599258481529
 30
0.0
 11
2.599730896781153
 21
-11.77159925848133
 31
0.0
  0
CIRCLE
  5
3B
330
22
100
AcDbEntity
  8
0
100
AcDbCircle
 10
11.59973089678112
 20
-9.271599258481501
 30
0.0
 40
3.5
  0
ARC
  5
3C
330
22
100
AcDbEntity
  8
0
100
AcDbCircle
 10
31.59973089678115
 20
-9.271599258481472
 30
0.0
 40
4.5
100
AcDbArc
 50
270.0
 51
231.0575587310182
  0
LINE
  5
3D
330
22
100
AcDbEntity
  8
0
100
AcDbLine
 10
17.59973089678112
 20
-4.771599258481472
 30
0.0
 11
17.59973089678115
 21
-13.77159925848147
 31
0.0
  0
ARC
  5
3E
330
22
100
AcDbEntity
  8
0
100
AcDbCircle
 10
22.59973089678116
 20
-7.271599258481472
 30
0.0
 40
2.5
100
AcDbArc
 50
293.1161887722295
 51
90.0
  0
CIRCLE
  5
3F
330
22
100
AcDbEntity
  8
0
100
AcDbCircle
 10
31.59973089678115
 20
-9.271599258481472
 30
0.0
 40
3.5
  0
ARC
  5
40
330
22
100
AcDbEntity
  8
0
100
AcDbCircle
 10
4.599730896781153
 20
-11.77159925848133
 30
0.0
 40
1.0
100
AcDbArc
 50
180.0
 51
270.0
  0
ARC
  5
41
330
22
100
AcDbEntity
  8
0
100
AcDbCircle
 10
4.599730896781153
 20
-11.77159925848133
 30
0.0
 40
2.0
100
AcDbArc
 50
179.9999999999992
 51
270.0
  0
LINE
  5
42
330
22
100
AcDbEntity
  8
0
100
AcDbLine
 10
11.59973089678115
 20
-13.77159925848144
 30
0.0
 11
4.599730896781153
 21
-13.77159925848147
 31
0.0
  0
LINE
  5
43
330
22
100
AcDbEntity
  8
0
100
AcDbLine
 10
8.771303772034769
 20
-12.77159925848136
 30
0.0
 11
4.599730896781153
 21
-12.77159925848133
 31
0.0
  0
LINE
  5
44
330
22
100
AcDbEntity
  8
0
100
AcDbLine
 10
31.59973089678115
 20
-13.77159925848147
 30
0.0
 11
23.6715276665056
 21
-13.77159925848144
 31
0.0
  0
LINE
  5
45
330
22
100
AcDbEntity
  8
0
100
AcDbLine
 10
23.56565672307022
 20
-9.51278021337896
 30
0.0
 11
24.4388546544846
 21
-12.77159925848144
 31
0.0
  0
LINE
  5
46
330
22
100
AcDbEntity
  8
0
100
AcDbLine
 10
22.59973089678116
 20
-9.771599258481472
 30
0.0
 11
18.59973089678112
 21
-9.771599258481472
 31
0.0
  0
LINE
  5
47
330
22
100
AcDbEntity
  8
0
100
AcDbLine
 10
18.59973089678115
 20
-13.77159925848144
 30
0.0
 11
17.59973089678115
 21
-13.77159925848144
 31
0.0
  0
LINE
  5
48
330
22
100
AcDbEntity
  8
0
100
AcDbLine
 10
18.59973089678115
 20
-9.771599258481472
 30
0.0
 11
18.59973089678115
 21
-13.77159925848144
 31
0.0
  0
LINE
  5
49
330
22
100
AcDbEntity
  8
0
100
AcDbLine
 10
22.59973089678116
 20
-9.771599258481472
 30
0.0
 11
23.67152766650562
 21
-13.77159925848147
 31
0.0
  0
ARC
  5
4A
330
22
100
AcDbEntity
  8
0
100
AcDbCircle
 10
22.59973089678116
 20
-7.271599258481472
 30
0.0
 40
2.5
100
AcDbArc
 50
270.0
 51
270.0000000000007
  0
LINE
  5
4B
330
22
100
AcDbEntity
  8
0
100
AcDbLine
 10
28.77130377203494
 20
-12.77159925848147
 30
0.0
 11
24.43885465448463
 21
-12.77159925848144
 31
0.0
  0
LINE
  5
4C
330
22
100
AcDbEntity
  8
0
100
AcDbLine
 10
3.599730896781125
 20
-4.771599258481472
 30
0.0
 11
2.599730896781125
 21
-4.771599258481472
 31
0.0
  0
LINE
  5
4D
330
22
100
AcDbEntity
  8
0
100
AcDbLine
 10
22.59973089678116
 20
-8.771599258481472
 30
0.0
 11
18.59973089678115
 21
-8.771599258481472
 31
0.0
  0
LINE
  5
4E
330
22
100
AcDbEntity
  8
0
100
AcDbLine
 10
22.59973089678116
 20
-5.771599258481472
 30
0.0
 11
18.59973089678115
 21
-5.771599258481472
 31
0.0
  0
LINE
  5
4F
330
22
100
AcDbEntity
  8
0
100
AcDbLine
 10
22.59973089678116
 20
-4.771599258481472
 30
0.0
 11
17.59973089678115
 21
-4.771599258481472
 31
0.0
  0
LINE
  5
50
330
22
100
AcDbEntity
  8
0
100
AcDbLine
 10
18.59973089678115
 20
-5.771599258481472
 30
0.0
 11
18.59973089678115
 21
-8.771599258481472
 31
0.0
  0
ARC
  5
51
330
22
100
AcDbEntity
  8
0
100
AcDbCircle
 10
22.59973089678116
 20
-7.271599258481472
 30
0.0
 40
1.5
100
AcDbArc
 50
270.0
 51
90.0
  0
ENDBLK
  5
52
330
22
100
AcDbEntity
  8
0
100
AcDbBlockEnd
  0
BLOCK
  5
1DE0
330
1DD4
100
AcDbEntity
  8
0
100
AcDbBlockBegin
  2
*D1
 70
     1
 10
0.0
 20
0.0
 30
0.0
  3
*D1
  1

  0
LINE
  5
23C9
330
1DD4
100
AcDbEntity
  8
BEM
 62
     0
370
    -2
100
AcDbLine
 10
239.7095054358102
 20
297.6314221780036
 30
0.0
 11
239.7095054358102
 21
297.6888281792382
 31
0.0
  0
LINE
  5
23CA
330
1DD4
100
AcDbEntity
  8
BEM
 62
     0
370
    -2
100
AcDbLine
 10
232.7095054358102
 20
297.6314221780036
 30
0.0
 11
232.7095054358102
 21
297.6888281792382
 31
0.0
  0
LINE
  5
23CB
330
1DD4
100
AcDbEntity
  8
BEM
 62
     0
370
    -2
100
AcDbLine
 10
246.7095054358102
 20
295.6888281792382
 30
0.0
 11
253.7095054358102
 21
295.6888281792382
 31
0.0
  0
LINE
  5
23CC
330
1DD4
100
AcDbEntity
  8
BEM
 62
     0
370
    -2
100
AcDbLine
 10
225.7095054358102
 20
295.6888281792382
 30
0.0
 11
208.9761721024769
 21
295.6888281792382
 31
0.0
  0
LINE
  5
23CD
330
1DD4
100
AcDbEntity
  8
BEM
 62
     0
370
    -2
100
AcDbLine
 10
239.7095054358102
 20
295.6888281792382
 30
0.0
 11
232.7095054358102
 21
295.6888281792382
 31
0.0
  0
SOLID
  5
23CE
330
1DD4
100
AcDbEntity
  8
BEM
 62
     0
100
AcDbTrace
 10
246.7095054358102
 20
296.8554948459049
 30
0.0
 11
246.7095054358102
 21
294.5221615125715
 31
0.0
 12
239.7095054358102
 22
295.6888281792382
 32
0.0
 13
239.7095054358102
 23
295.6888281792382
 33
0.0
  0
SOLID
  5
23CF
330
1DD4
100
AcDbEntity
  8
BEM
 62
     0
100
AcDbTrace
 10
225.7095054358102
 20
296.8554948459049
 30
0.0
 11
225.7095054358102
 21
294.5221615125715
 31
0.0
 12
232.7095054358102
 22
295.6888281792382
 32
0.0
 13
232.7095054358102
 23
295.6888281792382
 33
0.0
  0
MTEXT
  5
23D0
330
1DD4
100
AcDbEntity
  8
BEM
 62
     1
100
AcDbMText
 10
213.8428387691436
 20
302.1888281792382
 30
0.0
 40
7.0
 41
0.0
 71
     5
 72
     1
  1
\A1;7
 73
     1
 44
1.0
  0
POINT
  5
23D1
330
1DD4
100
AcDbEntity
  8
Defpoints
 62
     0
100
AcDbPoint
 10
239.7095054358102
 20
295.6314221780036
 30
0.0
  0
POINT
  5
23D2
330
1DD4
100
AcDbEntity
  8
Defpoints
 62
     0
100
AcDbPoint
 10
232.7095054358102
 20
295.6314221780036
 30
0.0
  0
POINT
  5
23D3
330
1DD4
100
AcDbEntity
  8
Defpoints
 62
     0
100
AcDbPoint
 10
232.7095054358102
 20
295.6888281792382
 30
0.0
  0
ENDBLK
  5
1DE1
330
1DD4
100
AcDbEntity
  8
0
100
AcDbBlockEnd
  0
BLOCK
  5
23DF
330
23D5
100
AcDbEntity
  8
0
100
AcDbBlockBegin
  2
*D2
 70
     1
 10
0.0
 20
0.0
 30
0.0
  3
*D2
  1

  0
LINE
  5
23D6
330
23D5
100
AcDbEntity
  8
BEM
 62
     0
370
    -2
100
AcDbLine
 10
142.2095054358103
 20
188.4500652644573
 30
0.0
 11
142.2095054358103
 21
168.3627554286941
 31
0.0
  0
LINE
  5
23D7
330
23D5
100
AcDbEntity
  8
BEM
 62
     0
370
    -2
100
AcDbLine
 10
330.2095054358103
 20
188.4500652644573
 30
0.0
 11
330.2095054358103
 21
168.3627554286941
 31
0.0
  0
LINE
  5
23D8
330
23D5
100
AcDbEntity
  8
BEM
 62
     0
370
    -2
100
AcDbLine
 10
149.2095054358103
 20
170.362755428694
 30
0.0
 11
323.2095054358103
 21
170.362755428694
 31
0.0
  0
SOLID
  5
23D9
330
23D5
100
AcDbEntity
  8
BEM
 62
     0
100
AcDbTrace
 10
149.2095054358103
 20
171.5294220953607
 30
0.0
 11
149.2095054358103
 21
169.1960887620274
 31
0.0
 12
142.2095054358103
 22
170.362755428694
 32
0.0
 13
142.2095054358103
 23
170.362755428694
 33
0.0
  0
SOLID
  5
23DA
330
23D5
100
AcDbEntity
  8
BEM
 62
     0
100
AcDbTrace
 10
323.2095054358103
 20
171.5294220953607
 30
0.0
 11
323.2095054358103
 21
169.1960887620274
 31
0.0
 12
330.2095054358103
 22
170.362755428694
 32
0.0
 13
330.2095054358103
 23
170.362755428694
 33
0.0
  0
MTEXT
  5
23DB
330
23D5
100
AcDbEntity
  8
BEM
 62
     1
100
AcDbMText
 10
236.2095054358103
 20
176.8627554286941
 30
0.0
 40
7.0
 41
0.0
 71
     5
 72
     1
  1
\A1;188
 73
     1
 44
1.0
  0
POINT
  5
23DC
330
23D5
100
AcDbEntity
  8
Defpoints
 62
     0
100
AcDbPoint
 10
142.2095054358103
 20
190.4500652644573
 30
0.0
  0
POINT
  5
23DD
330
23D5
100
AcDbEntity
  8
Defpoints
 62
     0
100
AcDbPoint
 10
330.2095054358103
 20
190.4500652644573
 30
0.0
  0
POINT
  5
23DE
330
23D5
100
AcDbEntity
  8
Defpoints
 62
     0
100
AcDbPoint
 10
330.2095054358103
 20
170.362755428694
 30
0.0
  0
ENDBLK
  5
23E0
330
23D5
100
AcDbEntity
  8
0
100
AcDbBlockEnd
  0
BLOCK
  5
23EC
330
23E2
100
AcDbEntity
  8
0
100
AcDbBlockBegin
  2
*D3
 70
     1
 10
0.0
 20
0.0
 30
0.0
  3
*D3
  1

  0
LINE
  5
23E3
330
23E2
100
AcDbEntity
  8
BEM
 62
     0
370
    -2
100
AcDbLine
 10
131.7095054358102
 20
199.9500652644573
 30
0.0
 11
131.7095054358102
 21
154.2442603522595
 31
0.0
  0
LINE
  5
23E4
330
23E2
100
AcDbEntity
  8
BEM
 62
     0
370
    -2
100
AcDbLine
 10
340.7095054358102
 20
199.9500652644573
 30
0.0
 11
340.7095054358102
 21
154.2442603522595
 31
0.0
  0
LINE
  5
23E5
330
23E2
100
AcDbEntity
  8
BEM
 62
     0
370
    -2
100
AcDbLine
 10
138.7095054358102
 20
156.2442603522595
 30
0.0
 11
333.7095054358102
 21
156.2442603522595
 31
0.0
  0
SOLID
  5
23E6
330
23E2
100
AcDbEntity
  8
BEM
 62
     0
100
AcDbTrace
 10
138.7095054358102
 20
157.4109270189262
 30
0.0
 11
138.7095054358102
 21
155.0775936855928
 31
0.0
 12
131.7095054358102
 22
156.2442603522595
 32
0.0
 13
131.7095054358102
 23
156.2442603522595
 33
0.0
  0
SOLID
  5
23E7
330
23E2
100
AcDbEntity
  8
BEM
 62
     0
100
AcDbTrace
 10
333.7095054358102
 20
157.4109270189262
 30
0.0
 11
333.7095054358102
 21
155.0775936855928
 31
0.0
 12
340.7095054358102
 22
156.2442603522595
 32
0.0
 13
340.7095054358102
 23
156.2442603522595
 33
0.0
  0
MTEXT
  5
23E8
330
23E2
100
AcDbEntity
  8
BEM
 62
     1
100
AcDbMText
 10
236.2095054358102
 20
162.7442603522595
 30
0.0
 40
7.0
 41
0.0
 71
     5
 72
     1
  1
\A1;209
 73
     1
 44
1.0
  0
POINT
  5
23E9
330
23E2
100
AcDbEntity
  8
Defpoints
 62
     0
100
AcDbPoint
 10
131.7095054358102
 20
201.9500652644573
 30
0.0
  0
POINT
  5
23EA
330
23E2
100
AcDbEntity
  8
Defpoints
 62
     0
100
AcDbPoint
 10
340.7095054358102
 20
201.9500652644573
 30
0.0
  0
POINT
  5
23EB
330
23E2
100
AcDbEntity
  8
Defpoints
 62
     0
100
AcDbPoint
 10
340.7095054358102
 20
156.2442603522595
 30
0.0
  0
ENDBLK
  5
23ED
330
23E2
100
AcDbEntity
  8
0
100
AcDbBlockEnd
  0
BLOCK
  5
2419
330
240F
100
AcDbEntity
  8
0
100
AcDbBlockBegin
  2
*D4
 70
     1
 10
0.0
 20
0.0
 30
0.0
  3
*D4
  1

  0
LINE
  5
2410
330
240F
100
AcDbEntity
  8
BEM
 62
     0
370
    -2
100
AcDbLine
 10
234.2095054358102
 20
251.8957179398263
 30
0.0
 11
116.3283252317028
 21
251.8957179398264
 31
0.0
  0
LINE
  5
2411
330
240F
100
AcDbEntity
  8
BEM
 62
     0
370
    -2
100
AcDbLine
 10
224.9795054358103
 20
371.8957179398263
 30
0.0
 11
116.3283252317028
 21
371.8957179398264
 31
0.0
  0
LINE
  5
2412
330
240F
100
AcDbEntity
  8
BEM
 62
     0
370
    -2
100
AcDbLine
 10
118.3283252317028
 20
258.8957179398264
 30
0.0
 11
118.3283252317028
 21
364.8957179398264
 31
0.0
  0
SOLID
  5
2413
330
240F
100
AcDbEntity
  8
BEM
 62
     0
100
AcDbTrace
 10
117.1616585650361
 20
258.8957179398264
 30
0.0
 11
119.4949918983694
 21
258.8957179398264
 31
0.0
 12
118.3283252317028
 22
251.8957179398264
 32
0.0
 13
118.3283252317028
 23
251.8957179398264
 33
0.0
  0
SOLID
  5
2414
330
240F
100
AcDbEntity
  8
BEM
 62
     0
100
AcDbTrace
 10
117.1616585650361
 20
364.8957179398264
 30
0.0
 11
119.4949918983695
 21
364.8957179398264
 31
0.0
 12
118.3283252317028
 22
371.8957179398264
 32
0.0
 13
118.3283252317028
 23
371.8957179398264
 33
0.0
  0
MTEXT
  5
2415
330
240F
100
AcDbEntity
  8
BEM
 62
     1
100
AcDbMText
 10
111.8283252317027
 20
311.8957179398264
 30
0.0
 40
7.0
 41
0.0
 71
     5
 72
     1
  1
\A1;120
 11
0.0000000000000001
 21
1.0
 31
0.0
 73
     1
 44
1.0
  0
POINT
  5
2416
330
240F
100
AcDbEntity
  8
Defpoints
 62
     0
100
AcDbPoint
 10
236.2095054358102
 20
251.8957179398263
 30
0.0
  0
POINT
  5
2417
330
240F
100
AcDbEntity
  8
Defpoints
 62
     0
100
AcDbPoint
 10
226.9795054358103
 20
371.8957179398263
 30
0.0
  0
POINT
  5
2418
330
240F
100
AcDbEntity
  8
Defpoints
 62
     0
100
AcDbPoint
 10
118.3283252317028
 20
371.8957179398264
 30
0.0
  0
ENDBLK
  5
241A
330
240F
100
AcDbEntity
  8
0
100
AcDbBlockEnd
  0
BLOCK
  5
2428
330
241C
100
AcDbEntity
  8
0
100
AcDbBlockBegin
  2
*D5
 70
     1
 10
0.0
 20
0.0
 30
0.0
  3
*D5
  1

  0
LINE
  5
241D
330
241C
100
AcDbEntity
  8
BEM
 62
     0
370
    -2
100
AcDbLine
 10
129.7095054358102
 20
466.8957179398263
 30
0.0
 11
116.3283252317028
 21
466.8957179398264
 31
0.0
  0
LINE
  5
241E
330
241C
100
AcDbEntity
  8
BEM
 62
     0
370
    -2
100
AcDbLine
 10
129.7095054358102
 20
469.8957179398263
 30
0.0
 11
116.3283252317028
 21
469.8957179398264
 31
0.0
  0
LINE
  5
241F
330
241C
100
AcDbEntity
  8
BEM
 62
     0
370
    -2
100
AcDbLine
 10
118.3283252317028
 20
459.8957179398263
 30
0.0
 11
118.3283252317028
 21
452.8957179398264
 31
0.0
  0
LINE
  5
2420
330
241C
100
AcDbEntity
  8
BEM
 62
     0
370
    -2
100
AcDbLine
 10
118.3283252317028
 20
476.8957179398263
 30
0.0
 11
118.3283252317028
 21
493.6290512731597
 31
0.0
  0
LINE
  5
2421
330
241C
100
AcDbEntity
  8
BEM
 62
     0
370
    -2
100
AcDbLine
 10
118.3283252317028
 20
466.8957179398264
 30
0.0
 11
118.3283252317028
 21
469.8957179398264
 31
0.0
  0
SOLID
  5
2422
330
241C
100
AcDbEntity
  8
BEM
 62
     0
100
AcDbTrace
 10
117.1616585650361
 20
459.8957179398263
 30
0.0
 11
119.4949918983695
 21
459.8957179398263
 31
0.0
 12
118.3283252317028
 22
466.8957179398264
 32
0.0
 13
118.3283252317028
 23
466.8957179398264
 33
0.0
  0
SOLID
  5
2423
330
241C
100
AcDbEntity
  8
BEM
 62
     0
100
AcDbTrace
 10
117.1616585650361
 20
476.8957179398263
 30
0.0
 11
119.4949918983695
 21
476.8957179398263
 31
0.0
 12
118.3283252317028
 22
469.8957179398264
 32
0.0
 13
118.3283252317028
 23
469.8957179398264
 33
0.0
  0
MTEXT
  5
2424
330
241C
100
AcDbEntity
  8
BEM
 62
     1
100
AcDbMText
 10
111.8283252317027
 20
488.762384606493
 30
0.0
 40
7.0
 41
0.0
 71
     5
 72
     1
  1
\A1;3
 11
0.0000000000000001
 21
1.0
 31
0.0
 73
     1
 44
1.0
  0
POINT
  5
2425
330
241C
100
AcDbEntity
  8
Defpoints
 62
     0
100
AcDbPoint
 10
131.7095054358102
 20
466.8957179398263
 30
0.0
  0
POINT
  5
2426
330
241C
100
AcDbEntity
  8
Defpoints
 62
     0
100
AcDbPoint
 10
131.7095054358102
 20
469.8957179398263
 30
0.0
  0
POINT
  5
2427
330
241C
100
AcDbEntity
  8
Defpoints
 62
     0
100
AcDbPoint
 10
118.3283252317028
 20
469.8957179398264
 30
0.0
  0
ENDBLK
  5
2429
330
241C
100
AcDbEntity
  8
0
100
AcDbBlockEnd
  0
BLOCK
  5
2435
330
242B
100
AcDbEntity
  8
0
100
AcDbBlockBegin
  2
*D6
 70
     1
 10
0.0
 20
0.0
 30
0.0
  3
*D6
  1

  0
LINE
  5
242C
330
242B
100
AcDbEntity
  8
BEM
 62
     0
370
    -2
100
AcDbLine
 10
234.2095054358102
 20
251.8957179398263
 30
0.0
 11
101.1657912867098
 21
251.8957179398264
 31
0.0
  0
LINE
  5
242D
330
242B
100
AcDbEntity
  8
BEM
 62
     0
370
    -2
100
AcDbLine
 10
234.2095054358102
 20
551.8957179398263
 30
0.0
 11
101.1657912867099
 21
551.8957179398263
 31
0.0
  0
LINE
  5
242E
330
242B
100
AcDbEntity
  8
BEM
 62
     0
370
    -2
100
AcDbLine
 10
103.1657912867098
 20
258.8957179398264
 30
0.0
 11
103.1657912867099
 21
544.8957179398263
 31
0.0
  0
SOLID
  5
242F
330
242B
100
AcDbEntity
  8
BEM
 62
     0
100
AcDbTrace
 10
101.9991246200432
 20
258.8957179398264
 30
0.0
 11
104.3324579533765
 21
258.8957179398264
 31
0.0
 12
103.1657912867098
 22
251.8957179398264
 32
0.0
 13
103.1657912867098
 23
251.8957179398264
 33
0.0
  0
SOLID
  5
2430
330
242B
100
AcDbEntity
  8
BEM
 62
     0
100
AcDbTrace
 10
101.9991246200432
 20
544.8957179398263
 30
0.0
 11
104.3324579533766
 21
544.8957179398263
 31
0.0
 12
103.1657912867099
 22
551.8957179398263
 32
0.0
 13
103.1657912867099
 23
551.8957179398263
 33
0.0
  0
MTEXT
  5
2431
330
242B
100
AcDbEntity
  8
BEM
 62
     1
100
AcDbMText
 10
96.66579128670983
 20
401.8957179398263
 30
0.0
 40
7.0
 41
0.0
 71
     5
 72
     1
  1
\A1;300
 11
0.0000000000000001
 21
1.0
 31
0.0
 73
     1
 44
1.0
  0
POINT
  5
2432
330
242B
100
AcDbEntity
  8
Defpoints
 62
     0
100
AcDbPoint
 10
236.2095054358102
 20
251.8957179398263
 30
0.0
  0
POINT
  5
2433
330
242B
100
AcDbEntity
  8
Defpoints
 62
     0
100
AcDbPoint
 10
236.2095054358102
 20
551.8957179398263
 30
0.0
  0
POINT
  5
2434
330
242B
100
AcDbEntity
  8
Defpoints
 62
     0
100
AcDbPoint
 10
103.1657912867099
 20
551.8957179398263
 30
0.0
  0
ENDBLK
  5
2436
330
242B
100
AcDbEntity
  8
0
100
AcDbBlockEnd
  0
BLOCK
  5
2441
330
2439
100
AcDbEntity
  8
0
100
AcDbBlockBegin
  2
*D7
 70
     1
 10
0.0
 20
0.0
 30
0.0
  3
*D7
  1

  0
LINE
  5
244A
330
2439
100
AcDbEntity
  8
BEM
 62
     0
370
    -2
100
AcDbLine
 10
184.5781766219351
 20
407.9105471330242
 30
0.0
 11
184.4698852248152
 21
407.9983763741585
 31
0.0
  0
LINE
  5
244B
330
2439
100
AcDbEntity
  8
BEM
 62
     0
370
    -2
100
AcDbLine
 10
284.7341668195639
 20
531.4005371222232
 30
0.0
 11
284.625875422444
 21
531.4883663633574
 31
0.0
  0
LINE
  5
244C
330
2439
100
AcDbEntity
  8
BEM
 62
     0
370
    -2
100
AcDbLine
 10
190.4326016484743
 20
412.1752188240273
 30
0.0
 11
281.7698254136075
 21
524.7918763613471
 31
0.0
  0
SOLID
  5
244D
330
2439
100
AcDbEntity
  8
BEM
 62
     0
100
AcDbTrace
 10
189.5264906108177
 20
412.9101160267352
 30
0.0
 11
191.3387126861309
 21
411.4403216213193
 31
0.0
 12
186.0232184322265
 22
406.7385525980877
 32
0.0
 13
186.0232184322265
 23
406.7385525980877
 33
0.0
  0
SOLID
  5
244E
330
2439
100
AcDbEntity
  8
BEM
 62
     0
100
AcDbTrace
 10
280.8637143759508
 20
525.5267735640551
 30
0.0
 11
282.6759364512641
 21
524.0569791586391
 31
0.0
 12
286.1792086298553
 22
530.2285425872867
 32
0.0
 13
286.1792086298553
 23
530.2285425872867
 33
0.0
  0
MTEXT
  5
244F
330
2439
100
AcDbEntity
  8
BEM
 62
     1
100
AcDbMText
 10
245.8783042199713
 20
490.8573749282044
 30
0.0
 40
7.0
 41
0.0
 71
     5
 72
     1
  1
\A1;159
 11
0.6299118880354015
 21
0.7766666037056546
 31
0.0
 73
     1
 44
1.0
  0
POINT
  5
2450
330
2439
100
AcDbEntity
  8
Defpoints
 62
     0
100
AcDbPoint
 10
186.1315098293464
 20
406.6507233569534
 30
0.0
  0
POINT
  5
2451
330
2439
100
AcDbEntity
  8
Defpoints
 62
     0
100
AcDbPoint
 10
286.2875000269752
 20
530.1407133461524
 30
0.0
  0
POINT
  5
2452
330
2439
100
AcDbEntity
  8
Defpoints
 62
     0
100
AcDbPoint
 10
286.1792086298553
 20
530.2285425872867
 30
0.0
  0
ENDBLK
  5
2442
330
2439
100
AcDbEntity
  8
0
100
AcDbBlockEnd
  0
BLOCK
  5
2468
330
245E
100
AcDbEntity
  8
0
100
AcDbBlockBegin
  2
*D8
 70
     1
 10
0.0
 20
0.0
 30
0.0
  3
*D8
  1

  0
LINE
  5
245F
330
245E
100
AcDbEntity
  8
BEM
 62
     0
370
    -2
100
AcDbLine
 10
133.0588717040833
 20
214.4500676250415
 30
0.0
 11
117.174452318357
 21
214.4500676250415
 31
0.0
  0
LINE
  5
2460
330
245E
100
AcDbEntity
  8
BEM
 62
     0
370
    -2
100
AcDbLine
 10
133.0588689783153
 20
189.4500676250418
 30
0.0
 11
117.174452318357
 21
189.4500676250418
 31
0.0
  0
LINE
  5
2461
330
245E
100
AcDbEntity
  8
BEM
 62
     0
370
    -2
100
AcDbLine
 10
119.174452318357
 20
207.4500676250415
 30
0.0
 11
119.174452318357
 21
196.4500676250418
 31
0.0
  0
SOLID
  5
2462
330
245E
100
AcDbEntity
  8
BEM
 62
     0
100
AcDbTrace
 10
118.0077856516903
 20
207.4500676250415
 30
0.0
 11
120.3411189850236
 21
207.4500676250415
 31
0.0
 12
119.174452318357
 22
214.4500676250415
 32
0.0
 13
119.174452318357
 23
214.4500676250415
 33
0.0
  0
SOLID
  5
2463
330
245E
100
AcDbEntity
  8
BEM
 62
     0
100
AcDbTrace
 10
118.0077856516903
 20
196.4500676250418
 30
0.0
 11
120.3411189850236
 21
196.4500676250418
 31
0.0
 12
119.174452318357
 22
189.4500676250418
 32
0.0
 13
119.174452318357
 23
189.4500676250418
 33
0.0
  0
MTEXT
  5
2464
330
245E
100
AcDbEntity
  8
BEM
 62
     1
100
AcDbMText
 10
112.6744523183569
 20
201.9500676250417
 30
0.0
 40
7.0
 41
0.0
 71
     5
 72
     1
  1
\A1;25
 11
0.0000000000000001
 21
1.0
 31
0.0
 73
     1
 44
1.0
  0
POINT
  5
2465
330
245E
100
AcDbEntity
  8
Defpoints
 62
     0
100
AcDbPoint
 10
135.0588717040833
 20
214.4500676250415
 30
0.0
  0
POINT
  5
2466
330
245E
100
AcDbEntity
  8
Defpoints
 62
     0
100
AcDbPoint
 10
135.0588689783153
 20
189.4500676250418
 30
0.0
  0
POINT
  5
2467
330
245E
100
AcDbEntity
  8
Defpoints
 62
     0
100
AcDbPoint
 10
119.174452318357
 20
189.4500676250418
 30
0.0
  0
ENDBLK
  5
2469
330
245E
100
AcDbEntity
  8
0
100
AcDbBlockEnd
  0
ENDSEC
  0
SECTION
  2
ENTITIES
  0
LINE
  5
57
330
1E
100
AcDbEntity
  8
STEMPEL
100
AcDbLine
 10
410.0
 20
110.0
 30
0.0
 11
39.99999999999997
 21
110.0
 31
0.0
  0
LINE
  5
58
330
1E
100
AcDbEntity
  8
STEMPEL
100
AcDbLine
 10
136.0000000000001
 20
109.9999999999999
 30
0.0
 11
136.0
 21
9.999999999999971
 31
0.0
  0
LINE
  5
59
330
1E
100
AcDbEntity
  8
STEMPEL
100
AcDbLine
 10
220.0
 20
110.0
 30
0.0
 11
220.0
 21
9.999999999999971
 31
0.0
  0
LINE
  5
5A
330
1E
100
AcDbEntity
  8
STEMPEL
100
AcDbLine
 10
332.0
 20
109.9999999999997
 30
0.0
 11
332.0
 21
40.0
 31
0.0
  0
LINE
  5
5B
330
1E
100
AcDbEntity
  8
STEMPEL
100
AcDbLine
 10
135.9999999999999
 20
29.99999999999997
 30
0.0
 11
39.99999999999997
 21
29.99999999999997
 31
0.0
  0
LINE
  5
5C
330
1E
100
AcDbEntity
  8
STEMPEL
100
AcDbLine
 10
410.0
 20
40.0
 30
0.0
 11
136.0000000000001
 21
39.99999999999997
 31
0.0
  0
LINE
  5
5D
330
1E
100
AcDbEntity
  8
STEMPEL
100
AcDbLine
 10
410.0
 20
80.0
 30
0.0
 11
136.0000000000001
 21
79.99999999999994
 31
0.0
  0
LINE
  5
5E
330
1E
100
AcDbEntity
  8
VOLL
100
AcDbLine
 10
54.00000000000009
 20
110.0
 30
0.0
 11
53.99999999999997
 21
9.999999999999971
 31
0.0
  0
LINE
  5
5F
330
1E
100
AcDbEntity
  8
VOLL
100
AcDbLine
 10
94.00000000000011
 20
109.9999999999999
 30
0.0
 11
94.0
 21
9.999999999999971
 31
0.0
  0
LINE
  5
60
330
1E
100
AcDbEntity
  8
VOLL
100
AcDbLine
 10
114.0000000000001
 20
109.9999999999999
 30
0.0
 11
114.0
 21
9.999999999999971
 31
0.0
  0
LINE
  5
61
330
1E
100
AcDbEntity
  8
VOLL
100
AcDbLine
 10
154.0000000000001
 20
79.99999999999994
 30
0.0
 11
154.0000000000001
 21
39.99999999999997
 31
0.0
  0
LINE
  5
62
330
1E
100
AcDbEntity
  8
VOLL
100
AcDbLine
 10
180.0000000000001
 20
109.9999999999998
 30
0.0
 11
180.0
 21
39.99999999999997
 31
0.0
  0
LINE
  5
63
330
1E
100
AcDbEntity
  8
HILF
100
AcDbLine
 10
40.00000000000008
 20
100.0
 30
0.0
 11
136.0000000000001
 21
100.0
 31
0.0
  0
LINE
  5
64
330
1E
100
AcDbEntity
  8
HILF
100
AcDbLine
 10
40.00000000000008
 20
90.00000000000005
 30
0.0
 11
136.0000000000001
 21
90.00000000000005
 31
0.0
  0
LINE
  5
65
330
1E
100
AcDbEntity
  8
HILF
100
AcDbLine
 10
40.00000000000008
 20
79.99999999999994
 30
0.0
 11
136.0000000000001
 21
79.99999999999994
 31
0.0
  0
LINE
  5
66
330
1E
100
AcDbEntity
  8
HILF
100
AcDbLine
 10
40.00000000000008
 20
69.99999999999994
 30
0.0
 11
136.0000000000001
 21
69.99999999999994
 31
0.0
  0
LINE
  5
67
330
1E
100
AcDbEntity
  8
HILF
100
AcDbLine
 10
40.00000000000008
 20
59.99999999999997
 30
0.0
 11
136.0000000000001
 21
59.99999999999997
 31
0.0
  0
LINE
  5
68
330
1E
100
AcDbEntity
  8
HILF
100
AcDbLine
 10
40.00000000000008
 20
49.99999999999997
 30
0.0
 11
136.0000000000001
 21
49.99999999999997
 31
0.0
  0
LINE
  5
69
330
1E
100
AcDbEntity
  8
HILF
100
AcDbLine
 10
40.00000000000008
 20
39.99999999999997
 30
0.0
 11
136.0000000000001
 21
39.99999999999997
 31
0.0
  0
LINE
  5
6A
330
1E
100
AcDbEntity
  8
HILF
100
AcDbLine
 10
136.0000000000001
 20
69.99999999999994
 30
0.0
 11
220.0
 21
69.99999999999994
 31
0.0
  0
LINE
  5
6B
330
1E
100
AcDbEntity
  8
HILF
100
AcDbLine
 10
136.0000000000001
 20
59.99999999999997
 30
0.0
 11
220.0
 21
59.99999999999997
 31
0.0
  0
LINE
  5
6C
330
1E
100
AcDbEntity
  8
HILF
100
AcDbLine
 10
136.0000000000001
 20
49.99999999999997
 30
0.0
 11
220.0
 21
49.99999999999997
 31
0.0
  0
LINE
  5
6D
330
1E
100
AcDbEntity
  8
HILF
100
AcDbLine
 10
224.7736801096948
 20
84.03758247564139
 30
0.0
 11
324.8353916556311
 21
84.03758247564139
 31
0.0
  0
LINE
  5
6E
330
1E
100
AcDbEntity
  8
HILF
100
AcDbLine
 10
224.7736801096948
 20
69.99999999999994
 30
0.0
 11
324.835391655631
 21
69.99999999999994
 31
0.0
  0
LINE
  5
6F
330
1E
100
AcDbEntity
  8
HILF
100
AcDbLine
 10
224.7736801096948
 20
59.99999999999997
 30
0.0
 11
324.835391655631
 21
59.99999999999997
 31
0.0
  0
LINE
  5
70
330
1E
100
AcDbEntity
  8
HILF
100
AcDbLine
 10
224.7736801096948
 20
49.99999999999997
 30
0.0
 11
324.835391655631
 21
49.99999999999997
 31
0.0
  0
LINE
  5
71
330
1E
100
AcDbEntity
  8
VOLL
100
AcDbLine
 10
332.0
 20
60.0
 30
0.0
 11
410.0
 21
60.0
 31
0.0
  0
LINE
  5
72
330
1E
100
AcDbEntity
  8
HILF
100
AcDbLine
 10
336.7238616296993
 20
83.77983636955827
 30
0.0
 11
404.8588839326728
 21
83.77983636955827
 31
0.0
  0
LINE
  5
73
330
1E
100
AcDbEntity
  8
HILF
100
AcDbLine
 10
223.4909699289885
 20
14.89398258028314
 30
0.0
 11
404.8588839326728
 21
14.89398258028314
 31
0.0
  0
TEXT
  5
74
330
1E
100
AcDbEntity
  8
TEXT
100
AcDbText
 10
63.86165979631819
 20
18.67381894984132
 30
0.0
 40
4.0
  1
Änderung
 41
0.8
  7
GREEKS
 72
     1
 11
74.60451693917534
 21
18.67381894984132
 31
0.0
100
AcDbText
  0
TEXT
  5
75
330
1E
100
AcDbEntity
  8
TEXT
100
AcDbText
 10
143.5163572150377
 20
102.4620895087088
 30
0.0
 40
5.0
  1
Maßstab
 41
0.8
  7
GREEKS
100
AcDbText
  0
TEXT
  5
76
330
1E
100
AcDbEntity
  8
TEXT
100
AcDbText
 10
184.2858954734051
 20
102.4184168434819
 30
0.0
 40
5.0
  1
Zul. Abw.
 41
0.8
  7
GREEKS
100
AcDbText
  0
TEXT
  5
77
330
1E
100
AcDbEntity
  8
TEXT
100
AcDbText
 10
224.877940380901
 20
102.5489328011779
 30
0.0
 40
5.0
  1
Benennung
 41
0.8
  7
GREEKS
100
AcDbText
  0
TEXT
  5
78
330
1E
100
AcDbEntity
  8
TEXT
100
AcDbText
 10
336.178754957634
 20
102.3132034537136
 30
0.0
 40
5.0
  1
Zeichnungs Nr.
 41
0.8
  7
GREEKS
100
AcDbText
  0
TEXT
  5
79
330
1E
100
AcDbEntity
  8
TEXT
100
AcDbText
 10
224.742238391136
 20
30.84560570193057
 30
0.0
 40
5.0
  1
Bauvorhaben
 41
0.8
  7
GREEKS
100
AcDbText
  0
TEXT
  5
7A
330
1E
100
AcDbEntity
  8
TEXT
100
AcDbText
 10
336.7238616296993
 20
73.1811823709997
 30
0.0
 40
5.0
  1
Ersatz für:
 41
0.8
  7
GREEKS
100
AcDbText
  0
TEXT
  5
7B
330
1E
100
AcDbEntity
  8
TEXT
100
AcDbText
 10
48.26641107045756
 20
13.65465846027192
 30
0.0
 40
4.0
  1
Index
 50
90.0
 41
0.8
  7
GREEKS
100
AcDbText
  0
TEXT
  5
7C
330
1E
100
AcDbEntity
  8
TEXT
100
AcDbText
 10
100.0934676075481
 20
18.6715626933981
 30
0.0
 40
4.0
  1
Tag
 41
0.8
  7
GREEKS
 72
     1
 11
103.8268009408814
 21
18.6715626933981
 31
0.0
100
AcDbText
  0
TEXT
  5
7D
330
1E
100
AcDbEntity
  8
TEXT
100
AcDbText
 10
119.0122744386592
 20
18.59324216966408
 30
0.0
 40
4.0
  1
Name
 41
0.8
  7
GREEKS
 72
     1
 11
125.3360839624688
 21
18.59324216966408
 31
0.0
100
AcDbText
  0
TEXT
  5
7E
330
1E
100
AcDbEntity
  8
TEXT
100
AcDbText
 10
162.3311673153651
 20
73.31880501229926
 30
0.0
 40
4.0
  1
Tag
 41
0.8
  7
GREEKS
100
AcDbText
  0
TEXT
  5
7F
330
1E
100
AcDbEntity
  8
TEXT
100
AcDbText
 10
192.4626584226295
 20
73.30961091915225
 30
0.0
 40
4.0
  1
Name
 41
0.8
  7
GREEKS
100
AcDbText
  0
TEXT
  5
80
330
1E
100
AcDbEntity
  8
TEXT
100
AcDbText
 10
137.5836127167615
 20
63.62990369617964
 30
0.0
 40
4.0
  1
Gez.
 41
0.8
  7
GREEKS
100
AcDbText
  0
TEXT
  5
81
330
1E
100
AcDbEntity
  8
TEXT
100
AcDbText
 10
137.5515086571672
 20
53.68926291428377
 30
0.0
 40
4.0
  1
Gepr.
 41
0.8
  7
GREEKS
100
AcDbText
  0
TEXT
  5
82
330
1E
100
AcDbEntity
  8
TEXT
100
AcDbText
 10
137.6006777387304
 20
43.52946389649807
 30
0.0
 40
4.0
  1
Norm.
 41
0.8
  7
GREEKS
100
AcDbText
  0
LINE
  5
83
330
1E
100
AcDbEntity
  8
STEMPEL
100
AcDbLine
 10
49.99999999999989
 20
10.0
 30
0.0
 11
410.0
 21
10.0
 31
0.0
  0
TEXT
  5
84
330
1E
100
AcDbEntity
  8
TEXT
100
AcDbText
 10
337.2400861497006
 20
52.07416177878602
 30
0.0
 40
5.0
  1
ersetzt durch:
 41
0.8
  7
GREEKS
100
AcDbText
  0
LINE
  5
85
330
1E
100
AcDbEntity
  8
STEMPEL
100
AcDbLine
 10
410.0
 20
10.0
 30
0.0
 11
39.99999999999989
 21
10.0
 31
0.0
  0
LINE
  5
86
330
1E
100
AcDbEntity
  8
STEMPEL
100
AcDbLine
 10
410.0
 20
10.0
 30
0.0
 11
410.0
 21
584.0
 31
0.0
  0
LINE
  5
87
330
1E
100
AcDbEntity
  8
STEMPEL
100
AcDbLine
 10
40.0
 20
10.0
 30
0.0
 11
39.99999999999989
 21
584.0
 31
0.0
  0
LINE
  5
88
330
1E
100
AcDbEntity
  8
STEMPEL
100
AcDbLine
 10
410.0
 20
584.0
 30
0.0
 11
39.99999999999989
 21
584.0
 31
0.0
  0
LINE
  5
89
330
1E
100
AcDbEntity
  8
HILF
100
AcDbLine
 10
0.0
 20
0.0
 30
0.0
 11
-0.0000000000001137
 21
594.0
 31
0.0
  0
LINE
  5
8A
330
1E
100
AcDbEntity
  8
HILF
100
AcDbLine
 10
419.9999999999999
 20
594.0000000000002
 30
0.0
 11
0.0
 21
594.0
 31
0.0
  0
LINE
  5
8B
330
1E
100
AcDbEntity
  8
HILF
100
AcDbLine
 10
420.0
 20
0.0
 30
0.0
 11
0.0
 21
0.0
 31
0.0
  0
LINE
  5
8C
330
1E
100
AcDbEntity
  8
HILF
100
AcDbLine
 10
31.08767135713856
 20
297.0
 30
0.0
 11
0.0000000000001137
 21
297.0
 31
0.0
  0
TEXT
  5
8D
330
1E
100
AcDbEntity
  8
TEXT
100
AcDbText
 10
138.622109822104
 20
73.14025471151666
 30
0.0
 40
4.0
  1
2012
 41
0.8
  7
GREEKS
100
AcDbText
  0
LINE
  5
8E
330
1E
100
AcDbEntity
  8
HILF
100
AcDbLine
 10
420.0
 20
-0.0000000000001137
 30
0.0
 11
419.9999999999999
 21
594.0
 31
0.0
  0
TEXT
  5
8F
330
1E
100
AcDbEntity
  8
VOLL
100
AcDbText
 10
78.07675471698113
 20
31.02594776470585
 30
0.0
 40
1.8
  1

  7
GREEKS
100
AcDbText
  0
TEXT
  5
90
330
1E
100
AcDbEntity
  8
TEXT
100
AcDbText
 10
41.85509950977674
 20
111.6719999999999
 30
0.0
 40
5.0
  1
Erstellt mit AUTOCAD 2004
 41
0.8
  7
GREEKS
100
AcDbText
  0
TEXT
  5
91
330
1E
100
AcDbEntity
  8
TEXT
100
AcDbText
 10
194.4216048581257
 20
63.0896391972351
 30
0.0
 40
4.0
  1
Koeh
 41
0.8
  7
GREEKS
 72
     1
 11
199.6787477152685
 21
63.0896391972351
 31
0.0
100
AcDbText
  0
TEXT
  5
92
330
1E
100
AcDbEntity
  8
TEXT
 62
     1
100
AcDbText
 10
347.3455321527032
 20
88.14901428913959
 30
0.0
 40
7.0
  1
00990150W
 41
0.8
  7
GREEKS
 72
     1
 11
370.8121988193699
 21
88.14901428913959
 31
0.0
100
AcDbText
  0
TEXT
  5
93
330
1E
100
AcDbEntity
  8
TEXT
 62
     1
100
AcDbText
 10
150.5006306481887
 20
88.14901428913959
 30
0.0
 40
7.0
  1
1:2
 41
0.8
  7
GREEKS
100
AcDbText
  0
TEXT
  5
94
330
1E
100
AcDbEntity
  8
TEXT
100
AcDbText
 10
160.7037590129979
 20
63.10765040825732
 30
0.0
 40
4.0
  1
29.10.
 41
0.8
  7
GREEKS
 72
     1
 11
167.4085209177598
 21
63.10765040825732
 31
0.0
100
AcDbText
  0
TEXT
  5
95
330
1E
100
AcDbEntity
  8
TEXT
 62
     1
100
AcDbText
 10
226.8935731057402
 20
87.41748789253779
 30
0.0
 40
7.0
  1
Rohrschelle DN150
 41
0.8
  7
GREEKS
100
AcDbText
  0
TEXT
  5
96
330
1E
100
AcDbEntity
  8
TEXT
100
AcDbText
 10
225.1296391125315
 20
71.50334417585288
 30
0.0
 40
5.0
  1
mit Schlagstift
 41
0.8
  7
GREEKS
100
AcDbText
  0
TEXT
  5
98
330
1E
100
AcDbEntity
  8
TEXT
100
AcDbText
 10
225.1296391125315
 20
51.64011943042158
 30
0.0
 40
5.0
  1
EDV-Art.Nr. 00990.150X
 41
0.8
  7
GREEKS
100
AcDbText
  0
TEXT
  5
99
330
1E
100
AcDbEntity
  8
TEXT
100
AcDbText
 10
224.9837501577827
 20
42.62974153022632
 30
0.0
 40
4.0
  1
00990150W.DWG
 41
0.8
  7
GREEKS
100
AcDbText
  0
TEXT
  5
9A
330
1E
100
AcDbEntity
  8
TEXT
100
AcDbText
 10
182.626132208084
 20
90.76363841023022
 30
0.0
 40
4.0
  1
DIN EN1123-2
 41
0.8
  7
GREEKS
 72
     1
 11
199.6166083985602
 21
90.76363841023022
 31
0.0
100
AcDbText
  0
INSERT
  5
9B
330
1E
100
AcDbEntity
  8
STEMPEL
100
AcDbBlockReference
  2
LOGO
 10
140.9955485457794
 20
45.02105276448322
 30
0.0
 41
2.0
 42
2.0
 43
2.0
  0
TEXT
  5
118
330
1E
100
AcDbEntity
  8
BEM
100
AcDbText
 10
417.3022923857165
 20
10.16790107998849
 30
0.0
 40
4.0
  1
Diese Zeichnung ist urheberrechtlich geschützt und bleibt unser Eigentum. Sie darf weder ganz noch teilweise verfielfältigt und nicht an Dritte weitergegeben werden.
 50
90.0
 41
0.8
  7
GREEKS
100
AcDbText
  0
TEXT
  5
C1B
330
1E
100
AcDbEntity
  8
TEXT
 62
     1
100
AcDbText
 10
333.1731548277555
 20
500.4451401623671
 30
0.0
 40
7.0
  1
Schraube M8x30
 41
0.8
  7
GREEKS
100
AcDbText
  0
LINE
  5
C1C
330
1E
100
AcDbEntity
  8
TEXT
 62
     2
100
AcDbLine
 10
331.0532618317101
 20
497.0652347454707
 30
0.0
 11
406.0549436493405
 21
497.0652347454707
 31
0.0
  0
LINE
  5
C1D
330
1E
100
AcDbEntity
  8
TEXT
 62
     2
100
AcDbLine
 10
331.0532618317101
 20
497.0652347454707
 30
0.0
 11
327.3959424216095
 21
474.015531704124
 31
0.0
  0
DIMENSION
  5
1DD2
330
1E
100
AcDbEntity
  8
BEM
100
AcDbDimension
  2
*D1
 10
232.7095054358102
 20
295.6888281792382
 30
0.0
 11
213.8428387691436
 21
295.6888281792382
 31
0.0
 70
   160
 71
     5
 42
7.0
  3
Standard
100
AcDbAlignedDimension
 13
239.7095054358102
 23
295.6314221780036
 33
0.0
 14
232.7095054358102
 24
295.6314221780036
 34
0.0
100
AcDbRotatedDimension
1001
ACAD
1000
DSTYLE
1002
{
1070
    40
1040
2.0
1070
    41
1040
3.5
1070
    42
1040
1.0
1070
    43
1040
7.0
1070
    44
1040
1.0
1070
    73
1070
     0
1070
    74
1070
     0
1070
    77
1070
     1
1070
    78
1070
     8
1070
    79
1070
     2
1070
   140
1040
3.5
1070
   141
1040
1.5
1070
   146
1040
0.5
1070
   147
1040
1.5
1070
   172
1070
     1
1070
   178
1070
     1
1070
   179
1070
     2
1070
   271
1070
     2
1070
   272
1070
     2
1070
   284
1070
     8
1070
   285
1070
     8
1070
   286
1070
     8
1002
}
  0
LWPOLYLINE
  5
1DD3
330
1E
100
AcDbEntity
  8
BEM
 62
     1
100
AcDbPolyline
 90
        4
 70
     1
 43
0.0
 10
202.5352645492357
 20
305.8377653197108
 10
202.5352645492357
 20
298.8377653197109
 10
209.5352645492357
 20
298.8377653197109
 10
209.5352645492357
 20
305.8377653197108
  0
LINE
  5
22E6
330
1E
100
AcDbEntity
  8
HILF
100
AcDbLine
 10
326.7245054358102
 20
441.8957179398263
 30
0.0
 11
326.7245054358102
 21
462.8957179398263
 31
0.0
  0
LINE
  5
22E7
330
1E
100
AcDbEntity
  8
HILF
100
AcDbLine
 10
333.2245054358102
 20
441.8957179398263
 30
0.0
 11
333.2245054358102
 21
462.8957179398263
 31
0.0
  0
LINE
  5
22E8
330
1E
100
AcDbEntity
  8
STEMPEL
100
AcDbLine
 10
333.9745054358102
 20
442.6457179398263
 30
0.0
 11
325.9745054358102
 21
442.6457179398263
 31
0.0
  0
LINE
  5
22E9
330
1E
100
AcDbEntity
  8
HILF
100
AcDbLine
 10
333.9745054358102
 20
469.0967179398263
 30
0.0
 11
325.9745054358102
 21
469.0967179398263
 31
0.0
  0
LINE
  5
22EB
330
1E
100
AcDbEntity
  8
HILF
100
AcDbLine
 10
326.7245054358102
 20
466.8957179398263
 30
0.0
 11
326.7245054358102
 21
469.0967179398263
 31
0.0
  0
LINE
  5
22ED
330
1E
100
AcDbEntity
  8
HILF
100
AcDbLine
 10
333.2245054358102
 20
466.8957179398263
 30
0.0
 11
333.2245054358102
 21
469.0967179398263
 31
0.0
  0
LINE
  5
22EE
330
1E
100
AcDbEntity
  8
STEMPEL
100
AcDbLine
 10
325.9745054358102
 20
466.8957179398263
 30
0.0
 11
325.9745054358102
 21
471.8957179398263
 31
0.0
  0
LINE
  5
22EF
330
1E
100
AcDbEntity
  8
STEMPEL
100
AcDbLine
 10
333.9745054358102
 20
470.4557179398263
 30
0.0
 11
333.9745054358102
 21
466.8957179398263
 31
0.0
  0
ARC
  5
22F0
330
1E
100
AcDbEntity
  8
STEMPEL
100
AcDbCircle
 10
329.9745054358102
 20
466.0377179398263
 30
0.0
 40
11.158
100
AcDbArc
 50
95.91552076700034
 51
109.652859632001
  0
ARC
  5
22F1
330
1E
100
AcDbEntity
  8
STEMPEL
100
AcDbCircle
 10
329.9745054358102
 20
466.0377179398263
 30
0.0
 40
11.158
100
AcDbArc
 50
70.34714036799893
 51
84.08447923299966
  0
LINE
  5
22F2
330
1E
100
AcDbEntity
  8
STEMPEL
100
AcDbLine
 10
328.8245054358102
 20
477.1957179398263
 30
0.0
 11
324.3455054358103
 21
477.1957179398263
 31
0.0
  0
LINE
  5
22F3
330
1E
100
AcDbEntity
  8
STEMPEL
100
AcDbLine
 10
328.8245054358102
 20
474.6957179398263
 30
0.0
 11
328.8245054358102
 21
477.1957179398263
 31
0.0
  0
LINE
  5
22F4
330
1E
100
AcDbEntity
  8
STEMPEL
100
AcDbLine
 10
331.1245054358103
 20
474.6957179398263
 30
0.0
 11
328.8245054358102
 21
474.6957179398263
 31
0.0
  0
LINE
  5
22F5
330
1E
100
AcDbEntity
  8
STEMPEL
100
AcDbLine
 10
331.1245054358103
 20
477.1957179398263
 30
0.0
 11
331.1245054358103
 21
474.6957179398263
 31
0.0
  0
LINE
  5
22F6
330
1E
100
AcDbEntity
  8
STEMPEL
100
AcDbLine
 10
335.6035054358102
 20
477.1957179398263
 30
0.0
 11
331.1245054358103
 21
477.1957179398263
 31
0.0
  0
LINE
  5
22F7
330
1E
100
AcDbEntity
  8
STEMPEL
100
AcDbLine
 10
325.9745054358102
 20
442.6457179398263
 30
0.0
 11
325.9745054358102
 21
462.8957179398263
 31
0.0
  0
LINE
  5
22F8
330
1E
100
AcDbEntity
  8
STEMPEL
100
AcDbLine
 10
326.7245054358102
 20
441.8957179398263
 30
0.0
 11
325.9745054358102
 21
442.6457179398263
 31
0.0
  0
LINE
  5
22F9
330
1E
100
AcDbEntity
  8
STEMPEL
100
AcDbLine
 10
333.2245054358102
 20
441.8957179398263
 30
0.0
 11
326.7245054358102
 21
441.8957179398263
 31
0.0
  0
LINE
  5
22FA
330
1E
100
AcDbEntity
  8
STEMPEL
100
AcDbLine
 10
333.9745054358102
 20
442.6457179398263
 30
0.0
 11
333.2245054358102
 21
441.8957179398263
 31
0.0
  0
LINE
  5
22FB
330
1E
100
AcDbEntity
  8
STEMPEL
100
AcDbLine
 10
333.9745054358102
 20
462.8957179398263
 30
0.0
 11
333.9745054358102
 21
442.6457179398263
 31
0.0
  0
LINE
  5
22FC
330
1E
100
AcDbEntity
  8
STEMPEL
100
AcDbLine
 10
333.7275054358102
 20
476.5457179398262
 30
0.0
 11
333.7275054358102
 21
473.8957179398263
 31
0.0
  0
ARC
  5
22FD
330
1E
100
AcDbEntity
  8
STEMPEL
100
AcDbCircle
 10
335.6035054358102
 20
474.1627179398263
 30
0.0
 40
3.032999999999999
100
AcDbArc
 50
90.0
 51
128.2132107020002
  0
ARC
  5
22FE
330
1E
100
AcDbEntity
  8
STEMPEL
100
AcDbCircle
 10
335.6035054358102
 20
474.1627179398263
 30
0.0
 40
3.032999999999999
100
AcDbArc
 50
51.78678929799973
 51
90.0
  0
LINE
  5
22FF
330
1E
100
AcDbEntity
  8
STEMPEL
100
AcDbLine
 10
337.4795054358103
 20
471.8957179398263
 30
0.0
 11
337.4795054358103
 21
476.5457179398262
 31
0.0
  0
LINE
  5
2300
330
1E
100
AcDbEntity
  8
STEMPEL
100
AcDbLine
 10
335.2775054358103
 20
471.8957179398263
 30
0.0
 11
337.4795054358103
 21
471.8957179398263
 31
0.0
  0
LINE
  5
2301
330
1E
100
AcDbEntity
  8
STEMPEL
100
AcDbLine
 10
325.5745054358103
 20
471.8957179398263
 30
0.0
 11
333.1315054358102
 21
471.8957179398263
 31
0.0
  0
LINE
  5
2302
330
1E
100
AcDbEntity
  8
STEMPEL
100
AcDbLine
 10
322.4685054358102
 20
471.8957179398263
 30
0.0
 11
325.5745054358103
 21
471.8957179398263
 31
0.0
  0
LINE
  5
2303
330
1E
100
AcDbEntity
  8
STEMPEL
100
AcDbLine
 10
322.4685054358102
 20
476.5457179398262
 30
0.0
 11
322.4685054358102
 21
471.8957179398263
 31
0.0
  0
ARC
  5
2304
330
1E
100
AcDbEntity
  8
STEMPEL
100
AcDbCircle
 10
324.3455054358103
 20
474.1627179398263
 30
0.0
 40
3.032999999999999
100
AcDbArc
 50
90.0
 51
128.2132107020002
  0
ARC
  5
2305
330
1E
100
AcDbEntity
  8
STEMPEL
100
AcDbCircle
 10
324.3455054358103
 20
474.1627179398263
 30
0.0
 40
3.032999999999999
100
AcDbArc
 50
51.78678929799973
 51
90.0
  0
LINE
  5
2306
330
1E
100
AcDbEntity
  8
STEMPEL
100
AcDbLine
 10
326.2215054358103
 20
471.8957179398263
 30
0.0
 11
326.2215054358103
 21
476.5457179398262
 31
0.0
  0
LINE
  5
2307
330
1E
100
AcDbEntity
  8
HILF
100
AcDbLine
 10
139.1955054358102
 20
441.8957179398263
 30
0.0
 11
139.1955054358102
 21
462.8957179398263
 31
0.0
  0
LINE
  5
2308
330
1E
100
AcDbEntity
  8
HILF
100
AcDbLine
 10
145.6955054358102
 20
441.8957179398263
 30
0.0
 11
145.6955054358102
 21
462.8957179398263
 31
0.0
  0
LINE
  5
2309
330
1E
100
AcDbEntity
  8
STEMPEL
100
AcDbLine
 10
146.4455054358102
 20
442.6457179398263
 30
0.0
 11
138.4455054358102
 21
442.6457179398263
 31
0.0
  0
LINE
  5
230A
330
1E
100
AcDbEntity
  8
HILF
100
AcDbLine
 10
146.4455054358102
 20
469.0967179398263
 30
0.0
 11
138.4455054358102
 21
469.0967179398263
 31
0.0
  0
LINE
  5
230C
330
1E
100
AcDbEntity
  8
HILF
100
AcDbLine
 10
139.1955054358102
 20
466.8957179398263
 30
0.0
 11
139.1955054358102
 21
469.0967179398263
 31
0.0
  0
LINE
  5
230E
330
1E
100
AcDbEntity
  8
HILF
100
AcDbLine
 10
145.6955054358102
 20
466.8957179398263
 30
0.0
 11
145.6955054358102
 21
469.0967179398263
 31
0.0
  0
LINE
  5
230F
330
1E
100
AcDbEntity
  8
STEMPEL
100
AcDbLine
 10
138.4455054358102
 20
466.8957179398263
 30
0.0
 11
138.4455054358102
 21
469.8957179398263
 31
0.0
  0
LINE
  5
2310
330
1E
100
AcDbEntity
  8
STEMPEL
100
AcDbLine
 10
146.4455054358102
 20
469.8957179398263
 30
0.0
 11
146.4455054358102
 21
466.8957179398263
 31
0.0
  0
ARC
  5
2311
330
1E
100
AcDbEntity
  8
STEMPEL
100
AcDbCircle
 10
142.4455054358102
 20
466.0377179398263
 30
0.0
 40
11.158
100
AcDbArc
 50
95.91552076700034
 51
109.652859632001
  0
ARC
  5
2312
330
1E
100
AcDbEntity
  8
STEMPEL
100
AcDbCircle
 10
142.4455054358102
 20
466.0377179398263
 30
0.0
 40
11.158
100
AcDbArc
 50
70.34714036799893
 51
84.08447923299966
  0
LINE
  5
2313
330
1E
100
AcDbEntity
  8
STEMPEL
100
AcDbLine
 10
141.2955054358102
 20
477.1957179398263
 30
0.0
 11
136.8165054358102
 21
477.1957179398263
 31
0.0
  0
LINE
  5
2314
330
1E
100
AcDbEntity
  8
STEMPEL
100
AcDbLine
 10
141.2955054358102
 20
474.6957179398263
 30
0.0
 11
141.2955054358102
 21
477.1957179398263
 31
0.0
  0
LINE
  5
2315
330
1E
100
AcDbEntity
  8
STEMPEL
100
AcDbLine
 10
143.5955054358103
 20
474.6957179398263
 30
0.0
 11
141.2955054358102
 21
474.6957179398263
 31
0.0
  0
LINE
  5
2316
330
1E
100
AcDbEntity
  8
STEMPEL
100
AcDbLine
 10
143.5955054358103
 20
477.1957179398263
 30
0.0
 11
143.5955054358103
 21
474.6957179398263
 31
0.0
  0
LINE
  5
2317
330
1E
100
AcDbEntity
  8
STEMPEL
100
AcDbLine
 10
148.0745054358102
 20
477.1957179398263
 30
0.0
 11
143.5955054358103
 21
477.1957179398263
 31
0.0
  0
LINE
  5
2318
330
1E
100
AcDbEntity
  8
STEMPEL
100
AcDbLine
 10
138.4455054358102
 20
442.6457179398263
 30
0.0
 11
138.4455054358102
 21
462.8957179398263
 31
0.0
  0
LINE
  5
2319
330
1E
100
AcDbEntity
  8
STEMPEL
100
AcDbLine
 10
139.1955054358102
 20
441.8957179398263
 30
0.0
 11
138.4455054358102
 21
442.6457179398263
 31
0.0
  0
LINE
  5
231A
330
1E
100
AcDbEntity
  8
STEMPEL
100
AcDbLine
 10
145.6955054358102
 20
441.8957179398263
 30
0.0
 11
139.1955054358102
 21
441.8957179398263
 31
0.0
  0
LINE
  5
231B
330
1E
100
AcDbEntity
  8
STEMPEL
100
AcDbLine
 10
146.4455054358102
 20
442.6457179398263
 30
0.0
 11
145.6955054358102
 21
441.8957179398263
 31
0.0
  0
LINE
  5
231C
330
1E
100
AcDbEntity
  8
STEMPEL
100
AcDbLine
 10
146.4455054358102
 20
462.8957179398263
 30
0.0
 11
146.4455054358102
 21
442.6457179398263
 31
0.0
  0
LINE
  5
231D
330
1E
100
AcDbEntity
  8
STEMPEL
100
AcDbLine
 10
146.1985054358102
 20
476.5457179398262
 30
0.0
 11
146.1985054358102
 21
471.8957179398263
 31
0.0
  0
ARC
  5
231E
330
1E
100
AcDbEntity
  8
STEMPEL
100
AcDbCircle
 10
148.0745054358102
 20
474.1627179398263
 30
0.0
 40
3.032999999999999
100
AcDbArc
 50
90.0
 51
128.2132107020002
  0
ARC
  5
231F
330
1E
100
AcDbEntity
  8
STEMPEL
100
AcDbCircle
 10
148.0745054358102
 20
474.1627179398263
 30
0.0
 40
3.032999999999999
100
AcDbArc
 50
51.78678929799973
 51
90.0
  0
LINE
  5
2320
330
1E
100
AcDbEntity
  8
STEMPEL
100
AcDbLine
 10
149.9505054358102
 20
471.8957179398263
 30
0.0
 11
149.9505054358102
 21
476.5457179398262
 31
0.0
  0
LINE
  5
2321
330
1E
100
AcDbEntity
  8
STEMPEL
100
AcDbLine
 10
146.8455054358103
 20
471.8957179398263
 30
0.0
 11
149.9505054358102
 21
471.8957179398263
 31
0.0
  0
LINE
  5
2322
330
1E
100
AcDbEntity
  8
STEMPEL
100
AcDbLine
 10
138.0455054358102
 20
471.8957179398263
 30
0.0
 11
146.8455054358103
 21
471.8957179398263
 31
0.0
  0
LINE
  5
2323
330
1E
100
AcDbEntity
  8
STEMPEL
100
AcDbLine
 10
134.9395054358102
 20
471.8957179398263
 30
0.0
 11
138.0455054358102
 21
471.8957179398263
 31
0.0
  0
LINE
  5
2324
330
1E
100
AcDbEntity
  8
STEMPEL
100
AcDbLine
 10
134.9395054358102
 20
476.5457179398262
 30
0.0
 11
134.9395054358102
 21
471.8957179398263
 31
0.0
  0
ARC
  5
2325
330
1E
100
AcDbEntity
  8
STEMPEL
100
AcDbCircle
 10
136.8165054358102
 20
474.1627179398263
 30
0.0
 40
3.032999999999999
100
AcDbArc
 50
90.0
 51
128.2132107020002
  0
ARC
  5
2326
330
1E
100
AcDbEntity
  8
STEMPEL
100
AcDbCircle
 10
136.8165054358102
 20
474.1627179398263
 30
0.0
 40
3.032999999999999
100
AcDbArc
 50
51.78678929799973
 51
90.0
  0
LINE
  5
2327
330
1E
100
AcDbEntity
  8
STEMPEL
100
AcDbLine
 10
138.6925054358103
 20
471.8957179398263
 30
0.0
 11
138.6925054358103
 21
476.5457179398262
 31
0.0
  0
LINE
  5
2328
330
1E
100
AcDbEntity
  8
STEMPEL
100
AcDbLine
 10
329.0595054358103
 20
195.4500652644573
 30
0.0
 11
329.0595054358103
 21
208.4500652644573
 31
0.0
  0
LINE
  5
2329
330
1E
100
AcDbEntity
  8
STEMPEL
100
AcDbLine
 10
331.3595054358102
 20
195.4500652644573
 30
0.0
 11
331.3595054358102
 21
208.4500652644573
 31
0.0
  0
LINE
  5
232A
330
1E
100
AcDbEntity
  8
MITTEL
100
AcDbLine
 10
330.2095054358103
 20
190.4500652644573
 30
0.0
 11
330.2095054358103
 21
213.4500652644573
 31
0.0
  0
ARC
  5
232B
330
1E
100
AcDbEntity
  8
STEMPEL
100
AcDbCircle
 10
330.2095054358102
 20
201.9500652644573
 30
0.0
 40
6.5
100
AcDbArc
 50
280.1905887679998
 51
79.80941123200023
  0
ARC
  5
232C
330
1E
100
AcDbEntity
  8
STEMPEL
100
AcDbCircle
 10
330.2095054358102
 20
201.9500652644573
 30
0.0
 40
6.5
100
AcDbArc
 50
100.1905887679997
 51
259.8094112320002
  0
LINE
  5
232D
330
1E
100
AcDbEntity
  8
STEMPEL
100
AcDbLine
 10
326.4575054358103
 20
195.4500652644573
 30
0.0
 11
322.7045054358102
 21
201.9500652644573
 31
0.0
  0
LINE
  5
232E
330
1E
100
AcDbEntity
  8
STEMPEL
100
AcDbLine
 10
333.9625054358103
 20
195.4500652644573
 30
0.0
 11
326.4575054358103
 21
195.4500652644573
 31
0.0
  0
LINE
  5
232F
330
1E
100
AcDbEntity
  8
STEMPEL
100
AcDbLine
 10
337.7155054358102
 20
201.9500652644573
 30
0.0
 11
333.9625054358103
 21
195.4500652644573
 31
0.0
  0
LINE
  5
2330
330
1E
100
AcDbEntity
  8
STEMPEL
100
AcDbLine
 10
333.9625054358103
 20
208.4500652644573
 30
0.0
 11
337.7155054358102
 21
201.9500652644573
 31
0.0
  0
LINE
  5
2331
330
1E
100
AcDbEntity
  8
STEMPEL
100
AcDbLine
 10
326.4575054358103
 20
208.4500652644573
 30
0.0
 11
333.9625054358103
 21
208.4500652644573
 31
0.0
  0
LINE
  5
2332
330
1E
100
AcDbEntity
  8
STEMPEL
100
AcDbLine
 10
322.7045054358102
 20
201.9500652644573
 30
0.0
 11
326.4575054358103
 21
208.4500652644573
 31
0.0
  0
LINE
  5
2333
330
1E
100
AcDbEntity
  8
STEMPEL
100
AcDbLine
 10
141.0595054358102
 20
195.4500652644573
 30
0.0
 11
141.0595054358102
 21
208.4500652644573
 31
0.0
  0
LINE
  5
2334
330
1E
100
AcDbEntity
  8
STEMPEL
100
AcDbLine
 10
143.3595054358102
 20
195.4500652644573
 30
0.0
 11
143.3595054358102
 21
208.4500652644573
 31
0.0
  0
LINE
  5
2335
330
1E
100
AcDbEntity
  8
MITTEL
100
AcDbLine
 10
142.2095054358103
 20
190.4500652644573
 30
0.0
 11
142.2095054358101
 21
213.4500652644573
 31
0.0
  0
ARC
  5
2336
330
1E
100
AcDbEntity
  8
STEMPEL
100
AcDbCircle
 10
142.2095054358102
 20
201.9500652644573
 30
0.0
 40
6.5
100
AcDbArc
 50
280.1905887679998
 51
79.80941123200023
  0
ARC
  5
2337
330
1E
100
AcDbEntity
  8
STEMPEL
100
AcDbCircle
 10
142.2095054358102
 20
201.9500652644573
 30
0.0
 40
6.5
100
AcDbArc
 50
100.1905887679997
 51
259.8094112320002
  0
LINE
  5
2338
330
1E
100
AcDbEntity
  8
STEMPEL
100
AcDbLine
 10
138.4575054358103
 20
195.4500652644573
 30
0.0
 11
134.7045054358102
 21
201.9500652644573
 31
0.0
  0
LINE
  5
2339
330
1E
100
AcDbEntity
  8
STEMPEL
100
AcDbLine
 10
145.9625054358102
 20
195.4500652644573
 30
0.0
 11
138.4575054358103
 21
195.4500652644573
 31
0.0
  0
LINE
  5
233A
330
1E
100
AcDbEntity
  8
STEMPEL
100
AcDbLine
 10
149.7155054358102
 20
201.9500652644573
 30
0.0
 11
145.9625054358102
 21
195.4500652644573
 31
0.0
  0
LINE
  5
233B
330
1E
100
AcDbEntity
  8
STEMPEL
100
AcDbLine
 10
145.9625054358102
 20
208.4500652644573
 30
0.0
 11
149.7155054358102
 21
201.9500652644573
 31
0.0
  0
LINE
  5
233C
330
1E
100
AcDbEntity
  8
STEMPEL
100
AcDbLine
 10
138.4575054358103
 20
208.4500652644573
 30
0.0
 11
145.9625054358102
 21
208.4500652644573
 31
0.0
  0
LINE
  5
233D
330
1E
100
AcDbEntity
  8
STEMPEL
100
AcDbLine
 10
134.7045054358102
 20
201.9500652644573
 30
0.0
 11
138.4575054358103
 21
208.4500652644573
 31
0.0
  0
ARC
  5
2342
330
1E
100
AcDbEntity
  8
STEMPEL
100
AcDbCircle
 10
315.7095054358102
 20
201.9500652644573
 30
0.0
 40
25.0
100
AcDbArc
 50
330.0000062470004
 51
30.00000624699991
  0
ARC
  5
2343
330
1E
100
AcDbEntity
  8
STEMPEL
100
AcDbCircle
 10
156.7095054358102
 20
201.9500652644573
 30
0.0
 40
25.0
100
AcDbArc
 50
149.9999937530001
 51
209.9999937529995
  0
LINE
  5
2344
330
1E
100
AcDbEntity
  8
STEMPEL
100
AcDbLine
 10
325.8905054358103
 20
196.4320652644572
 30
0.0
 11
324.9085054358102
 21
189.4500652644573
 31
0.0
  0
LINE
  5
2345
330
1E
100
AcDbEntity
  8
STEMPEL
100
AcDbLine
 10
332.8205054358102
 20
195.4500652644573
 30
0.0
 11
331.9775054358103
 21
189.4500652644573
 31
0.0
  0
LINE
  5
2346
330
1E
100
AcDbEntity
  8
HILF
100
AcDbLine
 10
151.7705054358103
 20
214.4500652644573
 30
0.0
 11
151.7705054358103
 21
189.4500652644573
 31
0.0
  0
LINE
  5
2347
330
1E
100
AcDbEntity
  8
HILF
100
AcDbLine
 10
320.6485054358102
 20
214.4500652644573
 30
0.0
 11
320.6485054358102
 21
189.4500652644573
 31
0.0
  0
LINE
  5
2348
330
1E
100
AcDbEntity
  8
HILF
100
AcDbLine
 10
320.6485054358102
 20
196.9500652644573
 30
0.0
 11
151.7705054358103
 21
196.9500652644573
 31
0.0
  0
LINE
  5
2349
330
1E
100
AcDbEntity
  8
HILF
100
AcDbLine
 10
320.6485054358102
 20
206.9500652644573
 30
0.0
 11
151.7705054358103
 21
206.9500652644573
 31
0.0
  0
LINE
  5
234A
330
1E
100
AcDbEntity
  8
MITTEL
100
AcDbLine
 10
345.7095054358102
 20
201.9500652644573
 30
0.0
 11
126.7095054358102
 21
201.9500652644573
 31
0.0
  0
LINE
  5
234B
330
1E
100
AcDbEntity
  8
MITTEL
100
AcDbLine
 10
236.2095054358101
 20
219.4500652644573
 30
0.0
 11
236.2095054358103
 21
184.4500652644573
 31
0.0
  0
LINE
  5
234C
330
1E
100
AcDbEntity
  8
STEMPEL
100
AcDbLine
 10
334.0325054358102
 20
193.5790652644573
 30
0.0
 11
333.4515054358103
 21
189.4500652644573
 31
0.0
  0
LINE
  5
234D
330
1E
100
AcDbEntity
  8
STEMPEL
100
AcDbLine
 10
332.5865054358103
 20
193.7820652644573
 30
0.0
 11
334.0325054358102
 21
193.5790652644573
 31
0.0
  0
LINE
  5
234E
330
1E
100
AcDbEntity
  8
STEMPEL
100
AcDbLine
 10
337.3605054358102
 20
214.4500652644573
 30
0.0
 11
135.0595054358102
 21
214.4500652644573
 31
0.0
  0
LINE
  5
234F
330
1E
100
AcDbEntity
  8
STEMPEL
100
AcDbLine
 10
135.0595054358102
 20
189.4500652644573
 30
0.0
 11
337.3605054358102
 21
189.4500652644573
 31
0.0
  0
LINE
  5
235C
330
1E
100
AcDbEntity
  8
HILF
100
AcDbLine
 10
232.7095054358102
 20
366.8957179398264
 30
0.0
 11
239.7095054358102
 21
366.8957179398264
 31
0.0
  0
LINE
  5
235D
330
1E
100
AcDbEntity
  8
STEMPEL
100
AcDbLine
 10
236.2095054358102
 20
251.8957179398263
 30
0.0
 11
239.7095054358102
 21
261.8957179398263
 31
0.0
  0
LINE
  5
235E
330
1E
100
AcDbEntity
  8
STEMPEL
100
AcDbLine
 10
232.7095054358102
 20
261.8957179398263
 30
0.0
 11
236.2095054358102
 21
251.8957179398263
 31
0.0
  0
LINE
  5
235F
330
1E
100
AcDbEntity
  8
STEMPEL
100
AcDbLine
 10
241.7095054358102
 20
374.3957179398263
 30
0.0
 11
241.7095054358102
 21
373.8957179398263
 31
0.0
  0
ARC
  5
2360
330
1E
100
AcDbEntity
  8
STEMPEL
100
AcDbCircle
 10
240.7095054358102
 20
374.3957179398263
 30
0.0
 40
1.0
100
AcDbArc
 50
0.0
 51
90.0
  0
LINE
  5
2361
330
1E
100
AcDbEntity
  8
STEMPEL
100
AcDbLine
 10
231.7095054358102
 20
375.3957179398264
 30
0.0
 11
240.7095054358102
 21
375.3957179398264
 31
0.0
  0
ARC
  5
2362
330
1E
100
AcDbEntity
  8
STEMPEL
100
AcDbCircle
 10
231.7095054358102
 20
374.3957179398263
 30
0.0
 40
1.0
100
AcDbArc
 50
90.0
 51
180.0
  0
LINE
  5
2363
330
1E
100
AcDbEntity
  8
STEMPEL
100
AcDbLine
 10
230.7095054358102
 20
373.8957179398263
 30
0.0
 11
230.7095054358102
 21
374.3957179398263
 31
0.0
  0
LINE
  5
2364
330
1E
100
AcDbEntity
  8
STEMPEL
100
AcDbLine
 10
232.7095054358102
 20
261.8957179398263
 30
0.0
 11
239.7095054358102
 21
261.8957179398263
 31
0.0
  0
LINE
  5
2365
330
1E
100
AcDbEntity
  8
STEMPEL
100
AcDbLine
 10
232.7095054358102
 20
366.5447179398264
 30
0.0
 11
232.7095054358102
 21
261.8957179398263
 31
0.0
  0
ARC
  5
2366
330
1E
100
AcDbEntity
  8
STEMPEL
100
AcDbCircle
 10
231.7095054358102
 20
366.5447179398264
 30
0.0
 40
1.0
100
AcDbArc
 50
0.0
 51
38.65980825399968
  0
LINE
  5
2367
330
1E
100
AcDbEntity
  8
STEMPEL
100
AcDbLine
 10
228.7095054358102
 20
371.8957179398263
 30
0.0
 11
232.4905054358103
 21
367.1697179398263
 31
0.0
  0
LINE
  5
2368
330
1E
100
AcDbEntity
  8
STEMPEL
100
AcDbLine
 10
239.9285054358103
 20
367.1697179398263
 30
0.0
 11
243.7095054358102
 21
371.8957179398263
 31
0.0
  0
ARC
  5
2369
330
1E
100
AcDbEntity
  8
STEMPEL
100
AcDbCircle
 10
240.7095054358102
 20
366.5447179398264
 30
0.0
 40
1.0
100
AcDbArc
 50
141.3401917460003
 51
180.0
  0
LINE
  5
236A
330
1E
100
AcDbEntity
  8
STEMPEL
100
AcDbLine
 10
239.7095054358102
 20
261.8957179398263
 30
0.0
 11
239.7095054358102
 21
366.5447179398264
 31
0.0
  0
ARC
  5
236B
330
1E
100
AcDbEntity
  8
STEMPEL
100
AcDbCircle
 10
324.4745054358102
 20
463.8957179398263
 30
0.0
 40
1.0
100
AcDbArc
 50
0.0
 51
90.0
  0
LINE
  5
236C
330
1E
100
AcDbEntity
  8
STEMPEL
100
AcDbLine
 10
325.4745054358102
 20
463.8957179398263
 30
0.0
 11
325.4745054358102
 21
462.8957179398263
 31
0.0
  0
LINE
  5
236D
330
1E
100
AcDbEntity
  8
STEMPEL
100
AcDbLine
 10
325.4745054358102
 20
462.8957179398263
 30
0.0
 11
334.4745054358102
 21
462.8957179398263
 31
0.0
  0
LINE
  5
236E
330
1E
100
AcDbEntity
  8
STEMPEL
100
AcDbLine
 10
334.4745054358102
 20
462.8957179398263
 30
0.0
 11
334.4745054358102
 21
463.8957179398263
 31
0.0
  0
ARC
  5
236F
330
1E
100
AcDbEntity
  8
STEMPEL
100
AcDbCircle
 10
335.4745054358102
 20
463.8957179398263
 30
0.0
 40
1.0
100
AcDbArc
 50
90.0
 51
180.0
  0
ARC
  5
2370
330
1E
100
AcDbEntity
  8
STEMPEL
100
AcDbCircle
 10
147.9455054358102
 20
463.8957179398263
 30
0.0
 40
1.0
100
AcDbArc
 50
90.0
 51
180.0
  0
LINE
  5
2371
330
1E
100
AcDbEntity
  8
STEMPEL
100
AcDbLine
 10
146.9455054358102
 20
462.8957179398263
 30
0.0
 11
146.9455054358102
 21
463.8957179398263
 31
0.0
  0
LINE
  5
2372
330
1E
100
AcDbEntity
  8
STEMPEL
100
AcDbLine
 10
137.9455054358102
 20
462.8957179398263
 30
0.0
 11
146.9455054358102
 21
462.8957179398263
 31
0.0
  0
LINE
  5
2373
330
1E
100
AcDbEntity
  8
STEMPEL
100
AcDbLine
 10
137.9455054358102
 20
463.8957179398263
 30
0.0
 11
137.9455054358102
 21
462.8957179398263
 31
0.0
  0
ARC
  5
2374
330
1E
100
AcDbEntity
  8
STEMPEL
100
AcDbCircle
 10
136.9455054358102
 20
463.8957179398263
 30
0.0
 40
1.0
100
AcDbArc
 50
0.0
 51
90.0
  0
LINE
  5
2375
330
1E
100
AcDbEntity
  8
STEMPEL
100
AcDbLine
 10
135.0595054358102
 20
466.8957179398263
 30
0.0
 11
135.0595054358102
 21
464.8957179398263
 31
0.0
  0
LINE
  5
2376
330
1E
100
AcDbEntity
  8
STEMPEL
100
AcDbLine
 10
131.7095054358102
 20
466.8957179398263
 30
0.0
 11
131.7095054358102
 21
464.8957179398263
 31
0.0
  0
LINE
  5
2377
330
1E
100
AcDbEntity
  8
STEMPEL
100
AcDbLine
 10
151.9605054358103
 20
466.8957179398263
 30
0.0
 11
131.7095054358102
 21
466.8957179398263
 31
0.0
  0
LINE
  5
2378
330
1E
100
AcDbEntity
  8
STEMPEL
100
AcDbLine
 10
131.7095054358102
 20
464.8957179398263
 30
0.0
 11
151.9605054358103
 21
464.8957179398263
 31
0.0
  0
ARC
  5
2379
330
1E
100
AcDbEntity
  8
STEMPEL
100
AcDbCircle
 10
151.9605054358103
 20
461.8957179398263
 30
0.0
 40
3.0
100
AcDbArc
 50
4.411725785999814
 51
90.0
  0
ARC
  5
237A
330
1E
100
AcDbEntity
  8
STEMPEL
100
AcDbCircle
 10
151.9605054358103
 20
461.8957179398263
 30
0.0
 40
5.0
100
AcDbArc
 50
4.411725785999814
 51
90.0
  0
LINE
  5
237B
330
1E
100
AcDbEntity
  8
STEMPEL
100
AcDbLine
 10
226.9795054358103
 20
371.8957179398263
 30
0.0
 11
245.4405054358103
 21
371.8957179398263
 31
0.0
  0
ARC
  5
237C
330
1E
100
AcDbEntity
  8
STEMPEL
100
AcDbCircle
 10
219.6245054358103
 20
386.5597179398264
 30
0.0
 40
2.0
100
AcDbArc
 50
7.000000000000344
 51
78.54360984300189
  0
ARC
  5
237D
330
1E
100
AcDbEntity
  8
STEMPEL
100
AcDbCircle
 10
219.6245054358103
 20
386.5597179398264
 30
0.0
 40
4.0
100
AcDbArc
 50
7.000000000000344
 51
78.54360984300189
  0
ARC
  5
237E
330
1E
100
AcDbEntity
  8
STEMPEL
100
AcDbCircle
 10
236.2095054358102
 20
468.3957179398263
 30
0.0
 40
81.5
100
AcDbArc
 50
184.4117257859998
 51
258.5436098429987
  0
ARC
  5
237F
330
1E
100
AcDbEntity
  8
STEMPEL
100
AcDbCircle
 10
236.2095054358102
 20
468.3957179398263
 30
0.0
 40
79.5
100
AcDbArc
 50
184.4117257859998
 51
258.5436098429987
  0
ARC
  5
2380
330
1E
100
AcDbEntity
  8
HILF
100
AcDbCircle
 10
236.2095054358102
 20
468.3957179398263
 30
0.0
 40
83.49999999999999
100
AcDbArc
 50
182.482351202
 51
259.9844840170005
  0
LINE
  5
2381
330
1E
100
AcDbEntity
  8
STEMPEL
100
AcDbLine
 10
221.6095054358102
 20
386.8027179398263
 30
0.0
 11
223.0095054358103
 21
375.4077179398263
 31
0.0
  0
LINE
  5
2382
330
1E
100
AcDbEntity
  8
STEMPEL
100
AcDbLine
 10
224.9945054358102
 20
375.6517179398263
 30
0.0
 11
223.5955054358103
 21
387.0467179398263
 31
0.0
  0
ARC
  5
2383
330
1E
100
AcDbEntity
  8
STEMPEL
100
AcDbCircle
 10
226.9795054358103
 20
375.8957179398263
 30
0.0
 40
2.0
100
AcDbArc
 50
187.0000000000003
 51
270.0
  0
ARC
  5
2384
330
1E
100
AcDbEntity
  8
STEMPEL
100
AcDbCircle
 10
226.9795054358103
 20
375.8957179398263
 30
0.0
 40
4.0
100
AcDbArc
 50
187.0000000000003
 51
270.0
  0
LINE
  5
2385
330
1E
100
AcDbEntity
  8
STEMPEL
100
AcDbLine
 10
243.7095054358102
 20
371.8957179398263
 30
0.0
 11
228.7095054358102
 21
371.8957179398263
 31
0.0
  0
ARC
  5
2386
330
1E
100
AcDbEntity
  8
STEMPEL
100
AcDbCircle
 10
245.4405054358103
 20
375.8957179398263
 30
0.0
 40
2.0
100
AcDbArc
 50
270.0
 51
352.9999999999997
  0
LINE
  5
2387
330
1E
100
AcDbEntity
  8
STEMPEL
100
AcDbLine
 10
245.4405054358103
 20
373.8957179398263
 30
0.0
 11
226.9795054358103
 21
373.8957179398263
 31
0.0
  0
ARC
  5
2388
330
1E
100
AcDbEntity
  8
STEMPEL
100
AcDbCircle
 10
245.4405054358103
 20
375.8957179398263
 30
0.0
 40
4.0
100
AcDbArc
 50
270.0
 51
352.9999999999997
  0
ARC
  5
2389
330
1E
100
AcDbEntity
  8
STEMPEL
100
AcDbCircle
 10
252.7945054358103
 20
386.5597179398264
 30
0.0
 40
2.0
100
AcDbArc
 50
101.4563901569981
 51
172.9999999999996
  0
LINE
  5
238A
330
1E
100
AcDbEntity
  8
STEMPEL
100
AcDbLine
 10
249.4105054358103
 20
375.4077179398263
 30
0.0
 11
250.8095054358102
 21
386.8027179398263
 31
0.0
  0
LINE
  5
238B
330
1E
100
AcDbEntity
  8
STEMPEL
100
AcDbLine
 10
248.8245054358102
 20
387.0467179398263
 30
0.0
 11
247.4255054358102
 21
375.6517179398263
 31
0.0
  0
ARC
  5
238C
330
1E
100
AcDbEntity
  8
STEMPEL
100
AcDbCircle
 10
252.7945054358103
 20
386.5597179398264
 30
0.0
 40
4.0
100
AcDbArc
 50
101.4563901569981
 51
172.9999999999996
  0
LINE
  5
238D
330
1E
100
AcDbEntity
  8
STEMPEL
100
AcDbLine
 10
337.3605054358102
 20
466.8957179398263
 30
0.0
 11
337.3605054358102
 21
464.8957179398263
 31
0.0
  0
LINE
  5
238E
330
1E
100
AcDbEntity
  8
STEMPEL
100
AcDbLine
 10
324.9745054358102
 20
464.8957179398263
 30
0.0
 11
340.7095054358102
 21
464.8957179398263
 31
0.0
  0
LINE
  5
238F
330
1E
100
AcDbEntity
  8
STEMPEL
100
AcDbLine
 10
340.7095054358102
 20
466.8957179398263
 30
0.0
 11
320.4595054358102
 21
466.8957179398263
 31
0.0
  0
LINE
  5
2390
330
1E
100
AcDbEntity
  8
STEMPEL
100
AcDbLine
 10
340.7095054358102
 20
464.8957179398263
 30
0.0
 11
340.7095054358102
 21
466.8957179398263
 31
0.0
  0
LINE
  5
2391
330
1E
100
AcDbEntity
  8
STEMPEL
100
AcDbLine
 10
320.4595054358102
 20
464.8957179398263
 30
0.0
 11
324.9745054358102
 21
464.8957179398263
 31
0.0
  0
ARC
  5
2392
330
1E
100
AcDbEntity
  8
STEMPEL
100
AcDbCircle
 10
320.4595054358102
 20
461.8957179398263
 30
0.0
 40
3.0
100
AcDbArc
 50
90.0
 51
175.5882742140001
  0
ARC
  5
2393
330
1E
100
AcDbEntity
  8
STEMPEL
100
AcDbCircle
 10
320.4595054358102
 20
461.8957179398263
 30
0.0
 40
5.0
100
AcDbArc
 50
90.0
 51
175.5882742140001
  0
ARC
  5
2394
330
1E
100
AcDbEntity
  8
STEMPEL
100
AcDbCircle
 10
236.2095054358102
 20
468.3957179398263
 30
0.0
 40
81.5
100
AcDbArc
 50
281.4563901569981
 51
355.5882742140002
  0
ARC
  5
2395
330
1E
100
AcDbEntity
  8
STEMPEL
100
AcDbCircle
 10
236.2095054358102
 20
468.3957179398263
 30
0.0
 40
79.5
100
AcDbArc
 50
281.4563901569981
 51
355.5882742140002
  0
ARC
  5
2396
330
1E
100
AcDbEntity
  8
HILF
100
AcDbCircle
 10
236.2095054358102
 20
468.3957179398263
 30
0.0
 40
83.49999999999999
100
AcDbArc
 50
280.0155159829996
 51
357.517648798
  0
LINE
  5
2397
330
1E
100
AcDbEntity
  8
STEMPEL
100
AcDbLine
 10
324.6735054358103
 20
471.8957179398263
 30
0.0
 11
324.6735054358103
 21
469.8957179398263
 31
0.0
  0
LINE
  5
2398
330
1E
100
AcDbEntity
  8
STEMPEL
100
AcDbLine
 10
320.4595054358102
 20
471.8957179398263
 30
0.0
 11
333.1315054358102
 21
471.8957179398263
 31
0.0
  0
LINE
  5
2399
330
1E
100
AcDbEntity
  8
STEMPEL
100
AcDbLine
 10
325.5745054358103
 20
471.8957179398263
 30
0.0
 11
332.6315054358103
 21
471.8957179398263
 31
0.0
  0
ARC
  5
239A
330
1E
100
AcDbEntity
  8
STEMPEL
100
AcDbCircle
 10
335.5535054358103
 20
472.3457179398263
 30
0.0
 40
2.463
100
AcDbArc
 50
185.8375244179998
 51
264.1736792309999
  0
LINE
  5
239B
330
1E
100
AcDbEntity
  8
STEMPEL
100
AcDbLine
 10
340.7095054358102
 20
471.8957179398263
 30
0.0
 11
340.7095054358102
 21
469.8957179398263
 31
0.0
  0
LINE
  5
239C
330
1E
100
AcDbEntity
  8
STEMPEL
100
AcDbLine
 10
335.2775054358103
 20
471.8957179398263
 30
0.0
 11
340.7095054358102
 21
471.8957179398263
 31
0.0
  0
LINE
  5
239D
330
1E
100
AcDbEntity
  8
STEMPEL
100
AcDbLine
 10
337.3605054358102
 20
471.8957179398263
 30
0.0
 11
337.3605054358102
 21
469.8957179398263
 31
0.0
  0
LINE
  5
239E
330
1E
100
AcDbEntity
  8
STEMPEL
100
AcDbLine
 10
335.2775054358103
 20
471.8957179398263
 30
0.0
 11
337.7155054358102
 21
471.8957179398263
 31
0.0
  0
ARC
  5
239F
330
1E
100
AcDbEntity
  8
STEMPEL
100
AcDbCircle
 10
335.2775054358103
 20
472.5957179398263
 30
0.0
 40
0.7
100
AcDbArc
 50
180.0
 51
270.0
  0
LINE
  5
23A0
330
1E
100
AcDbEntity
  8
STEMPEL
100
AcDbLine
 10
333.1035054358102
 20
472.0947179398264
 30
0.0
 11
333.1035054358102
 21
473.8957179398263
 31
0.0
  0
LINE
  5
23A1
330
1E
100
AcDbEntity
  8
STEMPEL
100
AcDbLine
 10
333.1035054358102
 20
473.8957179398263
 30
0.0
 11
335.1345054358103
 21
473.8957179398263
 31
0.0
  0
LINE
  5
23A2
330
1E
100
AcDbEntity
  8
STEMPEL
100
AcDbLine
 10
334.5775054358103
 20
473.8957179398263
 30
0.0
 11
334.5775054358103
 21
472.5957179398263
 31
0.0
  0
LINE
  5
23A3
330
1E
100
AcDbEntity
  8
STEMPEL
100
AcDbLine
 10
335.1345054358103
 20
473.8957179398263
 30
0.0
 11
335.1345054358103
 21
471.9097179398263
 31
0.0
  0
LINE
  5
23A4
330
1E
100
AcDbEntity
  8
STEMPEL
100
AcDbLine
 10
322.4685054358102
 20
471.8957179398263
 30
0.0
 11
325.5745054358103
 21
471.8957179398263
 31
0.0
  0
LINE
  5
23A5
330
1E
100
AcDbEntity
  8
STEMPEL
100
AcDbLine
 10
325.9745054358102
 20
469.8957179398263
 30
0.0
 11
320.4595054358102
 21
469.8957179398263
 31
0.0
  0
LINE
  5
23A6
330
1E
100
AcDbEntity
  8
STEMPEL
100
AcDbLine
 10
340.7095054358102
 20
469.8957179398263
 30
0.0
 11
333.9745054358102
 21
469.8957179398263
 31
0.0
  0
ARC
  5
23A7
330
1E
100
AcDbEntity
  8
STEMPEL
100
AcDbCircle
 10
320.4595054358102
 20
474.8957179398263
 30
0.0
 40
3.0
100
AcDbArc
 50
184.4117257859998
 51
270.0
  0
ARC
  5
23A8
330
1E
100
AcDbEntity
  8
STEMPEL
100
AcDbCircle
 10
320.4595054358102
 20
474.8957179398263
 30
0.0
 40
5.0
100
AcDbArc
 50
184.4117257859998
 51
270.0
  0
LINE
  5
23A9
330
1E
100
AcDbEntity
  8
STEMPEL
100
AcDbLine
 10
135.0595054358102
 20
471.8957179398263
 30
0.0
 11
135.0595054358102
 21
469.8957179398263
 31
0.0
  0
LINE
  5
23AA
330
1E
100
AcDbEntity
  8
STEMPEL
100
AcDbLine
 10
131.7095054358102
 20
469.8957179398263
 30
0.0
 11
131.7095054358102
 21
471.8957179398263
 31
0.0
  0
LINE
  5
23AB
330
1E
100
AcDbEntity
  8
STEMPEL
100
AcDbLine
 10
151.9605054358103
 20
469.8957179398263
 30
0.0
 11
131.7095054358102
 21
469.8957179398263
 31
0.0
  0
LINE
  5
23AC
330
1E
100
AcDbEntity
  8
STEMPEL
100
AcDbLine
 10
131.7095054358102
 20
471.8957179398263
 30
0.0
 11
151.9605054358103
 21
471.8957179398263
 31
0.0
  0
ARC
  5
23AD
330
1E
100
AcDbEntity
  8
STEMPEL
100
AcDbCircle
 10
151.9605054358103
 20
474.8957179398263
 30
0.0
 40
3.0
100
AcDbArc
 50
270.0
 51
355.5882742140002
  0
ARC
  5
23AE
330
1E
100
AcDbEntity
  8
STEMPEL
100
AcDbCircle
 10
151.9605054358103
 20
474.8957179398263
 30
0.0
 40
5.0
100
AcDbArc
 50
270.0
 51
355.5882742140002
  0
ARC
  5
23AF
330
1E
100
AcDbEntity
  8
STEMPEL
100
AcDbCircle
 10
236.2095054358102
 20
468.3957179398263
 30
0.0
 40
81.5
100
AcDbArc
 50
4.411725785999814
 51
175.5882742140001
  0
ARC
  5
23B0
330
1E
100
AcDbEntity
  8
HILF
100
AcDbCircle
 10
236.2095054358102
 20
468.3957179398263
 30
0.0
 40
83.49999999999999
100
AcDbArc
 50
2.48235120200003
 51
177.5176487979999
  0
ARC
  5
23B1
330
1E
100
AcDbEntity
  8
STEMPEL
100
AcDbCircle
 10
236.2095054358102
 20
468.3957179398263
 30
0.0
 40
79.5
100
AcDbArc
 50
4.411725785999814
 51
175.5882742140001
  0
LINE
  5
23B2
330
1E
100
AcDbEntity
  8
MITTEL
100
AcDbLine
 10
142.4455054358102
 20
436.8957179398263
 30
0.0
 11
142.4455054358102
 21
482.1957179398262
 31
0.0
  0
LINE
  5
23B3
330
1E
100
AcDbEntity
  8
MITTEL
100
AcDbLine
 10
329.9745054358102
 20
482.1957179398262
 30
0.0
 11
329.9745054358102
 21
436.8957179398263
 31
0.0
  0
LINE
  5
23B4
330
1E
100
AcDbEntity
  8
MITTEL
100
AcDbLine
 10
126.7095054358102
 20
468.3957179398263
 30
0.0
 11
345.7095054358102
 21
468.3957179398263
 31
0.0
  0
LINE
  5
23B5
330
1E
100
AcDbEntity
  8
MITTEL
100
AcDbLine
 10
236.2095054358102
 20
246.8957179398263
 30
0.0
 11
236.2095054358102
 21
556.8957179398263
 31
0.0
  0
DIMENSION
  5
23D4
330
1E
100
AcDbEntity
  8
BEM
100
AcDbDimension
  2
*D2
 10
330.2095054358103
 20
170.362755428694
 30
0.0
 11
236.2095054358103
 21
176.8627554286941
 31
0.0
 70
    32
 71
     5
 42
188.0
  3
Standard
100
AcDbAlignedDimension
 13
142.2095054358103
 23
190.4500652644573
 33
0.0
 14
330.2095054358103
 24
190.4500652644573
 34
0.0
100
AcDbRotatedDimension
1001
ACAD
1000
DSTYLE
1002
{
1070
    40
1040
2.0
1070
    41
1040
3.5
1070
    42
1040
1.0
1070
    43
1040
7.0
1070
    44
1040
1.0
1070
    73
1070
     0
1070
    74
1070
     0
1070
    77
1070
     1
1070
    78
1070
     8
1070
    79
1070
     2
1070
   140
1040
3.5
1070
   141
1040
1.5
1070
   146
1040
0.5
1070
   147
1040
1.5
1070
   172
1070
     1
1070
   178
1070
     1
1070
   179
1070
     2
1070
   271
1070
     2
1070
   272
1070
     2
1070
   284
1070
     8
1070
   285
1070
     8
1070
   286
1070
     8
1002
}
  0
DIMENSION
  5
23E1
330
1E
100
AcDbEntity
  8
BEM
100
AcDbDimension
  2
*D3
 10
340.7095054358102
 20
156.2442603522595
 30
0.0
 11
236.2095054358102
 21
162.7442603522595
 31
0.0
 70
    32
 71
     5
 42
209.0
  3
Standard
100
AcDbAlignedDimension
 13
131.7095054358102
 23
201.9500652644573
 33
0.0
 14
340.7095054358102
 24
201.9500652644573
 34
0.0
100
AcDbRotatedDimension
1001
ACAD
1000
DSTYLE
1002
{
1070
    40
1040
2.0
1070
    41
1040
3.5
1070
    42
1040
1.0
1070
    43
1040
7.0
1070
    44
1040
1.0
1070
    73
1070
     0
1070
    74
1070
     0
1070
    77
1070
     1
1070
    78
1070
     8
1070
    79
1070
     2
1070
   140
1040
3.5
1070
   141
1040
1.5
1070
   146
1040
0.5
1070
   147
1040
1.5
1070
   172
1070
     1
1070
   178
1070
     1
1070
   179
1070
     2
1070
   271
1070
     2
1070
   272
1070
     2
1070
   284
1070
     8
1070
   285
1070
     8
1070
   286
1070
     8
1002
}
  0
DIMENSION
  5
240E
330
1E
100
AcDbEntity
  8
BEM
100
AcDbDimension
  2
*D4
 10
118.3283252317028
 20
371.8957179398264
 30
0.0
 11
111.8283252317027
 21
311.8957179398264
 31
0.0
 70
    32
 71
     5
 42
120.0
  3
Standard
100
AcDbAlignedDimension
 13
236.2095054358102
 23
251.8957179398263
 33
0.0
 14
226.9795054358103
 24
371.8957179398263
 34
0.0
 50
90.0
100
AcDbRotatedDimension
1001
ACAD
1000
DSTYLE
1002
{
1070
    40
1040
2.0
1070
    41
1040
3.5
1070
    42
1040
1.0
1070
    43
1040
7.0
1070
    44
1040
1.0
1070
    73
1070
     0
1070
    74
1070
     0
1070
    77
1070
     1
1070
    78
1070
     8
1070
    79
1070
     2
1070
   140
1040
3.5
1070
   141
1040
1.5
1070
   146
1040
0.5
1070
   147
1040
1.5
1070
   172
1070
     1
1070
   178
1070
     1
1070
   179
1070
     2
1070
   271
1070
     2
1070
   272
1070
     2
1070
   284
1070
     8
1070
   285
1070
     8
1070
   286
1070
     8
1002
}
  0
DIMENSION
  5
241B
330
1E
100
AcDbEntity
  8
BEM
100
AcDbDimension
  2
*D5
 10
118.3283252317028
 20
469.8957179398264
 30
0.0
 11
111.8283252317027
 21
488.762384606493
 31
0.0
 70
    32
 71
     5
 42
3.0
  3
Standard
100
AcDbAlignedDimension
 13
131.7095054358102
 23
466.8957179398263
 33
0.0
 14
131.7095054358102
 24
469.8957179398263
 34
0.0
 50
90.0
100
AcDbRotatedDimension
1001
ACAD
1000
DSTYLE
1002
{
1070
    40
1040
2.0
1070
    41
1040
3.5
1070
    42
1040
1.0
1070
    43
1040
7.0
1070
    44
1040
1.0
1070
    73
1070
     0
1070
    74
1070
     0
1070
    77
1070
     1
1070
    78
1070
     8
1070
    79
1070
     2
1070
   140
1040
3.5
1070
   141
1040
1.5
1070
   146
1040
0.5
1070
   147
1040
1.5
1070
   172
1070
     1
1070
   178
1070
     1
1070
   179
1070
     2
1070
   271
1070
     2
1070
   272
1070
     2
1070
   284
1070
     8
1070
   285
1070
     8
1070
   286
1070
     8
1002
}
  0
DIMENSION
  5
242A
330
1E
100
AcDbEntity
  8
BEM
100
AcDbDimension
  2
*D6
 10
103.1657912867099
 20
551.8957179398263
 30
0.0
 11
96.66579128670983
 21
401.8957179398263
 31
0.0
 70
    32
 71
     5
 42
300.0
  3
Standard
100
AcDbAlignedDimension
 13
236.2095054358102
 23
251.8957179398263
 33
0.0
 14
236.2095054358102
 24
551.8957179398263
 34
0.0
 50
90.0
100
AcDbRotatedDimension
1001
ACAD
1000
DSTYLE
1002
{
1070
    40
1040
2.0
1070
    41
1040
3.5
1070
    42
1040
1.0
1070
    43
1040
7.0
1070
    44
1040
1.0
1070
    73
1070
     0
1070
    74
1070
     0
1070
    77
1070
     1
1070
    78
1070
     8
1070
    79
1070
     2
1070
   140
1040
3.5
1070
   141
1040
1.5
1070
   146
1040
0.5
1070
   147
1040
1.5
1070
   172
1070
     1
1070
   178
1070
     1
1070
   179
1070
     2
1070
   271
1070
     2
1070
   272
1070
     2
1070
   284
1070
     8
1070
   285
1070
     8
1070
   286
1070
     8
1002
}
  0
DIMENSION
  5
2438
330
1E
100
AcDbEntity
  8
BEM
100
AcDbDimension
  2
*D7
 10
286.1792086298553
 20
530.2285425872867
 30
0.0
 11
250.926637144058
 21
486.7629476559743
 31
0.0
 70
   161
 71
     5
 42
158.9999999999999
  3
Standard
100
AcDbAlignedDimension
 13
186.1315098293464
 23
406.6507233569534
 33
0.0
 14
286.2875000269752
 24
530.1407133461525
 34
0.0
1001
ACAD
1000
DSTYLE
1002
{
1070
    40
1040
2.0
1070
    41
1040
3.5
1070
    42
1040
1.0
1070
    43
1040
7.0
1070
    44
1040
1.0
1070
    73
1070
     0
1070
    74
1070
     0
1070
    77
1070
     1
1070
    78
1070
     8
1070
    79
1070
     2
1070
   140
1040
3.5
1070
   141
1040
1.5
1070
   146
1040
0.5
1070
   147
1040
1.5
1070
   172
1070
     1
1070
   178
1070
     1
1070
   179
1070
     2
1070
   271
1070
     2
1070
   272
1070
     2
1070
   284
1070
     8
1070
   285
1070
     8
1070
   286
1070
     8
1002
}
  0
DIMENSION
  5
245D
330
1E
100
AcDbEntity
  8
BEM
100
AcDbDimension
  2
*D8
 10
119.174452318357
 20
189.4500676250418
 30
0.0
 11
112.6744523183569
 21
201.9500676250417
 31
0.0
 70
    32
 71
     5
 42
24.99999999999963
  3
Standard
100
AcDbAlignedDimension
 13
135.0588717040833
 23
214.4500676250415
 33
0.0
 14
135.0588689783153
 24
189.4500676250418
 34
0.0
 50
90.0
100
AcDbRotatedDimension
1001
ACAD
1000
DSTYLE
1002
{
1070
    40
1040
2.0
1070
    41
1040
3.5
1070
    42
1040
1.0
1070
    43
1040
7.0
1070
    44
1040
1.0
1070
    73
1070
     0
1070
    74
1070
     0
1070
    77
1070
     1
1070
    78
1070
     8
1070
    79
1070
     2
1070
   140
1040
3.5
1070
   141
1040
1.5
1070
   146
1040
0.5
1070
   147
1040
1.5
1070
   172
1070
     1
1070
   178
1070
     1
1070
   179
1070
     2
1070
   271
1070
     2
1070
   272
1070
     2
1070
   284
1070
     8
1070
   285
1070
     8
1070
   286
1070
     8
1002
}
  0
TEXT
  5
2475
330
1E
100
AcDbEntity
  8
TEXT
 62
     1
100
AcDbText
 10
227.8365522679116
 20
115.6405708316599
 30
0.0
 40
7.0
  1
Werkstoff: St37 Dickschichtpassiviert
 41
0.8
  7
GREEKS
100
AcDbText
  0
ENDSEC
  0
SECTION
  2
OBJECTS
  0
DICTIONARY
  5
C
330
0
100
AcDbDictionary
281
     1
  3
ACAD_COLOR
350
DF
  3
ACAD_GROUP
350
D
  3
ACAD_LAYOUT
350
19
  3
ACAD_MATERIAL
350
DE
  3
ACAD_MLINESTYLE
350
16
  3
ACAD_PLOTSETTINGS
350
18
  3
ACAD_PLOTSTYLENAME
350
E
  3
AcDbVariableDictionary
350
EA
  0
DICTIONARY
  5
A0
330
1E
100
AcDbDictionary
280
     1
281
     1
  3
ACAD_LAYOUTSELFREF
360
D4
  0
DICTIONARY
  5
A2
330
1A
100
AcDbDictionary
280
     1
281
     1
  3
ACAD_LAYOUTSELFREF
360
D3
  0
DICTIONARY
  5
DF
102
{ACAD_REACTORS
330
C
102
}
330
C
100
AcDbDictionary
281
     1
  0
DICTIONARY
  5
D
102
{ACAD_REACTORS
330
C
102
}
330
C
100
AcDbDictionary
281
     1
  0
DICTIONARY
  5
19
102
{ACAD_REACTORS
330
C
102
}
330
C
100
AcDbDictionary
281
     1
  3
Layout1
350
1D
  3
Model
350
21
  0
DICTIONARY
  5
DE
102
{ACAD_REACTORS
330
C
102
}
330
C
100
AcDbDictionary
281
     1
  0
DICTIONARY
  5
16
102
{ACAD_REACTORS
330
C
102
}
330
C
100
AcDbDictionary
281
     1
  3
Standard
350
17
  0
DICTIONARY
  5
18
102
{ACAD_REACTORS
330
C
102
}
330
C
100
AcDbDictionary
281
     1
  0
ACDBDICTIONARYWDFLT
  5
E
102
{ACAD_REACTORS
330
C
102
}
330
C
100
AcDbDictionary
281
     1
  3
Normal
350
F
100
AcDbDictionaryWithDefault
340
F
  0
DICTIONARY
  5
EA
102
{ACAD_REACTORS
330
C
102
}
330
C
100
AcDbDictionary
281
     1
  3
DIMASSOC
350
EB
  3
PROJECTNAME
350
EC
  0
XRECORD
  5
D4
102
{ACAD_REACTORS
330
A0
102
}
330
A0
100
AcDbXrecord
280
     1
340
1E
  0
XRECORD
  5
D3
102
{ACAD_REACTORS
330
A2
102
}
330
A2
100
AcDbXrecord
280
     1
340
1A
  0
LAYOUT
  5
1D
102
{ACAD_REACTORS
330
19
102
}
330
19
100
AcDbPlotSettings
  1

  2
\\NT_WORK01\HP LaserJet 5000 PCL 6
  4

  6

 40
0.0
 41
0.0
 42
0.0
 43
0.0
 44
0.0
 45
0.0
 46
0.0
 47
0.0
 48
0.0
 49
0.0
140
0.0
141
0.0
142
1.0
143
1.0
 70
   688
 72
     0
 73
     0
 74
     5
  7

 75
    16
147
1.0
 76
     0
 77
     2
 78
   300
148
0.0
149
0.0
100
AcDbLayout
  1
Layout1
 70
     0
 71
     1
 10
0.0
 20
0.0
 11
12.0
 21
9.0
 12
0.0
 22
0.0
 32
0.0
 14
1.000000000000000E+20
 24
1.000000000000000E+20
 34
1.000000000000000E+20
 15
-1.000000000000000E+20
 25
-1.000000000000000E+20
 35
-1.000000000000000E+20
146
0.0
 13
0.0
 23
0.0
 33
0.0
 16
1.0
 26
0.0
 36
0.0
 17
0.0
 27
1.0
 37
0.0
 76
     0
330
1A
  0
LAYOUT
  5
21
102
{ACAD_REACTORS
330
19
102
}
330
19
100
AcDbPlotSettings
  1

  2
none_device
  4
Letter_(8.50_x_11.00_Inches)
  6

 40
6.349999904632568
 41
6.349999904632568
 42
6.350006103515625
 43
6.350006103515625
 44
215.8999938964844
 45
279.3999938964844
 46
0.0
 47
0.0
 48
0.0
 49
0.0
140
0.0
141
0.0
142
1.0
143
1.0
 70
 11952
 72
     0
 73
     1
 74
     0
  7

 75
     0
147
1.0
 76
     0
 77
     2
 78
   300
148
-230.4417396561563
149
47.00486644638983
100
AcDbLayout
  1
Model
 70
     1
 71
     0
 10
0.0
 20
0.0
 11
12.0
 21
9.0
 12
0.0
 22
0.0
 32
0.0
 14
0.0
 24
0.0
 34
0.0
 15
0.0
 25
0.0
 35
0.0
146
0.0
 13
0.0
 23
0.0
 33
0.0
 16
1.0
 26
0.0
 36
0.0
 17
0.0
 27
1.0
 37
0.0
 76
     0
330
1E
  0
MLINESTYLE
  5
17
102
{ACAD_REACTORS
330
16
102
}
330
16
100
AcDbMlineStyle
  2
STANDARD
 70
     0
  3

 62
   256
 51
90.0
 52
90.0
 71
     2
 49
0.5
 62
   256
  6
BYLAYER
 49
-0.5
 62
   256
  6
BYLAYER
  0
ACDBPLACEHOLDER
  5
F
102
{ACAD_REACTORS
330
E
102
}
330
E
  0
DICTIONARYVAR
  5
EB
102
{ACAD_REACTORS
330
EA
102
}
330
EA
100
DictionaryVariables
280
     0
  1
1
  0
DICTIONARYVAR
  5
EC
102
{ACAD_REACTORS
330
EA
102
}
330
EA
100
DictionaryVariables
280
     0
  1

  0
ENDSEC
  0
EOF
