  0
SECTION
  2
HEADER
  9
$ACADVER
  1
AC1018
  9
$ACADMAINTVER
 70
     2
  9
$DWGCODEPAGE
  3
ANSI_1252
  9
$INSBASE
 10
0.0
 20
0.0
 30
0.0
  9
$EXTMIN
 10
-0.02563359212877
 20
-0.0362532231533805
 30
-0.0000000349181948
  9
$EXTMAX
 10
420.0256375038029
 20
594.0362587553789
 30
0.0000000814935746
  9
$LIMMIN
 10
0.0
 20
0.0
  9
$LIMMAX
 10
419.9999999999999
 20
594.0
  9
$ORTHOMODE
 70
     1
  9
$REGENMODE
 70
     1
  9
$FILLMODE
 70
     1
  9
$QTEXTMODE
 70
     0
  9
$MIRRTEXT
 70
     1
  9
$LTSCALE
 40
20.0
  9
$ATTMODE
 70
     1
  9
$TEXTSIZE
 40
2.5
  9
$TRACEWID
 40
0.5
  9
$TEXTSTYLE
  7
GREEKS
  9
$CLAYER
  8
BEM
  9
$CELTYPE
  6
ByLayer
  9
$CECOLOR
 62
   256
  9
$CELTSCALE
 40
1.0
  9
$DISPSILH
 70
     0
  9
$DIMSCALE
 40
2.0
  9
$DIMASZ
 40
3.5
  9
$DIMEXO
 40
1.0
  9
$DIMDLI
 40
7.0
  9
$DIMRND
 40
0.0
  9
$DIMDLE
 40
0.0
  9
$DIMEXE
 40
1.0
  9
$DIMTP
 40
0.0
  9
$DIMTM
 40
0.0
  9
$DIMTXT
 40
3.5
  9
$DIMCEN
 40
1.5
  9
$DIMTSZ
 40
0.0
  9
$DIMTOL
 70
     0
  9
$DIMLIM
 70
     0
  9
$DIMTIH
 70
     0
  9
$DIMTOH
 70
     0
  9
$DIMSE1
 70
     0
  9
$DIMSE2
 70
     0
  9
$DIMTAD
 70
     1
  9
$DIMZIN
 70
     8
  9
$DIMBLK
  1

  9
$DIMASO
 70
     1
  9
$DIMSHO
 70
     0
  9
$DIMPOST
  1

  9
$DIMAPOST
  1

  9
$DIMALT
 70
     0
  9
$DIMALTD
 70
     2
  9
$DIMALTF
 40
25.4
  9
$DIMLFAC
 40
1.0
  9
$DIMTOFL
 70
     1
  9
$DIMTVP
 40
0.0
  9
$DIMTIX
 70
     0
  9
$DIMSOXD
 70
     0
  9
$DIMSAH
 70
     0
  9
$DIMBLK1
  1

  9
$DIMBLK2
  1

  9
$DIMSTYLE
  2
Standard
  9
$DIMCLRD
 70
     0
  9
$DIMCLRE
 70
     0
  9
$DIMCLRT
 70
     1
  9
$DIMTFAC
 40
0.5
  9
$DIMGAP
 40
1.5
  9
$DIMJUST
 70
     0
  9
$DIMSD1
 70
     0
  9
$DIMSD2
 70
     0
  9
$DIMTOLJ
 70
     1
  9
$DIMTZIN
 70
     8
  9
$DIMALTZ
 70
     8
  9
$DIMALTTZ
 70
     8
  9
$DIMUPT
 70
     0
  9
$DIMDEC
 70
     2
  9
$DIMTDEC
 70
     2
  9
$DIMALTU
 70
     2
  9
$DIMALTTD
 70
     2
  9
$DIMTXSTY
  7
STANDARD
  9
$DIMAUNIT
 70
     0
  9
$DIMADEC
 70
     2
  9
$DIMALTRND
 40
0.0
  9
$DIMAZIN
 70
     2
  9
$DIMDSEP
 70
    46
  9
$DIMATFIT
 70
     3
  9
$DIMFRAC
 70
     0
  9
$DIMLDRBLK
  1

  9
$DIMLUNIT
 70
     2
  9
$DIMLWD
 70
    -2
  9
$DIMLWE
 70
    -2
  9
$DIMTMOVE
 70
     0
  9
$LUNITS
 70
     2
  9
$LUPREC
 70
     2
  9
$SKETCHINC
 40
1.0
  9
$FILLETRAD
 40
0.0
  9
$AUNITS
 70
     0
  9
$AUPREC
 70
     0
  9
$MENU
  1
ACAD
  9
$ELEVATION
 40
0.0
  9
$PELEVATION
 40
0.0
  9
$THICKNESS
 40
0.0
  9
$LIMCHECK
 70
     0
  9
$CHAMFERA
 40
0.0
  9
$CHAMFERB
 40
0.0
  9
$CHAMFERC
 40
0.0
  9
$CHAMFERD
 40
0.0
  9
$SKPOLY
 70
     0
  9
$TDCREATE
 40
2455397.823042361
  9
$TDUCREATE
 40
2455397.781375695
  9
$TDUPDATE
 40
2456230.324048391
  9
$TDUUPDATE
 40
2456230.282381725
  9
$TDINDWG
 40
0.3303742593
  9
$TDUSRTIMER
 40
0.3303742593
  9
$USRTIMER
 70
     1
  9
$ANGBASE
 50
0.0
  9
$ANGDIR
 70
     0
  9
$PDMODE
 70
     0
  9
$PDSIZE
 40
0.0
  9
$PLINEWID
 40
0.0
  9
$SPLFRAME
 70
     0
  9
$SPLINETYPE
 70
     6
  9
$SPLINESEGS
 70
     8
  9
$HANDSEED
  5
1EAC
  9
$SURFTAB1
 70
     6
  9
$SURFTAB2
 70
     6
  9
$SURFTYPE
 70
     6
  9
$SURFU
 70
     6
  9
$SURFV
 70
     6
  9
$UCSBASE
  2

  9
$UCSNAME
  2

  9
$UCSORG
 10
0.0
 20
0.0
 30
0.0
  9
$UCSXDIR
 10
1.0
 20
0.0
 30
0.0
  9
$UCSYDIR
 10
0.0
 20
1.0
 30
0.0
  9
$UCSORTHOREF
  2

  9
$UCSORTHOVIEW
 70
     0
  9
$UCSORGTOP
 10
0.0
 20
0.0
 30
0.0
  9
$UCSORGBOTTOM
 10
0.0
 20
0.0
 30
0.0
  9
$UCSORGLEFT
 10
0.0
 20
0.0
 30
0.0
  9
$UCSORGRIGHT
 10
0.0
 20
0.0
 30
0.0
  9
$UCSORGFRONT
 10
0.0
 20
0.0
 30
0.0
  9
$UCSORGBACK
 10
0.0
 20
0.0
 30
0.0
  9
$PUCSBASE
  2

  9
$PUCSNAME
  2

  9
$PUCSORG
 10
0.0
 20
0.0
 30
0.0
  9
$PUCSXDIR
 10
1.0
 20
0.0
 30
0.0
  9
$PUCSYDIR
 10
0.0
 20
1.0
 30
0.0
  9
$PUCSORTHOREF
  2

  9
$PUCSORTHOVIEW
 70
     0
  9
$PUCSORGTOP
 10
0.0
 20
0.0
 30
0.0
  9
$PUCSORGBOTTOM
 10
0.0
 20
0.0
 30
0.0
  9
$PUCSORGLEFT
 10
0.0
 20
0.0
 30
0.0
  9
$PUCSORGRIGHT
 10
0.0
 20
0.0
 30
0.0
  9
$PUCSORGFRONT
 10
0.0
 20
0.0
 30
0.0
  9
$PUCSORGBACK
 10
0.0
 20
0.0
 30
0.0
  9
$USERI1
 70
     0
  9
$USERI2
 70
     0
  9
$USERI3
 70
     0
  9
$USERI4
 70
     0
  9
$USERI5
 70
     0
  9
$USERR1
 40
0.0
  9
$USERR2
 40
0.0
  9
$USERR3
 40
0.0
  9
$USERR4
 40
0.0
  9
$USERR5
 40
0.0
  9
$WORLDVIEW
 70
     1
  9
$SHADEDGE
 70
     3
  9
$SHADEDIF
 70
    70
  9
$TILEMODE
 70
     1
  9
$MAXACTVP
 70
    16
  9
$PINSBASE
 10
0.0
 20
0.0
 30
0.0
  9
$PLIMCHECK
 70
     0
  9
$PEXTMIN
 10
1.000000000000000E+20
 20
1.000000000000000E+20
 30
1.000000000000000E+20
  9
$PEXTMAX
 10
-1.000000000000000E+20
 20
-1.000000000000000E+20
 30
-1.000000000000000E+20
  9
$PLIMMIN
 10
0.0
 20
0.0
  9
$PLIMMAX
 10
12.0
 20
9.0
  9
$UNITMODE
 70
     0
  9
$VISRETAIN
 70
     0
  9
$PLINEGEN
 70
     0
  9
$PSLTSCALE
 70
     0
  9
$TREEDEPTH
 70
  3020
  9
$CMLSTYLE
  2
Standard
  9
$CMLJUST
 70
     0
  9
$CMLSCALE
 40
1.0
  9
$PROXYGRAPHICS
 70
     1
  9
$MEASUREMENT
 70
     0
  9
$CELWEIGHT
370
    -1
  9
$ENDCAPS
280
     0
  9
$JOINSTYLE
280
     0
  9
$LWDISPLAY
290
     0
  9
$INSUNITS
 70
     0
  9
$HYPERLINKBASE
  1

  9
$STYLESHEET
  1
monochrome 1.ctb
  9
$XEDIT
290
     1
  9
$CEPSNTYPE
380
     0
  9
$PSTYLEMODE
290
     1
  9
$FINGERPRINTGUID
  2
{D68B0D02-A558-11D7-B632-000102183313}
  9
$VERSIONGUID
  2
{C828F0EE-CD72-4260-A0D4-C100A7543509}
  9
$EXTNAMES
290
     1
  9
$PSVPSCALE
 40
0.0
  9
$OLESTARTUP
290
     0
  9
$SORTENTS
280
   127
  9
$INDEXCTL
280
     0
  9
$HIDETEXT
280
     0
  9
$XCLIPFRAME
290
     0
  9
$HALOGAP
280
     0
  9
$OBSCOLOR
 70
   257
  9
$OBSLTYPE
280
     0
  9
$INTERSECTIONDISPLAY
280
     0
  9
$INTERSECTIONCOLOR
 70
   257
  9
$DIMASSOC
280
     1
  9
$PROJECTNAME
  1

  0
ENDSEC
  0
SECTION
  2
CLASSES
  0
CLASS
  1
ACDBDICTIONARYWDFLT
  2
AcDbDictionaryWithDefault
  3
ObjectDBX Classes
 90
        0
 91
        1
280
     0
281
     0
  0
CLASS
  1
DICTIONARYVAR
  2
AcDbDictionaryVar
  3
ObjectDBX Classes
 90
        0
 91
        2
280
     0
281
     0
  0
ENDSEC
  0
SECTION
  2
TABLES
  0
TABLE
  2
VPORT
  5
8
330
0
100
AcDbSymbolTable
 70
     3
  0
VPORT
  5
1EAB
330
8
100
AcDbSymbolTableRecord
100
AcDbViewportTableRecord
  2
*Active
 70
     0
 10
0.0
 20
0.0
 11
1.0
 21
1.0
 12
209.9999999999999
 22
297.0
 13
0.0
 23
0.0
 14
1.0
 24
1.0
 15
10.0
 25
10.0
 16
0.0
 26
0.0
 36
1.0
 17
0.0
 27
0.0
 37
0.0
 40
594.1515381036614
 41
1.404858299595141
 42
50.0
 43
0.0
 44
0.0
 50
0.0
 51
0.0
 71
     0
 72
  1500
 73
     1
 74
     0
 75
     0
 76
     0
 77
     0
 78
     0
281
     0
 65
     1
110
0.0
120
0.0
130
0.0
111
1.0
121
0.0
131
0.0
112
0.0
122
1.0
132
0.0
 79
     0
146
0.0
  0
ENDTAB
  0
TABLE
  2
LTYPE
  5
5
330
0
100
AcDbSymbolTable
 70
     2
  0
LTYPE
  5
13
330
5
100
AcDbSymbolTableRecord
100
AcDbLinetypeTableRecord
  2
ByBlock
 70
     0
  3

 72
    65
 73
     0
 40
0.0
  0
LTYPE
  5
14
330
5
100
AcDbSymbolTableRecord
100
AcDbLinetypeTableRecord
  2
ByLayer
 70
     0
  3

 72
    65
 73
     0
 40
0.0
  0
LTYPE
  5
15
330
5
100
AcDbSymbolTableRecord
100
AcDbLinetypeTableRecord
  2
Continuous
 70
     0
  3
Solid line
 72
    65
 73
     0
 40
0.0
  0
LTYPE
  5
25
330
5
100
AcDbSymbolTableRecord
100
AcDbLinetypeTableRecord
  2
STRICHPUNKT
 70
     0
  3
__ . __ . __ . __ . __ . __ . __ . __ . __ . __
 72
    65
 73
     4
 40
1.0
 49
0.5
 74
     0
 49
-0.25
 74
     0
 49
0.0
 74
     0
 49
-0.25
 74
     0
  0
ENDTAB
  0
TABLE
  2
LAYER
  5
2
330
0
100
AcDbSymbolTable
 70
     8
  0
LAYER
  5
10
330
2
100
AcDbSymbolTableRecord
100
AcDbLayerTableRecord
  2
0
 70
     0
 62
     7
  6
Continuous
370
    -3
390
F
  0
LAYER
  5
2A
330
2
100
AcDbSymbolTableRecord
100
AcDbLayerTableRecord
  2
VOLL
 70
     0
 62
     1
  6
Continuous
370
    -3
390
F
  0
LAYER
  5
2B
330
2
100
AcDbSymbolTableRecord
100
AcDbLayerTableRecord
  2
HILF
 70
     0
 62
     2
  6
Continuous
370
    -3
390
F
  0
LAYER
  5
2C
330
2
100
AcDbSymbolTableRecord
100
AcDbLayerTableRecord
  2
MITTEL
 70
     0
 62
     2
  6
STRICHPUNKT
370
    -3
390
F
  0
LAYER
  5
2F
330
2
100
AcDbSymbolTableRecord
100
AcDbLayerTableRecord
  2
BEM
 70
     0
 62
     7
  6
Continuous
370
    -3
390
F
  0
LAYER
  5
30
330
2
100
AcDbSymbolTableRecord
100
AcDbLayerTableRecord
  2
STEMPEL
 70
     0
 62
     3
  6
Continuous
370
    -3
390
F
  0
LAYER
  5
31
330
2
100
AcDbSymbolTableRecord
100
AcDbLayerTableRecord
  2
TEXT
 70
     0
 62
     7
  6
Continuous
370
    -3
390
F
  0
LAYER
  5
1A8
330
2
100
AcDbSymbolTableRecord
100
AcDbLayerTableRecord
  2
Defpoints
 70
     0
 62
     7
  6
Continuous
290
     0
370
    -3
390
F
  0
ENDTAB
  0
TABLE
  2
STYLE
  5
3
330
0
100
AcDbSymbolTable
 70
     2
  0
STYLE
  5
11
330
3
100
AcDbSymbolTableRecord
100
AcDbTextStyleTableRecord
  2
STANDARD
 70
     0
 40
0.0
 41
0.8
 50
0.0
 71
     0
 42
3.5
  3
simplex.shx
  4

  0
STYLE
  5
24
330
3
100
AcDbSymbolTableRecord
100
AcDbTextStyleTableRecord
  2
GREEKS
 70
     0
 40
0.0
 41
0.8
 50
0.0
 71
     0
 42
2.5
  3
SIMPLEX.shx
  4

  0
ENDTAB
  0
TABLE
  2
VIEW
  5
6
330
0
100
AcDbSymbolTable
 70
     0
  0
ENDTAB
  0
TABLE
  2
UCS
  5
7
330
0
100
AcDbSymbolTable
 70
     0
  0
ENDTAB
  0
TABLE
  2
APPID
  5
9
330
0
100
AcDbSymbolTable
 70
     1
  0
APPID
  5
12
330
9
100
AcDbSymbolTableRecord
100
AcDbRegAppTableRecord
  2
ACAD
 70
     0
  0
ENDTAB
  0
TABLE
  2
DIMSTYLE
  5
A
330
0
100
AcDbSymbolTable
 70
     1
100
AcDbDimStyleTable
 71
     1
340
9D
  0
DIMSTYLE
105
9D
102
{ACAD_REACTORS
330
1D93
330
1DA0
330
1DD2
330
1E30
330
1E3D
330
1E4C
330
1E5A
330
1E89
102
}
330
A
100
AcDbSymbolTableRecord
100
AcDbDimStyleTableRecord
  2
Standard
 70
     0
340
11
  0
ENDTAB
  0
TABLE
  2
BLOCK_RECORD
  5
1
330
0
100
AcDbSymbolTable
 70
     9
  0
BLOCK_RECORD
  5
1E
102
{ACAD_XDICTIONARY
360
A0
102
}
330
1
100
AcDbSymbolTableRecord
100
AcDbBlockTableRecord
  2
*Model_Space
340
21
  0
BLOCK_RECORD
  5
1A
102
{ACAD_XDICTIONARY
360
A2
102
}
330
1
100
AcDbSymbolTableRecord
100
AcDbBlockTableRecord
  2
*Paper_Space
340
1D
  0
BLOCK_RECORD
  5
22
330
1
100
AcDbSymbolTableRecord
100
AcDbBlockTableRecord
  2
LOGO
340
0
102
{BLKREFS
331
9B
102
}
  0
BLOCK_RECORD
  5
1D94
330
1
100
AcDbSymbolTableRecord
100
AcDbBlockTableRecord
  2
*D1
340
0
  0
BLOCK_RECORD
  5
1DA1
330
1
100
AcDbSymbolTableRecord
100
AcDbBlockTableRecord
  2
*D2
340
0
  0
BLOCK_RECORD
  5
1DD4
330
1
100
AcDbSymbolTableRecord
100
AcDbBlockTableRecord
  2
*D3
340
0
  0
BLOCK_RECORD
  5
1E31
330
1
100
AcDbSymbolTableRecord
100
AcDbBlockTableRecord
  2
*D4
340
0
  0
BLOCK_RECORD
  5
1E3E
330
1
100
AcDbSymbolTableRecord
100
AcDbBlockTableRecord
  2
*D5
340
0
  0
BLOCK_RECORD
  5
1E4D
330
1
100
AcDbSymbolTableRecord
100
AcDbBlockTableRecord
  2
*D6
340
0
  0
BLOCK_RECORD
  5
1E5B
330
1
100
AcDbSymbolTableRecord
100
AcDbBlockTableRecord
  2
*D7
340
0
  0
BLOCK_RECORD
  5
1E8A
330
1
100
AcDbSymbolTableRecord
100
AcDbBlockTableRecord
  2
*D8
340
0
  0
ENDTAB
  0
ENDSEC
  0
SECTION
  2
BLOCKS
  0
BLOCK
  5
35
330
1E
100
AcDbEntity
  8
0
100
AcDbBlockBegin
  2
*Model_Space
 70
     0
 10
0.0
 20
0.0
 30
0.0
  3
*Model_Space
  1

  0
ENDBLK
  5
36
330
1E
100
AcDbEntity
  8
0
100
AcDbBlockEnd
  0
BLOCK
  5
33
330
1A
100
AcDbEntity
 67
     1
  8
0
100
AcDbBlockBegin
  2
*Paper_Space
 70
     0
 10
0.0
 20
0.0
 30
0.0
  3
*Paper_Space
  1

  0
ENDBLK
  5
34
330
1A
100
AcDbEntity
 67
     1
  8
0
100
AcDbBlockEnd
  0
BLOCK
  5
37
330
22
100
AcDbEntity
  8
0
100
AcDbBlockBegin
  2
LOGO
 70
     0
 10
0.0
 20
0.0
 30
0.0
  3
LOGO
  1

  0
ARC
  5
38
330
22
100
AcDbEntity
  8
0
100
AcDbCircle
 10
11.59973089678112
 20
-9.271599258481501
 30
0.0
 40
4.5
100
AcDbArc
 50
270.0
 51
231.0575587310159
  0
LINE
  5
39
330
22
100
AcDbEntity
  8
0
100
AcDbLine
 10
3.599730896781125
 20
-4.771599258481529
 30
0.0
 11
3.599730896781153
 21
-11.77159925848133
 31
0.0
  0
LINE
  5
3A
330
22
100
AcDbEntity
  8
0
100
AcDbLine
 10
2.599730896781125
 20
-4.771599258481529
 30
0.0
 11
2.599730896781153
 21
-11.77159925848133
 31
0.0
  0
CIRCLE
  5
3B
330
22
100
AcDbEntity
  8
0
100
AcDbCircle
 10
11.59973089678112
 20
-9.271599258481501
 30
0.0
 40
3.5
  0
ARC
  5
3C
330
22
100
AcDbEntity
  8
0
100
AcDbCircle
 10
31.59973089678115
 20
-9.271599258481472
 30
0.0
 40
4.5
100
AcDbArc
 50
270.0
 51
231.0575587310182
  0
LINE
  5
3D
330
22
100
AcDbEntity
  8
0
100
AcDbLine
 10
17.59973089678112
 20
-4.771599258481472
 30
0.0
 11
17.59973089678115
 21
-13.77159925848147
 31
0.0
  0
ARC
  5
3E
330
22
100
AcDbEntity
  8
0
100
AcDbCircle
 10
22.59973089678116
 20
-7.271599258481472
 30
0.0
 40
2.5
100
AcDbArc
 50
293.1161887722295
 51
90.0
  0
CIRCLE
  5
3F
330
22
100
AcDbEntity
  8
0
100
AcDbCircle
 10
31.59973089678115
 20
-9.271599258481472
 30
0.0
 40
3.5
  0
ARC
  5
40
330
22
100
AcDbEntity
  8
0
100
AcDbCircle
 10
4.599730896781153
 20
-11.77159925848133
 30
0.0
 40
1.0
100
AcDbArc
 50
180.0
 51
270.0
  0
ARC
  5
41
330
22
100
AcDbEntity
  8
0
100
AcDbCircle
 10
4.599730896781153
 20
-11.77159925848133
 30
0.0
 40
2.0
100
AcDbArc
 50
179.9999999999992
 51
270.0
  0
LINE
  5
42
330
22
100
AcDbEntity
  8
0
100
AcDbLine
 10
11.59973089678115
 20
-13.77159925848144
 30
0.0
 11
4.599730896781153
 21
-13.77159925848147
 31
0.0
  0
LINE
  5
43
330
22
100
AcDbEntity
  8
0
100
AcDbLine
 10
8.771303772034769
 20
-12.77159925848136
 30
0.0
 11
4.599730896781153
 21
-12.77159925848133
 31
0.0
  0
LINE
  5
44
330
22
100
AcDbEntity
  8
0
100
AcDbLine
 10
31.59973089678115
 20
-13.77159925848147
 30
0.0
 11
23.6715276665056
 21
-13.77159925848144
 31
0.0
  0
LINE
  5
45
330
22
100
AcDbEntity
  8
0
100
AcDbLine
 10
23.56565672307022
 20
-9.51278021337896
 30
0.0
 11
24.4388546544846
 21
-12.77159925848144
 31
0.0
  0
LINE
  5
46
330
22
100
AcDbEntity
  8
0
100
AcDbLine
 10
22.59973089678116
 20
-9.771599258481472
 30
0.0
 11
18.59973089678112
 21
-9.771599258481472
 31
0.0
  0
LINE
  5
47
330
22
100
AcDbEntity
  8
0
100
AcDbLine
 10
18.59973089678115
 20
-13.77159925848144
 30
0.0
 11
17.59973089678115
 21
-13.77159925848144
 31
0.0
  0
LINE
  5
48
330
22
100
AcDbEntity
  8
0
100
AcDbLine
 10
18.59973089678115
 20
-9.771599258481472
 30
0.0
 11
18.59973089678115
 21
-13.77159925848144
 31
0.0
  0
LINE
  5
49
330
22
100
AcDbEntity
  8
0
100
AcDbLine
 10
22.59973089678116
 20
-9.771599258481472
 30
0.0
 11
23.67152766650562
 21
-13.77159925848147
 31
0.0
  0
ARC
  5
4A
330
22
100
AcDbEntity
  8
0
100
AcDbCircle
 10
22.59973089678116
 20
-7.271599258481472
 30
0.0
 40
2.5
100
AcDbArc
 50
270.0
 51
270.0000000000007
  0
LINE
  5
4B
330
22
100
AcDbEntity
  8
0
100
AcDbLine
 10
28.77130377203494
 20
-12.77159925848147
 30
0.0
 11
24.43885465448463
 21
-12.77159925848144
 31
0.0
  0
LINE
  5
4C
330
22
100
AcDbEntity
  8
0
100
AcDbLine
 10
3.599730896781125
 20
-4.771599258481472
 30
0.0
 11
2.599730896781125
 21
-4.771599258481472
 31
0.0
  0
LINE
  5
4D
330
22
100
AcDbEntity
  8
0
100
AcDbLine
 10
22.59973089678116
 20
-8.771599258481472
 30
0.0
 11
18.59973089678115
 21
-8.771599258481472
 31
0.0
  0
LINE
  5
4E
330
22
100
AcDbEntity
  8
0
100
AcDbLine
 10
22.59973089678116
 20
-5.771599258481472
 30
0.0
 11
18.59973089678115
 21
-5.771599258481472
 31
0.0
  0
LINE
  5
4F
330
22
100
AcDbEntity
  8
0
100
AcDbLine
 10
22.59973089678116
 20
-4.771599258481472
 30
0.0
 11
17.59973089678115
 21
-4.771599258481472
 31
0.0
  0
LINE
  5
50
330
22
100
AcDbEntity
  8
0
100
AcDbLine
 10
18.59973089678115
 20
-5.771599258481472
 30
0.0
 11
18.59973089678115
 21
-8.771599258481472
 31
0.0
  0
ARC
  5
51
330
22
100
AcDbEntity
  8
0
100
AcDbCircle
 10
22.59973089678116
 20
-7.271599258481472
 30
0.0
 40
1.5
100
AcDbArc
 50
270.0
 51
90.0
  0
ENDBLK
  5
52
330
22
100
AcDbEntity
  8
0
100
AcDbBlockEnd
  0
BLOCK
  5
1D9E
330
1D94
100
AcDbEntity
  8
0
100
AcDbBlockBegin
  2
*D1
 70
     1
 10
0.0
 20
0.0
 30
0.0
  3
*D1
  1

  0
LINE
  5
1D95
330
1D94
100
AcDbEntity
  8
BEM
 62
     0
370
    -2
100
AcDbLine
 10
174.6062651669413
 20
232.8418764206357
 30
0.0
 11
174.6062651669413
 21
209.4717540593417
 31
0.0
  0
LINE
  5
1D96
330
1D94
100
AcDbEntity
  8
BEM
 62
     0
370
    -2
100
AcDbLine
 10
296.6062651669413
 20
232.8418764206357
 30
0.0
 11
296.6062651669413
 21
209.4717540593417
 31
0.0
  0
LINE
  5
1D97
330
1D94
100
AcDbEntity
  8
BEM
 62
     0
370
    -2
100
AcDbLine
 10
181.6062651669413
 20
211.4717540593417
 30
0.0
 11
289.6062651669413
 21
211.4717540593417
 31
0.0
  0
SOLID
  5
1D98
330
1D94
100
AcDbEntity
  8
BEM
 62
     0
100
AcDbTrace
 10
181.6062651669413
 20
212.6384207260084
 30
0.0
 11
181.6062651669413
 21
210.3050873926751
 31
0.0
 12
174.6062651669413
 22
211.4717540593417
 32
0.0
 13
174.6062651669413
 23
211.4717540593417
 33
0.0
  0
SOLID
  5
1D99
330
1D94
100
AcDbEntity
  8
BEM
 62
     0
100
AcDbTrace
 10
289.6062651669413
 20
212.6384207260084
 30
0.0
 11
289.6062651669413
 21
210.3050873926751
 31
0.0
 12
296.6062651669413
 22
211.4717540593417
 32
0.0
 13
296.6062651669413
 23
211.4717540593417
 33
0.0
  0
MTEXT
  5
1D9A
330
1D94
100
AcDbEntity
  8
BEM
 62
     1
100
AcDbMText
 10
235.6062651669413
 20
217.9717540593417
 30
0.0
 40
7.0
 41
0.0
 71
     5
 72
     1
  1
\A1;122
 73
     1
 44
1.0
  0
POINT
  5
1D9B
330
1D94
100
AcDbEntity
  8
Defpoints
 62
     0
100
AcDbPoint
 10
174.6062651669413
 20
234.8418764206357
 30
0.0
  0
POINT
  5
1D9C
330
1D94
100
AcDbEntity
  8
Defpoints
 62
     0
100
AcDbPoint
 10
296.6062651669413
 20
234.8418764206357
 30
0.0
  0
POINT
  5
1D9D
330
1D94
100
AcDbEntity
  8
Defpoints
 62
     0
100
AcDbPoint
 10
296.6062651669413
 20
211.4717540593417
 30
0.0
  0
ENDBLK
  5
1D9F
330
1D94
100
AcDbEntity
  8
0
100
AcDbBlockEnd
  0
BLOCK
  5
1DAB
330
1DA1
100
AcDbEntity
  8
0
100
AcDbBlockBegin
  2
*D2
 70
     1
 10
0.0
 20
0.0
 30
0.0
  3
*D2
  1

  0
LINE
  5
1DA2
330
1DA1
100
AcDbEntity
  8
BEM
 62
     0
370
    -2
100
AcDbLine
 10
166.6062651669412
 20
242.8418764206357
 30
0.0
 11
166.6062651669412
 21
194.5029150329492
 31
0.0
  0
LINE
  5
1DA3
330
1DA1
100
AcDbEntity
  8
BEM
 62
     0
370
    -2
100
AcDbLine
 10
304.6062651669413
 20
242.8418764206357
 30
0.0
 11
304.6062651669413
 21
194.5029150329492
 31
0.0
  0
LINE
  5
1DA4
330
1DA1
100
AcDbEntity
  8
BEM
 62
     0
370
    -2
100
AcDbLine
 10
173.6062651669413
 20
196.5029150329492
 30
0.0
 11
297.6062651669413
 21
196.5029150329492
 31
0.0
  0
SOLID
  5
1DA5
330
1DA1
100
AcDbEntity
  8
BEM
 62
     0
100
AcDbTrace
 10
173.6062651669413
 20
197.6695816996158
 30
0.0
 11
173.6062651669413
 21
195.3362483662825
 31
0.0
 12
166.6062651669412
 22
196.5029150329492
 32
0.0
 13
166.6062651669412
 23
196.5029150329492
 33
0.0
  0
SOLID
  5
1DA6
330
1DA1
100
AcDbEntity
  8
BEM
 62
     0
100
AcDbTrace
 10
297.6062651669413
 20
197.6695816996158
 30
0.0
 11
297.6062651669413
 21
195.3362483662825
 31
0.0
 12
304.6062651669413
 22
196.5029150329492
 32
0.0
 13
304.6062651669413
 23
196.5029150329492
 33
0.0
  0
MTEXT
  5
1DA7
330
1DA1
100
AcDbEntity
  8
BEM
 62
     1
100
AcDbMText
 10
235.6062651669413
 20
203.0029150329492
 30
0.0
 40
7.0
 41
0.0
 71
     5
 72
     1
  1
\A1;138
 73
     1
 44
1.0
  0
POINT
  5
1DA8
330
1DA1
100
AcDbEntity
  8
Defpoints
 62
     0
100
AcDbPoint
 10
166.6062651669412
 20
244.8418764206357
 30
0.0
  0
POINT
  5
1DA9
330
1DA1
100
AcDbEntity
  8
Defpoints
 62
     0
100
AcDbPoint
 10
304.6062651669413
 20
244.8418764206357
 30
0.0
  0
POINT
  5
1DAA
330
1DA1
100
AcDbEntity
  8
Defpoints
 62
     0
100
AcDbPoint
 10
304.6062651669413
 20
196.5029150329492
 30
0.0
  0
ENDBLK
  5
1DAC
330
1DA1
100
AcDbEntity
  8
0
100
AcDbBlockEnd
  0
BLOCK
  5
1DE0
330
1DD4
100
AcDbEntity
  8
0
100
AcDbBlockBegin
  2
*D3
 70
     1
 10
0.0
 20
0.0
 30
0.0
  3
*D3
  1

  0
LINE
  5
1E25
330
1DD4
100
AcDbEntity
  8
BEM
 62
     0
370
    -2
100
AcDbLine
 10
239.1072651669412
 20
335.1021302985777
 30
0.0
 11
239.1072651669412
 21
335.1595362998123
 31
0.0
  0
LINE
  5
1E26
330
1DD4
100
AcDbEntity
  8
BEM
 62
     0
370
    -2
100
AcDbLine
 10
232.1072651669413
 20
335.1021302985777
 30
0.0
 11
232.1072651669413
 21
335.1595362998123
 31
0.0
  0
LINE
  5
1E27
330
1DD4
100
AcDbEntity
  8
BEM
 62
     0
370
    -2
100
AcDbLine
 10
246.1072651669413
 20
333.1595362998123
 30
0.0
 11
253.1072651669413
 21
333.1595362998123
 31
0.0
  0
LINE
  5
1E28
330
1DD4
100
AcDbEntity
  8
BEM
 62
     0
370
    -2
100
AcDbLine
 10
225.1072651669413
 20
333.1595362998123
 30
0.0
 11
208.3739318336079
 21
333.1595362998123
 31
0.0
  0
LINE
  5
1E29
330
1DD4
100
AcDbEntity
  8
BEM
 62
     0
370
    -2
100
AcDbLine
 10
239.1072651669412
 20
333.1595362998123
 30
0.0
 11
232.1072651669413
 21
333.1595362998123
 31
0.0
  0
SOLID
  5
1E2A
330
1DD4
100
AcDbEntity
  8
BEM
 62
     0
100
AcDbTrace
 10
246.1072651669413
 20
334.326202966479
 30
0.0
 11
246.1072651669413
 21
331.9928696331456
 31
0.0
 12
239.1072651669412
 22
333.1595362998123
 32
0.0
 13
239.1072651669412
 23
333.1595362998123
 33
0.0
  0
SOLID
  5
1E2B
330
1DD4
100
AcDbEntity
  8
BEM
 62
     0
100
AcDbTrace
 10
225.1072651669413
 20
334.326202966479
 30
0.0
 11
225.1072651669413
 21
331.9928696331456
 31
0.0
 12
232.1072651669413
 22
333.1595362998123
 32
0.0
 13
232.1072651669413
 23
333.1595362998123
 33
0.0
  0
MTEXT
  5
1E2C
330
1DD4
100
AcDbEntity
  8
BEM
 62
     1
100
AcDbMText
 10
213.2405985002746
 20
339.6595362998123
 30
0.0
 40
7.0
 41
0.0
 71
     5
 72
     1
  1
\A1;7
 73
     1
 44
1.0
  0
POINT
  5
1E2D
330
1DD4
100
AcDbEntity
  8
Defpoints
 62
     0
100
AcDbPoint
 10
239.1072651669412
 20
333.1021302985777
 30
0.0
  0
POINT
  5
1E2E
330
1DD4
100
AcDbEntity
  8
Defpoints
 62
     0
100
AcDbPoint
 10
232.1072651669413
 20
333.1021302985777
 30
0.0
  0
POINT
  5
1E2F
330
1DD4
100
AcDbEntity
  8
Defpoints
 62
     0
100
AcDbPoint
 10
232.1072651669413
 20
333.1595362998123
 30
0.0
  0
ENDBLK
  5
1DE1
330
1DD4
100
AcDbEntity
  8
0
100
AcDbBlockEnd
  0
BLOCK
  5
1E3B
330
1E31
100
AcDbEntity
  8
0
100
AcDbBlockBegin
  2
*D4
 70
     1
 10
0.0
 20
0.0
 30
0.0
  3
*D4
  1

  0
LINE
  5
1E32
330
1E31
100
AcDbEntity
  8
BEM
 62
     0
370
    -2
100
AcDbLine
 10
233.6072651669413
 20
289.3664260604004
 30
0.0
 11
142.5527488069492
 21
289.3664260604004
 31
0.0
  0
LINE
  5
1E33
330
1E31
100
AcDbEntity
  8
BEM
 62
     0
370
    -2
100
AcDbLine
 10
223.1072651669413
 20
389.3664260604004
 30
0.0
 11
142.5527488069492
 21
389.3664260604004
 31
0.0
  0
LINE
  5
1E34
330
1E31
100
AcDbEntity
  8
BEM
 62
     0
370
    -2
100
AcDbLine
 10
144.5527488069492
 20
296.3664260604005
 30
0.0
 11
144.5527488069492
 21
382.3664260604004
 31
0.0
  0
SOLID
  5
1E35
330
1E31
100
AcDbEntity
  8
BEM
 62
     0
100
AcDbTrace
 10
143.3860821402825
 20
296.3664260604005
 30
0.0
 11
145.7194154736158
 21
296.3664260604005
 31
0.0
 12
144.5527488069492
 22
289.3664260604004
 32
0.0
 13
144.5527488069492
 23
289.3664260604004
 33
0.0
  0
SOLID
  5
1E36
330
1E31
100
AcDbEntity
  8
BEM
 62
     0
100
AcDbTrace
 10
143.3860821402826
 20
382.3664260604004
 30
0.0
 11
145.7194154736159
 21
382.3664260604004
 31
0.0
 12
144.5527488069492
 22
389.3664260604004
 32
0.0
 13
144.5527488069492
 23
389.3664260604004
 33
0.0
  0
MTEXT
  5
1E37
330
1E31
100
AcDbEntity
  8
BEM
 62
     1
100
AcDbMText
 10
138.0527488069492
 20
339.3664260604005
 30
0.0
 40
7.0
 41
0.0
 71
     5
 72
     1
  1
\A1;100
 11
0.0000000000000001
 21
1.0
 31
0.0
 73
     1
 44
1.0
  0
POINT
  5
1E38
330
1E31
100
AcDbEntity
  8
Defpoints
 62
     0
100
AcDbPoint
 10
235.6072651669413
 20
289.3664260604004
 30
0.0
  0
POINT
  5
1E39
330
1E31
100
AcDbEntity
  8
Defpoints
 62
     0
100
AcDbPoint
 10
225.1072651669413
 20
389.3664260604004
 30
0.0
  0
POINT
  5
1E3A
330
1E31
100
AcDbEntity
  8
Defpoints
 62
     0
100
AcDbPoint
 10
144.5527488069492
 20
389.3664260604004
 30
0.0
  0
ENDBLK
  5
1E3C
330
1E31
100
AcDbEntity
  8
0
100
AcDbBlockEnd
  0
BLOCK
  5
1E4A
330
1E3E
100
AcDbEntity
  8
0
100
AcDbBlockBegin
  2
*D5
 70
     1
 10
0.0
 20
0.0
 30
0.0
  3
*D5
  1

  0
LINE
  5
1E3F
330
1E3E
100
AcDbEntity
  8
BEM
 62
     0
370
    -2
100
AcDbLine
 10
164.7222651669413
 20
455.8664260604004
 30
0.0
 11
142.5527488069493
 21
455.8664260604004
 31
0.0
  0
LINE
  5
1E40
330
1E3E
100
AcDbEntity
  8
BEM
 62
     0
370
    -2
100
AcDbLine
 10
164.7222651669413
 20
458.8664260604004
 30
0.0
 11
142.5527488069493
 21
458.8664260604004
 31
0.0
  0
LINE
  5
1E41
330
1E3E
100
AcDbEntity
  8
BEM
 62
     0
370
    -2
100
AcDbLine
 10
144.5527488069492
 20
448.8664260604004
 30
0.0
 11
144.5527488069492
 21
441.8664260604004
 31
0.0
  0
LINE
  5
1E42
330
1E3E
100
AcDbEntity
  8
BEM
 62
     0
370
    -2
100
AcDbLine
 10
144.5527488069492
 20
465.8664260604004
 30
0.0
 11
144.5527488069492
 21
482.5997593937337
 31
0.0
  0
LINE
  5
1E43
330
1E3E
100
AcDbEntity
  8
BEM
 62
     0
370
    -2
100
AcDbLine
 10
144.5527488069492
 20
455.8664260604004
 30
0.0
 11
144.5527488069492
 21
458.8664260604004
 31
0.0
  0
SOLID
  5
1E44
330
1E3E
100
AcDbEntity
  8
BEM
 62
     0
100
AcDbTrace
 10
143.3860821402826
 20
448.8664260604004
 30
0.0
 11
145.7194154736159
 21
448.8664260604004
 31
0.0
 12
144.5527488069492
 22
455.8664260604004
 32
0.0
 13
144.5527488069492
 23
455.8664260604004
 33
0.0
  0
SOLID
  5
1E45
330
1E3E
100
AcDbEntity
  8
BEM
 62
     0
100
AcDbTrace
 10
143.3860821402826
 20
465.8664260604004
 30
0.0
 11
145.7194154736159
 21
465.8664260604004
 31
0.0
 12
144.5527488069492
 22
458.8664260604004
 32
0.0
 13
144.5527488069492
 23
458.8664260604004
 33
0.0
  0
MTEXT
  5
1E46
330
1E3E
100
AcDbEntity
  8
BEM
 62
     1
100
AcDbMText
 10
138.0527488069492
 20
477.7330927270671
 30
0.0
 40
7.0
 41
0.0
 71
     5
 72
     1
  1
\A1;3
 11
0.0000000000000001
 21
1.0
 31
0.0
 73
     1
 44
1.0
  0
POINT
  5
1E47
330
1E3E
100
AcDbEntity
  8
Defpoints
 62
     0
100
AcDbPoint
 10
166.7222651669413
 20
455.8664260604004
 30
0.0
  0
POINT
  5
1E48
330
1E3E
100
AcDbEntity
  8
Defpoints
 62
     0
100
AcDbPoint
 10
166.7222651669413
 20
458.8664260604004
 30
0.0
  0
POINT
  5
1E49
330
1E3E
100
AcDbEntity
  8
Defpoints
 62
     0
100
AcDbPoint
 10
144.5527488069492
 20
458.8664260604004
 30
0.0
  0
ENDBLK
  5
1E4B
330
1E3E
100
AcDbEntity
  8
0
100
AcDbBlockEnd
  0
BLOCK
  5
1E57
330
1E4D
100
AcDbEntity
  8
0
100
AcDbBlockBegin
  2
*D6
 70
     1
 10
0.0
 20
0.0
 30
0.0
  3
*D6
  1

  0
LINE
  5
1E4E
330
1E4D
100
AcDbEntity
  8
BEM
 62
     0
370
    -2
100
AcDbLine
 10
233.6072651669413
 20
289.3664260604004
 30
0.0
 11
126.2164721398844
 21
289.3664260604005
 31
0.0
  0
LINE
  5
1E4F
330
1E4D
100
AcDbEntity
  8
BEM
 62
     0
370
    -2
100
AcDbLine
 10
233.6072651669413
 20
511.3664260604004
 30
0.0
 11
126.2164721398844
 21
511.3664260604005
 31
0.0
  0
LINE
  5
1E50
330
1E4D
100
AcDbEntity
  8
BEM
 62
     0
370
    -2
100
AcDbLine
 10
128.2164721398844
 20
296.3664260604005
 30
0.0
 11
128.2164721398844
 21
504.3664260604004
 31
0.0
  0
SOLID
  5
1E51
330
1E4D
100
AcDbEntity
  8
BEM
 62
     0
100
AcDbTrace
 10
127.0498054732177
 20
296.3664260604005
 30
0.0
 11
129.383138806551
 21
296.3664260604005
 31
0.0
 12
128.2164721398844
 22
289.3664260604004
 32
0.0
 13
128.2164721398844
 23
289.3664260604004
 33
0.0
  0
SOLID
  5
1E52
330
1E4D
100
AcDbEntity
  8
BEM
 62
     0
100
AcDbTrace
 10
127.0498054732178
 20
504.3664260604004
 30
0.0
 11
129.3831388065511
 21
504.3664260604004
 31
0.0
 12
128.2164721398844
 22
511.3664260604004
 32
0.0
 13
128.2164721398844
 23
511.3664260604004
 33
0.0
  0
MTEXT
  5
1E53
330
1E4D
100
AcDbEntity
  8
BEM
 62
     1
100
AcDbMText
 10
121.7164721398843
 20
400.3664260604004
 30
0.0
 40
7.0
 41
0.0
 71
     5
 72
     1
  1
\A1;222
 11
0.0000000000000001
 21
1.0
 31
0.0
 73
     1
 44
1.0
  0
POINT
  5
1E54
330
1E4D
100
AcDbEntity
  8
Defpoints
 62
     0
100
AcDbPoint
 10
235.6072651669413
 20
289.3664260604004
 30
0.0
  0
POINT
  5
1E55
330
1E4D
100
AcDbEntity
  8
Defpoints
 62
     0
100
AcDbPoint
 10
235.6072651669413
 20
511.3664260604004
 30
0.0
  0
POINT
  5
1E56
330
1E4D
100
AcDbEntity
  8
Defpoints
 62
     0
100
AcDbPoint
 10
128.2164721398844
 20
511.3664260604004
 30
0.0
  0
ENDBLK
  5
1E58
330
1E4D
100
AcDbEntity
  8
0
100
AcDbBlockEnd
  0
BLOCK
  5
1E63
330
1E5B
100
AcDbEntity
  8
0
100
AcDbBlockBegin
  2
*D7
 70
     1
 10
0.0
 20
0.0
 30
0.0
  3
*D7
  1

  0
LINE
  5
1E6C
330
1E5B
100
AcDbEntity
  8
BEM
 62
     0
370
    -2
100
AcDbLine
 10
205.1426548338024
 20
416.4163801321723
 30
0.0
 11
205.2117848971484
 21
416.3606138734111
 31
0.0
  0
LINE
  5
1E6D
330
1E5B
100
AcDbEntity
  8
BEM
 62
     0
370
    -2
100
AcDbLine
 10
269.1846822708243
 20
495.8054141441915
 30
0.0
 11
269.2538123341702
 21
495.7496478854302
 31
0.0
  0
LINE
  5
1E6E
330
1E5B
100
AcDbEntity
  8
BEM
 62
     0
370
    -2
100
AcDbLine
 10
208.0501782700955
 20
423.0646069417555
 30
0.0
 11
263.3021235097125
 21
491.5571068734871
 31
0.0
  0
SOLID
  5
1E6F
330
1E5B
100
AcDbEntity
  8
BEM
 62
     0
100
AcDbTrace
 10
207.1421337634048
 20
423.7971137915392
 30
0.0
 11
208.9582227767861
 21
422.3321000919717
 31
0.0
 12
203.655137171393
 22
417.6163399016117
 32
0.0
 13
203.655137171393
 23
417.6163399016117
 33
0.0
  0
SOLID
  5
1E70
330
1E5B
100
AcDbEntity
  8
BEM
 62
     0
100
AcDbTrace
 10
262.3940790030218
 20
492.2896137232709
 30
0.0
 11
264.2101680164031
 21
490.8246000237034
 31
0.0
 12
267.6971646084149
 22
497.0053739136309
 32
0.0
 13
267.6971646084149
 23
497.0053739136309
 33
0.0
  0
MTEXT
  5
1E71
330
1E5B
100
AcDbEntity
  8
BEM
 62
     1
100
AcDbMText
 10
244.4065276636443
 20
478.4859544628826
 30
0.0
 40
7.0
 41
0.0
 71
     5
 72
     1
  1
\A1;102
 11
0.6278630141003444
 21
0.7783238628776783
 31
0.0
 73
     1
 44
1.0
  0
POINT
  5
1E72
330
1E5B
100
AcDbEntity
  8
Defpoints
 62
     0
100
AcDbPoint
 10
203.5860071080471
 20
417.672106160373
 30
0.0
  0
POINT
  5
1E73
330
1E5B
100
AcDbEntity
  8
Defpoints
 62
     0
100
AcDbPoint
 10
267.6280345450689
 20
497.0611401723922
 30
0.0
  0
POINT
  5
1E74
330
1E5B
100
AcDbEntity
  8
Defpoints
 62
     0
100
AcDbPoint
 10
267.6971646084149
 20
497.0053739136309
 30
0.0
  0
ENDBLK
  5
1E64
330
1E5B
100
AcDbEntity
  8
0
100
AcDbBlockEnd
  0
BLOCK
  5
1E94
330
1E8A
100
AcDbEntity
  8
0
100
AcDbBlockBegin
  2
*D8
 70
     1
 10
0.0
 20
0.0
 30
0.0
  3
*D8
  1

  0
LINE
  5
1E8B
330
1E8A
100
AcDbEntity
  8
BEM
 62
     0
370
    -2
100
AcDbLine
 10
167.9556212625684
 20
257.341861161668
 30
0.0
 11
149.18188971876
 21
257.341861161668
 31
0.0
  0
LINE
  5
1E8C
330
1E8A
100
AcDbEntity
  8
BEM
 62
     0
370
    -2
100
AcDbLine
 10
167.9556388821032
 20
232.3418611616738
 30
0.0
 11
149.18188971876
 21
232.3418611616738
 31
0.0
  0
LINE
  5
1E8D
330
1E8A
100
AcDbEntity
  8
BEM
 62
     0
370
    -2
100
AcDbLine
 10
151.18188971876
 20
250.341861161668
 30
0.0
 11
151.18188971876
 21
239.3418611616738
 31
0.0
  0
SOLID
  5
1E8E
330
1E8A
100
AcDbEntity
  8
BEM
 62
     0
100
AcDbTrace
 10
150.0152230520933
 20
250.341861161668
 30
0.0
 11
152.3485563854266
 21
250.341861161668
 31
0.0
 12
151.18188971876
 22
257.341861161668
 32
0.0
 13
151.18188971876
 23
257.341861161668
 33
0.0
  0
SOLID
  5
1E8F
330
1E8A
100
AcDbEntity
  8
BEM
 62
     0
100
AcDbTrace
 10
150.0152230520933
 20
239.3418611616738
 30
0.0
 11
152.3485563854266
 21
239.3418611616738
 31
0.0
 12
151.18188971876
 22
232.3418611616738
 32
0.0
 13
151.18188971876
 23
232.3418611616738
 33
0.0
  0
MTEXT
  5
1E90
330
1E8A
100
AcDbEntity
  8
BEM
 62
     1
100
AcDbMText
 10
144.6818897187599
 20
244.8418611616709
 30
0.0
 40
7.0
 41
0.0
 71
     5
 72
     1
  1
\A1;25
 11
0.0000000000000001
 21
1.0
 31
0.0
 73
     1
 44
1.0
  0
POINT
  5
1E91
330
1E8A
100
AcDbEntity
  8
Defpoints
 62
     0
100
AcDbPoint
 10
169.9556212625684
 20
257.341861161668
 30
0.0
  0
POINT
  5
1E92
330
1E8A
100
AcDbEntity
  8
Defpoints
 62
     0
100
AcDbPoint
 10
169.9556388821032
 20
232.3418611616738
 30
0.0
  0
POINT
  5
1E93
330
1E8A
100
AcDbEntity
  8
Defpoints
 62
     0
100
AcDbPoint
 10
151.18188971876
 20
232.3418611616738
 30
0.0
  0
ENDBLK
  5
1E95
330
1E8A
100
AcDbEntity
  8
0
100
AcDbBlockEnd
  0
ENDSEC
  0
SECTION
  2
ENTITIES
  0
LINE
  5
57
330
1E
100
AcDbEntity
  8
STEMPEL
100
AcDbLine
 10
410.0
 20
110.0
 30
0.0
 11
39.99999999999997
 21
110.0
 31
0.0
  0
LINE
  5
58
330
1E
100
AcDbEntity
  8
STEMPEL
100
AcDbLine
 10
136.0000000000001
 20
109.9999999999999
 30
0.0
 11
136.0
 21
9.999999999999971
 31
0.0
  0
LINE
  5
59
330
1E
100
AcDbEntity
  8
STEMPEL
100
AcDbLine
 10
220.0
 20
110.0
 30
0.0
 11
220.0
 21
9.999999999999971
 31
0.0
  0
LINE
  5
5A
330
1E
100
AcDbEntity
  8
STEMPEL
100
AcDbLine
 10
332.0
 20
109.9999999999997
 30
0.0
 11
332.0
 21
40.0
 31
0.0
  0
LINE
  5
5B
330
1E
100
AcDbEntity
  8
STEMPEL
100
AcDbLine
 10
135.9999999999999
 20
29.99999999999997
 30
0.0
 11
39.99999999999997
 21
29.99999999999997
 31
0.0
  0
LINE
  5
5C
330
1E
100
AcDbEntity
  8
STEMPEL
100
AcDbLine
 10
410.0
 20
40.0
 30
0.0
 11
136.0000000000001
 21
39.99999999999997
 31
0.0
  0
LINE
  5
5D
330
1E
100
AcDbEntity
  8
STEMPEL
100
AcDbLine
 10
410.0
 20
80.0
 30
0.0
 11
136.0000000000001
 21
79.99999999999994
 31
0.0
  0
LINE
  5
5E
330
1E
100
AcDbEntity
  8
VOLL
100
AcDbLine
 10
54.00000000000009
 20
110.0
 30
0.0
 11
53.99999999999997
 21
9.999999999999971
 31
0.0
  0
LINE
  5
5F
330
1E
100
AcDbEntity
  8
VOLL
100
AcDbLine
 10
94.00000000000011
 20
109.9999999999999
 30
0.0
 11
94.0
 21
9.999999999999971
 31
0.0
  0
LINE
  5
60
330
1E
100
AcDbEntity
  8
VOLL
100
AcDbLine
 10
114.0000000000001
 20
109.9999999999999
 30
0.0
 11
114.0
 21
9.999999999999971
 31
0.0
  0
LINE
  5
61
330
1E
100
AcDbEntity
  8
VOLL
100
AcDbLine
 10
154.0000000000001
 20
79.99999999999994
 30
0.0
 11
154.0000000000001
 21
39.99999999999997
 31
0.0
  0
LINE
  5
62
330
1E
100
AcDbEntity
  8
VOLL
100
AcDbLine
 10
180.0000000000001
 20
109.9999999999998
 30
0.0
 11
180.0
 21
39.99999999999997
 31
0.0
  0
LINE
  5
63
330
1E
100
AcDbEntity
  8
HILF
100
AcDbLine
 10
40.00000000000008
 20
100.0
 30
0.0
 11
136.0000000000001
 21
100.0
 31
0.0
  0
LINE
  5
64
330
1E
100
AcDbEntity
  8
HILF
100
AcDbLine
 10
40.00000000000008
 20
90.00000000000005
 30
0.0
 11
136.0000000000001
 21
90.00000000000005
 31
0.0
  0
LINE
  5
65
330
1E
100
AcDbEntity
  8
HILF
100
AcDbLine
 10
40.00000000000008
 20
79.99999999999994
 30
0.0
 11
136.0000000000001
 21
79.99999999999994
 31
0.0
  0
LINE
  5
66
330
1E
100
AcDbEntity
  8
HILF
100
AcDbLine
 10
40.00000000000008
 20
69.99999999999994
 30
0.0
 11
136.0000000000001
 21
69.99999999999994
 31
0.0
  0
LINE
  5
67
330
1E
100
AcDbEntity
  8
HILF
100
AcDbLine
 10
40.00000000000008
 20
59.99999999999997
 30
0.0
 11
136.0000000000001
 21
59.99999999999997
 31
0.0
  0
LINE
  5
68
330
1E
100
AcDbEntity
  8
HILF
100
AcDbLine
 10
40.00000000000008
 20
49.99999999999997
 30
0.0
 11
136.0000000000001
 21
49.99999999999997
 31
0.0
  0
LINE
  5
69
330
1E
100
AcDbEntity
  8
HILF
100
AcDbLine
 10
40.00000000000008
 20
39.99999999999997
 30
0.0
 11
136.0000000000001
 21
39.99999999999997
 31
0.0
  0
LINE
  5
6A
330
1E
100
AcDbEntity
  8
HILF
100
AcDbLine
 10
136.0000000000001
 20
69.99999999999994
 30
0.0
 11
220.0
 21
69.99999999999994
 31
0.0
  0
LINE
  5
6B
330
1E
100
AcDbEntity
  8
HILF
100
AcDbLine
 10
136.0000000000001
 20
59.99999999999997
 30
0.0
 11
220.0
 21
59.99999999999997
 31
0.0
  0
LINE
  5
6C
330
1E
100
AcDbEntity
  8
HILF
100
AcDbLine
 10
136.0000000000001
 20
49.99999999999997
 30
0.0
 11
220.0
 21
49.99999999999997
 31
0.0
  0
LINE
  5
6D
330
1E
100
AcDbEntity
  8
HILF
100
AcDbLine
 10
224.7736801096948
 20
84.03758247564139
 30
0.0
 11
324.8353916556311
 21
84.03758247564139
 31
0.0
  0
LINE
  5
6E
330
1E
100
AcDbEntity
  8
HILF
100
AcDbLine
 10
224.7736801096948
 20
69.99999999999994
 30
0.0
 11
324.835391655631
 21
69.99999999999994
 31
0.0
  0
LINE
  5
6F
330
1E
100
AcDbEntity
  8
HILF
100
AcDbLine
 10
224.7736801096948
 20
59.99999999999997
 30
0.0
 11
324.835391655631
 21
59.99999999999997
 31
0.0
  0
LINE
  5
70
330
1E
100
AcDbEntity
  8
HILF
100
AcDbLine
 10
224.7736801096948
 20
49.99999999999997
 30
0.0
 11
324.835391655631
 21
49.99999999999997
 31
0.0
  0
LINE
  5
71
330
1E
100
AcDbEntity
  8
VOLL
100
AcDbLine
 10
332.0
 20
60.0
 30
0.0
 11
410.0
 21
60.0
 31
0.0
  0
LINE
  5
72
330
1E
100
AcDbEntity
  8
HILF
100
AcDbLine
 10
336.7238616296993
 20
83.77983636955827
 30
0.0
 11
404.8588839326728
 21
83.77983636955827
 31
0.0
  0
LINE
  5
73
330
1E
100
AcDbEntity
  8
HILF
100
AcDbLine
 10
223.4909699289885
 20
14.89398258028314
 30
0.0
 11
404.8588839326728
 21
14.89398258028314
 31
0.0
  0
TEXT
  5
74
330
1E
100
AcDbEntity
  8
TEXT
100
AcDbText
 10
63.86165979631819
 20
18.67381894984132
 30
0.0
 40
4.0
  1
Änderung
 41
0.8
  7
GREEKS
 72
     1
 11
74.60451693917534
 21
18.67381894984132
 31
0.0
100
AcDbText
  0
TEXT
  5
75
330
1E
100
AcDbEntity
  8
TEXT
100
AcDbText
 10
143.5163572150377
 20
102.4620895087088
 30
0.0
 40
5.0
  1
Maßstab
 41
0.8
  7
GREEKS
100
AcDbText
  0
TEXT
  5
76
330
1E
100
AcDbEntity
  8
TEXT
100
AcDbText
 10
184.2858954734051
 20
102.4184168434819
 30
0.0
 40
5.0
  1
Zul. Abw.
 41
0.8
  7
GREEKS
100
AcDbText
  0
TEXT
  5
77
330
1E
100
AcDbEntity
  8
TEXT
100
AcDbText
 10
224.877940380901
 20
102.5489328011779
 30
0.0
 40
5.0
  1
Benennung
 41
0.8
  7
GREEKS
100
AcDbText
  0
TEXT
  5
78
330
1E
100
AcDbEntity
  8
TEXT
100
AcDbText
 10
336.178754957634
 20
102.3132034537136
 30
0.0
 40
5.0
  1
Zeichnungs Nr.
 41
0.8
  7
GREEKS
100
AcDbText
  0
TEXT
  5
79
330
1E
100
AcDbEntity
  8
TEXT
100
AcDbText
 10
224.742238391136
 20
30.84560570193057
 30
0.0
 40
5.0
  1
Bauvorhaben
 41
0.8
  7
GREEKS
100
AcDbText
  0
TEXT
  5
7A
330
1E
100
AcDbEntity
  8
TEXT
100
AcDbText
 10
336.7238616296993
 20
73.1811823709997
 30
0.0
 40
5.0
  1
Ersatz für:
 41
0.8
  7
GREEKS
100
AcDbText
  0
TEXT
  5
7B
330
1E
100
AcDbEntity
  8
TEXT
100
AcDbText
 10
48.26641107045756
 20
13.65465846027192
 30
0.0
 40
4.0
  1
Index
 50
90.0
 41
0.8
  7
GREEKS
100
AcDbText
  0
TEXT
  5
7C
330
1E
100
AcDbEntity
  8
TEXT
100
AcDbText
 10
100.0934676075481
 20
18.6715626933981
 30
0.0
 40
4.0
  1
Tag
 41
0.8
  7
GREEKS
 72
     1
 11
103.8268009408814
 21
18.6715626933981
 31
0.0
100
AcDbText
  0
TEXT
  5
7D
330
1E
100
AcDbEntity
  8
TEXT
100
AcDbText
 10
119.0122744386592
 20
18.59324216966408
 30
0.0
 40
4.0
  1
Name
 41
0.8
  7
GREEKS
 72
     1
 11
125.3360839624688
 21
18.59324216966408
 31
0.0
100
AcDbText
  0
TEXT
  5
7E
330
1E
100
AcDbEntity
  8
TEXT
100
AcDbText
 10
162.3311673153651
 20
73.31880501229926
 30
0.0
 40
4.0
  1
Tag
 41
0.8
  7
GREEKS
100
AcDbText
  0
TEXT
  5
7F
330
1E
100
AcDbEntity
  8
TEXT
100
AcDbText
 10
192.4626584226295
 20
73.30961091915225
 30
0.0
 40
4.0
  1
Name
 41
0.8
  7
GREEKS
100
AcDbText
  0
TEXT
  5
80
330
1E
100
AcDbEntity
  8
TEXT
100
AcDbText
 10
137.5836127167615
 20
63.62990369617964
 30
0.0
 40
4.0
  1
Gez.
 41
0.8
  7
GREEKS
100
AcDbText
  0
TEXT
  5
81
330
1E
100
AcDbEntity
  8
TEXT
100
AcDbText
 10
137.5515086571672
 20
53.68926291428377
 30
0.0
 40
4.0
  1
Gepr.
 41
0.8
  7
GREEKS
100
AcDbText
  0
TEXT
  5
82
330
1E
100
AcDbEntity
  8
TEXT
100
AcDbText
 10
137.6006777387304
 20
43.52946389649807
 30
0.0
 40
4.0
  1
Norm.
 41
0.8
  7
GREEKS
100
AcDbText
  0
LINE
  5
83
330
1E
100
AcDbEntity
  8
STEMPEL
100
AcDbLine
 10
49.99999999999989
 20
10.0
 30
0.0
 11
410.0
 21
10.0
 31
0.0
  0
TEXT
  5
84
330
1E
100
AcDbEntity
  8
TEXT
100
AcDbText
 10
337.2400861497006
 20
52.07416177878602
 30
0.0
 40
5.0
  1
ersetzt durch:
 41
0.8
  7
GREEKS
100
AcDbText
  0
LINE
  5
85
330
1E
100
AcDbEntity
  8
STEMPEL
100
AcDbLine
 10
410.0
 20
10.0
 30
0.0
 11
39.99999999999989
 21
10.0
 31
0.0
  0
LINE
  5
86
330
1E
100
AcDbEntity
  8
STEMPEL
100
AcDbLine
 10
410.0
 20
10.0
 30
0.0
 11
410.0
 21
584.0
 31
0.0
  0
LINE
  5
87
330
1E
100
AcDbEntity
  8
STEMPEL
100
AcDbLine
 10
40.0
 20
10.0
 30
0.0
 11
39.99999999999989
 21
584.0
 31
0.0
  0
LINE
  5
88
330
1E
100
AcDbEntity
  8
STEMPEL
100
AcDbLine
 10
410.0
 20
584.0
 30
0.0
 11
39.99999999999989
 21
584.0
 31
0.0
  0
LINE
  5
89
330
1E
100
AcDbEntity
  8
HILF
100
AcDbLine
 10
0.0
 20
0.0
 30
0.0
 11
-0.0000000000001137
 21
594.0
 31
0.0
  0
LINE
  5
8A
330
1E
100
AcDbEntity
  8
HILF
100
AcDbLine
 10
419.9999999999999
 20
594.0000000000002
 30
0.0
 11
0.0
 21
594.0
 31
0.0
  0
LINE
  5
8B
330
1E
100
AcDbEntity
  8
HILF
100
AcDbLine
 10
420.0
 20
0.0
 30
0.0
 11
0.0
 21
0.0
 31
0.0
  0
LINE
  5
8C
330
1E
100
AcDbEntity
  8
HILF
100
AcDbLine
 10
31.08767135713856
 20
297.0
 30
0.0
 11
0.0000000000001137
 21
297.0
 31
0.0
  0
TEXT
  5
8D
330
1E
100
AcDbEntity
  8
TEXT
100
AcDbText
 10
138.622109822104
 20
73.14025471151666
 30
0.0
 40
4.0
  1
2012
 41
0.8
  7
GREEKS
100
AcDbText
  0
LINE
  5
8E
330
1E
100
AcDbEntity
  8
HILF
100
AcDbLine
 10
420.0
 20
-0.0000000000001137
 30
0.0
 11
419.9999999999999
 21
594.0
 31
0.0
  0
TEXT
  5
8F
330
1E
100
AcDbEntity
  8
VOLL
100
AcDbText
 10
78.07675471698113
 20
31.02594776470585
 30
0.0
 40
1.8
  1

  7
GREEKS
100
AcDbText
  0
TEXT
  5
90
330
1E
100
AcDbEntity
  8
TEXT
100
AcDbText
 10
41.85509950977674
 20
111.6719999999999
 30
0.0
 40
5.0
  1
Erstellt mit AUTOCAD 2004
 41
0.8
  7
GREEKS
100
AcDbText
  0
TEXT
  5
91
330
1E
100
AcDbEntity
  8
TEXT
100
AcDbText
 10
194.4216048581257
 20
63.0896391972351
 30
0.0
 40
4.0
  1
Koeh
 41
0.8
  7
GREEKS
 72
     1
 11
199.6787477152685
 21
63.0896391972351
 31
0.0
100
AcDbText
  0
TEXT
  5
92
330
1E
100
AcDbEntity
  8
TEXT
 62
     1
100
AcDbText
 10
345.9840220996708
 20
88.14901428913959
 30
0.0
 40
7.0
  1
00990100W
 41
0.8
  7
GREEKS
 72
     1
 11
369.4506887663375
 21
88.14901428913959
 31
0.0
100
AcDbText
  0
TEXT
  5
93
330
1E
100
AcDbEntity
  8
TEXT
 62
     1
100
AcDbText
 10
150.5006306481887
 20
88.14901428913959
 30
0.0
 40
7.0
  1
1:2
 41
0.8
  7
GREEKS
100
AcDbText
  0
TEXT
  5
94
330
1E
100
AcDbEntity
  8
TEXT
100
AcDbText
 10
160.7037590129979
 20
63.10765040825732
 30
0.0
 40
4.0
  1
29.10.
 41
0.8
  7
GREEKS
 72
     1
 11
167.4085209177598
 21
63.10765040825732
 31
0.0
100
AcDbText
  0
TEXT
  5
95
330
1E
100
AcDbEntity
  8
TEXT
 62
     1
100
AcDbText
 10
226.8935731057402
 20
87.41748789253779
 30
0.0
 40
7.0
  1
Rohrschelle DN100
 41
0.8
  7
GREEKS
100
AcDbText
  0
TEXT
  5
96
330
1E
100
AcDbEntity
  8
TEXT
100
AcDbText
 10
225.1296391125315
 20
71.50334417585288
 30
0.0
 40
5.0
  1
mit Schlagstift
 41
0.8
  7
GREEKS
100
AcDbText
  0
TEXT
  5
98
330
1E
100
AcDbEntity
  8
TEXT
100
AcDbText
 10
225.1296391125315
 20
51.64011943042158
 30
0.0
 40
5.0
  1
EDV-Art.Nr. 00990.100X
 41
0.8
  7
GREEKS
100
AcDbText
  0
TEXT
  5
99
330
1E
100
AcDbEntity
  8
TEXT
100
AcDbText
 10
224.9837501577827
 20
42.62974153022632
 30
0.0
 40
4.0
  1
00990100W.DWG
 41
0.8
  7
GREEKS
100
AcDbText
  0
TEXT
  5
9A
330
1E
100
AcDbEntity
  8
TEXT
100
AcDbText
 10
182.626132208084
 20
90.76363841023022
 30
0.0
 40
4.0
  1
DIN EN1123-2
 41
0.8
  7
GREEKS
 72
     1
 11
199.6166083985602
 21
90.76363841023022
 31
0.0
100
AcDbText
  0
INSERT
  5
9B
330
1E
100
AcDbEntity
  8
STEMPEL
100
AcDbBlockReference
  2
LOGO
 10
140.9955485457794
 20
45.02105276448322
 30
0.0
 41
2.0
 42
2.0
 43
2.0
  0
TEXT
  5
118
330
1E
100
AcDbEntity
  8
BEM
100
AcDbText
 10
417.3022923857165
 20
10.16790107998849
 30
0.0
 40
4.0
  1
Diese Zeichnung ist urheberrechtlich geschützt und bleibt unser Eigentum. Sie darf weder ganz noch teilweise verfielfältigt und nicht an Dritte weitergegeben werden.
 50
90.0
 41
0.8
  7
GREEKS
100
AcDbText
  0
TEXT
  5
C1B
330
1E
100
AcDbEntity
  8
TEXT
 62
     1
100
AcDbText
 10
320.7946818445432
 20
490.5178484787533
 30
0.0
 40
7.0
  1
Schraube M6x20
 41
0.8
  7
GREEKS
100
AcDbText
  0
LINE
  5
C1C
330
1E
100
AcDbEntity
  8
TEXT
 62
     2
100
AcDbLine
 10
318.6747888484978
 20
487.1379430618569
 30
0.0
 11
393.6764706661282
 21
487.1379430618569
 31
0.0
  0
LINE
  5
C1D
330
1E
100
AcDbEntity
  8
TEXT
 62
     2
100
AcDbLine
 10
318.6747888484978
 20
487.1379430618569
 30
0.0
 11
298.6500114788768
 21
462.1255245623451
 31
0.0
  0
LINE
  5
1C95
330
1E
100
AcDbEntity
  8
HILF
100
AcDbLine
 10
181.6172651669413
 20
239.8418764206357
 30
0.0
 11
290.2112651669413
 21
239.8418764206357
 31
0.0
  0
LINE
  5
1C96
330
1E
100
AcDbEntity
  8
HILF
100
AcDbLine
 10
181.6172651669413
 20
249.8418764206357
 30
0.0
 11
290.2112651669413
 21
249.8418764206357
 31
0.0
  0
CIRCLE
  5
1C97
330
1E
100
AcDbEntity
  8
STEMPEL
100
AcDbCircle
 10
296.6062651669413
 20
244.8418764206357
 30
0.0
 40
5.0
  0
LINE
  5
1C98
330
1E
100
AcDbEntity
  8
HILF
100
AcDbLine
 10
297.3562651669413
 20
241.7728764206356
 30
0.0
 11
295.8562651669413
 21
241.7728764206356
 31
0.0
  0
LINE
  5
1C99
330
1E
100
AcDbEntity
  8
HILF
100
AcDbLine
 10
297.3562651669413
 20
247.9098764206357
 30
0.0
 11
295.8562651669413
 21
247.9098764206357
 31
0.0
  0
LINE
  5
1C9A
330
1E
100
AcDbEntity
  8
HILF
100
AcDbLine
 10
294.5602651669412
 20
242.7948764206357
 30
0.0
 11
295.6162651669412
 21
244.0918764206357
 31
0.0
  0
LINE
  5
1C9B
330
1E
100
AcDbEntity
  8
HILF
100
AcDbLine
 10
295.8562651669413
 20
243.8518764206357
 30
0.0
 11
294.5602651669412
 21
242.7948764206357
 31
0.0
  0
LINE
  5
1C9C
330
1E
100
AcDbEntity
  8
HILF
100
AcDbLine
 10
298.6532651669413
 20
242.7948764206357
 30
0.0
 11
297.3562651669413
 21
243.8518764206357
 31
0.0
  0
LINE
  5
1C9D
330
1E
100
AcDbEntity
  8
HILF
100
AcDbLine
 10
297.5962651669413
 20
244.0918764206357
 30
0.0
 11
298.6532651669413
 21
242.7948764206357
 31
0.0
  0
LINE
  5
1C9E
330
1E
100
AcDbEntity
  8
HILF
100
AcDbLine
 10
298.6532651669413
 20
246.8878764206356
 30
0.0
 11
297.5962651669413
 21
245.5918764206357
 31
0.0
  0
LINE
  5
1C9F
330
1E
100
AcDbEntity
  8
HILF
100
AcDbLine
 10
297.3562651669413
 20
245.8308764206356
 30
0.0
 11
298.6532651669413
 21
246.8878764206356
 31
0.0
  0
LINE
  5
1CA0
330
1E
100
AcDbEntity
  8
HILF
100
AcDbLine
 10
294.5602651669412
 20
246.8878764206356
 30
0.0
 11
295.8562651669413
 21
245.8308764206356
 31
0.0
  0
LINE
  5
1CA1
330
1E
100
AcDbEntity
  8
HILF
100
AcDbLine
 10
295.6162651669412
 20
245.5918764206357
 30
0.0
 11
294.5602651669412
 21
246.8878764206356
 31
0.0
  0
ARC
  5
1CA2
330
1E
100
AcDbEntity
  8
HILF
100
AcDbCircle
 10
296.6062651669413
 20
244.8418764206357
 30
0.0
 40
1.274999999999999
100
AcDbArc
 50
143.96879496
 51
216.03120504
  0
ARC
  5
1CA3
330
1E
100
AcDbEntity
  8
HILF
100
AcDbCircle
 10
296.6062651669413
 20
244.8418764206357
 30
0.0
 40
1.274999999999999
100
AcDbArc
 50
233.9687889640004
 51
306.0312110359996
  0
ARC
  5
1CA4
330
1E
100
AcDbEntity
  8
HILF
100
AcDbCircle
 10
296.6062651669413
 20
244.8418764206357
 30
0.0
 40
1.274999999999999
100
AcDbArc
 50
323.9688056879998
 51
36.03120504000001
  0
ARC
  5
1CA5
330
1E
100
AcDbEntity
  8
HILF
100
AcDbCircle
 10
296.6062651669413
 20
244.8418764206357
 30
0.0
 40
1.274999999999999
100
AcDbArc
 50
53.96878896400039
 51
126.0312110359996
  0
LINE
  5
1CA6
330
1E
100
AcDbEntity
  8
STEMPEL
100
AcDbLine
 10
295.8562651669413
 20
245.7918764206356
 30
0.0
 11
295.8562651669413
 21
249.7848764206357
 31
0.0
  0
ARC
  5
1CA7
330
1E
100
AcDbEntity
  8
STEMPEL
100
AcDbCircle
 10
295.6562651669413
 20
245.7918764206356
 30
0.0
 40
0.2
100
AcDbArc
 50
270.0
 51
0.0087434429995984
  0
LINE
  5
1CA8
330
1E
100
AcDbEntity
  8
STEMPEL
100
AcDbLine
 10
293.2562651669414
 20
245.5918764206357
 30
0.0
 11
295.6562651669413
 21
245.5918764206357
 31
0.0
  0
LINE
  5
1CA9
330
1E
100
AcDbEntity
  8
STEMPEL
100
AcDbLine
 10
293.2562651669414
 20
244.0918764206357
 30
0.0
 11
293.2562651669414
 21
245.5918764206357
 31
0.0
  0
LINE
  5
1CAA
330
1E
100
AcDbEntity
  8
STEMPEL
100
AcDbLine
 10
295.6562651669413
 20
244.0918764206357
 30
0.0
 11
293.2562651669414
 21
244.0918764206357
 31
0.0
  0
ARC
  5
1CAB
330
1E
100
AcDbEntity
  8
STEMPEL
100
AcDbCircle
 10
295.6562651669413
 20
243.8918764206357
 30
0.0
 40
0.2
100
AcDbArc
 50
0.0
 51
90.0
  0
LINE
  5
1CAC
330
1E
100
AcDbEntity
  8
STEMPEL
100
AcDbLine
 10
295.8562651669413
 20
239.8978764206356
 30
0.0
 11
295.8562651669413
 21
243.8918764206357
 31
0.0
  0
LINE
  5
1CAD
330
1E
100
AcDbEntity
  8
STEMPEL
100
AcDbLine
 10
297.3562651669413
 20
243.8918764206357
 30
0.0
 11
297.3562651669413
 21
239.8978764206356
 31
0.0
  0
ARC
  5
1CAE
330
1E
100
AcDbEntity
  8
STEMPEL
100
AcDbCircle
 10
297.5562651669413
 20
243.8918764206357
 30
0.0
 40
0.2
100
AcDbArc
 50
90.0
 51
180.0
  0
LINE
  5
1CAF
330
1E
100
AcDbEntity
  8
STEMPEL
100
AcDbLine
 10
299.9562651669413
 20
244.0918764206357
 30
0.0
 11
297.5562651669413
 21
244.0918764206357
 31
0.0
  0
LINE
  5
1CB0
330
1E
100
AcDbEntity
  8
STEMPEL
100
AcDbLine
 10
299.9562651669413
 20
245.5918764206357
 30
0.0
 11
299.9562651669413
 21
244.0918764206357
 31
0.0
  0
LINE
  5
1CB1
330
1E
100
AcDbEntity
  8
STEMPEL
100
AcDbLine
 10
297.5562651669413
 20
245.5918764206357
 30
0.0
 11
299.9562651669413
 21
245.5918764206357
 31
0.0
  0
ARC
  5
1CB2
330
1E
100
AcDbEntity
  8
STEMPEL
100
AcDbCircle
 10
297.5562651669413
 20
245.7918764206356
 30
0.0
 40
0.2
100
AcDbArc
 50
180.0
 51
270.008743442998
  0
LINE
  5
1CB3
330
1E
100
AcDbEntity
  8
STEMPEL
100
AcDbLine
 10
297.3562651669413
 20
249.7848764206357
 30
0.0
 11
297.3562651669413
 21
245.7918764206356
 31
0.0
  0
CIRCLE
  5
1CB4
330
1E
100
AcDbEntity
  8
STEMPEL
100
AcDbCircle
 10
174.6062651669413
 20
244.8418764206357
 30
0.0
 40
5.0
  0
LINE
  5
1CB5
330
1E
100
AcDbEntity
  8
HILF
100
AcDbLine
 10
175.3562651669413
 20
241.7728764206356
 30
0.0
 11
173.8562651669413
 21
241.7728764206356
 31
0.0
  0
LINE
  5
1CB6
330
1E
100
AcDbEntity
  8
HILF
100
AcDbLine
 10
175.3562651669413
 20
247.9098764206357
 30
0.0
 11
173.8562651669413
 21
247.9098764206357
 31
0.0
  0
LINE
  5
1CB7
330
1E
100
AcDbEntity
  8
HILF
100
AcDbLine
 10
172.5602651669413
 20
242.7948764206357
 30
0.0
 11
173.6162651669413
 21
244.0918764206357
 31
0.0
  0
LINE
  5
1CB8
330
1E
100
AcDbEntity
  8
HILF
100
AcDbLine
 10
173.8562651669413
 20
243.8518764206357
 30
0.0
 11
172.5602651669413
 21
242.7948764206357
 31
0.0
  0
LINE
  5
1CB9
330
1E
100
AcDbEntity
  8
HILF
100
AcDbLine
 10
176.6532651669413
 20
242.7948764206357
 30
0.0
 11
175.3562651669413
 21
243.8518764206357
 31
0.0
  0
LINE
  5
1CBA
330
1E
100
AcDbEntity
  8
HILF
100
AcDbLine
 10
175.5962651669413
 20
244.0918764206357
 30
0.0
 11
176.6532651669413
 21
242.7948764206357
 31
0.0
  0
LINE
  5
1CBB
330
1E
100
AcDbEntity
  8
HILF
100
AcDbLine
 10
176.6532651669413
 20
246.8878764206356
 30
0.0
 11
175.5962651669413
 21
245.5918764206357
 31
0.0
  0
LINE
  5
1CBC
330
1E
100
AcDbEntity
  8
HILF
100
AcDbLine
 10
175.3562651669413
 20
245.8308764206356
 30
0.0
 11
176.6532651669413
 21
246.8878764206356
 31
0.0
  0
LINE
  5
1CBD
330
1E
100
AcDbEntity
  8
HILF
100
AcDbLine
 10
172.5602651669413
 20
246.8878764206356
 30
0.0
 11
173.8562651669413
 21
245.8308764206356
 31
0.0
  0
LINE
  5
1CBE
330
1E
100
AcDbEntity
  8
HILF
100
AcDbLine
 10
173.6162651669413
 20
245.5918764206357
 30
0.0
 11
172.5602651669413
 21
246.8878764206356
 31
0.0
  0
ARC
  5
1CBF
330
1E
100
AcDbEntity
  8
HILF
100
AcDbCircle
 10
174.6062651669413
 20
244.8418764206357
 30
0.0
 40
1.274999999999999
100
AcDbArc
 50
143.96879496
 51
216.03120504
  0
ARC
  5
1CC0
330
1E
100
AcDbEntity
  8
HILF
100
AcDbCircle
 10
174.6062651669413
 20
244.8418764206357
 30
0.0
 40
1.274999999999999
100
AcDbArc
 50
233.9687889640004
 51
306.0312110359996
  0
ARC
  5
1CC1
330
1E
100
AcDbEntity
  8
HILF
100
AcDbCircle
 10
174.6062651669413
 20
244.8418764206357
 30
0.0
 40
1.274999999999999
100
AcDbArc
 50
323.9688056879998
 51
36.03120504000001
  0
ARC
  5
1CC2
330
1E
100
AcDbEntity
  8
HILF
100
AcDbCircle
 10
174.6062651669413
 20
244.8418764206357
 30
0.0
 40
1.274999999999999
100
AcDbArc
 50
53.96878896400039
 51
126.0312110359996
  0
LINE
  5
1CC3
330
1E
100
AcDbEntity
  8
STEMPEL
100
AcDbLine
 10
173.8562651669413
 20
245.7918764206356
 30
0.0
 11
173.8562651669413
 21
249.7848764206357
 31
0.0
  0
ARC
  5
1CC4
330
1E
100
AcDbEntity
  8
STEMPEL
100
AcDbCircle
 10
173.6562651669413
 20
245.7918764206356
 30
0.0
 40
0.2
100
AcDbArc
 50
270.0
 51
0.0087434429995984
  0
LINE
  5
1CC5
330
1E
100
AcDbEntity
  8
STEMPEL
100
AcDbLine
 10
171.2562651669413
 20
245.5918764206357
 30
0.0
 11
173.6562651669413
 21
245.5918764206357
 31
0.0
  0
LINE
  5
1CC6
330
1E
100
AcDbEntity
  8
STEMPEL
100
AcDbLine
 10
171.2562651669413
 20
244.0918764206357
 30
0.0
 11
171.2562651669413
 21
245.5918764206357
 31
0.0
  0
LINE
  5
1CC7
330
1E
100
AcDbEntity
  8
STEMPEL
100
AcDbLine
 10
173.6562651669413
 20
244.0918764206357
 30
0.0
 11
171.2562651669413
 21
244.0918764206357
 31
0.0
  0
ARC
  5
1CC8
330
1E
100
AcDbEntity
  8
STEMPEL
100
AcDbCircle
 10
173.6562651669413
 20
243.8918764206357
 30
0.0
 40
0.2
100
AcDbArc
 50
0.0
 51
90.0
  0
LINE
  5
1CC9
330
1E
100
AcDbEntity
  8
STEMPEL
100
AcDbLine
 10
173.8562651669413
 20
239.8978764206356
 30
0.0
 11
173.8562651669413
 21
243.8918764206357
 31
0.0
  0
LINE
  5
1CCA
330
1E
100
AcDbEntity
  8
STEMPEL
100
AcDbLine
 10
175.3562651669413
 20
243.8918764206357
 30
0.0
 11
175.3562651669413
 21
239.8978764206356
 31
0.0
  0
ARC
  5
1CCB
330
1E
100
AcDbEntity
  8
STEMPEL
100
AcDbCircle
 10
175.5562651669413
 20
243.8918764206357
 30
0.0
 40
0.2
100
AcDbArc
 50
90.0
 51
180.0
  0
LINE
  5
1CCC
330
1E
100
AcDbEntity
  8
STEMPEL
100
AcDbLine
 10
177.9562651669413
 20
244.0918764206357
 30
0.0
 11
175.5562651669413
 21
244.0918764206357
 31
0.0
  0
LINE
  5
1CCD
330
1E
100
AcDbEntity
  8
STEMPEL
100
AcDbLine
 10
177.9562651669413
 20
245.5918764206357
 30
0.0
 11
177.9562651669413
 21
244.0918764206357
 31
0.0
  0
LINE
  5
1CCE
330
1E
100
AcDbEntity
  8
STEMPEL
100
AcDbLine
 10
175.5562651669413
 20
245.5918764206357
 30
0.0
 11
177.9562651669413
 21
245.5918764206357
 31
0.0
  0
ARC
  5
1CCF
330
1E
100
AcDbEntity
  8
STEMPEL
100
AcDbCircle
 10
175.5562651669413
 20
245.7918764206356
 30
0.0
 40
0.2
100
AcDbArc
 50
180.0
 51
270.008743442998
  0
LINE
  5
1CD0
330
1E
100
AcDbEntity
  8
STEMPEL
100
AcDbLine
 10
175.3562651669413
 20
249.7848764206357
 30
0.0
 11
175.3562651669413
 21
245.7918764206356
 31
0.0
  0
ARC
  5
1CD1
330
1E
100
AcDbEntity
  8
STEMPEL
100
AcDbCircle
 10
279.6062651669413
 20
244.8418764206357
 30
0.0
 40
25.0
100
AcDbArc
 50
329.9999596190001
 51
29.99995961900127
  0
ARC
  5
1CD2
330
1E
100
AcDbEntity
  8
STEMPEL
100
AcDbCircle
 10
191.6062651669412
 20
244.8418764206357
 30
0.0
 40
25.0
100
AcDbArc
 50
150.0000403809987
 51
210.000040381
  0
LINE
  5
1CD3
330
1E
100
AcDbEntity
  8
STEMPEL
100
AcDbLine
 10
299.1122651669414
 20
237.5238764206357
 30
0.0
 11
300.5582651669413
 21
237.3208764206356
 31
0.0
  0
LINE
  5
1CD4
330
1E
100
AcDbEntity
  8
HILF
100
AcDbLine
 10
181.6172651669413
 20
257.3418764206357
 30
0.0
 11
181.6172651669413
 21
232.3418764206357
 31
0.0
  0
LINE
  5
1CD5
330
1E
100
AcDbEntity
  8
HILF
100
AcDbLine
 10
290.2112651669413
 20
257.3418764206357
 30
0.0
 11
290.2112651669413
 21
232.3418764206357
 31
0.0
  0
LINE
  5
1CD6
330
1E
100
AcDbEntity
  8
MITTEL
100
AcDbLine
 10
235.6072651669413
 20
262.3418764206356
 30
0.0
 11
235.6072651669413
 21
227.3418764206357
 31
0.0
  0
LINE
  5
1CD7
330
1E
100
AcDbEntity
  8
MITTEL
100
AcDbLine
 10
174.6062651669413
 20
254.8418764206357
 30
0.0
 11
174.6062651669413
 21
234.8418764206357
 31
0.0
  0
LINE
  5
1CD8
330
1E
100
AcDbEntity
  8
MITTEL
100
AcDbLine
 10
161.6062651669413
 20
244.8418764206357
 30
0.0
 11
309.6062651669413
 21
244.8418764206357
 31
0.0
  0
LINE
  5
1CD9
330
1E
100
AcDbEntity
  8
MITTEL
100
AcDbLine
 10
296.6062651669413
 20
234.8418764206357
 30
0.0
 11
296.6062651669413
 21
254.8418764206357
 31
0.0
  0
LINE
  5
1CDA
330
1E
100
AcDbEntity
  8
STEMPEL
100
AcDbLine
 10
300.5582651669413
 20
237.3208764206356
 30
0.0
 11
299.8582651669412
 21
232.3418764206357
 31
0.0
  0
LINE
  5
1CDB
330
1E
100
AcDbEntity
  8
STEMPEL
100
AcDbLine
 10
298.3842651669413
 20
232.3418764206357
 30
0.0
 11
301.2572651669414
 21
232.3418764206357
 31
0.0
  0
LINE
  5
1CDC
330
1E
100
AcDbEntity
  8
STEMPEL
100
AcDbLine
 10
299.5752651669413
 20
240.8178764206357
 30
0.0
 11
298.3842651669413
 21
232.3418764206357
 31
0.0
  0
LINE
  5
1CDD
330
1E
100
AcDbEntity
  8
STEMPEL
100
AcDbLine
 10
291.3152651669413
 20
232.3418764206357
 30
0.0
 11
292.6432651669413
 21
241.7928764206356
 31
0.0
  0
LINE
  5
1CDE
330
1E
100
AcDbEntity
  8
STEMPEL
100
AcDbLine
 10
169.9562651669413
 20
232.3418764206357
 30
0.0
 11
298.3842651669413
 21
232.3418764206357
 31
0.0
  0
LINE
  5
1CDF
330
1E
100
AcDbEntity
  8
STEMPEL
100
AcDbLine
 10
301.2572651669414
 20
257.3418764206357
 30
0.0
 11
169.9562651669413
 21
257.3418764206357
 31
0.0
  0
LINE
  5
1CE0
330
1E
100
AcDbEntity
  8
HILF
100
AcDbLine
 10
294.1912651669413
 20
458.3664260604003
 30
0.0
 11
294.1912651669413
 21
455.8664260604005
 31
0.0
  0
LINE
  5
1CE1
330
1E
100
AcDbEntity
  8
HILF
100
AcDbLine
 10
298.7912651669414
 20
458.3664260604003
 30
0.0
 11
298.7912651669414
 21
455.8664260604005
 31
0.0
  0
LINE
  5
1CE2
330
1E
100
AcDbEntity
  8
STEMPEL
100
AcDbLine
 10
291.4912651669413
 20
463.3274260604004
 30
0.0
 11
291.4912651669413
 21
460.8664260604004
 31
0.0
  0
LINE
  5
1CE3
330
1E
100
AcDbEntity
  8
HILF
100
AcDbLine
 10
291.4925574339367
 20
463.3274260604004
 30
0.0
 11
295.7912651669414
 21
463.3274260604005
 31
0.0
  0
ARC
  5
1CE4
330
1E
100
AcDbEntity
  8
STEMPEL
100
AcDbCircle
 10
296.4912651669413
 20
454.6664260604004
 30
0.0
 40
10.0
100
AcDbArc
 50
94.01396748800069
 51
119.9999850769986
  0
LINE
  5
1CE5
330
1E
100
AcDbEntity
  8
STEMPEL
100
AcDbLine
 10
295.7912651669413
 20
463.0384260604004
 30
0.0
 11
295.7912651669413
 21
464.6424260604004
 31
0.0
  0
LINE
  5
1CE6
330
1E
100
AcDbEntity
  8
STEMPEL
100
AcDbLine
 10
297.1912651669413
 20
463.0384260604004
 30
0.0
 11
295.7912651669413
 21
463.0384260604004
 31
0.0
  0
LINE
  5
1CE7
330
1E
100
AcDbEntity
  8
STEMPEL
100
AcDbLine
 10
297.1912651669413
 20
464.6424260604004
 30
0.0
 11
297.1912651669413
 21
463.0384260604004
 31
0.0
  0
LINE
  5
1CE8
330
1E
100
AcDbEntity
  8
HILF
100
AcDbLine
 10
297.1912651669414
 20
463.3274260604004
 30
0.0
 11
301.489972899946
 21
463.3274260604004
 31
0.0
  0
ARC
  5
1CE9
330
1E
100
AcDbEntity
  8
STEMPEL
100
AcDbCircle
 10
296.4912651669413
 20
454.6664260604004
 30
0.0
 40
10.0
100
AcDbArc
 50
59.99999358400174
 51
85.98594517699948
  0
LINE
  5
1CEA
330
1E
100
AcDbEntity
  8
STEMPEL
100
AcDbLine
 10
301.4912651669413
 20
460.8664260604004
 30
0.0
 11
301.4912651669413
 21
463.3274260604004
 31
0.0
  0
LINE
  5
1CEB
330
1E
100
AcDbEntity
  8
STEMPEL
100
AcDbLine
 10
299.4912651669413
 20
455.8664260604004
 30
0.0
 11
299.4912651669413
 21
459.0504260604004
 31
0.0
  0
LINE
  5
1CEC
330
1E
100
AcDbEntity
  8
STEMPEL
100
AcDbLine
 10
293.4912651669413
 20
455.8664260604004
 30
0.0
 11
293.4912651669413
 21
460.8664260604004
 31
0.0
  0
LINE
  5
1CED
330
1E
100
AcDbEntity
  8
STEMPEL
100
AcDbLine
 10
293.4912651669413
 20
442.8664260604004
 30
0.0
 11
293.4912651669413
 21
452.3664260604004
 31
0.0
  0
LINE
  5
1CEE
330
1E
100
AcDbEntity
  8
HILF
100
AcDbLine
 10
294.1912651669413
 20
441.6544260604004
 30
0.0
 11
294.1912651669413
 21
452.3664260604004
 31
0.0
  0
LINE
  5
1CEF
330
1E
100
AcDbEntity
  8
STEMPEL
100
AcDbLine
 10
293.4912651669413
 20
442.8664260604004
 30
0.0
 11
294.6462651669413
 21
440.8664260604004
 31
0.0
  0
LINE
  5
1CF0
330
1E
100
AcDbEntity
  8
STEMPEL
100
AcDbLine
 10
294.6462651669413
 20
440.8664260604004
 30
0.0
 11
298.3362651669413
 21
440.8664260604004
 31
0.0
  0
LINE
  5
1CF1
330
1E
100
AcDbEntity
  8
STEMPEL
100
AcDbLine
 10
298.3362651669413
 20
440.8664260604004
 30
0.0
 11
299.4912651669413
 21
442.8664260604004
 31
0.0
  0
LINE
  5
1CF2
330
1E
100
AcDbEntity
  8
STEMPEL
100
AcDbLine
 10
299.4912651669413
 20
442.8664260604004
 30
0.0
 11
293.4912651669413
 21
442.8664260604004
 31
0.0
  0
LINE
  5
1CF3
330
1E
100
AcDbEntity
  8
HILF
100
AcDbLine
 10
298.7912651669414
 20
441.6544260604004
 30
0.0
 11
298.7912651669414
 21
452.3664260604004
 31
0.0
  0
LINE
  5
1CF4
330
1E
100
AcDbEntity
  8
STEMPEL
100
AcDbLine
 10
299.4912651669413
 20
442.8664260604004
 30
0.0
 11
299.4912651669413
 21
452.3664260604004
 31
0.0
  0
LINE
  5
1CF5
330
1E
100
AcDbEntity
  8
STEMPEL
100
AcDbLine
 10
179.7222651669413
 20
460.8664260604004
 30
0.0
 11
179.7222651669413
 21
463.3274260604004
 31
0.0
  0
LINE
  5
1CF6
330
1E
100
AcDbEntity
  8
HILF
100
AcDbLine
 10
175.9722651669413
 20
463.3274260604004
 30
0.0
 11
179.2222651669413
 21
463.3274260604004
 31
0.0
  0
ARC
  5
1CF7
330
1E
100
AcDbEntity
  8
STEMPEL
100
AcDbCircle
 10
174.7222651669413
 20
454.6664260604004
 30
0.0
 40
10.0
100
AcDbArc
 50
59.99999358400174
 51
85.98594517699948
  0
LINE
  5
1CF8
330
1E
100
AcDbEntity
  8
STEMPEL
100
AcDbLine
 10
175.4222651669413
 20
464.6424260604004
 30
0.0
 11
175.4222651669413
 21
463.0384260604004
 31
0.0
  0
LINE
  5
1CF9
330
1E
100
AcDbEntity
  8
STEMPEL
100
AcDbLine
 10
175.4222651669413
 20
463.0384260604004
 30
0.0
 11
174.0222651669413
 21
463.0384260604004
 31
0.0
  0
LINE
  5
1CFA
330
1E
100
AcDbEntity
  8
STEMPEL
100
AcDbLine
 10
174.0222651669413
 20
463.0384260604004
 30
0.0
 11
174.0222651669413
 21
464.6424260604004
 31
0.0
  0
LINE
  5
1CFB
330
1E
100
AcDbEntity
  8
HILF
100
AcDbLine
 10
170.2222651669413
 20
463.3274260604004
 30
0.0
 11
173.4722651669413
 21
463.3274260604004
 31
0.0
  0
ARC
  5
1CFC
330
1E
100
AcDbEntity
  8
STEMPEL
100
AcDbCircle
 10
174.7222651669413
 20
454.6664260604004
 30
0.0
 40
10.0
100
AcDbArc
 50
94.01396748800069
 51
119.9999850769986
  0
LINE
  5
1CFD
330
1E
100
AcDbEntity
  8
STEMPEL
100
AcDbLine
 10
169.7222651669413
 20
463.3274260604004
 30
0.0
 11
169.7222651669413
 21
460.8664260604004
 31
0.0
  0
LINE
  5
1D00
330
1E
100
AcDbEntity
  8
STEMPEL
100
AcDbLine
 10
177.7222651669413
 20
455.8664260604004
 30
0.0
 11
177.7222651669413
 21
458.8664260604004
 31
0.0
  0
LINE
  5
1D01
330
1E
100
AcDbEntity
  8
HILF
100
AcDbLine
 10
177.0222651669413
 20
455.8664260604004
 30
0.0
 11
177.0222651669413
 21
458.3664260604004
 31
0.0
  0
LINE
  5
1D02
330
1E
100
AcDbEntity
  8
STEMPEL
100
AcDbLine
 10
171.7222651669413
 20
458.3664260604004
 30
0.0
 11
177.7222651669413
 21
458.3664260604004
 31
0.0
  0
LINE
  5
1D03
330
1E
100
AcDbEntity
  8
HILF
100
AcDbLine
 10
172.4222651669413
 20
455.8664260604004
 30
0.0
 11
172.4222651669413
 21
458.3664260604004
 31
0.0
  0
LINE
  5
1D04
330
1E
100
AcDbEntity
  8
STEMPEL
100
AcDbLine
 10
171.7222651669413
 20
455.8664260604004
 30
0.0
 11
171.7222651669413
 21
458.8664260604004
 31
0.0
  0
LINE
  5
1D05
330
1E
100
AcDbEntity
  8
STEMPEL
100
AcDbLine
 10
171.7222651669413
 20
442.8664260604004
 30
0.0
 11
171.7222651669413
 21
452.3664260604004
 31
0.0
  0
LINE
  5
1D06
330
1E
100
AcDbEntity
  8
HILF
100
AcDbLine
 10
172.4222651669413
 20
441.6544260604004
 30
0.0
 11
172.4222651669413
 21
452.3664260604004
 31
0.0
  0
LINE
  5
1D07
330
1E
100
AcDbEntity
  8
STEMPEL
100
AcDbLine
 10
171.7222651669413
 20
442.8664260604004
 30
0.0
 11
172.8772651669413
 21
440.8664260604004
 31
0.0
  0
LINE
  5
1D08
330
1E
100
AcDbEntity
  8
STEMPEL
100
AcDbLine
 10
172.8772651669413
 20
440.8664260604004
 30
0.0
 11
176.5682651669413
 21
440.8664260604004
 31
0.0
  0
LINE
  5
1D09
330
1E
100
AcDbEntity
  8
STEMPEL
100
AcDbLine
 10
176.5682651669413
 20
440.8664260604004
 30
0.0
 11
177.7222651669413
 21
442.8664260604004
 31
0.0
  0
LINE
  5
1D0A
330
1E
100
AcDbEntity
  8
STEMPEL
100
AcDbLine
 10
177.7222651669413
 20
442.8664260604004
 30
0.0
 11
171.7222651669413
 21
442.8664260604004
 31
0.0
  0
LINE
  5
1D0B
330
1E
100
AcDbEntity
  8
HILF
100
AcDbLine
 10
177.0222651669413
 20
441.6544260604004
 30
0.0
 11
177.0222651669413
 21
452.3664260604004
 31
0.0
  0
LINE
  5
1D0C
330
1E
100
AcDbEntity
  8
STEMPEL
100
AcDbLine
 10
177.7222651669413
 20
442.8664260604004
 30
0.0
 11
177.7222651669413
 21
452.3664260604004
 31
0.0
  0
LINE
  5
1D0D
330
1E
100
AcDbEntity
  8
HILF
100
AcDbLine
 10
299.4912651669413
 20
458.3664260604004
 30
0.0
 11
293.4912651669413
 21
458.3664260604004
 31
0.0
  0
LINE
  5
1D10
330
1E
100
AcDbEntity
  8
STEMPEL
100
AcDbLine
 10
290.9362651669413
 20
460.8664260604004
 30
0.0
 11
290.9362651669413
 21
458.8664260604004
 31
0.0
  0
LINE
  5
1D11
330
1E
100
AcDbEntity
  8
STEMPEL
100
AcDbLine
 10
301.1972651669413
 20
458.8664260604004
 30
0.0
 11
301.1972651669413
 21
460.8664260604004
 31
0.0
  0
LINE
  5
1D12
330
1E
100
AcDbEntity
  8
STEMPEL
100
AcDbLine
 10
300.1802651669414
 20
460.8664260604004
 30
0.0
 11
300.8762651669413
 21
460.8664260604004
 31
0.0
  0
LINE
  5
1D13
330
1E
100
AcDbEntity
  8
STEMPEL
100
AcDbLine
 10
169.4022651669413
 20
458.8664260604004
 30
0.0
 11
169.4022651669413
 21
460.8664260604004
 31
0.0
  0
ARC
  5
1D14
330
1E
100
AcDbEntity
  8
HILF
100
AcDbCircle
 10
235.6072651669413
 20
457.3664260604004
 30
0.0
 40
54.0
100
AcDbArc
 50
3.918114418001038
 51
176.0818855819989
  0
LINE
  5
1D15
330
1E
100
AcDbEntity
  8
STEMPEL
100
AcDbLine
 10
300.0372651669413
 20
461.8664260604004
 30
0.0
 11
300.0372651669413
 21
460.8814260604004
 31
0.0
  0
LINE
  5
1D16
330
1E
100
AcDbEntity
  8
STEMPEL
100
AcDbLine
 10
298.0052651669414
 20
461.8664260604004
 30
0.0
 11
300.0372651669413
 21
461.8664260604004
 31
0.0
  0
LINE
  5
1D17
330
1E
100
AcDbEntity
  8
STEMPEL
100
AcDbLine
 10
298.0052651669414
 20
461.0664260604004
 30
0.0
 11
298.0052651669414
 21
461.8664260604004
 31
0.0
  0
ARC
  5
1D18
330
1E
100
AcDbEntity
  8
STEMPEL
100
AcDbCircle
 10
300.4552651669413
 20
461.3164260604004
 30
0.0
 40
2.463
100
AcDbArc
 50
185.837524417999
 51
264.1736792309999
  0
LINE
  5
1D19
330
1E
100
AcDbEntity
  8
STEMPEL
100
AcDbLine
 10
290.3312651669413
 20
460.8664260604004
 30
0.0
 11
298.0342651669414
 21
460.8664260604004
 31
0.0
  0
ARC
  5
1D1A
330
1E
100
AcDbEntity
  8
STEMPEL
100
AcDbCircle
 10
290.3312651669413
 20
462.8664260604004
 30
0.0
 40
2.0
100
AcDbArc
 50
185.7391704769995
 51
270.0
  0
ARC
  5
1D1B
330
1E
100
AcDbEntity
  8
STEMPEL
100
AcDbCircle
 10
235.6072651669413
 20
457.3664260604004
 30
0.0
 40
53.0
100
AcDbArc
 50
5.73917047699953
 51
174.2608295230004
  0
ARC
  5
1D1C
330
1E
100
AcDbEntity
  8
STEMPEL
100
AcDbCircle
 10
180.8822651669413
 20
462.8664260604004
 30
0.0
 40
2.0
100
AcDbArc
 50
270.0
 51
354.2608295230005
  0
LINE
  5
1D1D
330
1E
100
AcDbEntity
  8
STEMPEL
100
AcDbLine
 10
166.7222651669413
 20
460.8664260604004
 30
0.0
 11
180.8822651669413
 21
460.8664260604004
 31
0.0
  0
LINE
  5
1D1E
330
1E
100
AcDbEntity
  8
STEMPEL
100
AcDbLine
 10
166.7222651669413
 20
458.8664260604004
 30
0.0
 11
166.7222651669413
 21
460.8664260604004
 31
0.0
  0
LINE
  5
1D1F
330
1E
100
AcDbEntity
  8
STEMPEL
100
AcDbLine
 10
180.8822651669413
 20
458.8664260604004
 30
0.0
 11
166.7222651669413
 21
458.8664260604004
 31
0.0
  0
ARC
  5
1D20
330
1E
100
AcDbEntity
  8
STEMPEL
100
AcDbCircle
 10
180.8822651669413
 20
462.8664260604004
 30
0.0
 40
4.0
100
AcDbArc
 50
270.0
 51
354.2608295230005
  0
ARC
  5
1D21
330
1E
100
AcDbEntity
  8
STEMPEL
100
AcDbCircle
 10
235.6072651669413
 20
457.3664260604004
 30
0.0
 40
51.0
100
AcDbArc
 50
5.73917047699953
 51
174.2608295230004
  0
ARC
  5
1D22
330
1E
100
AcDbEntity
  8
STEMPEL
100
AcDbCircle
 10
290.3312651669413
 20
462.8664260604004
 30
0.0
 40
4.0
100
AcDbArc
 50
185.7391704769995
 51
270.0
  0
LINE
  5
1D23
330
1E
100
AcDbEntity
  8
STEMPEL
100
AcDbLine
 10
293.4912651669413
 20
458.8664260604004
 30
0.0
 11
290.3312651669413
 21
458.8664260604004
 31
0.0
  0
LINE
  5
1D24
330
1E
100
AcDbEntity
  8
STEMPEL
100
AcDbLine
 10
303.8762651669413
 20
458.8664260604004
 30
0.0
 11
299.4912651669413
 21
458.8664260604004
 31
0.0
  0
LINE
  5
1D25
330
1E
100
AcDbEntity
  8
STEMPEL
100
AcDbLine
 10
303.8762651669413
 20
460.8664260604004
 30
0.0
 11
303.8762651669413
 21
458.8664260604004
 31
0.0
  0
LINE
  5
1D26
330
1E
100
AcDbEntity
  8
STEMPEL
100
AcDbLine
 10
300.1802651669414
 20
460.8664260604004
 30
0.0
 11
303.8762651669413
 21
460.8664260604004
 31
0.0
  0
ARC
  5
1D27
330
1E
100
AcDbEntity
  8
STEMPEL
100
AcDbCircle
 10
300.1802651669414
 20
461.5664260604004
 30
0.0
 40
0.7
100
AcDbArc
 50
180.0
 51
270.0
  0
LINE
  5
1D28
330
1E
100
AcDbEntity
  8
STEMPEL
100
AcDbLine
 10
299.4802651669413
 20
461.8664260604004
 30
0.0
 11
299.4802651669413
 21
461.5664260604004
 31
0.0
  0
LINE
  5
1D29
330
1E
100
AcDbEntity
  8
STEMPEL
100
AcDbLine
 10
232.1072651669413
 20
386.1164260604004
 30
0.0
 11
228.6072651669412
 21
389.3664260604004
 31
0.0
  0
LINE
  5
1D2A
330
1E
100
AcDbEntity
  8
STEMPEL
100
AcDbLine
 10
239.1072651669412
 20
386.1164260604004
 30
0.0
 11
242.6072651669413
 21
389.3664260604004
 31
0.0
  0
LINE
  5
1D2B
330
1E
100
AcDbEntity
  8
STEMPEL
100
AcDbLine
 10
235.6072651669413
 20
289.3664260604004
 30
0.0
 11
232.1072651669413
 21
300.5634260604005
 31
0.0
  0
LINE
  5
1D2C
330
1E
100
AcDbEntity
  8
STEMPEL
100
AcDbLine
 10
239.1072651669412
 20
300.5624260604004
 30
0.0
 11
235.6072651669413
 21
289.3664260604004
 31
0.0
  0
LINE
  5
1D2D
330
1E
100
AcDbEntity
  8
STEMPEL
100
AcDbLine
 10
232.1072651669413
 20
300.5634260604005
 30
0.0
 11
232.1072651669413
 21
386.1164260604004
 31
0.0
  0
LINE
  5
1D2E
330
1E
100
AcDbEntity
  8
STEMPEL
100
AcDbLine
 10
239.1072651669412
 20
300.5624260604004
 30
0.0
 11
239.1072651669412
 21
386.1164260604004
 31
0.0
  0
LINE
  5
1D2F
330
1E
100
AcDbEntity
  8
HILF
100
AcDbLine
 10
238.6072651669413
 20
359.1164260604005
 30
0.0
 11
238.9912651669413
 21
359.1164260604005
 31
0.0
  0
LINE
  5
1D30
330
1E
100
AcDbEntity
  8
HILF
100
AcDbLine
 10
238.6072651669413
 20
363.1164260604005
 30
0.0
 11
238.9912651669413
 21
363.1164260604005
 31
0.0
  0
LINE
  5
1D31
330
1E
100
AcDbEntity
  8
HILF
100
AcDbLine
 10
238.6072651669413
 20
367.1164260604005
 30
0.0
 11
238.9912651669413
 21
367.1164260604005
 31
0.0
  0
LINE
  5
1D32
330
1E
100
AcDbEntity
  8
HILF
100
AcDbLine
 10
238.6072651669413
 20
371.1164260604004
 30
0.0
 11
238.9912651669413
 21
371.1164260604004
 31
0.0
  0
LINE
  5
1D33
330
1E
100
AcDbEntity
  8
HILF
100
AcDbLine
 10
238.6072651669413
 20
375.1164260604004
 30
0.0
 11
238.9912651669413
 21
375.1164260604004
 31
0.0
  0
LINE
  5
1D34
330
1E
100
AcDbEntity
  8
HILF
100
AcDbLine
 10
232.6072651669413
 20
375.1164260604004
 30
0.0
 11
232.2222651669413
 21
375.1164260604004
 31
0.0
  0
LINE
  5
1D35
330
1E
100
AcDbEntity
  8
HILF
100
AcDbLine
 10
232.6072651669413
 20
371.1164260604004
 30
0.0
 11
232.2222651669413
 21
371.1164260604004
 31
0.0
  0
LINE
  5
1D36
330
1E
100
AcDbEntity
  8
HILF
100
AcDbLine
 10
232.6072651669413
 20
367.1164260604005
 30
0.0
 11
232.2222651669413
 21
367.1164260604005
 31
0.0
  0
LINE
  5
1D37
330
1E
100
AcDbEntity
  8
HILF
100
AcDbLine
 10
232.6072651669413
 20
363.1164260604005
 30
0.0
 11
232.2222651669413
 21
363.1164260604005
 31
0.0
  0
LINE
  5
1D38
330
1E
100
AcDbEntity
  8
HILF
100
AcDbLine
 10
232.6072651669413
 20
359.1164260604005
 30
0.0
 11
232.2222651669413
 21
359.1164260604005
 31
0.0
  0
ARC
  5
1D39
330
1E
100
AcDbEntity
  8
HILF
100
AcDbCircle
 10
235.6072651669413
 20
390.6164260604004
 30
0.0
 40
5.315
100
AcDbArc
 50
244.9837960419997
 51
295.0163005179997
  0
LINE
  5
1D3A
330
1E
100
AcDbEntity
  8
HILF
100
AcDbLine
 10
233.1072651669412
 20
375.1164260604004
 30
0.0
 11
238.1072651669413
 21
375.1164260604004
 31
0.0
  0
LINE
  5
1D3B
330
1E
100
AcDbEntity
  8
HILF
100
AcDbLine
 10
233.1072651669412
 20
371.1164260604004
 30
0.0
 11
238.1072651669413
 21
371.1164260604004
 31
0.0
  0
LINE
  5
1D3C
330
1E
100
AcDbEntity
  8
HILF
100
AcDbLine
 10
233.1072651669412
 20
367.1164260604005
 30
0.0
 11
238.1072651669413
 21
367.1164260604005
 31
0.0
  0
LINE
  5
1D3D
330
1E
100
AcDbEntity
  8
HILF
100
AcDbLine
 10
233.1072651669412
 20
363.1164260604005
 30
0.0
 11
238.1072651669413
 21
363.1164260604005
 31
0.0
  0
LINE
  5
1D3E
330
1E
100
AcDbEntity
  8
HILF
100
AcDbLine
 10
233.1072651669412
 20
359.1164260604005
 30
0.0
 11
238.1072651669413
 21
359.1164260604005
 31
0.0
  0
LINE
  5
1D3F
330
1E
100
AcDbEntity
  8
STEMPEL
100
AcDbLine
 10
228.6072651669412
 20
389.3664260604004
 30
0.0
 11
242.6072651669413
 21
389.3664260604004
 31
0.0
  0
LINE
  5
1D40
330
1E
100
AcDbEntity
  8
STEMPEL
100
AcDbLine
 10
232.1072651669412
 20
300.5634260604004
 30
0.0
 11
239.1072651669412
 21
300.5634260604005
 31
0.0
  0
ARC
  5
1D41
330
1E
100
AcDbEntity
  8
STEMPEL
100
AcDbCircle
 10
239.1072651669412
 20
391.3664260604004
 30
0.0
 40
1.0
100
AcDbArc
 50
0.0
 51
90.0
  0
LINE
  5
1D42
330
1E
100
AcDbEntity
  8
STEMPEL
100
AcDbLine
 10
232.1072651669413
 20
392.3664260604004
 30
0.0
 11
239.1072651669412
 21
392.3664260604004
 31
0.0
  0
ARC
  5
1D43
330
1E
100
AcDbEntity
  8
STEMPEL
100
AcDbCircle
 10
232.1072651669413
 20
391.3664260604004
 30
0.0
 40
1.0
100
AcDbArc
 50
90.0
 51
180.0
  0
ARC
  5
1D44
330
1E
100
AcDbEntity
  8
HILF
100
AcDbCircle
 10
235.6072651669413
 20
457.3664260604004
 30
0.0
 40
54.0
100
AcDbArc
 50
183.918114418001
 51
254.3634529349988
  0
ARC
  5
1D45
330
1E
100
AcDbEntity
  8
HILF
100
AcDbCircle
 10
235.6072651669413
 20
457.3664260604004
 30
0.0
 40
54.0
100
AcDbArc
 50
285.576129076999
 51
356.081885581999
  0
ARC
  5
1D47
330
1E
100
AcDbEntity
  8
STEMPEL
100
AcDbCircle
 10
178.9722651669413
 20
453.3664260604004
 30
0.0
 40
0.5
100
AcDbArc
 50
90.0
 51
180.0
  0
LINE
  5
1D48
330
1E
100
AcDbEntity
  8
STEMPEL
100
AcDbLine
 10
178.4722651669413
 20
453.3664260604004
 30
0.0
 11
178.4722651669413
 21
452.3664260604004
 31
0.0
  0
LINE
  5
1D49
330
1E
100
AcDbEntity
  8
STEMPEL
100
AcDbLine
 10
178.4722651669413
 20
452.3664260604004
 30
0.0
 11
170.9722651669413
 21
452.3664260604004
 31
0.0
  0
ARC
  5
1D4A
330
1E
100
AcDbEntity
  8
STEMPEL
100
AcDbCircle
 10
170.4722651669413
 20
453.3664260604004
 30
0.0
 40
0.5
100
AcDbArc
 50
0.0
 51
90.0
  0
LINE
  5
1D4B
330
1E
100
AcDbEntity
  8
STEMPEL
100
AcDbLine
 10
170.9722651669413
 20
452.3664260604004
 30
0.0
 11
170.9722651669413
 21
453.3664260604004
 31
0.0
  0
LINE
  5
1D4C
330
1E
100
AcDbEntity
  8
STEMPEL
100
AcDbLine
 10
169.4022651669413
 20
453.8664260604004
 30
0.0
 11
169.4022651669413
 21
455.8664260604004
 31
0.0
  0
ARC
  5
1D4D
330
1E
100
AcDbEntity
  8
STEMPEL
100
AcDbCircle
 10
300.7412651669413
 20
453.3664260604004
 30
0.0
 40
0.5
100
AcDbArc
 50
90.0
 51
180.0
  0
LINE
  5
1D4E
330
1E
100
AcDbEntity
  8
STEMPEL
100
AcDbLine
 10
300.2412651669413
 20
452.3664260604004
 30
0.0
 11
300.2412651669413
 21
453.3664260604004
 31
0.0
  0
LINE
  5
1D4F
330
1E
100
AcDbEntity
  8
STEMPEL
100
AcDbLine
 10
292.7412651669413
 20
452.3664260604004
 30
0.0
 11
300.2412651669413
 21
452.3664260604004
 31
0.0
  0
LINE
  5
1D50
330
1E
100
AcDbEntity
  8
STEMPEL
100
AcDbLine
 10
292.7412651669413
 20
453.3664260604004
 30
0.0
 11
292.7412651669413
 21
452.3664260604004
 31
0.0
  0
ARC
  5
1D51
330
1E
100
AcDbEntity
  8
STEMPEL
100
AcDbCircle
 10
292.2412651669413
 20
453.3664260604004
 30
0.0
 40
0.5
100
AcDbArc
 50
0.0
 51
90.0
  0
LINE
  5
1D52
330
1E
100
AcDbEntity
  8
STEMPEL
100
AcDbLine
 10
301.8122651669413
 20
453.8664260604004
 30
0.0
 11
301.8122651669413
 21
455.8664260604004
 31
0.0
  0
ARC
  5
1D53
330
1E
100
AcDbEntity
  8
STEMPEL
100
AcDbCircle
 10
235.6072651669413
 20
457.3664260604004
 30
0.0
 40
53.0
100
AcDbArc
 50
185.7391704769995
 51
252.5423968760006
  0
ARC
  5
1D54
330
1E
100
AcDbEntity
  8
STEMPEL
100
AcDbCircle
 10
180.8822651669413
 20
451.8664260604004
 30
0.0
 40
2.0
100
AcDbArc
 50
5.73917047699953
 51
90.0
  0
LINE
  5
1D55
330
1E
100
AcDbEntity
  8
STEMPEL
100
AcDbLine
 10
166.7222651669413
 20
453.8664260604004
 30
0.0
 11
180.8822651669413
 21
453.8664260604004
 31
0.0
  0
LINE
  5
1D56
330
1E
100
AcDbEntity
  8
STEMPEL
100
AcDbLine
 10
166.7222651669413
 20
455.8664260604004
 30
0.0
 11
166.7222651669413
 21
453.8664260604004
 31
0.0
  0
LINE
  5
1D57
330
1E
100
AcDbEntity
  8
STEMPEL
100
AcDbLine
 10
180.8822651669413
 20
455.8664260604004
 30
0.0
 11
166.7222651669413
 21
455.8664260604004
 31
0.0
  0
ARC
  5
1D58
330
1E
100
AcDbEntity
  8
STEMPEL
100
AcDbCircle
 10
180.8822651669413
 20
451.8664260604004
 30
0.0
 40
4.0
100
AcDbArc
 50
5.73917047699953
 51
90.0
  0
ARC
  5
1D59
330
1E
100
AcDbEntity
  8
STEMPEL
100
AcDbCircle
 10
235.6072651669413
 20
457.3664260604004
 30
0.0
 40
51.0
100
AcDbArc
 50
185.7391704769995
 51
252.5423968760006
  0
ARC
  5
1D5A
330
1E
100
AcDbEntity
  8
STEMPEL
100
AcDbCircle
 10
219.1072651669413
 20
404.9004260604004
 30
0.0
 40
4.0
100
AcDbArc
 50
0.0
 51
72.54239687600068
  0
LINE
  5
1D5B
330
1E
100
AcDbEntity
  8
STEMPEL
100
AcDbLine
 10
223.1072651669413
 20
393.3664260604004
 30
0.0
 11
223.1072651669413
 21
404.9004260604004
 31
0.0
  0
ARC
  5
1D5C
330
1E
100
AcDbEntity
  8
STEMPEL
100
AcDbCircle
 10
225.1072651669413
 20
393.3664260604004
 30
0.0
 40
2.0
100
AcDbArc
 50
180.0
 51
270.0
  0
LINE
  5
1D5D
330
1E
100
AcDbEntity
  8
STEMPEL
100
AcDbLine
 10
246.1072651669413
 20
391.3664260604004
 30
0.0
 11
225.1072651669413
 21
391.3664260604004
 31
0.0
  0
ARC
  5
1D5E
330
1E
100
AcDbEntity
  8
STEMPEL
100
AcDbCircle
 10
246.1072651669413
 20
393.3664260604004
 30
0.0
 40
2.0
100
AcDbArc
 50
270.0
 51
0.0
  0
LINE
  5
1D5F
330
1E
100
AcDbEntity
  8
STEMPEL
100
AcDbLine
 10
248.1072651669413
 20
404.9004260604004
 30
0.0
 11
248.1072651669413
 21
393.3664260604004
 31
0.0
  0
ARC
  5
1D60
330
1E
100
AcDbEntity
  8
STEMPEL
100
AcDbCircle
 10
252.1072651669413
 20
404.9004260604004
 30
0.0
 40
4.0
100
AcDbArc
 50
107.4576031239993
 51
180.0
  0
ARC
  5
1D61
330
1E
100
AcDbEntity
  8
STEMPEL
100
AcDbCircle
 10
235.6072651669413
 20
457.3664260604004
 30
0.0
 40
51.0
100
AcDbArc
 50
287.4576031239993
 51
354.2608295230005
  0
ARC
  5
1D62
330
1E
100
AcDbEntity
  8
STEMPEL
100
AcDbCircle
 10
290.3312651669413
 20
451.8664260604004
 30
0.0
 40
4.0
100
AcDbArc
 50
90.0
 51
174.2608295230004
  0
LINE
  5
1D63
330
1E
100
AcDbEntity
  8
STEMPEL
100
AcDbLine
 10
304.4912651669413
 20
455.8664260604004
 30
0.0
 11
290.3312651669413
 21
455.8664260604004
 31
0.0
  0
LINE
  5
1D64
330
1E
100
AcDbEntity
  8
STEMPEL
100
AcDbLine
 10
304.4912651669413
 20
453.8664260604004
 30
0.0
 11
304.4912651669413
 21
455.8664260604004
 31
0.0
  0
LINE
  5
1D65
330
1E
100
AcDbEntity
  8
STEMPEL
100
AcDbLine
 10
290.3312651669413
 20
453.8664260604004
 30
0.0
 11
304.4912651669413
 21
453.8664260604004
 31
0.0
  0
ARC
  5
1D66
330
1E
100
AcDbEntity
  8
STEMPEL
100
AcDbCircle
 10
290.3312651669413
 20
451.8664260604004
 30
0.0
 40
2.0
100
AcDbArc
 50
90.0
 51
174.2608295230004
  0
ARC
  5
1D67
330
1E
100
AcDbEntity
  8
STEMPEL
100
AcDbCircle
 10
235.6072651669413
 20
457.3664260604004
 30
0.0
 40
53.0
100
AcDbArc
 50
287.4576031239993
 51
354.2608295230005
  0
ARC
  5
1D68
330
1E
100
AcDbEntity
  8
STEMPEL
100
AcDbCircle
 10
252.1072651669413
 20
404.9004260604004
 30
0.0
 40
2.0
100
AcDbArc
 50
107.4576031239993
 51
180.0
  0
LINE
  5
1D69
330
1E
100
AcDbEntity
  8
STEMPEL
100
AcDbLine
 10
250.1072651669413
 20
393.3664260604004
 30
0.0
 11
250.1072651669413
 21
404.9004260604004
 31
0.0
  0
ARC
  5
1D6A
330
1E
100
AcDbEntity
  8
STEMPEL
100
AcDbCircle
 10
246.1072651669413
 20
393.3664260604004
 30
0.0
 40
4.0
100
AcDbArc
 50
270.0
 51
0.0
  0
LINE
  5
1D6B
330
1E
100
AcDbEntity
  8
STEMPEL
100
AcDbLine
 10
225.1072651669413
 20
389.3664260604004
 30
0.0
 11
246.1072651669413
 21
389.3664260604004
 31
0.0
  0
ARC
  5
1D6C
330
1E
100
AcDbEntity
  8
STEMPEL
100
AcDbCircle
 10
225.1072651669413
 20
393.3664260604004
 30
0.0
 40
4.0
100
AcDbArc
 50
180.0
 51
270.0
  0
LINE
  5
1D6D
330
1E
100
AcDbEntity
  8
STEMPEL
100
AcDbLine
 10
221.1072651669413
 20
404.9004260604004
 30
0.0
 11
221.1072651669413
 21
393.3664260604004
 31
0.0
  0
ARC
  5
1D6E
330
1E
100
AcDbEntity
  8
STEMPEL
100
AcDbCircle
 10
219.1072651669413
 20
404.9004260604004
 30
0.0
 40
2.0
100
AcDbArc
 50
0.0
 51
72.54239687600068
  0
LINE
  5
1D6F
330
1E
100
AcDbEntity
  8
MITTEL
100
AcDbLine
 10
296.4912651669413
 20
469.6664260604004
 30
0.0
 11
296.4912651669413
 21
435.8664260604004
 31
0.0
  0
LINE
  5
1D70
330
1E
100
AcDbEntity
  8
MITTEL
100
AcDbLine
 10
174.7222651669413
 20
435.8664260604004
 30
0.0
 11
174.7222651669413
 21
469.6664260604004
 31
0.0
  0
LINE
  5
1D71
330
1E
100
AcDbEntity
  8
MITTEL
100
AcDbLine
 10
161.7222651669413
 20
457.3664260604004
 30
0.0
 11
308.8762651669413
 21
457.3664260604004
 31
0.0
  0
LINE
  5
1D72
330
1E
100
AcDbEntity
  8
MITTEL
100
AcDbLine
 10
235.6072651669413
 20
284.3664260604004
 30
0.0
 11
235.6072651669413
 21
516.3664260604004
 31
0.0
  0
DIMENSION
  5
1D93
330
1E
100
AcDbEntity
  8
BEM
100
AcDbDimension
  2
*D1
 10
296.6062651669413
 20
211.4717540593417
 30
0.0
 11
235.6062651669413
 21
217.9717540593417
 31
0.0
 70
    32
 71
     5
 42
122.0
  3
Standard
100
AcDbAlignedDimension
 13
174.6062651669413
 23
234.8418764206357
 33
0.0
 14
296.6062651669413
 24
234.8418764206357
 34
0.0
100
AcDbRotatedDimension
1001
ACAD
1000
DSTYLE
1002
{
1070
    40
1040
2.0
1070
    41
1040
3.5
1070
    42
1040
1.0
1070
    43
1040
7.0
1070
    44
1040
1.0
1070
    73
1070
     0
1070
    74
1070
     0
1070
    77
1070
     1
1070
    78
1070
     8
1070
    79
1070
     2
1070
   140
1040
3.5
1070
   141
1040
1.5
1070
   146
1040
0.5
1070
   147
1040
1.5
1070
   172
1070
     1
1070
   178
1070
     1
1070
   179
1070
     2
1070
   271
1070
     2
1070
   272
1070
     2
1070
   284
1070
     8
1070
   285
1070
     8
1070
   286
1070
     8
1002
}
  0
DIMENSION
  5
1DA0
330
1E
100
AcDbEntity
  8
BEM
100
AcDbDimension
  2
*D2
 10
304.6062651669413
 20
196.5029150329492
 30
0.0
 11
235.6062651669413
 21
203.0029150329492
 31
0.0
 70
    32
 71
     5
 42
138.0
  3
Standard
100
AcDbAlignedDimension
 13
166.6062651669412
 23
244.8418764206357
 33
0.0
 14
304.6062651669413
 24
244.8418764206357
 34
0.0
100
AcDbRotatedDimension
1001
ACAD
1000
DSTYLE
1002
{
1070
    40
1040
2.0
1070
    41
1040
3.5
1070
    42
1040
1.0
1070
    43
1040
7.0
1070
    44
1040
1.0
1070
    73
1070
     0
1070
    74
1070
     0
1070
    77
1070
     1
1070
    78
1070
     8
1070
    79
1070
     2
1070
   140
1040
3.5
1070
   141
1040
1.5
1070
   146
1040
0.5
1070
   147
1040
1.5
1070
   172
1070
     1
1070
   178
1070
     1
1070
   179
1070
     2
1070
   271
1070
     2
1070
   272
1070
     2
1070
   284
1070
     8
1070
   285
1070
     8
1070
   286
1070
     8
1002
}
  0
DIMENSION
  5
1DD2
330
1E
100
AcDbEntity
  8
BEM
100
AcDbDimension
  2
*D3
 10
232.1072651669413
 20
333.1595362998123
 30
0.0
 11
213.2405985002746
 21
333.1595362998123
 31
0.0
 70
   160
 71
     5
 42
7.0
  3
Standard
100
AcDbAlignedDimension
 13
239.1072651669412
 23
333.1021302985777
 33
0.0
 14
232.1072651669413
 24
333.1021302985777
 34
0.0
100
AcDbRotatedDimension
1001
ACAD
1000
DSTYLE
1002
{
1070
    40
1040
2.0
1070
    41
1040
3.5
1070
    42
1040
1.0
1070
    43
1040
7.0
1070
    44
1040
1.0
1070
    73
1070
     0
1070
    74
1070
     0
1070
    77
1070
     1
1070
    78
1070
     8
1070
    79
1070
     2
1070
   140
1040
3.5
1070
   141
1040
1.5
1070
   146
1040
0.5
1070
   147
1040
1.5
1070
   172
1070
     1
1070
   178
1070
     1
1070
   179
1070
     2
1070
   271
1070
     2
1070
   272
1070
     2
1070
   284
1070
     8
1070
   285
1070
     8
1070
   286
1070
     8
1002
}
  0
LWPOLYLINE
  5
1DD3
330
1E
100
AcDbEntity
  8
BEM
 62
     1
100
AcDbPolyline
 90
        4
 70
     1
 43
0.0
 10
201.9330242803667
 20
343.308473440285
 10
201.9330242803667
 20
336.308473440285
 10
208.9330242803667
 20
336.308473440285
 10
208.9330242803667
 20
343.308473440285
  0
DIMENSION
  5
1E30
330
1E
100
AcDbEntity
  8
BEM
100
AcDbDimension
  2
*D4
 10
144.5527488069492
 20
389.3664260604004
 30
0.0
 11
138.0527488069492
 21
339.3664260604005
 31
0.0
 70
    32
 71
     5
 42
100.0
  3
Standard
100
AcDbAlignedDimension
 13
235.6072651669413
 23
289.3664260604004
 33
0.0
 14
225.1072651669413
 24
389.3664260604004
 34
0.0
 50
90.0
100
AcDbRotatedDimension
1001
ACAD
1000
DSTYLE
1002
{
1070
    40
1040
2.0
1070
    41
1040
3.5
1070
    42
1040
1.0
1070
    43
1040
7.0
1070
    44
1040
1.0
1070
    73
1070
     0
1070
    74
1070
     0
1070
    77
1070
     1
1070
    78
1070
     8
1070
    79
1070
     2
1070
   140
1040
3.5
1070
   141
1040
1.5
1070
   146
1040
0.5
1070
   147
1040
1.5
1070
   172
1070
     1
1070
   178
1070
     1
1070
   179
1070
     2
1070
   271
1070
     2
1070
   272
1070
     2
1070
   284
1070
     8
1070
   285
1070
     8
1070
   286
1070
     8
1002
}
  0
DIMENSION
  5
1E3D
330
1E
100
AcDbEntity
  8
BEM
100
AcDbDimension
  2
*D5
 10
144.5527488069492
 20
458.8664260604004
 30
0.0
 11
138.0527488069492
 21
477.7330927270671
 31
0.0
 70
    32
 71
     5
 42
3.0
  3
Standard
100
AcDbAlignedDimension
 13
166.7222651669413
 23
455.8664260604004
 33
0.0
 14
166.7222651669413
 24
458.8664260604004
 34
0.0
 50
90.0
100
AcDbRotatedDimension
1001
ACAD
1000
DSTYLE
1002
{
1070
    40
1040
2.0
1070
    41
1040
3.5
1070
    42
1040
1.0
1070
    43
1040
7.0
1070
    44
1040
1.0
1070
    73
1070
     0
1070
    74
1070
     0
1070
    77
1070
     1
1070
    78
1070
     8
1070
    79
1070
     2
1070
   140
1040
3.5
1070
   141
1040
1.5
1070
   146
1040
0.5
1070
   147
1040
1.5
1070
   172
1070
     1
1070
   178
1070
     1
1070
   179
1070
     2
1070
   271
1070
     2
1070
   272
1070
     2
1070
   284
1070
     8
1070
   285
1070
     8
1070
   286
1070
     8
1002
}
  0
DIMENSION
  5
1E4C
330
1E
100
AcDbEntity
  8
BEM
100
AcDbDimension
  2
*D6
 10
128.2164721398844
 20
511.3664260604004
 30
0.0
 11
121.7164721398843
 21
400.3664260604004
 31
0.0
 70
    32
 71
     5
 42
222.0
  3
Standard
100
AcDbAlignedDimension
 13
235.6072651669413
 23
289.3664260604004
 33
0.0
 14
235.6072651669413
 24
511.3664260604004
 34
0.0
 50
90.0
100
AcDbRotatedDimension
1001
ACAD
1000
DSTYLE
1002
{
1070
    40
1040
2.0
1070
    41
1040
3.5
1070
    42
1040
1.0
1070
    43
1040
7.0
1070
    44
1040
1.0
1070
    73
1070
     0
1070
    74
1070
     0
1070
    77
1070
     1
1070
    78
1070
     8
1070
    79
1070
     2
1070
   140
1040
3.5
1070
   141
1040
1.5
1070
   146
1040
0.5
1070
   147
1040
1.5
1070
   172
1070
     1
1070
   178
1070
     1
1070
   179
1070
     2
1070
   271
1070
     2
1070
   272
1070
     2
1070
   284
1070
     8
1070
   285
1070
     8
1070
   286
1070
     8
1002
}
  0
DIMENSION
  5
1E5A
330
1E
100
AcDbEntity
  8
BEM
100
AcDbDimension
  2
*D7
 10
267.6971646084149
 20
497.0053739136309
 30
0.0
 11
249.4656327723492
 21
474.4048448712304
 31
0.0
 70
   161
 71
     5
 42
101.9999999980676
  3
Standard
100
AcDbAlignedDimension
 13
203.5860071080471
 23
417.6721061603731
 33
0.0
 14
267.628034545069
 24
497.0611401723922
 34
0.0
1001
ACAD
1000
DSTYLE
1002
{
1070
    40
1040
2.0
1070
    41
1040
3.5
1070
    42
1040
1.0
1070
    43
1040
7.0
1070
    44
1040
1.0
1070
    73
1070
     0
1070
    74
1070
     0
1070
    77
1070
     1
1070
    78
1070
     8
1070
    79
1070
     2
1070
   140
1040
3.5
1070
   141
1040
1.5
1070
   146
1040
0.5
1070
   147
1040
1.5
1070
   172
1070
     1
1070
   178
1070
     1
1070
   179
1070
     2
1070
   271
1070
     2
1070
   272
1070
     2
1070
   284
1070
     8
1070
   285
1070
     8
1070
   286
1070
     8
1002
}
  0
DIMENSION
  5
1E89
330
1E
100
AcDbEntity
  8
BEM
100
AcDbDimension
  2
*D8
 10
151.18188971876
 20
232.3418611616738
 30
0.0
 11
144.6818897187599
 21
244.8418611616709
 31
0.0
 70
    32
 71
     5
 42
24.99999999999426
  3
Standard
100
AcDbAlignedDimension
 13
169.9556212625684
 23
257.341861161668
 33
0.0
 14
169.9556388821032
 24
232.3418611616738
 34
0.0
 50
90.0
100
AcDbRotatedDimension
1001
ACAD
1000
DSTYLE
1002
{
1070
    40
1040
2.0
1070
    41
1040
3.5
1070
    42
1040
1.0
1070
    43
1040
7.0
1070
    44
1040
1.0
1070
    73
1070
     0
1070
    74
1070
     0
1070
    77
1070
     1
1070
    78
1070
     8
1070
    79
1070
     2
1070
   140
1040
3.5
1070
   141
1040
1.5
1070
   146
1040
0.5
1070
   147
1040
1.5
1070
   172
1070
     1
1070
   178
1070
     1
1070
   179
1070
     2
1070
   271
1070
     2
1070
   272
1070
     2
1070
   284
1070
     8
1070
   285
1070
     8
1070
   286
1070
     8
1002
}
  0
TEXT
  5
1EA0
330
1E
100
AcDbEntity
  8
TEXT
 62
     1
100
AcDbText
 10
227.8365522679116
 20
115.6405708316599
 30
0.0
 40
7.0
  1
Werkstoff: St37 Dickschichtpassiviert
 41
0.8
  7
GREEKS
100
AcDbText
  0
ENDSEC
  0
SECTION
  2
OBJECTS
  0
DICTIONARY
  5
C
330
0
100
AcDbDictionary
281
     1
  3
ACAD_COLOR
350
DF
  3
ACAD_GROUP
350
D
  3
ACAD_LAYOUT
350
19
  3
ACAD_MATERIAL
350
DE
  3
ACAD_MLINESTYLE
350
16
  3
ACAD_PLOTSETTINGS
350
18
  3
ACAD_PLOTSTYLENAME
350
E
  3
AcDbVariableDictionary
350
EA
  0
DICTIONARY
  5
A0
330
1E
100
AcDbDictionary
280
     1
281
     1
  3
ACAD_LAYOUTSELFREF
360
D4
  0
DICTIONARY
  5
A2
330
1A
100
AcDbDictionary
280
     1
281
     1
  3
ACAD_LAYOUTSELFREF
360
D3
  0
DICTIONARY
  5
DF
102
{ACAD_REACTORS
330
C
102
}
330
C
100
AcDbDictionary
281
     1
  0
DICTIONARY
  5
D
102
{ACAD_REACTORS
330
C
102
}
330
C
100
AcDbDictionary
281
     1
  0
DICTIONARY
  5
19
102
{ACAD_REACTORS
330
C
102
}
330
C
100
AcDbDictionary
281
     1
  3
Layout1
350
1D
  3
Model
350
21
  0
DICTIONARY
  5
DE
102
{ACAD_REACTORS
330
C
102
}
330
C
100
AcDbDictionary
281
     1
  0
DICTIONARY
  5
16
102
{ACAD_REACTORS
330
C
102
}
330
C
100
AcDbDictionary
281
     1
  3
Standard
350
17
  0
DICTIONARY
  5
18
102
{ACAD_REACTORS
330
C
102
}
330
C
100
AcDbDictionary
281
     1
  0
ACDBDICTIONARYWDFLT
  5
E
102
{ACAD_REACTORS
330
C
102
}
330
C
100
AcDbDictionary
281
     1
  3
Normal
350
F
100
AcDbDictionaryWithDefault
340
F
  0
DICTIONARY
  5
EA
102
{ACAD_REACTORS
330
C
102
}
330
C
100
AcDbDictionary
281
     1
  3
DIMASSOC
350
EB
  3
PROJECTNAME
350
EC
  0
XRECORD
  5
D4
102
{ACAD_REACTORS
330
A0
102
}
330
A0
100
AcDbXrecord
280
     1
340
1E
  0
XRECORD
  5
D3
102
{ACAD_REACTORS
330
A2
102
}
330
A2
100
AcDbXrecord
280
     1
340
1A
  0
LAYOUT
  5
1D
102
{ACAD_REACTORS
330
19
102
}
330
19
100
AcDbPlotSettings
  1

  2
\\NT_WORK01\HP LaserJet 5000 PCL 6
  4

  6

 40
0.0
 41
0.0
 42
0.0
 43
0.0
 44
0.0
 45
0.0
 46
0.0
 47
0.0
 48
0.0
 49
0.0
140
0.0
141
0.0
142
1.0
143
1.0
 70
   688
 72
     0
 73
     0
 74
     5
  7

 75
    16
147
1.0
 76
     0
 77
     2
 78
   300
148
0.0
149
0.0
100
AcDbLayout
  1
Layout1
 70
     0
 71
     1
 10
0.0
 20
0.0
 11
12.0
 21
9.0
 12
0.0
 22
0.0
 32
0.0
 14
1.000000000000000E+20
 24
1.000000000000000E+20
 34
1.000000000000000E+20
 15
-1.000000000000000E+20
 25
-1.000000000000000E+20
 35
-1.000000000000000E+20
146
0.0
 13
0.0
 23
0.0
 33
0.0
 16
1.0
 26
0.0
 36
0.0
 17
0.0
 27
1.0
 37
0.0
 76
     0
330
1A
  0
LAYOUT
  5
21
102
{ACAD_REACTORS
330
19
102
}
330
19
100
AcDbPlotSettings
  1

  2
none_device
  4
Letter_(8.50_x_11.00_Inches)
  6

 40
6.349999904632568
 41
6.349999904632568
 42
6.350006103515625
 43
6.350006103515625
 44
215.8999938964844
 45
279.3999938964844
 46
0.0
 47
0.0
 48
0.0
 49
0.0
140
0.0
141
0.0
142
1.0
143
1.0
 70
 11952
 72
     0
 73
     1
 74
     0
  7

 75
     0
147
1.0
 76
     0
 77
     2
 78
   300
148
-230.4417396561563
149
47.00486644638983
100
AcDbLayout
  1
Model
 70
     1
 71
     0
 10
0.0
 20
0.0
 11
12.0
 21
9.0
 12
0.0
 22
0.0
 32
0.0
 14
0.0
 24
0.0
 34
0.0
 15
0.0
 25
0.0
 35
0.0
146
0.0
 13
0.0
 23
0.0
 33
0.0
 16
1.0
 26
0.0
 36
0.0
 17
0.0
 27
1.0
 37
0.0
 76
     0
330
1E
  0
MLINESTYLE
  5
17
102
{ACAD_REACTORS
330
16
102
}
330
16
100
AcDbMlineStyle
  2
STANDARD
 70
     0
  3

 62
   256
 51
90.0
 52
90.0
 71
     2
 49
0.5
 62
   256
  6
BYLAYER
 49
-0.5
 62
   256
  6
BYLAYER
  0
ACDBPLACEHOLDER
  5
F
102
{ACAD_REACTORS
330
E
102
}
330
E
  0
DICTIONARYVAR
  5
EB
102
{ACAD_REACTORS
330
EA
102
}
330
EA
100
DictionaryVariables
280
     0
  1
1
  0
DICTIONARYVAR
  5
EC
102
{ACAD_REACTORS
330
EA
102
}
330
EA
100
DictionaryVariables
280
     0
  1

  0
ENDSEC
  0
EOF
