  0
SECTION
  2
HEADER
  9
$ACADVER
  1
AC1018
  9
$ACADMAINTVER
 70
     2
  9
$DWGCODEPAGE
  3
ANSI_1252
  9
$INSBASE
 10
0.0
 20
0.0
 30
0.0
  9
$EXTMIN
 10
-0.0172922615828384
 20
-0.0051649484342988
 30
-0.0000000349181948
  9
$EXTMAX
 10
210.0067248227361
 20
297.0188340770961
 30
0.0000000814935746
  9
$LIMMIN
 10
0.0
 20
0.0
  9
$LIMMAX
 10
210.0
 20
297.0
  9
$ORTHOMODE
 70
     1
  9
$REGENMODE
 70
     1
  9
$FILLMODE
 70
     1
  9
$QTEXTMODE
 70
     0
  9
$MIRRTEXT
 70
     1
  9
$LTSCALE
 40
10.0
  9
$ATTMODE
 70
     1
  9
$TEXTSIZE
 40
2.5
  9
$TRACEWID
 40
0.5
  9
$TEXTSTYLE
  7
GREEKS
  9
$CLAYER
  8
BEM
  9
$CELTYPE
  6
ByLayer
  9
$CECOLOR
 62
   256
  9
$CELTSCALE
 40
1.0
  9
$DISPSILH
 70
     0
  9
$DIMSCALE
 40
1.0
  9
$DIMASZ
 40
3.5
  9
$DIMEXO
 40
1.0
  9
$DIMDLI
 40
7.0
  9
$DIMRND
 40
0.0
  9
$DIMDLE
 40
0.0
  9
$DIMEXE
 40
1.0
  9
$DIMTP
 40
0.0
  9
$DIMTM
 40
0.0
  9
$DIMTXT
 40
3.5
  9
$DIMCEN
 40
1.5
  9
$DIMTSZ
 40
0.0
  9
$DIMTOL
 70
     0
  9
$DIMLIM
 70
     0
  9
$DIMTIH
 70
     0
  9
$DIMTOH
 70
     0
  9
$DIMSE1
 70
     0
  9
$DIMSE2
 70
     0
  9
$DIMTAD
 70
     1
  9
$DIMZIN
 70
     8
  9
$DIMBLK
  1

  9
$DIMASO
 70
     1
  9
$DIMSHO
 70
     0
  9
$DIMPOST
  1

  9
$DIMAPOST
  1

  9
$DIMALT
 70
     0
  9
$DIMALTD
 70
     2
  9
$DIMALTF
 40
25.4
  9
$DIMLFAC
 40
1.0
  9
$DIMTOFL
 70
     1
  9
$DIMTVP
 40
0.0
  9
$DIMTIX
 70
     0
  9
$DIMSOXD
 70
     0
  9
$DIMSAH
 70
     0
  9
$DIMBLK1
  1

  9
$DIMBLK2
  1

  9
$DIMSTYLE
  2
Standard
  9
$DIMCLRD
 70
     0
  9
$DIMCLRE
 70
     0
  9
$DIMCLRT
 70
     1
  9
$DIMTFAC
 40
0.5142857142857144
  9
$DIMGAP
 40
1.5
  9
$DIMJUST
 70
     0
  9
$DIMSD1
 70
     0
  9
$DIMSD2
 70
     0
  9
$DIMTOLJ
 70
     1
  9
$DIMTZIN
 70
     8
  9
$DIMALTZ
 70
     8
  9
$DIMALTTZ
 70
     8
  9
$DIMUPT
 70
     0
  9
$DIMDEC
 70
     2
  9
$DIMTDEC
 70
     2
  9
$DIMALTU
 70
     2
  9
$DIMALTTD
 70
     2
  9
$DIMTXSTY
  7
STANDARD
  9
$DIMAUNIT
 70
     0
  9
$DIMADEC
 70
     2
  9
$DIMALTRND
 40
0.0
  9
$DIMAZIN
 70
     2
  9
$DIMDSEP
 70
    46
  9
$DIMATFIT
 70
     3
  9
$DIMFRAC
 70
     0
  9
$DIMLDRBLK
  1

  9
$DIMLUNIT
 70
     2
  9
$DIMLWD
 70
    -2
  9
$DIMLWE
 70
    -2
  9
$DIMTMOVE
 70
     0
  9
$LUNITS
 70
     2
  9
$LUPREC
 70
     2
  9
$SKETCHINC
 40
1.0
  9
$FILLETRAD
 40
0.0
  9
$AUNITS
 70
     0
  9
$AUPREC
 70
     0
  9
$MENU
  1
ACAD
  9
$ELEVATION
 40
0.0
  9
$PELEVATION
 40
0.0
  9
$THICKNESS
 40
0.0
  9
$LIMCHECK
 70
     0
  9
$CHAMFERA
 40
0.0
  9
$CHAMFERB
 40
0.0
  9
$CHAMFERC
 40
0.0
  9
$CHAMFERD
 40
0.0
  9
$SKPOLY
 70
     0
  9
$TDCREATE
 40
2455397.823042361
  9
$TDUCREATE
 40
2455397.781375695
  9
$TDUPDATE
 40
2456230.328713275
  9
$TDUUPDATE
 40
2456230.287046609
  9
$TDINDWG
 40
0.2591456597
  9
$TDUSRTIMER
 40
0.2591456597
  9
$USRTIMER
 70
     1
  9
$ANGBASE
 50
0.0
  9
$ANGDIR
 70
     0
  9
$PDMODE
 70
     0
  9
$PDSIZE
 40
0.0
  9
$PLINEWID
 40
0.0
  9
$SPLFRAME
 70
     0
  9
$SPLINETYPE
 70
     6
  9
$SPLINESEGS
 70
     8
  9
$HANDSEED
  5
13D4
  9
$SURFTAB1
 70
     6
  9
$SURFTAB2
 70
     6
  9
$SURFTYPE
 70
     6
  9
$SURFU
 70
     6
  9
$SURFV
 70
     6
  9
$UCSBASE
  2

  9
$UCSNAME
  2

  9
$UCSORG
 10
0.0
 20
0.0
 30
0.0
  9
$UCSXDIR
 10
1.0
 20
0.0
 30
0.0
  9
$UCSYDIR
 10
0.0
 20
1.0
 30
0.0
  9
$UCSORTHOREF
  2

  9
$UCSORTHOVIEW
 70
     0
  9
$UCSORGTOP
 10
0.0
 20
0.0
 30
0.0
  9
$UCSORGBOTTOM
 10
0.0
 20
0.0
 30
0.0
  9
$UCSORGLEFT
 10
0.0
 20
0.0
 30
0.0
  9
$UCSORGRIGHT
 10
0.0
 20
0.0
 30
0.0
  9
$UCSORGFRONT
 10
0.0
 20
0.0
 30
0.0
  9
$UCSORGBACK
 10
0.0
 20
0.0
 30
0.0
  9
$PUCSBASE
  2

  9
$PUCSNAME
  2

  9
$PUCSORG
 10
0.0
 20
0.0
 30
0.0
  9
$PUCSXDIR
 10
1.0
 20
0.0
 30
0.0
  9
$PUCSYDIR
 10
0.0
 20
1.0
 30
0.0
  9
$PUCSORTHOREF
  2

  9
$PUCSORTHOVIEW
 70
     0
  9
$PUCSORGTOP
 10
0.0
 20
0.0
 30
0.0
  9
$PUCSORGBOTTOM
 10
0.0
 20
0.0
 30
0.0
  9
$PUCSORGLEFT
 10
0.0
 20
0.0
 30
0.0
  9
$PUCSORGRIGHT
 10
0.0
 20
0.0
 30
0.0
  9
$PUCSORGFRONT
 10
0.0
 20
0.0
 30
0.0
  9
$PUCSORGBACK
 10
0.0
 20
0.0
 30
0.0
  9
$USERI1
 70
     0
  9
$USERI2
 70
     0
  9
$USERI3
 70
     0
  9
$USERI4
 70
     0
  9
$USERI5
 70
     0
  9
$USERR1
 40
0.0
  9
$USERR2
 40
0.0
  9
$USERR3
 40
0.0
  9
$USERR4
 40
0.0
  9
$USERR5
 40
0.0
  9
$WORLDVIEW
 70
     1
  9
$SHADEDGE
 70
     3
  9
$SHADEDIF
 70
    70
  9
$TILEMODE
 70
     1
  9
$MAXACTVP
 70
    16
  9
$PINSBASE
 10
0.0
 20
0.0
 30
0.0
  9
$PLIMCHECK
 70
     0
  9
$PEXTMIN
 10
1.000000000000000E+20
 20
1.000000000000000E+20
 30
1.000000000000000E+20
  9
$PEXTMAX
 10
-1.000000000000000E+20
 20
-1.000000000000000E+20
 30
-1.000000000000000E+20
  9
$PLIMMIN
 10
0.0
 20
0.0
  9
$PLIMMAX
 10
12.0
 20
9.0
  9
$UNITMODE
 70
     0
  9
$VISRETAIN
 70
     0
  9
$PLINEGEN
 70
     0
  9
$PSLTSCALE
 70
     0
  9
$TREEDEPTH
 70
  3020
  9
$CMLSTYLE
  2
Standard
  9
$CMLJUST
 70
     0
  9
$CMLSCALE
 40
1.0
  9
$PROXYGRAPHICS
 70
     1
  9
$MEASUREMENT
 70
     0
  9
$CELWEIGHT
370
    -1
  9
$ENDCAPS
280
     0
  9
$JOINSTYLE
280
     0
  9
$LWDISPLAY
290
     0
  9
$INSUNITS
 70
     0
  9
$HYPERLINKBASE
  1

  9
$STYLESHEET
  1
monochrome 1.ctb
  9
$XEDIT
290
     1
  9
$CEPSNTYPE
380
     0
  9
$PSTYLEMODE
290
     1
  9
$FINGERPRINTGUID
  2
{D68B0D02-A558-11D7-B632-000102183313}
  9
$VERSIONGUID
  2
{71112211-A239-44EF-8777-1C1131A0671E}
  9
$EXTNAMES
290
     1
  9
$PSVPSCALE
 40
0.0
  9
$OLESTARTUP
290
     0
  9
$SORTENTS
280
   127
  9
$INDEXCTL
280
     0
  9
$HIDETEXT
280
     0
  9
$XCLIPFRAME
290
     0
  9
$HALOGAP
280
     0
  9
$OBSCOLOR
 70
   257
  9
$OBSLTYPE
280
     0
  9
$INTERSECTIONDISPLAY
280
     0
  9
$INTERSECTIONCOLOR
 70
   257
  9
$DIMASSOC
280
     1
  9
$PROJECTNAME
  1

  0
ENDSEC
  0
SECTION
  2
CLASSES
  0
CLASS
  1
ACDBDICTIONARYWDFLT
  2
AcDbDictionaryWithDefault
  3
ObjectDBX Classes
 90
        0
 91
        1
280
     0
281
     0
  0
CLASS
  1
DICTIONARYVAR
  2
AcDbDictionaryVar
  3
ObjectDBX Classes
 90
        0
 91
        2
280
     0
281
     0
  0
ENDSEC
  0
SECTION
  2
TABLES
  0
TABLE
  2
VPORT
  5
8
330
0
100
AcDbSymbolTable
 70
     3
  0
VPORT
  5
13D3
330
8
100
AcDbSymbolTableRecord
100
AcDbViewportTableRecord
  2
*Active
 70
     0
 10
0.0
 20
0.0
 11
1.0
 21
1.0
 12
104.9999999999999
 22
148.5
 13
0.0
 23
0.0
 14
1.0
 24
1.0
 15
10.0
 25
10.0
 16
0.0
 26
0.0
 36
1.0
 17
0.0
 27
0.0
 37
0.0
 40
297.03088805636
 41
1.404858299595141
 42
50.0
 43
0.0
 44
0.0
 50
0.0
 51
0.0
 71
     0
 72
  1500
 73
     1
 74
     0
 75
     0
 76
     0
 77
     0
 78
     0
281
     0
 65
     1
110
0.0
120
0.0
130
0.0
111
1.0
121
0.0
131
0.0
112
0.0
122
1.0
132
0.0
 79
     0
146
0.0
  0
ENDTAB
  0
TABLE
  2
LTYPE
  5
5
330
0
100
AcDbSymbolTable
 70
     2
  0
LTYPE
  5
13
330
5
100
AcDbSymbolTableRecord
100
AcDbLinetypeTableRecord
  2
ByBlock
 70
     0
  3

 72
    65
 73
     0
 40
0.0
  0
LTYPE
  5
14
330
5
100
AcDbSymbolTableRecord
100
AcDbLinetypeTableRecord
  2
ByLayer
 70
     0
  3

 72
    65
 73
     0
 40
0.0
  0
LTYPE
  5
15
330
5
100
AcDbSymbolTableRecord
100
AcDbLinetypeTableRecord
  2
Continuous
 70
     0
  3
Solid line
 72
    65
 73
     0
 40
0.0
  0
LTYPE
  5
25
330
5
100
AcDbSymbolTableRecord
100
AcDbLinetypeTableRecord
  2
STRICHPUNKT
 70
     0
  3
__ . __ . __ . __ . __ . __ . __ . __ . __ . __
 72
    65
 73
     4
 40
1.0
 49
0.5
 74
     0
 49
-0.25
 74
     0
 49
0.0
 74
     0
 49
-0.25
 74
     0
  0
ENDTAB
  0
TABLE
  2
LAYER
  5
2
330
0
100
AcDbSymbolTable
 70
     8
  0
LAYER
  5
10
330
2
100
AcDbSymbolTableRecord
100
AcDbLayerTableRecord
  2
0
 70
     0
 62
     7
  6
Continuous
370
    -3
390
F
  0
LAYER
  5
2A
330
2
100
AcDbSymbolTableRecord
100
AcDbLayerTableRecord
  2
VOLL
 70
     0
 62
     1
  6
Continuous
370
    -3
390
F
  0
LAYER
  5
2B
330
2
100
AcDbSymbolTableRecord
100
AcDbLayerTableRecord
  2
HILF
 70
     0
 62
     2
  6
Continuous
370
    -3
390
F
  0
LAYER
  5
2C
330
2
100
AcDbSymbolTableRecord
100
AcDbLayerTableRecord
  2
MITTEL
 70
     0
 62
     2
  6
STRICHPUNKT
370
    -3
390
F
  0
LAYER
  5
2F
330
2
100
AcDbSymbolTableRecord
100
AcDbLayerTableRecord
  2
BEM
 70
     0
 62
     7
  6
Continuous
370
    -3
390
F
  0
LAYER
  5
30
330
2
100
AcDbSymbolTableRecord
100
AcDbLayerTableRecord
  2
STEMPEL
 70
     0
 62
     3
  6
Continuous
370
    -3
390
F
  0
LAYER
  5
31
330
2
100
AcDbSymbolTableRecord
100
AcDbLayerTableRecord
  2
TEXT
 70
     0
 62
     7
  6
Continuous
370
    -3
390
F
  0
LAYER
  5
1A8
330
2
100
AcDbSymbolTableRecord
100
AcDbLayerTableRecord
  2
Defpoints
 70
     0
 62
     7
  6
Continuous
290
     0
370
    -3
390
F
  0
ENDTAB
  0
TABLE
  2
STYLE
  5
3
330
0
100
AcDbSymbolTable
 70
     2
  0
STYLE
  5
11
330
3
100
AcDbSymbolTableRecord
100
AcDbTextStyleTableRecord
  2
STANDARD
 70
     0
 40
0.0
 41
0.8
 50
0.0
 71
     0
 42
3.5
  3
simplex.shx
  4

  0
STYLE
  5
24
330
3
100
AcDbSymbolTableRecord
100
AcDbTextStyleTableRecord
  2
GREEKS
 70
     0
 40
0.0
 41
0.8
 50
0.0
 71
     0
 42
2.5
  3
SIMPLEX.shx
  4

  0
ENDTAB
  0
TABLE
  2
VIEW
  5
6
330
0
100
AcDbSymbolTable
 70
     0
  0
ENDTAB
  0
TABLE
  2
UCS
  5
7
330
0
100
AcDbSymbolTable
 70
     0
  0
ENDTAB
  0
TABLE
  2
APPID
  5
9
330
0
100
AcDbSymbolTable
 70
     1
  0
APPID
  5
12
330
9
100
AcDbSymbolTableRecord
100
AcDbRegAppTableRecord
  2
ACAD
 70
     0
  0
ENDTAB
  0
TABLE
  2
DIMSTYLE
  5
A
330
0
100
AcDbSymbolTable
 70
     1
100
AcDbDimStyleTable
 71
     1
340
9D
  0
DIMSTYLE
105
9D
102
{ACAD_REACTORS
330
125D
330
1273
330
12CD
330
12F3
330
1300
330
1360
330
136E
330
13A9
102
}
330
A
100
AcDbSymbolTableRecord
100
AcDbDimStyleTableRecord
  2
Standard
 70
     0
340
11
  0
ENDTAB
  0
TABLE
  2
BLOCK_RECORD
  5
1
330
0
100
AcDbSymbolTable
 70
     9
  0
BLOCK_RECORD
  5
1E
102
{ACAD_XDICTIONARY
360
A0
102
}
330
1
100
AcDbSymbolTableRecord
100
AcDbBlockTableRecord
  2
*Model_Space
340
21
  0
BLOCK_RECORD
  5
1A
102
{ACAD_XDICTIONARY
360
A2
102
}
330
1
100
AcDbSymbolTableRecord
100
AcDbBlockTableRecord
  2
*Paper_Space
340
1D
  0
BLOCK_RECORD
  5
22
330
1
100
AcDbSymbolTableRecord
100
AcDbBlockTableRecord
  2
LOGO
340
0
102
{BLKREFS
331
9B
102
}
  0
BLOCK_RECORD
  5
125E
330
1
100
AcDbSymbolTableRecord
100
AcDbBlockTableRecord
  2
*D1
340
0
  0
BLOCK_RECORD
  5
1274
330
1
100
AcDbSymbolTableRecord
100
AcDbBlockTableRecord
  2
*D2
340
0
  0
BLOCK_RECORD
  5
12CE
330
1
100
AcDbSymbolTableRecord
100
AcDbBlockTableRecord
  2
*D3
340
0
  0
BLOCK_RECORD
  5
12F4
330
1
100
AcDbSymbolTableRecord
100
AcDbBlockTableRecord
  2
*D4
340
0
  0
BLOCK_RECORD
  5
1301
330
1
100
AcDbSymbolTableRecord
100
AcDbBlockTableRecord
  2
*D5
340
0
  0
BLOCK_RECORD
  5
1361
330
1
100
AcDbSymbolTableRecord
100
AcDbBlockTableRecord
  2
*D6
340
0
  0
BLOCK_RECORD
  5
136F
330
1
100
AcDbSymbolTableRecord
100
AcDbBlockTableRecord
  2
*D7
340
0
  0
BLOCK_RECORD
  5
13AA
330
1
100
AcDbSymbolTableRecord
100
AcDbBlockTableRecord
  2
*D8
340
0
  0
ENDTAB
  0
ENDSEC
  0
SECTION
  2
BLOCKS
  0
BLOCK
  5
35
330
1E
100
AcDbEntity
  8
0
100
AcDbBlockBegin
  2
*Model_Space
 70
     0
 10
0.0
 20
0.0
 30
0.0
  3
*Model_Space
  1

  0
ENDBLK
  5
36
330
1E
100
AcDbEntity
  8
0
100
AcDbBlockEnd
  0
BLOCK
  5
33
330
1A
100
AcDbEntity
 67
     1
  8
0
100
AcDbBlockBegin
  2
*Paper_Space
 70
     0
 10
0.0
 20
0.0
 30
0.0
  3
*Paper_Space
  1

  0
ENDBLK
  5
34
330
1A
100
AcDbEntity
 67
     1
  8
0
100
AcDbBlockEnd
  0
BLOCK
  5
37
330
22
100
AcDbEntity
  8
0
100
AcDbBlockBegin
  2
LOGO
 70
     0
 10
0.0
 20
0.0
 30
0.0
  3
LOGO
  1

  0
ARC
  5
38
330
22
100
AcDbEntity
  8
0
100
AcDbCircle
 10
11.59973089678112
 20
-9.271599258481501
 30
0.0
 40
4.5
100
AcDbArc
 50
270.0
 51
231.0575587310159
  0
LINE
  5
39
330
22
100
AcDbEntity
  8
0
100
AcDbLine
 10
3.599730896781125
 20
-4.771599258481529
 30
0.0
 11
3.599730896781153
 21
-11.77159925848133
 31
0.0
  0
LINE
  5
3A
330
22
100
AcDbEntity
  8
0
100
AcDbLine
 10
2.599730896781125
 20
-4.771599258481529
 30
0.0
 11
2.599730896781153
 21
-11.77159925848133
 31
0.0
  0
CIRCLE
  5
3B
330
22
100
AcDbEntity
  8
0
100
AcDbCircle
 10
11.59973089678112
 20
-9.271599258481501
 30
0.0
 40
3.5
  0
ARC
  5
3C
330
22
100
AcDbEntity
  8
0
100
AcDbCircle
 10
31.59973089678115
 20
-9.271599258481472
 30
0.0
 40
4.5
100
AcDbArc
 50
270.0
 51
231.0575587310182
  0
LINE
  5
3D
330
22
100
AcDbEntity
  8
0
100
AcDbLine
 10
17.59973089678112
 20
-4.771599258481472
 30
0.0
 11
17.59973089678115
 21
-13.77159925848147
 31
0.0
  0
ARC
  5
3E
330
22
100
AcDbEntity
  8
0
100
AcDbCircle
 10
22.59973089678116
 20
-7.271599258481472
 30
0.0
 40
2.5
100
AcDbArc
 50
293.1161887722295
 51
90.0
  0
CIRCLE
  5
3F
330
22
100
AcDbEntity
  8
0
100
AcDbCircle
 10
31.59973089678115
 20
-9.271599258481472
 30
0.0
 40
3.5
  0
ARC
  5
40
330
22
100
AcDbEntity
  8
0
100
AcDbCircle
 10
4.599730896781153
 20
-11.77159925848133
 30
0.0
 40
1.0
100
AcDbArc
 50
180.0
 51
270.0
  0
ARC
  5
41
330
22
100
AcDbEntity
  8
0
100
AcDbCircle
 10
4.599730896781153
 20
-11.77159925848133
 30
0.0
 40
2.0
100
AcDbArc
 50
179.9999999999992
 51
270.0
  0
LINE
  5
42
330
22
100
AcDbEntity
  8
0
100
AcDbLine
 10
11.59973089678115
 20
-13.77159925848144
 30
0.0
 11
4.599730896781153
 21
-13.77159925848147
 31
0.0
  0
LINE
  5
43
330
22
100
AcDbEntity
  8
0
100
AcDbLine
 10
8.771303772034769
 20
-12.77159925848136
 30
0.0
 11
4.599730896781153
 21
-12.77159925848133
 31
0.0
  0
LINE
  5
44
330
22
100
AcDbEntity
  8
0
100
AcDbLine
 10
31.59973089678115
 20
-13.77159925848147
 30
0.0
 11
23.6715276665056
 21
-13.77159925848144
 31
0.0
  0
LINE
  5
45
330
22
100
AcDbEntity
  8
0
100
AcDbLine
 10
23.56565672307022
 20
-9.51278021337896
 30
0.0
 11
24.4388546544846
 21
-12.77159925848144
 31
0.0
  0
LINE
  5
46
330
22
100
AcDbEntity
  8
0
100
AcDbLine
 10
22.59973089678116
 20
-9.771599258481472
 30
0.0
 11
18.59973089678112
 21
-9.771599258481472
 31
0.0
  0
LINE
  5
47
330
22
100
AcDbEntity
  8
0
100
AcDbLine
 10
18.59973089678115
 20
-13.77159925848144
 30
0.0
 11
17.59973089678115
 21
-13.77159925848144
 31
0.0
  0
LINE
  5
48
330
22
100
AcDbEntity
  8
0
100
AcDbLine
 10
18.59973089678115
 20
-9.771599258481472
 30
0.0
 11
18.59973089678115
 21
-13.77159925848144
 31
0.0
  0
LINE
  5
49
330
22
100
AcDbEntity
  8
0
100
AcDbLine
 10
22.59973089678116
 20
-9.771599258481472
 30
0.0
 11
23.67152766650562
 21
-13.77159925848147
 31
0.0
  0
ARC
  5
4A
330
22
100
AcDbEntity
  8
0
100
AcDbCircle
 10
22.59973089678116
 20
-7.271599258481472
 30
0.0
 40
2.5
100
AcDbArc
 50
270.0
 51
270.0000000000007
  0
LINE
  5
4B
330
22
100
AcDbEntity
  8
0
100
AcDbLine
 10
28.77130377203494
 20
-12.77159925848147
 30
0.0
 11
24.43885465448463
 21
-12.77159925848144
 31
0.0
  0
LINE
  5
4C
330
22
100
AcDbEntity
  8
0
100
AcDbLine
 10
3.599730896781125
 20
-4.771599258481472
 30
0.0
 11
2.599730896781125
 21
-4.771599258481472
 31
0.0
  0
LINE
  5
4D
330
22
100
AcDbEntity
  8
0
100
AcDbLine
 10
22.59973089678116
 20
-8.771599258481472
 30
0.0
 11
18.59973089678115
 21
-8.771599258481472
 31
0.0
  0
LINE
  5
4E
330
22
100
AcDbEntity
  8
0
100
AcDbLine
 10
22.59973089678116
 20
-5.771599258481472
 30
0.0
 11
18.59973089678115
 21
-5.771599258481472
 31
0.0
  0
LINE
  5
4F
330
22
100
AcDbEntity
  8
0
100
AcDbLine
 10
22.59973089678116
 20
-4.771599258481472
 30
0.0
 11
17.59973089678115
 21
-4.771599258481472
 31
0.0
  0
LINE
  5
50
330
22
100
AcDbEntity
  8
0
100
AcDbLine
 10
18.59973089678115
 20
-5.771599258481472
 30
0.0
 11
18.59973089678115
 21
-8.771599258481472
 31
0.0
  0
ARC
  5
51
330
22
100
AcDbEntity
  8
0
100
AcDbCircle
 10
22.59973089678116
 20
-7.271599258481472
 30
0.0
 40
1.5
100
AcDbArc
 50
270.0
 51
90.0
  0
ENDBLK
  5
52
330
22
100
AcDbEntity
  8
0
100
AcDbBlockEnd
  0
BLOCK
  5
1268
330
125E
100
AcDbEntity
  8
0
100
AcDbBlockBegin
  2
*D1
 70
     1
 10
0.0
 20
0.0
 30
0.0
  3
*D1
  1

  0
LINE
  5
1345
330
125E
100
AcDbEntity
  8
BEM
 62
     0
370
    -2
100
AcDbLine
 10
70.87678097569218
 20
91.60025467015463
 30
0.0
 11
70.87678097569218
 21
76.25190187963176
 31
0.0
  0
LINE
  5
1346
330
125E
100
AcDbEntity
  8
BEM
 62
     0
370
    -2
100
AcDbLine
 10
143.8747809756921
 20
91.60025467015463
 30
0.0
 11
143.8747809756921
 21
76.25190187963176
 31
0.0
  0
LINE
  5
1347
330
125E
100
AcDbEntity
  8
BEM
 62
     0
370
    -2
100
AcDbLine
 10
74.37678097569218
 20
77.25190187963176
 30
0.0
 11
140.3747809756921
 21
77.25190187963176
 31
0.0
  0
SOLID
  5
1348
330
125E
100
AcDbEntity
  8
BEM
 62
     0
100
AcDbTrace
 10
74.37678097569218
 20
77.83523521296508
 30
0.0
 11
74.37678097569218
 21
76.66856854629843
 31
0.0
 12
70.87678097569218
 22
77.25190187963176
 32
0.0
 13
70.87678097569218
 23
77.25190187963176
 33
0.0
  0
SOLID
  5
1349
330
125E
100
AcDbEntity
  8
BEM
 62
     0
100
AcDbTrace
 10
140.3747809756921
 20
77.83523521296508
 30
0.0
 11
140.3747809756921
 21
76.66856854629843
 31
0.0
 12
143.8747809756921
 22
77.25190187963176
 32
0.0
 13
143.8747809756921
 23
77.25190187963176
 33
0.0
  0
MTEXT
  5
134A
330
125E
100
AcDbEntity
  8
BEM
 62
     1
100
AcDbMText
 10
107.3757809756921
 20
80.50190187963176
 30
0.0
 40
3.5
 41
0.0
 71
     5
 72
     1
  1
\A1;73
 73
     1
 44
1.0
  0
POINT
  5
134B
330
125E
100
AcDbEntity
  8
Defpoints
 62
     0
100
AcDbPoint
 10
70.87678097569218
 20
92.60025467015465
 30
0.0
  0
POINT
  5
134C
330
125E
100
AcDbEntity
  8
Defpoints
 62
     0
100
AcDbPoint
 10
143.8747809756921
 20
92.60025467015465
 30
0.0
  0
POINT
  5
134D
330
125E
100
AcDbEntity
  8
Defpoints
 62
     0
100
AcDbPoint
 10
143.8747809756921
 20
77.25190187963176
 30
0.0
  0
ENDBLK
  5
1269
330
125E
100
AcDbEntity
  8
0
100
AcDbBlockEnd
  0
BLOCK
  5
127E
330
1274
100
AcDbEntity
  8
0
100
AcDbBlockBegin
  2
*D2
 70
     1
 10
0.0
 20
0.0
 30
0.0
  3
*D2
  1

  0
LINE
  5
133C
330
1274
100
AcDbEntity
  8
BEM
 62
     0
370
    -2
100
AcDbLine
 10
62.87678097569219
 20
101.6002546701546
 30
0.0
 11
62.87678097569219
 21
67.51623285739595
 31
0.0
  0
LINE
  5
133D
330
1274
100
AcDbEntity
  8
BEM
 62
     0
370
    -2
100
AcDbLine
 10
151.8747809756921
 20
101.6002546701546
 30
0.0
 11
151.8747809756921
 21
67.51623285739595
 31
0.0
  0
LINE
  5
133E
330
1274
100
AcDbEntity
  8
BEM
 62
     0
370
    -2
100
AcDbLine
 10
66.37678097569218
 20
68.51623285739595
 30
0.0
 11
148.3747809756921
 21
68.51623285739595
 31
0.0
  0
SOLID
  5
133F
330
1274
100
AcDbEntity
  8
BEM
 62
     0
100
AcDbTrace
 10
66.37678097569218
 20
69.09956619072928
 30
0.0
 11
66.37678097569218
 21
67.93289952406261
 31
0.0
 12
62.87678097569219
 22
68.51623285739595
 32
0.0
 13
62.87678097569219
 23
68.51623285739595
 33
0.0
  0
SOLID
  5
1340
330
1274
100
AcDbEntity
  8
BEM
 62
     0
100
AcDbTrace
 10
148.3747809756921
 20
69.09956619072928
 30
0.0
 11
148.3747809756921
 21
67.93289952406261
 31
0.0
 12
151.8747809756921
 22
68.51623285739595
 32
0.0
 13
151.8747809756921
 23
68.51623285739595
 33
0.0
  0
MTEXT
  5
1341
330
1274
100
AcDbEntity
  8
BEM
 62
     1
100
AcDbMText
 10
107.3757809756921
 20
71.76623285739594
 30
0.0
 40
3.5
 41
0.0
 71
     5
 72
     1
  1
\A1;89
 73
     1
 44
1.0
  0
POINT
  5
1342
330
1274
100
AcDbEntity
  8
Defpoints
 62
     0
100
AcDbPoint
 10
62.87678097569219
 20
102.6002546701546
 30
0.0
  0
POINT
  5
1343
330
1274
100
AcDbEntity
  8
Defpoints
 62
     0
100
AcDbPoint
 10
151.8747809756921
 20
102.6002546701546
 30
0.0
  0
POINT
  5
1344
330
1274
100
AcDbEntity
  8
Defpoints
 62
     0
100
AcDbPoint
 10
151.8747809756921
 20
68.51623285739595
 30
0.0
  0
ENDBLK
  5
127F
330
1274
100
AcDbEntity
  8
0
100
AcDbBlockEnd
  0
BLOCK
  5
12DA
330
12CE
100
AcDbEntity
  8
0
100
AcDbBlockBegin
  2
*D3
 70
     1
 10
0.0
 20
0.0
 30
0.0
  3
*D3
  1

  0
LINE
  5
1331
330
12CE
100
AcDbEntity
  8
BEM
 62
     0
370
    -2
100
AcDbLine
 10
62.09178097569219
 20
253.3192971588595
 30
0.0
 11
54.83867162796245
 21
253.3192971588595
 31
0.0
  0
LINE
  5
1332
330
12CE
100
AcDbEntity
  8
BEM
 62
     0
370
    -2
100
AcDbLine
 10
62.09178097569219
 20
256.3192971588595
 30
0.0
 11
54.83867162796245
 21
256.3192971588595
 31
0.0
  0
LINE
  5
1333
330
12CE
100
AcDbEntity
  8
BEM
 62
     0
370
    -2
100
AcDbLine
 10
55.83867162796245
 20
249.8192971588595
 30
0.0
 11
55.83867162796245
 21
246.3192971588595
 31
0.0
  0
LINE
  5
1334
330
12CE
100
AcDbEntity
  8
BEM
 62
     0
370
    -2
100
AcDbLine
 10
55.83867162796245
 20
259.8192971588595
 30
0.0
 11
55.83867162796245
 21
263.3192971588595
 31
0.0
  0
LINE
  5
1335
330
12CE
100
AcDbEntity
  8
BEM
 62
     0
370
    -2
100
AcDbLine
 10
55.83867162796245
 20
253.3192971588595
 30
0.0
 11
55.83867162796245
 21
256.3192971588595
 31
0.0
  0
SOLID
  5
1336
330
12CE
100
AcDbEntity
  8
BEM
 62
     0
100
AcDbTrace
 10
55.25533829462911
 20
249.8192971588595
 30
0.0
 11
56.42200496129579
 21
249.8192971588595
 31
0.0
 12
55.83867162796245
 22
253.3192971588595
 32
0.0
 13
55.83867162796245
 23
253.3192971588595
 33
0.0
  0
SOLID
  5
1337
330
12CE
100
AcDbEntity
  8
BEM
 62
     0
100
AcDbTrace
 10
55.25533829462911
 20
259.8192971588595
 30
0.0
 11
56.42200496129579
 21
259.8192971588595
 31
0.0
 12
55.83867162796245
 22
256.3192971588595
 32
0.0
 13
55.83867162796245
 23
256.3192971588595
 33
0.0
  0
MTEXT
  5
1338
330
12CE
100
AcDbEntity
  8
BEM
 62
     1
100
AcDbMText
 10
52.58867162796241
 20
254.8192971588595
 30
0.0
 40
3.5
 41
0.0
 71
     5
 72
     1
  1
\A1;3
 11
0.0000000000000001
 21
1.0
 31
0.0
 73
     1
 44
1.0
  0
POINT
  5
1339
330
12CE
100
AcDbEntity
  8
Defpoints
 62
     0
100
AcDbPoint
 10
63.09178097569219
 20
253.3192971588595
 30
0.0
  0
POINT
  5
133A
330
12CE
100
AcDbEntity
  8
Defpoints
 62
     0
100
AcDbPoint
 10
63.09178097569219
 20
256.3192971588595
 30
0.0
  0
POINT
  5
133B
330
12CE
100
AcDbEntity
  8
Defpoints
 62
     0
100
AcDbPoint
 10
55.83867162796245
 20
256.3192971588595
 30
0.0
  0
ENDBLK
  5
12DB
330
12CE
100
AcDbEntity
  8
0
100
AcDbBlockEnd
  0
BLOCK
  5
12FE
330
12F4
100
AcDbEntity
  8
0
100
AcDbBlockBegin
  2
*D4
 70
     1
 10
0.0
 20
0.0
 30
0.0
  3
*D4
  1

  0
LINE
  5
1328
330
12F4
100
AcDbEntity
  8
BEM
 62
     0
370
    -2
100
AcDbLine
 10
106.3757809756922
 20
284.3192971588595
 30
0.0
 11
47.07589939755397
 21
284.3192971588595
 31
0.0
  0
LINE
  5
1329
330
12F4
100
AcDbEntity
  8
BEM
 62
     0
370
    -2
100
AcDbLine
 10
106.3757809756922
 20
131.3192971588595
 30
0.0
 11
47.07589939755393
 21
131.3192971588595
 31
0.0
  0
LINE
  5
132A
330
12F4
100
AcDbEntity
  8
BEM
 62
     0
370
    -2
100
AcDbLine
 10
48.07589939755398
 20
280.8192971588595
 30
0.0
 11
48.07589939755394
 21
134.8192971588595
 31
0.0
  0
SOLID
  5
132B
330
12F4
100
AcDbEntity
  8
BEM
 62
     0
100
AcDbTrace
 10
47.49256606422064
 20
280.8192971588595
 30
0.0
 11
48.65923273088731
 21
280.8192971588595
 31
0.0
 12
48.07589939755398
 22
284.3192971588595
 32
0.0
 13
48.07589939755398
 23
284.3192971588595
 33
0.0
  0
SOLID
  5
132C
330
12F4
100
AcDbEntity
  8
BEM
 62
     0
100
AcDbTrace
 10
47.4925660642206
 20
134.8192971588595
 30
0.0
 11
48.65923273088728
 21
134.8192971588595
 31
0.0
 12
48.07589939755394
 22
131.3192971588595
 32
0.0
 13
48.07589939755394
 23
131.3192971588595
 33
0.0
  0
MTEXT
  5
132D
330
12F4
100
AcDbEntity
  8
BEM
 62
     1
100
AcDbMText
 10
44.82589939755392
 20
207.8192971588595
 30
0.0
 40
3.5
 41
0.0
 71
     5
 72
     1
  1
\A1;153
 11
0.0000000000000001
 21
1.0
 31
0.0
 73
     1
 44
1.0
  0
POINT
  5
132E
330
12F4
100
AcDbEntity
  8
Defpoints
 62
     0
100
AcDbPoint
 10
107.3757809756922
 20
284.3192971588595
 30
0.0
  0
POINT
  5
132F
330
12F4
100
AcDbEntity
  8
Defpoints
 62
     0
100
AcDbPoint
 10
107.3757809756922
 20
131.3192971588595
 30
0.0
  0
POINT
  5
1330
330
12F4
100
AcDbEntity
  8
Defpoints
 62
     0
100
AcDbPoint
 10
48.07589939755394
 20
131.3192971588595
 30
0.0
  0
ENDBLK
  5
12FF
330
12F4
100
AcDbEntity
  8
0
100
AcDbBlockEnd
  0
BLOCK
  5
130B
330
1301
100
AcDbEntity
  8
0
100
AcDbBlockBegin
  2
*D5
 70
     1
 10
0.0
 20
0.0
 30
0.0
  3
*D5
  1

  0
LINE
  5
131F
330
1301
100
AcDbEntity
  8
BEM
 62
     0
370
    -2
100
AcDbLine
 10
89.1200094301323
 20
235.5848591062782
 30
0.0
 11
89.04201000872943
 21
235.6534864403909
 31
0.0
  0
LINE
  5
1320
330
1301
100
AcDbEntity
  8
BEM
 62
     0
370
    -2
100
AcDbLine
 10
124.1296187740495
 20
275.3755534072281
 30
0.0
 11
124.0516193526466
 21
275.4441807413408
 31
0.0
  0
LINE
  5
1321
330
1301
100
AcDbEntity
  8
BEM
 62
     0
370
    -2
100
AcDbLine
 10
92.10474837025497
 20
237.6206249024316
 30
0.0
 11
122.4904240822408
 21
272.1559183844624
 31
0.0
  0
SOLID
  5
1322
330
1301
100
AcDbEntity
  8
BEM
 62
     0
100
AcDbTrace
 10
91.66679830201172
 20
238.0059527050926
 30
0.0
 11
92.5426984384982
 21
237.2352970997707
 31
0.0
 12
89.7927815542893
 22
234.9929244929721
 32
0.0
 13
89.7927815542893
 23
234.9929244929721
 33
0.0
  0
SOLID
  5
1323
330
1301
100
AcDbEntity
  8
BEM
 62
     0
100
AcDbTrace
 10
122.0524740139976
 20
272.5412461871234
 30
0.0
 11
122.9283741504841
 21
271.7705905818015
 31
0.0
 12
124.8023908982065
 22
274.783618793922
 32
0.0
 13
124.8023908982065
 23
274.783618793922
 33
0.0
  0
MTEXT
  5
1324
330
1301
100
AcDbEntity
  8
BEM
 62
     1
100
AcDbMText
 10
112.6323244232895
 20
265.871601321611
 30
0.0
 40
3.5
 41
0.0
 71
     5
 72
     1
  1
\A1;53
 11
0.6605619474187531
 21
0.7507715455598624
 31
0.0
 73
     1
 44
1.0
  0
POINT
  5
1325
330
1301
100
AcDbEntity
  8
Defpoints
 62
     0
100
AcDbPoint
 10
89.87078097569218
 20
234.9242971588595
 30
0.0
  0
POINT
  5
1326
330
1301
100
AcDbEntity
  8
Defpoints
 62
     0
100
AcDbPoint
 10
124.8803903196094
 20
274.7149914598093
 30
0.0
  0
POINT
  5
1327
330
1301
100
AcDbEntity
  8
Defpoints
 62
     0
100
AcDbPoint
 10
124.8023908982065
 20
274.783618793922
 30
0.0
  0
ENDBLK
  5
130C
330
1301
100
AcDbEntity
  8
0
100
AcDbBlockEnd
  0
BLOCK
  5
136B
330
1361
100
AcDbEntity
  8
0
100
AcDbBlockBegin
  2
*D6
 70
     1
 10
0.0
 20
0.0
 30
0.0
  3
*D6
  1

  0
LINE
  5
1362
330
1361
100
AcDbEntity
  8
BEM
 62
     0
370
    -2
100
AcDbLine
 10
106.3757809756922
 20
131.3192971588595
 30
0.0
 11
56.3522852914459
 21
131.3192971588595
 31
0.0
  0
LINE
  5
1363
330
1361
100
AcDbEntity
  8
BEM
 62
     0
370
    -2
100
AcDbLine
 10
95.87578097569219
 20
211.3192971588595
 30
0.0
 11
56.35228529144593
 21
211.3192971588595
 31
0.0
  0
LINE
  5
1364
330
1361
100
AcDbEntity
  8
BEM
 62
     0
370
    -2
100
AcDbLine
 10
57.35228529144591
 20
134.8192971588595
 30
0.0
 11
57.35228529144592
 21
207.8192971588595
 31
0.0
  0
SOLID
  5
1365
330
1361
100
AcDbEntity
  8
BEM
 62
     0
100
AcDbTrace
 10
56.76895195811257
 20
134.8192971588595
 30
0.0
 11
57.93561862477925
 21
134.8192971588595
 31
0.0
 12
57.35228529144591
 22
131.3192971588595
 32
0.0
 13
57.35228529144591
 23
131.3192971588595
 33
0.0
  0
SOLID
  5
1366
330
1361
100
AcDbEntity
  8
BEM
 62
     0
100
AcDbTrace
 10
56.76895195811258
 20
207.8192971588595
 30
0.0
 11
57.93561862477925
 21
207.8192971588595
 31
0.0
 12
57.35228529144593
 22
211.3192971588595
 32
0.0
 13
57.35228529144593
 23
211.3192971588595
 33
0.0
  0
MTEXT
  5
1367
330
1361
100
AcDbEntity
  8
BEM
 62
     1
100
AcDbMText
 10
54.10228529144589
 20
171.3192971588595
 30
0.0
 40
3.5
 41
0.0
 71
     5
 72
     1
  1
\A1;80
 11
0.0000000000000001
 21
1.0
 31
0.0
 73
     1
 44
1.0
  0
POINT
  5
1368
330
1361
100
AcDbEntity
  8
Defpoints
 62
     0
100
AcDbPoint
 10
107.3757809756922
 20
131.3192971588595
 30
0.0
  0
POINT
  5
1369
330
1361
100
AcDbEntity
  8
Defpoints
 62
     0
100
AcDbPoint
 10
96.87578097569218
 20
211.3192971588595
 30
0.0
  0
POINT
  5
136A
330
1361
100
AcDbEntity
  8
Defpoints
 62
     0
100
AcDbPoint
 10
57.35228529144593
 20
211.3192971588595
 30
0.0
  0
ENDBLK
  5
136C
330
1361
100
AcDbEntity
  8
0
100
AcDbBlockEnd
  0
BLOCK
  5
1379
330
136F
100
AcDbEntity
  8
0
100
AcDbBlockBegin
  2
*D7
 70
     1
 10
0.0
 20
0.0
 30
0.0
  3
*D7
  1

  0
LINE
  5
1384
330
136F
100
AcDbEntity
  8
BEM
 62
     0
370
    -2
100
AcDbLine
 10
110.3757809756922
 20
166.5163221718296
 30
0.0
 11
110.3757809756922
 21
166.7541179336524
 31
0.0
  0
LINE
  5
1385
330
136F
100
AcDbEntity
  8
BEM
 62
     0
370
    -2
100
AcDbLine
 10
104.3757809756922
 20
166.5163221718296
 30
0.0
 11
104.3757809756922
 21
166.7541179336524
 31
0.0
  0
LINE
  5
1386
330
136F
100
AcDbEntity
  8
BEM
 62
     0
370
    -2
100
AcDbLine
 10
113.8757809756921
 20
165.7541179336524
 30
0.0
 11
117.3757809756922
 21
165.7541179336524
 31
0.0
  0
LINE
  5
1387
330
136F
100
AcDbEntity
  8
BEM
 62
     0
370
    -2
100
AcDbLine
 10
100.8757809756922
 20
165.7541179336524
 30
0.0
 11
92.64244764235883
 21
165.7541179336524
 31
0.0
  0
LINE
  5
1388
330
136F
100
AcDbEntity
  8
BEM
 62
     0
370
    -2
100
AcDbLine
 10
110.3757809756922
 20
165.7541179336524
 30
0.0
 11
104.3757809756922
 21
165.7541179336524
 31
0.0
  0
SOLID
  5
1389
330
136F
100
AcDbEntity
  8
BEM
 62
     0
100
AcDbTrace
 10
113.8757809756921
 20
166.3374512669857
 30
0.0
 11
113.8757809756921
 21
165.1707846003191
 31
0.0
 12
110.3757809756922
 22
165.7541179336524
 32
0.0
 13
110.3757809756922
 23
165.7541179336524
 33
0.0
  0
SOLID
  5
138A
330
136F
100
AcDbEntity
  8
BEM
 62
     0
100
AcDbTrace
 10
100.8757809756922
 20
166.3374512669857
 30
0.0
 11
100.8757809756922
 21
165.1707846003191
 31
0.0
 12
104.3757809756922
 22
165.7541179336524
 32
0.0
 13
104.3757809756922
 23
165.7541179336524
 33
0.0
  0
MTEXT
  5
138B
330
136F
100
AcDbEntity
  8
BEM
 62
     1
100
AcDbMText
 10
95.00911430902551
 20
169.0041179336524
 30
0.0
 40
3.5
 41
0.0
 71
     5
 72
     1
  1
\A1;6
 73
     1
 44
1.0
  0
POINT
  5
138C
330
136F
100
AcDbEntity
  8
Defpoints
 62
     0
100
AcDbPoint
 10
110.3757809756922
 20
165.5163221718296
 30
0.0
  0
POINT
  5
138D
330
136F
100
AcDbEntity
  8
Defpoints
 62
     0
100
AcDbPoint
 10
104.3757809756922
 20
165.5163221718296
 30
0.0
  0
POINT
  5
138E
330
136F
100
AcDbEntity
  8
Defpoints
 62
     0
100
AcDbPoint
 10
104.3757809756922
 20
165.7541179336524
 30
0.0
  0
ENDBLK
  5
137A
330
136F
100
AcDbEntity
  8
0
100
AcDbBlockEnd
  0
BLOCK
  5
13B4
330
13AA
100
AcDbEntity
  8
0
100
AcDbBlockBegin
  2
*D8
 70
     1
 10
0.0
 20
0.0
 30
0.0
  3
*D8
  1

  0
LINE
  5
13AB
330
13AA
100
AcDbEntity
  8
BEM
 62
     0
370
    -2
100
AcDbLine
 10
65.22613707131902
 20
115.1002394111864
 30
0.0
 11
51.7224506355517
 21
115.1002394111864
 31
0.0
  0
LINE
  5
13AC
330
13AA
100
AcDbEntity
  8
BEM
 62
     0
370
    -2
100
AcDbLine
 10
65.2261546908541
 20
90.10023941119287
 30
0.0
 11
51.7224506355517
 21
90.10023941119287
 31
0.0
  0
LINE
  5
13AD
330
13AA
100
AcDbEntity
  8
BEM
 62
     0
370
    -2
100
AcDbLine
 10
52.72245063555169
 20
111.6002394111864
 30
0.0
 11
52.72245063555169
 21
93.60023941119287
 31
0.0
  0
SOLID
  5
13AE
330
13AA
100
AcDbEntity
  8
BEM
 62
     0
100
AcDbTrace
 10
52.13911730221836
 20
111.6002394111864
 30
0.0
 11
53.30578396888503
 21
111.6002394111864
 31
0.0
 12
52.7224506355517
 22
115.1002394111864
 32
0.0
 13
52.7224506355517
 23
115.1002394111864
 33
0.0
  0
SOLID
  5
13AF
330
13AA
100
AcDbEntity
  8
BEM
 62
     0
100
AcDbTrace
 10
52.13911730221836
 20
93.60023941119287
 30
0.0
 11
53.30578396888503
 21
93.60023941119287
 31
0.0
 12
52.72245063555169
 22
90.10023941119287
 32
0.0
 13
52.72245063555169
 23
90.10023941119287
 33
0.0
  0
MTEXT
  5
13B0
330
13AA
100
AcDbEntity
  8
BEM
 62
     1
100
AcDbMText
 10
49.47245063555168
 20
102.6002394111896
 30
0.0
 40
3.5
 41
0.0
 71
     5
 72
     1
  1
\A1;25
 11
0.0000000000000001
 21
1.0
 31
0.0
 73
     1
 44
1.0
  0
POINT
  5
13B1
330
13AA
100
AcDbEntity
  8
Defpoints
 62
     0
100
AcDbPoint
 10
66.22613707131901
 20
115.1002394111864
 30
0.0
  0
POINT
  5
13B2
330
13AA
100
AcDbEntity
  8
Defpoints
 62
     0
100
AcDbPoint
 10
66.2261546908541
 20
90.10023941119287
 30
0.0
  0
POINT
  5
13B3
330
13AA
100
AcDbEntity
  8
Defpoints
 62
     0
100
AcDbPoint
 10
52.72245063555169
 20
90.10023941119287
 30
0.0
  0
ENDBLK
  5
13B5
330
13AA
100
AcDbEntity
  8
0
100
AcDbBlockEnd
  0
ENDSEC
  0
SECTION
  2
ENTITIES
  0
LINE
  5
57
330
1E
100
AcDbEntity
  8
STEMPEL
100
AcDbLine
 10
205.0
 20
55.00000000000003
 30
0.0
 11
19.99999999999998
 21
55.0
 31
0.0
  0
LINE
  5
58
330
1E
100
AcDbEntity
  8
STEMPEL
100
AcDbLine
 10
68.00000000000006
 20
54.99999999999997
 30
0.0
 11
68.0
 21
4.999999999999985
 31
0.0
  0
LINE
  5
59
330
1E
100
AcDbEntity
  8
STEMPEL
100
AcDbLine
 10
110.0
 20
55.00000000000003
 30
0.0
 11
110.0
 21
4.999999999999985
 31
0.0
  0
LINE
  5
5A
330
1E
100
AcDbEntity
  8
STEMPEL
100
AcDbLine
 10
166.0
 20
54.99999999999989
 30
0.0
 11
166.0
 21
20.0
 31
0.0
  0
LINE
  5
5B
330
1E
100
AcDbEntity
  8
STEMPEL
100
AcDbLine
 10
67.99999999999994
 20
14.99999999999998
 30
0.0
 11
19.99999999999998
 21
14.99999999999998
 31
0.0
  0
LINE
  5
5C
330
1E
100
AcDbEntity
  8
STEMPEL
100
AcDbLine
 10
205.0
 20
20.0
 30
0.0
 11
68.00000000000006
 21
19.99999999999998
 31
0.0
  0
LINE
  5
5D
330
1E
100
AcDbEntity
  8
STEMPEL
100
AcDbLine
 10
205.0
 20
40.0
 30
0.0
 11
68.00000000000006
 21
39.99999999999997
 31
0.0
  0
LINE
  5
5E
330
1E
100
AcDbEntity
  8
VOLL
100
AcDbLine
 10
27.00000000000005
 20
55.00000000000003
 30
0.0
 11
26.99999999999999
 21
4.999999999999985
 31
0.0
  0
LINE
  5
5F
330
1E
100
AcDbEntity
  8
VOLL
100
AcDbLine
 10
47.00000000000005
 20
54.99999999999997
 30
0.0
 11
47.0
 21
4.999999999999985
 31
0.0
  0
LINE
  5
60
330
1E
100
AcDbEntity
  8
VOLL
100
AcDbLine
 10
57.00000000000006
 20
54.99999999999997
 30
0.0
 11
57.0
 21
4.999999999999985
 31
0.0
  0
LINE
  5
61
330
1E
100
AcDbEntity
  8
VOLL
100
AcDbLine
 10
77.00000000000006
 20
39.99999999999997
 30
0.0
 11
77.00000000000006
 21
19.99999999999998
 31
0.0
  0
LINE
  5
62
330
1E
100
AcDbEntity
  8
VOLL
100
AcDbLine
 10
90.00000000000005
 20
54.99999999999992
 30
0.0
 11
90.0
 21
19.99999999999998
 31
0.0
  0
LINE
  5
63
330
1E
100
AcDbEntity
  8
HILF
100
AcDbLine
 10
20.00000000000004
 20
50.00000000000003
 30
0.0
 11
68.00000000000006
 21
50.00000000000003
 31
0.0
  0
LINE
  5
64
330
1E
100
AcDbEntity
  8
HILF
100
AcDbLine
 10
20.00000000000004
 20
45.00000000000002
 30
0.0
 11
68.00000000000006
 21
45.00000000000002
 31
0.0
  0
LINE
  5
65
330
1E
100
AcDbEntity
  8
HILF
100
AcDbLine
 10
20.00000000000004
 20
39.99999999999997
 30
0.0
 11
68.00000000000006
 21
39.99999999999997
 31
0.0
  0
LINE
  5
66
330
1E
100
AcDbEntity
  8
HILF
100
AcDbLine
 10
20.00000000000004
 20
34.99999999999997
 30
0.0
 11
68.00000000000006
 21
34.99999999999997
 31
0.0
  0
LINE
  5
67
330
1E
100
AcDbEntity
  8
HILF
100
AcDbLine
 10
20.00000000000004
 20
29.99999999999999
 30
0.0
 11
68.00000000000006
 21
29.99999999999999
 31
0.0
  0
LINE
  5
68
330
1E
100
AcDbEntity
  8
HILF
100
AcDbLine
 10
20.00000000000004
 20
24.99999999999999
 30
0.0
 11
68.00000000000006
 21
24.99999999999999
 31
0.0
  0
LINE
  5
69
330
1E
100
AcDbEntity
  8
HILF
100
AcDbLine
 10
20.00000000000004
 20
19.99999999999998
 30
0.0
 11
68.00000000000006
 21
19.99999999999998
 31
0.0
  0
LINE
  5
6A
330
1E
100
AcDbEntity
  8
HILF
100
AcDbLine
 10
68.00000000000006
 20
34.99999999999997
 30
0.0
 11
110.0
 21
34.99999999999997
 31
0.0
  0
LINE
  5
6B
330
1E
100
AcDbEntity
  8
HILF
100
AcDbLine
 10
68.00000000000006
 20
29.99999999999999
 30
0.0
 11
110.0
 21
29.99999999999999
 31
0.0
  0
LINE
  5
6C
330
1E
100
AcDbEntity
  8
HILF
100
AcDbLine
 10
68.00000000000006
 20
24.99999999999999
 30
0.0
 11
110.0
 21
24.99999999999999
 31
0.0
  0
LINE
  5
6D
330
1E
100
AcDbEntity
  8
HILF
100
AcDbLine
 10
112.3868400548474
 20
42.01879123782069
 30
0.0
 11
162.4176958278155
 21
42.01879123782069
 31
0.0
  0
LINE
  5
6E
330
1E
100
AcDbEntity
  8
HILF
100
AcDbLine
 10
112.3868400548474
 20
34.99999999999997
 30
0.0
 11
162.4176958278155
 21
34.99999999999997
 31
0.0
  0
LINE
  5
6F
330
1E
100
AcDbEntity
  8
HILF
100
AcDbLine
 10
112.3868400548474
 20
29.99999999999999
 30
0.0
 11
162.4176958278155
 21
29.99999999999999
 31
0.0
  0
LINE
  5
70
330
1E
100
AcDbEntity
  8
HILF
100
AcDbLine
 10
112.3868400548474
 20
24.99999999999999
 30
0.0
 11
162.4176958278155
 21
24.99999999999999
 31
0.0
  0
LINE
  5
71
330
1E
100
AcDbEntity
  8
VOLL
100
AcDbLine
 10
166.0
 20
30.0
 30
0.0
 11
205.0
 21
30.0
 31
0.0
  0
LINE
  5
72
330
1E
100
AcDbEntity
  8
HILF
100
AcDbLine
 10
168.3619308148496
 20
41.88991818477913
 30
0.0
 11
202.4294419663364
 21
41.88991818477913
 31
0.0
  0
LINE
  5
73
330
1E
100
AcDbEntity
  8
HILF
100
AcDbLine
 10
111.7454849644942
 20
7.446991290141568
 30
0.0
 11
202.4294419663364
 21
7.446991290141568
 31
0.0
  0
TEXT
  5
74
330
1E
100
AcDbEntity
  8
TEXT
100
AcDbText
 10
31.9308298981591
 20
9.336909474920659
 30
0.0
 40
2.0
  1
Änderung
 41
0.8
  7
GREEKS
 72
     1
 11
37.30225846958767
 21
9.336909474920659
 31
0.0
100
AcDbText
  0
TEXT
  5
75
330
1E
100
AcDbEntity
  8
TEXT
100
AcDbText
 10
71.75817860751886
 20
51.23104475435443
 30
0.0
 40
2.5
  1
Maßstab
 41
0.8
  7
GREEKS
100
AcDbText
  0
TEXT
  5
76
330
1E
100
AcDbEntity
  8
TEXT
100
AcDbText
 10
92.14294773670257
 20
51.20920842174095
 30
0.0
 40
2.5
  1
Zul. Abw.
 41
0.8
  7
GREEKS
100
AcDbText
  0
TEXT
  5
77
330
1E
100
AcDbEntity
  8
TEXT
100
AcDbText
 10
112.4389701904505
 20
51.27446640058898
 30
0.0
 40
2.5
  1
Benennung
 41
0.8
  7
GREEKS
100
AcDbText
  0
TEXT
  5
78
330
1E
100
AcDbEntity
  8
TEXT
100
AcDbText
 10
168.089377478817
 20
51.15660172685682
 30
0.0
 40
2.5
  1
Zeichnungs Nr.
 41
0.8
  7
GREEKS
100
AcDbText
  0
TEXT
  5
79
330
1E
100
AcDbEntity
  8
TEXT
100
AcDbText
 10
112.371119195568
 20
15.42280285096528
 30
0.0
 40
2.5
  1
Bauvorhaben
 41
0.8
  7
GREEKS
100
AcDbText
  0
TEXT
  5
7A
330
1E
100
AcDbEntity
  8
TEXT
100
AcDbText
 10
168.3619308148496
 20
36.59059118549985
 30
0.0
 40
2.5
  1
Ersatz für:
 41
0.8
  7
GREEKS
100
AcDbText
  0
TEXT
  5
7B
330
1E
100
AcDbEntity
  8
TEXT
100
AcDbText
 10
24.13320553522878
 20
6.827329230135958
 30
0.0
 40
2.0
  1
Index
 50
90.0
 41
0.8
  7
GREEKS
100
AcDbText
  0
TEXT
  5
7C
330
1E
100
AcDbEntity
  8
TEXT
100
AcDbText
 10
50.04673380377405
 20
9.33578134669905
 30
0.0
 40
2.0
  1
Tag
 41
0.8
  7
GREEKS
 72
     1
 11
51.91340047044072
 21
9.33578134669905
 31
0.0
100
AcDbText
  0
TEXT
  5
7D
330
1E
100
AcDbEntity
  8
TEXT
100
AcDbText
 10
59.50613721932963
 20
9.29662108483204
 30
0.0
 40
2.0
  1
Name
 41
0.8
  7
GREEKS
 72
     1
 11
62.66804198123439
 21
9.29662108483204
 31
0.0
100
AcDbText
  0
TEXT
  5
7E
330
1E
100
AcDbEntity
  8
TEXT
100
AcDbText
 10
81.16558365768254
 20
36.65940250614963
 30
0.0
 40
2.0
  1
Tag
 41
0.8
  7
GREEKS
100
AcDbText
  0
TEXT
  5
7F
330
1E
100
AcDbEntity
  8
TEXT
100
AcDbText
 10
96.23132921131475
 20
36.65480545957612
 30
0.0
 40
2.0
  1
Name
 41
0.8
  7
GREEKS
100
AcDbText
  0
TEXT
  5
80
330
1E
100
AcDbEntity
  8
TEXT
100
AcDbText
 10
68.79180635838077
 20
31.81495184808982
 30
0.0
 40
2.0
  1
Gez.
 41
0.8
  7
GREEKS
100
AcDbText
  0
TEXT
  5
81
330
1E
100
AcDbEntity
  8
TEXT
100
AcDbText
 10
68.77575432858361
 20
26.84463145714189
 30
0.0
 40
2.0
  1
Gepr.
 41
0.8
  7
GREEKS
100
AcDbText
  0
TEXT
  5
82
330
1E
100
AcDbEntity
  8
TEXT
100
AcDbText
 10
68.80033886936519
 20
21.76473194824904
 30
0.0
 40
2.0
  1
Norm.
 41
0.8
  7
GREEKS
100
AcDbText
  0
LINE
  5
83
330
1E
100
AcDbEntity
  8
STEMPEL
100
AcDbLine
 10
24.99999999999995
 20
5.0
 30
0.0
 11
205.0
 21
5.0
 31
0.0
  0
TEXT
  5
84
330
1E
100
AcDbEntity
  8
TEXT
100
AcDbText
 10
168.6200430748503
 20
26.03708088939301
 30
0.0
 40
2.5
  1
ersetzt durch:
 41
0.8
  7
GREEKS
100
AcDbText
  0
LINE
  5
85
330
1E
100
AcDbEntity
  8
STEMPEL
100
AcDbLine
 10
205.0
 20
5.0
 30
0.0
 11
19.99999999999994
 21
5.0
 31
0.0
  0
LINE
  5
86
330
1E
100
AcDbEntity
  8
STEMPEL
100
AcDbLine
 10
205.0
 20
5.0
 30
0.0
 11
205.0
 21
292.0
 31
0.0
  0
LINE
  5
87
330
1E
100
AcDbEntity
  8
STEMPEL
100
AcDbLine
 10
20.0
 20
5.0
 30
0.0
 11
19.99999999999994
 21
292.0
 31
0.0
  0
LINE
  5
88
330
1E
100
AcDbEntity
  8
STEMPEL
100
AcDbLine
 10
205.0
 20
292.0
 30
0.0
 11
19.99999999999994
 21
292.0
 31
0.0
  0
LINE
  5
89
330
1E
100
AcDbEntity
  8
HILF
100
AcDbLine
 10
0.0
 20
0.0
 30
0.0
 11
-0.0000000000000568
 21
297.0
 31
0.0
  0
LINE
  5
8A
330
1E
100
AcDbEntity
  8
HILF
100
AcDbLine
 10
210.0
 20
297.0000000000001
 30
0.0
 11
0.0
 21
297.0
 31
0.0
  0
LINE
  5
8B
330
1E
100
AcDbEntity
  8
HILF
100
AcDbLine
 10
210.0
 20
0.0
 30
0.0
 11
0.0
 21
0.0
 31
0.0
  0
LINE
  5
8C
330
1E
100
AcDbEntity
  8
HILF
100
AcDbLine
 10
15.54383567856928
 20
148.5
 30
0.0
 11
0.0000000000000568
 21
148.5
 31
0.0
  0
TEXT
  5
8D
330
1E
100
AcDbEntity
  8
TEXT
100
AcDbText
 10
69.31105491105199
 20
36.57012735575833
 30
0.0
 40
2.0
  1
2012
 41
0.8
  7
GREEKS
100
AcDbText
  0
LINE
  5
8E
330
1E
100
AcDbEntity
  8
HILF
100
AcDbLine
 10
210.0
 20
-0.0000000000000568
 30
0.0
 11
210.0
 21
297.0
 31
0.0
  0
TEXT
  5
8F
330
1E
100
AcDbEntity
  8
VOLL
100
AcDbText
 10
78.07675471698113
 20
31.02594776470585
 30
0.0
 40
1.8
  1

  7
GREEKS
100
AcDbText
  0
TEXT
  5
90
330
1E
100
AcDbEntity
  8
TEXT
100
AcDbText
 10
20.92754975488837
 20
55.83599999999997
 30
0.0
 40
2.5
  1
Erstellt mit AUTOCAD 2004
 41
0.8
  7
GREEKS
100
AcDbText
  0
TEXT
  5
91
330
1E
100
AcDbEntity
  8
TEXT
100
AcDbText
 10
97.21080242906285
 20
31.54481959861755
 30
0.0
 40
2.0
  1
Koeh
 41
0.8
  7
GREEKS
 72
     1
 11
99.83937385763429
 21
31.54481959861755
 31
0.0
100
AcDbText
  0
TEXT
  5
92
330
1E
100
AcDbEntity
  8
TEXT
 62
     1
100
AcDbText
 10
173.2386094390079
 20
44.07450714456979
 30
0.0
 40
3.5
  1
00990050W
 41
0.8
  7
GREEKS
 72
     1
 11
185.2386094390079
 21
44.07450714456979
 31
0.0
100
AcDbText
  0
TEXT
  5
93
330
1E
100
AcDbEntity
  8
TEXT
 62
     1
100
AcDbText
 10
75.25031532409435
 20
44.07450714456979
 30
0.0
 40
3.5
  1
1:1
 41
0.8
  7
GREEKS
100
AcDbText
  0
TEXT
  5
94
330
1E
100
AcDbEntity
  8
TEXT
100
AcDbText
 10
80.35187950649897
 20
31.55382520412866
 30
0.0
 40
2.0
  1
29.10.
 41
0.8
  7
GREEKS
 72
     1
 11
83.70426045887993
 21
31.55382520412866
 31
0.0
100
AcDbText
  0
TEXT
  5
95
330
1E
100
AcDbEntity
  8
TEXT
 62
     1
100
AcDbText
 10
113.4467865528701
 20
43.70874394626889
 30
0.0
 40
3.5
  1
Rohrschelle DN50
 41
0.8
  7
GREEKS
100
AcDbText
  0
TEXT
  5
96
330
1E
100
AcDbEntity
  8
TEXT
100
AcDbText
 10
112.5648195562657
 20
35.75167208792644
 30
0.0
 40
2.5
  1
mit Schlagstift
 41
0.8
  7
GREEKS
100
AcDbText
  0
TEXT
  5
98
330
1E
100
AcDbEntity
  8
TEXT
100
AcDbText
 10
112.5648195562657
 20
25.82005971521079
 30
0.0
 40
2.5
  1
EDV-Art.Nr. 00990.050X
 41
0.8
  7
GREEKS
100
AcDbText
  0
TEXT
  5
99
330
1E
100
AcDbEntity
  8
TEXT
100
AcDbText
 10
112.4918750788913
 20
21.31487076511316
 30
0.0
 40
2.0
  1
00990050W.DWG
 41
0.8
  7
GREEKS
100
AcDbText
  0
TEXT
  5
9A
330
1E
100
AcDbEntity
  8
TEXT
100
AcDbText
 10
91.31306610404202
 20
45.38181920511511
 30
0.0
 40
2.0
  1
DIN EN1123-2
 41
0.8
  7
GREEKS
 72
     1
 11
99.80830419928011
 21
45.38181920511511
 31
0.0
100
AcDbText
  0
INSERT
  5
9B
330
1E
100
AcDbEntity
  8
STEMPEL
100
AcDbBlockReference
  2
LOGO
 10
70.4977742728897
 20
22.51052638224161
 30
0.0
  0
TEXT
  5
118
330
1E
100
AcDbEntity
  8
BEM
100
AcDbText
 10
208.6511461928583
 20
5.083950539994247
 30
0.0
 40
2.0
  1
Diese Zeichnung ist urheberrechtlich geschützt und bleibt unser Eigentum. Sie darf weder ganz noch teilweise verfielfältigt und nicht an Dritte weitergegeben werden.
 50
90.0
 41
0.8
  7
GREEKS
100
AcDbText
  0
TEXT
  5
C1B
330
1E
100
AcDbEntity
  8
TEXT
 62
     1
100
AcDbText
 10
155.2758108274428
 20
273.1360701905322
 30
0.0
 40
3.5
  1
Schraube M6x16
 41
0.8
  7
GREEKS
100
AcDbText
  0
LINE
  5
C1C
330
1E
100
AcDbEntity
  8
TEXT
 62
     2
100
AcDbLine
 10
154.21586432942
 20
271.446117482084
 30
0.0
 11
191.7167052382353
 21
271.446117482084
 31
0.0
  0
LINE
  5
C1D
330
1E
100
AcDbEntity
  8
TEXT
 62
     2
100
AcDbLine
 10
154.21586432942
 20
271.446117482084
 30
0.0
 11
144.1384756446096
 21
258.9399082323281
 31
0.0
  0
LINE
  5
117B
330
1E
100
AcDbEntity
  8
HILF
100
AcDbLine
 10
141.3597809756921
 20
256.3192971588595
 30
0.0
 11
141.3597809756921
 21
255.8192971588595
 31
0.0
  0
LINE
  5
117C
330
1E
100
AcDbEntity
  8
HILF
100
AcDbLine
 10
145.9597809756921
 20
256.3192971588595
 30
0.0
 11
145.9597809756921
 21
255.8192971588595
 31
0.0
  0
LINE
  5
117D
330
1E
100
AcDbEntity
  8
STEMPEL
100
AcDbLine
 10
138.6597809756922
 20
260.7802971588595
 30
0.0
 11
138.6597809756922
 21
258.3192971588595
 31
0.0
  0
LINE
  5
117E
330
1E
100
AcDbEntity
  8
HILF
100
AcDbLine
 10
138.6597809756922
 20
260.7802971588595
 30
0.0
 11
142.9597809756922
 21
260.7802971588595
 31
0.0
  0
ARC
  5
117F
330
1E
100
AcDbEntity
  8
STEMPEL
100
AcDbCircle
 10
143.6597809756921
 20
252.1192971588595
 30
0.0
 40
10.0
100
AcDbArc
 50
94.01396748799902
 51
119.999985077
  0
LINE
  5
1180
330
1E
100
AcDbEntity
  8
STEMPEL
100
AcDbLine
 10
142.9597809756922
 20
260.4912971588595
 30
0.0
 11
142.9597809756922
 21
262.0952971588595
 31
0.0
  0
LINE
  5
1181
330
1E
100
AcDbEntity
  8
STEMPEL
100
AcDbLine
 10
144.3597809756921
 20
260.4912971588595
 30
0.0
 11
142.9597809756922
 21
260.4912971588595
 31
0.0
  0
LINE
  5
1182
330
1E
100
AcDbEntity
  8
STEMPEL
100
AcDbLine
 10
144.3597809756921
 20
262.0952971588595
 30
0.0
 11
144.3597809756921
 21
260.4912971588595
 31
0.0
  0
LINE
  5
1183
330
1E
100
AcDbEntity
  8
HILF
100
AcDbLine
 10
144.3597809756921
 20
260.7802971588595
 30
0.0
 11
148.6597809756921
 21
260.7802971588596
 31
0.0
  0
ARC
  5
1184
330
1E
100
AcDbEntity
  8
STEMPEL
100
AcDbCircle
 10
143.6597809756921
 20
252.1192971588595
 30
0.0
 40
10.0
100
AcDbArc
 50
59.99999358400034
 51
85.98594517699956
  0
LINE
  5
1185
330
1E
100
AcDbEntity
  8
STEMPEL
100
AcDbLine
 10
148.6597809756921
 20
258.3192971588595
 30
0.0
 11
148.6597809756921
 21
260.7802971588595
 31
0.0
  0
LINE
  5
1186
330
1E
100
AcDbEntity
  8
STEMPEL
100
AcDbLine
 10
146.6597809756921
 20
253.3192971588595
 30
0.0
 11
146.6597809756921
 21
256.6552971588595
 31
0.0
  0
LINE
  5
1187
330
1E
100
AcDbEntity
  8
STEMPEL
100
AcDbLine
 10
140.6597809756922
 20
253.3192971588595
 30
0.0
 11
140.6597809756922
 21
256.3192971588595
 31
0.0
  0
LINE
  5
1188
330
1E
100
AcDbEntity
  8
STEMPEL
100
AcDbLine
 10
140.6597809756922
 20
244.3192971588595
 30
0.0
 11
140.6597809756922
 21
249.8192971588595
 31
0.0
  0
LINE
  5
1189
330
1E
100
AcDbEntity
  8
HILF
100
AcDbLine
 10
141.3597809756921
 20
243.1072971588595
 30
0.0
 11
141.3597809756921
 21
249.8192971588595
 31
0.0
  0
LINE
  5
118A
330
1E
100
AcDbEntity
  8
STEMPEL
100
AcDbLine
 10
140.6597809756922
 20
244.3192971588595
 30
0.0
 11
141.8147809756922
 21
242.3192971588595
 31
0.0
  0
LINE
  5
118B
330
1E
100
AcDbEntity
  8
STEMPEL
100
AcDbLine
 10
141.8147809756922
 20
242.3192971588595
 30
0.0
 11
145.5047809756921
 21
242.3192971588595
 31
0.0
  0
LINE
  5
118C
330
1E
100
AcDbEntity
  8
STEMPEL
100
AcDbLine
 10
145.5047809756921
 20
242.3192971588595
 30
0.0
 11
146.6597809756921
 21
244.3192971588595
 31
0.0
  0
LINE
  5
118D
330
1E
100
AcDbEntity
  8
STEMPEL
100
AcDbLine
 10
146.6597809756921
 20
244.3192971588595
 30
0.0
 11
140.6597809756922
 21
244.3192971588595
 31
0.0
  0
LINE
  5
118E
330
1E
100
AcDbEntity
  8
HILF
100
AcDbLine
 10
145.9597809756921
 20
243.1072971588595
 30
0.0
 11
145.9597809756921
 21
249.8192971588595
 31
0.0
  0
LINE
  5
118F
330
1E
100
AcDbEntity
  8
STEMPEL
100
AcDbLine
 10
146.6597809756921
 20
244.3192971588595
 30
0.0
 11
146.6597809756921
 21
249.8192971588595
 31
0.0
  0
LINE
  5
1190
330
1E
100
AcDbEntity
  8
STEMPEL
100
AcDbLine
 10
76.09178097569219
 20
258.3192971588595
 30
0.0
 11
76.09178097569219
 21
260.7802971588595
 31
0.0
  0
LINE
  5
1191
330
1E
100
AcDbEntity
  8
HILF
100
AcDbLine
 10
71.7917809756922
 20
260.7802971588595
 30
0.0
 11
76.09178097569219
 21
260.7802971588595
 31
0.0
  0
ARC
  5
1192
330
1E
100
AcDbEntity
  8
STEMPEL
100
AcDbCircle
 10
71.09178097569219
 20
252.1192971588595
 30
0.0
 40
10.0
100
AcDbArc
 50
59.99999358400034
 51
85.98594517699956
  0
LINE
  5
1193
330
1E
100
AcDbEntity
  8
STEMPEL
100
AcDbLine
 10
71.79178097569217
 20
262.0952971588595
 30
0.0
 11
71.79178097569217
 21
260.4912971588595
 31
0.0
  0
LINE
  5
1194
330
1E
100
AcDbEntity
  8
STEMPEL
100
AcDbLine
 10
71.79178097569217
 20
260.4912971588595
 30
0.0
 11
70.39178097569217
 21
260.4912971588595
 31
0.0
  0
LINE
  5
1195
330
1E
100
AcDbEntity
  8
STEMPEL
100
AcDbLine
 10
70.39178097569217
 20
260.4912971588595
 30
0.0
 11
70.39178097569217
 21
262.0952971588595
 31
0.0
  0
LINE
  5
1196
330
1E
100
AcDbEntity
  8
HILF
100
AcDbLine
 10
66.09178097569219
 20
260.7802971588595
 30
0.0
 11
70.39178097569217
 21
260.7802971588595
 31
0.0
  0
ARC
  5
1197
330
1E
100
AcDbEntity
  8
STEMPEL
100
AcDbCircle
 10
71.09178097569219
 20
252.1192971588595
 30
0.0
 40
10.0
100
AcDbArc
 50
94.01396748799902
 51
119.999985077
  0
LINE
  5
1198
330
1E
100
AcDbEntity
  8
STEMPEL
100
AcDbLine
 10
66.09178097569219
 20
260.7802971588595
 30
0.0
 11
66.09178097569219
 21
258.3192971588595
 31
0.0
  0
LINE
  5
119B
330
1E
100
AcDbEntity
  8
STEMPEL
100
AcDbLine
 10
74.09178097569219
 20
253.3192971588595
 30
0.0
 11
74.09178097569219
 21
256.3192971588595
 31
0.0
  0
LINE
  5
119C
330
1E
100
AcDbEntity
  8
HILF
100
AcDbLine
 10
73.39178097569217
 20
253.3192971588595
 30
0.0
 11
73.39178097569217
 21
255.8192971588595
 31
0.0
  0
LINE
  5
119D
330
1E
100
AcDbEntity
  8
HILF
100
AcDbLine
 10
68.09178097569219
 20
255.8192971588595
 30
0.0
 11
74.09178097569219
 21
255.8192971588595
 31
0.0
  0
LINE
  5
119E
330
1E
100
AcDbEntity
  8
HILF
100
AcDbLine
 10
68.79178097569218
 20
253.3192971588595
 30
0.0
 11
68.79178097569218
 21
255.8192971588595
 31
0.0
  0
LINE
  5
119F
330
1E
100
AcDbEntity
  8
STEMPEL
100
AcDbLine
 10
68.09178097569219
 20
253.3192971588595
 30
0.0
 11
68.09178097569219
 21
256.3192971588595
 31
0.0
  0
LINE
  5
11A0
330
1E
100
AcDbEntity
  8
STEMPEL
100
AcDbLine
 10
68.09178097569219
 20
244.3192971588595
 30
0.0
 11
68.09178097569219
 21
249.8192971588595
 31
0.0
  0
LINE
  5
11A1
330
1E
100
AcDbEntity
  8
HILF
100
AcDbLine
 10
68.79178097569218
 20
243.1072971588595
 30
0.0
 11
68.79178097569218
 21
249.8192971588595
 31
0.0
  0
LINE
  5
11A2
330
1E
100
AcDbEntity
  8
STEMPEL
100
AcDbLine
 10
68.09178097569219
 20
244.3192971588595
 30
0.0
 11
69.24578097569218
 21
242.3192971588595
 31
0.0
  0
LINE
  5
11A3
330
1E
100
AcDbEntity
  8
STEMPEL
100
AcDbLine
 10
69.24578097569218
 20
242.3192971588595
 30
0.0
 11
72.93678097569216
 21
242.3192971588595
 31
0.0
  0
LINE
  5
11A4
330
1E
100
AcDbEntity
  8
STEMPEL
100
AcDbLine
 10
72.93678097569216
 20
242.3192971588595
 30
0.0
 11
74.09178097569219
 21
244.3192971588595
 31
0.0
  0
LINE
  5
11A5
330
1E
100
AcDbEntity
  8
STEMPEL
100
AcDbLine
 10
74.09178097569219
 20
244.3192971588595
 30
0.0
 11
68.09178097569219
 21
244.3192971588595
 31
0.0
  0
LINE
  5
11A6
330
1E
100
AcDbEntity
  8
HILF
100
AcDbLine
 10
73.39178097569217
 20
243.1072971588595
 30
0.0
 11
73.39178097569217
 21
249.8192971588595
 31
0.0
  0
LINE
  5
11A7
330
1E
100
AcDbEntity
  8
STEMPEL
100
AcDbLine
 10
74.09178097569219
 20
244.3192971588595
 30
0.0
 11
74.09178097569219
 21
249.8192971588595
 31
0.0
  0
LINE
  5
11A8
330
1E
100
AcDbEntity
  8
HILF
100
AcDbLine
 10
146.6597809756921
 20
255.8192971588595
 30
0.0
 11
140.6597809756922
 21
255.8192971588595
 31
0.0
  0
LINE
  5
11A9
330
1E
100
AcDbEntity
  8
HILF
100
AcDbLine
 10
79.09178097569219
 20
97.60025467015465
 30
0.0
 11
135.6597809756922
 21
97.60025467015465
 31
0.0
  0
LINE
  5
11AA
330
1E
100
AcDbEntity
  8
HILF
100
AcDbLine
 10
79.09178097569219
 20
107.6002546701546
 30
0.0
 11
135.6597809756922
 21
107.6002546701546
 31
0.0
  0
CIRCLE
  5
11AB
330
1E
100
AcDbEntity
  8
STEMPEL
100
AcDbCircle
 10
143.8747809756921
 20
102.6002546701546
 30
0.0
 40
5.0
  0
LINE
  5
11AC
330
1E
100
AcDbEntity
  8
HILF
100
AcDbLine
 10
144.6247809756921
 20
99.53225467015466
 30
0.0
 11
143.1247809756921
 21
99.53225467015466
 31
0.0
  0
LINE
  5
11AD
330
1E
100
AcDbEntity
  8
HILF
100
AcDbLine
 10
144.6247809756921
 20
105.6692546701546
 30
0.0
 11
143.1247809756921
 21
105.6692546701546
 31
0.0
  0
LINE
  5
11AE
330
1E
100
AcDbEntity
  8
HILF
100
AcDbLine
 10
141.8277809756921
 20
100.5542546701546
 30
0.0
 11
142.8847809756921
 21
101.8502546701546
 31
0.0
  0
LINE
  5
11AF
330
1E
100
AcDbEntity
  8
HILF
100
AcDbLine
 10
143.1247809756921
 20
101.6102546701546
 30
0.0
 11
141.8277809756921
 21
100.5542546701546
 31
0.0
  0
LINE
  5
11B0
330
1E
100
AcDbEntity
  8
HILF
100
AcDbLine
 10
145.9217809756921
 20
100.5542546701546
 30
0.0
 11
144.6247809756921
 21
101.6102546701546
 31
0.0
  0
LINE
  5
11B1
330
1E
100
AcDbEntity
  8
HILF
100
AcDbLine
 10
144.8647809756921
 20
101.8502546701546
 30
0.0
 11
145.9217809756921
 21
100.5542546701546
 31
0.0
  0
LINE
  5
11B2
330
1E
100
AcDbEntity
  8
HILF
100
AcDbLine
 10
145.9217809756921
 20
104.6472546701546
 30
0.0
 11
144.8647809756921
 21
103.3502546701546
 31
0.0
  0
LINE
  5
11B3
330
1E
100
AcDbEntity
  8
HILF
100
AcDbLine
 10
144.6247809756921
 20
103.5902546701546
 30
0.0
 11
145.9217809756921
 21
104.6472546701546
 31
0.0
  0
LINE
  5
11B4
330
1E
100
AcDbEntity
  8
HILF
100
AcDbLine
 10
141.8277809756921
 20
104.6472546701546
 30
0.0
 11
143.1247809756921
 21
103.5902546701546
 31
0.0
  0
LINE
  5
11B5
330
1E
100
AcDbEntity
  8
HILF
100
AcDbLine
 10
142.8847809756921
 20
103.3502546701546
 30
0.0
 11
141.8277809756921
 21
104.6472546701546
 31
0.0
  0
ARC
  5
11B6
330
1E
100
AcDbEntity
  8
HILF
100
AcDbCircle
 10
143.8747809756921
 20
102.6002546701546
 30
0.0
 40
1.274999999999999
100
AcDbArc
 50
143.9687949600006
 51
216.0312050399997
  0
ARC
  5
11B7
330
1E
100
AcDbEntity
  8
HILF
100
AcDbCircle
 10
143.8747809756921
 20
102.6002546701546
 30
0.0
 40
1.274999999999999
100
AcDbArc
 50
233.9687889640006
 51
306.0312110359994
  0
ARC
  5
11B8
330
1E
100
AcDbEntity
  8
HILF
100
AcDbCircle
 10
143.8747809756921
 20
102.6002546701546
 30
0.0
 40
1.274999999999999
100
AcDbArc
 50
323.9688056879995
 51
36.03120503999936
  0
ARC
  5
11B9
330
1E
100
AcDbEntity
  8
HILF
100
AcDbCircle
 10
143.8747809756921
 20
102.6002546701546
 30
0.0
 40
1.274999999999999
100
AcDbArc
 50
53.96878896400039
 51
126.0312110359996
  0
LINE
  5
11BA
330
1E
100
AcDbEntity
  8
STEMPEL
100
AcDbLine
 10
143.1247809756921
 20
103.5502546701547
 30
0.0
 11
143.1247809756921
 21
107.5442546701546
 31
0.0
  0
ARC
  5
11BB
330
1E
100
AcDbEntity
  8
STEMPEL
100
AcDbCircle
 10
142.9247809756921
 20
103.5502546701547
 30
0.0
 40
0.2
100
AcDbArc
 50
270.0
 51
0.0087434429995981
  0
LINE
  5
11BC
330
1E
100
AcDbEntity
  8
STEMPEL
100
AcDbLine
 10
140.5247809756922
 20
103.3502546701546
 30
0.0
 11
142.9247809756921
 21
103.3502546701546
 31
0.0
  0
LINE
  5
11BD
330
1E
100
AcDbEntity
  8
STEMPEL
100
AcDbLine
 10
140.5247809756922
 20
101.8502546701546
 30
0.0
 11
140.5247809756922
 21
103.3502546701546
 31
0.0
  0
LINE
  5
11BE
330
1E
100
AcDbEntity
  8
STEMPEL
100
AcDbLine
 10
142.9247809756921
 20
101.8502546701546
 30
0.0
 11
140.5247809756922
 21
101.8502546701546
 31
0.0
  0
ARC
  5
11BF
330
1E
100
AcDbEntity
  8
STEMPEL
100
AcDbCircle
 10
142.9247809756921
 20
101.6502546701546
 30
0.0
 40
0.2
100
AcDbArc
 50
0.0
 51
90.0
  0
LINE
  5
11C0
330
1E
100
AcDbEntity
  8
STEMPEL
100
AcDbLine
 10
143.1247809756921
 20
97.65725467015466
 30
0.0
 11
143.1247809756921
 21
101.6502546701546
 31
0.0
  0
LINE
  5
11C1
330
1E
100
AcDbEntity
  8
STEMPEL
100
AcDbLine
 10
144.6247809756921
 20
101.6502546701546
 30
0.0
 11
144.6247809756921
 21
97.65725467015466
 31
0.0
  0
ARC
  5
11C2
330
1E
100
AcDbEntity
  8
STEMPEL
100
AcDbCircle
 10
144.8247809756921
 20
101.6502546701546
 30
0.0
 40
0.2
100
AcDbArc
 50
90.0
 51
180.0
  0
LINE
  5
11C3
330
1E
100
AcDbEntity
  8
STEMPEL
100
AcDbLine
 10
147.2247809756921
 20
101.8502546701546
 30
0.0
 11
144.8247809756921
 21
101.8502546701546
 31
0.0
  0
LINE
  5
11C4
330
1E
100
AcDbEntity
  8
STEMPEL
100
AcDbLine
 10
147.2247809756921
 20
103.3502546701546
 30
0.0
 11
147.2247809756921
 21
101.8502546701546
 31
0.0
  0
LINE
  5
11C5
330
1E
100
AcDbEntity
  8
STEMPEL
100
AcDbLine
 10
144.8247809756921
 20
103.3502546701546
 30
0.0
 11
147.2247809756921
 21
103.3502546701546
 31
0.0
  0
ARC
  5
11C6
330
1E
100
AcDbEntity
  8
STEMPEL
100
AcDbCircle
 10
144.8247809756921
 20
103.5502546701547
 30
0.0
 40
0.2
100
AcDbArc
 50
180.0
 51
270.0087434429996
  0
LINE
  5
11C7
330
1E
100
AcDbEntity
  8
STEMPEL
100
AcDbLine
 10
144.6247809756921
 20
107.5442546701546
 30
0.0
 11
144.6247809756921
 21
103.5502546701547
 31
0.0
  0
CIRCLE
  5
11C8
330
1E
100
AcDbEntity
  8
STEMPEL
100
AcDbCircle
 10
70.87678097569218
 20
102.6002546701546
 30
0.0
 40
5.0
  0
LINE
  5
11C9
330
1E
100
AcDbEntity
  8
HILF
100
AcDbLine
 10
71.62678097569219
 20
99.53225467015466
 30
0.0
 11
70.12678097569218
 21
99.53225467015466
 31
0.0
  0
LINE
  5
11CA
330
1E
100
AcDbEntity
  8
HILF
100
AcDbLine
 10
71.62678097569219
 20
105.6692546701546
 30
0.0
 11
70.12678097569218
 21
105.6692546701546
 31
0.0
  0
LINE
  5
11CB
330
1E
100
AcDbEntity
  8
HILF
100
AcDbLine
 10
68.82978097569216
 20
100.5542546701546
 30
0.0
 11
69.88678097569217
 21
101.8502546701546
 31
0.0
  0
LINE
  5
11CC
330
1E
100
AcDbEntity
  8
HILF
100
AcDbLine
 10
70.12678097569218
 20
101.6102546701546
 30
0.0
 11
68.82978097569216
 21
100.5542546701546
 31
0.0
  0
LINE
  5
11CD
330
1E
100
AcDbEntity
  8
HILF
100
AcDbLine
 10
72.92278097569218
 20
100.5542546701546
 30
0.0
 11
71.62678097569219
 21
101.6102546701546
 31
0.0
  0
LINE
  5
11CE
330
1E
100
AcDbEntity
  8
HILF
100
AcDbLine
 10
71.86578097569216
 20
101.8502546701546
 30
0.0
 11
72.92278097569218
 21
100.5542546701546
 31
0.0
  0
LINE
  5
11CF
330
1E
100
AcDbEntity
  8
HILF
100
AcDbLine
 10
72.92278097569218
 20
104.6472546701546
 30
0.0
 11
71.86578097569216
 21
103.3502546701546
 31
0.0
  0
LINE
  5
11D0
330
1E
100
AcDbEntity
  8
HILF
100
AcDbLine
 10
71.62678097569219
 20
103.5902546701546
 30
0.0
 11
72.92278097569218
 21
104.6472546701546
 31
0.0
  0
LINE
  5
11D1
330
1E
100
AcDbEntity
  8
HILF
100
AcDbLine
 10
68.82978097569216
 20
104.6472546701546
 30
0.0
 11
70.12678097569218
 21
103.5902546701546
 31
0.0
  0
LINE
  5
11D2
330
1E
100
AcDbEntity
  8
HILF
100
AcDbLine
 10
69.88678097569217
 20
103.3502546701546
 30
0.0
 11
68.82978097569216
 21
104.6472546701546
 31
0.0
  0
ARC
  5
11D3
330
1E
100
AcDbEntity
  8
HILF
100
AcDbCircle
 10
70.87678097569218
 20
102.6002546701546
 30
0.0
 40
1.274999999999999
100
AcDbArc
 50
143.9687949600006
 51
216.0312050399997
  0
ARC
  5
11D4
330
1E
100
AcDbEntity
  8
HILF
100
AcDbCircle
 10
70.87678097569218
 20
102.6002546701546
 30
0.0
 40
1.274999999999999
100
AcDbArc
 50
233.9687889640006
 51
306.0312110359994
  0
ARC
  5
11D5
330
1E
100
AcDbEntity
  8
HILF
100
AcDbCircle
 10
70.87678097569218
 20
102.6002546701546
 30
0.0
 40
1.274999999999999
100
AcDbArc
 50
323.9688056879995
 51
36.03120503999936
  0
ARC
  5
11D6
330
1E
100
AcDbEntity
  8
STEMPEL
100
AcDbCircle
 10
70.87678097569218
 20
102.6002546701546
 30
0.0
 40
1.274999999999999
100
AcDbArc
 50
53.96878896400039
 51
126.0312110359996
  0
LINE
  5
11D7
330
1E
100
AcDbEntity
  8
STEMPEL
100
AcDbLine
 10
70.12678097569218
 20
103.5502546701547
 30
0.0
 11
70.12678097569218
 21
107.5442546701546
 31
0.0
  0
ARC
  5
11D8
330
1E
100
AcDbEntity
  8
STEMPEL
100
AcDbCircle
 10
69.92678097569217
 20
103.5502546701547
 30
0.0
 40
0.2
100
AcDbArc
 50
270.0
 51
0.0087434429995981
  0
LINE
  5
11D9
330
1E
100
AcDbEntity
  8
STEMPEL
100
AcDbLine
 10
67.52678097569216
 20
103.3502546701546
 30
0.0
 11
69.92678097569217
 21
103.3502546701546
 31
0.0
  0
LINE
  5
11DA
330
1E
100
AcDbEntity
  8
STEMPEL
100
AcDbLine
 10
67.52678097569216
 20
101.8502546701546
 30
0.0
 11
67.52678097569216
 21
103.3502546701546
 31
0.0
  0
LINE
  5
11DB
330
1E
100
AcDbEntity
  8
STEMPEL
100
AcDbLine
 10
69.92678097569217
 20
101.8502546701546
 30
0.0
 11
67.52678097569216
 21
101.8502546701546
 31
0.0
  0
ARC
  5
11DC
330
1E
100
AcDbEntity
  8
STEMPEL
100
AcDbCircle
 10
69.92678097569217
 20
101.6502546701546
 30
0.0
 40
0.2
100
AcDbArc
 50
0.0
 51
90.0
  0
LINE
  5
11DD
330
1E
100
AcDbEntity
  8
STEMPEL
100
AcDbLine
 10
70.12678097569218
 20
97.65725467015466
 30
0.0
 11
70.12678097569218
 21
101.6502546701546
 31
0.0
  0
LINE
  5
11DE
330
1E
100
AcDbEntity
  8
STEMPEL
100
AcDbLine
 10
71.62678097569219
 20
101.6502546701546
 30
0.0
 11
71.62678097569219
 21
97.65725467015466
 31
0.0
  0
ARC
  5
11DF
330
1E
100
AcDbEntity
  8
STEMPEL
100
AcDbCircle
 10
71.82678097569217
 20
101.6502546701546
 30
0.0
 40
0.2
100
AcDbArc
 50
90.0
 51
180.0
  0
LINE
  5
11E0
330
1E
100
AcDbEntity
  8
STEMPEL
100
AcDbLine
 10
74.22678097569212
 20
101.8502546701546
 30
0.0
 11
71.82678097569217
 21
101.8502546701546
 31
0.0
  0
LINE
  5
11E1
330
1E
100
AcDbEntity
  8
STEMPEL
100
AcDbLine
 10
74.22678097569212
 20
103.3502546701546
 30
0.0
 11
74.22678097569212
 21
101.8502546701546
 31
0.0
  0
LINE
  5
11E2
330
1E
100
AcDbEntity
  8
STEMPEL
100
AcDbLine
 10
71.82678097569217
 20
103.3502546701546
 30
0.0
 11
74.22678097569212
 21
103.3502546701546
 31
0.0
  0
ARC
  5
11E3
330
1E
100
AcDbEntity
  8
STEMPEL
100
AcDbCircle
 10
71.82678097569217
 20
103.5502546701547
 30
0.0
 40
0.2
100
AcDbArc
 50
180.0
 51
270.0087434429996
  0
LINE
  5
11E4
330
1E
100
AcDbEntity
  8
STEMPEL
100
AcDbLine
 10
71.62678097569219
 20
107.5442546701546
 30
0.0
 11
71.62678097569219
 21
103.5502546701547
 31
0.0
  0
ARC
  5
11E5
330
1E
100
AcDbEntity
  8
STEMPEL
100
AcDbCircle
 10
126.8747809756921
 20
102.6002546701546
 30
0.0
 40
25.0
100
AcDbArc
 50
329.9999596189996
 51
29.99995961899975
  0
ARC
  5
11E6
330
1E
100
AcDbEntity
  8
STEMPEL
100
AcDbCircle
 10
87.87678097569221
 20
102.6002546701546
 30
0.0
 40
25.0
100
AcDbArc
 50
150.0000403810002
 51
210.0000403809996
  0
LINE
  5
11E7
330
1E
100
AcDbEntity
  8
STEMPEL
100
AcDbLine
 10
146.3807809756922
 20
95.28325467015463
 30
0.0
 11
147.8267809756921
 21
95.08025467015466
 31
0.0
  0
LINE
  5
11E8
330
1E
100
AcDbEntity
  8
HILF
100
AcDbLine
 10
79.09178097569219
 20
115.1002546701546
 30
0.0
 11
79.09178097569219
 21
90.10025467015465
 31
0.0
  0
LINE
  5
11E9
330
1E
100
AcDbEntity
  8
HILF
100
AcDbLine
 10
135.6597809756922
 20
115.1002546701546
 30
0.0
 11
135.6597809756922
 21
90.10025467015465
 31
0.0
  0
LINE
  5
11EA
330
1E
100
AcDbEntity
  8
MITTEL
100
AcDbLine
 10
107.3757809756922
 20
120.1002546701546
 30
0.0
 11
107.3757809756921
 21
85.10025467015465
 31
0.0
  0
LINE
  5
11EB
330
1E
100
AcDbEntity
  8
MITTEL
100
AcDbLine
 10
70.87678097569218
 20
112.6002546701546
 30
0.0
 11
70.87678097569218
 21
92.60025467015465
 31
0.0
  0
LINE
  5
11EC
330
1E
100
AcDbEntity
  8
MITTEL
100
AcDbLine
 10
57.87678097569219
 20
102.6002546701546
 30
0.0
 11
156.8747809756921
 21
102.6002546701546
 31
0.0
  0
LINE
  5
11ED
330
1E
100
AcDbEntity
  8
MITTEL
100
AcDbLine
 10
143.8747809756921
 20
92.60025467015465
 30
0.0
 11
143.8747809756921
 21
112.6002546701546
 31
0.0
  0
LINE
  5
11EE
330
1E
100
AcDbEntity
  8
STEMPEL
100
AcDbLine
 10
147.8267809756921
 20
95.08025467015466
 30
0.0
 11
147.1267809756921
 21
90.10025467015465
 31
0.0
  0
LINE
  5
11F0
330
1E
100
AcDbEntity
  8
STEMPEL
100
AcDbLine
 10
146.8437809756921
 20
98.57725467015463
 30
0.0
 11
145.6527809756921
 21
90.10025467015465
 31
0.0
  0
LINE
  5
11F1
330
1E
100
AcDbEntity
  8
STEMPEL
100
AcDbLine
 10
138.5837809756921
 20
90.10025467015465
 30
0.0
 11
139.9117809756921
 21
99.55125467015466
 31
0.0
  0
LINE
  5
11F2
330
1E
100
AcDbEntity
  8
STEMPEL
100
AcDbLine
 10
66.22578097569217
 20
90.10025467015465
 30
0.0
 11
148.5254160703031
 21
90.10025467015465
 31
0.0
  0
LINE
  5
11F3
330
1E
100
AcDbEntity
  8
STEMPEL
100
AcDbLine
 10
148.5257809756921
 20
115.1002546701546
 30
0.0
 11
66.22578097569217
 21
115.1002546701546
 31
0.0
  0
LINE
  5
11F4
330
1E
100
AcDbEntity
  8
STEMPEL
100
AcDbLine
 10
113.6257809756922
 20
211.3192971588595
 30
0.0
 11
110.3757809756922
 21
208.0692971588595
 31
0.0
  0
LINE
  5
11F5
330
1E
100
AcDbEntity
  8
STEMPEL
100
AcDbLine
 10
101.1257809756922
 20
211.3192971588595
 30
0.0
 11
104.3757809756922
 21
208.0692971588595
 31
0.0
  0
LINE
  5
11F6
330
1E
100
AcDbEntity
  8
STEMPEL
100
AcDbLine
 10
110.3757809756922
 20
142.5162971588595
 30
0.0
 11
110.3757809756922
 21
208.0692971588595
 31
0.0
  0
LINE
  5
11F7
330
1E
100
AcDbEntity
  8
STEMPEL
100
AcDbLine
 10
104.3757809756922
 20
142.5162971588595
 30
0.0
 11
104.3757809756922
 21
208.0692971588595
 31
0.0
  0
LINE
  5
11F8
330
1E
100
AcDbEntity
  8
STEMPEL
100
AcDbLine
 10
107.3757809756922
 20
131.3192971588595
 30
0.0
 11
110.3757809756922
 21
142.5162971588595
 31
0.0
  0
LINE
  5
11F9
330
1E
100
AcDbEntity
  8
STEMPEL
100
AcDbLine
 10
107.3757809756922
 20
131.3192971588595
 30
0.0
 11
104.3757809756922
 21
142.5162971588595
 31
0.0
  0
LINE
  5
11FA
330
1E
100
AcDbEntity
  8
HILF
100
AcDbLine
 10
110.3757809756922
 20
181.0692971588595
 30
0.0
 11
110.7597809756921
 21
181.0692971588595
 31
0.0
  0
LINE
  5
11FB
330
1E
100
AcDbEntity
  8
HILF
100
AcDbLine
 10
110.3757809756922
 20
185.0692971588595
 30
0.0
 11
110.7597809756921
 21
185.0692971588595
 31
0.0
  0
LINE
  5
11FC
330
1E
100
AcDbEntity
  8
HILF
100
AcDbLine
 10
110.3757809756922
 20
189.0692971588595
 30
0.0
 11
110.7597809756921
 21
189.0692971588595
 31
0.0
  0
LINE
  5
11FD
330
1E
100
AcDbEntity
  8
HILF
100
AcDbLine
 10
110.3757809756922
 20
193.0692971588595
 30
0.0
 11
110.7597809756921
 21
193.0692971588595
 31
0.0
  0
LINE
  5
11FE
330
1E
100
AcDbEntity
  8
HILF
100
AcDbLine
 10
110.3757809756922
 20
197.0692971588595
 30
0.0
 11
110.7597809756921
 21
197.0692971588595
 31
0.0
  0
LINE
  5
11FF
330
1E
100
AcDbEntity
  8
HILF
100
AcDbLine
 10
104.3757809756922
 20
197.0692971588595
 30
0.0
 11
103.9907809756922
 21
197.0692971588595
 31
0.0
  0
LINE
  5
1200
330
1E
100
AcDbEntity
  8
HILF
100
AcDbLine
 10
104.3757809756922
 20
193.0692971588595
 30
0.0
 11
103.9907809756922
 21
193.0692971588595
 31
0.0
  0
LINE
  5
1201
330
1E
100
AcDbEntity
  8
HILF
100
AcDbLine
 10
104.3757809756922
 20
189.0692971588595
 30
0.0
 11
103.9907809756922
 21
189.0692971588595
 31
0.0
  0
LINE
  5
1202
330
1E
100
AcDbEntity
  8
HILF
100
AcDbLine
 10
104.3757809756922
 20
185.0692971588595
 30
0.0
 11
103.9907809756922
 21
185.0692971588595
 31
0.0
  0
LINE
  5
1203
330
1E
100
AcDbEntity
  8
HILF
100
AcDbLine
 10
104.3757809756922
 20
181.0692971588595
 30
0.0
 11
103.9907809756922
 21
181.0692971588595
 31
0.0
  0
ARC
  5
1204
330
1E
100
AcDbEntity
  8
HILF
100
AcDbCircle
 10
107.3757809756922
 20
212.5692971588595
 30
0.0
 40
5.315
100
AcDbArc
 50
244.9837960419998
 51
295.0163005179997
  0
LINE
  5
1205
330
1E
100
AcDbEntity
  8
HILF
100
AcDbLine
 10
104.8757809756922
 20
197.0692971588595
 30
0.0
 11
109.8757809756921
 21
197.0692971588595
 31
0.0
  0
LINE
  5
1206
330
1E
100
AcDbEntity
  8
HILF
100
AcDbLine
 10
104.8757809756922
 20
193.0692971588595
 30
0.0
 11
109.8757809756921
 21
193.0692971588595
 31
0.0
  0
LINE
  5
1207
330
1E
100
AcDbEntity
  8
HILF
100
AcDbLine
 10
104.8757809756922
 20
189.0692971588595
 30
0.0
 11
109.8757809756921
 21
189.0692971588595
 31
0.0
  0
LINE
  5
1208
330
1E
100
AcDbEntity
  8
HILF
100
AcDbLine
 10
104.8757809756922
 20
185.0692971588595
 30
0.0
 11
109.8757809756921
 21
185.0692971588595
 31
0.0
  0
LINE
  5
1209
330
1E
100
AcDbEntity
  8
HILF
100
AcDbLine
 10
104.8757809756922
 20
181.0692971588595
 30
0.0
 11
109.8757809756921
 21
181.0692971588595
 31
0.0
  0
LINE
  5
120A
330
1E
100
AcDbEntity
  8
STEMPEL
100
AcDbLine
 10
101.1257809756922
 20
211.3192971588595
 30
0.0
 11
113.6257809756922
 21
211.3192971588595
 31
0.0
  0
LINE
  5
120B
330
1E
100
AcDbEntity
  8
STEMPEL
100
AcDbLine
 10
104.3757809756922
 20
142.5162971588595
 30
0.0
 11
110.3757809756921
 21
142.5162971588594
 31
0.0
  0
ARC
  5
120C
330
1E
100
AcDbEntity
  8
STEMPEL
100
AcDbCircle
 10
110.3757809756922
 20
213.3192971588595
 30
0.0
 40
1.0
100
AcDbArc
 50
0.0
 51
90.0
  0
LINE
  5
120D
330
1E
100
AcDbEntity
  8
STEMPEL
100
AcDbLine
 10
104.3757809756922
 20
214.3192971588595
 30
0.0
 11
110.3757809756922
 21
214.3192971588595
 31
0.0
  0
ARC
  5
120E
330
1E
100
AcDbEntity
  8
STEMPEL
100
AcDbCircle
 10
104.3757809756922
 20
213.3192971588595
 30
0.0
 40
1.0
100
AcDbArc
 50
90.0
 51
180.0
  0
ARC
  5
120F
330
1E
100
AcDbEntity
  8
HILF
100
AcDbCircle
 10
107.3757809756922
 20
254.8192971588595
 30
0.0
 40
29.5
100
AcDbArc
 50
187.0799651019999
 51
240.5591073509998
  0
ARC
  5
1210
330
1E
100
AcDbEntity
  8
HILF
100
AcDbCircle
 10
107.3757809756922
 20
254.8192971588595
 30
0.0
 40
29.5
100
AcDbArc
 50
299.4408926490002
 51
352.920034898
  0
ARC
  5
1212
330
1E
100
AcDbEntity
  8
STEMPEL
100
AcDbCircle
 10
75.34178097569219
 20
250.8192971588595
 30
0.0
 40
0.5
100
AcDbArc
 50
90.0
 51
180.0
  0
LINE
  5
1213
330
1E
100
AcDbEntity
  8
STEMPEL
100
AcDbLine
 10
74.84178097569219
 20
250.8192971588595
 30
0.0
 11
74.84178097569219
 21
249.8192971588595
 31
0.0
  0
LINE
  5
1214
330
1E
100
AcDbEntity
  8
STEMPEL
100
AcDbLine
 10
74.84178097569219
 20
249.8192971588595
 30
0.0
 11
67.34178097569219
 21
249.8192971588595
 31
0.0
  0
ARC
  5
1215
330
1E
100
AcDbEntity
  8
STEMPEL
100
AcDbCircle
 10
66.84178097569219
 20
250.8192971588595
 30
0.0
 40
0.5
100
AcDbArc
 50
0.0
 51
90.0
  0
LINE
  5
1216
330
1E
100
AcDbEntity
  8
STEMPEL
100
AcDbLine
 10
67.34178097569219
 20
249.8192971588595
 30
0.0
 11
67.34178097569219
 21
250.8192971588595
 31
0.0
  0
LINE
  5
1217
330
1E
100
AcDbEntity
  8
STEMPEL
100
AcDbLine
 10
65.17878097569218
 20
251.3192971588595
 30
0.0
 11
65.17878097569218
 21
253.3192971588595
 31
0.0
  0
ARC
  5
1218
330
1E
100
AcDbEntity
  8
STEMPEL
100
AcDbCircle
 10
147.9097809756922
 20
250.8192971588595
 30
0.0
 40
0.5
100
AcDbArc
 50
90.0
 51
180.0
  0
LINE
  5
1219
330
1E
100
AcDbEntity
  8
STEMPEL
100
AcDbLine
 10
147.4097809756921
 20
249.8192971588595
 30
0.0
 11
147.4097809756921
 21
250.8192971588595
 31
0.0
  0
LINE
  5
121A
330
1E
100
AcDbEntity
  8
STEMPEL
100
AcDbLine
 10
139.9097809756922
 20
249.8192971588595
 30
0.0
 11
147.4097809756921
 21
249.8192971588595
 31
0.0
  0
LINE
  5
121B
330
1E
100
AcDbEntity
  8
STEMPEL
100
AcDbLine
 10
139.9097809756922
 20
250.8192971588595
 30
0.0
 11
139.9097809756922
 21
249.8192971588595
 31
0.0
  0
ARC
  5
121C
330
1E
100
AcDbEntity
  8
STEMPEL
100
AcDbCircle
 10
139.4097809756921
 20
250.8192971588595
 30
0.0
 40
0.5
100
AcDbArc
 50
0.0
 51
90.0
  0
LINE
  5
121D
330
1E
100
AcDbEntity
  8
STEMPEL
100
AcDbLine
 10
149.5727809756921
 20
251.3192971588595
 30
0.0
 11
149.5727809756921
 21
253.3192971588595
 31
0.0
  0
ARC
  5
121E
330
1E
100
AcDbEntity
  8
STEMPEL
100
AcDbCircle
 10
137.3757809756922
 20
249.3192971588595
 30
0.0
 40
2.0
100
AcDbArc
 50
90.0
 51
169.6111421849997
  0
LINE
  5
121F
330
1E
100
AcDbEntity
  8
STEMPEL
100
AcDbLine
 10
151.6597809756921
 20
251.3192971588595
 30
0.0
 11
137.3757809756922
 21
251.3192971588595
 31
0.0
  0
LINE
  5
1220
330
1E
100
AcDbEntity
  8
STEMPEL
100
AcDbLine
 10
151.6597809756921
 20
253.3192971588595
 30
0.0
 11
151.6597809756921
 21
251.3192971588595
 31
0.0
  0
LINE
  5
1221
330
1E
100
AcDbEntity
  8
STEMPEL
100
AcDbLine
 10
137.3757809756922
 20
253.3192971588595
 30
0.0
 11
151.6597809756921
 21
253.3192971588595
 31
0.0
  0
ARC
  5
1222
330
1E
100
AcDbEntity
  8
STEMPEL
100
AcDbCircle
 10
137.3757809756922
 20
249.3192971588595
 30
0.0
 40
4.0
100
AcDbArc
 50
90.0
 51
169.6111421849997
  0
ARC
  5
1223
330
1E
100
AcDbEntity
  8
STEMPEL
100
AcDbCircle
 10
107.3757809756922
 20
254.8192971588595
 30
0.0
 40
26.5
100
AcDbArc
 50
302.7506223370005
 51
349.6111421850001
  0
ARC
  5
1224
330
1E
100
AcDbEntity
  8
STEMPEL
100
AcDbCircle
 10
123.8757809756922
 20
229.1682971588595
 30
0.0
 40
4.0
100
AcDbArc
 50
122.7506223370002
 51
180.0
  0
LINE
  5
1225
330
1E
100
AcDbEntity
  8
STEMPEL
100
AcDbLine
 10
119.8757809756922
 20
215.3192971588595
 30
0.0
 11
119.8757809756922
 21
229.1682971588595
 31
0.0
  0
ARC
  5
1226
330
1E
100
AcDbEntity
  8
STEMPEL
100
AcDbCircle
 10
117.8757809756922
 20
215.3192971588595
 30
0.0
 40
2.0
100
AcDbArc
 50
270.0
 51
0.0
  0
LINE
  5
1227
330
1E
100
AcDbEntity
  8
STEMPEL
100
AcDbLine
 10
96.87578097569218
 20
213.3192971588595
 30
0.0
 11
117.8757809756922
 21
213.3192971588595
 31
0.0
  0
ARC
  5
1228
330
1E
100
AcDbEntity
  8
STEMPEL
100
AcDbCircle
 10
96.87578097569218
 20
215.3192971588595
 30
0.0
 40
2.0
100
AcDbArc
 50
180.0
 51
270.0
  0
LINE
  5
1229
330
1E
100
AcDbEntity
  8
STEMPEL
100
AcDbLine
 10
94.87578097569217
 20
229.1682971588595
 30
0.0
 11
94.87578097569217
 21
215.3192971588595
 31
0.0
  0
ARC
  5
122A
330
1E
100
AcDbEntity
  8
STEMPEL
100
AcDbCircle
 10
90.87578097569219
 20
229.1682971588595
 30
0.0
 40
4.0
100
AcDbArc
 50
0.0
 51
57.24937766299975
  0
ARC
  5
122B
330
1E
100
AcDbEntity
  8
STEMPEL
100
AcDbCircle
 10
107.3757809756922
 20
254.8192971588595
 30
0.0
 40
26.5
100
AcDbArc
 50
190.3888578149998
 51
237.2493776629995
  0
ARC
  5
122C
330
1E
100
AcDbEntity
  8
STEMPEL
100
AcDbCircle
 10
77.37578097569218
 20
249.3192971588595
 30
0.0
 40
4.0
100
AcDbArc
 50
10.38885781500027
 51
90.0
  0
LINE
  5
122D
330
1E
100
AcDbEntity
  8
STEMPEL
100
AcDbLine
 10
63.09178097569219
 20
253.3192971588595
 30
0.0
 11
77.37578097569218
 21
253.3192971588595
 31
0.0
  0
LINE
  5
122E
330
1E
100
AcDbEntity
  8
STEMPEL
100
AcDbLine
 10
63.09178097569219
 20
251.3192971588595
 30
0.0
 11
63.09178097569219
 21
253.3192971588595
 31
0.0
  0
LINE
  5
122F
330
1E
100
AcDbEntity
  8
STEMPEL
100
AcDbLine
 10
77.37578097569218
 20
251.3192971588595
 30
0.0
 11
63.09178097569219
 21
251.3192971588595
 31
0.0
  0
ARC
  5
1230
330
1E
100
AcDbEntity
  8
STEMPEL
100
AcDbCircle
 10
77.37578097569218
 20
249.3192971588595
 30
0.0
 40
2.0
100
AcDbArc
 50
10.38885781500027
 51
90.0
  0
ARC
  5
1231
330
1E
100
AcDbEntity
  8
STEMPEL
100
AcDbCircle
 10
107.3757809756922
 20
254.8192971588595
 30
0.0
 40
28.5
100
AcDbArc
 50
190.3888578149998
 51
237.2493776629995
  0
ARC
  5
1232
330
1E
100
AcDbEntity
  8
STEMPEL
100
AcDbCircle
 10
90.87578097569219
 20
229.1682971588595
 30
0.0
 40
2.0
100
AcDbArc
 50
0.0
 51
57.24937766299975
  0
LINE
  5
1233
330
1E
100
AcDbEntity
  8
STEMPEL
100
AcDbLine
 10
92.87578097569218
 20
215.3192971588595
 30
0.0
 11
92.87578097569218
 21
229.1682971588595
 31
0.0
  0
ARC
  5
1234
330
1E
100
AcDbEntity
  8
STEMPEL
100
AcDbCircle
 10
96.87578097569218
 20
215.3192971588595
 30
0.0
 40
4.0
100
AcDbArc
 50
180.0
 51
270.0
  0
LINE
  5
1235
330
1E
100
AcDbEntity
  8
STEMPEL
100
AcDbLine
 10
117.8757809756922
 20
211.3192971588595
 30
0.0
 11
96.87578097569218
 21
211.3192971588595
 31
0.0
  0
ARC
  5
1236
330
1E
100
AcDbEntity
  8
STEMPEL
100
AcDbCircle
 10
117.8757809756922
 20
215.3192971588595
 30
0.0
 40
4.0
100
AcDbArc
 50
270.0
 51
0.0
  0
LINE
  5
1237
330
1E
100
AcDbEntity
  8
STEMPEL
100
AcDbLine
 10
121.8757809756922
 20
229.1682971588595
 30
0.0
 11
121.8757809756922
 21
215.3192971588595
 31
0.0
  0
ARC
  5
1238
330
1E
100
AcDbEntity
  8
STEMPEL
100
AcDbCircle
 10
123.8757809756922
 20
229.1682971588595
 30
0.0
 40
2.0
100
AcDbArc
 50
122.7506223370002
 51
180.0
  0
ARC
  5
1239
330
1E
100
AcDbEntity
  8
STEMPEL
100
AcDbCircle
 10
107.3757809756922
 20
254.8192971588595
 30
0.0
 40
28.5
100
AcDbArc
 50
302.7506223370005
 51
349.6111421850001
  0
LINE
  5
123A
330
1E
100
AcDbEntity
  8
STEMPEL
100
AcDbLine
 10
138.3687809756922
 20
258.3192971588595
 30
0.0
 11
138.3687809756922
 21
256.3192971588595
 31
0.0
  0
LINE
  5
123B
330
1E
100
AcDbEntity
  8
STEMPEL
100
AcDbLine
 10
148.3107809756922
 20
256.3192971588595
 30
0.0
 11
148.3107809756922
 21
258.3192971588595
 31
0.0
  0
LINE
  5
123C
330
1E
100
AcDbEntity
  8
STEMPEL
100
AcDbLine
 10
66.44078097569217
 20
256.3192971588595
 30
0.0
 11
66.44078097569217
 21
258.3192971588595
 31
0.0
  0
ARC
  5
123D
330
1E
100
AcDbEntity
  8
HILF
100
AcDbCircle
 10
107.3757809756922
 20
254.8192971588595
 30
0.0
 40
29.5
100
AcDbArc
 50
7.079965102000389
 51
172.9200348979996
  0
LINE
  5
123E
330
1E
100
AcDbEntity
  8
STEMPEL
100
AcDbLine
 10
147.6117809756921
 20
258.3192971588595
 30
0.0
 11
148.3087809756922
 21
258.3192971588595
 31
0.0
  0
LINE
  5
123F
330
1E
100
AcDbEntity
  8
STEMPEL
100
AcDbLine
 10
147.6117809756921
 20
259.3192971588595
 30
0.0
 11
147.6117809756921
 21
258.3192971588595
 31
0.0
  0
LINE
  5
1240
330
1E
100
AcDbEntity
  8
STEMPEL
100
AcDbLine
 10
145.4377809756921
 20
259.3192971588595
 30
0.0
 11
147.6117809756921
 21
259.3192971588595
 31
0.0
  0
LINE
  5
1241
330
1E
100
AcDbEntity
  8
STEMPEL
100
AcDbLine
 10
145.4377809756921
 20
258.5192971588595
 30
0.0
 11
145.4377809756921
 21
259.3192971588595
 31
0.0
  0
ARC
  5
1242
330
1E
100
AcDbEntity
  8
STEMPEL
100
AcDbCircle
 10
147.8877809756921
 20
258.7692971588595
 30
0.0
 40
2.463
100
AcDbArc
 50
185.8375244179998
 51
264.1736792309999
  0
LINE
  5
1243
330
1E
100
AcDbEntity
  8
STEMPEL
100
AcDbLine
 10
146.9117809756921
 20
259.0192971588595
 30
0.0
 11
146.9117809756921
 21
259.3192971588595
 31
0.0
  0
ARC
  5
1244
330
1E
100
AcDbEntity
  8
STEMPEL
100
AcDbCircle
 10
147.6117809756921
 20
259.0192971588595
 30
0.0
 40
0.7
100
AcDbArc
 50
180.0
 51
270.0
  0
LINE
  5
1245
330
1E
100
AcDbEntity
  8
STEMPEL
100
AcDbLine
 10
151.6597809756921
 20
258.3192971588595
 30
0.0
 11
147.6117809756921
 21
258.3192971588595
 31
0.0
  0
LINE
  5
1246
330
1E
100
AcDbEntity
  8
STEMPEL
100
AcDbLine
 10
151.6597809756921
 20
256.3192971588595
 30
0.0
 11
151.6597809756921
 21
258.3192971588595
 31
0.0
  0
LINE
  5
1247
330
1E
100
AcDbEntity
  8
STEMPEL
100
AcDbLine
 10
137.3757809756922
 20
256.3192971588595
 30
0.0
 11
151.6597809756921
 21
256.3192971588595
 31
0.0
  0
ARC
  5
1248
330
1E
100
AcDbEntity
  8
STEMPEL
100
AcDbCircle
 10
137.3757809756922
 20
260.3192971588595
 30
0.0
 40
4.0
100
AcDbArc
 50
190.3888578149998
 51
270.0
  0
ARC
  5
1249
330
1E
100
AcDbEntity
  8
STEMPEL
100
AcDbCircle
 10
107.3757809756922
 20
254.8192971588595
 30
0.0
 40
26.5
100
AcDbArc
 50
10.38885781500027
 51
169.6111421849997
  0
ARC
  5
124A
330
1E
100
AcDbEntity
  8
STEMPEL
100
AcDbCircle
 10
77.37578097569218
 20
260.3192971588595
 30
0.0
 40
4.0
100
AcDbArc
 50
270.0
 51
349.6111421850001
  0
LINE
  5
124B
330
1E
100
AcDbEntity
  8
STEMPEL
100
AcDbLine
 10
63.09178097569219
 20
256.3192971588595
 30
0.0
 11
77.37578097569218
 21
256.3192971588595
 31
0.0
  0
LINE
  5
124C
330
1E
100
AcDbEntity
  8
STEMPEL
100
AcDbLine
 10
63.09178097569219
 20
258.3192971588595
 30
0.0
 11
63.09178097569219
 21
256.3192971588595
 31
0.0
  0
LINE
  5
124D
330
1E
100
AcDbEntity
  8
STEMPEL
100
AcDbLine
 10
77.37578097569218
 20
258.3192971588595
 30
0.0
 11
63.09178097569219
 21
258.3192971588595
 31
0.0
  0
ARC
  5
124E
330
1E
100
AcDbEntity
  8
STEMPEL
100
AcDbCircle
 10
77.37578097569218
 20
260.3192971588595
 30
0.0
 40
2.0
100
AcDbArc
 50
270.0
 51
349.6111421850001
  0
ARC
  5
124F
330
1E
100
AcDbEntity
  8
STEMPEL
100
AcDbCircle
 10
107.3757809756922
 20
254.8192971588595
 30
0.0
 40
28.5
100
AcDbArc
 50
10.38885781500027
 51
169.6111421849997
  0
ARC
  5
1250
330
1E
100
AcDbEntity
  8
STEMPEL
100
AcDbCircle
 10
137.3757809756922
 20
260.3192971588595
 30
0.0
 40
2.0
100
AcDbArc
 50
190.3888578149998
 51
270.0
  0
LINE
  5
1251
330
1E
100
AcDbEntity
  8
STEMPEL
100
AcDbLine
 10
145.4657809756921
 20
258.3192971588595
 30
0.0
 11
137.3757809756922
 21
258.3192971588595
 31
0.0
  0
LINE
  5
1252
330
1E
100
AcDbEntity
  8
MITTEL
100
AcDbLine
 10
71.09178097569219
 20
237.3192971588595
 30
0.0
 11
71.09178097569219
 21
267.1192971588595
 31
0.0
  0
LINE
  5
1253
330
1E
100
AcDbEntity
  8
MITTEL
100
AcDbLine
 10
143.6597809756921
 20
237.3192971588595
 30
0.0
 11
143.6597809756921
 21
267.1192971588595
 31
0.0
  0
LINE
  5
1254
330
1E
100
AcDbEntity
  8
MITTEL
100
AcDbLine
 10
58.09178097569222
 20
254.8192971588595
 30
0.0
 11
156.6597809756921
 21
254.8192971588595
 31
0.0
  0
LINE
  5
1255
330
1E
100
AcDbEntity
  8
MITTEL
100
AcDbLine
 10
107.3757809756922
 20
126.3192971588595
 30
0.0
 11
107.3757809756922
 21
289.3192971588595
 31
0.0
  0
DIMENSION
  5
125D
330
1E
100
AcDbEntity
  8
BEM
100
AcDbDimension
  2
*D1
 10
143.8747809756921
 20
77.25190187963176
 30
0.0
 11
107.3757809756921
 21
80.50190187963176
 31
0.0
 70
    32
 71
     5
 42
72.99799999999996
  3
Standard
100
AcDbAlignedDimension
 13
70.87678097569218
 23
92.60025467015465
 33
0.0
 14
143.8747809756921
 24
92.60025467015465
 34
0.0
100
AcDbRotatedDimension
1001
ACAD
1000
DSTYLE
1002
{
1070
    41
1040
3.5
1070
    42
1040
1.0
1070
    43
1040
7.0
1070
    44
1040
1.0
1070
    73
1070
     0
1070
    74
1070
     0
1070
    77
1070
     1
1070
    78
1070
     8
1070
    79
1070
     2
1070
   140
1040
3.5
1070
   141
1040
1.5
1070
   146
1040
0.5142857142857144
1070
   147
1040
1.5
1070
   172
1070
     1
1070
   178
1070
     1
1070
   179
1070
     2
1070
   271
1070
     2
1070
   272
1070
     2
1070
   284
1070
     8
1070
   285
1070
     8
1070
   286
1070
     8
1002
}
  0
DIMENSION
  5
1273
330
1E
100
AcDbEntity
  8
BEM
100
AcDbDimension
  2
*D2
 10
151.8747809756921
 20
68.51623285739595
 30
0.0
 11
107.3757809756921
 21
71.76623285739594
 31
0.0
 70
    32
 71
     5
 42
88.99799999999997
  3
Standard
100
AcDbAlignedDimension
 13
62.87678097569219
 23
102.6002546701546
 33
0.0
 14
151.8747809756921
 24
102.6002546701546
 34
0.0
100
AcDbRotatedDimension
1001
ACAD
1000
DSTYLE
1002
{
1070
    41
1040
3.5
1070
    42
1040
1.0
1070
    43
1040
7.0
1070
    44
1040
1.0
1070
    73
1070
     0
1070
    74
1070
     0
1070
    77
1070
     1
1070
    78
1070
     8
1070
    79
1070
     2
1070
   140
1040
3.5
1070
   141
1040
1.5
1070
   146
1040
0.5142857142857144
1070
   147
1040
1.5
1070
   172
1070
     1
1070
   178
1070
     1
1070
   179
1070
     2
1070
   271
1070
     2
1070
   272
1070
     2
1070
   284
1070
     8
1070
   285
1070
     8
1070
   286
1070
     8
1002
}
  0
DIMENSION
  5
12CD
330
1E
100
AcDbEntity
  8
BEM
100
AcDbDimension
  2
*D3
 10
55.83867162796245
 20
256.3192971588595
 30
0.0
 11
55.83867162796241
 21
254.8192971588595
 31
0.0
 70
   160
 71
     5
 42
3.000000000000028
  3
Standard
100
AcDbAlignedDimension
 13
63.09178097569219
 23
253.3192971588595
 33
0.0
 14
63.09178097569219
 24
256.3192971588595
 34
0.0
 50
90.0
100
AcDbRotatedDimension
1001
ACAD
1000
DSTYLE
1002
{
1070
    41
1040
3.5
1070
    42
1040
1.0
1070
    43
1040
7.0
1070
    44
1040
1.0
1070
    73
1070
     0
1070
    74
1070
     0
1070
    77
1070
     1
1070
    78
1070
     8
1070
    79
1070
     2
1070
   140
1040
3.5
1070
   141
1040
1.5
1070
   146
1040
0.5142857142857144
1070
   147
1040
1.5
1070
   172
1070
     1
1070
   178
1070
     1
1070
   179
1070
     2
1070
   271
1070
     2
1070
   272
1070
     2
1070
   284
1070
     8
1070
   285
1070
     8
1070
   286
1070
     8
1002
}
  0
DIMENSION
  5
12F3
330
1E
100
AcDbEntity
  8
BEM
100
AcDbDimension
  2
*D4
 10
48.07589939755394
 20
131.3192971588595
 30
0.0
 11
44.82589939755392
 21
207.8192971588595
 31
0.0
 70
    32
 71
     5
 42
153.0
  3
Standard
100
AcDbAlignedDimension
 13
107.3757809756922
 23
284.3192971588595
 33
0.0
 14
107.3757809756922
 24
131.3192971588595
 34
0.0
 50
90.0
100
AcDbRotatedDimension
1001
ACAD
1000
DSTYLE
1002
{
1070
    41
1040
3.5
1070
    42
1040
1.0
1070
    43
1040
7.0
1070
    44
1040
1.0
1070
    73
1070
     0
1070
    74
1070
     0
1070
    77
1070
     1
1070
    78
1070
     8
1070
    79
1070
     2
1070
   140
1040
3.5
1070
   141
1040
1.5
1070
   146
1040
0.5142857142857144
1070
   147
1040
1.5
1070
   172
1070
     1
1070
   178
1070
     1
1070
   179
1070
     2
1070
   271
1070
     2
1070
   272
1070
     2
1070
   284
1070
     8
1070
   285
1070
     8
1070
   286
1070
     8
1002
}
  0
DIMENSION
  5
1300
330
1E
100
AcDbEntity
  8
BEM
100
AcDbDimension
  2
*D5
 10
124.8023908982065
 20
274.783618793922
 30
0.0
 11
115.0723319463591
 21
263.7247749925001
 31
0.0
 70
   161
 71
     5
 42
52.99973678581181
  3
Standard
100
AcDbAlignedDimension
 13
89.87078097569218
 23
234.9242971588595
 33
0.0
 14
124.8803903196094
 24
274.7149914598093
 34
0.0
1001
ACAD
1000
DSTYLE
1002
{
1070
    41
1040
3.5
1070
    42
1040
1.0
1070
    43
1040
7.0
1070
    44
1040
1.0
1070
    73
1070
     0
1070
    74
1070
     0
1070
    77
1070
     1
1070
    78
1070
     8
1070
    79
1070
     2
1070
   140
1040
3.5
1070
   141
1040
1.5
1070
   146
1040
0.5142857142857144
1070
   147
1040
1.5
1070
   172
1070
     1
1070
   178
1070
     1
1070
   179
1070
     2
1070
   271
1070
     2
1070
   272
1070
     2
1070
   284
1070
     8
1070
   285
1070
     8
1070
   286
1070
     8
1002
}
  0
DIMENSION
  5
1360
330
1E
100
AcDbEntity
  8
BEM
100
AcDbDimension
  2
*D6
 10
57.35228529144593
 20
211.3192971588595
 30
0.0
 11
54.10228529144589
 21
171.3192971588595
 31
0.0
 70
    32
 71
     5
 42
80.0
  3
Standard
100
AcDbAlignedDimension
 13
107.3757809756922
 23
131.3192971588595
 33
0.0
 14
96.87578097569218
 24
211.3192971588595
 34
0.0
 50
90.0
100
AcDbRotatedDimension
1001
ACAD
1000
DSTYLE
1002
{
1070
    41
1040
3.5
1070
    42
1040
1.0
1070
    43
1040
7.0
1070
    44
1040
1.0
1070
    73
1070
     0
1070
    74
1070
     0
1070
    77
1070
     1
1070
    78
1070
     8
1070
    79
1070
     2
1070
   140
1040
3.5
1070
   141
1040
1.5
1070
   146
1040
0.5142857142857144
1070
   147
1040
1.5
1070
   172
1070
     1
1070
   178
1070
     1
1070
   179
1070
     2
1070
   271
1070
     2
1070
   272
1070
     2
1070
   284
1070
     8
1070
   285
1070
     8
1070
   286
1070
     8
1002
}
  0
DIMENSION
  5
136E
330
1E
100
AcDbEntity
  8
BEM
100
AcDbDimension
  2
*D7
 10
104.3757809756922
 20
165.7541179336524
 30
0.0
 11
95.00911430902551
 21
165.7541179336524
 31
0.0
 70
   160
 71
     5
 42
6.0
  3
Standard
100
AcDbAlignedDimension
 13
110.3757809756922
 23
165.5163221718296
 33
0.0
 14
104.3757809756922
 24
165.5163221718296
 34
0.0
100
AcDbRotatedDimension
1001
ACAD
1000
DSTYLE
1002
{
1070
    41
1040
3.5
1070
    42
1040
1.0
1070
    43
1040
7.0
1070
    44
1040
1.0
1070
    73
1070
     0
1070
    74
1070
     0
1070
    77
1070
     1
1070
    78
1070
     8
1070
    79
1070
     2
1070
   140
1040
3.5
1070
   141
1040
1.5
1070
   146
1040
0.5142857142857144
1070
   147
1040
1.5
1070
   172
1070
     1
1070
   178
1070
     1
1070
   179
1070
     2
1070
   271
1070
     2
1070
   272
1070
     2
1070
   284
1070
     8
1070
   285
1070
     8
1070
   286
1070
     8
1002
}
  0
LWPOLYLINE
  5
1392
330
1E
100
AcDbEntity
  8
BEM
 62
     1
100
AcDbPolyline
 90
        4
 70
     1
 43
0.0
 10
89.16516276524339
 20
170.7439019486819
 10
89.16516276524339
 20
167.2439019486819
 10
92.6651627652434
 20
167.2439019486819
 10
92.6651627652434
 20
170.7439019486819
  0
DIMENSION
  5
13A9
330
1E
100
AcDbEntity
  8
BEM
100
AcDbDimension
  2
*D8
 10
52.72245063555169
 20
90.10023941119287
 30
0.0
 11
49.47245063555168
 21
102.6002394111896
 31
0.0
 70
    32
 71
     5
 42
24.99999999999355
  3
Standard
100
AcDbAlignedDimension
 13
66.22613707131901
 23
115.1002394111864
 33
0.0
 14
66.2261546908541
 24
90.10023941119287
 34
0.0
 50
90.0
100
AcDbRotatedDimension
1001
ACAD
1000
DSTYLE
1002
{
1070
    41
1040
3.5
1070
    42
1040
1.0
1070
    43
1040
7.0
1070
    44
1040
1.0
1070
    73
1070
     0
1070
    74
1070
     0
1070
    77
1070
     1
1070
    78
1070
     8
1070
    79
1070
     2
1070
   140
1040
3.5
1070
   141
1040
1.5
1070
   146
1040
0.5142857142857144
1070
   147
1040
1.5
1070
   172
1070
     1
1070
   178
1070
     1
1070
   179
1070
     2
1070
   271
1070
     2
1070
   272
1070
     2
1070
   284
1070
     8
1070
   285
1070
     8
1070
   286
1070
     8
1002
}
  0
TEXT
  5
13C0
330
1E
100
AcDbEntity
  8
TEXT
 62
     1
100
AcDbText
 10
113.9182761339558
 20
57.82028541582997
 30
0.0
 40
3.5
  1
Werkstoff: St37 Dickschichtpassiviert
 41
0.8
  7
GREEKS
100
AcDbText
  0
ENDSEC
  0
SECTION
  2
OBJECTS
  0
DICTIONARY
  5
C
330
0
100
AcDbDictionary
281
     1
  3
ACAD_COLOR
350
DF
  3
ACAD_GROUP
350
D
  3
ACAD_LAYOUT
350
19
  3
ACAD_MATERIAL
350
DE
  3
ACAD_MLINESTYLE
350
16
  3
ACAD_PLOTSETTINGS
350
18
  3
ACAD_PLOTSTYLENAME
350
E
  3
AcDbVariableDictionary
350
EA
  0
DICTIONARY
  5
A0
330
1E
100
AcDbDictionary
280
     1
281
     1
  3
ACAD_LAYOUTSELFREF
360
D4
  0
DICTIONARY
  5
A2
330
1A
100
AcDbDictionary
280
     1
281
     1
  3
ACAD_LAYOUTSELFREF
360
D3
  0
DICTIONARY
  5
DF
102
{ACAD_REACTORS
330
C
102
}
330
C
100
AcDbDictionary
281
     1
  0
DICTIONARY
  5
D
102
{ACAD_REACTORS
330
C
102
}
330
C
100
AcDbDictionary
281
     1
  0
DICTIONARY
  5
19
102
{ACAD_REACTORS
330
C
102
}
330
C
100
AcDbDictionary
281
     1
  3
Layout1
350
1D
  3
Model
350
21
  0
DICTIONARY
  5
DE
102
{ACAD_REACTORS
330
C
102
}
330
C
100
AcDbDictionary
281
     1
  0
DICTIONARY
  5
16
102
{ACAD_REACTORS
330
C
102
}
330
C
100
AcDbDictionary
281
     1
  3
Standard
350
17
  0
DICTIONARY
  5
18
102
{ACAD_REACTORS
330
C
102
}
330
C
100
AcDbDictionary
281
     1
  0
ACDBDICTIONARYWDFLT
  5
E
102
{ACAD_REACTORS
330
C
102
}
330
C
100
AcDbDictionary
281
     1
  3
Normal
350
F
100
AcDbDictionaryWithDefault
340
F
  0
DICTIONARY
  5
EA
102
{ACAD_REACTORS
330
C
102
}
330
C
100
AcDbDictionary
281
     1
  3
DIMASSOC
350
EB
  3
PROJECTNAME
350
EC
  0
XRECORD
  5
D4
102
{ACAD_REACTORS
330
A0
102
}
330
A0
100
AcDbXrecord
280
     1
340
1E
  0
XRECORD
  5
D3
102
{ACAD_REACTORS
330
A2
102
}
330
A2
100
AcDbXrecord
280
     1
340
1A
  0
LAYOUT
  5
1D
102
{ACAD_REACTORS
330
19
102
}
330
19
100
AcDbPlotSettings
  1

  2
\\NT_WORK01\HP LaserJet 5000 PCL 6
  4

  6

 40
0.0
 41
0.0
 42
0.0
 43
0.0
 44
0.0
 45
0.0
 46
0.0
 47
0.0
 48
0.0
 49
0.0
140
0.0
141
0.0
142
1.0
143
1.0
 70
   688
 72
     0
 73
     0
 74
     5
  7

 75
    16
147
1.0
 76
     0
 77
     2
 78
   300
148
0.0
149
0.0
100
AcDbLayout
  1
Layout1
 70
     0
 71
     1
 10
0.0
 20
0.0
 11
12.0
 21
9.0
 12
0.0
 22
0.0
 32
0.0
 14
1.000000000000000E+20
 24
1.000000000000000E+20
 34
1.000000000000000E+20
 15
-1.000000000000000E+20
 25
-1.000000000000000E+20
 35
-1.000000000000000E+20
146
0.0
 13
0.0
 23
0.0
 33
0.0
 16
1.0
 26
0.0
 36
0.0
 17
0.0
 27
1.0
 37
0.0
 76
     0
330
1A
  0
LAYOUT
  5
21
102
{ACAD_REACTORS
330
19
102
}
330
19
100
AcDbPlotSettings
  1

  2
none_device
  4
Letter_(8.50_x_11.00_Inches)
  6

 40
6.349999904632568
 41
6.349999904632568
 42
6.350006103515625
 43
6.350006103515625
 44
215.8999938964844
 45
279.3999938964844
 46
0.0
 47
0.0
 48
0.0
 49
0.0
140
0.0
141
0.0
142
1.0
143
1.0
 70
 11952
 72
     0
 73
     1
 74
     0
  7

 75
     0
147
1.0
 76
     0
 77
     2
 78
   300
148
-230.4417396561563
149
47.00486644638983
100
AcDbLayout
  1
Model
 70
     1
 71
     0
 10
0.0
 20
0.0
 11
12.0
 21
9.0
 12
0.0
 22
0.0
 32
0.0
 14
0.0
 24
0.0
 34
0.0
 15
0.0
 25
0.0
 35
0.0
146
0.0
 13
0.0
 23
0.0
 33
0.0
 16
1.0
 26
0.0
 36
0.0
 17
0.0
 27
1.0
 37
0.0
 76
     0
330
1E
  0
MLINESTYLE
  5
17
102
{ACAD_REACTORS
330
16
102
}
330
16
100
AcDbMlineStyle
  2
STANDARD
 70
     0
  3

 62
   256
 51
90.0
 52
90.0
 71
     2
 49
0.5
 62
   256
  6
BYLAYER
 49
-0.5
 62
   256
  6
BYLAYER
  0
ACDBPLACEHOLDER
  5
F
102
{ACAD_REACTORS
330
E
102
}
330
E
  0
DICTIONARYVAR
  5
EB
102
{ACAD_REACTORS
330
EA
102
}
330
EA
100
DictionaryVariables
280
     0
  1
1
  0
DICTIONARYVAR
  5
EC
102
{ACAD_REACTORS
330
EA
102
}
330
EA
100
DictionaryVariables
280
     0
  1

  0
ENDSEC
  0
EOF
