  0
SECTION
  2
HEADER
  9
$ACADVER
  1
AC1018
  9
$ACADMAINTVER
 70
     2
  9
$DWGCODEPAGE
  3
ANSI_1252
  9
$INSBASE
 10
0.0
 20
0.0
 30
0.0
  9
$EXTMIN
 10
-0.012816796064385
 20
-0.0181266115766903
 30
-0.0000000349181948
  9
$EXTMAX
 10
210.0128187519015
 20
297.0181293776894
 30
0.0000000814935746
  9
$LIMMIN
 10
0.0
 20
0.0
  9
$LIMMAX
 10
210.0
 20
297.0
  9
$ORTHOMODE
 70
     1
  9
$REGENMODE
 70
     1
  9
$FILLMODE
 70
     1
  9
$QTEXTMODE
 70
     0
  9
$MIRRTEXT
 70
     1
  9
$LTSCALE
 40
10.0
  9
$ATTMODE
 70
     1
  9
$TEXTSIZE
 40
2.5
  9
$TRACEWID
 40
0.5
  9
$TEXTSTYLE
  7
GREEKS
  9
$CLAYER
  8
BEM
  9
$CELTYPE
  6
ByLayer
  9
$CECOLOR
 62
   256
  9
$CELTSCALE
 40
1.0
  9
$DISPSILH
 70
     0
  9
$DIMSCALE
 40
1.0
  9
$DIMASZ
 40
3.5
  9
$DIMEXO
 40
1.0
  9
$DIMDLI
 40
7.0
  9
$DIMRND
 40
0.0
  9
$DIMDLE
 40
0.0
  9
$DIMEXE
 40
1.0
  9
$DIMTP
 40
0.0
  9
$DIMTM
 40
0.0
  9
$DIMTXT
 40
3.5
  9
$DIMCEN
 40
1.5
  9
$DIMTSZ
 40
0.0
  9
$DIMTOL
 70
     0
  9
$DIMLIM
 70
     0
  9
$DIMTIH
 70
     0
  9
$DIMTOH
 70
     0
  9
$DIMSE1
 70
     0
  9
$DIMSE2
 70
     0
  9
$DIMTAD
 70
     1
  9
$DIMZIN
 70
     8
  9
$DIMBLK
  1

  9
$DIMASO
 70
     1
  9
$DIMSHO
 70
     0
  9
$DIMPOST
  1

  9
$DIMAPOST
  1

  9
$DIMALT
 70
     0
  9
$DIMALTD
 70
     2
  9
$DIMALTF
 40
25.4
  9
$DIMLFAC
 40
1.0
  9
$DIMTOFL
 70
     1
  9
$DIMTVP
 40
0.0
  9
$DIMTIX
 70
     0
  9
$DIMSOXD
 70
     0
  9
$DIMSAH
 70
     0
  9
$DIMBLK1
  1

  9
$DIMBLK2
  1

  9
$DIMSTYLE
  2
Standard
  9
$DIMCLRD
 70
     0
  9
$DIMCLRE
 70
     0
  9
$DIMCLRT
 70
     1
  9
$DIMTFAC
 40
0.5142857142857144
  9
$DIMGAP
 40
1.5
  9
$DIMJUST
 70
     0
  9
$DIMSD1
 70
     0
  9
$DIMSD2
 70
     0
  9
$DIMTOLJ
 70
     1
  9
$DIMTZIN
 70
     8
  9
$DIMALTZ
 70
     8
  9
$DIMALTTZ
 70
     8
  9
$DIMUPT
 70
     0
  9
$DIMDEC
 70
     2
  9
$DIMTDEC
 70
     2
  9
$DIMALTU
 70
     2
  9
$DIMALTTD
 70
     2
  9
$DIMTXSTY
  7
STANDARD
  9
$DIMAUNIT
 70
     0
  9
$DIMADEC
 70
     2
  9
$DIMALTRND
 40
0.0
  9
$DIMAZIN
 70
     2
  9
$DIMDSEP
 70
    46
  9
$DIMATFIT
 70
     3
  9
$DIMFRAC
 70
     0
  9
$DIMLDRBLK
  1

  9
$DIMLUNIT
 70
     2
  9
$DIMLWD
 70
    -2
  9
$DIMLWE
 70
    -2
  9
$DIMTMOVE
 70
     0
  9
$LUNITS
 70
     2
  9
$LUPREC
 70
     2
  9
$SKETCHINC
 40
1.0
  9
$FILLETRAD
 40
15.0
  9
$AUNITS
 70
     0
  9
$AUPREC
 70
     0
  9
$MENU
  1
ACAD
  9
$ELEVATION
 40
0.0
  9
$PELEVATION
 40
0.0
  9
$THICKNESS
 40
0.0
  9
$LIMCHECK
 70
     0
  9
$CHAMFERA
 40
0.0
  9
$CHAMFERB
 40
0.0
  9
$CHAMFERC
 40
0.0
  9
$CHAMFERD
 40
0.0
  9
$SKPOLY
 70
     0
  9
$TDCREATE
 40
2455397.823042361
  9
$TDUCREATE
 40
2455397.781375695
  9
$TDUPDATE
 40
2456230.329293356
  9
$TDUUPDATE
 40
2456230.287626690
  9
$TDINDWG
 40
0.2326630671
  9
$TDUSRTIMER
 40
0.2326630671
  9
$USRTIMER
 70
     1
  9
$ANGBASE
 50
0.0
  9
$ANGDIR
 70
     0
  9
$PDMODE
 70
     0
  9
$PDSIZE
 40
0.0
  9
$PLINEWID
 40
0.0
  9
$SPLFRAME
 70
     0
  9
$SPLINETYPE
 70
     6
  9
$SPLINESEGS
 70
     8
  9
$HANDSEED
  5
108F
  9
$SURFTAB1
 70
     6
  9
$SURFTAB2
 70
     6
  9
$SURFTYPE
 70
     6
  9
$SURFU
 70
     6
  9
$SURFV
 70
     6
  9
$UCSBASE
  2

  9
$UCSNAME
  2

  9
$UCSORG
 10
0.0
 20
0.0
 30
0.0
  9
$UCSXDIR
 10
1.0
 20
0.0
 30
0.0
  9
$UCSYDIR
 10
0.0
 20
1.0
 30
0.0
  9
$UCSORTHOREF
  2

  9
$UCSORTHOVIEW
 70
     0
  9
$UCSORGTOP
 10
0.0
 20
0.0
 30
0.0
  9
$UCSORGBOTTOM
 10
0.0
 20
0.0
 30
0.0
  9
$UCSORGLEFT
 10
0.0
 20
0.0
 30
0.0
  9
$UCSORGRIGHT
 10
0.0
 20
0.0
 30
0.0
  9
$UCSORGFRONT
 10
0.0
 20
0.0
 30
0.0
  9
$UCSORGBACK
 10
0.0
 20
0.0
 30
0.0
  9
$PUCSBASE
  2

  9
$PUCSNAME
  2

  9
$PUCSORG
 10
0.0
 20
0.0
 30
0.0
  9
$PUCSXDIR
 10
1.0
 20
0.0
 30
0.0
  9
$PUCSYDIR
 10
0.0
 20
1.0
 30
0.0
  9
$PUCSORTHOREF
  2

  9
$PUCSORTHOVIEW
 70
     0
  9
$PUCSORGTOP
 10
0.0
 20
0.0
 30
0.0
  9
$PUCSORGBOTTOM
 10
0.0
 20
0.0
 30
0.0
  9
$PUCSORGLEFT
 10
0.0
 20
0.0
 30
0.0
  9
$PUCSORGRIGHT
 10
0.0
 20
0.0
 30
0.0
  9
$PUCSORGFRONT
 10
0.0
 20
0.0
 30
0.0
  9
$PUCSORGBACK
 10
0.0
 20
0.0
 30
0.0
  9
$USERI1
 70
     0
  9
$USERI2
 70
     0
  9
$USERI3
 70
     0
  9
$USERI4
 70
     0
  9
$USERI5
 70
     0
  9
$USERR1
 40
0.0
  9
$USERR2
 40
0.0
  9
$USERR3
 40
0.0
  9
$USERR4
 40
0.0
  9
$USERR5
 40
0.0
  9
$WORLDVIEW
 70
     1
  9
$SHADEDGE
 70
     3
  9
$SHADEDIF
 70
    70
  9
$TILEMODE
 70
     1
  9
$MAXACTVP
 70
    16
  9
$PINSBASE
 10
0.0
 20
0.0
 30
0.0
  9
$PLIMCHECK
 70
     0
  9
$PEXTMIN
 10
1.000000000000000E+20
 20
1.000000000000000E+20
 30
1.000000000000000E+20
  9
$PEXTMAX
 10
-1.000000000000000E+20
 20
-1.000000000000000E+20
 30
-1.000000000000000E+20
  9
$PLIMMIN
 10
0.0
 20
0.0
  9
$PLIMMAX
 10
12.0
 20
9.0
  9
$UNITMODE
 70
     0
  9
$VISRETAIN
 70
     0
  9
$PLINEGEN
 70
     0
  9
$PSLTSCALE
 70
     0
  9
$TREEDEPTH
 70
  3020
  9
$CMLSTYLE
  2
Standard
  9
$CMLJUST
 70
     0
  9
$CMLSCALE
 40
1.0
  9
$PROXYGRAPHICS
 70
     1
  9
$MEASUREMENT
 70
     0
  9
$CELWEIGHT
370
    -1
  9
$ENDCAPS
280
     0
  9
$JOINSTYLE
280
     0
  9
$LWDISPLAY
290
     0
  9
$INSUNITS
 70
     0
  9
$HYPERLINKBASE
  1

  9
$STYLESHEET
  1
monochrome 1.ctb
  9
$XEDIT
290
     1
  9
$CEPSNTYPE
380
     0
  9
$PSTYLEMODE
290
     1
  9
$FINGERPRINTGUID
  2
{D68B0D02-A558-11D7-B632-000102183313}
  9
$VERSIONGUID
  2
{5FF33F51-D0EA-42D3-B477-4D82FAED749E}
  9
$EXTNAMES
290
     1
  9
$PSVPSCALE
 40
0.0
  9
$OLESTARTUP
290
     0
  9
$SORTENTS
280
   127
  9
$INDEXCTL
280
     0
  9
$HIDETEXT
280
     0
  9
$XCLIPFRAME
290
     0
  9
$HALOGAP
280
     0
  9
$OBSCOLOR
 70
   257
  9
$OBSLTYPE
280
     0
  9
$INTERSECTIONDISPLAY
280
     0
  9
$INTERSECTIONCOLOR
 70
   257
  9
$DIMASSOC
280
     1
  9
$PROJECTNAME
  1

  0
ENDSEC
  0
SECTION
  2
CLASSES
  0
CLASS
  1
ACDBDICTIONARYWDFLT
  2
AcDbDictionaryWithDefault
  3
ObjectDBX Classes
 90
        0
 91
        1
280
     0
281
     0
  0
CLASS
  1
DICTIONARYVAR
  2
AcDbDictionaryVar
  3
ObjectDBX Classes
 90
        0
 91
        2
280
     0
281
     0
  0
ENDSEC
  0
SECTION
  2
TABLES
  0
TABLE
  2
VPORT
  5
8
330
0
100
AcDbSymbolTable
 70
     3
  0
VPORT
  5
108E
330
8
100
AcDbSymbolTableRecord
100
AcDbViewportTableRecord
  2
*Active
 70
     0
 10
0.0
 20
0.0
 11
1.0
 21
1.0
 12
104.9999999999999
 22
148.5
 13
0.0
 23
0.0
 14
1.0
 24
1.0
 15
10.0
 25
10.0
 16
0.0
 26
0.0
 36
1.0
 17
0.0
 27
0.0
 37
0.0
 40
297.019601006868
 41
1.404858299595141
 42
50.0
 43
0.0
 44
0.0
 50
0.0
 51
0.0
 71
     0
 72
  1500
 73
     1
 74
     0
 75
     0
 76
     0
 77
     0
 78
     0
281
     0
 65
     1
110
0.0
120
0.0
130
0.0
111
1.0
121
0.0
131
0.0
112
0.0
122
1.0
132
0.0
 79
     0
146
0.0
  0
ENDTAB
  0
TABLE
  2
LTYPE
  5
5
330
0
100
AcDbSymbolTable
 70
     2
  0
LTYPE
  5
13
330
5
100
AcDbSymbolTableRecord
100
AcDbLinetypeTableRecord
  2
ByBlock
 70
     0
  3

 72
    65
 73
     0
 40
0.0
  0
LTYPE
  5
14
330
5
100
AcDbSymbolTableRecord
100
AcDbLinetypeTableRecord
  2
ByLayer
 70
     0
  3

 72
    65
 73
     0
 40
0.0
  0
LTYPE
  5
15
330
5
100
AcDbSymbolTableRecord
100
AcDbLinetypeTableRecord
  2
Continuous
 70
     0
  3
Solid line
 72
    65
 73
     0
 40
0.0
  0
LTYPE
  5
25
330
5
100
AcDbSymbolTableRecord
100
AcDbLinetypeTableRecord
  2
STRICHPUNKT
 70
     0
  3
__ . __ . __ . __ . __ . __ . __ . __ . __ . __
 72
    65
 73
     4
 40
1.0
 49
0.5
 74
     0
 49
-0.25
 74
     0
 49
0.0
 74
     0
 49
-0.25
 74
     0
  0
ENDTAB
  0
TABLE
  2
LAYER
  5
2
330
0
100
AcDbSymbolTable
 70
     9
  0
LAYER
  5
10
330
2
100
AcDbSymbolTableRecord
100
AcDbLayerTableRecord
  2
0
 70
     0
 62
     7
  6
Continuous
370
    -3
390
F
  0
LAYER
  5
2A
330
2
100
AcDbSymbolTableRecord
100
AcDbLayerTableRecord
  2
VOLL
 70
     0
 62
     1
  6
Continuous
370
    -3
390
F
  0
LAYER
  5
2B
330
2
100
AcDbSymbolTableRecord
100
AcDbLayerTableRecord
  2
HILF
 70
     0
 62
     2
  6
Continuous
370
    -3
390
F
  0
LAYER
  5
2C
330
2
100
AcDbSymbolTableRecord
100
AcDbLayerTableRecord
  2
MITTEL
 70
     0
 62
     2
  6
STRICHPUNKT
370
    -3
390
F
  0
LAYER
  5
2F
330
2
100
AcDbSymbolTableRecord
100
AcDbLayerTableRecord
  2
BEM
 70
     0
 62
     7
  6
Continuous
370
    -3
390
F
  0
LAYER
  5
30
330
2
100
AcDbSymbolTableRecord
100
AcDbLayerTableRecord
  2
STEMPEL
 70
     0
 62
     3
  6
Continuous
370
    -3
390
F
  0
LAYER
  5
31
330
2
100
AcDbSymbolTableRecord
100
AcDbLayerTableRecord
  2
TEXT
 70
     0
 62
     7
  6
Continuous
370
    -3
390
F
  0
LAYER
  5
1A8
330
2
100
AcDbSymbolTableRecord
100
AcDbLayerTableRecord
  2
Defpoints
 70
     0
 62
     7
  6
Continuous
290
     0
370
    -3
390
F
  0
LAYER
  5
854
330
2
100
AcDbSymbolTableRecord
100
AcDbLayerTableRecord
  2
BILD
 70
     0
 62
     7
  6
Continuous
370
    -3
390
F
  0
ENDTAB
  0
TABLE
  2
STYLE
  5
3
330
0
100
AcDbSymbolTable
 70
     2
  0
STYLE
  5
11
330
3
100
AcDbSymbolTableRecord
100
AcDbTextStyleTableRecord
  2
STANDARD
 70
     0
 40
0.0
 41
0.8
 50
0.0
 71
     0
 42
3.5
  3
simplex.shx
  4

  0
STYLE
  5
24
330
3
100
AcDbSymbolTableRecord
100
AcDbTextStyleTableRecord
  2
GREEKS
 70
     0
 40
0.0
 41
0.8
 50
0.0
 71
     0
 42
2.5
  3
SIMPLEX.shx
  4

  0
ENDTAB
  0
TABLE
  2
VIEW
  5
6
330
0
100
AcDbSymbolTable
 70
     0
  0
ENDTAB
  0
TABLE
  2
UCS
  5
7
330
0
100
AcDbSymbolTable
 70
     0
  0
ENDTAB
  0
TABLE
  2
APPID
  5
9
330
0
100
AcDbSymbolTable
 70
     1
  0
APPID
  5
12
330
9
100
AcDbSymbolTableRecord
100
AcDbRegAppTableRecord
  2
ACAD
 70
     0
  0
ENDTAB
  0
TABLE
  2
DIMSTYLE
  5
A
330
0
100
AcDbSymbolTable
 70
     1
100
AcDbDimStyleTable
 71
     1
340
9D
  0
DIMSTYLE
105
9D
102
{ACAD_REACTORS
330
E5F
330
E6C
330
EAA
330
ECF
330
F27
330
1027
330
1055
330
106C
102
}
330
A
100
AcDbSymbolTableRecord
100
AcDbDimStyleTableRecord
  2
Standard
 70
     0
340
11
  0
ENDTAB
  0
TABLE
  2
BLOCK_RECORD
  5
1
330
0
100
AcDbSymbolTable
 70
     9
  0
BLOCK_RECORD
  5
1E
102
{ACAD_XDICTIONARY
360
A0
102
}
330
1
100
AcDbSymbolTableRecord
100
AcDbBlockTableRecord
  2
*Model_Space
340
21
  0
BLOCK_RECORD
  5
1A
102
{ACAD_XDICTIONARY
360
A2
102
}
330
1
100
AcDbSymbolTableRecord
100
AcDbBlockTableRecord
  2
*Paper_Space
340
1D
  0
BLOCK_RECORD
  5
22
330
1
100
AcDbSymbolTableRecord
100
AcDbBlockTableRecord
  2
LOGO
340
0
102
{BLKREFS
331
9B
102
}
  0
BLOCK_RECORD
  5
E60
330
1
100
AcDbSymbolTableRecord
100
AcDbBlockTableRecord
  2
*D1
340
0
  0
BLOCK_RECORD
  5
E6D
330
1
100
AcDbSymbolTableRecord
100
AcDbBlockTableRecord
  2
*D2
340
0
  0
BLOCK_RECORD
  5
EAB
330
1
100
AcDbSymbolTableRecord
100
AcDbBlockTableRecord
  2
*D3
340
0
  0
BLOCK_RECORD
  5
ED0
330
1
100
AcDbSymbolTableRecord
100
AcDbBlockTableRecord
  2
*D4
340
0
  0
BLOCK_RECORD
  5
F28
330
1
100
AcDbSymbolTableRecord
100
AcDbBlockTableRecord
  2
*D5
340
0
  0
BLOCK_RECORD
  5
1028
330
1
100
AcDbSymbolTableRecord
100
AcDbBlockTableRecord
  2
*D6
340
0
  0
BLOCK_RECORD
  5
1056
330
1
100
AcDbSymbolTableRecord
100
AcDbBlockTableRecord
  2
*D7
340
0
  0
BLOCK_RECORD
  5
106D
330
1
100
AcDbSymbolTableRecord
100
AcDbBlockTableRecord
  2
*D8
340
0
  0
ENDTAB
  0
ENDSEC
  0
SECTION
  2
BLOCKS
  0
BLOCK
  5
35
330
1E
100
AcDbEntity
  8
0
100
AcDbBlockBegin
  2
*Model_Space
 70
     0
 10
0.0
 20
0.0
 30
0.0
  3
*Model_Space
  1

  0
ENDBLK
  5
36
330
1E
100
AcDbEntity
  8
0
100
AcDbBlockEnd
  0
BLOCK
  5
33
330
1A
100
AcDbEntity
 67
     1
  8
0
100
AcDbBlockBegin
  2
*Paper_Space
 70
     0
 10
0.0
 20
0.0
 30
0.0
  3
*Paper_Space
  1

  0
ENDBLK
  5
34
330
1A
100
AcDbEntity
 67
     1
  8
0
100
AcDbBlockEnd
  0
BLOCK
  5
37
330
22
100
AcDbEntity
  8
0
100
AcDbBlockBegin
  2
LOGO
 70
     0
 10
0.0
 20
0.0
 30
0.0
  3
LOGO
  1

  0
ARC
  5
38
330
22
100
AcDbEntity
  8
0
100
AcDbCircle
 10
11.59973089678112
 20
-9.271599258481501
 30
0.0
 40
4.5
100
AcDbArc
 50
270.0
 51
231.0575587310159
  0
LINE
  5
39
330
22
100
AcDbEntity
  8
0
100
AcDbLine
 10
3.599730896781125
 20
-4.771599258481529
 30
0.0
 11
3.599730896781153
 21
-11.77159925848133
 31
0.0
  0
LINE
  5
3A
330
22
100
AcDbEntity
  8
0
100
AcDbLine
 10
2.599730896781125
 20
-4.771599258481529
 30
0.0
 11
2.599730896781153
 21
-11.77159925848133
 31
0.0
  0
CIRCLE
  5
3B
330
22
100
AcDbEntity
  8
0
100
AcDbCircle
 10
11.59973089678112
 20
-9.271599258481501
 30
0.0
 40
3.5
  0
ARC
  5
3C
330
22
100
AcDbEntity
  8
0
100
AcDbCircle
 10
31.59973089678115
 20
-9.271599258481472
 30
0.0
 40
4.5
100
AcDbArc
 50
270.0
 51
231.0575587310182
  0
LINE
  5
3D
330
22
100
AcDbEntity
  8
0
100
AcDbLine
 10
17.59973089678112
 20
-4.771599258481472
 30
0.0
 11
17.59973089678115
 21
-13.77159925848147
 31
0.0
  0
ARC
  5
3E
330
22
100
AcDbEntity
  8
0
100
AcDbCircle
 10
22.59973089678116
 20
-7.271599258481472
 30
0.0
 40
2.5
100
AcDbArc
 50
293.1161887722295
 51
90.0
  0
CIRCLE
  5
3F
330
22
100
AcDbEntity
  8
0
100
AcDbCircle
 10
31.59973089678115
 20
-9.271599258481472
 30
0.0
 40
3.5
  0
ARC
  5
40
330
22
100
AcDbEntity
  8
0
100
AcDbCircle
 10
4.599730896781153
 20
-11.77159925848133
 30
0.0
 40
1.0
100
AcDbArc
 50
180.0
 51
270.0
  0
ARC
  5
41
330
22
100
AcDbEntity
  8
0
100
AcDbCircle
 10
4.599730896781153
 20
-11.77159925848133
 30
0.0
 40
2.0
100
AcDbArc
 50
179.9999999999992
 51
270.0
  0
LINE
  5
42
330
22
100
AcDbEntity
  8
0
100
AcDbLine
 10
11.59973089678115
 20
-13.77159925848144
 30
0.0
 11
4.599730896781153
 21
-13.77159925848147
 31
0.0
  0
LINE
  5
43
330
22
100
AcDbEntity
  8
0
100
AcDbLine
 10
8.771303772034769
 20
-12.77159925848136
 30
0.0
 11
4.599730896781153
 21
-12.77159925848133
 31
0.0
  0
LINE
  5
44
330
22
100
AcDbEntity
  8
0
100
AcDbLine
 10
31.59973089678115
 20
-13.77159925848147
 30
0.0
 11
23.6715276665056
 21
-13.77159925848144
 31
0.0
  0
LINE
  5
45
330
22
100
AcDbEntity
  8
0
100
AcDbLine
 10
23.56565672307022
 20
-9.51278021337896
 30
0.0
 11
24.4388546544846
 21
-12.77159925848144
 31
0.0
  0
LINE
  5
46
330
22
100
AcDbEntity
  8
0
100
AcDbLine
 10
22.59973089678116
 20
-9.771599258481472
 30
0.0
 11
18.59973089678112
 21
-9.771599258481472
 31
0.0
  0
LINE
  5
47
330
22
100
AcDbEntity
  8
0
100
AcDbLine
 10
18.59973089678115
 20
-13.77159925848144
 30
0.0
 11
17.59973089678115
 21
-13.77159925848144
 31
0.0
  0
LINE
  5
48
330
22
100
AcDbEntity
  8
0
100
AcDbLine
 10
18.59973089678115
 20
-9.771599258481472
 30
0.0
 11
18.59973089678115
 21
-13.77159925848144
 31
0.0
  0
LINE
  5
49
330
22
100
AcDbEntity
  8
0
100
AcDbLine
 10
22.59973089678116
 20
-9.771599258481472
 30
0.0
 11
23.67152766650562
 21
-13.77159925848147
 31
0.0
  0
ARC
  5
4A
330
22
100
AcDbEntity
  8
0
100
AcDbCircle
 10
22.59973089678116
 20
-7.271599258481472
 30
0.0
 40
2.5
100
AcDbArc
 50
270.0
 51
270.0000000000007
  0
LINE
  5
4B
330
22
100
AcDbEntity
  8
0
100
AcDbLine
 10
28.77130377203494
 20
-12.77159925848147
 30
0.0
 11
24.43885465448463
 21
-12.77159925848144
 31
0.0
  0
LINE
  5
4C
330
22
100
AcDbEntity
  8
0
100
AcDbLine
 10
3.599730896781125
 20
-4.771599258481472
 30
0.0
 11
2.599730896781125
 21
-4.771599258481472
 31
0.0
  0
LINE
  5
4D
330
22
100
AcDbEntity
  8
0
100
AcDbLine
 10
22.59973089678116
 20
-8.771599258481472
 30
0.0
 11
18.59973089678115
 21
-8.771599258481472
 31
0.0
  0
LINE
  5
4E
330
22
100
AcDbEntity
  8
0
100
AcDbLine
 10
22.59973089678116
 20
-5.771599258481472
 30
0.0
 11
18.59973089678115
 21
-5.771599258481472
 31
0.0
  0
LINE
  5
4F
330
22
100
AcDbEntity
  8
0
100
AcDbLine
 10
22.59973089678116
 20
-4.771599258481472
 30
0.0
 11
17.59973089678115
 21
-4.771599258481472
 31
0.0
  0
LINE
  5
50
330
22
100
AcDbEntity
  8
0
100
AcDbLine
 10
18.59973089678115
 20
-5.771599258481472
 30
0.0
 11
18.59973089678115
 21
-8.771599258481472
 31
0.0
  0
ARC
  5
51
330
22
100
AcDbEntity
  8
0
100
AcDbCircle
 10
22.59973089678116
 20
-7.271599258481472
 30
0.0
 40
1.5
100
AcDbArc
 50
270.0
 51
90.0
  0
ENDBLK
  5
52
330
22
100
AcDbEntity
  8
0
100
AcDbBlockEnd
  0
BLOCK
  5
E6A
330
E60
100
AcDbEntity
  8
0
100
AcDbBlockBegin
  2
*D1
 70
     1
 10
0.0
 20
0.0
 30
0.0
  3
*D1
  1

  0
LINE
  5
FE0
330
E60
100
AcDbEntity
  8
BEM
 62
     0
370
    -2
100
AcDbLine
 10
138.0791024708797
 20
95.83711799814876
 30
0.0
 11
138.0791024708797
 21
79.66922437608423
 31
0.0
  0
LINE
  5
FE1
330
E60
100
AcDbEntity
  8
BEM
 62
     0
370
    -2
100
AcDbLine
 10
76.07910247087971
 20
95.83711799814876
 30
0.0
 11
76.07910247087971
 21
79.66922437608423
 31
0.0
  0
LINE
  5
FE2
330
E60
100
AcDbEntity
  8
BEM
 62
     0
370
    -2
100
AcDbLine
 10
134.5791024708797
 20
80.66922437608424
 30
0.0
 11
79.57910247087972
 21
80.66922437608424
 31
0.0
  0
SOLID
  5
FE3
330
E60
100
AcDbEntity
  8
BEM
 62
     0
100
AcDbTrace
 10
134.5791024708797
 20
81.25255770941755
 30
0.0
 11
134.5791024708797
 21
80.0858910427509
 31
0.0
 12
138.0791024708797
 22
80.66922437608424
 32
0.0
 13
138.0791024708797
 23
80.66922437608424
 33
0.0
  0
SOLID
  5
FE4
330
E60
100
AcDbEntity
  8
BEM
 62
     0
100
AcDbTrace
 10
79.57910247087972
 20
81.25255770941755
 30
0.0
 11
79.57910247087972
 21
80.0858910427509
 31
0.0
 12
76.07910247087971
 22
80.66922437608424
 32
0.0
 13
76.07910247087971
 23
80.66922437608424
 33
0.0
  0
MTEXT
  5
FE5
330
E60
100
AcDbEntity
  8
BEM
 62
     1
100
AcDbMText
 10
107.0791024708797
 20
83.91922437608423
 30
0.0
 40
3.5
 41
0.0
 71
     5
 72
     1
  1
\A1;62
 73
     1
 44
1.0
  0
POINT
  5
FE6
330
E60
100
AcDbEntity
  8
Defpoints
 62
     0
100
AcDbPoint
 10
138.0791024708797
 20
96.83711799814876
 30
0.0
  0
POINT
  5
FE7
330
E60
100
AcDbEntity
  8
Defpoints
 62
     0
100
AcDbPoint
 10
76.07910247087971
 20
96.83711799814876
 30
0.0
  0
POINT
  5
FE8
330
E60
100
AcDbEntity
  8
Defpoints
 62
     0
100
AcDbPoint
 10
76.07910247087971
 20
80.66922437608424
 30
0.0
  0
ENDBLK
  5
E6B
330
E60
100
AcDbEntity
  8
0
100
AcDbBlockEnd
  0
BLOCK
  5
E77
330
E6D
100
AcDbEntity
  8
0
100
AcDbBlockBegin
  2
*D2
 70
     1
 10
0.0
 20
0.0
 30
0.0
  3
*D2
  1

  0
LINE
  5
FD7
330
E6D
100
AcDbEntity
  8
BEM
 62
     0
370
    -2
100
AcDbLine
 10
68.07910247087971
 20
105.8371179981487
 30
0.0
 11
68.07910247087971
 21
71.89007056839773
 31
0.0
  0
LINE
  5
FD8
330
E6D
100
AcDbEntity
  8
BEM
 62
     0
370
    -2
100
AcDbLine
 10
146.0791024708797
 20
105.8371179981487
 30
0.0
 11
146.0791024708797
 21
71.89007056839773
 31
0.0
  0
LINE
  5
FD9
330
E6D
100
AcDbEntity
  8
BEM
 62
     0
370
    -2
100
AcDbLine
 10
71.57910247087972
 20
72.89007056839773
 30
0.0
 11
142.5791024708797
 21
72.89007056839773
 31
0.0
  0
SOLID
  5
FDA
330
E6D
100
AcDbEntity
  8
BEM
 62
     0
100
AcDbTrace
 10
71.57910247087972
 20
73.47340390173106
 30
0.0
 11
71.57910247087972
 21
72.3067372350644
 31
0.0
 12
68.07910247087971
 22
72.89007056839773
 32
0.0
 13
68.07910247087971
 23
72.89007056839773
 33
0.0
  0
SOLID
  5
FDB
330
E6D
100
AcDbEntity
  8
BEM
 62
     0
100
AcDbTrace
 10
142.5791024708797
 20
73.47340390173106
 30
0.0
 11
142.5791024708797
 21
72.3067372350644
 31
0.0
 12
146.0791024708797
 22
72.89007056839773
 32
0.0
 13
146.0791024708797
 23
72.89007056839773
 33
0.0
  0
MTEXT
  5
FDC
330
E6D
100
AcDbEntity
  8
BEM
 62
     1
100
AcDbMText
 10
107.0791024708797
 20
76.14007056839773
 30
0.0
 40
3.5
 41
0.0
 71
     5
 72
     1
  1
\A1;78
 73
     1
 44
1.0
  0
POINT
  5
FDD
330
E6D
100
AcDbEntity
  8
Defpoints
 62
     0
100
AcDbPoint
 10
68.07910247087971
 20
106.8371179981487
 30
0.0
  0
POINT
  5
FDE
330
E6D
100
AcDbEntity
  8
Defpoints
 62
     0
100
AcDbPoint
 10
146.0791024708797
 20
106.8371179981487
 30
0.0
  0
POINT
  5
FDF
330
E6D
100
AcDbEntity
  8
Defpoints
 62
     0
100
AcDbPoint
 10
146.0791024708797
 20
72.89007056839773
 30
0.0
  0
ENDBLK
  5
E78
330
E6D
100
AcDbEntity
  8
0
100
AcDbBlockEnd
  0
BLOCK
  5
EB7
330
EAB
100
AcDbEntity
  8
0
100
AcDbBlockBegin
  2
*D3
 70
     1
 10
0.0
 20
0.0
 30
0.0
  3
*D3
  1

  0
LINE
  5
FCC
330
EAB
100
AcDbEntity
  8
BEM
 62
     0
370
    -2
100
AcDbLine
 10
67.57910247087972
 20
253.4040813315658
 30
0.0
 11
60.19519963442284
 21
253.4040813315658
 31
0.0
  0
LINE
  5
FCD
330
EAB
100
AcDbEntity
  8
BEM
 62
     0
370
    -2
100
AcDbLine
 10
67.57910247087972
 20
256.4040813315657
 30
0.0
 11
60.19519963442284
 21
256.4040813315657
 31
0.0
  0
LINE
  5
FCE
330
EAB
100
AcDbEntity
  8
BEM
 62
     0
370
    -2
100
AcDbLine
 10
61.19519963442285
 20
249.9040813315658
 30
0.0
 11
61.19519963442285
 21
246.4040813315658
 31
0.0
  0
LINE
  5
FCF
330
EAB
100
AcDbEntity
  8
BEM
 62
     0
370
    -2
100
AcDbLine
 10
61.19519963442285
 20
259.9040813315657
 30
0.0
 11
61.19519963442285
 21
263.4040813315658
 31
0.0
  0
LINE
  5
FD0
330
EAB
100
AcDbEntity
  8
BEM
 62
     0
370
    -2
100
AcDbLine
 10
61.19519963442285
 20
253.4040813315658
 30
0.0
 11
61.19519963442285
 21
256.4040813315657
 31
0.0
  0
SOLID
  5
FD1
330
EAB
100
AcDbEntity
  8
BEM
 62
     0
100
AcDbTrace
 10
60.61186630108951
 20
249.9040813315658
 30
0.0
 11
61.77853296775619
 21
249.9040813315658
 31
0.0
 12
61.19519963442285
 22
253.4040813315658
 32
0.0
 13
61.19519963442285
 23
253.4040813315658
 33
0.0
  0
SOLID
  5
FD2
330
EAB
100
AcDbEntity
  8
BEM
 62
     0
100
AcDbTrace
 10
60.61186630108951
 20
259.9040813315657
 30
0.0
 11
61.77853296775619
 21
259.9040813315657
 31
0.0
 12
61.19519963442285
 22
256.4040813315657
 32
0.0
 13
61.19519963442285
 23
256.4040813315657
 33
0.0
  0
MTEXT
  5
FD3
330
EAB
100
AcDbEntity
  8
BEM
 62
     1
100
AcDbMText
 10
57.9451996344228
 20
254.9040813315658
 30
0.0
 40
3.5
 41
0.0
 71
     5
 72
     1
  1
\A1;3
 11
0.0000000000000001
 21
1.0
 31
0.0
 73
     1
 44
1.0
  0
POINT
  5
FD4
330
EAB
100
AcDbEntity
  8
Defpoints
 62
     0
100
AcDbPoint
 10
68.57910247087971
 20
253.4040813315658
 30
0.0
  0
POINT
  5
FD5
330
EAB
100
AcDbEntity
  8
Defpoints
 62
     0
100
AcDbPoint
 10
68.57910247087971
 20
256.4040813315657
 30
0.0
  0
POINT
  5
FD6
330
EAB
100
AcDbEntity
  8
Defpoints
 62
     0
100
AcDbPoint
 10
61.19519963442285
 20
256.4040813315657
 30
0.0
  0
ENDBLK
  5
EB8
330
EAB
100
AcDbEntity
  8
0
100
AcDbBlockEnd
  0
BLOCK
  5
EDA
330
ED0
100
AcDbEntity
  8
0
100
AcDbBlockBegin
  2
*D4
 70
     1
 10
0.0
 20
0.0
 30
0.0
  3
*D4
  1

  0
LINE
  5
FC3
330
ED0
100
AcDbEntity
  8
BEM
 62
     0
370
    -2
100
AcDbLine
 10
106.3121024708797
 20
278.9040813315657
 30
0.0
 11
51.55076171231375
 21
278.9040813315657
 31
0.0
  0
LINE
  5
FC4
330
ED0
100
AcDbEntity
  8
BEM
 62
     0
370
    -2
100
AcDbLine
 10
106.3121024708797
 20
136.9040813315657
 30
0.0
 11
51.55076171231371
 21
136.9040813315657
 31
0.0
  0
LINE
  5
FC5
330
ED0
100
AcDbEntity
  8
BEM
 62
     0
370
    -2
100
AcDbLine
 10
52.55076171231375
 20
275.4040813315658
 30
0.0
 11
52.55076171231372
 21
140.4040813315658
 31
0.0
  0
SOLID
  5
FC6
330
ED0
100
AcDbEntity
  8
BEM
 62
     0
100
AcDbTrace
 10
51.96742837898042
 20
275.4040813315658
 30
0.0
 11
53.13409504564709
 21
275.4040813315658
 31
0.0
 12
52.55076171231375
 22
278.9040813315657
 32
0.0
 13
52.55076171231375
 23
278.9040813315657
 33
0.0
  0
SOLID
  5
FC7
330
ED0
100
AcDbEntity
  8
BEM
 62
     0
100
AcDbTrace
 10
51.96742837898038
 20
140.4040813315658
 30
0.0
 11
53.13409504564705
 21
140.4040813315658
 31
0.0
 12
52.55076171231372
 22
136.9040813315657
 32
0.0
 13
52.55076171231372
 23
136.9040813315657
 33
0.0
  0
MTEXT
  5
FC8
330
ED0
100
AcDbEntity
  8
BEM
 62
     1
100
AcDbMText
 10
49.3007617123137
 20
207.9040813315657
 30
0.0
 40
3.5
 41
0.0
 71
     5
 72
     1
  1
\A1;142
 11
0.0000000000000001
 21
1.0
 31
0.0
 73
     1
 44
1.0
  0
POINT
  5
FC9
330
ED0
100
AcDbEntity
  8
Defpoints
 62
     0
100
AcDbPoint
 10
107.3121024708797
 20
278.9040813315657
 30
0.0
  0
POINT
  5
FCA
330
ED0
100
AcDbEntity
  8
Defpoints
 62
     0
100
AcDbPoint
 10
107.3121024708797
 20
136.9040813315657
 30
0.0
  0
POINT
  5
FCB
330
ED0
100
AcDbEntity
  8
Defpoints
 62
     0
100
AcDbPoint
 10
52.55076171231372
 20
136.9040813315657
 30
0.0
  0
ENDBLK
  5
EDB
330
ED0
100
AcDbEntity
  8
0
100
AcDbBlockEnd
  0
BLOCK
  5
F30
330
F28
100
AcDbEntity
  8
0
100
AcDbBlockBegin
  2
*D5
 70
     1
 10
0.0
 20
0.0
 30
0.0
  3
*D5
  1

  0
LINE
  5
FBA
330
F28
100
AcDbEntity
  8
BEM
 62
     0
370
    -2
100
AcDbLine
 10
90.65629672033967
 20
242.0750722745518
 30
0.0
 11
90.70470710816804
 21
242.0056248811594
 31
0.0
  0
LINE
  5
FBB
330
F28
100
AcDbEntity
  8
BEM
 62
     0
370
    -2
100
AcDbLine
 10
125.1109560248359
 20
266.0927256082191
 30
0.0
 11
125.1593664126643
 21
266.0232782148268
 31
0.0
  0
LINE
  5
FBC
330
F28
100
AcDbEntity
  8
BEM
 62
     0
370
    -2
100
AcDbLine
 10
93.00409858592493
 20
244.827468043353
 30
0.0
 11
121.7162678269948
 21
264.8421464993264
 31
0.0
  0
SOLID
  5
FBD
330
F28
100
AcDbEntity
  8
BEM
 62
     0
100
AcDbTrace
 10
92.6705173461171
 20
245.3060088819719
 30
0.0
 11
93.33767982573277
 21
244.3489272047342
 31
0.0
 12
90.13285355421174
 22
242.825980604506
 32
0.0
 13
90.13285355421174
 23
242.825980604506
 33
0.0
  0
SOLID
  5
FBE
330
F28
100
AcDbEntity
  8
BEM
 62
     0
100
AcDbTrace
 10
121.382686587187
 20
265.3206873379453
 30
0.0
 11
122.0498490668027
 21
264.3636056607075
 31
0.0
 12
124.587512858708
 22
266.8436339381734
 32
0.0
 13
124.587512858708
 23
266.8436339381734
 33
0.0
  0
MTEXT
  5
FBF
330
F28
100
AcDbEntity
  8
BEM
 62
     1
100
AcDbMText
 10
111.4841368935689
 20
261.6712288537302
 30
0.0
 40
3.5
 41
0.0
 71
     5
 72
     1
  1
\A1;42
 11
0.8203557233466261
 21
0.5718535539562852
 31
0.0
 73
     1
 44
1.0
  0
POINT
  5
FC0
330
F28
100
AcDbEntity
  8
Defpoints
 62
     0
100
AcDbPoint
 10
90.08444316638337
 20
242.8954279978984
 30
0.0
  0
POINT
  5
FC1
330
F28
100
AcDbEntity
  8
Defpoints
 62
     0
100
AcDbPoint
 10
124.5391024708797
 20
266.9130813315657
 30
0.0
  0
POINT
  5
FC2
330
F28
100
AcDbEntity
  8
Defpoints
 62
     0
100
AcDbPoint
 10
124.587512858708
 20
266.8436339381734
 30
0.0
  0
ENDBLK
  5
F31
330
F28
100
AcDbEntity
  8
0
100
AcDbBlockEnd
  0
BLOCK
  5
1034
330
1028
100
AcDbEntity
  8
0
100
AcDbBlockBegin
  2
*D6
 70
     1
 10
0.0
 20
0.0
 30
0.0
  3
*D6
  1

  0
LINE
  5
1036
330
1028
100
AcDbEntity
  8
BEM
 62
     0
370
    -2
100
AcDbLine
 10
110.3121024708797
 20
172.1011063445359
 30
0.0
 11
110.3121024708797
 21
172.3389021063587
 31
0.0
  0
LINE
  5
1037
330
1028
100
AcDbEntity
  8
BEM
 62
     0
370
    -2
100
AcDbLine
 10
104.3121024708797
 20
172.1011063445359
 30
0.0
 11
104.3121024708797
 21
172.3389021063587
 31
0.0
  0
LINE
  5
1038
330
1028
100
AcDbEntity
  8
BEM
 62
     0
370
    -2
100
AcDbLine
 10
113.8121024708797
 20
171.3389021063587
 30
0.0
 11
117.3121024708797
 21
171.3389021063587
 31
0.0
  0
LINE
  5
1039
330
1028
100
AcDbEntity
  8
BEM
 62
     0
370
    -2
100
AcDbLine
 10
100.8121024708797
 20
171.3389021063587
 30
0.0
 11
92.57876913754637
 21
171.3389021063587
 31
0.0
  0
LINE
  5
103A
330
1028
100
AcDbEntity
  8
BEM
 62
     0
370
    -2
100
AcDbLine
 10
110.3121024708797
 20
171.3389021063587
 30
0.0
 11
104.3121024708797
 21
171.3389021063587
 31
0.0
  0
SOLID
  5
103B
330
1028
100
AcDbEntity
  8
BEM
 62
     0
100
AcDbTrace
 10
113.8121024708797
 20
171.922235439692
 30
0.0
 11
113.8121024708797
 21
170.7555687730253
 31
0.0
 12
110.3121024708797
 22
171.3389021063587
 32
0.0
 13
110.3121024708797
 23
171.3389021063587
 33
0.0
  0
SOLID
  5
103C
330
1028
100
AcDbEntity
  8
BEM
 62
     0
100
AcDbTrace
 10
100.8121024708797
 20
171.922235439692
 30
0.0
 11
100.8121024708797
 21
170.7555687730253
 31
0.0
 12
104.3121024708797
 22
171.3389021063587
 32
0.0
 13
104.3121024708797
 23
171.3389021063587
 33
0.0
  0
MTEXT
  5
103D
330
1028
100
AcDbEntity
  8
BEM
 62
     1
100
AcDbMText
 10
94.94543580421305
 20
174.5889021063587
 30
0.0
 40
3.5
 41
0.0
 71
     5
 72
     1
  1
\A1;6
 73
     1
 44
1.0
  0
POINT
  5
103E
330
1028
100
AcDbEntity
  8
Defpoints
 62
     0
100
AcDbPoint
 10
110.3121024708797
 20
171.1011063445359
 30
0.0
  0
POINT
  5
103F
330
1028
100
AcDbEntity
  8
Defpoints
 62
     0
100
AcDbPoint
 10
104.3121024708797
 20
171.1011063445359
 30
0.0
  0
POINT
  5
1040
330
1028
100
AcDbEntity
  8
Defpoints
 62
     0
100
AcDbPoint
 10
104.3121024708797
 20
171.3389021063587
 30
0.0
  0
ENDBLK
  5
1035
330
1028
100
AcDbEntity
  8
0
100
AcDbBlockEnd
  0
BLOCK
  5
1060
330
1056
100
AcDbEntity
  8
0
100
AcDbBlockBegin
  2
*D7
 70
     1
 10
0.0
 20
0.0
 30
0.0
  3
*D7
  1

  0
LINE
  5
1057
330
1056
100
AcDbEntity
  8
BEM
 62
     0
370
    -2
100
AcDbLine
 10
106.3121024708797
 20
136.9040813315657
 30
0.0
 11
60.19519963442282
 21
136.9040813315657
 31
0.0
  0
LINE
  5
1058
330
1056
100
AcDbEntity
  8
BEM
 62
     0
370
    -2
100
AcDbLine
 10
95.81210247087971
 20
216.9040813315657
 30
0.0
 11
60.19519963442284
 21
216.9040813315658
 31
0.0
  0
LINE
  5
1059
330
1056
100
AcDbEntity
  8
BEM
 62
     0
370
    -2
100
AcDbLine
 10
61.19519963442282
 20
140.4040813315658
 30
0.0
 11
61.19519963442284
 21
213.4040813315658
 31
0.0
  0
SOLID
  5
105A
330
1056
100
AcDbEntity
  8
BEM
 62
     0
100
AcDbTrace
 10
60.61186630108949
 20
140.4040813315658
 30
0.0
 11
61.77853296775616
 21
140.4040813315658
 31
0.0
 12
61.19519963442282
 22
136.9040813315657
 32
0.0
 13
61.19519963442282
 23
136.9040813315657
 33
0.0
  0
SOLID
  5
105B
330
1056
100
AcDbEntity
  8
BEM
 62
     0
100
AcDbTrace
 10
60.6118663010895
 20
213.4040813315658
 30
0.0
 11
61.77853296775618
 21
213.4040813315658
 31
0.0
 12
61.19519963442284
 22
216.9040813315658
 32
0.0
 13
61.19519963442284
 23
216.9040813315658
 33
0.0
  0
MTEXT
  5
105C
330
1056
100
AcDbEntity
  8
BEM
 62
     1
100
AcDbMText
 10
57.9451996344228
 20
176.9040813315658
 30
0.0
 40
3.5
 41
0.0
 71
     5
 72
     1
  1
\A1;80
 11
0.0000000000000001
 21
1.0
 31
0.0
 73
     1
 44
1.0
  0
POINT
  5
105D
330
1056
100
AcDbEntity
  8
Defpoints
 62
     0
100
AcDbPoint
 10
107.3121024708797
 20
136.9040813315657
 30
0.0
  0
POINT
  5
105E
330
1056
100
AcDbEntity
  8
Defpoints
 62
     0
100
AcDbPoint
 10
96.81210247087973
 20
216.9040813315657
 30
0.0
  0
POINT
  5
105F
330
1056
100
AcDbEntity
  8
Defpoints
 62
     0
100
AcDbPoint
 10
61.19519963442284
 20
216.9040813315658
 30
0.0
  0
ENDBLK
  5
1061
330
1056
100
AcDbEntity
  8
0
100
AcDbBlockEnd
  0
BLOCK
  5
1077
330
106D
100
AcDbEntity
  8
0
100
AcDbBlockBegin
  2
*D8
 70
     1
 10
0.0
 20
0.0
 30
0.0
  3
*D8
  1

  0
LINE
  5
106E
330
106D
100
AcDbEntity
  8
BEM
 62
     0
370
    -2
100
AcDbLine
 10
70.42845856650652
 20
119.3371027391805
 30
0.0
 11
58.20923043230562
 21
119.3371027391805
 31
0.0
  0
LINE
  5
106F
330
106D
100
AcDbEntity
  8
BEM
 62
     0
370
    -2
100
AcDbLine
 10
70.42847618604167
 20
94.33710273918684
 30
0.0
 11
58.20923043230561
 21
94.33710273918684
 31
0.0
  0
LINE
  5
1070
330
106D
100
AcDbEntity
  8
BEM
 62
     0
370
    -2
100
AcDbLine
 10
59.20923043230562
 20
115.8371027391805
 30
0.0
 11
59.20923043230562
 21
97.83710273918686
 31
0.0
  0
SOLID
  5
1071
330
106D
100
AcDbEntity
  8
BEM
 62
     0
100
AcDbTrace
 10
58.62589709897228
 20
115.8371027391805
 30
0.0
 11
59.79256376563895
 21
115.8371027391805
 31
0.0
 12
59.20923043230562
 22
119.3371027391805
 32
0.0
 13
59.20923043230562
 23
119.3371027391805
 33
0.0
  0
SOLID
  5
1072
330
106D
100
AcDbEntity
  8
BEM
 62
     0
100
AcDbTrace
 10
58.62589709897228
 20
97.83710273918686
 30
0.0
 11
59.79256376563895
 21
97.83710273918686
 31
0.0
 12
59.20923043230562
 22
94.33710273918684
 32
0.0
 13
59.20923043230562
 23
94.33710273918684
 33
0.0
  0
MTEXT
  5
1073
330
106D
100
AcDbEntity
  8
BEM
 62
     1
100
AcDbMText
 10
55.9592304323056
 20
106.8371027391837
 30
0.0
 40
3.5
 41
0.0
 71
     5
 72
     1
  1
\A1;25
 11
0.0000000000000001
 21
1.0
 31
0.0
 73
     1
 44
1.0
  0
POINT
  5
1074
330
106D
100
AcDbEntity
  8
Defpoints
 62
     0
100
AcDbPoint
 10
71.42845856650652
 20
119.3371027391805
 30
0.0
  0
POINT
  5
1075
330
106D
100
AcDbEntity
  8
Defpoints
 62
     0
100
AcDbPoint
 10
71.42847618604168
 20
94.33710273918684
 30
0.0
  0
POINT
  5
1076
330
106D
100
AcDbEntity
  8
Defpoints
 62
     0
100
AcDbPoint
 10
59.20923043230562
 20
94.33710273918684
 30
0.0
  0
ENDBLK
  5
1078
330
106D
100
AcDbEntity
  8
0
100
AcDbBlockEnd
  0
ENDSEC
  0
SECTION
  2
ENTITIES
  0
LINE
  5
57
330
1E
100
AcDbEntity
  8
STEMPEL
100
AcDbLine
 10
205.0
 20
55.00000000000003
 30
0.0
 11
19.99999999999998
 21
55.0
 31
0.0
  0
LINE
  5
58
330
1E
100
AcDbEntity
  8
STEMPEL
100
AcDbLine
 10
68.00000000000006
 20
54.99999999999997
 30
0.0
 11
68.0
 21
4.999999999999985
 31
0.0
  0
LINE
  5
59
330
1E
100
AcDbEntity
  8
STEMPEL
100
AcDbLine
 10
110.0
 20
55.00000000000003
 30
0.0
 11
110.0
 21
4.999999999999985
 31
0.0
  0
LINE
  5
5A
330
1E
100
AcDbEntity
  8
STEMPEL
100
AcDbLine
 10
166.0
 20
54.99999999999989
 30
0.0
 11
166.0
 21
20.0
 31
0.0
  0
LINE
  5
5B
330
1E
100
AcDbEntity
  8
STEMPEL
100
AcDbLine
 10
67.99999999999994
 20
14.99999999999998
 30
0.0
 11
19.99999999999998
 21
14.99999999999998
 31
0.0
  0
LINE
  5
5C
330
1E
100
AcDbEntity
  8
STEMPEL
100
AcDbLine
 10
205.0
 20
20.0
 30
0.0
 11
68.00000000000006
 21
19.99999999999998
 31
0.0
  0
LINE
  5
5D
330
1E
100
AcDbEntity
  8
STEMPEL
100
AcDbLine
 10
205.0
 20
40.0
 30
0.0
 11
68.00000000000006
 21
39.99999999999997
 31
0.0
  0
LINE
  5
5E
330
1E
100
AcDbEntity
  8
VOLL
100
AcDbLine
 10
27.00000000000005
 20
55.00000000000003
 30
0.0
 11
26.99999999999999
 21
4.999999999999985
 31
0.0
  0
LINE
  5
5F
330
1E
100
AcDbEntity
  8
VOLL
100
AcDbLine
 10
47.00000000000005
 20
54.99999999999997
 30
0.0
 11
47.0
 21
4.999999999999985
 31
0.0
  0
LINE
  5
60
330
1E
100
AcDbEntity
  8
VOLL
100
AcDbLine
 10
57.00000000000006
 20
54.99999999999997
 30
0.0
 11
57.0
 21
4.999999999999985
 31
0.0
  0
LINE
  5
61
330
1E
100
AcDbEntity
  8
VOLL
100
AcDbLine
 10
77.00000000000006
 20
39.99999999999997
 30
0.0
 11
77.00000000000006
 21
19.99999999999998
 31
0.0
  0
LINE
  5
62
330
1E
100
AcDbEntity
  8
VOLL
100
AcDbLine
 10
90.00000000000005
 20
54.99999999999992
 30
0.0
 11
90.0
 21
19.99999999999998
 31
0.0
  0
LINE
  5
63
330
1E
100
AcDbEntity
  8
HILF
100
AcDbLine
 10
20.00000000000004
 20
50.00000000000003
 30
0.0
 11
68.00000000000006
 21
50.00000000000003
 31
0.0
  0
LINE
  5
64
330
1E
100
AcDbEntity
  8
HILF
100
AcDbLine
 10
20.00000000000004
 20
45.00000000000002
 30
0.0
 11
68.00000000000006
 21
45.00000000000002
 31
0.0
  0
LINE
  5
65
330
1E
100
AcDbEntity
  8
HILF
100
AcDbLine
 10
20.00000000000004
 20
39.99999999999997
 30
0.0
 11
68.00000000000006
 21
39.99999999999997
 31
0.0
  0
LINE
  5
66
330
1E
100
AcDbEntity
  8
HILF
100
AcDbLine
 10
20.00000000000004
 20
34.99999999999997
 30
0.0
 11
68.00000000000006
 21
34.99999999999997
 31
0.0
  0
LINE
  5
67
330
1E
100
AcDbEntity
  8
HILF
100
AcDbLine
 10
20.00000000000004
 20
29.99999999999999
 30
0.0
 11
68.00000000000006
 21
29.99999999999999
 31
0.0
  0
LINE
  5
68
330
1E
100
AcDbEntity
  8
HILF
100
AcDbLine
 10
20.00000000000004
 20
24.99999999999999
 30
0.0
 11
68.00000000000006
 21
24.99999999999999
 31
0.0
  0
LINE
  5
69
330
1E
100
AcDbEntity
  8
HILF
100
AcDbLine
 10
20.00000000000004
 20
19.99999999999998
 30
0.0
 11
68.00000000000006
 21
19.99999999999998
 31
0.0
  0
LINE
  5
6A
330
1E
100
AcDbEntity
  8
HILF
100
AcDbLine
 10
68.00000000000006
 20
34.99999999999997
 30
0.0
 11
110.0
 21
34.99999999999997
 31
0.0
  0
LINE
  5
6B
330
1E
100
AcDbEntity
  8
HILF
100
AcDbLine
 10
68.00000000000006
 20
29.99999999999999
 30
0.0
 11
110.0
 21
29.99999999999999
 31
0.0
  0
LINE
  5
6C
330
1E
100
AcDbEntity
  8
HILF
100
AcDbLine
 10
68.00000000000006
 20
24.99999999999999
 30
0.0
 11
110.0
 21
24.99999999999999
 31
0.0
  0
LINE
  5
6D
330
1E
100
AcDbEntity
  8
HILF
100
AcDbLine
 10
112.3868400548474
 20
42.01879123782069
 30
0.0
 11
162.4176958278155
 21
42.01879123782069
 31
0.0
  0
LINE
  5
6E
330
1E
100
AcDbEntity
  8
HILF
100
AcDbLine
 10
112.3868400548474
 20
34.99999999999997
 30
0.0
 11
162.4176958278155
 21
34.99999999999997
 31
0.0
  0
LINE
  5
6F
330
1E
100
AcDbEntity
  8
HILF
100
AcDbLine
 10
112.3868400548474
 20
29.99999999999999
 30
0.0
 11
162.4176958278155
 21
29.99999999999999
 31
0.0
  0
LINE
  5
70
330
1E
100
AcDbEntity
  8
HILF
100
AcDbLine
 10
112.3868400548474
 20
24.99999999999999
 30
0.0
 11
162.4176958278155
 21
24.99999999999999
 31
0.0
  0
LINE
  5
71
330
1E
100
AcDbEntity
  8
VOLL
100
AcDbLine
 10
166.0
 20
30.0
 30
0.0
 11
205.0
 21
30.0
 31
0.0
  0
LINE
  5
72
330
1E
100
AcDbEntity
  8
HILF
100
AcDbLine
 10
168.3619308148496
 20
41.88991818477913
 30
0.0
 11
202.4294419663364
 21
41.88991818477913
 31
0.0
  0
LINE
  5
73
330
1E
100
AcDbEntity
  8
HILF
100
AcDbLine
 10
111.7454849644942
 20
7.446991290141568
 30
0.0
 11
202.4294419663364
 21
7.446991290141568
 31
0.0
  0
TEXT
  5
74
330
1E
100
AcDbEntity
  8
TEXT
100
AcDbText
 10
31.9308298981591
 20
9.336909474920659
 30
0.0
 40
2.0
  1
Änderung
 41
0.8
  7
GREEKS
 72
     1
 11
37.30225846958767
 21
9.336909474920659
 31
0.0
100
AcDbText
  0
TEXT
  5
75
330
1E
100
AcDbEntity
  8
TEXT
100
AcDbText
 10
71.75817860751886
 20
51.23104475435443
 30
0.0
 40
2.5
  1
Maßstab
 41
0.8
  7
GREEKS
100
AcDbText
  0
TEXT
  5
76
330
1E
100
AcDbEntity
  8
TEXT
100
AcDbText
 10
92.14294773670257
 20
51.20920842174095
 30
0.0
 40
2.5
  1
Zul. Abw.
 41
0.8
  7
GREEKS
100
AcDbText
  0
TEXT
  5
77
330
1E
100
AcDbEntity
  8
TEXT
100
AcDbText
 10
112.4389701904505
 20
51.27446640058898
 30
0.0
 40
2.5
  1
Benennung
 41
0.8
  7
GREEKS
100
AcDbText
  0
TEXT
  5
78
330
1E
100
AcDbEntity
  8
TEXT
100
AcDbText
 10
168.089377478817
 20
51.15660172685682
 30
0.0
 40
2.5
  1
Zeichnungs Nr.
 41
0.8
  7
GREEKS
100
AcDbText
  0
TEXT
  5
79
330
1E
100
AcDbEntity
  8
TEXT
100
AcDbText
 10
112.371119195568
 20
15.42280285096528
 30
0.0
 40
2.5
  1
Bauvorhaben
 41
0.8
  7
GREEKS
100
AcDbText
  0
TEXT
  5
7A
330
1E
100
AcDbEntity
  8
TEXT
100
AcDbText
 10
168.3619308148496
 20
36.59059118549985
 30
0.0
 40
2.5
  1
Ersatz für:
 41
0.8
  7
GREEKS
100
AcDbText
  0
TEXT
  5
7B
330
1E
100
AcDbEntity
  8
TEXT
100
AcDbText
 10
24.13320553522878
 20
6.827329230135958
 30
0.0
 40
2.0
  1
Index
 50
90.0
 41
0.8
  7
GREEKS
100
AcDbText
  0
TEXT
  5
7C
330
1E
100
AcDbEntity
  8
TEXT
100
AcDbText
 10
50.04673380377405
 20
9.33578134669905
 30
0.0
 40
2.0
  1
Tag
 41
0.8
  7
GREEKS
 72
     1
 11
51.91340047044072
 21
9.33578134669905
 31
0.0
100
AcDbText
  0
TEXT
  5
7D
330
1E
100
AcDbEntity
  8
TEXT
100
AcDbText
 10
59.50613721932963
 20
9.29662108483204
 30
0.0
 40
2.0
  1
Name
 41
0.8
  7
GREEKS
 72
     1
 11
62.66804198123439
 21
9.29662108483204
 31
0.0
100
AcDbText
  0
TEXT
  5
7E
330
1E
100
AcDbEntity
  8
TEXT
100
AcDbText
 10
81.16558365768254
 20
36.65940250614963
 30
0.0
 40
2.0
  1
Tag
 41
0.8
  7
GREEKS
100
AcDbText
  0
TEXT
  5
7F
330
1E
100
AcDbEntity
  8
TEXT
100
AcDbText
 10
96.23132921131475
 20
36.65480545957612
 30
0.0
 40
2.0
  1
Name
 41
0.8
  7
GREEKS
100
AcDbText
  0
TEXT
  5
80
330
1E
100
AcDbEntity
  8
TEXT
100
AcDbText
 10
68.79180635838077
 20
31.81495184808982
 30
0.0
 40
2.0
  1
Gez.
 41
0.8
  7
GREEKS
100
AcDbText
  0
TEXT
  5
81
330
1E
100
AcDbEntity
  8
TEXT
100
AcDbText
 10
68.77575432858361
 20
26.84463145714189
 30
0.0
 40
2.0
  1
Gepr.
 41
0.8
  7
GREEKS
100
AcDbText
  0
TEXT
  5
82
330
1E
100
AcDbEntity
  8
TEXT
100
AcDbText
 10
68.80033886936519
 20
21.76473194824904
 30
0.0
 40
2.0
  1
Norm.
 41
0.8
  7
GREEKS
100
AcDbText
  0
LINE
  5
83
330
1E
100
AcDbEntity
  8
STEMPEL
100
AcDbLine
 10
24.99999999999995
 20
5.0
 30
0.0
 11
205.0
 21
5.0
 31
0.0
  0
TEXT
  5
84
330
1E
100
AcDbEntity
  8
TEXT
100
AcDbText
 10
168.6200430748503
 20
26.03708088939301
 30
0.0
 40
2.5
  1
ersetzt durch:
 41
0.8
  7
GREEKS
100
AcDbText
  0
LINE
  5
85
330
1E
100
AcDbEntity
  8
STEMPEL
100
AcDbLine
 10
205.0
 20
5.0
 30
0.0
 11
19.99999999999994
 21
5.0
 31
0.0
  0
LINE
  5
86
330
1E
100
AcDbEntity
  8
STEMPEL
100
AcDbLine
 10
205.0
 20
5.0
 30
0.0
 11
205.0
 21
292.0
 31
0.0
  0
LINE
  5
87
330
1E
100
AcDbEntity
  8
STEMPEL
100
AcDbLine
 10
20.0
 20
5.0
 30
0.0
 11
19.99999999999994
 21
292.0
 31
0.0
  0
LINE
  5
88
330
1E
100
AcDbEntity
  8
STEMPEL
100
AcDbLine
 10
205.0
 20
292.0
 30
0.0
 11
19.99999999999994
 21
292.0
 31
0.0
  0
LINE
  5
89
330
1E
100
AcDbEntity
  8
HILF
100
AcDbLine
 10
0.0
 20
0.0
 30
0.0
 11
-0.0000000000000568
 21
297.0
 31
0.0
  0
LINE
  5
8A
330
1E
100
AcDbEntity
  8
HILF
100
AcDbLine
 10
210.0
 20
297.0000000000001
 30
0.0
 11
0.0
 21
297.0
 31
0.0
  0
LINE
  5
8B
330
1E
100
AcDbEntity
  8
HILF
100
AcDbLine
 10
210.0
 20
0.0
 30
0.0
 11
0.0
 21
0.0
 31
0.0
  0
LINE
  5
8C
330
1E
100
AcDbEntity
  8
HILF
100
AcDbLine
 10
15.54383567856928
 20
148.5
 30
0.0
 11
0.0000000000000568
 21
148.5
 31
0.0
  0
TEXT
  5
8D
330
1E
100
AcDbEntity
  8
TEXT
100
AcDbText
 10
69.31105491105199
 20
36.57012735575833
 30
0.0
 40
2.0
  1
2012
 41
0.8
  7
GREEKS
100
AcDbText
  0
LINE
  5
8E
330
1E
100
AcDbEntity
  8
HILF
100
AcDbLine
 10
210.0
 20
-0.0000000000000568
 30
0.0
 11
210.0
 21
297.0
 31
0.0
  0
TEXT
  5
8F
330
1E
100
AcDbEntity
  8
VOLL
100
AcDbText
 10
78.07675471698113
 20
31.02594776470585
 30
0.0
 40
1.8
  1

  7
GREEKS
100
AcDbText
  0
TEXT
  5
90
330
1E
100
AcDbEntity
  8
TEXT
100
AcDbText
 10
20.92754975488837
 20
55.83599999999997
 30
0.0
 40
2.5
  1
Erstellt mit AUTOCAD 2004
 41
0.8
  7
GREEKS
100
AcDbText
  0
TEXT
  5
91
330
1E
100
AcDbEntity
  8
TEXT
100
AcDbText
 10
97.21080242906285
 20
31.54481959861755
 30
0.0
 40
2.0
  1
Koeh
 41
0.8
  7
GREEKS
 72
     1
 11
99.83937385763429
 21
31.54481959861755
 31
0.0
100
AcDbText
  0
TEXT
  5
92
330
1E
100
AcDbEntity
  8
TEXT
 62
     1
100
AcDbText
 10
171.6238587271335
 20
44.07450714456979
 30
0.0
 40
3.5
  1
00990040W
 41
0.8
  7
GREEKS
 72
     1
 11
183.6238587271335
 21
44.07450714456979
 31
0.0
100
AcDbText
  0
TEXT
  5
93
330
1E
100
AcDbEntity
  8
TEXT
 62
     1
100
AcDbText
 10
75.25031532409435
 20
44.07450714456979
 30
0.0
 40
3.5
  1
1:1
 41
0.8
  7
GREEKS
100
AcDbText
  0
TEXT
  5
94
330
1E
100
AcDbEntity
  8
TEXT
100
AcDbText
 10
80.35187950649897
 20
31.55382520412866
 30
0.0
 40
2.0
  1
29.10.
 41
0.8
  7
GREEKS
 72
     1
 11
83.70426045887993
 21
31.55382520412866
 31
0.0
100
AcDbText
  0
TEXT
  5
95
330
1E
100
AcDbEntity
  8
TEXT
 62
     1
100
AcDbText
 10
113.4467865528701
 20
43.70874394626889
 30
0.0
 40
3.5
  1
Rohrschelle DN40
 41
0.8
  7
GREEKS
100
AcDbText
  0
TEXT
  5
96
330
1E
100
AcDbEntity
  8
TEXT
100
AcDbText
 10
112.5648195562657
 20
35.75167208792644
 30
0.0
 40
2.5
  1
mit Schlagstift
 41
0.8
  7
GREEKS
100
AcDbText
  0
TEXT
  5
98
330
1E
100
AcDbEntity
  8
TEXT
100
AcDbText
 10
112.5648195562657
 20
25.82005971521079
 30
0.0
 40
2.5
  1
EDV-Art.Nr. 00990.040X
 41
0.8
  7
GREEKS
100
AcDbText
  0
TEXT
  5
99
330
1E
100
AcDbEntity
  8
TEXT
100
AcDbText
 10
112.4918750788913
 20
21.31487076511316
 30
0.0
 40
2.0
  1
00990040W.DWG
 41
0.8
  7
GREEKS
100
AcDbText
  0
TEXT
  5
9A
330
1E
100
AcDbEntity
  8
TEXT
100
AcDbText
 10
91.31306610404202
 20
45.38181920511511
 30
0.0
 40
2.0
  1
DIN EN1123-2
 41
0.8
  7
GREEKS
 72
     1
 11
99.80830419928011
 21
45.38181920511511
 31
0.0
100
AcDbText
  0
INSERT
  5
9B
330
1E
100
AcDbEntity
  8
STEMPEL
100
AcDbBlockReference
  2
LOGO
 10
70.4977742728897
 20
22.51052638224161
 30
0.0
  0
TEXT
  5
118
330
1E
100
AcDbEntity
  8
BEM
100
AcDbText
 10
208.6511461928583
 20
5.083950539994247
 30
0.0
 40
2.0
  1
Diese Zeichnung ist urheberrechtlich geschützt und bleibt unser Eigentum. Sie darf weder ganz noch teilweise verfielfältigt und nicht an Dritte weitergegeben werden.
 50
90.0
 41
0.8
  7
GREEKS
100
AcDbText
  0
TEXT
  5
C1B
330
1E
100
AcDbEntity
  8
TEXT
 62
     1
100
AcDbText
 10
150.8787922307875
 20
275.464985564576
 30
0.0
 40
3.5
  1
Schraube M6x16
 41
0.8
  7
GREEKS
100
AcDbText
  0
LINE
  5
C1C
330
1E
100
AcDbEntity
  8
TEXT
 62
     2
100
AcDbLine
 10
149.8188457327648
 20
273.7750328561277
 30
0.0
 11
187.3196866415801
 21
273.7750328561277
 31
0.0
  0
LINE
  5
C1D
330
1E
100
AcDbEntity
  8
TEXT
 62
     2
100
AcDbLine
 10
149.8188457327648
 20
273.7750328561277
 30
0.0
 11
139.7414570479543
 21
261.2688236063718
 31
0.0
  0
LINE
  5
D79
330
1E
100
AcDbEntity
  8
HILF
100
AcDbLine
 10
84.57910247087971
 20
101.8371179981487
 30
0.0
 11
130.0441024708797
 21
101.8371179981487
 31
0.0
  0
LINE
  5
D7A
330
1E
100
AcDbEntity
  8
HILF
100
AcDbLine
 10
84.57910247087971
 20
111.8371179981487
 30
0.0
 11
130.0441024708797
 21
111.8371179981487
 31
0.0
  0
CIRCLE
  5
D7B
330
1E
100
AcDbEntity
  8
STEMPEL
100
AcDbCircle
 10
138.0791024708797
 20
106.8371179981487
 30
0.0
 40
5.0
  0
LINE
  5
D7C
330
1E
100
AcDbEntity
  8
HILF
100
AcDbLine
 10
138.8291024708797
 20
103.7681179981487
 30
0.0
 11
137.3291024708797
 21
103.7681179981487
 31
0.0
  0
LINE
  5
D7D
330
1E
100
AcDbEntity
  8
HILF
100
AcDbLine
 10
138.8291024708797
 20
109.9061179981487
 30
0.0
 11
137.3291024708797
 21
109.9061179981487
 31
0.0
  0
LINE
  5
D7E
330
1E
100
AcDbEntity
  8
HILF
100
AcDbLine
 10
136.0331024708797
 20
104.7901179981487
 30
0.0
 11
137.0901024708797
 21
106.0871179981487
 31
0.0
  0
LINE
  5
D7F
330
1E
100
AcDbEntity
  8
HILF
100
AcDbLine
 10
137.3291024708797
 20
105.8471179981487
 30
0.0
 11
136.0331024708797
 21
104.7901179981487
 31
0.0
  0
LINE
  5
D80
330
1E
100
AcDbEntity
  8
HILF
100
AcDbLine
 10
140.1261024708797
 20
104.7901179981487
 30
0.0
 11
138.8291024708797
 21
105.8471179981487
 31
0.0
  0
LINE
  5
D81
330
1E
100
AcDbEntity
  8
HILF
100
AcDbLine
 10
139.0691024708797
 20
106.0871179981487
 30
0.0
 11
140.1261024708797
 21
104.7901179981487
 31
0.0
  0
LINE
  5
D82
330
1E
100
AcDbEntity
  8
HILF
100
AcDbLine
 10
140.1261024708797
 20
108.8841179981487
 30
0.0
 11
139.0691024708797
 21
107.5871179981487
 31
0.0
  0
LINE
  5
D83
330
1E
100
AcDbEntity
  8
HILF
100
AcDbLine
 10
138.8291024708797
 20
107.8271179981487
 30
0.0
 11
140.1261024708797
 21
108.8841179981487
 31
0.0
  0
LINE
  5
D84
330
1E
100
AcDbEntity
  8
HILF
100
AcDbLine
 10
136.0331024708797
 20
108.8841179981487
 30
0.0
 11
137.3291024708797
 21
107.8271179981487
 31
0.0
  0
LINE
  5
D85
330
1E
100
AcDbEntity
  8
HILF
100
AcDbLine
 10
137.0901024708797
 20
107.5871179981487
 30
0.0
 11
136.0331024708797
 21
108.8841179981487
 31
0.0
  0
ARC
  5
D86
330
1E
100
AcDbEntity
  8
HILF
100
AcDbCircle
 10
138.0791024708797
 20
106.8371179981487
 30
0.0
 40
1.274999999999999
100
AcDbArc
 50
143.9687949600006
 51
216.0312050399993
  0
ARC
  5
D87
330
1E
100
AcDbEntity
  8
HILF
100
AcDbCircle
 10
138.0791024708797
 20
106.8371179981487
 30
0.0
 40
1.274999999999999
100
AcDbArc
 50
233.9687889640004
 51
306.0312110359996
  0
ARC
  5
D88
330
1E
100
AcDbEntity
  8
HILF
100
AcDbCircle
 10
138.0791024708797
 20
106.8371179981487
 30
0.0
 40
1.274999999999999
100
AcDbArc
 50
323.9688056879998
 51
36.03120503999936
  0
ARC
  5
D89
330
1E
100
AcDbEntity
  8
HILF
100
AcDbCircle
 10
138.0791024708797
 20
106.8371179981487
 30
0.0
 40
1.274999999999999
100
AcDbArc
 50
53.96878896400039
 51
126.0312110359996
  0
LINE
  5
D8A
330
1E
100
AcDbEntity
  8
STEMPEL
100
AcDbLine
 10
137.3291024708797
 20
107.7871179981487
 30
0.0
 11
137.3291024708797
 21
111.7801179981487
 31
0.0
  0
ARC
  5
D8B
330
1E
100
AcDbEntity
  8
STEMPEL
100
AcDbCircle
 10
137.1291024708797
 20
107.7871179981487
 30
0.0
 40
0.2
100
AcDbArc
 50
270.0
 51
0.0087434429995981
  0
LINE
  5
D8C
330
1E
100
AcDbEntity
  8
STEMPEL
100
AcDbLine
 10
134.7291024708797
 20
107.5871179981487
 30
0.0
 11
137.1291024708797
 21
107.5871179981487
 31
0.0
  0
LINE
  5
D8D
330
1E
100
AcDbEntity
  8
STEMPEL
100
AcDbLine
 10
134.7291024708797
 20
106.0871179981487
 30
0.0
 11
134.7291024708797
 21
107.5871179981487
 31
0.0
  0
LINE
  5
D8E
330
1E
100
AcDbEntity
  8
STEMPEL
100
AcDbLine
 10
137.1291024708797
 20
106.0871179981487
 30
0.0
 11
134.7291024708797
 21
106.0871179981487
 31
0.0
  0
ARC
  5
D8F
330
1E
100
AcDbEntity
  8
STEMPEL
100
AcDbCircle
 10
137.1291024708797
 20
105.8871179981487
 30
0.0
 40
0.2
100
AcDbArc
 50
0.0
 51
90.0
  0
LINE
  5
D90
330
1E
100
AcDbEntity
  8
STEMPEL
100
AcDbLine
 10
137.3291024708797
 20
101.8941179981487
 30
0.0
 11
137.3291024708797
 21
105.8871179981487
 31
0.0
  0
LINE
  5
D91
330
1E
100
AcDbEntity
  8
STEMPEL
100
AcDbLine
 10
138.8291024708797
 20
105.8871179981487
 30
0.0
 11
138.8291024708797
 21
101.8941179981487
 31
0.0
  0
ARC
  5
D92
330
1E
100
AcDbEntity
  8
STEMPEL
100
AcDbCircle
 10
139.0291024708797
 20
105.8871179981487
 30
0.0
 40
0.2
100
AcDbArc
 50
90.0
 51
180.0
  0
LINE
  5
D93
330
1E
100
AcDbEntity
  8
STEMPEL
100
AcDbLine
 10
141.4291024708797
 20
106.0871179981487
 30
0.0
 11
139.0291024708797
 21
106.0871179981487
 31
0.0
  0
LINE
  5
D94
330
1E
100
AcDbEntity
  8
STEMPEL
100
AcDbLine
 10
141.4291024708797
 20
107.5871179981487
 30
0.0
 11
141.4291024708797
 21
106.0871179981487
 31
0.0
  0
LINE
  5
D95
330
1E
100
AcDbEntity
  8
STEMPEL
100
AcDbLine
 10
139.0291024708797
 20
107.5871179981487
 30
0.0
 11
141.4291024708797
 21
107.5871179981487
 31
0.0
  0
ARC
  5
D96
330
1E
100
AcDbEntity
  8
STEMPEL
100
AcDbCircle
 10
139.0291024708797
 20
107.7871179981487
 30
0.0
 40
0.2
100
AcDbArc
 50
180.0
 51
270.0087434429996
  0
LINE
  5
D97
330
1E
100
AcDbEntity
  8
STEMPEL
100
AcDbLine
 10
138.8291024708797
 20
111.7801179981487
 30
0.0
 11
138.8291024708797
 21
107.7871179981487
 31
0.0
  0
CIRCLE
  5
D98
330
1E
100
AcDbEntity
  8
STEMPEL
100
AcDbCircle
 10
76.07910247087971
 20
106.8371179981487
 30
0.0
 40
5.0
  0
LINE
  5
D99
330
1E
100
AcDbEntity
  8
HILF
100
AcDbLine
 10
76.82910247087971
 20
103.7681179981487
 30
0.0
 11
75.32910247087972
 21
103.7681179981487
 31
0.0
  0
LINE
  5
D9A
330
1E
100
AcDbEntity
  8
HILF
100
AcDbLine
 10
76.82910247087971
 20
109.9061179981487
 30
0.0
 11
75.32910247087972
 21
109.9061179981487
 31
0.0
  0
LINE
  5
D9B
330
1E
100
AcDbEntity
  8
HILF
100
AcDbLine
 10
74.03310247087972
 20
104.7901179981487
 30
0.0
 11
75.09010247087974
 21
106.0871179981487
 31
0.0
  0
LINE
  5
D9C
330
1E
100
AcDbEntity
  8
HILF
100
AcDbLine
 10
75.32910247087972
 20
105.8471179981487
 30
0.0
 11
74.03310247087972
 21
104.7901179981487
 31
0.0
  0
LINE
  5
D9D
330
1E
100
AcDbEntity
  8
HILF
100
AcDbLine
 10
78.12610247087974
 20
104.7901179981487
 30
0.0
 11
76.82910247087971
 21
105.8471179981487
 31
0.0
  0
LINE
  5
D9E
330
1E
100
AcDbEntity
  8
HILF
100
AcDbLine
 10
77.06910247087972
 20
106.0871179981487
 30
0.0
 11
78.12610247087974
 21
104.7901179981487
 31
0.0
  0
LINE
  5
D9F
330
1E
100
AcDbEntity
  8
HILF
100
AcDbLine
 10
78.12610247087974
 20
108.8841179981487
 30
0.0
 11
77.06910247087972
 21
107.5871179981487
 31
0.0
  0
LINE
  5
DA0
330
1E
100
AcDbEntity
  8
HILF
100
AcDbLine
 10
76.82910247087971
 20
107.8271179981487
 30
0.0
 11
78.12610247087974
 21
108.8841179981487
 31
0.0
  0
LINE
  5
DA1
330
1E
100
AcDbEntity
  8
HILF
100
AcDbLine
 10
74.03310247087972
 20
108.8841179981487
 30
0.0
 11
75.32910247087972
 21
107.8271179981487
 31
0.0
  0
LINE
  5
DA2
330
1E
100
AcDbEntity
  8
HILF
100
AcDbLine
 10
75.09010247087974
 20
107.5871179981487
 30
0.0
 11
74.03310247087972
 21
108.8841179981487
 31
0.0
  0
ARC
  5
DA3
330
1E
100
AcDbEntity
  8
HILF
100
AcDbCircle
 10
76.07910247087971
 20
106.8371179981487
 30
0.0
 40
1.274999999999999
100
AcDbArc
 50
143.9687949600006
 51
216.0312050399993
  0
ARC
  5
DA4
330
1E
100
AcDbEntity
  8
HILF
100
AcDbCircle
 10
76.07910247087971
 20
106.8371179981487
 30
0.0
 40
1.274999999999999
100
AcDbArc
 50
233.9687889640004
 51
306.0312110359996
  0
ARC
  5
DA5
330
1E
100
AcDbEntity
  8
HILF
100
AcDbCircle
 10
76.07910247087971
 20
106.8371179981487
 30
0.0
 40
1.274999999999999
100
AcDbArc
 50
323.9688056879998
 51
36.03120503999936
  0
ARC
  5
DA6
330
1E
100
AcDbEntity
  8
HILF
100
AcDbCircle
 10
76.07910247087971
 20
106.8371179981487
 30
0.0
 40
1.274999999999999
100
AcDbArc
 50
53.96878896400039
 51
126.0312110359996
  0
LINE
  5
DA7
330
1E
100
AcDbEntity
  8
STEMPEL
100
AcDbLine
 10
75.32910247087972
 20
107.7871179981487
 30
0.0
 11
75.32910247087972
 21
111.7801179981487
 31
0.0
  0
ARC
  5
DA8
330
1E
100
AcDbEntity
  8
STEMPEL
100
AcDbCircle
 10
75.12910247087972
 20
107.7871179981487
 30
0.0
 40
0.2
100
AcDbArc
 50
270.0
 51
0.0087434429995981
  0
LINE
  5
DA9
330
1E
100
AcDbEntity
  8
STEMPEL
100
AcDbLine
 10
72.72910247087972
 20
107.5871179981487
 30
0.0
 11
75.12910247087972
 21
107.5871179981487
 31
0.0
  0
LINE
  5
DAA
330
1E
100
AcDbEntity
  8
STEMPEL
100
AcDbLine
 10
72.72910247087972
 20
106.0871179981487
 30
0.0
 11
72.72910247087972
 21
107.5871179981487
 31
0.0
  0
LINE
  5
DAB
330
1E
100
AcDbEntity
  8
STEMPEL
100
AcDbLine
 10
75.12910247087972
 20
106.0871179981487
 30
0.0
 11
72.72910247087972
 21
106.0871179981487
 31
0.0
  0
ARC
  5
DAC
330
1E
100
AcDbEntity
  8
STEMPEL
100
AcDbCircle
 10
75.12910247087972
 20
105.8871179981487
 30
0.0
 40
0.2
100
AcDbArc
 50
0.0
 51
90.0
  0
LINE
  5
DAD
330
1E
100
AcDbEntity
  8
STEMPEL
100
AcDbLine
 10
75.32910247087972
 20
101.8941179981487
 30
0.0
 11
75.32910247087972
 21
105.8871179981487
 31
0.0
  0
LINE
  5
DAE
330
1E
100
AcDbEntity
  8
STEMPEL
100
AcDbLine
 10
76.82910247087971
 20
105.8871179981487
 30
0.0
 11
76.82910247087971
 21
101.8941179981487
 31
0.0
  0
ARC
  5
DAF
330
1E
100
AcDbEntity
  8
STEMPEL
100
AcDbCircle
 10
77.0291024708797
 20
105.8871179981487
 30
0.0
 40
0.2
100
AcDbArc
 50
90.0
 51
180.0
  0
LINE
  5
DB0
330
1E
100
AcDbEntity
  8
STEMPEL
100
AcDbLine
 10
79.42910247087974
 20
106.0871179981487
 30
0.0
 11
77.0291024708797
 21
106.0871179981487
 31
0.0
  0
LINE
  5
DB1
330
1E
100
AcDbEntity
  8
STEMPEL
100
AcDbLine
 10
79.42910247087974
 20
107.5871179981487
 30
0.0
 11
79.42910247087974
 21
106.0871179981487
 31
0.0
  0
LINE
  5
DB2
330
1E
100
AcDbEntity
  8
STEMPEL
100
AcDbLine
 10
77.0291024708797
 20
107.5871179981487
 30
0.0
 11
79.42910247087974
 21
107.5871179981487
 31
0.0
  0
ARC
  5
DB3
330
1E
100
AcDbEntity
  8
STEMPEL
100
AcDbCircle
 10
77.0291024708797
 20
107.7871179981487
 30
0.0
 40
0.2
100
AcDbArc
 50
180.0
 51
270.0087434429996
  0
LINE
  5
DB4
330
1E
100
AcDbEntity
  8
STEMPEL
100
AcDbLine
 10
76.82910247087971
 20
111.7801179981487
 30
0.0
 11
76.82910247087971
 21
107.7871179981487
 31
0.0
  0
ARC
  5
DB5
330
1E
100
AcDbEntity
  8
STEMPEL
100
AcDbCircle
 10
121.0791024708797
 20
106.8371179981487
 30
0.0
 40
25.0
100
AcDbArc
 50
329.9999596189993
 51
29.99995961899975
  0
ARC
  5
DB6
330
1E
100
AcDbEntity
  8
STEMPEL
100
AcDbCircle
 10
93.07910247087972
 20
106.8371179981487
 30
0.0
 40
25.0
100
AcDbArc
 50
150.0000403810002
 51
210.000040381
  0
LINE
  5
DB7
330
1E
100
AcDbEntity
  8
STEMPEL
100
AcDbLine
 10
140.5851024708797
 20
99.52011799814876
 30
0.0
 11
142.0311024708797
 21
99.31611799814874
 31
0.0
  0
LINE
  5
DB8
330
1E
100
AcDbEntity
  8
HILF
100
AcDbLine
 10
84.57910247087971
 20
119.3371179981487
 30
0.0
 11
84.57910247087971
 21
94.33711799814876
 31
0.0
  0
LINE
  5
DB9
330
1E
100
AcDbEntity
  8
HILF
100
AcDbLine
 10
130.0441024708797
 20
119.3371179981487
 30
0.0
 11
130.0441024708797
 21
94.33711799814876
 31
0.0
  0
LINE
  5
DBA
330
1E
100
AcDbEntity
  8
MITTEL
100
AcDbLine
 10
107.3121024708798
 20
124.3371179981488
 30
0.0
 11
107.3121024708797
 21
89.33711799814872
 31
0.0
  0
LINE
  5
DBB
330
1E
100
AcDbEntity
  8
MITTEL
100
AcDbLine
 10
76.07910247087971
 20
116.8371179981487
 30
0.0
 11
76.07910247087971
 21
96.83711799814876
 31
0.0
  0
LINE
  5
DBC
330
1E
100
AcDbEntity
  8
MITTEL
100
AcDbLine
 10
63.07910247087971
 20
106.8371179981487
 30
0.0
 11
151.0791024708797
 21
106.8371179981487
 31
0.0
  0
LINE
  5
DBD
330
1E
100
AcDbEntity
  8
MITTEL
100
AcDbLine
 10
138.0791024708797
 20
96.83711799814876
 30
0.0
 11
138.0791024708797
 21
116.8371179981487
 31
0.0
  0
LINE
  5
DBE
330
1E
100
AcDbEntity
  8
STEMPEL
100
AcDbLine
 10
142.0311024708797
 20
99.31611799814874
 30
0.0
 11
141.3311024708797
 21
94.33711799814876
 31
0.0
  0
LINE
  5
DBF
330
1E
100
AcDbEntity
  8
BILD
100
AcDbLine
 10
139.8571024708797
 20
94.33711799814876
 30
0.0
 11
142.7301024708797
 21
94.33711799814876
 31
0.0
  0
LINE
  5
DC0
330
1E
100
AcDbEntity
  8
STEMPEL
100
AcDbLine
 10
141.0481024708797
 20
102.8141179981487
 30
0.0
 11
139.8571024708797
 21
94.33711799814876
 31
0.0
  0
LINE
  5
DC1
330
1E
100
AcDbEntity
  8
STEMPEL
100
AcDbLine
 10
132.7881024708797
 20
94.33711799814876
 30
0.0
 11
134.1161024708797
 21
103.7881179981487
 31
0.0
  0
LINE
  5
DC2
330
1E
100
AcDbEntity
  8
STEMPEL
100
AcDbLine
 10
71.42910247087974
 20
94.33711799814876
 30
0.0
 11
139.8571024708797
 21
94.33711799814876
 31
0.0
  0
LINE
  5
DC3
330
1E
100
AcDbEntity
  8
STEMPEL
100
AcDbLine
 10
142.7301024708797
 20
119.3371179981487
 30
0.0
 11
71.42910247087974
 21
119.3371179981487
 31
0.0
  0
LINE
  5
DC4
330
1E
100
AcDbEntity
  8
STEMPEL
100
AcDbLine
 10
113.5621024708797
 20
216.9040813315657
 30
0.0
 11
110.3121024708797
 21
213.6540813315658
 31
0.0
  0
LINE
  5
DC5
330
1E
100
AcDbEntity
  8
STEMPEL
100
AcDbLine
 10
101.0621024708797
 20
216.9040813315657
 30
0.0
 11
104.3121024708797
 21
213.6540813315658
 31
0.0
  0
LINE
  5
DC6
330
1E
100
AcDbEntity
  8
STEMPEL
100
AcDbLine
 10
110.3121024708797
 20
148.1000813315657
 30
0.0
 11
110.3121024708797
 21
213.6540813315658
 31
0.0
  0
LINE
  5
DC7
330
1E
100
AcDbEntity
  8
STEMPEL
100
AcDbLine
 10
104.3121024708797
 20
148.1000813315657
 30
0.0
 11
104.3121024708797
 21
213.6540813315658
 31
0.0
  0
LINE
  5
DC8
330
1E
100
AcDbEntity
  8
STEMPEL
100
AcDbLine
 10
107.3121024708797
 20
136.9040813315657
 30
0.0
 11
110.3121024708797
 21
148.1000813315657
 31
0.0
  0
LINE
  5
DC9
330
1E
100
AcDbEntity
  8
STEMPEL
100
AcDbLine
 10
107.3121024708797
 20
136.9040813315657
 30
0.0
 11
104.3121024708797
 21
148.1000813315657
 31
0.0
  0
LINE
  5
DCA
330
1E
100
AcDbEntity
  8
HILF
100
AcDbLine
 10
110.3121024708797
 20
186.6540813315657
 30
0.0
 11
110.6961024708797
 21
186.6540813315657
 31
0.0
  0
LINE
  5
DCB
330
1E
100
AcDbEntity
  8
HILF
100
AcDbLine
 10
110.3121024708797
 20
190.6540813315657
 30
0.0
 11
110.6961024708797
 21
190.6540813315657
 31
0.0
  0
LINE
  5
DCC
330
1E
100
AcDbEntity
  8
HILF
100
AcDbLine
 10
110.3121024708797
 20
194.6540813315657
 30
0.0
 11
110.6961024708797
 21
194.6540813315657
 31
0.0
  0
LINE
  5
DCD
330
1E
100
AcDbEntity
  8
HILF
100
AcDbLine
 10
110.3121024708797
 20
198.6540813315657
 30
0.0
 11
110.6961024708797
 21
198.6540813315657
 31
0.0
  0
LINE
  5
DCE
330
1E
100
AcDbEntity
  8
HILF
100
AcDbLine
 10
110.3121024708797
 20
202.6540813315658
 30
0.0
 11
110.6961024708797
 21
202.6540813315658
 31
0.0
  0
LINE
  5
DCF
330
1E
100
AcDbEntity
  8
HILF
100
AcDbLine
 10
104.3121024708797
 20
202.6540813315658
 30
0.0
 11
103.9271024708797
 21
202.6540813315658
 31
0.0
  0
LINE
  5
DD0
330
1E
100
AcDbEntity
  8
HILF
100
AcDbLine
 10
104.3121024708797
 20
198.6540813315657
 30
0.0
 11
103.9271024708797
 21
198.6540813315657
 31
0.0
  0
LINE
  5
DD1
330
1E
100
AcDbEntity
  8
HILF
100
AcDbLine
 10
104.3121024708797
 20
194.6540813315657
 30
0.0
 11
103.9271024708797
 21
194.6540813315657
 31
0.0
  0
LINE
  5
DD2
330
1E
100
AcDbEntity
  8
HILF
100
AcDbLine
 10
104.3121024708797
 20
190.6540813315657
 30
0.0
 11
103.9271024708797
 21
190.6540813315657
 31
0.0
  0
LINE
  5
DD3
330
1E
100
AcDbEntity
  8
HILF
100
AcDbLine
 10
104.3121024708797
 20
186.6540813315657
 30
0.0
 11
103.9271024708797
 21
186.6540813315657
 31
0.0
  0
ARC
  5
DD4
330
1E
100
AcDbEntity
  8
HILF
100
AcDbCircle
 10
107.3121024708797
 20
218.1540813315657
 30
0.0
 40
5.315
100
AcDbArc
 50
244.9837960419997
 51
295.0163005179997
  0
LINE
  5
DD5
330
1E
100
AcDbEntity
  8
HILF
100
AcDbLine
 10
104.8121024708797
 20
202.6540813315658
 30
0.0
 11
109.8121024708797
 21
202.6540813315658
 31
0.0
  0
LINE
  5
DD6
330
1E
100
AcDbEntity
  8
HILF
100
AcDbLine
 10
104.8121024708797
 20
198.6540813315657
 30
0.0
 11
109.8121024708797
 21
198.6540813315657
 31
0.0
  0
LINE
  5
DD7
330
1E
100
AcDbEntity
  8
HILF
100
AcDbLine
 10
104.8121024708797
 20
194.6540813315657
 30
0.0
 11
109.8121024708797
 21
194.6540813315657
 31
0.0
  0
LINE
  5
DD8
330
1E
100
AcDbEntity
  8
HILF
100
AcDbLine
 10
104.8121024708797
 20
190.6540813315657
 30
0.0
 11
109.8121024708797
 21
190.6540813315657
 31
0.0
  0
LINE
  5
DD9
330
1E
100
AcDbEntity
  8
HILF
100
AcDbLine
 10
104.8121024708797
 20
186.6540813315657
 30
0.0
 11
109.8121024708797
 21
186.6540813315657
 31
0.0
  0
LINE
  5
DDA
330
1E
100
AcDbEntity
  8
STEMPEL
100
AcDbLine
 10
101.0621024708797
 20
216.9040813315657
 30
0.0
 11
113.5621024708797
 21
216.9040813315657
 31
0.0
  0
LINE
  5
DDB
330
1E
100
AcDbEntity
  8
STEMPEL
100
AcDbLine
 10
104.3121024708797
 20
148.1000813315657
 30
0.0
 11
110.3121024708798
 21
148.1000813315657
 31
0.0
  0
ARC
  5
DDC
330
1E
100
AcDbEntity
  8
STEMPEL
100
AcDbCircle
 10
110.3121024708797
 20
218.9040813315657
 30
0.0
 40
1.0
100
AcDbArc
 50
0.0
 51
90.0
  0
LINE
  5
DDD
330
1E
100
AcDbEntity
  8
STEMPEL
100
AcDbLine
 10
104.3121024708797
 20
219.9040813315658
 30
0.0
 11
110.3121024708797
 21
219.9040813315658
 31
0.0
  0
ARC
  5
DDE
330
1E
100
AcDbEntity
  8
STEMPEL
100
AcDbCircle
 10
104.3121024708797
 20
218.9040813315657
 30
0.0
 40
1.0
100
AcDbArc
 50
90.0
 51
180.0
  0
ARC
  5
DDF
330
1E
100
AcDbEntity
  8
HILF
100
AcDbCircle
 10
107.3121024708797
 20
254.9040813315658
 30
0.0
 40
24.0
100
AcDbArc
 50
188.6567650500002
 51
232.8311003439993
  0
ARC
  5
DE0
330
1E
100
AcDbEntity
  8
HILF
100
AcDbCircle
 10
107.3121024708797
 20
254.9040813315658
 30
0.0
 40
24.0
100
AcDbArc
 50
307.2476048470003
 51
351.3432349499999
  0
ARC
  5
DE2
330
1E
100
AcDbEntity
  8
STEMPEL
100
AcDbCircle
 10
80.82910247087971
 20
250.9040813315658
 30
0.0
 40
0.5
100
AcDbArc
 50
90.0
 51
180.0
  0
LINE
  5
DE3
330
1E
100
AcDbEntity
  8
STEMPEL
100
AcDbLine
 10
80.32910247087972
 20
250.9040813315658
 30
0.0
 11
80.32910247087972
 21
249.9040813315657
 31
0.0
  0
LINE
  5
DE4
330
1E
100
AcDbEntity
  8
STEMPEL
100
AcDbLine
 10
80.32910247087972
 20
249.9040813315657
 30
0.0
 11
72.82910247087972
 21
249.9040813315657
 31
0.0
  0
ARC
  5
DE5
330
1E
100
AcDbEntity
  8
STEMPEL
100
AcDbCircle
 10
72.32910247087971
 20
250.9040813315658
 30
0.0
 40
0.5
100
AcDbArc
 50
0.0
 51
90.0
  0
LINE
  5
DE6
330
1E
100
AcDbEntity
  8
STEMPEL
100
AcDbLine
 10
72.82910247087972
 20
249.9040813315657
 30
0.0
 11
72.82910247087972
 21
250.9040813315658
 31
0.0
  0
LINE
  5
DE7
330
1E
100
AcDbEntity
  8
STEMPEL
100
AcDbLine
 10
70.66610247087971
 20
251.4040813315657
 30
0.0
 11
70.66610247087971
 21
253.4040813315658
 31
0.0
  0
ARC
  5
DE8
330
1E
100
AcDbEntity
  8
STEMPEL
100
AcDbCircle
 10
142.2941024708797
 20
250.9040813315658
 30
0.0
 40
0.5
100
AcDbArc
 50
90.0
 51
180.0
  0
LINE
  5
DE9
330
1E
100
AcDbEntity
  8
STEMPEL
100
AcDbLine
 10
141.7941024708797
 20
249.9040813315657
 30
0.0
 11
141.7941024708797
 21
250.9040813315658
 31
0.0
  0
LINE
  5
DEA
330
1E
100
AcDbEntity
  8
STEMPEL
100
AcDbLine
 10
134.2941024708797
 20
249.9040813315657
 30
0.0
 11
141.7941024708797
 21
249.9040813315657
 31
0.0
  0
LINE
  5
DEB
330
1E
100
AcDbEntity
  8
STEMPEL
100
AcDbLine
 10
134.2941024708797
 20
250.9040813315658
 30
0.0
 11
134.2941024708797
 21
249.9040813315657
 31
0.0
  0
ARC
  5
DEC
330
1E
100
AcDbEntity
  8
STEMPEL
100
AcDbCircle
 10
133.7941024708797
 20
250.9040813315658
 30
0.0
 40
0.5
100
AcDbArc
 50
0.0
 51
90.0
  0
LINE
  5
DED
330
1E
100
AcDbEntity
  8
STEMPEL
100
AcDbLine
 10
143.9571024708797
 20
251.4040813315657
 30
0.0
 11
143.9571024708797
 21
253.4040813315658
 31
0.0
  0
ARC
  5
DEE
330
1E
100
AcDbEntity
  8
STEMPEL
100
AcDbCircle
 10
117.8121024708797
 20
220.9040813315657
 30
0.0
 40
4.0
100
AcDbArc
 50
270.0
 51
0.0
  0
LINE
  5
DEF
330
1E
100
AcDbEntity
  8
STEMPEL
100
AcDbLine
 10
121.8121024708797
 20
236.1220813315657
 30
0.0
 11
121.8121024708797
 21
220.9040813315657
 31
0.0
  0
ARC
  5
DF0
330
1E
100
AcDbEntity
  8
STEMPEL
100
AcDbCircle
 10
123.8121024708797
 20
236.1220813315657
 30
0.0
 40
2.0
100
AcDbArc
 50
131.2998727920003
 51
180.0
  0
ARC
  5
DF1
330
1E
100
AcDbEntity
  8
STEMPEL
100
AcDbCircle
 10
107.3121024708797
 20
254.9040813315658
 30
0.0
 40
23.0
100
AcDbArc
 50
311.2998727920003
 51
347.2909670060003
  0
ARC
  5
DF2
330
1E
100
AcDbEntity
  8
STEMPEL
100
AcDbCircle
 10
131.6991024708797
 20
249.4040813315657
 30
0.0
 40
2.0
100
AcDbArc
 50
90.0
 51
167.2909670060003
  0
LINE
  5
DF3
330
1E
100
AcDbEntity
  8
STEMPEL
100
AcDbLine
 10
146.0441024708797
 20
251.4040813315657
 30
0.0
 11
131.6991024708797
 21
251.4040813315657
 31
0.0
  0
LINE
  5
DF4
330
1E
100
AcDbEntity
  8
STEMPEL
100
AcDbLine
 10
146.0441024708797
 20
253.4040813315658
 30
0.0
 11
146.0441024708797
 21
251.4040813315657
 31
0.0
  0
LINE
  5
DF5
330
1E
100
AcDbEntity
  8
STEMPEL
100
AcDbLine
 10
131.6991024708797
 20
253.4040813315658
 30
0.0
 11
146.0441024708797
 21
253.4040813315658
 31
0.0
  0
ARC
  5
DF6
330
1E
100
AcDbEntity
  8
STEMPEL
100
AcDbCircle
 10
131.6991024708797
 20
249.4040813315657
 30
0.0
 40
4.0
100
AcDbArc
 50
90.0
 51
167.2909670060003
  0
ARC
  5
DF7
330
1E
100
AcDbEntity
  8
STEMPEL
100
AcDbCircle
 10
107.3121024708797
 20
254.9040813315658
 30
0.0
 40
21.0
100
AcDbArc
 50
311.2998727920003
 51
347.2909670060003
  0
ARC
  5
DF8
330
1E
100
AcDbEntity
  8
STEMPEL
100
AcDbCircle
 10
123.8121024708797
 20
236.1220813315657
 30
0.0
 40
4.0
100
AcDbArc
 50
131.2998727920003
 51
180.0
  0
LINE
  5
DF9
330
1E
100
AcDbEntity
  8
STEMPEL
100
AcDbLine
 10
119.8121024708797
 20
220.9040813315657
 30
0.0
 11
119.8121024708797
 21
236.1220813315657
 31
0.0
  0
ARC
  5
DFA
330
1E
100
AcDbEntity
  8
STEMPEL
100
AcDbCircle
 10
117.8121024708797
 20
220.9040813315657
 30
0.0
 40
2.0
100
AcDbArc
 50
270.0
 51
0.0
  0
LINE
  5
DFB
330
1E
100
AcDbEntity
  8
STEMPEL
100
AcDbLine
 10
96.81210247087973
 20
218.9040813315657
 30
0.0
 11
117.8121024708797
 21
218.9040813315657
 31
0.0
  0
ARC
  5
DFC
330
1E
100
AcDbEntity
  8
STEMPEL
100
AcDbCircle
 10
96.81210247087973
 20
220.9040813315657
 30
0.0
 40
2.0
100
AcDbArc
 50
180.0
 51
270.0
  0
LINE
  5
DFD
330
1E
100
AcDbEntity
  8
STEMPEL
100
AcDbLine
 10
94.81210247087972
 20
236.1220813315657
 30
0.0
 11
94.81210247087972
 21
220.9040813315657
 31
0.0
  0
ARC
  5
DFE
330
1E
100
AcDbEntity
  8
STEMPEL
100
AcDbCircle
 10
90.81210247087971
 20
236.1220813315657
 30
0.0
 40
4.0
100
AcDbArc
 50
0.0
 51
48.70012720799966
  0
ARC
  5
DFF
330
1E
100
AcDbEntity
  8
STEMPEL
100
AcDbCircle
 10
107.3121024708797
 20
254.9040813315658
 30
0.0
 40
21.0
100
AcDbArc
 50
192.7090329939997
 51
228.7001272079996
  0
ARC
  5
E00
330
1E
100
AcDbEntity
  8
STEMPEL
100
AcDbCircle
 10
82.92410247087969
 20
249.4040813315657
 30
0.0
 40
4.0
100
AcDbArc
 50
12.7090329939997
 51
90.0
  0
LINE
  5
E01
330
1E
100
AcDbEntity
  8
STEMPEL
100
AcDbLine
 10
68.57910247087971
 20
253.4040813315658
 30
0.0
 11
82.92410247087969
 21
253.4040813315658
 31
0.0
  0
LINE
  5
E02
330
1E
100
AcDbEntity
  8
STEMPEL
100
AcDbLine
 10
68.57910247087971
 20
251.4040813315657
 30
0.0
 11
68.57910247087971
 21
253.4040813315658
 31
0.0
  0
LINE
  5
E03
330
1E
100
AcDbEntity
  8
STEMPEL
100
AcDbLine
 10
82.92410247087969
 20
251.4040813315657
 30
0.0
 11
68.57910247087971
 21
251.4040813315657
 31
0.0
  0
ARC
  5
E04
330
1E
100
AcDbEntity
  8
STEMPEL
100
AcDbCircle
 10
82.92410247087969
 20
249.4040813315657
 30
0.0
 40
2.0
100
AcDbArc
 50
12.7090329939997
 51
90.0
  0
ARC
  5
E05
330
1E
100
AcDbEntity
  8
STEMPEL
100
AcDbCircle
 10
107.3121024708797
 20
254.9040813315658
 30
0.0
 40
23.0
100
AcDbArc
 50
192.7090329939997
 51
228.7001272079996
  0
ARC
  5
E06
330
1E
100
AcDbEntity
  8
STEMPEL
100
AcDbCircle
 10
90.81210247087971
 20
236.1220813315657
 30
0.0
 40
2.0
100
AcDbArc
 50
0.0
 51
48.70012720799966
  0
LINE
  5
E07
330
1E
100
AcDbEntity
  8
STEMPEL
100
AcDbLine
 10
92.81210247087972
 20
220.9040813315657
 30
0.0
 11
92.81210247087972
 21
236.1220813315657
 31
0.0
  0
ARC
  5
E08
330
1E
100
AcDbEntity
  8
STEMPEL
100
AcDbCircle
 10
96.81210247087973
 20
220.9040813315657
 30
0.0
 40
4.0
100
AcDbArc
 50
180.0
 51
270.0
  0
LINE
  5
E09
330
1E
100
AcDbEntity
  8
STEMPEL
100
AcDbLine
 10
117.8121024708797
 20
216.9040813315657
 30
0.0
 11
96.81210247087973
 21
216.9040813315657
 31
0.0
  0
LINE
  5
E13
330
1E
100
AcDbEntity
  8
STEMPEL
100
AcDbLine
 10
142.0311024708797
 20
259.4040813315658
 30
0.0
 11
142.0311024708797
 21
258.4040813315657
 31
0.0
  0
LINE
  5
E14
330
1E
100
AcDbEntity
  8
STEMPEL
100
AcDbLine
 10
132.7521024708797
 20
258.4040813315657
 30
0.0
 11
132.7521024708797
 21
256.4040813315657
 31
0.0
  0
LINE
  5
E15
330
1E
100
AcDbEntity
  8
STEMPEL
100
AcDbLine
 10
142.7301024708797
 20
256.4040813315657
 30
0.0
 11
142.7301024708797
 21
258.4040813315657
 31
0.0
  0
LINE
  5
E16
330
1E
100
AcDbEntity
  8
STEMPEL
100
AcDbLine
 10
142.0311024708797
 20
258.4040813315657
 30
0.0
 11
142.2671024708797
 21
258.4040813315657
 31
0.0
  0
LINE
  5
E17
330
1E
100
AcDbEntity
  8
STEMPEL
100
AcDbLine
 10
71.42910247087974
 20
256.4040813315657
 30
0.0
 11
71.42910247087974
 21
258.4040813315657
 31
0.0
  0
ARC
  5
E18
330
1E
100
AcDbEntity
  8
HILF
100
AcDbCircle
 10
107.3121024708797
 20
254.9040813315658
 30
0.0
 40
24.0
100
AcDbArc
 50
8.656765050000178
 51
171.3432349499998
  0
LINE
  5
E19
330
1E
100
AcDbEntity
  8
STEMPEL
100
AcDbLine
 10
139.8571024708797
 20
259.4040813315658
 30
0.0
 11
142.0311024708797
 21
259.4040813315658
 31
0.0
  0
LINE
  5
E1A
330
1E
100
AcDbEntity
  8
STEMPEL
100
AcDbLine
 10
139.8571024708797
 20
258.6030813315657
 30
0.0
 11
139.8571024708797
 21
259.4040813315658
 31
0.0
  0
ARC
  5
E1B
330
1E
100
AcDbEntity
  8
STEMPEL
100
AcDbCircle
 10
142.3071024708797
 20
258.8540813315657
 30
0.0
 40
2.463
100
AcDbArc
 50
185.8375244179998
 51
264.1736792309999
  0
LINE
  5
E1C
330
1E
100
AcDbEntity
  8
STEMPEL
100
AcDbLine
 10
131.6991024708797
 20
258.4040813315657
 30
0.0
 11
139.8861024708797
 21
258.4040813315657
 31
0.0
  0
ARC
  5
E1D
330
1E
100
AcDbEntity
  8
STEMPEL
100
AcDbCircle
 10
131.6991024708797
 20
260.4040813315657
 30
0.0
 40
2.0
100
AcDbArc
 50
192.7090329939997
 51
270.0
  0
ARC
  5
E1E
330
1E
100
AcDbEntity
  8
STEMPEL
100
AcDbCircle
 10
107.3121024708797
 20
254.9040813315658
 30
0.0
 40
23.0
100
AcDbArc
 50
12.7090329939997
 51
167.2909670060003
  0
ARC
  5
E1F
330
1E
100
AcDbEntity
  8
STEMPEL
100
AcDbCircle
 10
82.92410247087969
 20
260.4040813315657
 30
0.0
 40
2.0
100
AcDbArc
 50
270.0
 51
347.2909670060003
  0
LINE
  5
E20
330
1E
100
AcDbEntity
  8
STEMPEL
100
AcDbLine
 10
68.57910247087971
 20
258.4040813315657
 30
0.0
 11
82.92410247087969
 21
258.4040813315657
 31
0.0
  0
LINE
  5
E21
330
1E
100
AcDbEntity
  8
STEMPEL
100
AcDbLine
 10
68.57910247087971
 20
256.4040813315657
 30
0.0
 11
68.57910247087971
 21
258.4040813315657
 31
0.0
  0
LINE
  5
E22
330
1E
100
AcDbEntity
  8
STEMPEL
100
AcDbLine
 10
82.92410247087969
 20
256.4040813315657
 30
0.0
 11
68.57910247087971
 21
256.4040813315657
 31
0.0
  0
ARC
  5
E23
330
1E
100
AcDbEntity
  8
STEMPEL
100
AcDbCircle
 10
82.92410247087969
 20
260.4040813315657
 30
0.0
 40
4.0
100
AcDbArc
 50
270.0
 51
347.2909670060003
  0
ARC
  5
E24
330
1E
100
AcDbEntity
  8
STEMPEL
100
AcDbCircle
 10
107.3121024708797
 20
254.9040813315658
 30
0.0
 40
21.0
100
AcDbArc
 50
12.7090329939997
 51
167.2909670060003
  0
ARC
  5
E25
330
1E
100
AcDbEntity
  8
STEMPEL
100
AcDbCircle
 10
131.6991024708797
 20
260.4040813315657
 30
0.0
 40
4.0
100
AcDbArc
 50
192.7090329939997
 51
270.0
  0
LINE
  5
E26
330
1E
100
AcDbEntity
  8
STEMPEL
100
AcDbLine
 10
146.0441024708797
 20
256.4040813315657
 30
0.0
 11
141.0441024708797
 21
256.4040813315657
 31
0.0
  0
LINE
  5
E27
330
1E
100
AcDbEntity
  8
STEMPEL
100
AcDbLine
 10
146.0441024708797
 20
258.4040813315657
 30
0.0
 11
146.0441024708797
 21
256.4040813315657
 31
0.0
  0
LINE
  5
E28
330
1E
100
AcDbEntity
  8
STEMPEL
100
AcDbLine
 10
142.0311024708797
 20
258.4040813315657
 30
0.0
 11
146.0441024708797
 21
258.4040813315657
 31
0.0
  0
ARC
  5
E29
330
1E
100
AcDbEntity
  8
STEMPEL
100
AcDbCircle
 10
142.0311024708797
 20
259.1040813315657
 30
0.0
 40
0.7
100
AcDbArc
 50
180.0
 51
270.0
  0
LINE
  5
E2A
330
1E
100
AcDbEntity
  8
STEMPEL
100
AcDbLine
 10
141.3311024708797
 20
259.4040813315658
 30
0.0
 11
141.3311024708797
 21
259.1040813315657
 31
0.0
  0
LINE
  5
E2D
330
1E
100
AcDbEntity
  8
STEMPEL
100
AcDbLine
 10
133.0441024708797
 20
260.8640813315658
 30
0.0
 11
133.0441024708797
 21
258.4040813315657
 31
0.0
  0
LINE
  5
E2E
330
1E
100
AcDbEntity
  8
HILF
100
AcDbLine
 10
133.0441024708797
 20
260.8640813315658
 30
0.0
 11
137.3441024708797
 21
260.8640813315658
 31
0.0
  0
ARC
  5
E2F
330
1E
100
AcDbEntity
  8
STEMPEL
100
AcDbCircle
 10
138.0441024708797
 20
252.2040813315657
 30
0.0
 40
10.0
100
AcDbArc
 50
94.01396748799902
 51
119.999985077
  0
LINE
  5
E30
330
1E
100
AcDbEntity
  8
STEMPEL
100
AcDbLine
 10
137.3441024708797
 20
260.5760813315658
 30
0.0
 11
137.3441024708797
 21
262.1800813315658
 31
0.0
  0
LINE
  5
E31
330
1E
100
AcDbEntity
  8
STEMPEL
100
AcDbLine
 10
138.7441024708797
 20
260.5760813315658
 30
0.0
 11
137.3441024708797
 21
260.5760813315658
 31
0.0
  0
LINE
  5
E32
330
1E
100
AcDbEntity
  8
STEMPEL
100
AcDbLine
 10
138.7441024708797
 20
262.1800813315658
 30
0.0
 11
138.7441024708797
 21
260.5760813315658
 31
0.0
  0
LINE
  5
E33
330
1E
100
AcDbEntity
  8
HILF
100
AcDbLine
 10
138.7441024708798
 20
260.8640813315658
 30
0.0
 11
143.0441024708797
 21
260.8640813315658
 31
0.0
  0
ARC
  5
E34
330
1E
100
AcDbEntity
  8
STEMPEL
100
AcDbCircle
 10
138.0441024708797
 20
252.2040813315657
 30
0.0
 40
10.0
100
AcDbArc
 50
59.99999358400034
 51
85.98594517699956
  0
LINE
  5
E35
330
1E
100
AcDbEntity
  8
STEMPEL
100
AcDbLine
 10
143.0441024708797
 20
258.4040813315657
 30
0.0
 11
143.0441024708797
 21
260.8640813315658
 31
0.0
  0
LINE
  5
E36
330
1E
100
AcDbEntity
  8
STEMPEL
100
AcDbLine
 10
141.0441024708797
 20
253.4040813315658
 30
0.0
 11
141.0441024708797
 21
256.7400813315658
 31
0.0
  0
LINE
  5
E37
330
1E
100
AcDbEntity
  8
STEMPEL
100
AcDbLine
 10
135.0441024708797
 20
253.4040813315658
 30
0.0
 11
135.0441024708797
 21
258.4040813315657
 31
0.0
  0
LINE
  5
E38
330
1E
100
AcDbEntity
  8
STEMPEL
100
AcDbLine
 10
135.0441024708797
 20
244.4040813315658
 30
0.0
 11
135.0441024708797
 21
249.9040813315657
 31
0.0
  0
LINE
  5
E39
330
1E
100
AcDbEntity
  8
HILF
100
AcDbLine
 10
135.7441024708797
 20
243.1920813315657
 30
0.0
 11
135.7441024708797
 21
249.9040813315657
 31
0.0
  0
LINE
  5
E3A
330
1E
100
AcDbEntity
  8
STEMPEL
100
AcDbLine
 10
135.0441024708797
 20
244.4040813315658
 30
0.0
 11
136.1981024708797
 21
242.4040813315658
 31
0.0
  0
LINE
  5
E3B
330
1E
100
AcDbEntity
  8
STEMPEL
100
AcDbLine
 10
136.1981024708797
 20
242.4040813315658
 30
0.0
 11
139.8891024708797
 21
242.4040813315658
 31
0.0
  0
LINE
  5
E3C
330
1E
100
AcDbEntity
  8
STEMPEL
100
AcDbLine
 10
139.8891024708797
 20
242.4040813315658
 30
0.0
 11
141.0441024708797
 21
244.4040813315658
 31
0.0
  0
LINE
  5
E3D
330
1E
100
AcDbEntity
  8
STEMPEL
100
AcDbLine
 10
141.0441024708797
 20
244.4040813315658
 30
0.0
 11
135.0441024708797
 21
244.4040813315658
 31
0.0
  0
LINE
  5
E3E
330
1E
100
AcDbEntity
  8
HILF
100
AcDbLine
 10
140.3441024708797
 20
243.1920813315657
 30
0.0
 11
140.3441024708797
 21
249.9040813315657
 31
0.0
  0
LINE
  5
E3F
330
1E
100
AcDbEntity
  8
STEMPEL
100
AcDbLine
 10
141.0441024708797
 20
244.4040813315658
 30
0.0
 11
141.0441024708797
 21
249.9040813315657
 31
0.0
  0
LINE
  5
E40
330
1E
100
AcDbEntity
  8
STEMPEL
100
AcDbLine
 10
81.57910247087972
 20
258.4040813315657
 30
0.0
 11
81.57910247087972
 21
260.8640813315658
 31
0.0
  0
LINE
  5
E41
330
1E
100
AcDbEntity
  8
HILF
100
AcDbLine
 10
77.27910247087971
 20
260.8640813315658
 30
0.0
 11
81.57910247087972
 21
260.8640813315658
 31
0.0
  0
ARC
  5
E42
330
1E
100
AcDbEntity
  8
STEMPEL
100
AcDbCircle
 10
76.57910247087972
 20
252.2040813315657
 30
0.0
 40
10.0
100
AcDbArc
 50
59.99999358400034
 51
85.98594517699956
  0
LINE
  5
E43
330
1E
100
AcDbEntity
  8
STEMPEL
100
AcDbLine
 10
77.27910247087971
 20
262.1800813315658
 30
0.0
 11
77.27910247087971
 21
260.5760813315658
 31
0.0
  0
LINE
  5
E44
330
1E
100
AcDbEntity
  8
STEMPEL
100
AcDbLine
 10
77.27910247087971
 20
260.5760813315658
 30
0.0
 11
75.87910247087973
 21
260.5760813315658
 31
0.0
  0
LINE
  5
E45
330
1E
100
AcDbEntity
  8
STEMPEL
100
AcDbLine
 10
75.87910247087973
 20
260.5760813315658
 30
0.0
 11
75.87910247087973
 21
262.1800813315658
 31
0.0
  0
LINE
  5
E46
330
1E
100
AcDbEntity
  8
HILF
100
AcDbLine
 10
71.57910247087972
 20
260.8640813315657
 30
0.0
 11
75.87910247087974
 21
260.8640813315658
 31
0.0
  0
ARC
  5
E47
330
1E
100
AcDbEntity
  8
STEMPEL
100
AcDbCircle
 10
76.57910247087972
 20
252.2040813315657
 30
0.0
 40
10.0
100
AcDbArc
 50
94.01396748799902
 51
119.999985077
  0
LINE
  5
E48
330
1E
100
AcDbEntity
  8
STEMPEL
100
AcDbLine
 10
71.57910247087972
 20
260.8640813315658
 30
0.0
 11
71.57910247087972
 21
258.4040813315657
 31
0.0
  0
LINE
  5
E4B
330
1E
100
AcDbEntity
  8
STEMPEL
100
AcDbLine
 10
79.57910247087972
 20
253.4040813315658
 30
0.0
 11
79.57910247087972
 21
256.4040813315657
 31
0.0
  0
LINE
  5
E4C
330
1E
100
AcDbEntity
  8
HILF
100
AcDbLine
 10
78.87910247087972
 20
253.4040813315658
 30
0.0
 11
78.87910247087972
 21
255.9040813315657
 31
0.0
  0
LINE
  5
E4D
330
1E
100
AcDbEntity
  8
STEMPEL
100
AcDbLine
 10
73.57910247087971
 20
255.9040813315657
 30
0.0
 11
79.57910247087972
 21
255.9040813315657
 31
0.0
  0
LINE
  5
E4E
330
1E
100
AcDbEntity
  8
HILF
100
AcDbLine
 10
74.27910247087971
 20
253.4040813315658
 30
0.0
 11
74.27910247087971
 21
255.9040813315657
 31
0.0
  0
LINE
  5
E4F
330
1E
100
AcDbEntity
  8
STEMPEL
100
AcDbLine
 10
73.57910247087971
 20
253.4040813315658
 30
0.0
 11
73.57910247087971
 21
256.4040813315657
 31
0.0
  0
LINE
  5
E50
330
1E
100
AcDbEntity
  8
STEMPEL
100
AcDbLine
 10
73.57910247087971
 20
244.4040813315658
 30
0.0
 11
73.57910247087971
 21
249.9040813315657
 31
0.0
  0
LINE
  5
E51
330
1E
100
AcDbEntity
  8
HILF
100
AcDbLine
 10
74.27910247087971
 20
243.1920813315657
 30
0.0
 11
74.27910247087971
 21
249.9040813315657
 31
0.0
  0
LINE
  5
E52
330
1E
100
AcDbEntity
  8
STEMPEL
100
AcDbLine
 10
73.57910247087971
 20
244.4040813315658
 30
0.0
 11
74.73410247087972
 21
242.4040813315658
 31
0.0
  0
LINE
  5
E53
330
1E
100
AcDbEntity
  8
STEMPEL
100
AcDbLine
 10
74.73410247087972
 20
242.4040813315658
 30
0.0
 11
78.42510247087972
 21
242.4040813315658
 31
0.0
  0
LINE
  5
E54
330
1E
100
AcDbEntity
  8
STEMPEL
100
AcDbLine
 10
78.42510247087972
 20
242.4040813315658
 30
0.0
 11
79.57910247087972
 21
244.4040813315658
 31
0.0
  0
LINE
  5
E55
330
1E
100
AcDbEntity
  8
STEMPEL
100
AcDbLine
 10
79.57910247087972
 20
244.4040813315658
 30
0.0
 11
73.57910247087971
 21
244.4040813315658
 31
0.0
  0
LINE
  5
E56
330
1E
100
AcDbEntity
  8
HILF
100
AcDbLine
 10
78.87910247087972
 20
243.1920813315657
 30
0.0
 11
78.87910247087972
 21
249.9040813315657
 31
0.0
  0
LINE
  5
E57
330
1E
100
AcDbEntity
  8
STEMPEL
100
AcDbLine
 10
79.57910247087972
 20
244.4040813315658
 30
0.0
 11
79.57910247087972
 21
249.9040813315657
 31
0.0
  0
LINE
  5
E58
330
1E
100
AcDbEntity
  8
HILF
100
AcDbLine
 10
141.0441024708797
 20
255.9040813315657
 30
0.0
 11
135.0441024708797
 21
255.9040813315657
 31
0.0
  0
LINE
  5
E59
330
1E
100
AcDbEntity
  8
MITTEL
100
AcDbLine
 10
63.57910247087971
 20
254.9040813315658
 30
0.0
 11
151.0441024708797
 21
254.9040813315658
 31
0.0
  0
LINE
  5
E5A
330
1E
100
AcDbEntity
  8
MITTEL
100
AcDbLine
 10
107.3121024708797
 20
131.9040813315657
 30
0.0
 11
107.3121024708797
 21
283.9040813315658
 31
0.0
  0
LINE
  5
E5B
330
1E
100
AcDbEntity
  8
MITTEL
100
AcDbLine
 10
138.0441024708797
 20
237.4040813315657
 30
0.0
 11
138.0441024708797
 21
267.2040813315657
 31
0.0
  0
LINE
  5
E5C
330
1E
100
AcDbEntity
  8
MITTEL
100
AcDbLine
 10
76.57910247087972
 20
237.4040813315657
 30
0.0
 11
76.57910247087972
 21
267.2040813315657
 31
0.0
  0
DIMENSION
  5
E5F
330
1E
100
AcDbEntity
  8
BEM
100
AcDbDimension
  2
*D1
 10
76.07910247087971
 20
80.66922437608424
 30
0.0
 11
107.0791024708797
 21
83.91922437608423
 31
0.0
 70
    32
 71
     5
 42
62.0
  3
Standard
100
AcDbAlignedDimension
 13
138.0791024708797
 23
96.83711799814876
 33
0.0
 14
76.07910247087971
 24
96.83711799814876
 34
0.0
100
AcDbRotatedDimension
1001
ACAD
1000
DSTYLE
1002
{
1070
    41
1040
3.5
1070
    42
1040
1.0
1070
    43
1040
7.0
1070
    44
1040
1.0
1070
    73
1070
     0
1070
    74
1070
     0
1070
    77
1070
     1
1070
    78
1070
     8
1070
    79
1070
     2
1070
   140
1040
3.5
1070
   141
1040
1.5
1070
   146
1040
0.5142857142857144
1070
   147
1040
1.5
1070
   172
1070
     1
1070
   178
1070
     1
1070
   179
1070
     2
1070
   271
1070
     2
1070
   272
1070
     2
1070
   284
1070
     8
1070
   285
1070
     8
1070
   286
1070
     8
1002
}
  0
DIMENSION
  5
E6C
330
1E
100
AcDbEntity
  8
BEM
100
AcDbDimension
  2
*D2
 10
146.0791024708797
 20
72.89007056839773
 30
0.0
 11
107.0791024708797
 21
76.14007056839773
 31
0.0
 70
    32
 71
     5
 42
78.0
  3
Standard
100
AcDbAlignedDimension
 13
68.07910247087971
 23
106.8371179981487
 33
0.0
 14
146.0791024708797
 24
106.8371179981487
 34
0.0
100
AcDbRotatedDimension
1001
ACAD
1000
DSTYLE
1002
{
1070
    41
1040
3.5
1070
    42
1040
1.0
1070
    43
1040
7.0
1070
    44
1040
1.0
1070
    73
1070
     0
1070
    74
1070
     0
1070
    77
1070
     1
1070
    78
1070
     8
1070
    79
1070
     2
1070
   140
1040
3.5
1070
   141
1040
1.5
1070
   146
1040
0.5142857142857144
1070
   147
1040
1.5
1070
   172
1070
     1
1070
   178
1070
     1
1070
   179
1070
     2
1070
   271
1070
     2
1070
   272
1070
     2
1070
   284
1070
     8
1070
   285
1070
     8
1070
   286
1070
     8
1002
}
  0
LINE
  5
E9F
330
1E
100
AcDbEntity
  8
HILF
100
AcDbLine
 10
135.7441024708797
 20
253.4040813315658
 30
0.0
 11
135.7441024708797
 21
255.9040813315657
 31
0.0
  0
LINE
  5
EA0
330
1E
100
AcDbEntity
  8
HILF
100
AcDbLine
 10
140.3441024708797
 20
253.4040813315658
 30
0.0
 11
140.3441024708797
 21
255.9040813315657
 31
0.0
  0
LINE
  5
EA4
330
1E
100
AcDbEntity
  8
STEMPEL
100
AcDbLine
 10
135.0441024708796
 20
256.4040813315657
 30
0.0
 11
131.6991024708797
 21
256.4040813315657
 31
0.0
  0
DIMENSION
  5
EAA
330
1E
100
AcDbEntity
  8
BEM
100
AcDbDimension
  2
*D3
 10
61.19519963442285
 20
256.4040813315657
 30
0.0
 11
61.1951996344228
 21
254.9040813315658
 31
0.0
 70
   160
 71
     5
 42
2.999999999999971
  3
Standard
100
AcDbAlignedDimension
 13
68.57910247087971
 23
253.4040813315658
 33
0.0
 14
68.57910247087971
 24
256.4040813315657
 34
0.0
 50
90.0
100
AcDbRotatedDimension
1001
ACAD
1000
DSTYLE
1002
{
1070
    41
1040
3.5
1070
    42
1040
1.0
1070
    43
1040
7.0
1070
    44
1040
1.0
1070
    73
1070
     0
1070
    74
1070
     0
1070
    77
1070
     1
1070
    78
1070
     8
1070
    79
1070
     2
1070
   140
1040
3.5
1070
   141
1040
1.5
1070
   146
1040
0.5142857142857144
1070
   147
1040
1.5
1070
   172
1070
     1
1070
   178
1070
     1
1070
   179
1070
     2
1070
   271
1070
     2
1070
   272
1070
     2
1070
   284
1070
     8
1070
   285
1070
     8
1070
   286
1070
     8
1002
}
  0
DIMENSION
  5
ECF
330
1E
100
AcDbEntity
  8
BEM
100
AcDbDimension
  2
*D4
 10
52.55076171231372
 20
136.9040813315657
 30
0.0
 11
49.3007617123137
 21
207.9040813315657
 31
0.0
 70
    32
 71
     5
 42
141.9999999999999
  3
Standard
100
AcDbAlignedDimension
 13
107.3121024708797
 23
278.9040813315657
 33
0.0
 14
107.3121024708797
 24
136.9040813315657
 34
0.0
 50
90.0
100
AcDbRotatedDimension
1001
ACAD
1000
DSTYLE
1002
{
1070
    41
1040
3.5
1070
    42
1040
1.0
1070
    43
1040
7.0
1070
    44
1040
1.0
1070
    73
1070
     0
1070
    74
1070
     0
1070
    77
1070
     1
1070
    78
1070
     8
1070
    79
1070
     2
1070
   140
1040
3.5
1070
   141
1040
1.5
1070
   146
1040
0.5142857142857144
1070
   147
1040
1.5
1070
   172
1070
     1
1070
   178
1070
     1
1070
   179
1070
     2
1070
   271
1070
     2
1070
   272
1070
     2
1070
   284
1070
     8
1070
   285
1070
     8
1070
   286
1070
     8
1002
}
  0
DIMENSION
  5
F27
330
1E
100
AcDbEntity
  8
BEM
100
AcDbDimension
  2
*D5
 10
124.587512858708
 20
266.8436339381734
 30
0.0
 11
113.3426609439268
 21
259.0050727528536
 31
0.0
 70
   161
 71
     5
 42
41.99965737294934
  3
Standard
100
AcDbAlignedDimension
 13
90.08444316638337
 23
242.8954279978984
 33
0.0
 14
124.5391024708797
 24
266.9130813315657
 34
0.0
1001
ACAD
1000
DSTYLE
1002
{
1070
    41
1040
3.5
1070
    42
1040
1.0
1070
    43
1040
7.0
1070
    44
1040
1.0
1070
    73
1070
     0
1070
    74
1070
     0
1070
    77
1070
     1
1070
    78
1070
     8
1070
    79
1070
     2
1070
   140
1040
3.5
1070
   141
1040
1.5
1070
   146
1040
0.5142857142857144
1070
   147
1040
1.5
1070
   172
1070
     1
1070
   178
1070
     1
1070
   179
1070
     2
1070
   271
1070
     2
1070
   272
1070
     2
1070
   284
1070
     8
1070
   285
1070
     8
1070
   286
1070
     8
1002
}
  0
LWPOLYLINE
  5
1026
330
1E
100
AcDbEntity
  8
BEM
 62
     1
100
AcDbPolyline
 90
        4
 70
     1
 43
0.0
 10
89.10148426043093
 20
176.3286861213882
 10
89.10148426043093
 20
172.8286861213882
 10
92.60148426043093
 20
172.8286861213882
 10
92.60148426043093
 20
176.3286861213882
  0
DIMENSION
  5
1027
330
1E
100
AcDbEntity
  8
BEM
100
AcDbDimension
  2
*D6
 10
104.3121024708797
 20
171.3389021063587
 30
0.0
 11
94.94543580421305
 21
171.3389021063587
 31
0.0
 70
   160
 71
     5
 42
6.0
  3
Standard
100
AcDbAlignedDimension
 13
110.3121024708797
 23
171.1011063445359
 33
0.0
 14
104.3121024708797
 24
171.1011063445359
 34
0.0
100
AcDbRotatedDimension
1001
ACAD
1000
DSTYLE
1002
{
1070
    41
1040
3.5
1070
    42
1040
1.0
1070
    43
1040
7.0
1070
    44
1040
1.0
1070
    73
1070
     0
1070
    74
1070
     0
1070
    77
1070
     1
1070
    78
1070
     8
1070
    79
1070
     2
1070
   140
1040
3.5
1070
   141
1040
1.5
1070
   146
1040
0.5142857142857144
1070
   147
1040
1.5
1070
   172
1070
     1
1070
   178
1070
     1
1070
   179
1070
     2
1070
   271
1070
     2
1070
   272
1070
     2
1070
   284
1070
     8
1070
   285
1070
     8
1070
   286
1070
     8
1002
}
  0
DIMENSION
  5
1055
330
1E
100
AcDbEntity
  8
BEM
100
AcDbDimension
  2
*D7
 10
61.19519963442284
 20
216.9040813315658
 30
0.0
 11
57.9451996344228
 21
176.9040813315658
 31
0.0
 70
    32
 71
     5
 42
80.0
  3
Standard
100
AcDbAlignedDimension
 13
107.3121024708797
 23
136.9040813315657
 33
0.0
 14
96.81210247087973
 24
216.9040813315657
 34
0.0
 50
90.0
100
AcDbRotatedDimension
1001
ACAD
1000
DSTYLE
1002
{
1070
    41
1040
3.5
1070
    42
1040
1.0
1070
    43
1040
7.0
1070
    44
1040
1.0
1070
    73
1070
     0
1070
    74
1070
     0
1070
    77
1070
     1
1070
    78
1070
     8
1070
    79
1070
     2
1070
   140
1040
3.5
1070
   141
1040
1.5
1070
   146
1040
0.5142857142857144
1070
   147
1040
1.5
1070
   172
1070
     1
1070
   178
1070
     1
1070
   179
1070
     2
1070
   271
1070
     2
1070
   272
1070
     2
1070
   284
1070
     8
1070
   285
1070
     8
1070
   286
1070
     8
1002
}
  0
DIMENSION
  5
106C
330
1E
100
AcDbEntity
  8
BEM
100
AcDbDimension
  2
*D8
 10
59.20923043230562
 20
94.33710273918684
 30
0.0
 11
55.9592304323056
 21
106.8371027391837
 31
0.0
 70
    32
 71
     5
 42
24.99999999999369
  3
Standard
100
AcDbAlignedDimension
 13
71.42845856650652
 23
119.3371027391805
 33
0.0
 14
71.42847618604168
 24
94.33710273918684
 34
0.0
 50
90.0
100
AcDbRotatedDimension
1001
ACAD
1000
DSTYLE
1002
{
1070
    41
1040
3.5
1070
    42
1040
1.0
1070
    43
1040
7.0
1070
    44
1040
1.0
1070
    73
1070
     0
1070
    74
1070
     0
1070
    77
1070
     1
1070
    78
1070
     8
1070
    79
1070
     2
1070
   140
1040
3.5
1070
   141
1040
1.5
1070
   146
1040
0.5142857142857144
1070
   147
1040
1.5
1070
   172
1070
     1
1070
   178
1070
     1
1070
   179
1070
     2
1070
   271
1070
     2
1070
   272
1070
     2
1070
   284
1070
     8
1070
   285
1070
     8
1070
   286
1070
     8
1002
}
  0
TEXT
  5
1083
330
1E
100
AcDbEntity
  8
TEXT
 62
     1
100
AcDbText
 10
113.9182761339558
 20
57.82028541582997
 30
0.0
 40
3.5
  1
Werkstoff: St37 Dickschichtpassiviert
 41
0.8
  7
GREEKS
100
AcDbText
  0
ENDSEC
  0
SECTION
  2
OBJECTS
  0
DICTIONARY
  5
C
330
0
100
AcDbDictionary
281
     1
  3
ACAD_COLOR
350
DF
  3
ACAD_GROUP
350
D
  3
ACAD_LAYOUT
350
19
  3
ACAD_MATERIAL
350
DE
  3
ACAD_MLINESTYLE
350
16
  3
ACAD_PLOTSETTINGS
350
18
  3
ACAD_PLOTSTYLENAME
350
E
  3
AcDbVariableDictionary
350
EA
  0
DICTIONARY
  5
A0
330
1E
100
AcDbDictionary
280
     1
281
     1
  3
ACAD_LAYOUTSELFREF
360
D4
  0
DICTIONARY
  5
A2
330
1A
100
AcDbDictionary
280
     1
281
     1
  3
ACAD_LAYOUTSELFREF
360
D3
  0
DICTIONARY
  5
DF
102
{ACAD_REACTORS
330
C
102
}
330
C
100
AcDbDictionary
281
     1
  0
DICTIONARY
  5
D
102
{ACAD_REACTORS
330
C
102
}
330
C
100
AcDbDictionary
281
     1
  0
DICTIONARY
  5
19
102
{ACAD_REACTORS
330
C
102
}
330
C
100
AcDbDictionary
281
     1
  3
Layout1
350
1D
  3
Model
350
21
  0
DICTIONARY
  5
DE
102
{ACAD_REACTORS
330
C
102
}
330
C
100
AcDbDictionary
281
     1
  0
DICTIONARY
  5
16
102
{ACAD_REACTORS
330
C
102
}
330
C
100
AcDbDictionary
281
     1
  3
Standard
350
17
  0
DICTIONARY
  5
18
102
{ACAD_REACTORS
330
C
102
}
330
C
100
AcDbDictionary
281
     1
  0
ACDBDICTIONARYWDFLT
  5
E
102
{ACAD_REACTORS
330
C
102
}
330
C
100
AcDbDictionary
281
     1
  3
Normal
350
F
100
AcDbDictionaryWithDefault
340
F
  0
DICTIONARY
  5
EA
102
{ACAD_REACTORS
330
C
102
}
330
C
100
AcDbDictionary
281
     1
  3
DIMASSOC
350
EB
  3
PROJECTNAME
350
EC
  0
XRECORD
  5
D4
102
{ACAD_REACTORS
330
A0
102
}
330
A0
100
AcDbXrecord
280
     1
340
1E
  0
XRECORD
  5
D3
102
{ACAD_REACTORS
330
A2
102
}
330
A2
100
AcDbXrecord
280
     1
340
1A
  0
LAYOUT
  5
1D
102
{ACAD_REACTORS
330
19
102
}
330
19
100
AcDbPlotSettings
  1

  2
\\NT_WORK01\HP LaserJet 5000 PCL 6
  4

  6

 40
0.0
 41
0.0
 42
0.0
 43
0.0
 44
0.0
 45
0.0
 46
0.0
 47
0.0
 48
0.0
 49
0.0
140
0.0
141
0.0
142
1.0
143
1.0
 70
   688
 72
     0
 73
     0
 74
     5
  7

 75
    16
147
1.0
 76
     0
 77
     2
 78
   300
148
0.0
149
0.0
100
AcDbLayout
  1
Layout1
 70
     0
 71
     1
 10
0.0
 20
0.0
 11
12.0
 21
9.0
 12
0.0
 22
0.0
 32
0.0
 14
1.000000000000000E+20
 24
1.000000000000000E+20
 34
1.000000000000000E+20
 15
-1.000000000000000E+20
 25
-1.000000000000000E+20
 35
-1.000000000000000E+20
146
0.0
 13
0.0
 23
0.0
 33
0.0
 16
1.0
 26
0.0
 36
0.0
 17
0.0
 27
1.0
 37
0.0
 76
     0
330
1A
  0
LAYOUT
  5
21
102
{ACAD_REACTORS
330
19
102
}
330
19
100
AcDbPlotSettings
  1

  2
none_device
  4
Letter_(8.50_x_11.00_Inches)
  6

 40
6.349999904632568
 41
6.349999904632568
 42
6.350006103515625
 43
6.350006103515625
 44
215.8999938964844
 45
279.3999938964844
 46
0.0
 47
0.0
 48
0.0
 49
0.0
140
0.0
141
0.0
142
1.0
143
1.0
 70
 11952
 72
     0
 73
     1
 74
     0
  7

 75
     0
147
1.0
 76
     0
 77
     2
 78
   300
148
-230.4417396561563
149
47.00486644638983
100
AcDbLayout
  1
Model
 70
     1
 71
     0
 10
0.0
 20
0.0
 11
12.0
 21
9.0
 12
0.0
 22
0.0
 32
0.0
 14
0.0
 24
0.0
 34
0.0
 15
0.0
 25
0.0
 35
0.0
146
0.0
 13
0.0
 23
0.0
 33
0.0
 16
1.0
 26
0.0
 36
0.0
 17
0.0
 27
1.0
 37
0.0
 76
     0
330
1E
  0
MLINESTYLE
  5
17
102
{ACAD_REACTORS
330
16
102
}
330
16
100
AcDbMlineStyle
  2
STANDARD
 70
     0
  3

 62
   256
 51
90.0
 52
90.0
 71
     2
 49
0.5
 62
   256
  6
BYLAYER
 49
-0.5
 62
   256
  6
BYLAYER
  0
ACDBPLACEHOLDER
  5
F
102
{ACAD_REACTORS
330
E
102
}
330
E
  0
DICTIONARYVAR
  5
EB
102
{ACAD_REACTORS
330
EA
102
}
330
EA
100
DictionaryVariables
280
     0
  1
1
  0
DICTIONARYVAR
  5
EC
102
{ACAD_REACTORS
330
EA
102
}
330
EA
100
DictionaryVariables
280
     0
  1

  0
ENDSEC
  0
EOF
