  0
SECTION
  2
HEADER
  9
$ACADVER
  1
AC1027
  9
$ACADMAINTVER
 70
   125
  9
$DWGCODEPAGE
  3
ANSI_1252
  9
$LASTSAVEDBY
  1
w.koehlhoff
  9
$REQUIREDVERSIONS
160
                 0
  9
$INSBASE
 10
0.0
 20
0.0
 30
0.0
  9
$EXTMIN
 10
0.0
 20
0.0
 30
0.0
  9
$EXTMAX
 10
420.0
 20
297.0
 30
0.0
  9
$LIMMIN
 10
0.0
 20
0.0
  9
$LIMMAX
 10
420.0
 20
297.0
  9
$ORTHOMODE
 70
     1
  9
$REGENMODE
 70
     1
  9
$FILLMODE
 70
     1
  9
$QTEXTMODE
 70
     0
  9
$MIRRTEXT
 70
     1
  9
$LTSCALE
 40
10.0
  9
$ATTMODE
 70
     1
  9
$TEXTSIZE
 40
3.5
  9
$TRACEWID
 40
1.0
  9
$TEXTSTYLE
  7
STANDARD
  9
$CLAYER
  8
VOLL
  9
$CELTYPE
  6
ByLayer
  9
$CECOLOR
 62
   256
  9
$CELTSCALE
 40
1.0
  9
$DISPSILH
 70
     0
  9
$DIMSCALE
 40
1.0
  9
$DIMASZ
 40
3.5
  9
$DIMEXO
 40
1.0
  9
$DIMDLI
 40
7.0
  9
$DIMRND
 40
0.0
  9
$DIMDLE
 40
0.0
  9
$DIMEXE
 40
1.0
  9
$DIMTP
 40
0.0
  9
$DIMTM
 40
0.0
  9
$DIMTXT
 40
3.5
  9
$DIMCEN
 40
1.5
  9
$DIMTSZ
 40
0.0
  9
$DIMTOL
 70
     0
  9
$DIMLIM
 70
     0
  9
$DIMTIH
 70
     0
  9
$DIMTOH
 70
     0
  9
$DIMSE1
 70
     0
  9
$DIMSE2
 70
     0
  9
$DIMTAD
 70
     1
  9
$DIMZIN
 70
     8
  9
$DIMBLK
  1

  9
$DIMASO
 70
     1
  9
$DIMSHO
 70
     0
  9
$DIMPOST
  1

  9
$DIMAPOST
  1

  9
$DIMALT
 70
     0
  9
$DIMALTD
 70
     2
  9
$DIMALTF
 40
25.4
  9
$DIMLFAC
 40
1.0
  9
$DIMTOFL
 70
     1
  9
$DIMTVP
 40
0.0
  9
$DIMTIX
 70
     0
  9
$DIMSOXD
 70
     0
  9
$DIMSAH
 70
     0
  9
$DIMBLK1
  1

  9
$DIMBLK2
  1

  9
$DIMSTYLE
  2
Standard
  9
$DIMCLRD
 70
     0
  9
$DIMCLRE
 70
     0
  9
$DIMCLRT
 70
     1
  9
$DIMTFAC
 40
0.5142857142857144
  9
$DIMGAP
 40
1.5
  9
$DIMJUST
 70
     0
  9
$DIMSD1
 70
     0
  9
$DIMSD2
 70
     0
  9
$DIMTOLJ
 70
     1
  9
$DIMTZIN
 70
     8
  9
$DIMALTZ
 70
     8
  9
$DIMALTTZ
 70
     8
  9
$DIMUPT
 70
     0
  9
$DIMDEC
 70
     2
  9
$DIMTDEC
 70
     2
  9
$DIMALTU
 70
     2
  9
$DIMALTTD
 70
     2
  9
$DIMTXSTY
  7
STANDARD
  9
$DIMAUNIT
 70
     0
  9
$DIMADEC
 70
     2
  9
$DIMALTRND
 40
0.0
  9
$DIMAZIN
 70
     2
  9
$DIMDSEP
 70
    46
  9
$DIMATFIT
 70
     3
  9
$DIMFRAC
 70
     0
  9
$DIMLDRBLK
  1

  9
$DIMLUNIT
 70
     2
  9
$DIMLWD
 70
    -2
  9
$DIMLWE
 70
    -2
  9
$DIMTMOVE
 70
     0
  9
$DIMFXL
 40
1.0
  9
$DIMFXLON
 70
     0
  9
$DIMJOGANG
 40
0.7853981633974483
  9
$DIMTFILL
 70
     0
  9
$DIMTFILLCLR
 70
     0
  9
$DIMARCSYM
 70
     0
  9
$DIMLTYPE
  6

  9
$DIMLTEX1
  6

  9
$DIMLTEX2
  6

  9
$DIMTXTDIRECTION
 70
     0
  9
$LUNITS
 70
     2
  9
$LUPREC
 70
     2
  9
$SKETCHINC
 40
1.0
  9
$FILLETRAD
 40
6.0
  9
$AUNITS
 70
     0
  9
$AUPREC
 70
     0
  9
$MENU
  1
ACAD
  9
$ELEVATION
 40
0.0
  9
$PELEVATION
 40
0.0
  9
$THICKNESS
 40
0.0
  9
$LIMCHECK
 70
     0
  9
$CHAMFERA
 40
0.0
  9
$CHAMFERB
 40
0.0
  9
$CHAMFERC
 40
0.0
  9
$CHAMFERD
 40
0.0
  9
$SKPOLY
 70
     0
  9
$TDCREATE
 40
2455397.867048611
  9
$TDUCREATE
 40
2455397.783726505
  9
$TDUPDATE
 40
2457925.553020834
  9
$TDUUPDATE
 40
2457925.469687500
  9
$TDINDWG
 40
0.1551218981
  9
$TDUSRTIMER
 40
0.1551218981
  9
$USRTIMER
 70
     1
  9
$ANGBASE
 50
0.0
  9
$ANGDIR
 70
     0
  9
$PDMODE
 70
     0
  9
$PDSIZE
 40
0.0
  9
$PLINEWID
 40
0.0
  9
$SPLFRAME
 70
     0
  9
$SPLINETYPE
 70
     6
  9
$SPLINESEGS
 70
     8
  9
$HANDSEED
  5
1A2D
  9
$SURFTAB1
 70
     6
  9
$SURFTAB2
 70
     6
  9
$SURFTYPE
 70
     6
  9
$SURFU
 70
     6
  9
$SURFV
 70
     6
  9
$UCSBASE
  2

  9
$UCSNAME
  2

  9
$UCSORG
 10
0.0
 20
0.0
 30
0.0
  9
$UCSXDIR
 10
1.0
 20
0.0
 30
0.0
  9
$UCSYDIR
 10
0.0
 20
1.0
 30
0.0
  9
$UCSORTHOREF
  2

  9
$UCSORTHOVIEW
 70
     0
  9
$UCSORGTOP
 10
0.0
 20
0.0
 30
0.0
  9
$UCSORGBOTTOM
 10
0.0
 20
0.0
 30
0.0
  9
$UCSORGLEFT
 10
0.0
 20
0.0
 30
0.0
  9
$UCSORGRIGHT
 10
0.0
 20
0.0
 30
0.0
  9
$UCSORGFRONT
 10
0.0
 20
0.0
 30
0.0
  9
$UCSORGBACK
 10
0.0
 20
0.0
 30
0.0
  9
$PUCSBASE
  2

  9
$PUCSNAME
  2

  9
$PUCSORG
 10
0.0
 20
0.0
 30
0.0
  9
$PUCSXDIR
 10
1.0
 20
0.0
 30
0.0
  9
$PUCSYDIR
 10
0.0
 20
1.0
 30
0.0
  9
$PUCSORTHOREF
  2

  9
$PUCSORTHOVIEW
 70
     0
  9
$PUCSORGTOP
 10
0.0
 20
0.0
 30
0.0
  9
$PUCSORGBOTTOM
 10
0.0
 20
0.0
 30
0.0
  9
$PUCSORGLEFT
 10
0.0
 20
0.0
 30
0.0
  9
$PUCSORGRIGHT
 10
0.0
 20
0.0
 30
0.0
  9
$PUCSORGFRONT
 10
0.0
 20
0.0
 30
0.0
  9
$PUCSORGBACK
 10
0.0
 20
0.0
 30
0.0
  9
$USERI1
 70
     0
  9
$USERI2
 70
     0
  9
$USERI3
 70
     0
  9
$USERI4
 70
     0
  9
$USERI5
 70
     0
  9
$USERR1
 40
0.0
  9
$USERR2
 40
0.0
  9
$USERR3
 40
0.0
  9
$USERR4
 40
0.0
  9
$USERR5
 40
0.0
  9
$WORLDVIEW
 70
     1
  9
$SHADEDGE
 70
     3
  9
$SHADEDIF
 70
    70
  9
$TILEMODE
 70
     1
  9
$MAXACTVP
 70
    16
  9
$PINSBASE
 10
0.0
 20
0.0
 30
0.0
  9
$PLIMCHECK
 70
     0
  9
$PEXTMIN
 10
1.000000000000000E+20
 20
1.000000000000000E+20
 30
1.000000000000000E+20
  9
$PEXTMAX
 10
-1.000000000000000E+20
 20
-1.000000000000000E+20
 30
-1.000000000000000E+20
  9
$PLIMMIN
 10
0.0
 20
0.0
  9
$PLIMMAX
 10
12.0
 20
9.0
  9
$UNITMODE
 70
     0
  9
$VISRETAIN
 70
     0
  9
$PLINEGEN
 70
     0
  9
$PSLTSCALE
 70
     0
  9
$TREEDEPTH
 70
  3020
  9
$CMLSTYLE
  2
Standard
  9
$CMLJUST
 70
     0
  9
$CMLSCALE
 40
1.0
  9
$PROXYGRAPHICS
 70
     1
  9
$MEASUREMENT
 70
     0
  9
$CELWEIGHT
370
    -1
  9
$ENDCAPS
280
     0
  9
$JOINSTYLE
280
     0
  9
$LWDISPLAY
290
     0
  9
$INSUNITS
 70
     0
  9
$HYPERLINKBASE
  1

  9
$STYLESHEET
  1

  9
$XEDIT
290
     1
  9
$CEPSNTYPE
380
     0
  9
$PSTYLEMODE
290
     1
  9
$FINGERPRINTGUID
  2
{D68B0D0D-A558-11D7-B632-000102183313}
  9
$VERSIONGUID
  2
{CA649E24-FBEB-4B41-8898-E02A06252A28}
  9
$EXTNAMES
290
     1
  9
$PSVPSCALE
 40
0.0
  9
$OLESTARTUP
290
     0
  9
$SORTENTS
280
   127
  9
$INDEXCTL
280
     0
  9
$HIDETEXT
280
     0
  9
$XCLIPFRAME
280
     0
  9
$HALOGAP
280
     0
  9
$OBSCOLOR
 70
   257
  9
$OBSLTYPE
280
     0
  9
$INTERSECTIONDISPLAY
280
     0
  9
$INTERSECTIONCOLOR
 70
   257
  9
$DIMASSOC
280
     1
  9
$PROJECTNAME
  1

  9
$CAMERADISPLAY
290
     0
  9
$LENSLENGTH
 40
50.0
  9
$CAMERAHEIGHT
 40
0.0
  9
$STEPSPERSEC
 40
2.0
  9
$STEPSIZE
 40
6.0
  9
$3DDWFPREC
 40
2.0
  9
$PSOLWIDTH
 40
0.25
  9
$PSOLHEIGHT
 40
4.0
  9
$LOFTANG1
 40
1.570796326794896
  9
$LOFTANG2
 40
1.570796326794896
  9
$LOFTMAG1
 40
0.0
  9
$LOFTMAG2
 40
0.0
  9
$LOFTPARAM
 70
     7
  9
$LOFTNORMALS
280
     1
  9
$LATITUDE
 40
37.795
  9
$LONGITUDE
 40
-122.394
  9
$NORTHDIRECTION
 40
0.0
  9
$TIMEZONE
 70
 -8000
  9
$LIGHTGLYPHDISPLAY
280
     1
  9
$TILEMODELIGHTSYNCH
280
     1
  9
$CMATERIAL
347
1985
  9
$SOLIDHIST
280
     0
  9
$SHOWHIST
280
     1
  9
$DWFFRAME
280
     2
  9
$DGNFRAME
280
     0
  9
$REALWORLDSCALE
290
     1
  9
$INTERFERECOLOR
 62
     1
  9
$INTERFEREOBJVS
345
19A7
  9
$INTERFEREVPVS
346
19A4
  9
$CSHADOW
280
     0
  9
$SHADOWPLANELOCATION
 40
0.0
  0
ENDSEC
  0
SECTION
  2
CLASSES
  0
CLASS
  1
ACDBDICTIONARYWDFLT
  2
AcDbDictionaryWithDefault
  3
ObjectDBX Classes
 90
        0
 91
        1
280
     0
281
     0
  0
CLASS
  1
DICTIONARYVAR
  2
AcDbDictionaryVar
  3
ObjectDBX Classes
 90
        0
 91
       11
280
     0
281
     0
  0
CLASS
  1
MATERIAL
  2
AcDbMaterial
  3
ObjectDBX Classes
 90
     1153
 91
        3
280
     0
281
     0
  0
CLASS
  1
VISUALSTYLE
  2
AcDbVisualStyle
  3
ObjectDBX Classes
 90
     4095
 91
       24
280
     0
281
     0
  0
CLASS
  1
TABLESTYLE
  2
AcDbTableStyle
  3
ObjectDBX Classes
 90
     4095
 91
        1
280
     0
281
     0
  0
CLASS
  1
SCALE
  2
AcDbScale
  3
ObjectDBX Classes
 90
     1153
 91
       17
280
     0
281
     0
  0
CLASS
  1
MLEADERSTYLE
  2
AcDbMLeaderStyle
  3
ACDB_MLEADERSTYLE_CLASS
 90
     4095
 91
        1
280
     0
281
     0
  0
CLASS
  1
ACDBSECTIONVIEWSTYLE
  2
AcDbSectionViewStyle
  3
ObjectDBX Classes
 90
     1025
 91
        1
280
     0
281
     0
  0
CLASS
  1
ACDBDETAILVIEWSTYLE
  2
AcDbDetailViewStyle
  3
ObjectDBX Classes
 90
     1025
 91
        1
280
     0
281
     0
  0
CLASS
  1
RAPIDRTRENDERSETTINGS
  2
AcDbRapidRTRenderSettings
  3
ObjectDBX Classes
 90
     1024
 91
        7
280
     0
281
     0
  0
CLASS
  1
FIELD
  2
AcDbField
  3
ObjectDBX Classes
 90
     1152
 91
        2
280
     0
281
     0
  0
CLASS
  1
FIELDLIST
  2
AcDbFieldList
  3
ObjectDBX Classes
 90
     1152
 91
        1
280
     0
281
     0
  0
CLASS
  1
CELLSTYLEMAP
  2
AcDbCellStyleMap
  3
ObjectDBX Classes
 90
     1152
 91
        1
280
     0
281
     0
  0
ENDSEC
  0
SECTION
  2
TABLES
  0
TABLE
  2
VPORT
  5
8
330
0
100
AcDbSymbolTable
 70
     1
1001
ACAD
1000
DbSaveVer
1071
        5
  0
VPORT
  5
1983
330
8
100
AcDbSymbolTableRecord
100
AcDbViewportTableRecord
  2
*Active
 70
     0
 10
0.0
 20
0.0
 11
1.0
 21
1.0
 12
209.9839816944645
 22
148.4886727696569
 13
0.0
 23
0.0
 14
1.0
 24
1.0
 15
10.0
 25
10.0
 16
0.0
 26
0.0
 36
1.0
 17
0.0
 27
0.0
 37
0.0
 40
299.3951041208479
 41
1.971204188481675
 42
50.0
 43
0.0
 44
0.0
 50
0.0
 51
0.0
 71
     0
 72
  1500
 73
     1
 74
     0
 75
     0
 76
     0
 77
     0
 78
     0
281
     0
 65
     1
110
0.0
120
0.0
130
0.0
111
1.0
121
0.0
131
0.0
112
0.0
122
1.0
132
0.0
 79
     0
146
0.0
348
19A3
 60
     3
 61
     5
292
     1
282
     1
141
0.0
142
0.0
 63
   250
421
  3355443
1001
ACAD_NAV_VCDISPLAY
1070
     3
  0
ENDTAB
  0
TABLE
  2
LTYPE
  5
5
330
0
100
AcDbSymbolTable
 70
     3
  0
LTYPE
  5
13
330
5
100
AcDbSymbolTableRecord
100
AcDbLinetypeTableRecord
  2
ByBlock
 70
     0
  3

 72
    65
 73
     0
 40
0.0
  0
LTYPE
  5
14
330
5
100
AcDbSymbolTableRecord
100
AcDbLinetypeTableRecord
  2
ByLayer
 70
     0
  3

 72
    65
 73
     0
 40
0.0
  0
LTYPE
  5
15
330
5
100
AcDbSymbolTableRecord
100
AcDbLinetypeTableRecord
  2
Continuous
 70
     0
  3
Solid line
 72
    65
 73
     0
 40
0.0
  0
LTYPE
  5
25
330
5
100
AcDbSymbolTableRecord
100
AcDbLinetypeTableRecord
  2
STRICHPUNKT
 70
     0
  3
__ . __ . __ . __ . __ . __ . __ . __ . __ . __
 72
    65
 73
     4
 40
1.0
 49
0.5
 74
     0
 49
-0.25
 74
     0
 49
0.0
 74
     0
 49
-0.25
 74
     0
  0
LTYPE
  5
1808
330
5
100
AcDbSymbolTableRecord
100
AcDbLinetypeTableRecord
  2
VERDECKT
 70
     0
  3
Verdeckt __ __ __ __ __ __ __ __ __ __ __ __ __
 72
    65
 73
     2
 40
0.375
 49
0.25
 74
     0
 49
-0.125
 74
     0
  0
ENDTAB
  0
TABLE
  2
LAYER
  5
2
102
{ACAD_XDICTIONARY
360
19DD
102
}
330
0
100
AcDbSymbolTable
 70
    10
  0
LAYER
  5
10
102
{ACAD_XDICTIONARY
360
19EA
102
}
330
2
100
AcDbSymbolTableRecord
100
AcDbLayerTableRecord
  2
0
 70
     0
 62
     7
  6
Continuous
370
    -3
390
F
347
1995
348
0
  0
LAYER
  5
2B
102
{ACAD_XDICTIONARY
360
19EC
102
}
330
2
100
AcDbSymbolTableRecord
100
AcDbLayerTableRecord
  2
VOLL
 70
     0
 62
     1
  6
Continuous
370
    -3
390
F
347
1995
348
0
  0
LAYER
  5
2C
102
{ACAD_XDICTIONARY
360
19EE
102
}
330
2
100
AcDbSymbolTableRecord
100
AcDbLayerTableRecord
  2
HILF
 70
     0
 62
     2
  6
Continuous
370
    -3
390
F
347
1995
348
0
  0
LAYER
  5
2D
102
{ACAD_XDICTIONARY
360
19F0
102
}
330
2
100
AcDbSymbolTableRecord
100
AcDbLayerTableRecord
  2
MITTEL
 70
     0
 62
     2
  6
STRICHPUNKT
370
    -3
390
F
347
1995
348
0
  0
LAYER
  5
2F
102
{ACAD_XDICTIONARY
360
19F2
102
}
330
2
100
AcDbSymbolTableRecord
100
AcDbLayerTableRecord
  2
BEM
 70
     0
 62
     7
  6
Continuous
370
    -3
390
F
347
1995
348
0
  0
LAYER
  5
30
102
{ACAD_XDICTIONARY
360
19F4
102
}
330
2
100
AcDbSymbolTableRecord
100
AcDbLayerTableRecord
  2
STEMPEL
 70
     0
 62
     3
  6
Continuous
370
    -3
390
F
347
1995
348
0
  0
LAYER
  5
33
102
{ACAD_XDICTIONARY
360
19F6
102
}
330
2
100
AcDbSymbolTableRecord
100
AcDbLayerTableRecord
  2
TEXT
 70
     0
 62
     7
  6
Continuous
370
    -3
390
F
347
1995
348
0
  0
LAYER
  5
1BF
330
2
100
AcDbSymbolTableRecord
100
AcDbLayerTableRecord
  2
Defpoints
 70
     0
 62
     7
  6
Continuous
290
     0
370
    -3
390
F
347
1995
348
0
  0
LAYER
  5
142B
102
{ACAD_XDICTIONARY
360
19F8
102
}
330
2
100
AcDbSymbolTableRecord
100
AcDbLayerTableRecord
  2
LE_RED
 70
     0
 62
     1
  6
Continuous
370
    -3
390
F
347
1995
348
0
  0
LAYER
  5
1809
102
{ACAD_XDICTIONARY
360
19FA
102
}
330
2
100
AcDbSymbolTableRecord
100
AcDbLayerTableRecord
  2
Verdeckt
 70
     0
 62
     6
  6
VERDECKT
370
    -3
390
F
347
1995
348
0
  0
ENDTAB
  0
TABLE
  2
STYLE
  5
3
330
0
100
AcDbSymbolTable
 70
     2
  0
STYLE
  5
11
330
3
100
AcDbSymbolTableRecord
100
AcDbTextStyleTableRecord
  2
STANDARD
 70
     0
 40
0.0
 41
0.8
 50
0.0
 71
     0
 42
3.5
  3
simplex.shx
  4

  0
STYLE
  5
24
330
3
100
AcDbSymbolTableRecord
100
AcDbTextStyleTableRecord
  2
GREEKS
 70
     0
 40
0.0
 41
0.8
 50
0.0
 71
     0
 42
2.5
  3
SIMPLEX.shx
  4

  0
ENDTAB
  0
TABLE
  2
VIEW
  5
6
330
0
100
AcDbSymbolTable
 70
     0
  0
ENDTAB
  0
TABLE
  2
UCS
  5
7
330
0
100
AcDbSymbolTable
 70
     0
  0
ENDTAB
  0
TABLE
  2
APPID
  5
9
330
0
100
AcDbSymbolTable
 70
     4
  0
APPID
  5
12
330
9
100
AcDbSymbolTableRecord
100
AcDbRegAppTableRecord
  2
ACAD
 70
     0
  0
APPID
  5
19DB
330
9
100
AcDbSymbolTableRecord
100
AcDbRegAppTableRecord
  2
ACAD_NAV_VCDISPLAY
 70
     0
  0
APPID
  5
19DC
330
9
100
AcDbSymbolTableRecord
100
AcDbRegAppTableRecord
  2
ACAD_PSEXT
 70
     0
  0
APPID
  5
1A14
330
9
100
AcDbSymbolTableRecord
100
AcDbRegAppTableRecord
  2
ACAD_EXEMPT_FROM_CAD_STANDARDS
 70
     0
  0
ENDTAB
  0
TABLE
  2
DIMSTYLE
  5
A
330
0
100
AcDbSymbolTable
 70
     1
100
AcDbDimStyleTable
 71
     1
340
A2
  0
DIMSTYLE
105
A2
102
{ACAD_REACTORS
330
18C9
330
18DF
330
1907
330
1960
102
}
330
A
100
AcDbSymbolTableRecord
100
AcDbDimStyleTableRecord
  2
Standard
 70
     0
340
11
  0
ENDTAB
  0
TABLE
  2
BLOCK_RECORD
  5
1
330
0
100
AcDbSymbolTable
 70
     6
  0
BLOCK_RECORD
  5
1E
102
{ACAD_XDICTIONARY
360
DB
102
}
330
1
100
AcDbSymbolTableRecord
100
AcDbBlockTableRecord
  2
*Model_Space
340
21
 70
     0
280
     1
281
     0
  0
BLOCK_RECORD
  5
1A
102
{ACAD_XDICTIONARY
360
DD
102
}
330
1
100
AcDbSymbolTableRecord
100
AcDbBlockTableRecord
  2
*Paper_Space
340
1D
 70
     0
280
     1
281
     0
  0
BLOCK_RECORD
  5
22
330
1
100
AcDbSymbolTableRecord
100
AcDbBlockTableRecord
  2
LOGO
340
0
102
{BLKREFS
331
56
102
}
 70
     0
280
     1
281
     0
  0
BLOCK_RECORD
  5
23
330
1
100
AcDbSymbolTableRecord
100
AcDbBlockTableRecord
  2
LORO
340
0
102
{BLKREFS
331
131F
102
}
 70
     0
280
     1
281
     0
  0
BLOCK_RECORD
  5
18CA
330
1
100
AcDbSymbolTableRecord
100
AcDbBlockTableRecord
  2
*D2
340
0
 70
     0
280
     1
281
     0
  0
BLOCK_RECORD
  5
18E0
330
1
100
AcDbSymbolTableRecord
100
AcDbBlockTableRecord
  2
*D3
340
0
 70
     0
280
     1
281
     0
  0
BLOCK_RECORD
  5
1908
330
1
100
AcDbSymbolTableRecord
100
AcDbBlockTableRecord
  2
*D4
340
0
 70
     0
280
     1
281
     0
  0
BLOCK_RECORD
  5
1961
330
1
100
AcDbSymbolTableRecord
100
AcDbBlockTableRecord
  2
*D5
340
0
 70
     0
280
     1
281
     0
  0
ENDTAB
  0
ENDSEC
  0
SECTION
  2
BLOCKS
  0
BLOCK
  5
37
330
1E
100
AcDbEntity
  8
0
100
AcDbBlockBegin
  2
*Model_Space
 70
     0
 10
0.0
 20
0.0
 30
0.0
  3
*Model_Space
  1

  0
ENDBLK
  5
38
330
1E
100
AcDbEntity
  8
0
100
AcDbBlockEnd
  0
BLOCK
  5
35
330
1A
100
AcDbEntity
 67
     1
  8
0
100
AcDbBlockBegin
  2
*Paper_Space
 70
     0
 10
0.0
 20
0.0
 30
0.0
  3
*Paper_Space
  1

  0
ENDBLK
  5
36
330
1A
100
AcDbEntity
 67
     1
  8
0
100
AcDbBlockEnd
  0
BLOCK
  5
39
330
22
100
AcDbEntity
  8
0
100
AcDbBlockBegin
  2
LOGO
 70
     0
 10
0.0
 20
0.0
 30
0.0
  3
LOGO
  1

  0
ARC
  5
3A
330
22
100
AcDbEntity
  8
0
100
AcDbCircle
 10
11.59973089678112
 20
-9.271599258481501
 30
0.0
 40
4.5
100
AcDbArc
 50
270.0
 51
231.0575587310159
  0
LINE
  5
3B
330
22
100
AcDbEntity
  8
0
100
AcDbLine
 10
3.599730896781125
 20
-4.771599258481529
 30
0.0
 11
3.599730896781153
 21
-11.77159925848133
 31
0.0
  0
LINE
  5
3C
330
22
100
AcDbEntity
  8
0
100
AcDbLine
 10
2.599730896781125
 20
-4.771599258481529
 30
0.0
 11
2.599730896781153
 21
-11.77159925848133
 31
0.0
  0
CIRCLE
  5
3D
330
22
100
AcDbEntity
  8
0
100
AcDbCircle
 10
11.59973089678112
 20
-9.271599258481501
 30
0.0
 40
3.5
  0
ARC
  5
3E
330
22
100
AcDbEntity
  8
0
100
AcDbCircle
 10
31.59973089678115
 20
-9.271599258481472
 30
0.0
 40
4.5
100
AcDbArc
 50
270.0
 51
231.0575587310182
  0
LINE
  5
3F
330
22
100
AcDbEntity
  8
0
100
AcDbLine
 10
17.59973089678112
 20
-4.771599258481472
 30
0.0
 11
17.59973089678115
 21
-13.77159925848147
 31
0.0
  0
ARC
  5
40
330
22
100
AcDbEntity
  8
0
100
AcDbCircle
 10
22.59973089678116
 20
-7.271599258481472
 30
0.0
 40
2.5
100
AcDbArc
 50
293.1161887722295
 51
90.0
  0
CIRCLE
  5
41
330
22
100
AcDbEntity
  8
0
100
AcDbCircle
 10
31.59973089678115
 20
-9.271599258481472
 30
0.0
 40
3.5
  0
ARC
  5
42
330
22
100
AcDbEntity
  8
0
100
AcDbCircle
 10
4.599730896781153
 20
-11.77159925848133
 30
0.0
 40
1.0
100
AcDbArc
 50
180.0
 51
270.0
  0
ARC
  5
43
330
22
100
AcDbEntity
  8
0
100
AcDbCircle
 10
4.599730896781153
 20
-11.77159925848133
 30
0.0
 40
2.0
100
AcDbArc
 50
179.9999999999992
 51
270.0
  0
LINE
  5
44
330
22
100
AcDbEntity
  8
0
100
AcDbLine
 10
11.59973089678115
 20
-13.77159925848144
 30
0.0
 11
4.599730896781153
 21
-13.77159925848147
 31
0.0
  0
LINE
  5
45
330
22
100
AcDbEntity
  8
0
100
AcDbLine
 10
8.771303772034769
 20
-12.77159925848136
 30
0.0
 11
4.599730896781153
 21
-12.77159925848133
 31
0.0
  0
LINE
  5
46
330
22
100
AcDbEntity
  8
0
100
AcDbLine
 10
31.59973089678115
 20
-13.77159925848147
 30
0.0
 11
23.6715276665056
 21
-13.77159925848144
 31
0.0
  0
LINE
  5
47
330
22
100
AcDbEntity
  8
0
100
AcDbLine
 10
23.56565672307022
 20
-9.51278021337896
 30
0.0
 11
24.4388546544846
 21
-12.77159925848144
 31
0.0
  0
LINE
  5
48
330
22
100
AcDbEntity
  8
0
100
AcDbLine
 10
22.59973089678116
 20
-9.771599258481472
 30
0.0
 11
18.59973089678112
 21
-9.771599258481472
 31
0.0
  0
LINE
  5
49
330
22
100
AcDbEntity
  8
0
100
AcDbLine
 10
18.59973089678115
 20
-13.77159925848144
 30
0.0
 11
17.59973089678115
 21
-13.77159925848144
 31
0.0
  0
LINE
  5
4A
330
22
100
AcDbEntity
  8
0
100
AcDbLine
 10
18.59973089678115
 20
-9.771599258481472
 30
0.0
 11
18.59973089678115
 21
-13.77159925848144
 31
0.0
  0
LINE
  5
4B
330
22
100
AcDbEntity
  8
0
100
AcDbLine
 10
22.59973089678116
 20
-9.771599258481472
 30
0.0
 11
23.67152766650562
 21
-13.77159925848147
 31
0.0
  0
ARC
  5
4C
330
22
100
AcDbEntity
  8
0
100
AcDbCircle
 10
22.59973089678116
 20
-7.271599258481472
 30
0.0
 40
2.5
100
AcDbArc
 50
270.0
 51
270.0000000000007
  0
LINE
  5
4D
330
22
100
AcDbEntity
  8
0
100
AcDbLine
 10
28.77130377203494
 20
-12.77159925848147
 30
0.0
 11
24.43885465448463
 21
-12.77159925848144
 31
0.0
  0
LINE
  5
4E
330
22
100
AcDbEntity
  8
0
100
AcDbLine
 10
3.599730896781125
 20
-4.771599258481472
 30
0.0
 11
2.599730896781125
 21
-4.771599258481472
 31
0.0
  0
LINE
  5
4F
330
22
100
AcDbEntity
  8
0
100
AcDbLine
 10
22.59973089678116
 20
-8.771599258481472
 30
0.0
 11
18.59973089678115
 21
-8.771599258481472
 31
0.0
  0
LINE
  5
50
330
22
100
AcDbEntity
  8
0
100
AcDbLine
 10
22.59973089678116
 20
-5.771599258481472
 30
0.0
 11
18.59973089678115
 21
-5.771599258481472
 31
0.0
  0
LINE
  5
51
330
22
100
AcDbEntity
  8
0
100
AcDbLine
 10
22.59973089678116
 20
-4.771599258481472
 30
0.0
 11
17.59973089678115
 21
-4.771599258481472
 31
0.0
  0
LINE
  5
52
330
22
100
AcDbEntity
  8
0
100
AcDbLine
 10
18.59973089678115
 20
-5.771599258481472
 30
0.0
 11
18.59973089678115
 21
-8.771599258481472
 31
0.0
  0
ARC
  5
53
330
22
100
AcDbEntity
  8
0
100
AcDbCircle
 10
22.59973089678116
 20
-7.271599258481472
 30
0.0
 40
1.5
100
AcDbArc
 50
270.0
 51
90.0
  0
ENDBLK
  5
54
330
22
100
AcDbEntity
  8
0
100
AcDbBlockEnd
  0
BLOCK
  5
55
330
23
100
AcDbEntity
  8
0
100
AcDbBlockBegin
  2
LORO
 70
     0
 10
0.0
 20
0.0
 30
0.0
  3
LORO
  1

  0
INSERT
  5
56
330
23
100
AcDbEntity
  8
STEMPEL
100
AcDbBlockReference
  2
LOGO
 10
-1.748032802467321
 20
3.771489518552062
 30
0.0
  0
ENDBLK
  5
57
330
23
100
AcDbEntity
  8
0
100
AcDbBlockEnd
  0
BLOCK
  5
18D4
330
18CA
100
AcDbEntity
  8
0
100
AcDbBlockBegin
  2
*D2
 70
     1
 10
0.0
 20
0.0
 30
0.0
  3
*D2
  1

  0
LINE
  5
18D6
330
18CA
100
AcDbEntity
  8
BEM
 62
     0
440
 16777216
370
    -2
100
AcDbLine
 10
94.89416480923706
 20
131.7019143664724
 30
0.0
 11
88.90537226862329
 21
131.7019143664724
 31
0.0
  0
LINE
  5
18D7
330
18CA
100
AcDbEntity
  8
BEM
 62
     0
440
 16777216
370
    -2
100
AcDbLine
 10
94.89416480923706
 20
119.0999143664724
 30
0.0
 11
88.90537226862329
 21
119.0999143664724
 31
0.0
  0
LINE
  5
18D8
330
18CA
100
AcDbEntity
  8
BEM
 62
     0
440
 16777216
370
    -2
100
AcDbLine
 10
89.90537226862329
 20
128.2019143664724
 30
0.0
 11
89.90537226862329
 21
122.5999143664724
 31
0.0
  0
SOLID
  5
18D9
330
18CA
100
AcDbEntity
  8
BEM
 62
     0
440
 16777216
100
AcDbTrace
 10
89.32203893528997
 20
128.2019143664724
 30
0.0
 11
90.48870560195663
 21
128.2019143664724
 31
0.0
 12
89.90537226862329
 22
131.7019143664724
 32
0.0
 13
89.90537226862329
 23
131.7019143664724
 33
0.0
  0
SOLID
  5
18DA
330
18CA
100
AcDbEntity
  8
BEM
 62
     0
440
 16777216
100
AcDbTrace
 10
89.32203893528997
 20
122.5999143664724
 30
0.0
 11
90.48870560195663
 21
122.5999143664724
 31
0.0
 12
89.90537226862329
 22
119.0999143664724
 32
0.0
 13
89.90537226862329
 23
119.0999143664724
 33
0.0
  0
MTEXT
  5
18DB
330
18CA
100
AcDbEntity
  8
BEM
 62
     1
440
 16777216
100
AcDbMText
 10
86.65537226862328
 20
125.4009143664724
 30
0.0
 40
3.5
 41
0.0
 46
0.0
 71
     5
 72
     1
  1
\A1;12.6
 11
0.0000000000000001
 21
1.0
 31
0.0
 73
     1
 44
1.0
  0
POINT
  5
18DC
330
18CA
100
AcDbEntity
  8
Defpoints
 62
     0
440
 16777216
100
AcDbPoint
 10
95.89416480923706
 20
131.7019143664724
 30
0.0
  0
POINT
  5
18DD
330
18CA
100
AcDbEntity
  8
Defpoints
 62
     0
440
 16777216
100
AcDbPoint
 10
95.89416480923706
 20
119.0999143664724
 30
0.0
  0
POINT
  5
18DE
330
18CA
100
AcDbEntity
  8
Defpoints
 62
     0
440
 16777216
100
AcDbPoint
 10
89.90537226862329
 20
119.0999143664724
 30
0.0
  0
ENDBLK
  5
18D5
330
18CA
100
AcDbEntity
  8
0
100
AcDbBlockEnd
  0
BLOCK
  5
18EA
330
18E0
100
AcDbEntity
  8
0
100
AcDbBlockBegin
  2
*D3
 70
     1
 10
0.0
 20
0.0
 30
0.0
  3
*D3
  1

  0
LINE
  5
18FE
330
18E0
100
AcDbEntity
  8
BEM
 62
     0
440
 16777216
370
    -2
100
AcDbLine
 10
167.044164809237
 20
173.8659143664724
 30
0.0
 11
80.89645802809654
 21
173.8659143664724
 31
0.0
  0
LINE
  5
18FF
330
18E0
100
AcDbEntity
  8
BEM
 62
     0
440
 16777216
370
    -2
100
AcDbLine
 10
159.9559079708247
 20
50.93591436647243
 30
0.0
 11
80.8964580280965
 21
50.93591436647245
 31
0.0
  0
LINE
  5
1900
330
18E0
100
AcDbEntity
  8
BEM
 62
     0
440
 16777216
370
    -2
100
AcDbLine
 10
81.89645802809653
 20
170.3659143664724
 30
0.0
 11
81.8964580280965
 21
54.43591436647245
 31
0.0
  0
SOLID
  5
1901
330
18E0
100
AcDbEntity
  8
BEM
 62
     0
440
 16777216
100
AcDbTrace
 10
81.3131246947632
 20
170.3659143664724
 30
0.0
 11
82.47979136142985
 21
170.3659143664724
 31
0.0
 12
81.89645802809653
 22
173.8659143664724
 32
0.0
 13
81.89645802809653
 23
173.8659143664724
 33
0.0
  0
SOLID
  5
1902
330
18E0
100
AcDbEntity
  8
BEM
 62
     0
440
 16777216
100
AcDbTrace
 10
81.31312469476318
 20
54.43591436647245
 30
0.0
 11
82.47979136142983
 21
54.43591436647245
 31
0.0
 12
81.8964580280965
 22
50.93591436647245
 32
0.0
 13
81.8964580280965
 23
50.93591436647245
 33
0.0
  0
MTEXT
  5
1903
330
18E0
100
AcDbEntity
  8
BEM
 62
     1
440
 16777216
100
AcDbMText
 10
78.64645802809649
 20
112.4009143664724
 30
0.0
 40
3.5
 41
0.0
 46
0.0
 71
     5
 72
     1
  1
\A1;123
 11
0.0000000000000001
 21
1.0
 31
0.0
 73
     1
 44
1.0
  0
POINT
  5
1904
330
18E0
100
AcDbEntity
  8
Defpoints
 62
     0
440
 16777216
100
AcDbPoint
 10
168.044164809237
 20
173.8659143664724
 30
0.0
  0
POINT
  5
1905
330
18E0
100
AcDbEntity
  8
Defpoints
 62
     0
440
 16777216
100
AcDbPoint
 10
160.9559079708247
 20
50.93591436647243
 30
0.0
  0
POINT
  5
1906
330
18E0
100
AcDbEntity
  8
Defpoints
 62
     0
440
 16777216
100
AcDbPoint
 10
81.8964580280965
 20
50.93591436647245
 30
0.0
  0
ENDBLK
  5
18EB
330
18E0
100
AcDbEntity
  8
0
100
AcDbBlockEnd
  0
BLOCK
  5
1912
330
1908
100
AcDbEntity
  8
0
100
AcDbBlockBegin
  2
*D4
 70
     1
 10
0.0
 20
0.0
 30
0.0
  3
*D4
  1

  0
LINE
  5
193F
330
1908
100
AcDbEntity
  8
BEM
 62
     0
440
 16777216
370
    -2
100
AcDbLine
 10
193.112881587012
 20
155.2416476481125
 30
0.0
 11
142.9754480314619
 21
95.49018108483236
 31
0.0
  0
SOLID
  5
1940
330
1908
100
AcDbEntity
  8
BEM
 62
     0
440
 16777216
100
AcDbTrace
 10
192.6660223285259
 20
155.6166070870963
 30
0.0
 11
193.5597408454981
 21
154.8666882091287
 31
0.0
 12
195.3626382209149
 22
157.922803199029
 32
0.0
 13
195.3626382209149
 23
157.922803199029
 33
0.0
  0
SOLID
  5
1941
330
1908
100
AcDbEntity
  8
BEM
 62
     0
440
 16777216
100
AcDbTrace
 10
142.5285887729758
 20
95.86514052381618
 30
0.0
 11
143.422307289948
 21
95.11522164584855
 31
0.0
 12
140.725691397559
 22
92.80902553391593
 32
0.0
 13
140.725691397559
 23
92.80902553391593
 33
0.0
  0
MTEXT
  5
1942
330
1908
100
AcDbEntity
  8
BEM
 62
     1
440
 16777216
100
AcDbMText
 10
173.1765282162701
 20
136.5385293325996
 30
0.0
 40
3.5
 41
0.0
 46
0.0
 71
     5
 72
     1
  1
\A1;%%c85
 11
0.6427876096865406
 21
0.766044443118977
 31
0.0
 73
     1
 44
1.0
  0
POINT
  5
1943
330
1908
100
AcDbEntity
  8
Defpoints
 62
     0
440
 16777216
100
AcDbPoint
 10
195.3626382209149
 20
157.922803199029
 30
0.0
  0
POINT
  5
1944
330
1908
100
AcDbEntity
  8
Defpoints
 62
     0
440
 16777216
100
AcDbPoint
 10
140.7256913975591
 20
92.80902553391587
 30
0.0
  0
POINT
  5
1945
330
1908
100
AcDbEntity
  8
Defpoints
 62
     0
440
 16777216
100
AcDbPoint
 10
140.725691397559
 20
92.80902553391593
 30
0.0
  0
ENDBLK
  5
1913
330
1908
100
AcDbEntity
  8
0
100
AcDbBlockEnd
  0
BLOCK
  5
196B
330
1961
100
AcDbEntity
  8
0
100
AcDbBlockBegin
  2
*D5
 70
     1
 10
0.0
 20
0.0
 30
0.0
  3
*D5
  1

  0
LINE
  5
1976
330
1961
100
AcDbEntity
  8
BEM
 62
     0
440
 16777216
370
    -2
100
AcDbLine
 10
240.183164809237
 20
244.0369143664724
 30
0.0
 11
240.183164809237
 21
261.6359992074988
 31
0.0
  0
LINE
  5
1977
330
1961
100
AcDbEntity
  8
BEM
 62
     0
440
 16777216
370
    -2
100
AcDbLine
 10
95.90416480923702
 20
244.0369143664724
 30
0.0
 11
95.90416480923702
 21
261.6359992074988
 31
0.0
  0
LINE
  5
1978
330
1961
100
AcDbEntity
  8
BEM
 62
     0
440
 16777216
370
    -2
100
AcDbLine
 10
236.683164809237
 20
260.6359992074988
 30
0.0
 11
99.40416480923701
 21
260.6359992074988
 31
0.0
  0
SOLID
  5
1979
330
1961
100
AcDbEntity
  8
BEM
 62
     0
440
 16777216
100
AcDbTrace
 10
236.683164809237
 20
261.2193325408321
 30
0.0
 11
236.683164809237
 21
260.0526658741655
 31
0.0
 12
240.183164809237
 22
260.6359992074988
 32
0.0
 13
240.183164809237
 23
260.6359992074988
 33
0.0
  0
SOLID
  5
197A
330
1961
100
AcDbEntity
  8
BEM
 62
     0
440
 16777216
100
AcDbTrace
 10
99.40416480923701
 20
261.2193325408321
 30
0.0
 11
99.40416480923701
 21
260.0526658741655
 31
0.0
 12
95.90416480923702
 22
260.6359992074988
 32
0.0
 13
95.90416480923702
 23
260.6359992074988
 33
0.0
  0
MTEXT
  5
197B
330
1961
100
AcDbEntity
  8
BEM
 62
     1
440
 16777216
100
AcDbMText
 10
168.043664809237
 20
263.8859992074988
 30
0.0
 40
3.5
 41
0.0
 46
0.0
 71
     5
 72
     1
  1
\A1;144.3
 73
     1
 44
1.0
  0
POINT
  5
197C
330
1961
100
AcDbEntity
  8
Defpoints
 62
     0
440
 16777216
100
AcDbPoint
 10
240.183164809237
 20
243.0369143664724
 30
0.0
  0
POINT
  5
197D
330
1961
100
AcDbEntity
  8
Defpoints
 62
     0
440
 16777216
100
AcDbPoint
 10
95.90416480923702
 20
243.0369143664724
 30
0.0
  0
POINT
  5
197E
330
1961
100
AcDbEntity
  8
Defpoints
 62
     0
440
 16777216
100
AcDbPoint
 10
95.90416480923702
 20
260.6359992074988
 30
0.0
  0
ENDBLK
  5
196C
330
1961
100
AcDbEntity
  8
0
100
AcDbBlockEnd
  0
ENDSEC
  0
SECTION
  2
ENTITIES
  0
LINE
  5
1319
330
1E
100
AcDbEntity
  8
BEM
100
AcDbLine
 10
228.0
 20
297.0
 30
0.0
 11
228.0
 21
292.0
 31
0.0
  0
TEXT
  5
131A
330
1E
100
AcDbEntity
  8
BEM
100
AcDbText
 10
418.6511461928582
 20
5.083950539994304
 30
0.0
 40
2.0
  1
Diese Zeichnung ist urheberrechtlich geschützt und bleibt unser Eigentum. Sie darf weder ganz noch teilweise verfielfältigt und nicht an Dritte weitergegeben werden.
 50
90.0
 41
0.8
  7
GREEKS
100
AcDbText
  0
LINE
  5
131B
330
1E
100
AcDbEntity
  8
HILF
100
AcDbLine
 10
0.0
 20
148.5
 30
0.0
 11
20.0
 21
148.5
 31
0.0
  0
LINE
  5
131C
330
1E
100
AcDbEntity
  8
STEMPEL
100
AcDbLine
 10
20.0
 20
5.0
 30
0.0
 11
20.0
 21
292.0
 31
0.0
  0
LINE
  5
131D
330
1E
100
AcDbEntity
  8
HILF
100
AcDbLine
 10
0.0
 20
0.0
 30
0.0
 11
0.0
 21
297.0
 31
0.0
  0
LINE
  5
131E
330
1E
100
AcDbEntity
  8
BEM
100
AcDbLine
 10
228.0
 20
0.0
 30
0.0
 11
228.0
 21
5.0
 31
0.0
  0
INSERT
  5
131F
330
1E
100
AcDbEntity
  8
HILF
100
AcDbBlockReference
  2
LORO
 10
286.5312492981177
 20
18.4902965014948
 30
0.0
  0
TEXT
  5
1320
330
1E
100
AcDbEntity
  8
TEXT
100
AcDbText
 10
235.0220569675064
 20
57.05717925255214
 30
0.0
 40
2.5
  1
Erstellt mit AUTOCAD 2004
 41
0.8
  7
GREEKS
100
AcDbText
  0
TEXT
  5
1321
330
1E
100
AcDbEntity
  8
TEXT
 62
     1
100
AcDbText
 10
291.3517456017111
 20
43.73538544207488
 30
0.0
 40
3.5
  1
1:1
 41
0.8
  7
GREEKS
100
AcDbText
  0
TEXT
  5
1322
102
{ACAD_XDICTIONARY
360
1A16
102
}
330
1E
100
AcDbEntity
  8
TEXT
100
AcDbText
 10
327.0838025054674
 20
21.65563812395754
 30
0.0
 40
2.0
  1
00984.070X.DXF
 41
0.8
  7
GREEKS
100
AcDbText
  0
TEXT
  5
1323
330
1E
100
AcDbEntity
  8
TEXT
100
AcDbText
 10
327.1705470442496
 20
26.29548668923029
 30
0.0
 40
2.5
  1
EDV-Art.Nr. 00984.070X
 41
0.8
  7
GREEKS
100
AcDbText
  0
TEXT
  5
1324
330
1E
100
AcDbEntity
  8
TEXT
100
AcDbText
 10
312.0115876613305
 20
31.47148827582734
 30
0.0
 40
2.0
  1
Koeh
 41
0.8
  7
GREEKS
 72
     1
 11
314.6401590899019
 21
31.47148827582734
 31
0.0
100
AcDbText
  0
TEXT
  5
1325
330
1E
100
AcDbEntity
  8
TEXT
100
AcDbText
 10
295.0782618755935
 20
31.5754293806011
 30
0.0
 40
2.0
  1
03.08.
 41
0.8
  7
GREEKS
 72
     1
 11
298.5830237803554
 21
31.5754293806011
 31
0.0
100
AcDbText
  0
TEXT
  5
1326
330
1E
100
AcDbEntity
  8
TEXT
100
AcDbText
 10
309.2545113207915
 20
51.41994805689501
 30
0.0
 40
2.5
  1
Zul.Abw.
 41
0.8
  7
GREEKS
100
AcDbText
  0
TEXT
  5
1327
330
1E
100
AcDbEntity
  8
TEXT
 62
     1
100
AcDbText
 10
383.4647377758735
 20
43.68671537826272
 30
0.0
 40
3.5
  1
00984070X
 41
0.8
  7
GREEKS
 72
     1
 11
395.0647377758735
 21
43.68671537826272
 31
0.0
100
AcDbText
  0
TEXT
  5
1328
330
1E
100
AcDbEntity
  8
TEXT
 62
     1
100
AcDbText
 10
327.5195286236595
 20
43.68671537826272
 30
0.0
 40
3.5
  1
Schwerlastschelle DN70
 41
0.75
  7
GREEKS
100
AcDbText
  0
LINE
  5
1329
330
1E
100
AcDbEntity
  8
STEMPEL
100
AcDbLine
 10
415.0
 20
5.0
 30
0.0
 11
415.0
 21
292.0
 31
0.0
  0
LINE
  5
132A
330
1E
100
AcDbEntity
  8
STEMPEL
100
AcDbLine
 10
20.0
 20
5.0
 30
0.0
 11
415.0
 21
5.0
 31
0.0
  0
LINE
  5
132B
330
1E
100
AcDbEntity
  8
STEMPEL
100
AcDbLine
 10
415.0
 20
292.0
 30
0.0
 11
20.0
 21
292.0
 31
0.0
  0
LINE
  5
132C
330
1E
100
AcDbEntity
  8
HILF
100
AcDbLine
 10
420.0
 20
297.0
 30
0.0
 11
0.0
 21
297.0
 31
0.0
  0
LINE
  5
132D
330
1E
100
AcDbEntity
  8
HILF
100
AcDbLine
 10
420.0
 20
0.0
 30
0.0
 11
420.0
 21
297.0
 31
0.0
  0
LINE
  5
132E
330
1E
100
AcDbEntity
  8
HILF
100
AcDbLine
 10
0.0
 20
0.0
 30
0.0
 11
420.0
 21
0.0
 31
0.0
  0
TEXT
  5
132F
330
1E
100
AcDbEntity
  8
TEXT
100
AcDbText
 10
284.4346513903662
 20
36.48341298261862
 30
0.0
 40
2.0
  1
2009
 41
0.8
  7
GREEKS
100
AcDbText
  0
TEXT
  5
1330
330
1E
100
AcDbEntity
  8
TEXT
100
AcDbText
 10
378.6200430748504
 20
26.03708088939298
 30
0.0
 40
2.5
  1
ersetzt durch:
 41
0.8
  7
GREEKS
100
AcDbText
  0
TEXT
  5
1331
330
1E
100
AcDbEntity
  8
TEXT
100
AcDbText
 10
283.8003388693652
 20
21.76473194824902
 30
0.0
 40
2.0
  1
Norm.
 41
0.8
  7
GREEKS
100
AcDbText
  0
TEXT
  5
1332
330
1E
100
AcDbEntity
  8
TEXT
100
AcDbText
 10
283.7757543285837
 20
26.84463145714186
 30
0.0
 40
2.0
  1
Gepr.
 41
0.8
  7
GREEKS
100
AcDbText
  0
TEXT
  5
1333
330
1E
100
AcDbEntity
  8
TEXT
100
AcDbText
 10
283.7918063583808
 20
31.8149518480898
 30
0.0
 40
2.0
  1
Gez.
 41
0.8
  7
GREEKS
100
AcDbText
  0
TEXT
  5
1334
330
1E
100
AcDbEntity
  8
TEXT
100
AcDbText
 10
311.2313292113148
 20
36.6548054595761
 30
0.0
 40
2.0
  1
Name
 41
0.8
  7
GREEKS
100
AcDbText
  0
TEXT
  5
1335
330
1E
100
AcDbEntity
  8
TEXT
100
AcDbText
 10
296.1655836576826
 20
36.6594025061496
 30
0.0
 40
2.0
  1
Tag
 41
0.8
  7
GREEKS
100
AcDbText
  0
TEXT
  5
1336
330
1E
100
AcDbEntity
  8
TEXT
100
AcDbText
 10
274.4897839069147
 20
9.296621084832022
 30
0.0
 40
2.0
  1
Name
 41
0.8
  7
GREEKS
 72
     1
 11
277.6516886688194
 21
9.296621084832022
 31
0.0
100
AcDbText
  0
TEXT
  5
1337
330
1E
100
AcDbEntity
  8
TEXT
100
AcDbText
 10
264.949505659349
 20
9.33578134669904
 30
0.0
 40
2.0
  1
Tag
 41
0.8
  7
GREEKS
 72
     1
 11
266.8161723260157
 21
9.33578134669904
 31
0.0
100
AcDbText
  0
TEXT
  5
1338
330
1E
100
AcDbEntity
  8
TEXT
100
AcDbText
 10
239.1332055352289
 20
6.827329230135937
 30
0.0
 40
2.0
  1
Index
 50
90.0
 41
0.8
  7
GREEKS
100
AcDbText
  0
TEXT
  5
1339
330
1E
100
AcDbEntity
  8
TEXT
100
AcDbText
 10
378.3619308148498
 20
36.59059118549983
 30
0.0
 40
2.5
  1
Ersatz für:
 41
0.8
  7
GREEKS
100
AcDbText
  0
TEXT
  5
133A
330
1E
100
AcDbEntity
  8
TEXT
100
AcDbText
 10
327.371119195568
 20
15.42280285096527
 30
0.0
 40
2.5
  1
Bauvorhaben
 41
0.8
  7
GREEKS
100
AcDbText
  0
TEXT
  5
133B
330
1E
100
AcDbEntity
  8
TEXT
100
AcDbText
 10
378.0893774788172
 20
51.15660172685679
 30
0.0
 40
2.5
  1
Zeichnungs Nr.
 41
0.8
  7
GREEKS
100
AcDbText
  0
TEXT
  5
133C
330
1E
100
AcDbEntity
  8
TEXT
100
AcDbText
 10
327.4389701904506
 20
51.27446640058896
 30
0.0
 40
2.5
  1
Benennung
 41
0.8
  7
GREEKS
100
AcDbText
  0
TEXT
  5
133D
330
1E
100
AcDbEntity
  8
TEXT
100
AcDbText
 10
286.7581786075189
 20
51.2310447543544
 30
0.0
 40
2.5
  1
Maßstab
 41
0.8
  7
GREEKS
100
AcDbText
  0
TEXT
  5
133E
330
1E
100
AcDbEntity
  8
TEXT
100
AcDbText
 10
246.1999119631649
 20
9.336909474920645
 30
0.0
 40
2.0
  1
Änderung
 41
0.8
  7
GREEKS
 72
     1
 11
251.5713405345934
 21
9.336909474920645
 31
0.0
100
AcDbText
  0
LINE
  5
133F
330
1E
100
AcDbEntity
  8
HILF
100
AcDbLine
 10
327.3868400548474
 20
7.446991290141525
 30
0.0
 11
412.4294419663365
 21
7.446991290141525
 31
0.0
  0
LINE
  5
1340
330
1E
100
AcDbEntity
  8
HILF
100
AcDbLine
 10
378.3619308148498
 20
41.88991818477911
 30
0.0
 11
412.4294419663365
 21
41.88991818477911
 31
0.0
  0
LINE
  5
1341
330
1E
100
AcDbEntity
  8
VOLL
100
AcDbLine
 10
376.0000000000001
 20
30.0
 30
0.0
 11
415.0000000000001
 21
30.0
 31
0.0
  0
LINE
  5
1342
330
1E
100
AcDbEntity
  8
HILF
100
AcDbLine
 10
327.3868400548474
 20
25.0
 30
0.0
 11
373.3148921257406
 21
25.0
 31
0.0
  0
LINE
  5
1343
330
1E
100
AcDbEntity
  8
HILF
100
AcDbLine
 10
327.3868400548474
 20
30.0
 30
0.0
 11
373.3148921257406
 21
30.0
 31
0.0
  0
LINE
  5
1344
330
1E
100
AcDbEntity
  8
HILF
100
AcDbLine
 10
327.3868400548474
 20
35.0
 30
0.0
 11
373.3148921257406
 21
35.0
 31
0.0
  0
LINE
  5
1345
330
1E
100
AcDbEntity
  8
HILF
100
AcDbLine
 10
327.3868400548474
 20
42.01879123782068
 30
0.0
 11
373.3148921257406
 21
42.01879123782068
 31
0.0
  0
LINE
  5
1346
330
1E
100
AcDbEntity
  8
HILF
100
AcDbLine
 10
283.0000000000001
 20
25.0
 30
0.0
 11
325.0
 21
25.0
 31
0.0
  0
LINE
  5
1347
330
1E
100
AcDbEntity
  8
HILF
100
AcDbLine
 10
283.0000000000001
 20
30.0
 30
0.0
 11
325.0
 21
30.0
 31
0.0
  0
LINE
  5
1348
330
1E
100
AcDbEntity
  8
HILF
100
AcDbLine
 10
283.0000000000001
 20
35.0
 30
0.0
 11
325.0
 21
35.0
 31
0.0
  0
LINE
  5
1349
330
1E
100
AcDbEntity
  8
HILF
100
AcDbLine
 10
235.0000000000001
 20
20.0
 30
0.0
 11
283.0000000000001
 21
20.0
 31
0.0
  0
LINE
  5
134A
330
1E
100
AcDbEntity
  8
HILF
100
AcDbLine
 10
235.0000000000001
 20
25.0
 30
0.0
 11
283.0000000000001
 21
25.0
 31
0.0
  0
LINE
  5
134B
330
1E
100
AcDbEntity
  8
HILF
100
AcDbLine
 10
235.0000000000001
 20
30.0
 30
0.0
 11
283.0000000000001
 21
30.0
 31
0.0
  0
LINE
  5
134C
330
1E
100
AcDbEntity
  8
HILF
100
AcDbLine
 10
235.0000000000001
 20
35.0
 30
0.0
 11
283.0000000000001
 21
35.0
 31
0.0
  0
LINE
  5
134D
330
1E
100
AcDbEntity
  8
HILF
100
AcDbLine
 10
235.0000000000001
 20
40.0
 30
0.0
 11
283.0000000000001
 21
40.0
 31
0.0
  0
LINE
  5
134E
330
1E
100
AcDbEntity
  8
HILF
100
AcDbLine
 10
235.0000000000001
 20
45.0
 30
0.0
 11
283.0000000000001
 21
45.0
 31
0.0
  0
LINE
  5
134F
330
1E
100
AcDbEntity
  8
HILF
100
AcDbLine
 10
235.0000000000001
 20
50.0
 30
0.0
 11
283.0000000000001
 21
50.0
 31
0.0
  0
LINE
  5
1350
330
1E
100
AcDbEntity
  8
VOLL
100
AcDbLine
 10
305.0000000000001
 20
54.99999999999992
 30
0.0
 11
305.0000000000001
 21
20.0
 31
0.0
  0
LINE
  5
1351
330
1E
100
AcDbEntity
  8
VOLL
100
AcDbLine
 10
292.0000000000001
 20
40.0
 30
0.0
 11
292.0000000000001
 21
20.0
 31
0.0
  0
LINE
  5
1352
330
1E
100
AcDbEntity
  8
VOLL
100
AcDbLine
 10
272.0000000000001
 20
54.99999999999996
 30
0.0
 11
272.0000000000001
 21
4.999999999999957
 31
0.0
  0
LINE
  5
1353
330
1E
100
AcDbEntity
  8
VOLL
100
AcDbLine
 10
262.0000000000001
 20
54.99999999999997
 30
0.0
 11
262.0
 21
4.999999999999971
 31
0.0
  0
LINE
  5
1354
330
1E
100
AcDbEntity
  8
VOLL
100
AcDbLine
 10
242.0000000000001
 20
55.0
 30
0.0
 11
242.0000000000001
 21
4.999999999999992
 31
0.0
  0
LINE
  5
1355
330
1E
100
AcDbEntity
  8
STEMPEL
100
AcDbLine
 10
415.0000000000001
 20
40.0
 30
0.0
 11
283.0000000000001
 21
40.0
 31
0.0
  0
LINE
  5
1356
330
1E
100
AcDbEntity
  8
STEMPEL
100
AcDbLine
 10
415.0000000000001
 20
20.0
 30
0.0
 11
283.0
 21
20.0
 31
0.0
  0
LINE
  5
1357
330
1E
100
AcDbEntity
  8
STEMPEL
100
AcDbLine
 10
283.0
 20
15.0
 30
0.0
 11
235.0
 21
15.0
 31
0.0
  0
LINE
  5
1358
330
1E
100
AcDbEntity
  8
STEMPEL
100
AcDbLine
 10
376.0000000000001
 20
54.99999999999984
 30
0.0
 11
376.0000000000001
 21
20.0
 31
0.0
  0
LINE
  5
1359
330
1E
100
AcDbEntity
  8
STEMPEL
100
AcDbLine
 10
325.0
 20
55.0
 30
0.0
 11
325.0
 21
5.0
 31
0.0
  0
LINE
  5
135A
330
1E
100
AcDbEntity
  8
STEMPEL
100
AcDbLine
 10
283.0000000000001
 20
54.99999999999994
 30
0.0
 11
283.0
 21
4.999999999999943
 31
0.0
  0
LINE
  5
135B
330
1E
100
AcDbEntity
  8
STEMPEL
100
AcDbLine
 10
235.0000000000001
 20
55.0
 30
0.0
 11
235.0
 21
5.0
 31
0.0
  0
LINE
  5
135C
330
1E
100
AcDbEntity
  8
STEMPEL
100
AcDbLine
 10
415.0000000000001
 20
55.0
 30
0.0
 11
235.0000000000001
 21
55.0
 31
0.0
  0
LINE
  5
15E9
330
1E
100
AcDbEntity
  8
STEMPEL
100
AcDbLine
 10
214.950164809237
 20
225.2869143664724
 30
0.0
 11
121.137164809237
 21
225.2869143664724
 31
0.0
  0
LINE
  5
15EA
330
1E
100
AcDbEntity
  8
STEMPEL
100
AcDbLine
 10
121.137164809237
 20
225.2869143664724
 30
0.0
 11
121.137164809237
 21
216.7869143664724
 31
0.0
  0
LINE
  5
15EB
330
1E
100
AcDbEntity
  8
STEMPEL
100
AcDbLine
 10
121.137164809237
 20
251.2869143664724
 30
0.0
 11
121.137164809237
 21
242.7869143664724
 31
0.0
  0
LINE
  5
15EC
330
1E
100
AcDbEntity
  8
STEMPEL
100
AcDbLine
 10
214.950164809237
 20
225.2869143664724
 30
0.0
 11
214.950164809237
 21
216.7869143664724
 31
0.0
  0
LINE
  5
15ED
330
1E
100
AcDbEntity
  8
STEMPEL
100
AcDbLine
 10
214.950164809237
 20
251.2869143664724
 30
0.0
 11
214.950164809237
 21
242.7869143664724
 31
0.0
  0
LINE
  5
15EE
330
1E
100
AcDbEntity
  8
STEMPEL
100
AcDbLine
 10
121.137164809237
 20
242.7869143664724
 30
0.0
 11
214.950164809237
 21
242.7869143664724
 31
0.0
  0
LINE
  5
15EF
330
1E
100
AcDbEntity
  8
STEMPEL
100
AcDbLine
 10
121.137164809237
 20
251.2869143664724
 30
0.0
 11
214.950164809237
 21
251.2869143664724
 31
0.0
  0
LINE
  5
15F0
330
1E
100
AcDbEntity
  8
STEMPEL
100
AcDbLine
 10
121.137164809237
 20
216.7869143664724
 30
0.0
 11
214.950164809237
 21
216.7869143664724
 31
0.0
  0
LINE
  5
1649
330
1E
100
AcDbEntity
  8
STEMPEL
100
AcDbLine
 10
180.544164809237
 20
228.5369143664724
 30
0.0
 11
180.544164809237
 21
239.5369143664724
 31
0.0
  0
LINE
  5
164A
330
1E
100
AcDbEntity
  8
STEMPEL
100
AcDbLine
 10
124.034164809237
 20
239.5369143664724
 30
0.0
 11
155.544164809237
 21
239.5369143664724
 31
0.0
  0
LINE
  5
164B
330
1E
100
AcDbEntity
  8
STEMPEL
100
AcDbLine
 10
155.544164809237
 20
228.5369143664724
 30
0.0
 11
155.544164809237
 21
239.5369143664724
 31
0.0
  0
LINE
  5
164C
330
1E
100
AcDbEntity
  8
STEMPEL
100
AcDbLine
 10
155.544164809237
 20
228.5369143664724
 30
0.0
 11
124.034164809237
 21
228.5369143664724
 31
0.0
  0
LINE
  5
164D
330
1E
100
AcDbEntity
  8
STEMPEL
100
AcDbLine
 10
180.544164809237
 20
239.5369143664724
 30
0.0
 11
212.054164809237
 21
239.5369143664724
 31
0.0
  0
LINE
  5
164E
330
1E
100
AcDbEntity
  8
STEMPEL
100
AcDbLine
 10
212.054164809237
 20
228.5369143664724
 30
0.0
 11
180.544164809237
 21
228.5369143664724
 31
0.0
  0
LINE
  5
164F
330
1E
100
AcDbEntity
  8
TEXT
 62
     2
100
AcDbLine
 10
146.463164809237
 20
232.4959143664724
 30
0.0
 11
146.262164809237
 21
232.4959143664724
 31
0.0
  0
LINE
  5
1650
330
1E
100
AcDbEntity
  8
TEXT
 62
     2
100
AcDbLine
 10
146.463164809237
 20
232.4959143664724
 30
0.0
 11
147.033164809237
 21
233.6349143664724
 31
0.0
  0
LINE
  5
1651
330
1E
100
AcDbEntity
  8
TEXT
 62
     2
100
AcDbLine
 10
147.033164809237
 20
233.6349143664724
 30
0.0
 11
147.234164809237
 21
233.6349143664724
 31
0.0
  0
LINE
  5
1652
330
1E
100
AcDbEntity
  8
TEXT
 62
     2
100
AcDbLine
 10
147.234164809237
 20
233.6349143664724
 30
0.0
 11
147.703164809237
 21
232.4959143664724
 31
0.0
  0
LINE
  5
1653
330
1E
100
AcDbEntity
  8
TEXT
 62
     2
100
AcDbLine
 10
147.904164809237
 20
232.4959143664724
 30
0.0
 11
147.703164809237
 21
232.4959143664724
 31
0.0
  0
LINE
  5
1654
330
1E
100
AcDbEntity
  8
TEXT
 62
     2
100
AcDbLine
 10
148.373164809237
 20
233.6349143664724
 30
0.0
 11
147.904164809237
 21
232.4959143664724
 31
0.0
  0
LINE
  5
1655
330
1E
100
AcDbEntity
  8
TEXT
 62
     2
100
AcDbLine
 10
148.574164809237
 20
233.6349143664724
 30
0.0
 11
148.373164809237
 21
233.6349143664724
 31
0.0
  0
LINE
  5
1656
330
1E
100
AcDbEntity
  8
TEXT
 62
     2
100
AcDbLine
 10
149.143164809237
 20
232.4959143664724
 30
0.0
 11
148.574164809237
 21
233.6349143664724
 31
0.0
  0
LINE
  5
1657
330
1E
100
AcDbEntity
  8
TEXT
 62
     2
100
AcDbLine
 10
149.143164809237
 20
232.4959143664724
 30
0.0
 11
149.344164809237
 21
232.4959143664724
 31
0.0
  0
LINE
  5
1658
330
1E
100
AcDbEntity
  8
TEXT
 62
     2
100
AcDbLine
 10
146.463164809237
 20
235.5779143664724
 30
0.0
 11
146.262164809237
 21
235.5779143664724
 31
0.0
  0
LINE
  5
1659
330
1E
100
AcDbEntity
  8
TEXT
 62
     2
100
AcDbLine
 10
146.463164809237
 20
235.5779143664724
 30
0.0
 11
147.033164809237
 21
234.4389143664724
 31
0.0
  0
LINE
  5
165A
330
1E
100
AcDbEntity
  8
TEXT
 62
     2
100
AcDbLine
 10
147.033164809237
 20
234.4389143664724
 30
0.0
 11
147.234164809237
 21
234.4389143664724
 31
0.0
  0
LINE
  5
165B
330
1E
100
AcDbEntity
  8
TEXT
 62
     2
100
AcDbLine
 10
147.234164809237
 20
234.4389143664724
 30
0.0
 11
147.703164809237
 21
235.5779143664724
 31
0.0
  0
LINE
  5
165C
330
1E
100
AcDbEntity
  8
TEXT
 62
     2
100
AcDbLine
 10
147.904164809237
 20
235.5779143664724
 30
0.0
 11
147.703164809237
 21
235.5779143664724
 31
0.0
  0
LINE
  5
165D
330
1E
100
AcDbEntity
  8
TEXT
 62
     2
100
AcDbLine
 10
148.373164809237
 20
234.4389143664724
 30
0.0
 11
147.904164809237
 21
235.5779143664724
 31
0.0
  0
LINE
  5
165E
330
1E
100
AcDbEntity
  8
TEXT
 62
     2
100
AcDbLine
 10
148.574164809237
 20
234.4389143664724
 30
0.0
 11
148.373164809237
 21
234.4389143664724
 31
0.0
  0
LINE
  5
165F
330
1E
100
AcDbEntity
  8
TEXT
 62
     2
100
AcDbLine
 10
149.143164809237
 20
235.5779143664724
 30
0.0
 11
148.574164809237
 21
234.4389143664724
 31
0.0
  0
LINE
  5
1660
330
1E
100
AcDbEntity
  8
TEXT
 62
     2
100
AcDbLine
 10
149.143164809237
 20
235.5779143664724
 30
0.0
 11
149.344164809237
 21
235.5779143664724
 31
0.0
  0
LINE
  5
1661
330
1E
100
AcDbEntity
  8
TEXT
100
AcDbLine
 10
145.793164809237
 20
232.0269143664724
 30
0.0
 11
149.813164809237
 21
232.0269143664724
 31
0.0
  0
LINE
  5
1662
330
1E
100
AcDbEntity
  8
TEXT
100
AcDbLine
 10
149.813164809237
 20
232.0269143664724
 30
0.0
 11
149.813164809237
 21
236.0469143664724
 31
0.0
  0
LINE
  5
1663
330
1E
100
AcDbEntity
  8
TEXT
100
AcDbLine
 10
149.813164809237
 20
236.0469143664724
 30
0.0
 11
145.793164809237
 21
236.0469143664724
 31
0.0
  0
LINE
  5
1664
330
1E
100
AcDbEntity
  8
TEXT
100
AcDbLine
 10
145.793164809237
 20
236.0469143664724
 30
0.0
 11
145.793164809237
 21
232.0269143664724
 31
0.0
  0
LINE
  5
1665
330
1E
100
AcDbEntity
  8
MITTEL
100
AcDbLine
 10
152.694164809237
 20
241.2159143664724
 30
0.0
 11
152.694164809237
 21
226.8579143664724
 31
0.0
  0
CIRCLE
  5
1667
330
1E
100
AcDbEntity
  8
STEMPEL
100
AcDbCircle
 10
152.694164809237
 20
234.0369143664724
 30
0.0
 40
2.178999999999999
  0
LINE
  5
1668
330
1E
100
AcDbEntity
  8
TEXT
 62
     2
100
AcDbLine
 10
149.143164809237
 20
235.5779143664724
 30
0.0
 11
149.344164809237
 21
235.5779143664724
 31
0.0
  0
TEXT
  5
1669
330
1E
100
AcDbEntity
  8
TEXT
 62
     2
100
AcDbText
 10
225.435164809237
 20
222.9969143664724
 30
0.0
 40
3.0
  1
72-78
 41
0.8
100
AcDbText
  0
LINE
  5
166A
330
1E
100
AcDbEntity
  8
TEXT
100
AcDbLine
 10
220.011164809237
 20
223.7159143664724
 30
0.0
 11
220.636164809237
 21
223.7159143664724
 31
0.0
  0
ARC
  5
166B
330
1E
100
AcDbEntity
  8
TEXT
100
AcDbCircle
 10
219.661164809237
 20
223.6689143664724
 30
0.0
 40
0.353
100
AcDbArc
 50
172.3718503309998
 51
7.628149669000156
  0
LINE
  5
166C
330
1E
100
AcDbEntity
  8
TEXT
100
AcDbLine
 10
218.686164809237
 20
223.7159143664724
 30
0.0
 11
219.311164809237
 21
223.7159143664724
 31
0.0
  0
ARC
  5
166D
330
1E
100
AcDbEntity
  8
TEXT
100
AcDbCircle
 10
218.336164809237
 20
223.6689143664724
 30
0.0
 40
0.353
100
AcDbArc
 50
172.3718503309998
 51
7.628149669000156
  0
LINE
  5
166E
330
1E
100
AcDbEntity
  8
TEXT
100
AcDbLine
 10
217.646164809237
 20
223.7159143664724
 30
0.0
 11
217.986164809237
 21
223.7159143664724
 31
0.0
  0
LINE
  5
166F
330
1E
100
AcDbEntity
  8
TEXT
100
AcDbLine
 10
217.646164809237
 20
225.0559143664724
 30
0.0
 11
217.646164809237
 21
223.7159143664724
 31
0.0
  0
LINE
  5
1670
330
1E
100
AcDbEntity
  8
TEXT
100
AcDbLine
 10
219.346164809237
 20
225.0559143664724
 30
0.0
 11
217.646164809237
 21
225.0559143664724
 31
0.0
  0
LINE
  5
1671
330
1E
100
AcDbEntity
  8
TEXT
100
AcDbLine
 10
219.346164809237
 20
224.9159143664724
 30
0.0
 11
219.346164809237
 21
225.0559143664724
 31
0.0
  0
ARC
  5
1672
330
1E
100
AcDbEntity
  8
TEXT
100
AcDbCircle
 10
219.146164809237
 20
224.9159143664724
 30
0.0
 40
0.2
100
AcDbArc
 50
270.0
 51
0.0
  0
LINE
  5
1673
330
1E
100
AcDbEntity
  8
TEXT
100
AcDbLine
 10
217.986164809237
 20
224.7159143664724
 30
0.0
 11
219.146164809237
 21
224.7159143664724
 31
0.0
  0
LINE
  5
1674
330
1E
100
AcDbEntity
  8
TEXT
100
AcDbLine
 10
217.986164809237
 20
224.1159143664724
 30
0.0
 11
217.986164809237
 21
224.7159143664724
 31
0.0
  0
LINE
  5
1675
330
1E
100
AcDbEntity
  8
TEXT
100
AcDbLine
 10
223.986164809237
 20
224.1159143664724
 30
0.0
 11
217.986164809237
 21
224.1159143664724
 31
0.0
  0
LINE
  5
1676
330
1E
100
AcDbEntity
  8
TEXT
100
AcDbLine
 10
223.986164809237
 20
224.7159143664724
 30
0.0
 11
223.986164809237
 21
224.1159143664724
 31
0.0
  0
LINE
  5
1677
330
1E
100
AcDbEntity
  8
TEXT
100
AcDbLine
 10
222.826164809237
 20
224.7159143664724
 30
0.0
 11
223.986164809237
 21
224.7159143664724
 31
0.0
  0
ARC
  5
1678
330
1E
100
AcDbEntity
  8
TEXT
100
AcDbCircle
 10
222.826164809237
 20
224.9159143664724
 30
0.0
 40
0.2
100
AcDbArc
 50
180.0
 51
270.0
  0
LINE
  5
1679
330
1E
100
AcDbEntity
  8
TEXT
100
AcDbLine
 10
222.626164809237
 20
225.0559143664724
 30
0.0
 11
222.626164809237
 21
224.9159143664724
 31
0.0
  0
LINE
  5
167A
330
1E
100
AcDbEntity
  8
TEXT
100
AcDbLine
 10
224.326164809237
 20
225.0559143664724
 30
0.0
 11
222.626164809237
 21
225.0559143664724
 31
0.0
  0
LINE
  5
167B
330
1E
100
AcDbEntity
  8
TEXT
100
AcDbLine
 10
224.326164809237
 20
223.7159143664724
 30
0.0
 11
224.326164809237
 21
225.0559143664724
 31
0.0
  0
LINE
  5
167C
330
1E
100
AcDbEntity
  8
TEXT
100
AcDbLine
 10
223.986164809237
 20
223.7159143664724
 30
0.0
 11
224.326164809237
 21
223.7159143664724
 31
0.0
  0
ARC
  5
167D
330
1E
100
AcDbEntity
  8
TEXT
100
AcDbCircle
 10
223.636164809237
 20
223.6689143664724
 30
0.0
 40
0.353
100
AcDbArc
 50
172.3718503309998
 51
7.628149669000156
  0
LINE
  5
167E
330
1E
100
AcDbEntity
  8
TEXT
100
AcDbLine
 10
222.661164809237
 20
223.7159143664724
 30
0.0
 11
223.286164809237
 21
223.7159143664724
 31
0.0
  0
ARC
  5
167F
330
1E
100
AcDbEntity
  8
TEXT
100
AcDbCircle
 10
222.311164809237
 20
223.6689143664724
 30
0.0
 40
0.353
100
AcDbArc
 50
172.3718503309998
 51
7.628149669000156
  0
LINE
  5
1680
330
1E
100
AcDbEntity
  8
TEXT
100
AcDbLine
 10
221.336164809237
 20
223.7159143664724
 30
0.0
 11
221.961164809237
 21
223.7159143664724
 31
0.0
  0
ARC
  5
1681
330
1E
100
AcDbEntity
  8
TEXT
100
AcDbCircle
 10
220.986164809237
 20
223.6689143664724
 30
0.0
 40
0.353
100
AcDbArc
 50
172.3718503309998
 51
7.628149669000156
  0
LINE
  5
1682
330
1E
100
AcDbEntity
  8
TEXT
100
AcDbLine
 10
217.646164809237
 20
239.4759143664724
 30
0.0
 11
224.326164809237
 21
245.4759143664724
 31
0.0
  0
LINE
  5
1683
330
1E
100
AcDbEntity
  8
TEXT
100
AcDbLine
 10
224.326164809237
 20
239.4759143664724
 30
0.0
 11
217.646164809237
 21
245.4759143664724
 31
0.0
  0
TEXT
  5
1684
330
1E
100
AcDbEntity
  8
TEXT
 62
     2
100
AcDbText
 10
224.978164809237
 20
241.4749143664724
 30
0.0
 40
3.0
  1
79-85
 41
0.8
100
AcDbText
  0
LINE
  5
1685
330
1E
100
AcDbEntity
  8
TEXT
100
AcDbLine
 10
220.011164809237
 20
241.8059143664724
 30
0.0
 11
220.636164809237
 21
241.8059143664724
 31
0.0
  0
ARC
  5
1686
330
1E
100
AcDbEntity
  8
TEXT
100
AcDbCircle
 10
219.661164809237
 20
241.7589143664724
 30
0.0
 40
0.353
100
AcDbArc
 50
172.3718503309998
 51
7.628149669000156
  0
LINE
  5
1687
330
1E
100
AcDbEntity
  8
TEXT
100
AcDbLine
 10
218.686164809237
 20
241.8059143664724
 30
0.0
 11
219.311164809237
 21
241.8059143664724
 31
0.0
  0
ARC
  5
1688
330
1E
100
AcDbEntity
  8
TEXT
100
AcDbCircle
 10
218.336164809237
 20
241.7589143664724
 30
0.0
 40
0.353
100
AcDbArc
 50
172.3718503309998
 51
7.628149669000156
  0
LINE
  5
1689
330
1E
100
AcDbEntity
  8
TEXT
100
AcDbLine
 10
217.646164809237
 20
241.8059143664724
 30
0.0
 11
217.986164809237
 21
241.8059143664724
 31
0.0
  0
LINE
  5
168A
330
1E
100
AcDbEntity
  8
TEXT
100
AcDbLine
 10
217.646164809237
 20
243.1459143664724
 30
0.0
 11
217.646164809237
 21
241.8059143664724
 31
0.0
  0
LINE
  5
168B
330
1E
100
AcDbEntity
  8
TEXT
100
AcDbLine
 10
219.346164809237
 20
243.1459143664724
 30
0.0
 11
217.646164809237
 21
243.1459143664724
 31
0.0
  0
LINE
  5
168C
330
1E
100
AcDbEntity
  8
TEXT
100
AcDbLine
 10
219.346164809237
 20
243.0059143664724
 30
0.0
 11
219.346164809237
 21
243.1459143664724
 31
0.0
  0
ARC
  5
168D
330
1E
100
AcDbEntity
  8
TEXT
100
AcDbCircle
 10
219.146164809237
 20
243.0059143664724
 30
0.0
 40
0.2
100
AcDbArc
 50
270.0
 51
0.0
  0
LINE
  5
168E
330
1E
100
AcDbEntity
  8
TEXT
100
AcDbLine
 10
217.986164809237
 20
242.8059143664724
 30
0.0
 11
219.146164809237
 21
242.8059143664724
 31
0.0
  0
LINE
  5
168F
330
1E
100
AcDbEntity
  8
TEXT
100
AcDbLine
 10
217.986164809237
 20
242.2059143664724
 30
0.0
 11
217.986164809237
 21
242.8059143664724
 31
0.0
  0
LINE
  5
1690
330
1E
100
AcDbEntity
  8
TEXT
100
AcDbLine
 10
223.986164809237
 20
242.2059143664724
 30
0.0
 11
217.986164809237
 21
242.2059143664724
 31
0.0
  0
LINE
  5
1691
330
1E
100
AcDbEntity
  8
TEXT
100
AcDbLine
 10
223.986164809237
 20
242.8059143664724
 30
0.0
 11
223.986164809237
 21
242.2059143664724
 31
0.0
  0
LINE
  5
1692
330
1E
100
AcDbEntity
  8
TEXT
100
AcDbLine
 10
222.826164809237
 20
242.8059143664724
 30
0.0
 11
223.986164809237
 21
242.8059143664724
 31
0.0
  0
ARC
  5
1693
330
1E
100
AcDbEntity
  8
TEXT
100
AcDbCircle
 10
222.826164809237
 20
243.0059143664724
 30
0.0
 40
0.2
100
AcDbArc
 50
180.0
 51
270.0
  0
LINE
  5
1694
330
1E
100
AcDbEntity
  8
TEXT
100
AcDbLine
 10
222.626164809237
 20
243.1459143664724
 30
0.0
 11
222.626164809237
 21
243.0059143664724
 31
0.0
  0
LINE
  5
1695
330
1E
100
AcDbEntity
  8
TEXT
100
AcDbLine
 10
224.326164809237
 20
243.1459143664724
 30
0.0
 11
222.626164809237
 21
243.1459143664724
 31
0.0
  0
LINE
  5
1696
330
1E
100
AcDbEntity
  8
TEXT
100
AcDbLine
 10
224.326164809237
 20
241.8059143664724
 30
0.0
 11
224.326164809237
 21
243.1459143664724
 31
0.0
  0
LINE
  5
1697
330
1E
100
AcDbEntity
  8
TEXT
100
AcDbLine
 10
223.986164809237
 20
241.8059143664724
 30
0.0
 11
224.326164809237
 21
241.8059143664724
 31
0.0
  0
ARC
  5
1698
330
1E
100
AcDbEntity
  8
TEXT
100
AcDbCircle
 10
223.636164809237
 20
241.7589143664724
 30
0.0
 40
0.353
100
AcDbArc
 50
172.3718503309998
 51
7.628149669000156
  0
LINE
  5
1699
330
1E
100
AcDbEntity
  8
TEXT
100
AcDbLine
 10
222.661164809237
 20
241.8059143664724
 30
0.0
 11
223.286164809237
 21
241.8059143664724
 31
0.0
  0
ARC
  5
169A
330
1E
100
AcDbEntity
  8
TEXT
100
AcDbCircle
 10
222.311164809237
 20
241.7589143664724
 30
0.0
 40
0.353
100
AcDbArc
 50
172.3718503309998
 51
7.628149669000156
  0
LINE
  5
169B
330
1E
100
AcDbEntity
  8
TEXT
100
AcDbLine
 10
221.336164809237
 20
241.8059143664724
 30
0.0
 11
221.961164809237
 21
241.8059143664724
 31
0.0
  0
ARC
  5
169C
330
1E
100
AcDbEntity
  8
TEXT
100
AcDbCircle
 10
220.986164809237
 20
241.7589143664724
 30
0.0
 40
0.353
100
AcDbArc
 50
172.3718503309998
 51
7.628149669000156
  0
LINE
  5
169E
330
1E
100
AcDbEntity
  8
HILF
100
AcDbLine
 10
212.5761648092371
 20
239.6822825313334
 30
0.0
 11
212.576164809237
 21
228.3913122802214
 31
0.0
  0
CIRCLE
  5
169F
330
1E
100
AcDbEntity
  8
STEMPEL
100
AcDbCircle
 10
168.044164809237
 20
234.0369143664724
 30
0.0
 40
2.75
  0
LINE
  5
16A0
330
1E
100
AcDbEntity
  8
MITTEL
100
AcDbLine
 10
168.044164809237
 20
211.7869143664724
 30
0.0
 11
168.044164809237
 21
256.2869143664724
 31
0.0
  0
LINE
  5
16A1
330
1E
100
AcDbEntity
  8
MITTEL
100
AcDbLine
 10
90.90416480923702
 20
234.0369143664724
 30
0.0
 11
245.183164809237
 21
234.0369143664724
 31
0.0
  0
LINE
  5
16A3
330
1E
100
AcDbEntity
  8
STEMPEL
100
AcDbLine
 10
95.90416480923702
 20
225.0369143664725
 30
0.0
 11
95.90416480923702
 21
243.0369143664724
 31
0.0
  0
LINE
  5
16A5
330
1E
100
AcDbEntity
  8
STEMPEL
100
AcDbLine
 10
121.137164809237
 20
219.0369143664724
 30
0.0
 11
101.904164809237
 21
219.0369143664725
 31
0.0
  0
LINE
  5
16A6
330
1E
100
AcDbEntity
  8
STEMPEL
100
AcDbLine
 10
234.1831648092371
 20
219.0369143664725
 30
0.0
 11
214.950164809237
 21
219.0369143664724
 31
0.0
  0
LINE
  5
16A8
330
1E
100
AcDbEntity
  8
STEMPEL
100
AcDbLine
 10
240.183164809237
 20
243.0369143664724
 30
0.0
 11
240.1831648092371
 21
225.0369143664725
 31
0.0
  0
LINE
  5
16AA
330
1E
100
AcDbEntity
  8
STEMPEL
100
AcDbLine
 10
214.950164809237
 20
249.0369143664724
 30
0.0
 11
234.183164809237
 21
249.0369143664724
 31
0.0
  0
LINE
  5
16AB
330
1E
100
AcDbEntity
  8
STEMPEL
100
AcDbLine
 10
101.904164809237
 20
249.0369143664724
 30
0.0
 11
121.137164809237
 21
249.0369143664724
 31
0.0
  0
ARC
  5
16AD
330
1E
100
AcDbEntity
  8
STEMPEL
100
AcDbCircle
 10
168.044164809237
 20
125.3659143664724
 30
0.0
 40
46.74999999999999
100
AcDbArc
 50
11.79467560699982
 51
14.72698751799998
  0
ARC
  5
16AF
330
1E
100
AcDbEntity
  8
STEMPEL
100
AcDbCircle
 10
168.044164809237
 20
125.4359143664724
 30
0.0
 40
46.74999999999999
100
AcDbArc
 50
345.273012482
 51
348.2053243930002
  0
LINE
  5
16B3
330
1E
100
AcDbEntity
  8
STEMPEL
100
AcDbLine
 10
205.2794085565359
 20
135.1529784348866
 30
0.0
 11
214.9508919010372
 21
137.6951054808717
 31
0.0
  0
LINE
  5
16B4
330
1E
100
AcDbEntity
  8
STEMPEL
100
AcDbLine
 10
205.279164809237
 20
115.6489143664724
 30
0.0
 11
214.9680563253415
 21
113.1022116228122
 31
0.0
  0
LINE
  5
16B9
330
1E
100
AcDbEntity
  8
STEMPEL
100
AcDbLine
 10
234.194164809237
 20
131.7019143664724
 30
0.0
 11
234.194164809237
 21
134.6979143664724
 31
0.0
  0
LINE
  5
16BD
330
1E
100
AcDbEntity
  8
STEMPEL
100
AcDbLine
 10
214.9491016922561
 20
131.7019143664724
 30
0.0
 11
240.194164809237
 21
131.7019143664724
 31
0.0
  0
LINE
  5
16BE
330
1E
100
AcDbEntity
  8
STEMPEL
100
AcDbLine
 10
214.9501535100415
 20
134.6979143664724
 30
0.0
 11
240.194164809237
 21
134.6979143664724
 31
0.0
  0
LINE
  5
16C0
330
1E
100
AcDbEntity
  8
STEMPEL
100
AcDbLine
 10
240.194164809237
 20
131.7019143664724
 30
0.0
 11
240.194164809237
 21
134.6979143664724
 31
0.0
  0
LINE
  5
16C1
330
1E
100
AcDbEntity
  8
MITTEL
100
AcDbLine
 10
168.044164809237
 20
45.93591436647241
 30
0.0
 11
168.044164809237
 21
178.8659143664724
 31
0.0
  0
LINE
  5
16C2
330
1E
100
AcDbEntity
  8
MITTEL
100
AcDbLine
 10
95.057164809237
 20
125.4359143664724
 30
0.0
 11
240.700164809237
 21
125.4359143664724
 31
0.0
  0
LINE
  5
16CF
330
1E
100
AcDbEntity
  8
STEMPEL
100
AcDbLine
 10
234.194164809237
 20
119.0999143664724
 30
0.0
 11
234.194164809237
 21
116.1039143664724
 31
0.0
  0
LINE
  5
16D6
330
1E
100
AcDbEntity
  8
STEMPEL
100
AcDbLine
 10
214.9674558702869
 20
119.0999143664724
 30
0.0
 11
216.444164809237
 21
119.0999143664724
 31
0.0
  0
LINE
  5
16D8
330
1E
100
AcDbEntity
  8
STEMPEL
100
AcDbLine
 10
214.9685013096075
 20
116.1039143664724
 30
0.0
 11
216.444164809237
 21
116.1039143664724
 31
0.0
  0
LINE
  5
16DB
330
1E
100
AcDbEntity
  8
STEMPEL
100
AcDbLine
 10
240.194164809237
 20
119.0999143664724
 30
0.0
 11
240.194164809237
 21
116.1039143664726
 31
0.0
  0
LINE
  5
16DC
330
1E
100
AcDbEntity
  8
MITTEL
100
AcDbLine
 10
109.655164809237
 20
245.5369143664724
 30
0.0
 11
109.655164809237
 21
222.5369143664724
 31
0.0
  0
CIRCLE
  5
16DD
330
1E
100
AcDbEntity
  8
STEMPEL
100
AcDbCircle
 10
109.655164809237
 20
234.0369143664724
 30
0.0
 40
6.5
  0
LINE
  5
170F
330
1E
100
AcDbEntity
  8
STEMPEL
100
AcDbLine
 10
233.201164809237
 20
115.0929143664724
 30
0.0
 11
233.944164809237
 21
115.0929143664724
 31
0.0
  0
ARC
  5
1710
330
1E
100
AcDbEntity
  8
STEMPEL
100
AcDbCircle
 10
233.193164809237
 20
119.2729143664724
 30
0.0
 40
0.825
100
AcDbArc
 50
109.8044465770002
 51
116.0947175500004
  0
ARC
  5
1711
330
1E
100
AcDbEntity
  8
STEMPEL
100
AcDbCircle
 10
233.197164809237
 20
119.2659143664724
 30
0.0
 40
0.832
100
AcDbArc
 50
103.7919950170002
 51
109.8607746799998
  0
ARC
  5
1712
330
1E
100
AcDbEntity
  8
STEMPEL
100
AcDbCircle
 10
233.197164809237
 20
119.2649143664724
 30
0.0
 40
0.8339999999999999
100
AcDbArc
 50
96.67849485099985
 51
103.8009687570001
  0
ARC
  5
1713
330
1E
100
AcDbEntity
  8
STEMPEL
100
AcDbCircle
 10
233.196164809237
 20
119.2719143664724
 30
0.0
 40
0.8279999999999999
100
AcDbArc
 50
89.64007983999957
 51
96.67768667300004
  0
ARC
  5
1714
330
1E
100
AcDbEntity
  8
STEMPEL
100
AcDbCircle
 10
233.196164809237
 20
115.9209143664724
 30
0.0
 40
0.8269999999999999
100
AcDbArc
 50
263.322313327
 51
270.3599201600005
  0
ARC
  5
1715
330
1E
100
AcDbEntity
  8
STEMPEL
100
AcDbCircle
 10
233.197164809237
 20
115.9279143664724
 30
0.0
 40
0.833
100
AcDbArc
 50
256.1990312429998
 51
263.3215051490002
  0
ARC
  5
1716
330
1E
100
AcDbEntity
  8
STEMPEL
100
AcDbCircle
 10
233.197164809237
 20
115.9269143664724
 30
0.0
 40
0.832
100
AcDbArc
 50
250.1392253200001
 51
256.2080049829998
  0
ARC
  5
1717
330
1E
100
AcDbEntity
  8
STEMPEL
100
AcDbCircle
 10
233.193164809237
 20
115.9209143664724
 30
0.0
 40
0.8259999999999999
100
AcDbArc
 50
243.9052824500003
 51
250.1955534229997
  0
LINE
  5
1718
330
1E
100
AcDbEntity
  8
STEMPEL
100
AcDbLine
 10
232.830164809237
 20
116.1039143664726
 30
0.0
 11
232.830164809237
 21
115.1789143664724
 31
0.0
  0
LINE
  5
171A
330
1E
100
AcDbEntity
  8
STEMPEL
100
AcDbLine
 10
216.444164809237
 20
120.0999143664724
 30
0.0
 11
236.444164809237
 21
120.0999143664724
 31
0.0
  0
LINE
  5
171B
330
1E
100
AcDbEntity
  8
STEMPEL
100
AcDbLine
 10
232.830164809237
 20
120.0139143664724
 30
0.0
 11
232.830164809237
 21
119.0989143664724
 31
0.0
  0
LINE
  5
171C
330
1E
100
AcDbEntity
  8
STEMPEL
100
AcDbLine
 10
236.444164809237
 20
120.0999143664724
 30
0.0
 11
236.444164809237
 21
119.0999143664724
 31
0.0
  0
LINE
  5
171D
330
1E
100
AcDbEntity
  8
STEMPEL
100
AcDbLine
 10
236.444164809237
 20
116.0929143664724
 30
0.0
 11
236.444164809237
 21
115.0929143664724
 31
0.0
  0
LINE
  5
171E
330
1E
100
AcDbEntity
  8
STEMPEL
100
AcDbLine
 10
236.444164809237
 20
115.0929143664724
 30
0.0
 11
233.944164809237
 21
115.0929143664724
 31
0.0
  0
LINE
  5
171F
330
1E
100
AcDbEntity
  8
STEMPEL
100
AcDbLine
 10
233.201164809237
 20
115.0929143664724
 30
0.0
 11
216.444164809237
 21
115.0929143664724
 31
0.0
  0
LINE
  5
1720
330
1E
100
AcDbEntity
  8
STEMPEL
100
AcDbLine
 10
216.444164809237
 20
115.0929143664724
 30
0.0
 11
216.444164809237
 21
120.0999143664724
 31
0.0
  0
LINE
  5
1721
330
1E
100
AcDbEntity
  8
STEMPEL
100
AcDbLine
 10
218.944164809237
 20
108.0929143664724
 30
0.0
 11
218.944164809237
 21
115.0929143664724
 31
0.0
  0
LINE
  5
1723
330
1E
100
AcDbEntity
  8
STEMPEL
100
AcDbLine
 10
233.944164809237
 20
108.0929143664724
 30
0.0
 11
218.944164809237
 21
108.0929143664724
 31
0.0
  0
LINE
  5
1724
330
1E
100
AcDbEntity
  8
STEMPEL
100
AcDbLine
 10
226.444164809237
 20
108.0929143664724
 30
0.0
 11
226.444164809237
 21
115.0929143664724
 31
0.0
  0
LINE
  5
1726
330
1E
100
AcDbEntity
  8
STEMPEL
100
AcDbLine
 10
233.944164809237
 20
115.0929143664724
 30
0.0
 11
233.944164809237
 21
108.0929143664724
 31
0.0
  0
LINE
  5
172F
330
1E
100
AcDbEntity
  8
STEMPEL
100
AcDbLine
 10
219.194164809237
 20
126.6559143664724
 30
0.0
 11
219.194164809237
 21
127.1559143664724
 31
0.0
  0
LINE
  5
1730
330
1E
100
AcDbEntity
  8
STEMPEL
100
AcDbLine
 10
233.694164809237
 20
126.6559143664724
 30
0.0
 11
219.194164809237
 21
126.6559143664724
 31
0.0
  0
LINE
  5
1731
330
1E
100
AcDbEntity
  8
STEMPEL
100
AcDbLine
 10
233.694164809237
 20
127.1559143664724
 30
0.0
 11
233.694164809237
 21
126.6559143664724
 31
0.0
  0
LINE
  5
1732
330
1E
100
AcDbEntity
  8
STEMPEL
100
AcDbLine
 10
219.194164809237
 20
127.1559143664724
 30
0.0
 11
233.694164809237
 21
127.1559143664724
 31
0.0
  0
LINE
  5
1737
330
1E
100
AcDbEntity
  8
LE_RED
100
AcDbLine
 10
223.211164809237
 20
131.4359143664724
 30
0.0
 11
223.142164809237
 21
131.6919143664724
 31
0.0
  0
LINE
  5
173A
330
1E
100
AcDbEntity
  8
HILF
100
AcDbLine
 10
223.211164809237
 20
131.7019143664724
 30
0.0
 11
223.2111648092371
 21
127.1559143664724
 31
0.0
  0
LINE
  5
173B
330
1E
100
AcDbEntity
  8
LE_RED
100
AcDbLine
 10
229.677164809237
 20
131.4359143664724
 30
0.0
 11
229.745164809237
 21
131.6919143664724
 31
0.0
  0
LINE
  5
173E
330
1E
100
AcDbEntity
  8
HILF
100
AcDbLine
 10
229.677164809237
 20
104.8059143664724
 30
0.0
 11
229.677164809237
 21
108.0929143664724
 31
0.0
  0
LINE
  5
173F
330
1E
100
AcDbEntity
  8
STEMPEL
100
AcDbLine
 10
230.444164809237
 20
105.5729143664724
 30
0.0
 11
222.444164809237
 21
105.5729143664724
 31
0.0
  0
LINE
  5
1746
330
1E
100
AcDbEntity
  8
STEMPEL
100
AcDbLine
 10
222.444164809237
 20
105.5729143664724
 30
0.0
 11
222.444164809237
 21
108.0929143664724
 31
0.0
  0
LINE
  5
1747
330
1E
100
AcDbEntity
  8
STEMPEL
100
AcDbLine
 10
223.211164809237
 20
104.8059143664724
 30
0.0
 11
222.444164809237
 21
105.5729143664724
 31
0.0
  0
LINE
  5
1748
330
1E
100
AcDbEntity
  8
STEMPEL
100
AcDbLine
 10
229.677164809237
 20
104.8059143664724
 30
0.0
 11
223.211164809237
 21
104.8059143664724
 31
0.0
  0
LINE
  5
1749
330
1E
100
AcDbEntity
  8
STEMPEL
100
AcDbLine
 10
230.444164809237
 20
105.5729143664724
 30
0.0
 11
229.677164809237
 21
104.8059143664724
 31
0.0
  0
LINE
  5
174A
330
1E
100
AcDbEntity
  8
STEMPEL
100
AcDbLine
 10
230.4441648092371
 20
131.7019143664724
 30
0.0
 11
230.4441648092371
 21
127.1559143664724
 31
0.0
  0
LINE
  5
1776
330
1E
100
AcDbEntity
  8
MITTEL
100
AcDbLine
 10
226.444164809237
 20
99.80591436647243
 30
0.0
 11
226.444164809237
 21
144.9944551664724
 31
0.0
  0
TEXT
  5
1793
330
1E
100
AcDbEntity
  8
TEXT
100
AcDbText
 10
327.1705470442496
 20
36.29548668923029
 30
0.0
 40
2.5
  1
mit Schallschutz
 41
0.8
  7
GREEKS
100
AcDbText
  0
ARC
  5
1796
330
1E
100
AcDbEntity
  8
STEMPEL
100
AcDbCircle
 10
168.044164809237
 20
125.3659143664724
 30
0.0
 40
38.5
100
AcDbArc
 50
194.625616561374
 51
345.3740051181646
  0
ARC
  5
1797
330
1E
100
AcDbEntity
  8
STEMPEL
100
AcDbCircle
 10
168.044164809237
 20
125.3659143664724
 30
0.0
 40
38.5
100
AcDbArc
 50
14.72674678446935
 51
165.2736315354026
  0
ARC
  5
1798
330
1E
100
AcDbEntity
  8
STEMPEL
100
AcDbCircle
 10
168.044164809237
 20
125.3659143664724
 30
0.0
 40
48.5
100
AcDbArc
 50
14.7267864616125
 51
165.2735138541622
  0
ARC
  5
179A
330
1E
100
AcDbEntity
  8
STEMPEL
100
AcDbCircle
 10
168.044164809237
 20
125.3659143664724
 30
0.0
 40
48.5
100
AcDbArc
 50
194.6465078464132
 51
345.3531918375173
  0
ARC
  5
17E0
330
1E
100
AcDbEntity
  8
STEMPEL
100
AcDbCircle
 10
160.954716680437
 20
72.84268134352533
 30
0.0
 40
3.848390227184345
100
AcDbArc
 50
52.11936428282204
 51
121.4691945240797
  0
ARC
  5
17E1
330
1E
100
AcDbEntity
  8
STEMPEL
100
AcDbCircle
 10
160.955216680437
 20
54.78430453156814
 30
0.0
 40
3.848390227184345
100
AcDbArc
 50
238.5308054759203
 51
307.8806357171779
  0
LINE
  5
17E3
330
1E
100
AcDbEntity
  8
STEMPEL
100
AcDbLine
 10
160.9559079708247
 20
50.93591436647243
 30
0.0
 11
175.132421647637
 21
50.93591436647241
 31
0.0
  0
LINE
  5
17E4
330
1E
100
AcDbEntity
  8
STEMPEL
100
AcDbLine
 10
158.5917339708371
 20
75.92069004922719
 30
0.0
 11
158.592233970837
 21
51.70629582586628
 31
0.0
  0
LINE
  5
17E5
330
1E
100
AcDbEntity
  8
STEMPEL
100
AcDbLine
 10
158.592233970837
 20
51.70629582586629
 30
0.0
 11
159.1171054634563
 21
51.40326112831259
 31
0.0
  0
LINE
  5
17E8
330
1E
100
AcDbEntity
  8
STEMPEL
100
AcDbLine
 10
158.591733970837
 20
75.92069004922717
 30
0.0
 11
161.0955386319429
 21
77.36626234431475
 31
0.0
  0
ARC
  5
17E9
330
1E
100
AcDbEntity
  8
STEMPEL
100
AcDbCircle
 10
168.043664809237
 20
62.51384150862106
 30
0.0
 40
14.17723
100
AcDbArc
 50
70.52782738138472
 51
109.4721726186152
  0
ARC
  5
17EA
330
1E
100
AcDbEntity
  8
STEMPEL
100
AcDbCircle
 10
168.044164809237
 20
65.11314436647241
 30
0.0
 40
14.17723
100
AcDbArc
 50
250.5278273813848
 51
289.4721726186153
  0
LINE
  5
17EB
330
1E
100
AcDbEntity
  8
STEMPEL
100
AcDbLine
 10
163.317699390037
 20
75.88018361592273
 30
0.0
 11
163.3181993900371
 21
51.74680225917075
 31
0.0
  0
LINE
  5
17EE
330
1E
100
AcDbEntity
  8
STEMPEL
100
AcDbLine
 10
177.495595647637
 20
75.92069004922716
 30
0.0
 11
177.496095647637
 21
51.70629582586626
 31
0.0
  0
LINE
  5
17EF
330
1E
100
AcDbEntity
  8
STEMPEL
100
AcDbLine
 10
172.769630228437
 20
75.88018361592273
 30
0.0
 11
172.770130228437
 21
51.74680225917072
 31
0.0
  0
ARC
  5
17F0
330
1E
100
AcDbEntity
  8
STEMPEL
100
AcDbCircle
 10
175.1331129380371
 20
54.78430453156814
 30
0.0
 40
3.848390227184345
100
AcDbArc
 50
232.1193642828218
 51
301.4691945240797
  0
LINE
  5
17F2
330
1E
100
AcDbEntity
  8
STEMPEL
100
AcDbLine
 10
175.1263347649336
 20
50.93591436647241
 30
0.0
 11
175.1324216476234
 21
50.93591436647241
 31
0.0
  0
LINE
  5
17F3
330
1E
100
AcDbEntity
  8
STEMPEL
100
AcDbLine
 10
177.4960956476371
 20
51.70629582586629
 30
0.0
 11
176.9712241550177
 21
51.40326112831259
 31
0.0
  0
ARC
  5
17F7
330
1E
100
AcDbEntity
  8
STEMPEL
100
AcDbCircle
 10
175.132612938037
 20
72.84268134352533
 30
0.0
 40
3.848390227184345
100
AcDbArc
 50
58.53080547592032
 51
127.8806357171779
  0
LINE
  5
17F9
330
1E
100
AcDbEntity
  8
STEMPEL
100
AcDbLine
 10
175.1258347649336
 20
76.69107150862107
 30
0.0
 11
175.1319216476234
 21
76.69107150862107
 31
0.0
  0
LINE
  5
17FA
330
1E
100
AcDbEntity
  8
STEMPEL
100
AcDbLine
 10
177.495595647637
 20
75.92069004922717
 30
0.0
 11
174.9919914496482
 21
77.36614660688015
 31
0.0
  0
ARC
  5
1802
330
1E
100
AcDbEntity
  8
Verdeckt
100
AcDbCircle
 10
168.044164809237
 20
125.3659143664724
 30
0.0
 40
42.5
100
AcDbArc
 50
14.73510355974058
 51
165.2735778173776
  0
ARC
  5
1803
330
1E
100
AcDbEntity
  8
Verdeckt
100
AcDbCircle
 10
168.044164809237
 20
125.3659143664724
 30
0.0
 40
45.49999999999999
100
AcDbArc
 50
14.73021749521271
 51
165.2735437270925
  0
ARC
  5
1804
330
1E
100
AcDbEntity
  8
Verdeckt
100
AcDbCircle
 10
168.044164809237
 20
125.3659143664724
 30
0.0
 40
42.5
100
AcDbArc
 50
194.6351528200486
 51
345.3503867859624
  0
ARC
  5
1805
330
1E
100
AcDbEntity
  8
Verdeckt
100
AcDbCircle
 10
168.044164809237
 20
125.3659143664724
 30
0.0
 40
45.49999999999999
100
AcDbArc
 50
194.6412046751797
 51
345.3552709396457
  0
ARC
  5
180B
330
1E
100
AcDbEntity
  8
STEMPEL
100
AcDbCircle
 10
214.9501535100415
 20
137.6979143664724
 30
0.0
 40
3.0
100
AcDbArc
 50
194.7302174952126
 51
270.0
  0
ARC
  5
180C
330
1E
100
AcDbEntity
  8
STEMPEL
100
AcDbCircle
 10
214.9685013096075
 20
113.1039143664724
 30
0.0
 40
3.0
100
AcDbArc
 50
89.99999999999946
 51
165.3552709396463
  0
ARC
  5
180D
330
1E
100
AcDbEntity
  8
STEMPEL
100
AcDbCircle
 10
214.9674558702869
 20
113.0999143664724
 30
0.0
 40
6.0
100
AcDbArc
 50
90.0
 51
165.3503867859625
  0
ARC
  5
180E
330
1E
100
AcDbEntity
  8
STEMPEL
100
AcDbCircle
 10
214.9491016922561
 20
137.7019143664724
 30
0.0
 40
6.0
100
AcDbArc
 50
194.7351035597406
 51
270.0000000000002
  0
LINE
  5
1811
330
1E
100
AcDbEntity
  8
STEMPEL
100
AcDbLine
 10
232.830164809237
 20
119.0999143664724
 30
0.0
 11
240.194164809237
 21
119.0999143664724
 31
0.0
  0
LINE
  5
1812
330
1E
100
AcDbEntity
  8
STEMPEL
100
AcDbLine
 10
232.830164809237
 20
116.1039143664726
 30
0.0
 11
240.194164809237
 21
116.1039143664726
 31
0.0
  0
LINE
  5
1814
330
1E
100
AcDbEntity
  8
HILF
100
AcDbLine
 10
223.211164809237
 20
108.0929143664724
 30
0.0
 11
223.211164809237
 21
104.8059143664724
 31
0.0
  0
LINE
  5
1815
330
1E
100
AcDbEntity
  8
STEMPEL
100
AcDbLine
 10
222.444164809237
 20
120.0999143664724
 30
0.0
 11
222.444164809237
 21
126.6559143664724
 31
0.0
  0
LINE
  5
1816
330
1E
100
AcDbEntity
  8
HILF
100
AcDbLine
 10
229.677164809237
 20
120.0999143664724
 30
0.0
 11
229.6771648092371
 21
126.6559143664724
 31
0.0
  0
LINE
  5
1817
330
1E
100
AcDbEntity
  8
STEMPEL
100
AcDbLine
 10
230.4441648092371
 20
126.6559143664724
 30
0.0
 11
230.4441648092371
 21
120.0999143664724
 31
0.0
  0
LINE
  5
1818
330
1E
100
AcDbEntity
  8
HILF
100
AcDbLine
 10
229.6771648092371
 20
127.1559143664724
 30
0.0
 11
229.677164809237
 21
131.7019143664724
 31
0.0
  0
LINE
  5
1819
330
1E
100
AcDbEntity
  8
HILF
100
AcDbLine
 10
223.2111648092371
 20
126.6559143664724
 30
0.0
 11
223.2111648092371
 21
120.0999143664724
 31
0.0
  0
LINE
  5
181A
330
1E
100
AcDbEntity
  8
STEMPEL
100
AcDbLine
 10
222.444164809237
 20
127.1559143664724
 30
0.0
 11
222.444164809237
 21
131.7019143664724
 31
0.0
  0
LINE
  5
181C
330
1E
100
AcDbEntity
  8
STEMPEL
100
AcDbLine
 10
230.4441648092371
 20
115.0929143664724
 30
0.0
 11
230.444164809237
 21
105.5729143664724
 31
0.0
  0
LINE
  5
1863
330
1E
100
AcDbEntity
  8
STEMPEL
100
AcDbLine
 10
219.255356854421
 20
134.6979143664724
 30
0.0
 11
233.632972764053
 21
134.6979143664724
 31
0.0
  0
ARC
  5
1864
330
1E
100
AcDbEntity
  8
STEMPEL
100
AcDbCircle
 10
226.444164809237
 20
129.2117499664724
 30
0.0
 40
10.7827052
100
AcDbArc
 50
70.52782738138472
 51
109.4721726186152
  0
LINE
  5
1865
330
1E
100
AcDbEntity
  8
STEMPEL
100
AcDbLine
 10
221.0530846144116
 20
139.9944551664724
 30
0.0
 11
231.8352450040531
 21
139.9944551664724
 31
0.0
  0
ARC
  5
1867
330
1E
100
AcDbEntity
  8
STEMPEL
100
AcDbCircle
 10
221.052558843125
 20
137.0675042286089
 30
0.0
 40
2.926950985085932
100
AcDbArc
 50
52.11936428281976
 51
121.4691945240785
  0
LINE
  5
1868
330
1E
100
AcDbEntity
  8
STEMPEL
100
AcDbLine
 10
219.255356854421
 20
139.0220640031047
 30
0.0
 11
219.255356854421
 21
139.4085299774059
 31
0.0
  0
LINE
  5
1869
330
1E
100
AcDbEntity
  8
STEMPEL
100
AcDbLine
 10
219.255356854421
 20
139.4085299774059
 30
0.0
 11
219.6545557510177
 21
139.6390075678162
 31
0.0
  0
LINE
  5
186A
330
1E
100
AcDbEntity
  8
STEMPEL
100
AcDbLine
 10
219.255356854421
 20
139.0220640031047
 30
0.0
 11
219.255356854421
 21
134.6979143664724
 31
0.0
  0
LINE
  5
186B
330
1E
100
AcDbEntity
  8
STEMPEL
100
AcDbLine
 10
222.849760831829
 20
139.0220640031047
 30
0.0
 11
222.849760831829
 21
139.3777222012024
 31
0.0
  0
LINE
  5
186C
330
1E
100
AcDbEntity
  8
STEMPEL
100
AcDbLine
 10
222.849760831829
 20
139.0220640031047
 30
0.0
 11
222.849760831829
 21
134.6979143664724
 31
0.0
  0
ARC
  5
186D
330
1E
100
AcDbEntity
  8
STEMPEL
100
AcDbCircle
 10
231.835770775349
 20
137.0675042286089
 30
0.0
 40
2.926950985085932
100
AcDbArc
 50
58.53080547592148
 51
127.8806357171802
  0
LINE
  5
186E
330
1E
100
AcDbEntity
  8
STEMPEL
100
AcDbLine
 10
230.038568786645
 20
139.0220640031047
 30
0.0
 11
230.038568786645
 21
139.3777222012024
 31
0.0
  0
LINE
  5
186F
330
1E
100
AcDbEntity
  8
STEMPEL
100
AcDbLine
 10
230.038568786645
 20
139.0220640031047
 30
0.0
 11
230.038568786645
 21
134.6979143664724
 31
0.0
  0
LINE
  5
1870
330
1E
100
AcDbEntity
  8
STEMPEL
100
AcDbLine
 10
231.8306155339959
 20
139.9944551664724
 30
0.0
 11
231.8352450040427
 21
139.9944551664724
 31
0.0
  0
LINE
  5
1871
330
1E
100
AcDbEntity
  8
STEMPEL
100
AcDbLine
 10
233.632972764053
 20
139.2841016954531
 30
0.0
 11
233.632972764053
 21
139.3777222012024
 31
0.0
  0
LINE
  5
1872
330
1E
100
AcDbEntity
  8
STEMPEL
100
AcDbLine
 10
233.632972764053
 20
139.0220640031046
 30
0.0
 11
233.632972764053
 21
139.2841016954531
 31
0.0
  0
LINE
  5
1873
330
1E
100
AcDbEntity
  8
STEMPEL
100
AcDbLine
 10
233.632972764053
 20
139.3777222012024
 30
0.0
 11
233.632972764053
 21
139.4085299774059
 31
0.0
  0
LINE
  5
1874
330
1E
100
AcDbEntity
  8
STEMPEL
100
AcDbLine
 10
233.632972764053
 20
139.4085299774059
 30
0.0
 11
233.2337738674563
 21
139.6390075678162
 31
0.0
  0
LINE
  5
1875
330
1E
100
AcDbEntity
  8
STEMPEL
100
AcDbLine
 10
233.632972764053
 20
139.0220640031046
 30
0.0
 11
233.632972764053
 21
134.6979143664724
 31
0.0
  0
LINE
  5
1879
330
1E
100
AcDbEntity
  8
STEMPEL
100
AcDbLine
 10
102.455356854421
 20
139.0220640031046
 30
0.0
 11
102.455356854421
 21
134.6979143664724
 31
0.0
  0
LINE
  5
187A
330
1E
100
AcDbEntity
  8
STEMPEL
100
AcDbLine
 10
102.455356854421
 20
139.4085299774059
 30
0.0
 11
102.8545557510177
 21
139.6390075678162
 31
0.0
  0
LINE
  5
187B
330
1E
100
AcDbEntity
  8
STEMPEL
100
AcDbLine
 10
102.455356854421
 20
139.3777222012024
 30
0.0
 11
102.455356854421
 21
139.4085299774059
 31
0.0
  0
LINE
  5
187C
330
1E
100
AcDbEntity
  8
STEMPEL
100
AcDbLine
 10
102.455356854421
 20
139.0220640031046
 30
0.0
 11
102.455356854421
 21
139.2841016954531
 31
0.0
  0
LINE
  5
187D
330
1E
100
AcDbEntity
  8
STEMPEL
100
AcDbLine
 10
102.455356854421
 20
139.2841016954531
 30
0.0
 11
102.455356854421
 21
139.3777222012024
 31
0.0
  0
LINE
  5
187E
330
1E
100
AcDbEntity
  8
STEMPEL
100
AcDbLine
 10
104.2577140844781
 20
139.9944551664724
 30
0.0
 11
104.2530846144313
 21
139.9944551664724
 31
0.0
  0
LINE
  5
187F
330
1E
100
AcDbEntity
  8
STEMPEL
100
AcDbLine
 10
106.049760831829
 20
139.0220640031047
 30
0.0
 11
106.0497608318291
 21
134.6979143664724
 31
0.0
  0
LINE
  5
1880
330
1E
100
AcDbEntity
  8
STEMPEL
100
AcDbLine
 10
106.049760831829
 20
139.0220640031047
 30
0.0
 11
106.049760831829
 21
139.3777222012024
 31
0.0
  0
ARC
  5
1881
330
1E
100
AcDbEntity
  8
STEMPEL
100
AcDbCircle
 10
104.252558843125
 20
137.0675042286089
 30
0.0
 40
2.926950985085932
100
AcDbArc
 50
52.11936428281976
 51
121.4691945240785
  0
LINE
  5
1882
330
1E
100
AcDbEntity
  8
STEMPEL
100
AcDbLine
 10
113.238568786645
 20
139.0220640031047
 30
0.0
 11
113.238568786645
 21
134.6979143664724
 31
0.0
  0
LINE
  5
1883
330
1E
100
AcDbEntity
  8
STEMPEL
100
AcDbLine
 10
113.238568786645
 20
139.0220640031047
 30
0.0
 11
113.238568786645
 21
139.3777222012024
 31
0.0
  0
LINE
  5
1884
330
1E
100
AcDbEntity
  8
STEMPEL
100
AcDbLine
 10
116.832972764053
 20
139.0220640031047
 30
0.0
 11
116.832972764053
 21
134.6979143664724
 31
0.0
  0
LINE
  5
1885
330
1E
100
AcDbEntity
  8
STEMPEL
100
AcDbLine
 10
116.832972764053
 20
139.4085299774059
 30
0.0
 11
116.4337738674563
 21
139.6390075678162
 31
0.0
  0
LINE
  5
1886
330
1E
100
AcDbEntity
  8
STEMPEL
100
AcDbLine
 10
116.832972764053
 20
139.0220640031047
 30
0.0
 11
116.832972764053
 21
139.4085299774059
 31
0.0
  0
ARC
  5
1887
330
1E
100
AcDbEntity
  8
STEMPEL
100
AcDbCircle
 10
115.035770775349
 20
137.0675042286089
 30
0.0
 40
2.926950985085932
100
AcDbArc
 50
58.53080547592148
 51
127.8806357171802
  0
LINE
  5
1888
330
1E
100
AcDbEntity
  8
STEMPEL
100
AcDbLine
 10
115.0352450040624
 20
139.9944551664724
 30
0.0
 11
104.253084614421
 21
139.9944551664724
 31
0.0
  0
ARC
  5
1889
330
1E
100
AcDbEntity
  8
STEMPEL
100
AcDbCircle
 10
109.644164809237
 20
129.2117499664724
 30
0.0
 40
10.7827052
100
AcDbArc
 50
70.52782738138475
 51
109.4721726186152
  0
LINE
  5
188A
330
1E
100
AcDbEntity
  8
STEMPEL
100
AcDbLine
 10
116.832972764053
 20
134.6979143664724
 30
0.0
 11
102.455356854421
 21
134.6979143664724
 31
0.0
  0
LINE
  5
188B
330
1E
100
AcDbEntity
  8
STEMPEL
100
AcDbLine
 10
105.644164809237
 20
115.0929143664724
 30
0.0
 11
105.644164809237
 21
105.5729143664724
 31
0.0
  0
LINE
  5
188C
330
1E
100
AcDbEntity
  8
STEMPEL
100
AcDbLine
 10
113.644164809237
 20
127.1559143664724
 30
0.0
 11
113.644164809237
 21
131.7019143664724
 31
0.0
  0
LINE
  5
188D
330
1E
100
AcDbEntity
  8
HILF
100
AcDbLine
 10
112.877164809237
 20
126.6559143664724
 30
0.0
 11
112.877164809237
 21
120.0999143664724
 31
0.0
  0
LINE
  5
188E
330
1E
100
AcDbEntity
  8
HILF
100
AcDbLine
 10
106.4111648092369
 20
127.1559143664724
 30
0.0
 11
106.411164809237
 21
131.7019143664724
 31
0.0
  0
LINE
  5
188F
330
1E
100
AcDbEntity
  8
STEMPEL
100
AcDbLine
 10
105.644164809237
 20
126.6559143664724
 30
0.0
 11
105.644164809237
 21
120.0999143664724
 31
0.0
  0
LINE
  5
1890
330
1E
100
AcDbEntity
  8
HILF
100
AcDbLine
 10
106.411164809237
 20
120.0999143664724
 30
0.0
 11
106.4111648092369
 21
126.6559143664724
 31
0.0
  0
LINE
  5
1891
330
1E
100
AcDbEntity
  8
STEMPEL
100
AcDbLine
 10
113.644164809237
 20
120.0999143664724
 30
0.0
 11
113.644164809237
 21
126.6559143664724
 31
0.0
  0
LINE
  5
1892
330
1E
100
AcDbEntity
  8
HILF
100
AcDbLine
 10
112.877164809237
 20
108.0929143664724
 30
0.0
 11
112.877164809237
 21
104.8059143664724
 31
0.0
  0
LINE
  5
1893
330
1E
100
AcDbEntity
  8
STEMPEL
100
AcDbLine
 10
103.258164809237
 20
116.1039143664726
 30
0.0
 11
95.89416480923707
 21
116.1039143664726
 31
0.0
  0
LINE
  5
1894
330
1E
100
AcDbEntity
  8
STEMPEL
100
AcDbLine
 10
103.258164809237
 20
119.0999143664724
 30
0.0
 11
95.89416480923706
 21
119.0999143664724
 31
0.0
  0
ARC
  5
1895
330
1E
100
AcDbEntity
  8
STEMPEL
100
AcDbCircle
 10
121.139227926218
 20
137.7019143664724
 30
0.0
 40
6.0
100
AcDbArc
 50
269.9999999999998
 51
345.2648964402594
  0
ARC
  5
1896
330
1E
100
AcDbEntity
  8
STEMPEL
100
AcDbCircle
 10
121.1208737481872
 20
113.0999143664724
 30
0.0
 40
6.0
100
AcDbArc
 50
14.64961321403745
 51
90.0
  0
ARC
  5
1897
330
1E
100
AcDbEntity
  8
STEMPEL
100
AcDbCircle
 10
121.1198283088666
 20
113.1039143664724
 30
0.0
 40
3.0
100
AcDbArc
 50
14.64472906035368
 51
90.00000000000055
  0
ARC
  5
1898
330
1E
100
AcDbEntity
  8
STEMPEL
100
AcDbCircle
 10
121.1381761084325
 20
137.6979143664724
 30
0.0
 40
3.0
100
AcDbArc
 50
270.0
 51
345.2697825047874
  0
LINE
  5
1899
330
1E
100
AcDbEntity
  8
MITTEL
100
AcDbLine
 10
109.644164809237
 20
99.80591436647243
 30
0.0
 11
109.644164809237
 21
144.9944551664724
 31
0.0
  0
LINE
  5
189A
330
1E
100
AcDbEntity
  8
STEMPEL
100
AcDbLine
 10
105.644164809237
 20
131.7019143664724
 30
0.0
 11
105.644164809237
 21
127.1559143664724
 31
0.0
  0
LINE
  5
189B
330
1E
100
AcDbEntity
  8
STEMPEL
100
AcDbLine
 10
105.644164809237
 20
105.5729143664724
 30
0.0
 11
106.411164809237
 21
104.8059143664724
 31
0.0
  0
LINE
  5
189C
330
1E
100
AcDbEntity
  8
STEMPEL
100
AcDbLine
 10
106.411164809237
 20
104.8059143664724
 30
0.0
 11
112.877164809237
 21
104.8059143664724
 31
0.0
  0
LINE
  5
189D
330
1E
100
AcDbEntity
  8
STEMPEL
100
AcDbLine
 10
112.877164809237
 20
104.8059143664724
 30
0.0
 11
113.644164809237
 21
105.5729143664724
 31
0.0
  0
LINE
  5
189E
330
1E
100
AcDbEntity
  8
STEMPEL
100
AcDbLine
 10
113.644164809237
 20
105.5729143664724
 30
0.0
 11
113.644164809237
 21
108.0929143664724
 31
0.0
  0
LINE
  5
189F
330
1E
100
AcDbEntity
  8
STEMPEL
100
AcDbLine
 10
105.644164809237
 20
105.5729143664724
 30
0.0
 11
113.644164809237
 21
105.5729143664724
 31
0.0
  0
LINE
  5
18A0
330
1E
100
AcDbEntity
  8
HILF
100
AcDbLine
 10
106.411164809237
 20
104.8059143664724
 30
0.0
 11
106.411164809237
 21
108.0929143664724
 31
0.0
  0
LINE
  5
18A1
330
1E
100
AcDbEntity
  8
LE_RED
100
AcDbLine
 10
106.411164809237
 20
131.4359143664724
 30
0.0
 11
106.343164809237
 21
131.6919143664724
 31
0.0
  0
LINE
  5
18A2
330
1E
100
AcDbEntity
  8
HILF
100
AcDbLine
 10
112.877164809237
 20
131.7019143664724
 30
0.0
 11
112.877164809237
 21
127.1559143664724
 31
0.0
  0
LINE
  5
18A3
330
1E
100
AcDbEntity
  8
LE_RED
100
AcDbLine
 10
112.877164809237
 20
131.4359143664724
 30
0.0
 11
112.946164809237
 21
131.6919143664724
 31
0.0
  0
LINE
  5
18A4
330
1E
100
AcDbEntity
  8
STEMPEL
100
AcDbLine
 10
116.894164809237
 20
127.1559143664724
 30
0.0
 11
102.394164809237
 21
127.1559143664724
 31
0.0
  0
LINE
  5
18A5
330
1E
100
AcDbEntity
  8
STEMPEL
100
AcDbLine
 10
102.394164809237
 20
127.1559143664724
 30
0.0
 11
102.394164809237
 21
126.6559143664724
 31
0.0
  0
LINE
  5
18A6
330
1E
100
AcDbEntity
  8
STEMPEL
100
AcDbLine
 10
102.394164809237
 20
126.6559143664724
 30
0.0
 11
116.894164809237
 21
126.6559143664724
 31
0.0
  0
LINE
  5
18A7
330
1E
100
AcDbEntity
  8
STEMPEL
100
AcDbLine
 10
116.894164809237
 20
126.6559143664724
 30
0.0
 11
116.894164809237
 21
127.1559143664724
 31
0.0
  0
LINE
  5
18A8
330
1E
100
AcDbEntity
  8
STEMPEL
100
AcDbLine
 10
102.144164809237
 20
115.0929143664724
 30
0.0
 11
102.144164809237
 21
108.0929143664724
 31
0.0
  0
LINE
  5
18A9
330
1E
100
AcDbEntity
  8
STEMPEL
100
AcDbLine
 10
109.644164809237
 20
108.0929143664724
 30
0.0
 11
109.644164809237
 21
115.0929143664724
 31
0.0
  0
LINE
  5
18AA
330
1E
100
AcDbEntity
  8
STEMPEL
100
AcDbLine
 10
102.144164809237
 20
108.0929143664724
 30
0.0
 11
117.144164809237
 21
108.0929143664724
 31
0.0
  0
LINE
  5
18AB
330
1E
100
AcDbEntity
  8
STEMPEL
100
AcDbLine
 10
117.144164809237
 20
108.0929143664724
 30
0.0
 11
117.144164809237
 21
115.0929143664724
 31
0.0
  0
LINE
  5
18AC
330
1E
100
AcDbEntity
  8
STEMPEL
100
AcDbLine
 10
119.644164809237
 20
115.0929143664724
 30
0.0
 11
119.644164809237
 21
120.0999143664724
 31
0.0
  0
LINE
  5
18AD
330
1E
100
AcDbEntity
  8
STEMPEL
100
AcDbLine
 10
102.887164809237
 20
115.0929143664724
 30
0.0
 11
119.644164809237
 21
115.0929143664724
 31
0.0
  0
LINE
  5
18AE
330
1E
100
AcDbEntity
  8
STEMPEL
100
AcDbLine
 10
99.64416480923706
 20
115.0929143664724
 30
0.0
 11
102.144164809237
 21
115.0929143664724
 31
0.0
  0
LINE
  5
18AF
330
1E
100
AcDbEntity
  8
STEMPEL
100
AcDbLine
 10
99.64416480923706
 20
116.0929143664724
 30
0.0
 11
99.64416480923706
 21
115.0929143664724
 31
0.0
  0
LINE
  5
18B0
330
1E
100
AcDbEntity
  8
STEMPEL
100
AcDbLine
 10
99.64416480923706
 20
120.0999143664724
 30
0.0
 11
99.64416480923706
 21
119.0999143664724
 31
0.0
  0
LINE
  5
18B1
330
1E
100
AcDbEntity
  8
STEMPEL
100
AcDbLine
 10
103.258164809237
 20
120.0139143664724
 30
0.0
 11
103.258164809237
 21
119.0989143664724
 31
0.0
  0
LINE
  5
18B2
330
1E
100
AcDbEntity
  8
STEMPEL
100
AcDbLine
 10
119.644164809237
 20
120.0999143664724
 30
0.0
 11
99.64416480923706
 21
120.0999143664724
 31
0.0
  0
LINE
  5
18B3
330
1E
100
AcDbEntity
  8
STEMPEL
100
AcDbLine
 10
103.258164809237
 20
116.1039143664726
 30
0.0
 11
103.258164809237
 21
115.1789143664724
 31
0.0
  0
ARC
  5
18B4
330
1E
100
AcDbEntity
  8
STEMPEL
100
AcDbCircle
 10
102.895164809237
 20
115.9209143664724
 30
0.0
 40
0.8259999999999999
100
AcDbArc
 50
289.8044465770002
 51
296.0947175499997
  0
ARC
  5
18B5
330
1E
100
AcDbEntity
  8
STEMPEL
100
AcDbCircle
 10
102.891164809237
 20
115.9269143664724
 30
0.0
 40
0.832
100
AcDbArc
 50
283.7919950170002
 51
289.8607746799998
  0
ARC
  5
18B6
330
1E
100
AcDbEntity
  8
STEMPEL
100
AcDbCircle
 10
102.891164809237
 20
115.9279143664724
 30
0.0
 40
0.833
100
AcDbArc
 50
276.6784948509998
 51
283.8009687570003
  0
ARC
  5
18B7
330
1E
100
AcDbEntity
  8
STEMPEL
100
AcDbCircle
 10
102.892164809237
 20
115.9209143664724
 30
0.0
 40
0.8269999999999999
100
AcDbArc
 50
269.6400798399996
 51
276.677686673
  0
ARC
  5
18B8
330
1E
100
AcDbEntity
  8
STEMPEL
100
AcDbCircle
 10
102.892164809237
 20
119.2719143664724
 30
0.0
 40
0.8279999999999999
100
AcDbArc
 50
83.32231332699997
 51
90.35992016000042
  0
ARC
  5
18B9
330
1E
100
AcDbEntity
  8
STEMPEL
100
AcDbCircle
 10
102.891164809237
 20
119.2649143664724
 30
0.0
 40
0.8339999999999999
100
AcDbArc
 50
76.19903124299989
 51
83.32150514900018
  0
ARC
  5
18BA
330
1E
100
AcDbEntity
  8
STEMPEL
100
AcDbCircle
 10
102.891164809237
 20
119.2659143664724
 30
0.0
 40
0.832
100
AcDbArc
 50
70.13922532000018
 51
76.20800498299981
  0
ARC
  5
18BB
330
1E
100
AcDbEntity
  8
STEMPEL
100
AcDbCircle
 10
102.895164809237
 20
119.2729143664724
 30
0.0
 40
0.825
100
AcDbArc
 50
63.90528244999959
 51
70.19555342299975
  0
LINE
  5
18BC
330
1E
100
AcDbEntity
  8
STEMPEL
100
AcDbLine
 10
102.887164809237
 20
115.0929143664724
 30
0.0
 11
102.144164809237
 21
115.0929143664724
 31
0.0
  0
LINE
  5
18BD
330
1E
100
AcDbEntity
  8
STEMPEL
100
AcDbLine
 10
95.89416480923706
 20
119.0999143664724
 30
0.0
 11
95.89416480923707
 21
116.1039143664726
 31
0.0
  0
LINE
  5
18BE
330
1E
100
AcDbEntity
  8
STEMPEL
100
AcDbLine
 10
121.1198283088665
 20
116.1039143664724
 30
0.0
 11
119.644164809237
 21
116.1039143664724
 31
0.0
  0
LINE
  5
18BF
330
1E
100
AcDbEntity
  8
STEMPEL
100
AcDbLine
 10
121.1208737481872
 20
119.0999143664724
 30
0.0
 11
119.644164809237
 21
119.0999143664724
 31
0.0
  0
LINE
  5
18C0
330
1E
100
AcDbEntity
  8
STEMPEL
100
AcDbLine
 10
101.894164809237
 20
119.0999143664724
 30
0.0
 11
101.894164809237
 21
116.1039143664724
 31
0.0
  0
LINE
  5
18C1
330
1E
100
AcDbEntity
  8
STEMPEL
100
AcDbLine
 10
95.89416480923706
 20
131.7019143664724
 30
0.0
 11
95.89416480923706
 21
134.6979143664724
 31
0.0
  0
LINE
  5
18C2
330
1E
100
AcDbEntity
  8
STEMPEL
100
AcDbLine
 10
121.1381761084325
 20
134.6979143664724
 30
0.0
 11
95.89416480923706
 21
134.6979143664724
 31
0.0
  0
LINE
  5
18C3
330
1E
100
AcDbEntity
  8
STEMPEL
100
AcDbLine
 10
121.1392279262179
 20
131.7019143664724
 30
0.0
 11
95.89416480923706
 21
131.7019143664724
 31
0.0
  0
LINE
  5
18C4
330
1E
100
AcDbEntity
  8
STEMPEL
100
AcDbLine
 10
101.894164809237
 20
131.7019143664724
 30
0.0
 11
101.894164809237
 21
134.6979143664724
 31
0.0
  0
LINE
  5
18C5
330
1E
100
AcDbEntity
  8
STEMPEL
100
AcDbLine
 10
130.809164809237
 20
115.6489143664724
 30
0.0
 11
121.1202732931325
 21
113.1022116228122
 31
0.0
  0
LINE
  5
18C6
330
1E
100
AcDbEntity
  8
STEMPEL
100
AcDbLine
 10
130.8089210619382
 20
135.1529784348866
 30
0.0
 11
121.1374377174369
 21
137.6951054808717
 31
0.0
  0
ARC
  5
18C7
330
1E
100
AcDbEntity
  8
STEMPEL
100
AcDbCircle
 10
168.044164809237
 20
125.4359143664724
 30
0.0
 40
46.74999999999999
100
AcDbArc
 50
191.7946756069998
 51
194.726987518
  0
ARC
  5
18C8
330
1E
100
AcDbEntity
  8
STEMPEL
100
AcDbCircle
 10
168.044164809237
 20
125.3659143664724
 30
0.0
 40
46.74999999999999
100
AcDbArc
 50
165.273012482
 51
168.2053243930002
  0
DIMENSION
  5
18C9
330
1E
100
AcDbEntity
  8
BEM
100
AcDbDimension
280
     0
  2
*D2
 10
89.90537226862329
 20
119.0999143664724
 30
0.0
 11
86.65537226862328
 21
125.4009143664724
 31
0.0
 70
    32
 71
     5
 42
12.602
 73
     0
 74
     0
 75
     0
  3
Standard
100
AcDbAlignedDimension
 13
95.89416480923706
 23
131.7019143664724
 33
0.0
 14
95.89416480923706
 24
119.0999143664724
 34
0.0
 50
90.0
100
AcDbRotatedDimension
1001
ACAD
1000
DSTYLE
1002
{
1070
    41
1040
3.5
1070
    42
1040
1.0
1070
    43
1040
7.0
1070
    44
1040
1.0
1070
    73
1070
     0
1070
    74
1070
     0
1070
    77
1070
     1
1070
    78
1070
     8
1070
    79
1070
     2
1070
   140
1040
3.5
1070
   141
1040
1.5
1070
   146
1040
0.5142857142857144
1070
   147
1040
1.5
1070
   172
1070
     1
1070
   178
1070
     1
1070
   179
1070
     2
1070
   271
1070
     2
1070
   272
1070
     2
1070
   284
1070
     8
1070
   285
1070
     8
1070
   286
1070
     8
1002
}
  0
DIMENSION
  5
18DF
330
1E
100
AcDbEntity
  8
BEM
100
AcDbDimension
280
     0
  2
*D3
 10
81.8964580280965
 20
50.93591436647245
 30
0.0
 11
78.64645802809649
 21
112.4009143664724
 31
0.0
 70
    32
  1
123
 71
     5
 42
122.9299999999999
 73
     0
 74
     0
 75
     0
  3
Standard
100
AcDbAlignedDimension
 13
168.044164809237
 23
173.8659143664724
 33
0.0
 14
160.9559079708247
 24
50.93591436647243
 34
0.0
 50
90.0
100
AcDbRotatedDimension
1001
ACAD
1000
DSTYLE
1002
{
1070
    41
1040
3.5
1070
    42
1040
1.0
1070
    43
1040
7.0
1070
    44
1040
1.0
1070
    73
1070
     0
1070
    74
1070
     0
1070
    77
1070
     1
1070
    78
1070
     8
1070
    79
1070
     2
1070
   140
1040
3.5
1070
   141
1040
1.5
1070
   146
1040
0.5142857142857144
1070
   147
1040
1.5
1070
   172
1070
     1
1070
   178
1070
     1
1070
   179
1070
     2
1070
   271
1070
     2
1070
   272
1070
     2
1070
   284
1070
     8
1070
   285
1070
     8
1070
   286
1070
     8
1002
}
  0
DIMENSION
  5
1907
330
1E
100
AcDbEntity
  8
BEM
100
AcDbDimension
280
     0
  2
*D4
 10
140.725691397559
 20
92.80902553391593
 30
0.0
 11
175.6661726564068
 21
134.4494696011183
 31
0.0
 70
   160
  1
%%c<>
 71
     5
 42
84.99999999999998
 73
     0
 74
     0
 75
     0
  3
Standard
100
AcDbAlignedDimension
 13
195.3626382209149
 23
157.922803199029
 33
0.0
 14
140.7256913975591
 24
92.80902553391587
 34
0.0
 50
49.99999999999991
100
AcDbRotatedDimension
1001
ACAD
1000
DSTYLE
1002
{
1070
    41
1040
3.5
1070
    42
1040
1.0
1070
    43
1040
7.0
1070
    44
1040
1.0
1070
    73
1070
     0
1070
    74
1070
     0
1070
    77
1070
     1
1070
    78
1070
     8
1070
    79
1070
     2
1070
   140
1040
3.5
1070
   141
1040
1.5
1070
   146
1040
0.5142857142857144
1070
   147
1040
1.5
1070
   172
1070
     1
1070
   178
1070
     1
1070
   179
1070
     2
1070
   271
1070
     2
1070
   272
1070
     2
1070
   284
1070
     8
1070
   285
1070
     8
1070
   286
1070
     8
1002
}
  0
ARC
  5
194D
330
1E
100
AcDbEntity
  8
STEMPEL
100
AcDbCircle
 10
211.7745428451286
 20
241.5509084017004
 30
0.0
 40
2.033312670679482
100
AcDbArc
 50
277.9043875586617
 51
37.40928848018869
  0
ARC
  5
194E
330
1E
100
AcDbEntity
  8
STEMPEL
100
AcDbCircle
 10
211.7734375129146
 20
226.5219594987593
 30
0.0
 40
2.034416607733336
100
AcDbArc
 50
322.6175368418485
 51
82.06849978517915
  0
ARC
  5
194F
330
1E
100
AcDbEntity
  8
STEMPEL
100
AcDbCircle
 10
124.3148921055594
 20
226.5219594987593
 30
0.0
 40
2.034416607733336
100
AcDbArc
 50
97.93150021482084
 51
217.3824631581516
  0
ARC
  5
1950
330
1E
100
AcDbEntity
  8
STEMPEL
100
AcDbCircle
 10
124.3137867733455
 20
241.5509084017004
 30
0.0
 40
2.033312670679482
100
AcDbArc
 50
142.5907115198113
 51
262.0956124413384
  0
LINE
  5
1951
330
1E
100
AcDbEntity
  8
HILF
100
AcDbLine
 10
123.512164809237
 20
239.6822825313334
 30
0.0
 11
123.512164809237
 21
228.3913122802214
 31
0.0
  0
ARC
  5
1956
330
1E
100
AcDbEntity
  8
STEMPEL
100
AcDbCircle
 10
234.183164809237
 20
243.0369143664724
 30
0.0
 40
6.0
100
AcDbArc
 50
0.0
 51
90.0
  0
ARC
  5
1957
330
1E
100
AcDbEntity
  8
STEMPEL
100
AcDbCircle
 10
234.1831648092371
 20
225.0369143664725
 30
0.0
 40
6.0
100
AcDbArc
 50
270.0
 51
0.0000000000000891
  0
ARC
  5
1958
330
1E
100
AcDbEntity
  8
STEMPEL
100
AcDbCircle
 10
101.904164809237
 20
243.0369143664724
 30
0.0
 40
6.0
100
AcDbArc
 50
90.0
 51
180.0
  0
ARC
  5
1959
330
1E
100
AcDbEntity
  8
STEMPEL
100
AcDbCircle
 10
101.904164809237
 20
225.0369143664725
 30
0.0
 40
6.0
100
AcDbArc
 50
180.0
 51
270.0
  0
LWPOLYLINE
  5
195B
330
1E
100
AcDbEntity
  8
STEMPEL
100
AcDbPolyline
 90
        6
 70
     1
 43
0.0
 10
105.9023880595044
 20
240.5369143664724
 10
102.1496113097719
 20
234.0369143664724
 10
105.9023880595044
 20
227.5369143664724
 10
113.4079415589696
 20
227.5369143664724
 10
117.1607183087021
 20
234.0369143664724
 10
113.4079415589696
 20
240.5369143664724
  0
LWPOLYLINE
  5
195D
330
1E
100
AcDbEntity
  8
STEMPEL
100
AcDbPolyline
 90
        6
 70
     1
 43
0.0
 10
230.1859415589696
 20
240.5369143664724
 10
233.9387183087022
 20
234.0369143664724
 10
230.1859415589696
 20
227.5369143664724
 10
222.6803880595045
 20
227.5369143664724
 10
218.9276113097719
 20
234.0369143664724
 10
222.6803880595045
 20
240.5369143664724
  0
CIRCLE
  5
195E
330
1E
100
AcDbEntity
  8
STEMPEL
100
AcDbCircle
 10
226.433164809237
 20
234.0369143664724
 30
0.0
 40
6.5
  0
LINE
  5
195F
330
1E
100
AcDbEntity
  8
MITTEL
100
AcDbLine
 10
226.433164809237
 20
245.5369143664724
 30
0.0
 11
226.433164809237
 21
222.5369143664724
 31
0.0
  0
DIMENSION
  5
1960
330
1E
100
AcDbEntity
  8
BEM
100
AcDbDimension
280
     0
  2
*D5
 10
95.90416480923702
 20
260.6359992074988
 30
0.0
 11
168.043664809237
 21
263.8859992074988
 31
0.0
 70
    32
  1
144.3
 71
     5
 42
144.279
 73
     0
 74
     0
 75
     0
  3
Standard
100
AcDbAlignedDimension
 13
240.183164809237
 23
243.0369143664724
 33
0.0
 14
95.90416480923702
 24
243.0369143664724
 34
0.0
100
AcDbRotatedDimension
1001
ACAD
1000
DSTYLE
1002
{
1070
    41
1040
3.5
1070
    42
1040
1.0
1070
    43
1040
7.0
1070
    44
1040
1.0
1070
    73
1070
     0
1070
    74
1070
     0
1070
    77
1070
     1
1070
    78
1070
     8
1070
    79
1070
     2
1070
   140
1040
3.5
1070
   141
1040
1.5
1070
   146
1040
0.5142857142857144
1070
   147
1040
1.5
1070
   172
1070
     1
1070
   178
1070
     1
1070
   179
1070
     2
1070
   271
1070
     2
1070
   272
1070
     2
1070
   284
1070
     8
1070
   285
1070
     8
1070
   286
1070
     8
1002
}
  0
TEXT
  5
19E7
330
1E
100
AcDbEntity
  8
TEXT
 62
     1
100
AcDbText
 10
177.9390631369359
 20
40.17562974473511
 30
0.0
 40
3.5
  1
M10/12
 41
0.8
  7
GREEKS
100
AcDbText
  0
LINE
  5
19E8
330
1E
100
AcDbEntity
  8
TEXT
 62
     2
100
AcDbLine
 10
177.8063745681239
 20
38.50770560429307
 30
0.0
 11
193.9914607562811
 21
38.50770560429307
 31
0.0
  0
LINE
  5
19E9
330
1E
100
AcDbEntity
  8
TEXT
 62
     2
100
AcDbLine
 10
168.044164809237
 20
50.93591436647241
 30
0.0
 11
177.8063745681239
 21
38.50770560429307
 31
0.0
  0
ENDSEC
  0
SECTION
  2
OBJECTS
  0
DICTIONARY
  5
C
330
0
100
AcDbDictionary
281
     1
  3
ACAD_CIP_PREVIOUS_PRODUCT_INFO
350
19D2
  3
ACAD_COLOR
350
11A
  3
ACAD_DETAILVIEWSTYLE
350
19CE
  3
ACAD_FIELDLIST
350
1A1A
  3
ACAD_GROUP
350
D
  3
ACAD_LAYOUT
350
19
  3
ACAD_MATERIAL
350
119
  3
ACAD_MLEADERSTYLE
350
19CA
  3
ACAD_MLINESTYLE
350
16
  3
ACAD_PLOTSETTINGS
350
18
  3
ACAD_PLOTSTYLENAME
350
E
  3
ACAD_RENDER_ACTIVE_RAPIDRT_SETTINGS
350
19DA
  3
ACAD_RENDER_RAPIDRT_SETTINGS
350
19D3
  3
ACAD_SCALELIST
350
19B8
  3
ACAD_SECTIONVIEWSTYLE
350
19CC
  3
ACAD_TABLESTYLE
350
19B6
  3
ACAD_VISUALSTYLE
350
199D
  3
ACDB_RECOMPOSE_DATA
350
1A2C
  3
AcDbVariableDictionary
350
125
  0
DICTIONARY
  5
19DD
330
2
100
AcDbDictionary
280
     1
281
     1
  3
ACAD_LAYERSTATES
360
19DE
  0
DICTIONARY
  5
19EA
330
10
100
AcDbDictionary
280
     1
281
     1
  3
ADSK_XREC_LAYER_RECONCILED
360
19EB
  0
DICTIONARY
  5
19EC
330
2B
100
AcDbDictionary
280
     1
281
     1
  3
ADSK_XREC_LAYER_RECONCILED
360
19ED
  0
DICTIONARY
  5
19EE
330
2C
100
AcDbDictionary
280
     1
281
     1
  3
ADSK_XREC_LAYER_RECONCILED
360
19EF
  0
DICTIONARY
  5
19F0
330
2D
100
AcDbDictionary
280
     1
281
     1
  3
ADSK_XREC_LAYER_RECONCILED
360
19F1
  0
DICTIONARY
  5
19F2
330
2F
100
AcDbDictionary
280
     1
281
     1
  3
ADSK_XREC_LAYER_RECONCILED
360
19F3
  0
DICTIONARY
  5
19F4
330
30
100
AcDbDictionary
280
     1
281
     1
  3
ADSK_XREC_LAYER_RECONCILED
360
19F5
  0
DICTIONARY
  5
19F6
330
33
100
AcDbDictionary
280
     1
281
     1
  3
ADSK_XREC_LAYER_RECONCILED
360
19F7
  0
DICTIONARY
  5
19F8
330
142B
100
AcDbDictionary
280
     1
281
     1
  3
ADSK_XREC_LAYER_RECONCILED
360
19F9
  0
DICTIONARY
  5
19FA
330
1809
100
AcDbDictionary
280
     1
281
     1
  3
ADSK_XREC_LAYER_RECONCILED
360
19FB
  0
DICTIONARY
  5
DB
330
1E
100
AcDbDictionary
280
     1
281
     1
  3
ACAD_LAYOUTSELFREF
360
10F
  0
DICTIONARY
  5
DD
330
1A
100
AcDbDictionary
280
     1
281
     1
  3
ACAD_LAYOUTSELFREF
360
10E
  0
DICTIONARY
  5
1A16
330
1322
100
AcDbDictionary
280
     1
281
     1
  3
ACAD_FIELD
360
1A17
  0
XRECORD
  5
19D2
102
{ACAD_REACTORS
330
C
102
}
330
C
100
AcDbXrecord
280
     1
300
ACD
300
2017
300
ACD_F_S
  0
DICTIONARY
  5
11A
102
{ACAD_REACTORS
330
C
102
}
330
C
100
AcDbDictionary
281
     1
  0
DICTIONARY
  5
19CE
102
{ACAD_REACTORS
330
C
102
}
330
C
100
AcDbDictionary
281
     1
  3
Imperial24
350
19CF
  0
FIELDLIST
  5
1A1A
102
{ACAD_REACTORS
330
C
102
}
330
C
100
AcDbIdSet
 90
        2
330
1A18
330
1A19
100
AcDbFieldList
  0
DICTIONARY
  5
D
102
{ACAD_REACTORS
330
C
102
}
330
C
100
AcDbDictionary
281
     1
  0
DICTIONARY
  5
19
102
{ACAD_REACTORS
330
C
102
}
330
C
100
AcDbDictionary
281
     1
  3
Layout1
350
1D
  3
Model
350
21
  0
DICTIONARY
  5
119
102
{ACAD_REACTORS
330
C
102
}
330
C
100
AcDbDictionary
281
     1
  3
ByBlock
350
198D
  3
ByLayer
350
1985
  3
Global
350
1995
  0
DICTIONARY
  5
19CA
102
{ACAD_REACTORS
330
C
102
}
330
C
100
AcDbDictionary
281
     1
  3
Standard
350
19CB
  0
DICTIONARY
  5
16
102
{ACAD_REACTORS
330
C
102
}
330
C
100
AcDbDictionary
281
     1
  3
Standard
350
17
  0
DICTIONARY
  5
18
102
{ACAD_REACTORS
330
C
102
}
330
C
100
AcDbDictionary
281
     1
  0
ACDBDICTIONARYWDFLT
  5
E
102
{ACAD_REACTORS
330
C
102
}
330
C
100
AcDbDictionary
281
     1
  3
Normal
350
F
100
AcDbDictionaryWithDefault
340
F
  0
RAPIDRTRENDERSETTINGS
  5
19DA
102
{ACAD_REACTORS
330
C
102
}
330
C
100
AcDbRenderSettings
 90
        2
  1
Mittel
290
     1
290
     0
290
     1
290
     1
  1

  1
Wendet 5 Render-Ebenen an
 90
        0
100
AcDbRapidRTRenderSettings
 90
        3
 70
     0
 90
        5
 90
        1
 70
     1
 70
     2
 40
3.0
 40
3.0
290
     1
  0
DICTIONARY
  5
19D3
102
{ACAD_REACTORS
330
C
102
}
330
C
100
AcDbDictionary
281
     1
  3
Hoch
350
19D6
  3
Mittagsqualität
350
19D8
  3
Mittel
350
19D5
  3
Morgenqualität
350
19D7
  3
Nachtqualität
350
19D9
  3
Niedrig
350
19D4
  0
DICTIONARY
  5
19B8
102
{ACAD_REACTORS
330
C
102
}
330
C
100
AcDbDictionary
281
     1
  3
A0
350
19B9
  3
A1
350
19BA
  3
A2
350
19BB
  3
A3
350
19BC
  3
A4
350
19BD
  3
A5
350
19BE
  3
A6
350
19BF
  3
A7
350
19C0
  3
A8
350
19C1
  3
A9
350
19C2
  3
B0
350
19C3
  3
B1
350
19C4
  3
B2
350
19C5
  3
B3
350
19C6
  3
B4
350
19C7
  3
B5
350
19C8
  3
B6
350
19C9
  0
DICTIONARY
  5
19CC
102
{ACAD_REACTORS
330
C
102
}
330
C
100
AcDbDictionary
281
     1
  3
Imperial24
350
19CD
  0
DICTIONARY
  5
19B6
102
{ACAD_REACTORS
330
C
102
}
330
C
100
AcDbDictionary
281
     1
  3
Standard
350
19B7
  0
DICTIONARY
  5
199D
102
{ACAD_REACTORS
330
C
102
}
330
C
100
AcDbDictionary
281
     1
  3
2dWireframe
350
19A3
  3
Basic
350
19A2
  3
Brighten
350
19A9
  3
ColorChange
350
19AD
  3
Conceptual
350
19A6
  3
Dim
350
19A8
  3
EdgeColorOff
350
19B5
  3
Facepattern
350
19AC
  3
Flat
350
199E
  3
FlatWithEdges
350
199F
  3
Gouraud
350
19A0
  3
GouraudWithEdges
350
19A1
  3
Hidden
350
19A5
  3
JitterOff
350
19B3
  3
Linepattern
350
19AB
  3
OverhangOff
350
19B4
  3
Realistic
350
19A7
  3
Shaded
350
19B2
  3
Shaded with edges
350
19B1
  3
Shades of Gray
350
19AE
  3
Sketchy
350
19AF
  3
Thicken
350
19AA
  3
Wireframe
350
19A4
  3
X-Ray
350
19B0
  0
XRECORD
  5
1A2C
102
{ACAD_REACTORS
330
C
102
}
330
C
100
AcDbXrecord
280
     1
 90
        1
330
19B7
330
19CD
330
19CF
  0
DICTIONARY
  5
125
102
{ACAD_REACTORS
330
C
102
}
330
C
100
AcDbDictionary
281
     1
  3
CANNOSCALE
350
1A0D
  3
CMLEADERSTYLE
350
1A09
  3
CTABLESTYLE
350
1A08
  3
CVIEWDETAILSTYLE
350
1A0A
  3
CVIEWSECTIONSTYLE
350
1A0B
  3
DIMASSOC
350
126
  3
LAYEREVAL
350
1A0F
  3
LAYERNOTIFY
350
1A10
  3
LIGHTINGUNITS
350
1A0E
  3
MSLTSCALE
350
1A0C
  3
PROJECTNAME
350
127
  0
DICTIONARY
  5
19DE
102
{ACAD_REACTORS
330
19DD
102
}
330
19DD
100
AcDbDictionary
281
     1
  0
XRECORD
  5
19EB
102
{ACAD_REACTORS
330
19EA
102
}
330
19EA
100
AcDbXrecord
280
     1
290
     1
  0
XRECORD
  5
19ED
102
{ACAD_REACTORS
330
19EC
102
}
330
19EC
100
AcDbXrecord
280
     1
290
     1
  0
XRECORD
  5
19EF
102
{ACAD_REACTORS
330
19EE
102
}
330
19EE
100
AcDbXrecord
280
     1
290
     1
  0
XRECORD
  5
19F1
102
{ACAD_REACTORS
330
19F0
102
}
330
19F0
100
AcDbXrecord
280
     1
290
     1
  0
XRECORD
  5
19F3
102
{ACAD_REACTORS
330
19F2
102
}
330
19F2
100
AcDbXrecord
280
     1
290
     1
  0
XRECORD
  5
19F5
102
{ACAD_REACTORS
330
19F4
102
}
330
19F4
100
AcDbXrecord
280
     1
290
     1
  0
XRECORD
  5
19F7
102
{ACAD_REACTORS
330
19F6
102
}
330
19F6
100
AcDbXrecord
280
     1
290
     1
  0
XRECORD
  5
19F9
102
{ACAD_REACTORS
330
19F8
102
}
330
19F8
100
AcDbXrecord
280
     1
290
     1
  0
XRECORD
  5
19FB
102
{ACAD_REACTORS
330
19FA
102
}
330
19FA
100
AcDbXrecord
280
     1
290
     1
  0
XRECORD
  5
10F
102
{ACAD_REACTORS
330
DB
102
}
330
DB
100
AcDbXrecord
280
     1
340
1E
  0
XRECORD
  5
10E
102
{ACAD_REACTORS
330
DD
102
}
330
DD
100
AcDbXrecord
280
     1
340
1A
  0
DICTIONARY
  5
1A17
102
{ACAD_REACTORS
330
1A16
102
}
330
1A16
100
AcDbDictionary
280
     1
281
     1
  3
TEXT
360
1A18
  0
ACDBDETAILVIEWSTYLE
  5
19CF
102
{ACAD_XDICTIONARY
360
1A05
102
}
102
{ACAD_REACTORS
330
19CE
102
}
330
19CE
100
AcDbModelDocViewStyle
 70
     0
  3
Imperial24
290
     0
100
AcDbDetailViewStyle
 70
     0
 71
     0
 90
        3
 71
     1
340
11
 62
   256
 40
0.24
340
0
 62
   256
 40
0.24
300

 40
0.36
280
     3
 71
     2
340
15
 90
       25
 62
   256
 71
     3
340
11
 62
   256
 40
0.24
 90
        1
 40
0.75
 90
        1
300
%<\AcVar ViewType \f "%tc1">% %<\AcVar ViewDetailId>%\PVARIA %<\AcVar ViewScale \f "%sn">%
 71
     4
340
15
 90
       25
 62
   256
340
15
 90
       25
 62
   256
280
     0
  0
LAYOUT
  5
1D
102
{ACAD_REACTORS
330
19
102
}
330
19
100
AcDbPlotSettings
  1

  2
\\NT_WORK01\HP LaserJet 5000 PCL 6
  4

  6

 40
0.0
 41
0.0
 42
0.0
 43
0.0
 44
0.0
 45
0.0
 46
0.0
 47
0.0
 48
0.0
 49
0.0
140
0.0
141
0.0
142
1.0
143
1.0
 70
   688
 72
     0
 73
     0
 74
     5
  7

 75
    16
147
1.0
 76
     0
 77
     2
 78
   300
148
0.0
149
0.0
100
AcDbLayout
  1
Layout1
 70
     0
 71
     1
 10
0.0
 20
0.0
 11
12.0
 21
9.0
 12
0.0
 22
0.0
 32
0.0
 14
1.000000000000000E+20
 24
1.000000000000000E+20
 34
1.000000000000000E+20
 15
-1.000000000000000E+20
 25
-1.000000000000000E+20
 35
-1.000000000000000E+20
146
0.0
 13
0.0
 23
0.0
 33
0.0
 16
1.0
 26
0.0
 36
0.0
 17
0.0
 27
1.0
 37
0.0
 76
     0
330
1A
  0
LAYOUT
  5
21
102
{ACAD_REACTORS
330
19
102
}
330
19
100
AcDbPlotSettings
  1

  2
\\NT_WORK01\HP LaserJet 5000 PCL 6
  4

  6

 40
0.0
 41
0.0
 42
0.0
 43
0.0
 44
0.0
 45
0.0
 46
0.0
 47
0.0
 48
0.0
 49
0.0
140
0.0
141
0.0
142
1.0
143
1.0
 70
  1712
 72
     0
 73
     0
 74
     0
  7

 75
     0
147
1.0
 76
     0
 77
     2
 78
   300
148
0.0
149
0.0
100
AcDbLayout
  1
Model
 70
     1
 71
     0
 10
0.0
 20
0.0
 11
12.0
 21
9.0
 12
0.0
 22
0.0
 32
0.0
 14
0.0
 24
0.0
 34
0.0
 15
0.0
 25
0.0
 35
0.0
146
0.0
 13
0.0
 23
0.0
 33
0.0
 16
1.0
 26
0.0
 36
0.0
 17
0.0
 27
1.0
 37
0.0
 76
     0
330
1E
331
1983
  0
MATERIAL
  5
198D
102
{ACAD_XDICTIONARY
360
198E
102
}
102
{ACAD_REACTORS
330
119
102
}
330
119
100
AcDbMaterial
  1
ByBlock
 72
     0
 43
0.0208333333333333
 43
0.0
 43
0.0
 43
0.0
 43
0.0
 43
0.0208333333333333
 43
0.0
 43
0.0
 43
0.0
 43
0.0
 43
1.0
 43
0.0
 43
0.0
 43
0.0
 43
0.0
 43
1.0
 77
     0
 47
0.0208333333333333
 47
0.0
 47
0.0
 47
0.0
 47
0.0
 47
0.0208333333333333
 47
0.0
 47
0.0
 47
0.0
 47
0.0
 47
1.0
 47
0.0
 47
0.0
 47
0.0
 47
0.0
 47
1.0
171
     0
 49
0.0208333333333333
 49
0.0
 49
0.0
 49
0.0
 49
0.0
 49
0.0208333333333333
 49
0.0
 49
0.0
 49
0.0
 49
0.0
 49
1.0
 49
0.0
 49
0.0
 49
0.0
 49
0.0
 49
1.0
175
     0
142
0.0208333333333333
142
0.0
142
0.0
142
0.0
142
0.0
142
0.0208333333333333
142
0.0
142
0.0
142
0.0
142
0.0
142
1.0
142
0.0
142
0.0
142
0.0
142
0.0
142
1.0
179
     0
144
0.0208333333333333
144
0.0
144
0.0
144
0.0
144
0.0
144
0.0208333333333333
144
0.0
144
0.0
144
0.0
144
0.0
144
1.0
144
0.0
144
0.0
144
0.0
144
0.0
144
1.0
147
0.0208333333333333
147
0.0
147
0.0
147
0.0
147
0.0
147
0.0208333333333333
147
0.0
147
0.0
147
0.0
147
0.0
147
1.0
147
0.0
147
0.0
147
0.0
147
0.0
147
1.0
  0
MATERIAL
  5
1985
102
{ACAD_XDICTIONARY
360
1986
102
}
102
{ACAD_REACTORS
330
119
102
}
330
119
100
AcDbMaterial
  1
ByLayer
 72
     0
 43
0.0208333333333333
 43
0.0
 43
0.0
 43
0.0
 43
0.0
 43
0.0208333333333333
 43
0.0
 43
0.0
 43
0.0
 43
0.0
 43
1.0
 43
0.0
 43
0.0
 43
0.0
 43
0.0
 43
1.0
 77
     0
 47
0.0208333333333333
 47
0.0
 47
0.0
 47
0.0
 47
0.0
 47
0.0208333333333333
 47
0.0
 47
0.0
 47
0.0
 47
0.0
 47
1.0
 47
0.0
 47
0.0
 47
0.0
 47
0.0
 47
1.0
171
     0
 49
0.0208333333333333
 49
0.0
 49
0.0
 49
0.0
 49
0.0
 49
0.0208333333333333
 49
0.0
 49
0.0
 49
0.0
 49
0.0
 49
1.0
 49
0.0
 49
0.0
 49
0.0
 49
0.0
 49
1.0
175
     0
142
0.0208333333333333
142
0.0
142
0.0
142
0.0
142
0.0
142
0.0208333333333333
142
0.0
142
0.0
142
0.0
142
0.0
142
1.0
142
0.0
142
0.0
142
0.0
142
0.0
142
1.0
179
     0
144
0.0208333333333333
144
0.0
144
0.0
144
0.0
144
0.0
144
0.0208333333333333
144
0.0
144
0.0
144
0.0
144
0.0
144
1.0
144
0.0
144
0.0
144
0.0
144
0.0
144
1.0
147
0.0208333333333333
147
0.0
147
0.0
147
0.0
147
0.0
147
0.0208333333333333
147
0.0
147
0.0
147
0.0
147
0.0
147
1.0
147
0.0
147
0.0
147
0.0
147
0.0
147
1.0
  0
MATERIAL
  5
1995
102
{ACAD_XDICTIONARY
360
1996
102
}
102
{ACAD_REACTORS
330
119
102
}
330
119
100
AcDbMaterial
  1
Global
 72
     0
 43
0.0208333333333333
 43
0.0
 43
0.0
 43
0.0
 43
0.0
 43
0.0208333333333333
 43
0.0
 43
0.0
 43
0.0
 43
0.0
 43
1.0
 43
0.0
 43
0.0
 43
0.0
 43
0.0
 43
1.0
 77
     0
 47
0.0208333333333333
 47
0.0
 47
0.0
 47
0.0
 47
0.0
 47
0.0208333333333333
 47
0.0
 47
0.0
 47
0.0
 47
0.0
 47
1.0
 47
0.0
 47
0.0
 47
0.0
 47
0.0
 47
1.0
171
     0
 49
0.0208333333333333
 49
0.0
 49
0.0
 49
0.0
 49
0.0
 49
0.0208333333333333
 49
0.0
 49
0.0
 49
0.0
 49
0.0
 49
1.0
 49
0.0
 49
0.0
 49
0.0
 49
0.0
 49
1.0
175
     0
142
0.0208333333333333
142
0.0
142
0.0
142
0.0
142
0.0
142
0.0208333333333333
142
0.0
142
0.0
142
0.0
142
0.0
142
1.0
142
0.0
142
0.0
142
0.0
142
0.0
142
1.0
179
     0
144
0.0208333333333333
144
0.0
144
0.0
144
0.0
144
0.0
144
0.0208333333333333
144
0.0
144
0.0
144
0.0
144
0.0
144
1.0
144
0.0
144
0.0
144
0.0
144
0.0
144
1.0
147
0.0208333333333333
147
0.0
147
0.0
147
0.0
147
0.0
147
0.0208333333333333
147
0.0
147
0.0
147
0.0
147
0.0
147
1.0
147
0.0
147
0.0
147
0.0
147
0.0
147
1.0
  0
MLEADERSTYLE
  5
19CB
102
{ACAD_REACTORS
330
19CA
102
}
330
19CA
100
AcDbMLeaderStyle
179
     2
170
     2
171
     1
172
     0
 90
        2
 40
0.0
 41
0.0
173
     1
 91
-1056964608
340
13
 92
       -2
290
     1
 42
0.09
291
     1
 43
0.36
  3
Standard
 44
0.18
300

342
11
174
     1
178
     6
175
     1
176
     0
 93
-1056964608
 45
0.18
292
     0
297
     0
 46
0.18
 94
-1056964608
 47
1.0
 49
1.0
140
1.0
293
     1
141
0.0
294
     1
177
     0
142
1.0
295
     1
296
     0
143
0.125
271
     0
272
     9
273
     9
298
     1
  0
MLINESTYLE
  5
17
102
{ACAD_REACTORS
330
16
102
}
330
16
100
AcDbMlineStyle
  2
STANDARD
 70
     0
  3

 62
   256
 51
90.0
 52
90.0
 71
     2
 49
0.5
 62
   256
  6
BYLAYER
 49
-0.5
 62
   256
  6
BYLAYER
  0
ACDBPLACEHOLDER
  5
F
102
{ACAD_REACTORS
330
E
102
}
330
E
  0
RAPIDRTRENDERSETTINGS
  5
19D6
102
{ACAD_REACTORS
330
19D3
102
}
330
19D3
100
AcDbRenderSettings
 90
        2
  1
Hoch
290
     1
290
     0
290
     1
290
     1
  1

  1
Wendet 10 Render-Ebenen an
 90
        2
100
AcDbRapidRTRenderSettings
 90
        3
 70
     0
 90
       10
 90
        1
 70
     2
 70
     2
 40
3.0
 40
3.0
290
     1
  0
RAPIDRTRENDERSETTINGS
  5
19D8
102
{ACAD_REACTORS
330
19D3
102
}
330
19D3
100
AcDbRenderSettings
 90
        2
  1
Mittagsqualität
290
     1
290
     0
290
     1
290
     1
  1

  1
Rendert für 60 Minuten
 90
        4
100
AcDbRapidRTRenderSettings
 90
        3
 70
     1
 90
        1
 90
       60
 70
     2
 70
     2
 40
3.0
 40
3.0
290
     1
  0
RAPIDRTRENDERSETTINGS
  5
19D5
102
{ACAD_REACTORS
330
19D3
102
}
330
19D3
100
AcDbRenderSettings
 90
        2
  1
Mittel
290
     1
290
     0
290
     1
290
     1
  1

  1
Wendet 5 Render-Ebenen an
 90
        1
100
AcDbRapidRTRenderSettings
 90
        3
 70
     0
 90
        5
 90
        1
 70
     1
 70
     2
 40
3.0
 40
3.0
290
     1
  0
RAPIDRTRENDERSETTINGS
  5
19D7
102
{ACAD_REACTORS
330
19D3
102
}
330
19D3
100
AcDbRenderSettings
 90
        2
  1
Morgenqualität
290
     1
290
     0
290
     1
290
     1
  1

  1
Rendert für 10 Minuten
 90
        3
100
AcDbRapidRTRenderSettings
 90
        3
 70
     1
 90
        1
 90
       10
 70
     1
 70
     2
 40
3.0
 40
3.0
290
     1
  0
RAPIDRTRENDERSETTINGS
  5
19D9
102
{ACAD_REACTORS
330
19D3
102
}
330
19D3
100
AcDbRenderSettings
 90
        2
  1
Nachtqualität
290
     1
290
     0
290
     1
290
     1
  1

  1
Rendert für 12 Stunden
 90
        5
100
AcDbRapidRTRenderSettings
 90
        3
 70
     1
 90
        1
 90
      720
 70
     2
 70
     2
 40
3.0
 40
3.0
290
     1
  0
RAPIDRTRENDERSETTINGS
  5
19D4
102
{ACAD_REACTORS
330
19D3
102
}
330
19D3
100
AcDbRenderSettings
 90
        2
  1
Niedrig
290
     1
290
     0
290
     1
290
     1
  1

  1
Wendet 1 Render-Ebene an
 90
        0
100
AcDbRapidRTRenderSettings
 90
        3
 70
     0
 90
        1
 90
        1
 70
     0
 70
     2
 40
3.0
 40
3.0
290
     1
  0
SCALE
  5
19B9
102
{ACAD_REACTORS
330
19B8
102
}
330
19B8
100
AcDbScale
 70
     0
300
1:1
140
1.0
141
1.0
290
     1
  0
SCALE
  5
19BA
102
{ACAD_REACTORS
330
19B8
102
}
330
19B8
100
AcDbScale
 70
     0
300
1/128" = 1'-0"
140
0.0078125
141
12.0
290
     0
  0
SCALE
  5
19BB
102
{ACAD_REACTORS
330
19B8
102
}
330
19B8
100
AcDbScale
 70
     0
300
1/64" = 1'-0"
140
0.015625
141
12.0
290
     0
  0
SCALE
  5
19BC
102
{ACAD_REACTORS
330
19B8
102
}
330
19B8
100
AcDbScale
 70
     0
300
1/32" = 1'-0"
140
0.03125
141
12.0
290
     0
  0
SCALE
  5
19BD
102
{ACAD_REACTORS
330
19B8
102
}
330
19B8
100
AcDbScale
 70
     0
300
1/16" = 1'-0"
140
0.0625
141
12.0
290
     0
  0
SCALE
  5
19BE
102
{ACAD_REACTORS
330
19B8
102
}
330
19B8
100
AcDbScale
 70
     0
300
3/32" = 1'-0"
140
0.09375
141
12.0
290
     0
  0
SCALE
  5
19BF
102
{ACAD_REACTORS
330
19B8
102
}
330
19B8
100
AcDbScale
 70
     0
300
1/8" = 1'-0"
140
0.125
141
12.0
290
     0
  0
SCALE
  5
19C0
102
{ACAD_REACTORS
330
19B8
102
}
330
19B8
100
AcDbScale
 70
     0
300
3/16" = 1'-0"
140
0.1875
141
12.0
290
     0
  0
SCALE
  5
19C1
102
{ACAD_REACTORS
330
19B8
102
}
330
19B8
100
AcDbScale
 70
     0
300
1/4" = 1'-0"
140
0.25
141
12.0
290
     0
  0
SCALE
  5
19C2
102
{ACAD_REACTORS
330
19B8
102
}
330
19B8
100
AcDbScale
 70
     0
300
3/8" = 1'-0"
140
0.375
141
12.0
290
     0
  0
SCALE
  5
19C3
102
{ACAD_REACTORS
330
19B8
102
}
330
19B8
100
AcDbScale
 70
     0
300
1/2" = 1'-0"
140
0.5
141
12.0
290
     0
  0
SCALE
  5
19C4
102
{ACAD_REACTORS
330
19B8
102
}
330
19B8
100
AcDbScale
 70
     0
300
3/4" = 1'-0"
140
0.75
141
12.0
290
     0
  0
SCALE
  5
19C5
102
{ACAD_REACTORS
330
19B8
102
}
330
19B8
100
AcDbScale
 70
     0
300
1" = 1'-0"
140
1.0
141
12.0
290
     0
  0
SCALE
  5
19C6
102
{ACAD_REACTORS
330
19B8
102
}
330
19B8
100
AcDbScale
 70
     0
300
1-1/2" = 1'-0"
140
1.5
141
12.0
290
     0
  0
SCALE
  5
19C7
102
{ACAD_REACTORS
330
19B8
102
}
330
19B8
100
AcDbScale
 70
     0
300
3" = 1'-0"
140
3.0
141
12.0
290
     0
  0
SCALE
  5
19C8
102
{ACAD_REACTORS
330
19B8
102
}
330
19B8
100
AcDbScale
 70
     0
300
6" = 1'-0"
140
6.0
141
12.0
290
     0
  0
SCALE
  5
19C9
102
{ACAD_REACTORS
330
19B8
102
}
330
19B8
100
AcDbScale
 70
     0
300
1'-0" = 1'-0"
140
12.0
141
12.0
290
     0
  0
ACDBSECTIONVIEWSTYLE
  5
19CD
102
{ACAD_XDICTIONARY
360
1A03
102
}
102
{ACAD_REACTORS
330
19CC
102
}
330
19CC
100
AcDbModelDocViewStyle
 70
     0
  3
Imperial24
290
     0
100
AcDbSectionViewStyle
 70
     0
 71
     0
 90
       78
 71
     1
340
11
 62
   256
 40
0.24
340
0
340
0
 62
   256
 40
0.24
300
I, O, Q, S, X, Z
 40
0.48
 90
        3
 40
0.18
 90
        1
 71
     2
340
15
 90
       25
 62
   256
340
15
 90
       50
 62
   256
 40
0.24
 40
0.0
 40
0.24
 71
     3
340
11
 62
   256
 40
0.24
 90
        1
 40
0.75
 90
        1
300
%<\AcVar ViewType \f "%tc1">% %<\AcVar ViewSectionStartId>%-%<\AcVar ViewSectionEndId>%\PVARIA %<\AcVar ViewScale \f "%sn">%
 71
     4
 62
   256
 62
   257
300
ANSI31
 40
1.0
 90
        0
290
     0
290
     0
 90
        6
 40
0.0
 40
1.570796326794896
 40
0.2617993877991494
 40
1.308996938995747
 40
-0.2617993877991494
 40
1.832595714594046
  0
TABLESTYLE
  5
19B7
102
{ACAD_XDICTIONARY
360
1A28
102
}
102
{ACAD_REACTORS
330
19B6
102
}
330
19B6
100
AcDbTableStyle
280
     0
  3
Standard
 70
     0
 71
     0
 40
0.06
 41
0.06
280
     0
281
     0
  7
STANDARD
140
0.18
170
     2
 62
     0
 63
     7
283
     0
 90
      512
 91
        0
  1

274
    -2
284
     1
 64
     0
275
    -2
285
     1
 65
     0
276
    -2
286
     1
 66
     0
277
    -2
287
     1
 67
     0
278
    -2
288
     1
 68
     0
279
    -2
289
     1
 69
     0
  7
STANDARD
140
0.25
170
     5
 62
     0
 63
     7
283
     0
 90
      512
 91
        0
  1

274
    -2
284
     1
 64
     0
275
    -2
285
     1
 65
     0
276
    -2
286
     1
 66
     0
277
    -2
287
     1
 67
     0
278
    -2
288
     1
 68
     0
279
    -2
289
     1
 69
     0
  7
STANDARD
140
0.18
170
     5
 62
     0
 63
     7
283
     0
 90
      512
 91
        0
  1

274
    -2
284
     1
 64
     0
275
    -2
285
     1
 65
     0
276
    -2
286
     1
 66
     0
277
    -2
287
     1
 67
     0
278
    -2
288
     1
 68
     0
279
    -2
289
     1
 69
     0
  0
VISUALSTYLE
  5
19A3
102
{ACAD_REACTORS
330
199D
102
}
330
199D
100
AcDbVisualStyle
  2
2dWireframe
 70
     4
177
     3
291
     0
 70
    58
 90
        0
176
     1
 90
        2
176
     1
 90
        0
176
     1
 90
        0
176
     1
 40
0.6
176
     1
 40
30.0
176
     1
 62
     7
420
 16777215
176
     1
 90
        1
176
     1
 90
        4
176
     1
 62
     7
176
     1
 62
   257
176
     1
 90
        1
176
     1
 90
        1
176
     1
 40
1.0
176
     1
 90
        0
176
     1
 62
   257
176
     1
 40
1.0
176
     1
 90
        1
176
     1
 90
        6
176
     1
 90
        2
176
     1
 62
     7
176
     1
 90
        5
176
     1
 90
        0
176
     1
 90
        0
176
     1
290
     0
176
     1
 90
        1
176
     1
 40
0.0
176
     1
 90
        0
176
     1
290
     1
176
     1
290
     1
176
     1
290
     0
176
     1
290
     0
176
     1
290
     0
176
     1
290
     0
176
     1
290
     0
176
     1
290
     0
176
     1
290
     0
176
     1
 90
       50
176
     1
 40
0.0
176
     1
 40
1.0
176
     1
 90
        0
176
     1
 62
    18
420
        0
176
     1
 90
       50
176
     1
 90
        3
176
     1
 62
     5
420
      255
176
     1
290
     0
176
     1
 90
       50
176
     1
 90
       50
176
     1
 90
       50
176
     1
290
     0
176
     1
 90
       50
176
     1
 62
   256
176
     0
 40
1.0
176
     0
 90
        2
176
     1
  1
strokes_ogs.tif
176
     1
290
     0
176
     1
 40
1.0
176
     1
 40
1.0
176
     1
  0
VISUALSTYLE
  5
19A2
102
{ACAD_REACTORS
330
199D
102
}
330
199D
100
AcDbVisualStyle
  2
Basic
 70
     7
177
     3
291
     1
 70
    58
 90
        1
176
     1
 90
        0
176
     1
 90
        1
176
     1
 90
        0
176
     1
 40
0.6
176
     1
 40
30.0
176
     1
 62
     7
420
 16777215
176
     1
 90
        0
176
     1
 90
        4
176
     1
 62
     7
176
     1
 62
   257
176
     1
 90
        1
176
     1
 90
        1
176
     1
 40
1.0
176
     1
 90
        8
176
     1
 62
     7
176
     1
 40
1.0
176
     1
 90
        1
176
     1
 90
        6
176
     1
 90
        2
176
     1
 62
     7
176
     1
 90
        5
176
     1
 90
        0
176
     1
 90
        0
176
     1
290
     0
176
     1
 90
        1
176
     1
 40
0.0
176
     1
 90
        0
176
     1
290
     0
176
     1
290
     1
176
     1
290
     1
176
     1
290
     0
176
     1
290
     0
176
     1
290
     0
176
     1
290
     0
176
     1
290
     0
176
     1
290
     0
176
     1
 90
       50
176
     1
 40
0.0
176
     1
 40
1.0
176
     1
 90
        0
176
     1
 62
    18
420
        0
176
     1
 90
       50
176
     1
 90
        3
176
     1
 62
     5
420
      255
176
     1
290
     0
176
     1
 90
       50
176
     1
 90
       50
176
     1
 90
       50
176
     1
290
     0
176
     1
 90
       50
176
     1
 62
   256
176
     0
 40
1.0
176
     0
 90
        2
176
     1
  1
strokes_ogs.tif
176
     1
290
     0
176
     1
 40
1.0
176
     1
 40
1.0
176
     1
  0
VISUALSTYLE
  5
19A9
102
{ACAD_REACTORS
330
199D
102
}
330
199D
100
AcDbVisualStyle
  2
Brighten
 70
    12
177
     3
291
     1
 70
    58
 90
        2
176
     1
 90
        2
176
     1
 90
        0
176
     1
 90
        0
176
     1
 40
0.6
176
     1
 40
30.0
176
     1
 62
     7
420
 16777215
176
     1
 90
        1
176
     1
 90
        4
176
     1
 62
     7
176
     1
 62
   257
176
     1
 90
        1
176
     1
 90
        1
176
     1
 40
1.0
176
     1
 90
        8
176
     1
 62
     7
176
     1
 40
1.0
176
     1
 90
        1
176
     1
 90
        6
176
     1
 90
        2
176
     1
 62
     7
176
     1
 90
        5
176
     1
 90
        0
176
     1
 90
        0
176
     1
290
     0
176
     1
 90
        1
176
     1
 40
50.0
176
     1
 90
        0
176
     1
290
     0
176
     1
290
     1
176
     1
290
     1
176
     1
290
     0
176
     1
290
     0
176
     1
290
     0
176
     1
290
     0
176
     1
290
     0
176
     1
290
     0
176
     1
 90
       50
176
     1
 40
0.0
176
     1
 40
1.0
176
     1
 90
        0
176
     1
 62
    18
420
        0
176
     1
 90
       50
176
     1
 90
        3
176
     1
 62
     5
420
      255
176
     1
290
     0
176
     1
 90
       50
176
     1
 90
       50
176
     1
 90
       50
176
     1
290
     0
176
     1
 90
       50
176
     1
 62
   256
176
     0
 40
1.0
176
     0
 90
        2
176
     1
  1
strokes_ogs.tif
176
     1
290
     0
176
     1
 40
1.0
176
     1
 40
1.0
176
     1
  0
VISUALSTYLE
  5
19AD
102
{ACAD_REACTORS
330
199D
102
}
330
199D
100
AcDbVisualStyle
  2
ColorChange
 70
    16
177
     3
291
     1
 70
    58
 90
        2
176
     1
 90
        2
176
     1
 90
        3
176
     1
 90
        0
176
     1
 40
0.6
176
     1
 40
30.0
176
     1
 62
     8
420
  8421504
176
     1
 90
        1
176
     1
 90
        4
176
     1
 62
     7
176
     1
 62
   257
176
     1
 90
        1
176
     1
 90
        1
176
     1
 40
1.0
176
     1
 90
        8
176
     1
 62
     8
420
  8421504
176
     1
 40
1.0
176
     1
 90
        1
176
     1
 90
        6
176
     1
 90
        2
176
     1
 62
     7
176
     1
 90
        5
176
     1
 90
        0
176
     1
 90
        0
176
     1
290
     0
176
     1
 90
        1
176
     1
 40
0.0
176
     1
 90
        0
176
     1
290
     0
176
     1
290
     1
176
     1
290
     1
176
     1
290
     0
176
     1
290
     0
176
     1
290
     0
176
     1
290
     0
176
     1
290
     0
176
     1
290
     0
176
     1
 90
       50
176
     1
 40
0.0
176
     1
 40
1.0
176
     1
 90
        0
176
     1
 62
    18
420
        0
176
     1
 90
       50
176
     1
 90
        3
176
     1
 62
     5
420
      255
176
     1
290
     0
176
     1
 90
       50
176
     1
 90
       50
176
     1
 90
       50
176
     1
290
     0
176
     1
 90
       50
176
     1
 62
   256
176
     0
 40
1.0
176
     0
 90
        2
176
     1
  1
strokes_ogs.tif
176
     1
290
     0
176
     1
 40
1.0
176
     1
 40
1.0
176
     1
  0
VISUALSTYLE
  5
19A6
102
{ACAD_REACTORS
330
199D
102
}
330
199D
100
AcDbVisualStyle
  2
Conceptual
 70
     9
177
     3
291
     0
 70
    58
 90
        3
176
     1
 90
        2
176
     1
 90
        0
176
     1
 90
        0
176
     1
 40
0.6
176
     1
 40
30.0
176
     1
 62
     7
420
 16777215
176
     1
 90
        2
176
     1
 90
        2
176
     1
 62
     7
176
     1
 62
   257
176
     1
 90
        1
176
     1
 90
        1
176
     1
 40
179.0
176
     1
 90
        8
176
     1
 62
     7
176
     1
 40
1.0
176
     1
 90
        1
176
     1
 90
        6
176
     1
 90
        2
176
     1
 62
     7
176
     1
 90
        3
176
     1
 90
        0
176
     1
 90
        0
176
     1
290
     0
176
     1
 90
        1
176
     1
 40
0.0
176
     1
 90
        0
176
     1
290
     0
176
     1
290
     1
176
     1
290
     1
176
     1
290
     0
176
     1
290
     0
176
     1
290
     0
176
     1
290
     0
176
     1
290
     0
176
     1
290
     0
176
     1
 90
       50
176
     1
 40
0.0
176
     1
 40
1.0
176
     1
 90
        0
176
     1
 62
    18
420
        0
176
     1
 90
       50
176
     1
 90
        3
176
     1
 62
     5
420
      255
176
     1
290
     0
176
     1
 90
       50
176
     1
 90
       50
176
     1
 90
       50
176
     1
290
     0
176
     1
 90
       50
176
     1
 62
   256
176
     0
 40
1.0
176
     0
 90
        2
176
     1
  1
strokes_ogs.tif
176
     1
290
     0
176
     1
 40
1.0
176
     1
 40
1.0
176
     1
  0
VISUALSTYLE
  5
19A8
102
{ACAD_REACTORS
330
199D
102
}
330
199D
100
AcDbVisualStyle
  2
Dim
 70
    11
177
     3
291
     1
 70
    58
 90
        2
176
     1
 90
        2
176
     1
 90
        0
176
     1
 90
        0
176
     1
 40
0.6
176
     1
 40
30.0
176
     1
 62
     7
420
 16777215
176
     1
 90
        1
176
     1
 90
        4
176
     1
 62
     7
176
     1
 62
   257
176
     1
 90
        1
176
     1
 90
        1
176
     1
 40
1.0
176
     1
 90
        8
176
     1
 62
     7
176
     1
 40
1.0
176
     1
 90
        1
176
     1
 90
        6
176
     1
 90
        2
176
     1
 62
     7
176
     1
 90
        5
176
     1
 90
        0
176
     1
 90
        0
176
     1
290
     0
176
     1
 90
        1
176
     1
 40
-50.0
176
     1
 90
        0
176
     1
290
     0
176
     1
290
     1
176
     1
290
     1
176
     1
290
     0
176
     1
290
     0
176
     1
290
     0
176
     1
290
     0
176
     1
290
     0
176
     1
290
     0
176
     1
 90
       50
176
     1
 40
0.0
176
     1
 40
1.0
176
     1
 90
        0
176
     1
 62
    18
420
        0
176
     1
 90
       50
176
     1
 90
        3
176
     1
 62
     5
420
      255
176
     1
290
     0
176
     1
 90
       50
176
     1
 90
       50
176
     1
 90
       50
176
     1
290
     0
176
     1
 90
       50
176
     1
 62
   256
176
     0
 40
1.0
176
     0
 90
        2
176
     1
  1
strokes_ogs.tif
176
     1
290
     0
176
     1
 40
1.0
176
     1
 40
1.0
176
     1
  0
VISUALSTYLE
  5
19B5
102
{ACAD_REACTORS
330
199D
102
}
330
199D
100
AcDbVisualStyle
  2
EdgeColorOff
 70
    22
177
     3
291
     1
 70
    58
 90
        2
176
     0
 90
        2
176
     0
 90
        0
176
     0
 90
        0
176
     0
 40
0.6
176
     0
 40
30.0
176
     0
 62
     7
420
 16777215
176
     0
 90
        1
176
     0
 90
        4
176
     0
 62
     7
176
     0
 62
   257
176
     0
 90
        1
176
     0
 90
        1
176
     0
 40
1.0
176
     0
 90
        8
176
     2
 62
     7
176
     0
 40
1.0
176
     0
 90
        1
176
     0
 90
        6
176
     0
 90
        2
176
     0
 62
     7
176
     0
 90
        5
176
     0
 90
        0
176
     0
 90
        0
176
     0
290
     0
176
     0
 90
        1
176
     0
 40
0.0
176
     0
 90
        0
176
     0
290
     0
176
     0
290
     1
176
     0
290
     1
176
     0
290
     0
176
     0
290
     0
176
     0
290
     0
176
     0
290
     0
176
     0
290
     0
176
     0
290
     0
176
     0
 90
       50
176
     0
 40
0.0
176
     0
 40
1.0
176
     0
 90
        0
176
     0
 62
    18
420
        0
176
     0
 90
       50
176
     0
 90
        3
176
     0
 62
     5
420
      255
176
     0
290
     0
176
     0
 90
       50
176
     0
 90
       50
176
     0
 90
       50
176
     0
290
     0
176
     0
 90
       50
176
     0
 62
   256
176
     0
 40
1.0
176
     0
 90
        2
176
     0
  1
strokes_ogs.tif
176
     0
290
     0
176
     0
 40
1.0
176
     0
 40
1.0
176
     0
  0
VISUALSTYLE
  5
19AC
102
{ACAD_REACTORS
330
199D
102
}
330
199D
100
AcDbVisualStyle
  2
Facepattern
 70
    15
177
     3
291
     1
 70
    58
 90
        2
176
     1
 90
        2
176
     1
 90
        0
176
     1
 90
        0
176
     1
 40
0.6
176
     1
 40
30.0
176
     1
 62
     7
420
 16777215
176
     1
 90
        1
176
     1
 90
        4
176
     1
 62
     7
176
     1
 62
   257
176
     1
 90
        1
176
     1
 90
        1
176
     1
 40
1.0
176
     1
 90
        8
176
     1
 62
     7
176
     1
 40
1.0
176
     1
 90
        1
176
     1
 90
        6
176
     1
 90
        2
176
     1
 62
     7
176
     1
 90
        5
176
     1
 90
        0
176
     1
 90
        0
176
     1
290
     0
176
     1
 90
        1
176
     1
 40
0.0
176
     1
 90
        0
176
     1
290
     0
176
     1
290
     1
176
     1
290
     1
176
     1
290
     0
176
     1
290
     0
176
     1
290
     0
176
     1
290
     0
176
     1
290
     0
176
     1
290
     0
176
     1
 90
       50
176
     1
 40
0.0
176
     1
 40
1.0
176
     1
 90
        0
176
     1
 62
    18
420
        0
176
     1
 90
       50
176
     1
 90
        3
176
     1
 62
     5
420
      255
176
     1
290
     0
176
     1
 90
       50
176
     1
 90
       50
176
     1
 90
       50
176
     1
290
     0
176
     1
 90
       50
176
     1
 62
   256
176
     0
 40
1.0
176
     0
 90
        2
176
     1
  1
strokes_ogs.tif
176
     1
290
     0
176
     1
 40
1.0
176
     1
 40
1.0
176
     1
  0
VISUALSTYLE
  5
199E
102
{ACAD_REACTORS
330
199D
102
}
330
199D
100
AcDbVisualStyle
  2
Flat
 70
     0
177
     3
291
     1
 70
    58
 90
        2
176
     1
 90
        1
176
     1
 90
        1
176
     1
 90
        2
176
     1
 40
0.6
176
     1
 40
30.0
176
     1
 62
     7
420
 16777215
176
     1
 90
        0
176
     1
 90
        0
176
     1
 62
     7
176
     1
 62
   257
176
     1
 90
        1
176
     1
 90
        1
176
     1
 40
1.0
176
     1
 90
        8
176
     1
 62
     7
176
     1
 40
1.0
176
     1
 90
        1
176
     1
 90
        6
176
     1
 90
        2
176
     1
 62
     7
176
     1
 90
        5
176
     1
 90
        0
176
     1
 90
        0
176
     1
290
     0
176
     1
 90
       13
176
     1
 40
0.0
176
     1
 90
        0
176
     1
290
     0
176
     1
290
     1
176
     1
290
     1
176
     1
290
     0
176
     1
290
     0
176
     1
290
     0
176
     1
290
     0
176
     1
290
     0
176
     1
290
     0
176
     1
 90
       50
176
     1
 40
0.0
176
     1
 40
1.0
176
     1
 90
        0
176
     1
 62
    18
420
        0
176
     1
 90
       50
176
     1
 90
        3
176
     1
 62
     5
420
      255
176
     1
290
     0
176
     1
 90
       50
176
     1
 90
       50
176
     1
 90
       50
176
     1
290
     0
176
     1
 90
       50
176
     1
 62
   256
176
     0
 40
1.0
176
     0
 90
        2
176
     1
  1
strokes_ogs.tif
176
     1
290
     0
176
     1
 40
1.0
176
     1
 40
1.0
176
     1
  0
VISUALSTYLE
  5
199F
102
{ACAD_REACTORS
330
199D
102
}
330
199D
100
AcDbVisualStyle
  2
FlatWithEdges
 70
     1
177
     3
291
     1
 70
    58
 90
        2
176
     1
 90
        1
176
     1
 90
        1
176
     1
 90
        2
176
     1
 40
0.6
176
     1
 40
30.0
176
     1
 62
     7
420
 16777215
176
     1
 90
        1
176
     1
 90
        0
176
     1
 62
     7
176
     1
 62
   257
176
     1
 90
        1
176
     1
 90
        1
176
     1
 40
1.0
176
     1
 90
        0
176
     1
 62
   257
176
     1
 40
1.0
176
     1
 90
        1
176
     1
 90
        6
176
     1
 90
        2
176
     1
 62
     7
176
     1
 90
        5
176
     1
 90
        0
176
     1
 90
        0
176
     1
290
     0
176
     1
 90
       13
176
     1
 40
0.0
176
     1
 90
        0
176
     1
290
     0
176
     1
290
     1
176
     1
290
     1
176
     1
290
     0
176
     1
290
     0
176
     1
290
     0
176
     1
290
     0
176
     1
290
     0
176
     1
290
     0
176
     1
 90
       50
176
     1
 40
0.0
176
     1
 40
1.0
176
     1
 90
        0
176
     1
 62
    18
420
        0
176
     1
 90
       50
176
     1
 90
        3
176
     1
 62
     5
420
      255
176
     1
290
     0
176
     1
 90
       50
176
     1
 90
       50
176
     1
 90
       50
176
     1
290
     0
176
     1
 90
       50
176
     1
 62
   256
176
     0
 40
1.0
176
     0
 90
        2
176
     1
  1
strokes_ogs.tif
176
     1
290
     0
176
     1
 40
1.0
176
     1
 40
1.0
176
     1
  0
VISUALSTYLE
  5
19A0
102
{ACAD_REACTORS
330
199D
102
}
330
199D
100
AcDbVisualStyle
  2
Gouraud
 70
     2
177
     3
291
     1
 70
    58
 90
        2
176
     1
 90
        2
176
     1
 90
        1
176
     1
 90
        2
176
     1
 40
0.6
176
     1
 40
30.0
176
     1
 62
     7
420
 16777215
176
     1
 90
        0
176
     1
 90
        0
176
     1
 62
     7
176
     1
 62
   257
176
     1
 90
        1
176
     1
 90
        1
176
     1
 40
1.0
176
     1
 90
        0
176
     1
 62
     7
176
     1
 40
1.0
176
     1
 90
        1
176
     1
 90
        6
176
     1
 90
        2
176
     1
 62
     7
176
     1
 90
        5
176
     1
 90
        0
176
     1
 90
        0
176
     1
290
     0
176
     1
 90
       13
176
     1
 40
0.0
176
     1
 90
        0
176
     1
290
     0
176
     1
290
     1
176
     1
290
     1
176
     1
290
     0
176
     1
290
     0
176
     1
290
     0
176
     1
290
     0
176
     1
290
     0
176
     1
290
     0
176
     1
 90
       50
176
     1
 40
0.0
176
     1
 40
1.0
176
     1
 90
        0
176
     1
 62
    18
420
        0
176
     1
 90
       50
176
     1
 90
        3
176
     1
 62
     5
420
      255
176
     1
290
     0
176
     1
 90
       50
176
     1
 90
       50
176
     1
 90
       50
176
     1
290
     0
176
     1
 90
       50
176
     1
 62
   256
176
     0
 40
1.0
176
     0
 90
        2
176
     1
  1
strokes_ogs.tif
176
     1
290
     0
176
     1
 40
1.0
176
     1
 40
1.0
176
     1
  0
VISUALSTYLE
  5
19A1
102
{ACAD_REACTORS
330
199D
102
}
330
199D
100
AcDbVisualStyle
  2
GouraudWithEdges
 70
     3
177
     3
291
     1
 70
    58
 90
        2
176
     1
 90
        2
176
     1
 90
        1
176
     1
 90
        2
176
     1
 40
0.6
176
     1
 40
30.0
176
     1
 62
     7
420
 16777215
176
     1
 90
        1
176
     1
 90
        0
176
     1
 62
     7
176
     1
 62
   257
176
     1
 90
        1
176
     1
 90
        1
176
     1
 40
1.0
176
     1
 90
        0
176
     1
 62
   257
176
     1
 40
1.0
176
     1
 90
        1
176
     1
 90
        6
176
     1
 90
        2
176
     1
 62
     7
176
     1
 90
        5
176
     1
 90
        0
176
     1
 90
        0
176
     1
290
     0
176
     1
 90
       13
176
     1
 40
0.0
176
     1
 90
        0
176
     1
290
     0
176
     1
290
     1
176
     1
290
     1
176
     1
290
     0
176
     1
290
     0
176
     1
290
     0
176
     1
290
     0
176
     1
290
     0
176
     1
290
     0
176
     1
 90
       50
176
     1
 40
0.0
176
     1
 40
1.0
176
     1
 90
        0
176
     1
 62
    18
420
        0
176
     1
 90
       50
176
     1
 90
        3
176
     1
 62
     5
420
      255
176
     1
290
     0
176
     1
 90
       50
176
     1
 90
       50
176
     1
 90
       50
176
     1
290
     0
176
     1
 90
       50
176
     1
 62
   256
176
     0
 40
1.0
176
     0
 90
        2
176
     1
  1
strokes_ogs.tif
176
     1
290
     0
176
     1
 40
1.0
176
     1
 40
1.0
176
     1
  0
VISUALSTYLE
  5
19A5
102
{ACAD_REACTORS
330
199D
102
}
330
199D
100
AcDbVisualStyle
  2
Hidden
 70
     6
177
     3
291
     0
 70
    58
 90
        1
176
     1
 90
        2
176
     1
 90
        2
176
     1
 90
        0
176
     1
 40
0.6
176
     1
 40
30.0
176
     1
 62
     7
420
 16777215
176
     1
 90
        2
176
     1
 90
        2
176
     1
 62
     7
176
     1
 62
   257
176
     1
 90
        2
176
     1
 90
        1
176
     1
 40
40.0
176
     1
 90
        0
176
     1
 62
   257
176
     1
 40
1.0
176
     1
 90
        1
176
     1
 90
        6
176
     1
 90
        2
176
     1
 62
     7
176
     1
 90
        3
176
     1
 90
        0
176
     1
 90
        0
176
     1
290
     0
176
     1
 90
        1
176
     1
 40
0.0
176
     1
 90
        0
176
     1
290
     0
176
     1
290
     1
176
     1
290
     1
176
     1
290
     0
176
     1
290
     0
176
     1
290
     0
176
     1
290
     0
176
     1
290
     0
176
     1
290
     0
176
     1
 90
       50
176
     1
 40
0.0
176
     1
 40
1.0
176
     1
 90
        0
176
     1
 62
    18
420
        0
176
     1
 90
       50
176
     1
 90
        3
176
     1
 62
     5
420
      255
176
     1
290
     0
176
     1
 90
       50
176
     1
 90
       50
176
     1
 90
       50
176
     1
290
     0
176
     1
 90
       50
176
     1
 62
   256
176
     0
 40
1.0
176
     0
 90
        2
176
     1
  1
strokes_ogs.tif
176
     1
290
     0
176
     1
 40
1.0
176
     1
 40
1.0
176
     1
  0
VISUALSTYLE
  5
19B3
102
{ACAD_REACTORS
330
199D
102
}
330
199D
100
AcDbVisualStyle
  2
JitterOff
 70
    20
177
     3
291
     1
 70
    58
 90
        2
176
     0
 90
        2
176
     0
 90
        0
176
     0
 90
        0
176
     0
 40
0.6
176
     0
 40
30.0
176
     0
 62
     7
420
 16777215
176
     0
 90
        1
176
     0
 90
        4
176
     0
 62
     7
176
     0
 62
   257
176
     0
 90
        1
176
     0
 90
        1
176
     0
 40
1.0
176
     0
 90
       10
176
     2
 62
     7
176
     0
 40
1.0
176
     0
 90
        1
176
     0
 90
        6
176
     0
 90
        2
176
     0
 62
     7
176
     0
 90
        5
176
     0
 90
        0
176
     0
 90
        0
176
     0
290
     0
176
     0
 90
        1
176
     0
 40
0.0
176
     0
 90
        0
176
     0
290
     0
176
     0
290
     1
176
     0
290
     1
176
     0
290
     0
176
     0
290
     0
176
     0
290
     0
176
     0
290
     0
176
     0
290
     0
176
     0
290
     0
176
     0
 90
       50
176
     0
 40
0.0
176
     0
 40
1.0
176
     0
 90
        0
176
     0
 62
    18
420
        0
176
     0
 90
       50
176
     0
 90
        3
176
     0
 62
     5
420
      255
176
     0
290
     0
176
     0
 90
       50
176
     0
 90
       50
176
     0
 90
       50
176
     0
290
     0
176
     0
 90
       50
176
     0
 62
   256
176
     0
 40
1.0
176
     0
 90
        2
176
     0
  1
strokes_ogs.tif
176
     0
290
     0
176
     0
 40
1.0
176
     0
 40
1.0
176
     0
  0
VISUALSTYLE
  5
19AB
102
{ACAD_REACTORS
330
199D
102
}
330
199D
100
AcDbVisualStyle
  2
Linepattern
 70
    14
177
     3
291
     1
 70
    58
 90
        2
176
     1
 90
        2
176
     1
 90
        0
176
     1
 90
        0
176
     1
 40
0.6
176
     1
 40
30.0
176
     1
 62
     7
420
 16777215
176
     1
 90
        1
176
     1
 90
        4
176
     1
 62
     7
176
     1
 62
   257
176
     1
 90
        7
176
     1
 90
        7
176
     1
 40
1.0
176
     1
 90
        8
176
     1
 62
     7
176
     1
 40
1.0
176
     1
 90
        1
176
     1
 90
        6
176
     1
 90
        2
176
     1
 62
     7
176
     1
 90
        5
176
     1
 90
        0
176
     1
 90
        0
176
     1
290
     0
176
     1
 90
        1
176
     1
 40
0.0
176
     1
 90
        0
176
     1
290
     0
176
     1
290
     1
176
     1
290
     1
176
     1
290
     0
176
     1
290
     0
176
     1
290
     0
176
     1
290
     0
176
     1
290
     0
176
     1
290
     0
176
     1
 90
       50
176
     1
 40
0.0
176
     1
 40
1.0
176
     1
 90
        0
176
     1
 62
    18
420
        0
176
     1
 90
       50
176
     1
 90
        3
176
     1
 62
     5
420
      255
176
     1
290
     0
176
     1
 90
       50
176
     1
 90
       50
176
     1
 90
       50
176
     1
290
     0
176
     1
 90
       50
176
     1
 62
   256
176
     0
 40
1.0
176
     0
 90
        2
176
     1
  1
strokes_ogs.tif
176
     1
290
     0
176
     1
 40
1.0
176
     1
 40
1.0
176
     1
  0
VISUALSTYLE
  5
19B4
102
{ACAD_REACTORS
330
199D
102
}
330
199D
100
AcDbVisualStyle
  2
OverhangOff
 70
    21
177
     3
291
     1
 70
    58
 90
        2
176
     0
 90
        2
176
     0
 90
        0
176
     0
 90
        0
176
     0
 40
0.6
176
     0
 40
30.0
176
     0
 62
     7
420
 16777215
176
     0
 90
        1
176
     0
 90
        4
176
     0
 62
     7
176
     0
 62
   257
176
     0
 90
        1
176
     0
 90
        1
176
     0
 40
1.0
176
     0
 90
        9
176
     2
 62
     7
176
     0
 40
1.0
176
     0
 90
        1
176
     0
 90
        6
176
     0
 90
        2
176
     0
 62
     7
176
     0
 90
        5
176
     0
 90
        0
176
     0
 90
        0
176
     0
290
     0
176
     0
 90
        1
176
     0
 40
0.0
176
     0
 90
        0
176
     0
290
     0
176
     0
290
     1
176
     0
290
     1
176
     0
290
     0
176
     0
290
     0
176
     0
290
     0
176
     0
290
     0
176
     0
290
     0
176
     0
290
     0
176
     0
 90
       50
176
     0
 40
0.0
176
     0
 40
1.0
176
     0
 90
        0
176
     0
 62
    18
420
        0
176
     0
 90
       50
176
     0
 90
        3
176
     0
 62
     5
420
      255
176
     0
290
     0
176
     0
 90
       50
176
     0
 90
       50
176
     0
 90
       50
176
     0
290
     0
176
     0
 90
       50
176
     0
 62
   256
176
     0
 40
1.0
176
     0
 90
        2
176
     0
  1
strokes_ogs.tif
176
     0
290
     0
176
     0
 40
1.0
176
     0
 40
1.0
176
     0
  0
VISUALSTYLE
  5
19A7
102
{ACAD_REACTORS
330
199D
102
}
330
199D
100
AcDbVisualStyle
  2
Realistic
 70
     8
177
     3
291
     0
 70
    58
 90
        2
176
     1
 90
        3
176
     1
 90
        0
176
     1
 90
        2
176
     1
 40
0.6
176
     1
 40
30.0
176
     1
 62
     7
420
 16777215
176
     1
 90
        0
176
     1
 90
        0
176
     1
 62
     7
176
     1
 62
   257
176
     1
 90
        1
176
     1
 90
        1
176
     1
 40
1.0
176
     1
 90
        8
176
     1
 62
   257
176
     1
 40
1.0
176
     1
 90
        1
176
     1
 90
        6
176
     1
 90
        2
176
     1
 62
     7
176
     1
 90
        3
176
     1
 90
        0
176
     1
 90
        0
176
     1
290
     0
176
     1
 90
       13
176
     1
 40
0.0
176
     1
 90
        0
176
     1
290
     0
176
     1
290
     1
176
     1
290
     1
176
     1
290
     0
176
     1
290
     0
176
     1
290
     0
176
     1
290
     0
176
     1
290
     0
176
     1
290
     0
176
     1
 90
       50
176
     1
 40
0.0
176
     1
 40
1.0
176
     1
 90
        0
176
     1
 62
    18
420
        0
176
     1
 90
       50
176
     1
 90
        3
176
     1
 62
     5
420
      255
176
     1
290
     0
176
     1
 90
       50
176
     1
 90
       50
176
     1
 90
       50
176
     1
290
     0
176
     1
 90
       50
176
     1
 62
   256
176
     0
 40
1.0
176
     0
 90
        2
176
     1
  1
strokes_ogs.tif
176
     1
290
     0
176
     1
 40
1.0
176
     1
 40
1.0
176
     1
  0
VISUALSTYLE
  5
19B2
102
{ACAD_REACTORS
330
199D
102
}
330
199D
100
AcDbVisualStyle
  2
Shaded
 70
    27
177
     3
291
     0
 70
    58
 90
        2
176
     1
 90
        2
176
     1
 90
        1
176
     1
 90
        2
176
     1
 40
0.6
176
     1
 40
30.0
176
     1
 62
     7
420
 16777215
176
     1
 90
        0
176
     1
 90
        4
176
     1
 62
     7
176
     1
 62
   257
176
     1
 90
        1
176
     1
 90
        1
176
     1
 40
1.0
176
     1
 90
        8
176
     1
 62
   257
176
     1
 40
1.0
176
     1
 90
        1
176
     1
 90
        6
176
     1
 90
        2
176
     1
 62
     8
420
  7895160
176
     1
 90
        3
176
     1
 90
        0
176
     1
 90
        0
176
     1
290
     0
176
     1
 90
        5
176
     1
 40
0.0
176
     1
 90
        0
176
     1
290
     0
176
     1
290
     1
176
     1
290
     1
176
     1
290
     0
176
     1
290
     0
176
     1
290
     0
176
     1
290
     0
176
     1
290
     0
176
     1
290
     0
176
     1
 90
       50
176
     1
 40
0.0
176
     1
 40
1.0
176
     1
 90
        0
176
     1
 62
    18
420
        0
176
     1
 90
       50
176
     1
 90
        3
176
     1
 62
     5
420
      255
176
     1
290
     0
176
     1
 90
       50
176
     1
 90
       50
176
     1
 90
       50
176
     1
290
     0
176
     1
 90
       50
176
     1
 62
   256
176
     0
 40
1.0
176
     0
 90
        2
176
     1
  1
strokes_ogs.tif
176
     1
290
     0
176
     1
 40
1.0
176
     1
 40
1.0
176
     1
  0
VISUALSTYLE
  5
19B1
102
{ACAD_REACTORS
330
199D
102
}
330
199D
100
AcDbVisualStyle
  2
Shaded with edges
 70
    26
177
     3
291
     0
 70
    58
 90
        2
176
     1
 90
        2
176
     1
 90
        1
176
     1
 90
        2
176
     1
 40
0.6
176
     1
 40
30.0
176
     1
 62
     7
420
 16777215
176
     1
 90
        1
176
     1
 90
        2
176
     1
 62
     7
176
     1
 62
   257
176
     1
 90
        2
176
     1
 90
        1
176
     1
 40
1.0
176
     1
 90
        8
176
     1
 62
   257
176
     1
 40
1.0
176
     1
 90
        1
176
     1
 90
        6
176
     1
 90
        2
176
     1
 62
     7
176
     1
 90
        3
176
     1
 90
        0
176
     1
 90
        0
176
     1
290
     0
176
     1
 90
        5
176
     1
 40
0.0
176
     1
 90
        0
176
     1
290
     0
176
     1
290
     1
176
     1
290
     1
176
     1
290
     0
176
     1
290
     0
176
     1
290
     0
176
     1
290
     0
176
     1
290
     0
176
     1
290
     0
176
     1
 90
       50
176
     1
 40
0.0
176
     1
 40
1.0
176
     1
 90
        0
176
     1
 62
    18
420
        0
176
     1
 90
       50
176
     1
 90
        3
176
     1
 62
     5
420
      255
176
     1
290
     0
176
     1
 90
       50
176
     1
 90
       50
176
     1
 90
       50
176
     1
290
     0
176
     1
 90
       50
176
     1
 62
   256
176
     0
 40
1.0
176
     0
 90
        2
176
     1
  1
strokes_ogs.tif
176
     1
290
     0
176
     1
 40
1.0
176
     1
 40
1.0
176
     1
  0
VISUALSTYLE
  5
19AE
102
{ACAD_REACTORS
330
199D
102
}
330
199D
100
AcDbVisualStyle
  2
Shades of Gray
 70
    23
177
     3
291
     0
 70
    58
 90
        2
176
     1
 90
        2
176
     1
 90
        3
176
     1
 90
        0
176
     1
 40
0.6
176
     1
 40
30.0
176
     1
 62
     7
420
 16777215
176
     1
 90
        2
176
     1
 90
        2
176
     1
 62
     7
176
     1
 62
     7
176
     1
 90
        1
176
     1
 90
        1
176
     1
 40
40.0
176
     1
 90
        8
176
     1
 62
     7
176
     1
 40
1.0
176
     1
 90
        1
176
     1
 90
        6
176
     1
 90
        2
176
     1
 62
     7
176
     1
 90
        3
176
     1
 90
        0
176
     1
 90
        0
176
     1
290
     0
176
     1
 90
        1
176
     1
 40
0.0
176
     1
 90
        0
176
     1
290
     0
176
     1
290
     1
176
     1
290
     1
176
     1
290
     0
176
     1
290
     0
176
     1
290
     0
176
     1
290
     0
176
     1
290
     0
176
     1
290
     0
176
     1
 90
       50
176
     1
 40
0.0
176
     1
 40
1.0
176
     1
 90
        0
176
     1
 62
    18
420
        0
176
     1
 90
       50
176
     1
 90
        3
176
     1
 62
     5
420
      255
176
     1
290
     0
176
     1
 90
       50
176
     1
 90
       50
176
     1
 90
       50
176
     1
290
     0
176
     1
 90
       50
176
     1
 62
   256
176
     0
 40
1.0
176
     0
 90
        2
176
     1
  1
strokes_ogs.tif
176
     1
290
     0
176
     1
 40
1.0
176
     1
 40
1.0
176
     1
  0
VISUALSTYLE
  5
19AF
102
{ACAD_REACTORS
330
199D
102
}
330
199D
100
AcDbVisualStyle
  2
Sketchy
 70
    24
177
     3
291
     0
 70
    58
 90
        1
176
     1
 90
        2
176
     1
 90
        2
176
     1
 90
        0
176
     1
 40
0.6
176
     1
 40
30.0
176
     1
 62
     7
420
 16777215
176
     1
 90
        2
176
     1
 90
        2
176
     1
 62
     7
176
     1
 62
     7
176
     1
 90
        1
176
     1
 90
        1
176
     1
 40
40.0
176
     1
 90
       11
176
     1
 62
     7
176
     1
 40
1.0
176
     1
 90
        1
176
     1
 90
        6
176
     1
 90
        2
176
     1
 62
     7
176
     1
 90
        6
176
     1
 90
        0
176
     1
 90
        0
176
     1
290
     0
176
     1
 90
        1
176
     1
 40
0.0
176
     1
 90
        0
176
     1
290
     0
176
     1
290
     1
176
     1
290
     1
176
     1
290
     0
176
     1
290
     0
176
     1
290
     0
176
     1
290
     0
176
     1
290
     0
176
     1
290
     0
176
     1
 90
       50
176
     1
 40
0.0
176
     1
 40
1.0
176
     1
 90
        0
176
     1
 62
    18
420
        0
176
     1
 90
       50
176
     1
 90
        3
176
     1
 62
     5
420
      255
176
     1
290
     0
176
     1
 90
       50
176
     1
 90
       50
176
     1
 90
       50
176
     1
290
     0
176
     1
 90
       50
176
     1
 62
   256
176
     0
 40
1.0
176
     0
 90
        2
176
     1
  1
strokes_ogs.tif
176
     1
290
     0
176
     1
 40
1.0
176
     1
 40
1.0
176
     1
  0
VISUALSTYLE
  5
19AA
102
{ACAD_REACTORS
330
199D
102
}
330
199D
100
AcDbVisualStyle
  2
Thicken
 70
    13
177
     3
291
     1
 70
    58
 90
        2
176
     1
 90
        2
176
     1
 90
        0
176
     1
 90
        0
176
     1
 40
0.6
176
     1
 40
30.0
176
     1
 62
     7
420
 16777215
176
     1
 90
        1
176
     1
 90
        4
176
     1
 62
     7
176
     1
 62
   257
176
     1
 90
        1
176
     1
 90
        1
176
     1
 40
1.0
176
     1
 90
       12
176
     1
 62
     7
176
     1
 40
1.0
176
     1
 90
        1
176
     1
 90
        6
176
     1
 90
        2
176
     1
 62
     7
176
     1
 90
        5
176
     1
 90
        0
176
     1
 90
        0
176
     1
290
     0
176
     1
 90
        1
176
     1
 40
0.0
176
     1
 90
        0
176
     1
290
     0
176
     1
290
     1
176
     1
290
     1
176
     1
290
     0
176
     1
290
     0
176
     1
290
     0
176
     1
290
     0
176
     1
290
     0
176
     1
290
     0
176
     1
 90
       50
176
     1
 40
0.0
176
     1
 40
1.0
176
     1
 90
        0
176
     1
 62
    18
420
        0
176
     1
 90
       50
176
     1
 90
        3
176
     1
 62
     5
420
      255
176
     1
290
     0
176
     1
 90
       50
176
     1
 90
       50
176
     1
 90
       50
176
     1
290
     0
176
     1
 90
       50
176
     1
 62
   256
176
     0
 40
1.0
176
     0
 90
        2
176
     1
  1
strokes_ogs.tif
176
     1
290
     0
176
     1
 40
1.0
176
     1
 40
1.0
176
     1
  0
VISUALSTYLE
  5
19A4
102
{ACAD_REACTORS
330
199D
102
}
330
199D
100
AcDbVisualStyle
  2
Wireframe
 70
     5
177
     3
291
     0
 70
    58
 90
        0
176
     1
 90
        2
176
     1
 90
        0
176
     1
 90
        0
176
     1
 40
0.6
176
     1
 40
30.0
176
     1
 62
     7
420
 16777215
176
     1
 90
        1
176
     1
 90
        4
176
     1
 62
     7
176
     1
 62
   257
176
     1
 90
        1
176
     1
 90
        1
176
     1
 40
1.0
176
     1
 90
        0
176
     1
 62
   257
176
     1
 40
1.0
176
     1
 90
        1
176
     1
 90
        6
176
     1
 90
        2
176
     1
 62
     7
176
     1
 90
        3
176
     1
 90
        0
176
     1
 90
        0
176
     1
290
     0
176
     1
 90
        1
176
     1
 40
0.0
176
     1
 90
        0
176
     1
290
     0
176
     1
290
     1
176
     1
290
     1
176
     1
290
     0
176
     1
290
     0
176
     1
290
     0
176
     1
290
     0
176
     1
290
     0
176
     1
290
     0
176
     1
 90
       50
176
     1
 40
0.0
176
     1
 40
1.0
176
     1
 90
        0
176
     1
 62
    18
420
        0
176
     1
 90
       50
176
     1
 90
        3
176
     1
 62
     5
420
      255
176
     1
290
     0
176
     1
 90
       50
176
     1
 90
       50
176
     1
 90
       50
176
     1
290
     0
176
     1
 90
       50
176
     1
 62
   256
176
     0
 40
1.0
176
     0
 90
        2
176
     1
  1
strokes_ogs.tif
176
     1
290
     0
176
     1
 40
1.0
176
     1
 40
1.0
176
     1
  0
VISUALSTYLE
  5
19B0
102
{ACAD_REACTORS
330
199D
102
}
330
199D
100
AcDbVisualStyle
  2
X-Ray
 70
    25
177
     3
291
     0
 70
    58
 90
        2
176
     1
 90
        2
176
     1
 90
        1
176
     1
 90
        1
176
     1
 40
0.5
176
     1
 40
30.0
176
     1
 62
     7
420
 16777215
176
     1
 90
        1
176
     1
 90
        0
176
     1
 62
     7
176
     1
 62
   257
176
     1
 90
        1
176
     1
 90
        1
176
     1
 40
1.0
176
     1
 90
        8
176
     1
 62
     7
176
     1
 40
1.0
176
     1
 90
        1
176
     1
 90
        6
176
     1
 90
        2
176
     1
 62
     7
176
     1
 90
        3
176
     1
 90
        0
176
     1
 90
        0
176
     1
290
     0
176
     1
 90
       13
176
     1
 40
0.0
176
     1
 90
        0
176
     1
290
     0
176
     1
290
     1
176
     1
290
     1
176
     1
290
     0
176
     1
290
     0
176
     1
290
     0
176
     1
290
     0
176
     1
290
     0
176
     1
290
     0
176
     1
 90
       50
176
     1
 40
0.0
176
     1
 40
1.0
176
     1
 90
        0
176
     1
 62
    18
420
        0
176
     1
 90
       50
176
     1
 90
        3
176
     1
 62
     5
420
      255
176
     1
290
     0
176
     1
 90
       50
176
     1
 90
       50
176
     1
 90
       50
176
     1
290
     0
176
     1
 90
       50
176
     1
 62
   256
176
     0
 40
1.0
176
     0
 90
        2
176
     1
  1
strokes_ogs.tif
176
     1
290
     0
176
     1
 40
1.0
176
     1
 40
1.0
176
     1
  0
DICTIONARYVAR
  5
1A0D
102
{ACAD_REACTORS
330
125
102
}
330
125
100
DictionaryVariables
280
     0
  1
1:1
  0
DICTIONARYVAR
  5
1A09
102
{ACAD_REACTORS
330
125
102
}
330
125
100
DictionaryVariables
280
     0
  1
STANDARD
  0
DICTIONARYVAR
  5
1A08
102
{ACAD_REACTORS
330
125
102
}
330
125
100
DictionaryVariables
280
     0
  1
STANDARD
  0
DICTIONARYVAR
  5
1A0A
102
{ACAD_REACTORS
330
125
102
}
330
125
100
DictionaryVariables
280
     0
  1
Imperial24
  0
DICTIONARYVAR
  5
1A0B
102
{ACAD_REACTORS
330
125
102
}
330
125
100
DictionaryVariables
280
     0
  1
Imperial24
  0
DICTIONARYVAR
  5
126
102
{ACAD_REACTORS
330
125
102
}
330
125
100
DictionaryVariables
280
     0
  1
1
  0
DICTIONARYVAR
  5
1A0F
102
{ACAD_REACTORS
330
125
102
}
330
125
100
DictionaryVariables
280
     0
  1
1
  0
DICTIONARYVAR
  5
1A10
102
{ACAD_REACTORS
330
125
102
}
330
125
100
DictionaryVariables
280
     0
  1
15
  0
DICTIONARYVAR
  5
1A0E
102
{ACAD_REACTORS
330
125
102
}
330
125
100
DictionaryVariables
280
     0
  1
0
  0
DICTIONARYVAR
  5
1A0C
102
{ACAD_REACTORS
330
125
102
}
330
125
100
DictionaryVariables
280
     0
  1
0
  0
DICTIONARYVAR
  5
127
102
{ACAD_REACTORS
330
125
102
}
330
125
100
DictionaryVariables
280
     0
  1

  0
FIELD
  5
1A18
102
{ACAD_REACTORS
330
1A17
102
}
330
1A17
100
AcDbField
  1
_text
  2
%<\_FldIdx 0>%
 90
        1
360
1A19
 97
        0
 91
       63
 92
        0
 94
        9
 95
        2
 96
        0
300

 93
        1
  6
ACFD_FIELDTEXT_CHECKSUM
 93
        2
 90
        2
140
6609.0
 94
        0
300

302

304
ACVALUE_END
  7
ACFD_FIELD_VALUE
 93
        3
 90
        0
 94
        0
300

302

304
ACVALUE_END
301

 98
        0
  0
DICTIONARY
  5
1A05
330
19CF
100
AcDbDictionary
280
     1
281
     1
  3
ACAD_XREC_ROUNDTRIP
360
1A2B
  0
DICTIONARY
  5
198E
330
198D
100
AcDbDictionary
280
     1
281
     1
  3
BUMPTILE
360
1990
  3
DIFFUSETILE
360
198F
  3
OPACITYTILE
360
1993
  3
REFLECTIONTILE
360
1992
  3
REFRACTIONTILE
360
1994
  3
SPECULARTILE
360
1991
  0
DICTIONARY
  5
1986
330
1985
100
AcDbDictionary
280
     1
281
     1
  3
BUMPTILE
360
1988
  3
DIFFUSETILE
360
1987
  3
OPACITYTILE
360
198B
  3
REFLECTIONTILE
360
198A
  3
REFRACTIONTILE
360
198C
  3
SPECULARTILE
360
1989
  0
DICTIONARY
  5
1996
330
1995
100
AcDbDictionary
280
     1
281
     1
  3
BUMPTILE
360
1998
  3
DIFFUSETILE
360
1997
  3
OPACITYTILE
360
199B
  3
REFLECTIONTILE
360
199A
  3
REFRACTIONTILE
360
199C
  3
SPECULARTILE
360
1999
  0
DICTIONARY
  5
1A03
330
19CD
100
AcDbDictionary
280
     1
281
     1
  3
ACAD_XREC_ROUNDTRIP
360
1A2A
  0
DICTIONARY
  5
1A28
330
19B7
100
AcDbDictionary
280
     1
281
     1
  3
ACAD_ROUNDTRIP_2008_TABLESTYLE_CELLSTYLEMAP
360
1A29
  0
FIELD
  5
1A19
330
1A18
100
AcDbField
  1
AcVar
  2
\AcVar Filename \f "%tc1%fn6"
 90
        0
 97
        0
 91
       63
 92
        0
 94
       59
 95
        2
 96
        0
300

 93
        1
  6
Variable
 93
        2
 90
        4
  1
Filename
 94
        0
300

302

304
ACVALUE_END
  7
ACFD_FIELD_VALUE
 93
        4
 90
        4
  1
C:\Users\w.koehlhoff.LOROWERK\Arbeit Koeh\AUTOCAD\Arbeit\WERBUNG\00984.070X.dxf
 94
        0
300
%tc1%fn6
302
00984.070X.DXF
304
ACVALUE_END
301
00984.070X.DXF
 98
       14
  0
XRECORD
  5
1A2B
102
{ACAD_REACTORS
330
1A05
102
}
330
1A05
100
AcDbXrecord
280
     1
102
DISPLAYNAME
  1
Imperial24
102
FLAGS
 90
        0
  0
XRECORD
  5
1990
102
{ACAD_REACTORS
330
198E
102
}
330
198E
100
AcDbXrecord
280
     1
270
     1
271
     1
  0
XRECORD
  5
198F
102
{ACAD_REACTORS
330
198E
102
}
330
198E
100
AcDbXrecord
280
     1
270
     1
271
     1
  0
XRECORD
  5
1993
102
{ACAD_REACTORS
330
198E
102
}
330
198E
100
AcDbXrecord
280
     1
270
     1
271
     1
  0
XRECORD
  5
1992
102
{ACAD_REACTORS
330
198E
102
}
330
198E
100
AcDbXrecord
280
     1
270
     1
271
     1
  0
XRECORD
  5
1994
102
{ACAD_REACTORS
330
198E
102
}
330
198E
100
AcDbXrecord
280
     1
270
     1
271
     1
  0
XRECORD
  5
1991
102
{ACAD_REACTORS
330
198E
102
}
330
198E
100
AcDbXrecord
280
     1
270
     1
271
     1
  0
XRECORD
  5
1988
102
{ACAD_REACTORS
330
1986
102
}
330
1986
100
AcDbXrecord
280
     1
270
     1
271
     1
  0
XRECORD
  5
1987
102
{ACAD_REACTORS
330
1986
102
}
330
1986
100
AcDbXrecord
280
     1
270
     1
271
     1
  0
XRECORD
  5
198B
102
{ACAD_REACTORS
330
1986
102
}
330
1986
100
AcDbXrecord
280
     1
270
     1
271
     1
  0
XRECORD
  5
198A
102
{ACAD_REACTORS
330
1986
102
}
330
1986
100
AcDbXrecord
280
     1
270
     1
271
     1
  0
XRECORD
  5
198C
102
{ACAD_REACTORS
330
1986
102
}
330
1986
100
AcDbXrecord
280
     1
270
     1
271
     1
  0
XRECORD
  5
1989
102
{ACAD_REACTORS
330
1986
102
}
330
1986
100
AcDbXrecord
280
     1
270
     1
271
     1
  0
XRECORD
  5
1998
102
{ACAD_REACTORS
330
1996
102
}
330
1996
100
AcDbXrecord
280
     1
270
     1
271
     1
  0
XRECORD
  5
1997
102
{ACAD_REACTORS
330
1996
102
}
330
1996
100
AcDbXrecord
280
     1
270
     1
271
     1
  0
XRECORD
  5
199B
102
{ACAD_REACTORS
330
1996
102
}
330
1996
100
AcDbXrecord
280
     1
270
     1
271
     1
  0
XRECORD
  5
199A
102
{ACAD_REACTORS
330
1996
102
}
330
1996
100
AcDbXrecord
280
     1
270
     1
271
     1
  0
XRECORD
  5
199C
102
{ACAD_REACTORS
330
1996
102
}
330
1996
100
AcDbXrecord
280
     1
270
     1
271
     1
  0
XRECORD
  5
1999
102
{ACAD_REACTORS
330
1996
102
}
330
1996
100
AcDbXrecord
280
     1
270
     1
271
     1
  0
XRECORD
  5
1A2A
102
{ACAD_REACTORS
330
1A03
102
}
330
1A03
100
AcDbXrecord
280
     1
102
DISPLAYNAME
  1
Imperial24
102
FLAGS
 90
        0
  0
CELLSTYLEMAP
  5
1A29
102
{ACAD_REACTORS
330
1A28
102
}
330
1A28
100
AcDbCellStyleMap
 90
        3
300
CELLSTYLE
  1
TABLEFORMAT_BEGIN
 90
        5
170
     1
 91
        0
 92
    32768
 62
   257
 93
        1
300
CONTENTFORMAT
  1
CONTENTFORMAT_BEGIN
 90
        0
 91
        0
 92
      512
 93
        0
300

 40
0.0
140
1.0
 94
        5
 62
     0
340
11
144
0.25
309
CONTENTFORMAT_END
171
     0
 94
        0
309
TABLEFORMAT_END
  1
CELLSTYLE_BEGIN
 90
        1
 91
        1
300
_TITLE
309
CELLSTYLE_END
300
CELLSTYLE
  1
TABLEFORMAT_BEGIN
 90
        5
170
     1
 91
        0
 92
        0
 62
   257
 93
        1
300
CONTENTFORMAT
  1
CONTENTFORMAT_BEGIN
 90
        0
 91
        0
 92
      512
 93
        0
300

 40
0.0
140
1.0
 94
        5
 62
     0
340
11
144
0.18
309
CONTENTFORMAT_END
171
     0
 94
        0
309
TABLEFORMAT_END
  1
CELLSTYLE_BEGIN
 90
        2
 91
        1
300
_HEADER
309
CELLSTYLE_END
300
CELLSTYLE
  1
TABLEFORMAT_BEGIN
 90
        5
170
     1
 91
        0
 92
        0
 62
   257
 93
        1
300
CONTENTFORMAT
  1
CONTENTFORMAT_BEGIN
 90
        0
 91
        0
 92
      512
 93
        0
300

 40
0.0
140
1.0
 94
        2
 62
     0
340
11
144
0.18
309
CONTENTFORMAT_END
171
     0
 94
        0
309
TABLEFORMAT_END
  1
CELLSTYLE_BEGIN
 90
        3
 91
        2
300
_DATA
309
CELLSTYLE_END
  0
ENDSEC
  0
SECTION
  2
ACDSDATA
 70
     2
 71
     8
  0
ACDSSCHEMA
 90
        0
  1
AcDb_Thumbnail_Schema
  2
AcDbDs::ID
280
    10
 91
        8
  2
Thumbnail_Data
280
    15
 91
        0
101
ACDSRECORD
 95
        0
 90
        1
  2
AcDbDs::TreatedAsObjectData
280
     1
291
     1
101
ACDSRECORD
 95
        0
 90
        2
  2
AcDbDs::Legacy
280
     1
291
     1
101
ACDSRECORD
  1
AcDbDs::ID
 90
        3
  2
AcDs:Indexable
280
     1
291
     1
101
ACDSRECORD
  1
AcDbDs::ID
 90
        4
  2
AcDbDs::HandleAttribute
280
     7
282
     1
  0
ACDSSCHEMA
 90
        1
  1
AcDbDs::TreatedAsObjectDataSchema
  2
AcDbDs::TreatedAsObjectData
280
     1
 91
        0
  0
ACDSSCHEMA
 90
        2
  1
AcDbDs::LegacySchema
  2
AcDbDs::Legacy
280
     1
 91
        0
  0
ACDSSCHEMA
 90
        3
  1
AcDbDs::IndexedPropertySchema
  2
AcDs:Indexable
280
     1
 91
        0
  0
ACDSSCHEMA
 90
        4
  1
AcDbDs::HandleAttributeSchema
  2
AcDbDs::HandleAttribute
280
     7
 91
        1
284
     1
  0
ACDSRECORD
 90
        0
  2
AcDbDs::ID
280
    10
320
21
  2
Thumbnail_Data
280
    15
 94
     2002
310
89504E470D0A1A0A0000000D49484452000001000000008108030000001837949D00000300504C5445000000000000C8C8C80000000000000000000000000000000000000000000000000000330000660000990000CC0000FF0033000033330033660033990033CC0033FF0066000066330066660066990066CC0066FF0099
310
000099330099660099990099CC0099FF00CC0000CC3300CC6600CC9900CCCC00CCFF00FF0000FF3300FF6600FF9900FFCC00FFFF3300003300333300663300993300CC3300FF3333003333333333663333993333CC3333FF3366003366333366663366993366CC3366FF3399003399333399663399993399CC3399FF33CC00
310
33CC3333CC6633CC9933CCCC33CCFF33FF0033FF3333FF6633FF9933FFCC33FFFF6600006600336600666600996600CC6600FF6633006633336633666633996633CC6633FF6666006666336666666666996666CC6666FF6699006699336699666699996699CC6699FF66CC0066CC3366CC6666CC9966CCCC66CCFF66FF0066
310
FF3366FF6666FF9966FFCC66FFFF9900009900339900669900999900CC9900FF9933009933339933669933999933CC9933FF9966009966339966669966999966CC9966FF9999009999339999669999999999CC9999FF99CC0099CC3399CC6699CC9999CCCC99CCFF99FF0099FF3399FF6699FF9999FFCC99FFFFCC0000CC00
310
33CC0066CC0099CC00CCCC00FFCC3300CC3333CC3366CC3399CC33CCCC33FFCC6600CC6633CC6666CC6699CC66CCCC66FFCC9900CC9933CC9966CC9999CC99CCCC99FFCCCC00CCCC33CCCC66CCCC99CCCCCCCCCCFFCCFF00CCFF33CCFF66CCFF99CCFFCCCCFFFFFF0000FF0033FF0066FF0099FF00CCFF00FFFF3300FF3333
310
FF3366FF3399FF33CCFF33FFFF6600FF6633FF6666FF6699FF66CCFF66FFFF9900FF9933FF9966FF9999FF99CCFF99FFFFCC00FFCC33FFCC66FFCC99FFCCCCFFCCFFFFFF00FFFF33FFFF66FFFF99FFFFCCFFFFFF0000000D0D0D1A1A1A2828283535354343435050505D5D5D6B6B6B787878868686939393A1A1A1AEAEAEBB
310
BBBBC9C9C9D6D6D6E4E4E4F1F1F1FFFFFF00000000000000000000000000000000000000000000000000000000000008F1915C0000048D4944415478DAED9D5D96AB200C80B39CEC7F01BC741BD946DEAFFC296874EC552AC470A61DDB22A7F90C21841401CE141AB2C07DE5CEB6E4C2F73769001AB4850395360060986200
310
0C8001300006C00018000360003A02E0C04DE5CD009C7E007CB18C0FA09B49719F00C800BC088014A4203974A1098028D7B10614676800507C83B30096232D5D80BE03C039EEAE0C80D0FB651BE01D8018C81F1F0066C9FD493580A59DB50D64C89FA30E0053754F806A4B17DA11C4A4F021A553C70630F5E2F047F9F95C41
310
CCCF78DF7AD6731A1097242A0D608E9DC2DB005103408906C02CC5A60B24E5DFED02A009C0B746109419417118C453C3A02E00E71DA10C00C70700575CE13BE57F2E24766932A401C0A5E9B02A00FF131031003702E0B72F8C18000360000C8001300006C00018000360000C80CD060D407B00E792A09A05803A00F0C7F7F1
310
827FA6920EDF056012F913842788FF7FC0A0230093B09FAA4060F01A00FEEA07912147FE2386C64AD00D80E9F243EAF98894160E5347780300ACFA3CCD9DC26369AA037D00C02CFFDA0FF08931BE1BA80710B55F7284B8B129EC0200AEBB7A9134128D433B02DD00A8CEA1A2360602A300C8E94C5F01C0CD25A6AA76180D50
310
A30610ECC84755E5B2026904B0B57254D72D08680580523B5C8C92A00F40CA838843E00680738EEB6112E75C0A2D002078BC41AA0D00B706106BA1CF235401E08FEC17AAE58786D9324F00C8219F7D71A62EC0DB58419826D1F000E68BEB339E69AF1DDE9932D2DD56F0390047CA4C3B53A6A8011A00A44C7928B3E58B7DA8
310
B87A55BDC09B377F7AB80BE077511302C2E1BB00B820DF9141E7BD4C518A2994A30F83691488D5058158B28DA91AC1D8A3C0ACFE07E33A6F1DDE4D12EDF00062B40BA38F574F8659F0F8D10706D3AF2BC6F6042500ABB9C00E804F945C1580A4CCF56C9085395F8A096523A8653A9C85A9E2010C32804FBAFE1A86C1A576FE
310
25D4B2FEC352DC678987280330AF7FCC2AC020022854446344A8888A4A00B08A19EA0250E9F82429C3564C7CC3BA4024C0CBAE0AB4921F95AF0C4502BC9C4795FA375D1FEE6A75F8B378FCD9FD6F9E21D04F7EC0826099208494097C457E405482941E15DBF94982485749524909CA14A1E6F277962657E749FD2451AEC33C
310
C1B4B5C48F52257B03701C2B7B0780B449C6AB019001300006C0001880BD16561BCC5EDB64767C0017B7D91D10C0CD3759191080DF7C3B15971ED39B59155C3C8AFB2E6DB403D75AD3E38FA6F0780D18895CCE1670E94105003E09809F0170AE1D3A54115103C2A6ECB07C86717F7217DF7771C77617EACDA55F0047E1EF1D
310
0D0882AD006C0B96F2F70B0052AEA4B8CBFCBE069C0300630088C99222005103861905BE3104F2DDF0640D988C9AB7FF7914A8CD1D6F8DE0637EC00DCEEBEB01885D201FCC9FC9FBD5E2E39E603B0D881E807F193560EFE4F1015CD280CDB8A0CA0640390C8A33A6E75D61B3010F68C02B6C804247E8CBC950F19BA2F8742E
310
5A32220079CB5984427CDD0020F97C6B0DC83A903350FB0C89DD11C76597C31FDEF709FE0F02E24A03F4028064EFFF0070F2AE0D3CDE9DA72799F3A14B8FDE82A2ED4AEFF71E1FB2809513E51FA94499C38B8E009F0000000049454E44AE426082
  0
ENDSEC
  0
EOF
