  0
SECTION
  2
HEADER
  9
$ACADVER
  1
AC1018
  9
$ACADMAINTVER
 70
     2
  9
$DWGCODEPAGE
  3
ANSI_1252
  9
$INSBASE
 10
0.0
 20
0.0
 30
0.0
  9
$EXTMIN
 10
-0.0090573584943741
 20
-0.0128083857496222
 30
-0.0000000000112498
  9
$EXTMAX
 10
594.0090656570853
 20
840.0128201211312
 30
0.0000000000002956
  9
$LIMMIN
 10
0.0
 20
0.0
  9
$LIMMAX
 10
594.0
 20
840.0
  9
$ORTHOMODE
 70
     1
  9
$REGENMODE
 70
     1
  9
$FILLMODE
 70
     1
  9
$QTEXTMODE
 70
     0
  9
$MIRRTEXT
 70
     1
  9
$LTSCALE
 40
20.0
  9
$ATTMODE
 70
     1
  9
$TEXTSIZE
 40
3.5
  9
$TRACEWID
 40
1.0
  9
$TEXTSTYLE
  7
STANDARD
  9
$CLAYER
  8
BEM
  9
$CELTYPE
  6
ByLayer
  9
$CECOLOR
 62
   256
  9
$CELTSCALE
 40
1.0
  9
$DISPSILH
 70
     0
  9
$DIMSCALE
 40
2.0
  9
$DIMASZ
 40
3.5
  9
$DIMEXO
 40
1.0
  9
$DIMDLI
 40
7.0
  9
$DIMRND
 40
0.0
  9
$DIMDLE
 40
0.0
  9
$DIMEXE
 40
1.0
  9
$DIMTP
 40
0.0
  9
$DIMTM
 40
0.0
  9
$DIMTXT
 40
3.5
  9
$DIMCEN
 40
1.5
  9
$DIMTSZ
 40
0.0
  9
$DIMTOL
 70
     0
  9
$DIMLIM
 70
     0
  9
$DIMTIH
 70
     0
  9
$DIMTOH
 70
     0
  9
$DIMSE1
 70
     0
  9
$DIMSE2
 70
     0
  9
$DIMTAD
 70
     1
  9
$DIMZIN
 70
     8
  9
$DIMBLK
  1

  9
$DIMASO
 70
     1
  9
$DIMSHO
 70
     0
  9
$DIMPOST
  1

  9
$DIMAPOST
  1

  9
$DIMALT
 70
     0
  9
$DIMALTD
 70
     2
  9
$DIMALTF
 40
25.4
  9
$DIMLFAC
 40
1.0
  9
$DIMTOFL
 70
     1
  9
$DIMTVP
 40
0.0
  9
$DIMTIX
 70
     0
  9
$DIMSOXD
 70
     0
  9
$DIMSAH
 70
     0
  9
$DIMBLK1
  1

  9
$DIMBLK2
  1

  9
$DIMSTYLE
  2
Standard
  9
$DIMCLRD
 70
     0
  9
$DIMCLRE
 70
     0
  9
$DIMCLRT
 70
     1
  9
$DIMTFAC
 40
0.5142857142857144
  9
$DIMGAP
 40
1.5
  9
$DIMJUST
 70
     0
  9
$DIMSD1
 70
     0
  9
$DIMSD2
 70
     0
  9
$DIMTOLJ
 70
     1
  9
$DIMTZIN
 70
     8
  9
$DIMALTZ
 70
     8
  9
$DIMALTTZ
 70
     8
  9
$DIMUPT
 70
     0
  9
$DIMDEC
 70
     2
  9
$DIMTDEC
 70
     2
  9
$DIMALTU
 70
     2
  9
$DIMALTTD
 70
     2
  9
$DIMTXSTY
  7
STANDARD
  9
$DIMAUNIT
 70
     0
  9
$DIMADEC
 70
     2
  9
$DIMALTRND
 40
0.0
  9
$DIMAZIN
 70
     2
  9
$DIMDSEP
 70
    46
  9
$DIMATFIT
 70
     3
  9
$DIMFRAC
 70
     0
  9
$DIMLDRBLK
  1

  9
$DIMLUNIT
 70
     2
  9
$DIMLWD
 70
    -2
  9
$DIMLWE
 70
    -2
  9
$DIMTMOVE
 70
     0
  9
$LUNITS
 70
     2
  9
$LUPREC
 70
     2
  9
$SKETCHINC
 40
1.0
  9
$FILLETRAD
 40
0.0
  9
$AUNITS
 70
     0
  9
$AUPREC
 70
     0
  9
$MENU
  1
ACAD
  9
$ELEVATION
 40
0.0
  9
$PELEVATION
 40
0.0
  9
$THICKNESS
 40
0.0
  9
$LIMCHECK
 70
     0
  9
$CHAMFERA
 40
0.0
  9
$CHAMFERB
 40
0.0
  9
$CHAMFERC
 40
0.0
  9
$CHAMFERD
 40
0.0
  9
$SKPOLY
 70
     0
  9
$TDCREATE
 40
2455397.825393172
  9
$TDUCREATE
 40
2455397.783726505
  9
$TDUPDATE
 40
2456230.317397709
  9
$TDUUPDATE
 40
2456230.275731042
  9
$TDINDWG
 40
0.0464451505
  9
$TDUSRTIMER
 40
0.0464451505
  9
$USRTIMER
 70
     1
  9
$ANGBASE
 50
0.0
  9
$ANGDIR
 70
     0
  9
$PDMODE
 70
     0
  9
$PDSIZE
 40
0.0
  9
$PLINEWID
 40
0.0
  9
$SPLFRAME
 70
     0
  9
$SPLINETYPE
 70
     6
  9
$SPLINESEGS
 70
     8
  9
$HANDSEED
  5
575
  9
$SURFTAB1
 70
     6
  9
$SURFTAB2
 70
     6
  9
$SURFTYPE
 70
     6
  9
$SURFU
 70
     6
  9
$SURFV
 70
     6
  9
$UCSBASE
  2

  9
$UCSNAME
  2

  9
$UCSORG
 10
0.0
 20
0.0
 30
0.0
  9
$UCSXDIR
 10
1.0
 20
0.0
 30
0.0
  9
$UCSYDIR
 10
0.0
 20
1.0
 30
0.0
  9
$UCSORTHOREF
  2

  9
$UCSORTHOVIEW
 70
     0
  9
$UCSORGTOP
 10
0.0
 20
0.0
 30
0.0
  9
$UCSORGBOTTOM
 10
0.0
 20
0.0
 30
0.0
  9
$UCSORGLEFT
 10
0.0
 20
0.0
 30
0.0
  9
$UCSORGRIGHT
 10
0.0
 20
0.0
 30
0.0
  9
$UCSORGFRONT
 10
0.0
 20
0.0
 30
0.0
  9
$UCSORGBACK
 10
0.0
 20
0.0
 30
0.0
  9
$PUCSBASE
  2

  9
$PUCSNAME
  2

  9
$PUCSORG
 10
0.0
 20
0.0
 30
0.0
  9
$PUCSXDIR
 10
1.0
 20
0.0
 30
0.0
  9
$PUCSYDIR
 10
0.0
 20
1.0
 30
0.0
  9
$PUCSORTHOREF
  2

  9
$PUCSORTHOVIEW
 70
     0
  9
$PUCSORGTOP
 10
0.0
 20
0.0
 30
0.0
  9
$PUCSORGBOTTOM
 10
0.0
 20
0.0
 30
0.0
  9
$PUCSORGLEFT
 10
0.0
 20
0.0
 30
0.0
  9
$PUCSORGRIGHT
 10
0.0
 20
0.0
 30
0.0
  9
$PUCSORGFRONT
 10
0.0
 20
0.0
 30
0.0
  9
$PUCSORGBACK
 10
0.0
 20
0.0
 30
0.0
  9
$USERI1
 70
     0
  9
$USERI2
 70
     0
  9
$USERI3
 70
     0
  9
$USERI4
 70
     0
  9
$USERI5
 70
     0
  9
$USERR1
 40
0.0
  9
$USERR2
 40
0.0
  9
$USERR3
 40
0.0
  9
$USERR4
 40
0.0
  9
$USERR5
 40
0.0
  9
$WORLDVIEW
 70
     1
  9
$SHADEDGE
 70
     3
  9
$SHADEDIF
 70
    70
  9
$TILEMODE
 70
     1
  9
$MAXACTVP
 70
    16
  9
$PINSBASE
 10
0.0
 20
0.0
 30
0.0
  9
$PLIMCHECK
 70
     0
  9
$PEXTMIN
 10
1.000000000000000E+20
 20
1.000000000000000E+20
 30
1.000000000000000E+20
  9
$PEXTMAX
 10
-1.000000000000000E+20
 20
-1.000000000000000E+20
 30
-1.000000000000000E+20
  9
$PLIMMIN
 10
0.0
 20
0.0
  9
$PLIMMAX
 10
12.0
 20
9.0
  9
$UNITMODE
 70
     0
  9
$VISRETAIN
 70
     0
  9
$PLINEGEN
 70
     0
  9
$PSLTSCALE
 70
     0
  9
$TREEDEPTH
 70
  3020
  9
$CMLSTYLE
  2
Standard
  9
$CMLJUST
 70
     0
  9
$CMLSCALE
 40
1.0
  9
$PROXYGRAPHICS
 70
     1
  9
$MEASUREMENT
 70
     0
  9
$CELWEIGHT
370
    -1
  9
$ENDCAPS
280
     0
  9
$JOINSTYLE
280
     0
  9
$LWDISPLAY
290
     0
  9
$INSUNITS
 70
     0
  9
$HYPERLINKBASE
  1

  9
$STYLESHEET
  1
monochrome 1.ctb
  9
$XEDIT
290
     1
  9
$CEPSNTYPE
380
     0
  9
$PSTYLEMODE
290
     1
  9
$FINGERPRINTGUID
  2
{D68B0D0D-A558-11D7-B632-000102183313}
  9
$VERSIONGUID
  2
{EE5A6056-8169-4B1B-9196-04A6D2B6B1CE}
  9
$EXTNAMES
290
     1
  9
$PSVPSCALE
 40
0.0
  9
$OLESTARTUP
290
     0
  9
$SORTENTS
280
   127
  9
$INDEXCTL
280
     0
  9
$HIDETEXT
280
     0
  9
$XCLIPFRAME
290
     0
  9
$HALOGAP
280
     0
  9
$OBSCOLOR
 70
   257
  9
$OBSLTYPE
280
     0
  9
$INTERSECTIONDISPLAY
280
     0
  9
$INTERSECTIONCOLOR
 70
   257
  9
$DIMASSOC
280
     1
  9
$PROJECTNAME
  1

  0
ENDSEC
  0
SECTION
  2
CLASSES
  0
CLASS
  1
ACDBDICTIONARYWDFLT
  2
AcDbDictionaryWithDefault
  3
ObjectDBX Classes
 90
        0
 91
        1
280
     0
281
     0
  0
CLASS
  1
DICTIONARYVAR
  2
AcDbDictionaryVar
  3
ObjectDBX Classes
 90
        0
 91
        2
280
     0
281
     0
  0
ENDSEC
  0
SECTION
  2
TABLES
  0
TABLE
  2
VPORT
  5
8
330
0
100
AcDbSymbolTable
 70
     3
  0
VPORT
  5
574
330
8
100
AcDbSymbolTableRecord
100
AcDbViewportTableRecord
  2
*Active
 70
     0
 10
0.0
 20
0.0
 11
1.0
 21
1.0
 12
297.0
 22
420.0
 13
0.0
 23
0.0
 14
1.0
 24
1.0
 15
10.0
 25
10.0
 16
0.0
 26
0.0
 36
1.0
 17
0.0
 27
0.0
 37
0.0
 40
840.8048029957914
 41
1.404858299595141
 42
50.0
 43
0.0
 44
0.0
 50
0.0
 51
0.0
 71
     0
 72
  1500
 73
     1
 74
     0
 75
     0
 76
     0
 77
     0
 78
     0
281
     0
 65
     1
110
0.0
120
0.0
130
0.0
111
1.0
121
0.0
131
0.0
112
0.0
122
1.0
132
0.0
 79
     0
146
0.0
  0
ENDTAB
  0
TABLE
  2
LTYPE
  5
5
330
0
100
AcDbSymbolTable
 70
     2
  0
LTYPE
  5
13
330
5
100
AcDbSymbolTableRecord
100
AcDbLinetypeTableRecord
  2
ByBlock
 70
     0
  3

 72
    65
 73
     0
 40
0.0
  0
LTYPE
  5
14
330
5
100
AcDbSymbolTableRecord
100
AcDbLinetypeTableRecord
  2
ByLayer
 70
     0
  3

 72
    65
 73
     0
 40
0.0
  0
LTYPE
  5
15
330
5
100
AcDbSymbolTableRecord
100
AcDbLinetypeTableRecord
  2
Continuous
 70
     0
  3
Solid line
 72
    65
 73
     0
 40
0.0
  0
LTYPE
  5
25
330
5
100
AcDbSymbolTableRecord
100
AcDbLinetypeTableRecord
  2
STRICHPUNKT
 70
     0
  3
__ . __ . __ . __ . __ . __ . __ . __ . __ . __
 72
    65
 73
     4
 40
1.0
 49
0.5
 74
     0
 49
-0.25
 74
     0
 49
0.0
 74
     0
 49
-0.25
 74
     0
  0
ENDTAB
  0
TABLE
  2
LAYER
  5
2
330
0
100
AcDbSymbolTable
 70
     9
  0
LAYER
  5
10
330
2
100
AcDbSymbolTableRecord
100
AcDbLayerTableRecord
  2
0
 70
     0
 62
     7
  6
Continuous
370
    -3
390
F
  0
LAYER
  5
2B
330
2
100
AcDbSymbolTableRecord
100
AcDbLayerTableRecord
  2
VOLL
 70
     0
 62
     1
  6
Continuous
370
    -3
390
F
  0
LAYER
  5
2C
330
2
100
AcDbSymbolTableRecord
100
AcDbLayerTableRecord
  2
HILF
 70
     0
 62
     2
  6
Continuous
370
    -3
390
F
  0
LAYER
  5
2D
330
2
100
AcDbSymbolTableRecord
100
AcDbLayerTableRecord
  2
MITTEL
 70
     0
 62
     2
  6
STRICHPUNKT
370
    -3
390
F
  0
LAYER
  5
2F
330
2
100
AcDbSymbolTableRecord
100
AcDbLayerTableRecord
  2
BEM
 70
     0
 62
     7
  6
Continuous
370
    -3
390
F
  0
LAYER
  5
30
330
2
100
AcDbSymbolTableRecord
100
AcDbLayerTableRecord
  2
STEMPEL
 70
     0
 62
     3
  6
Continuous
370
    -3
390
F
  0
LAYER
  5
33
330
2
100
AcDbSymbolTableRecord
100
AcDbLayerTableRecord
  2
TEXT
 70
     0
 62
     7
  6
Continuous
370
    -3
390
F
  0
LAYER
  5
283
330
2
100
AcDbSymbolTableRecord
100
AcDbLayerTableRecord
  2
49
 70
     0
 62
     7
  6
Continuous
370
    -3
390
F
  0
LAYER
  5
433
330
2
100
AcDbSymbolTableRecord
100
AcDbLayerTableRecord
  2
Defpoints
 70
     0
 62
     7
  6
Continuous
290
     0
370
    -3
390
F
  0
ENDTAB
  0
TABLE
  2
STYLE
  5
3
330
0
100
AcDbSymbolTable
 70
     3
  0
STYLE
  5
11
330
3
100
AcDbSymbolTableRecord
100
AcDbTextStyleTableRecord
  2
STANDARD
 70
     0
 40
0.0
 41
0.8
 50
0.0
 71
     0
 42
3.5
  3
simplex.shx
  4

  0
STYLE
  5
24
330
3
100
AcDbSymbolTableRecord
100
AcDbTextStyleTableRecord
  2
GREEKS
 70
     0
 40
0.0
 41
0.8
 50
0.0
 71
     0
 42
2.5
  3
SIMPLEX.shx
  4

  0
STYLE
  5
284
330
3
100
AcDbSymbolTableRecord
100
AcDbTextStyleTableRecord
  2
MONOTXT
 70
     0
 40
0.0
 41
1.0
 50
0.0
 71
     0
 42
1.0
  3
monotxt.shx
  4

  0
ENDTAB
  0
TABLE
  2
VIEW
  5
6
330
0
100
AcDbSymbolTable
 70
     0
  0
ENDTAB
  0
TABLE
  2
UCS
  5
7
330
0
100
AcDbSymbolTable
 70
     0
  0
ENDTAB
  0
TABLE
  2
APPID
  5
9
330
0
100
AcDbSymbolTable
 70
     1
  0
APPID
  5
12
330
9
100
AcDbSymbolTableRecord
100
AcDbRegAppTableRecord
  2
ACAD
 70
     0
  0
ENDTAB
  0
TABLE
  2
DIMSTYLE
  5
A
330
0
100
AcDbSymbolTable
 70
     1
100
AcDbDimStyleTable
 71
     1
340
A2
  0
DIMSTYLE
105
A2
102
{ACAD_REACTORS
330
432
330
440
330
44D
330
45C
330
561
102
}
330
A
100
AcDbSymbolTableRecord
100
AcDbDimStyleTableRecord
  2
Standard
 70
     0
340
11
  0
ENDTAB
  0
TABLE
  2
BLOCK_RECORD
  5
1
330
0
100
AcDbSymbolTable
 70
     7
  0
BLOCK_RECORD
  5
1E
102
{ACAD_XDICTIONARY
360
DB
102
}
330
1
100
AcDbSymbolTableRecord
100
AcDbBlockTableRecord
  2
*Model_Space
340
21
  0
BLOCK_RECORD
  5
1A
102
{ACAD_XDICTIONARY
360
DD
102
}
330
1
100
AcDbSymbolTableRecord
100
AcDbBlockTableRecord
  2
*Paper_Space
340
1D
  0
BLOCK_RECORD
  5
22
330
1
100
AcDbSymbolTableRecord
100
AcDbBlockTableRecord
  2
LOGO
340
0
102
{BLKREFS
331
4BF
102
}
  0
BLOCK_RECORD
  5
229
330
1
100
AcDbSymbolTableRecord
100
AcDbBlockTableRecord
  2
BEM_0007
340
0
102
{BLKREFS
331
3C6
102
}
  0
BLOCK_RECORD
  5
434
330
1
100
AcDbSymbolTableRecord
100
AcDbBlockTableRecord
  2
*D2
340
0
  0
BLOCK_RECORD
  5
441
330
1
100
AcDbSymbolTableRecord
100
AcDbBlockTableRecord
  2
*D3
340
0
  0
BLOCK_RECORD
  5
44E
330
1
100
AcDbSymbolTableRecord
100
AcDbBlockTableRecord
  2
*D4
340
0
  0
BLOCK_RECORD
  5
45D
330
1
100
AcDbSymbolTableRecord
100
AcDbBlockTableRecord
  2
*D5
340
0
  0
BLOCK_RECORD
  5
562
330
1
100
AcDbSymbolTableRecord
100
AcDbBlockTableRecord
  2
*D6
340
0
  0
ENDTAB
  0
ENDSEC
  0
SECTION
  2
BLOCKS
  0
BLOCK
  5
37
330
1E
100
AcDbEntity
  8
0
100
AcDbBlockBegin
  2
*Model_Space
 70
     0
 10
0.0
 20
0.0
 30
0.0
  3
*Model_Space
  1

  0
ENDBLK
  5
38
330
1E
100
AcDbEntity
  8
0
100
AcDbBlockEnd
  0
BLOCK
  5
35
330
1A
100
AcDbEntity
 67
     1
  8
0
100
AcDbBlockBegin
  2
*Paper_Space
 70
     0
 10
0.0
 20
0.0
 30
0.0
  3
*Paper_Space
  1

  0
ENDBLK
  5
36
330
1A
100
AcDbEntity
 67
     1
  8
0
100
AcDbBlockEnd
  0
BLOCK
  5
39
330
22
100
AcDbEntity
  8
0
100
AcDbBlockBegin
  2
LOGO
 70
     0
 10
0.0
 20
0.0
 30
0.0
  3
LOGO
  1

  0
ARC
  5
3A
330
22
100
AcDbEntity
  8
0
100
AcDbCircle
 10
11.59973089678112
 20
-9.271599258481501
 30
0.0
 40
4.5
100
AcDbArc
 50
270.0
 51
231.0575587310159
  0
LINE
  5
3B
330
22
100
AcDbEntity
  8
0
100
AcDbLine
 10
3.599730896781125
 20
-4.771599258481529
 30
0.0
 11
3.599730896781153
 21
-11.77159925848133
 31
0.0
  0
LINE
  5
3C
330
22
100
AcDbEntity
  8
0
100
AcDbLine
 10
2.599730896781125
 20
-4.771599258481529
 30
0.0
 11
2.599730896781153
 21
-11.77159925848133
 31
0.0
  0
CIRCLE
  5
3D
330
22
100
AcDbEntity
  8
0
100
AcDbCircle
 10
11.59973089678112
 20
-9.271599258481501
 30
0.0
 40
3.5
  0
ARC
  5
3E
330
22
100
AcDbEntity
  8
0
100
AcDbCircle
 10
31.59973089678115
 20
-9.271599258481472
 30
0.0
 40
4.5
100
AcDbArc
 50
270.0
 51
231.0575587310182
  0
LINE
  5
3F
330
22
100
AcDbEntity
  8
0
100
AcDbLine
 10
17.59973089678112
 20
-4.771599258481472
 30
0.0
 11
17.59973089678115
 21
-13.77159925848147
 31
0.0
  0
ARC
  5
40
330
22
100
AcDbEntity
  8
0
100
AcDbCircle
 10
22.59973089678116
 20
-7.271599258481472
 30
0.0
 40
2.5
100
AcDbArc
 50
293.1161887722295
 51
90.0
  0
CIRCLE
  5
41
330
22
100
AcDbEntity
  8
0
100
AcDbCircle
 10
31.59973089678115
 20
-9.271599258481472
 30
0.0
 40
3.5
  0
ARC
  5
42
330
22
100
AcDbEntity
  8
0
100
AcDbCircle
 10
4.599730896781153
 20
-11.77159925848133
 30
0.0
 40
1.0
100
AcDbArc
 50
180.0
 51
270.0
  0
ARC
  5
43
330
22
100
AcDbEntity
  8
0
100
AcDbCircle
 10
4.599730896781153
 20
-11.77159925848133
 30
0.0
 40
2.0
100
AcDbArc
 50
179.9999999999992
 51
270.0
  0
LINE
  5
44
330
22
100
AcDbEntity
  8
0
100
AcDbLine
 10
11.59973089678115
 20
-13.77159925848144
 30
0.0
 11
4.599730896781153
 21
-13.77159925848147
 31
0.0
  0
LINE
  5
45
330
22
100
AcDbEntity
  8
0
100
AcDbLine
 10
8.771303772034769
 20
-12.77159925848136
 30
0.0
 11
4.599730896781153
 21
-12.77159925848133
 31
0.0
  0
LINE
  5
46
330
22
100
AcDbEntity
  8
0
100
AcDbLine
 10
31.59973089678115
 20
-13.77159925848147
 30
0.0
 11
23.6715276665056
 21
-13.77159925848144
 31
0.0
  0
LINE
  5
47
330
22
100
AcDbEntity
  8
0
100
AcDbLine
 10
23.56565672307022
 20
-9.51278021337896
 30
0.0
 11
24.4388546544846
 21
-12.77159925848144
 31
0.0
  0
LINE
  5
48
330
22
100
AcDbEntity
  8
0
100
AcDbLine
 10
22.59973089678116
 20
-9.771599258481472
 30
0.0
 11
18.59973089678112
 21
-9.771599258481472
 31
0.0
  0
LINE
  5
49
330
22
100
AcDbEntity
  8
0
100
AcDbLine
 10
18.59973089678115
 20
-13.77159925848144
 30
0.0
 11
17.59973089678115
 21
-13.77159925848144
 31
0.0
  0
LINE
  5
4A
330
22
100
AcDbEntity
  8
0
100
AcDbLine
 10
18.59973089678115
 20
-9.771599258481472
 30
0.0
 11
18.59973089678115
 21
-13.77159925848144
 31
0.0
  0
LINE
  5
4B
330
22
100
AcDbEntity
  8
0
100
AcDbLine
 10
22.59973089678116
 20
-9.771599258481472
 30
0.0
 11
23.67152766650562
 21
-13.77159925848147
 31
0.0
  0
ARC
  5
4C
330
22
100
AcDbEntity
  8
0
100
AcDbCircle
 10
22.59973089678116
 20
-7.271599258481472
 30
0.0
 40
2.5
100
AcDbArc
 50
270.0
 51
270.0000000000007
  0
LINE
  5
4D
330
22
100
AcDbEntity
  8
0
100
AcDbLine
 10
28.77130377203494
 20
-12.77159925848147
 30
0.0
 11
24.43885465448463
 21
-12.77159925848144
 31
0.0
  0
LINE
  5
4E
330
22
100
AcDbEntity
  8
0
100
AcDbLine
 10
3.599730896781125
 20
-4.771599258481472
 30
0.0
 11
2.599730896781125
 21
-4.771599258481472
 31
0.0
  0
LINE
  5
4F
330
22
100
AcDbEntity
  8
0
100
AcDbLine
 10
22.59973089678116
 20
-8.771599258481472
 30
0.0
 11
18.59973089678115
 21
-8.771599258481472
 31
0.0
  0
LINE
  5
50
330
22
100
AcDbEntity
  8
0
100
AcDbLine
 10
22.59973089678116
 20
-5.771599258481472
 30
0.0
 11
18.59973089678115
 21
-5.771599258481472
 31
0.0
  0
LINE
  5
51
330
22
100
AcDbEntity
  8
0
100
AcDbLine
 10
22.59973089678116
 20
-4.771599258481472
 30
0.0
 11
17.59973089678115
 21
-4.771599258481472
 31
0.0
  0
LINE
  5
52
330
22
100
AcDbEntity
  8
0
100
AcDbLine
 10
18.59973089678115
 20
-5.771599258481472
 30
0.0
 11
18.59973089678115
 21
-8.771599258481472
 31
0.0
  0
ARC
  5
53
330
22
100
AcDbEntity
  8
0
100
AcDbCircle
 10
22.59973089678116
 20
-7.271599258481472
 30
0.0
 40
1.5
100
AcDbArc
 50
270.0
 51
90.0
  0
ENDBLK
  5
54
330
22
100
AcDbEntity
  8
0
100
AcDbBlockEnd
  0
BLOCK
  5
22A
330
229
100
AcDbEntity
  8
0
100
AcDbBlockBegin
  2
BEM_0007
 70
     0
 10
153.633
 20
129.459
 30
0.0
  3
BEM_0007
  1

  0
LINE
  5
22B
330
229
100
AcDbEntity
  8
49
 62
     4
100
AcDbLine
 10
151.028
 20
132.495
 30
0.0
 11
153.633
 21
129.459
 31
0.0
  0
LINE
  5
22C
330
229
100
AcDbEntity
  8
49
 62
     4
100
AcDbLine
 10
153.633
 20
129.459
 30
0.0
 11
158.727
 21
135.807
 31
0.0
  0
LINE
  5
22D
330
229
100
AcDbEntity
  8
49
 62
     4
100
AcDbLine
 10
158.727
 20
135.807
 30
0.0
 11
160.681
 21
133.531
 31
0.0
  0
LINE
  5
22E
330
229
100
AcDbEntity
  8
49
 62
     4
100
AcDbLine
 10
160.681
 20
133.531
 30
0.0
 11
153.633
 21
129.459
 31
0.0
  0
LINE
  5
22F
330
229
100
AcDbEntity
  8
49
 62
     4
100
AcDbLine
 10
159.552
 20
134.539
 30
0.0
 11
153.785
 21
129.59
 31
0.0
  0
LINE
  5
230
330
229
100
AcDbEntity
  8
49
 62
     4
100
AcDbLine
 10
159.813
 20
134.235
 30
0.0
 11
155.6639999999999
 21
130.675
 31
0.0
  0
LINE
  5
231
330
229
100
AcDbEntity
  8
49
 62
     4
100
AcDbLine
 10
159.292
 20
134.842
 30
0.0
 11
155.143
 21
131.282
 31
0.0
  0
LINE
  5
232
330
229
100
AcDbEntity
  8
49
 62
     4
100
AcDbLine
 10
160.073
 20
133.932
 30
0.0
 11
157.544
 21
131.761
 31
0.0
  0
LINE
  5
233
330
229
100
AcDbEntity
  8
49
 62
     4
100
AcDbLine
 10
159.031
 20
135.146
 30
0.0
 11
156.502
 21
132.975
 31
0.0
  0
LINE
  5
234
330
229
100
AcDbEntity
  8
49
 62
     4
100
AcDbLine
 10
160.334
 20
133.628
 30
0.0
 11
159.423
 21
132.847
 31
0.0
  0
LINE
  5
235
330
229
100
AcDbEntity
  8
49
 62
     4
100
AcDbLine
 10
158.771
 20
135.45
 30
0.0
 11
157.86
 21
134.668
 31
0.0
  0
LINE
  5
236
330
229
100
AcDbEntity
  8
49
 62
     4
100
AcDbLine
 10
396.908
 20
343.491
 30
0.0
 11
399.512
 21
340.455
 31
0.0
  0
LINE
  5
237
330
229
100
AcDbEntity
  8
49
 62
     4
100
AcDbLine
 10
399.512
 20
340.455
 30
0.0
 11
394.418
 21
334.107
 31
0.0
  0
LINE
  5
238
330
229
100
AcDbEntity
  8
49
 62
     4
100
AcDbLine
 10
394.418
 20
334.107
 30
0.0
 11
392.465
 21
336.384
 31
0.0
  0
LINE
  5
239
330
229
100
AcDbEntity
  8
49
 62
     4
100
AcDbLine
 10
392.465
 20
336.384
 30
0.0
 11
399.512
 21
340.455
 31
0.0
  0
LINE
  5
23A
330
229
100
AcDbEntity
  8
49
 62
     4
100
AcDbLine
 10
393.593
 20
335.376
 30
0.0
 11
399.361
 21
340.325
 31
0.0
  0
LINE
  5
23B
330
229
100
AcDbEntity
  8
49
 62
     4
100
AcDbLine
 10
393.333
 20
335.679
 30
0.0
 11
397.481
 21
339.239
 31
0.0
  0
LINE
  5
23C
330
229
100
AcDbEntity
  8
49
 62
     4
100
AcDbLine
 10
393.854
 20
335.072
 30
0.0
 11
398.002
 21
338.632
 31
0.0
  0
LINE
  5
23D
330
229
100
AcDbEntity
  8
49
 62
     4
100
AcDbLine
 10
393.072
 20
335.983
 30
0.0
 11
395.602
 21
338.154
 31
0.0
  0
LINE
  5
23E
330
229
100
AcDbEntity
  8
49
 62
     4
100
AcDbLine
 10
394.114
 20
334.769
 30
0.0
 11
396.644
 21
336.939
 31
0.0
  0
LINE
  5
23F
330
229
100
AcDbEntity
  8
49
 62
     4
100
AcDbLine
 10
392.812
 20
336.286
 30
0.0
 11
393.722
 21
337.068
 31
0.0
  0
LINE
  5
240
330
229
100
AcDbEntity
  8
49
 62
     4
100
AcDbLine
 10
394.375
 20
334.465
 30
0.0
 11
395.285
 21
335.247
 31
0.0
  0
LINE
  5
241
330
229
100
AcDbEntity
  8
49
 62
     4
100
AcDbLine
 10
159.704
 20
134.669
 30
0.0
 11
393.441
 21
335.245
 31
0.0
  0
TEXT
  5
242
330
229
100
AcDbEntity
  8
49
 62
     2
100
AcDbText
 10
315.387
 20
272.218
 30
0.0
 40
7.0
  1
324
 50
40.633787833
 41
0.625
  7
MONOTXT
100
AcDbText
  0
TEXT
  5
243
330
229
100
AcDbEntity
  8
49
 62
     2
100
AcDbText
 10
309.423
 20
268.418
 30
0.0
 40
7.0
  1
ø
 50
40.633787833
 41
0.625
  7
MONOTXT
100
AcDbText
  0
ENDBLK
  5
244
330
229
100
AcDbEntity
  8
0
100
AcDbBlockEnd
  0
BLOCK
  5
43E
330
434
100
AcDbEntity
  8
0
100
AcDbBlockBegin
  2
*D2
 70
     1
 10
0.0
 20
0.0
 30
0.0
  3
*D2
  1

  0
LINE
  5
435
330
434
100
AcDbEntity
  8
BEM
 62
     0
370
    -2
100
AcDbLine
 10
82.18343938721194
 20
262.4423581158649
 30
0.0
 11
82.18343938721194
 21
231.533419615
 31
0.0
  0
LINE
  5
436
330
434
100
AcDbEntity
  8
BEM
 62
     0
370
    -2
100
AcDbLine
 10
440.1834393872118
 20
262.4423581158649
 30
0.0
 11
440.1834393872118
 21
231.533419615
 31
0.0
  0
LINE
  5
437
330
434
100
AcDbEntity
  8
BEM
 62
     0
370
    -2
100
AcDbLine
 10
89.18343938721193
 20
233.533419615
 30
0.0
 11
433.1834393872118
 21
233.533419615
 31
0.0
  0
SOLID
  5
438
330
434
100
AcDbEntity
  8
BEM
 62
     0
100
AcDbTrace
 10
89.18343938721193
 20
234.7000862816666
 30
0.0
 11
89.18343938721193
 21
232.3667529483333
 31
0.0
 12
82.18343938721194
 22
233.533419615
 32
0.0
 13
82.18343938721194
 23
233.533419615
 33
0.0
  0
SOLID
  5
439
330
434
100
AcDbEntity
  8
BEM
 62
     0
100
AcDbTrace
 10
433.1834393872118
 20
234.7000862816666
 30
0.0
 11
433.1834393872118
 21
232.3667529483333
 31
0.0
 12
440.1834393872118
 22
233.533419615
 32
0.0
 13
440.1834393872118
 23
233.533419615
 33
0.0
  0
MTEXT
  5
43A
330
434
100
AcDbEntity
  8
BEM
 62
     1
100
AcDbMText
 10
261.1834393872119
 20
240.033419615
 30
0.0
 40
7.0
 41
0.0
 71
     5
 72
     1
  1
\A1;358
 73
     1
 44
1.0
  0
POINT
  5
43B
330
434
100
AcDbEntity
  8
Defpoints
 62
     0
100
AcDbPoint
 10
82.18343938721194
 20
264.4423581158649
 30
0.0
  0
POINT
  5
43C
330
434
100
AcDbEntity
  8
Defpoints
 62
     0
100
AcDbPoint
 10
440.1834393872118
 20
264.4423581158649
 30
0.0
  0
POINT
  5
43D
330
434
100
AcDbEntity
  8
Defpoints
 62
     0
100
AcDbPoint
 10
440.1834393872118
 20
233.533419615
 30
0.0
  0
ENDBLK
  5
43F
330
434
100
AcDbEntity
  8
0
100
AcDbBlockEnd
  0
BLOCK
  5
44B
330
441
100
AcDbEntity
  8
0
100
AcDbBlockBegin
  2
*D3
 70
     1
 10
0.0
 20
0.0
 30
0.0
  3
*D3
  1

  0
LINE
  5
442
330
441
100
AcDbEntity
  8
BEM
 62
     0
370
    -2
100
AcDbLine
 10
451.1834393872119
 20
273.942358115865
 30
0.0
 11
451.1834393872119
 21
215.3915361069951
 31
0.0
  0
LINE
  5
443
330
441
100
AcDbEntity
  8
BEM
 62
     0
370
    -2
100
AcDbLine
 10
71.18343938721193
 20
273.942358115865
 30
0.0
 11
71.18343938721193
 21
215.3915361069951
 31
0.0
  0
LINE
  5
444
330
441
100
AcDbEntity
  8
BEM
 62
     0
370
    -2
100
AcDbLine
 10
444.1834393872119
 20
217.3915361069951
 30
0.0
 11
78.18343938721193
 21
217.3915361069951
 31
0.0
  0
SOLID
  5
445
330
441
100
AcDbEntity
  8
BEM
 62
     0
100
AcDbTrace
 10
444.1834393872119
 20
218.5582027736618
 30
0.0
 11
444.1834393872119
 21
216.2248694403285
 31
0.0
 12
451.1834393872119
 22
217.3915361069951
 32
0.0
 13
451.1834393872119
 23
217.3915361069951
 33
0.0
  0
SOLID
  5
446
330
441
100
AcDbEntity
  8
BEM
 62
     0
100
AcDbTrace
 10
78.18343938721193
 20
218.5582027736618
 30
0.0
 11
78.18343938721193
 21
216.2248694403285
 31
0.0
 12
71.18343938721193
 22
217.3915361069951
 32
0.0
 13
71.18343938721193
 23
217.3915361069951
 33
0.0
  0
MTEXT
  5
447
330
441
100
AcDbEntity
  8
BEM
 62
     1
100
AcDbMText
 10
261.1834393872119
 20
223.8915361069951
 30
0.0
 40
7.0
 41
0.0
 71
     5
 72
     1
  1
\A1;380
 73
     1
 44
1.0
  0
POINT
  5
448
330
441
100
AcDbEntity
  8
Defpoints
 62
     0
100
AcDbPoint
 10
451.1834393872119
 20
275.942358115865
 30
0.0
  0
POINT
  5
449
330
441
100
AcDbEntity
  8
Defpoints
 62
     0
100
AcDbPoint
 10
71.18343938721193
 20
275.942358115865
 30
0.0
  0
POINT
  5
44A
330
441
100
AcDbEntity
  8
Defpoints
 62
     0
100
AcDbPoint
 10
71.18343938721193
 20
217.3915361069951
 30
0.0
  0
ENDBLK
  5
44C
330
441
100
AcDbEntity
  8
0
100
AcDbBlockEnd
  0
BLOCK
  5
45A
330
44E
100
AcDbEntity
  8
0
100
AcDbBlockBegin
  2
*D4
 70
     1
 10
0.0
 20
0.0
 30
0.0
  3
*D4
  1

  0
LINE
  5
44F
330
44E
100
AcDbEntity
  8
BEM
 62
     0
370
    -2
100
AcDbLine
 10
69.69043938721194
 20
531.2245430968208
 30
0.0
 11
60.72826919156523
 21
531.2245430968208
 31
0.0
  0
LINE
  5
450
330
44E
100
AcDbEntity
  8
BEM
 62
     0
370
    -2
100
AcDbLine
 10
69.69043938721194
 20
534.2245430968208
 30
0.0
 11
60.72826919156523
 21
534.2245430968208
 31
0.0
  0
LINE
  5
451
330
44E
100
AcDbEntity
  8
BEM
 62
     0
370
    -2
100
AcDbLine
 10
62.72826919156522
 20
524.2245430968209
 30
0.0
 11
62.72826919156522
 21
517.2245430968208
 31
0.0
  0
LINE
  5
452
330
44E
100
AcDbEntity
  8
BEM
 62
     0
370
    -2
100
AcDbLine
 10
62.72826919156523
 20
541.2245430968209
 30
0.0
 11
62.72826919156523
 21
557.9578764301542
 31
0.0
  0
LINE
  5
453
330
44E
100
AcDbEntity
  8
BEM
 62
     0
370
    -2
100
AcDbLine
 10
62.72826919156523
 20
531.2245430968208
 30
0.0
 11
62.72826919156523
 21
534.2245430968208
 31
0.0
  0
SOLID
  5
454
330
44E
100
AcDbEntity
  8
BEM
 62
     0
100
AcDbTrace
 10
61.56160252489856
 20
524.2245430968209
 30
0.0
 11
63.89493585823188
 21
524.2245430968209
 31
0.0
 12
62.72826919156523
 22
531.2245430968208
 32
0.0
 13
62.72826919156523
 23
531.2245430968208
 33
0.0
  0
SOLID
  5
455
330
44E
100
AcDbEntity
  8
BEM
 62
     0
100
AcDbTrace
 10
61.56160252489857
 20
541.2245430968209
 30
0.0
 11
63.89493585823189
 21
541.2245430968209
 31
0.0
 12
62.72826919156523
 22
534.2245430968208
 32
0.0
 13
62.72826919156523
 23
534.2245430968208
 33
0.0
  0
MTEXT
  5
456
330
44E
100
AcDbEntity
  8
BEM
 62
     1
100
AcDbMText
 10
56.22826919156515
 20
553.0912097634875
 30
0.0
 40
7.0
 41
0.0
 71
     5
 72
     1
  1
\A1;3
 11
0.0000000000000001
 21
1.0
 31
0.0
 73
     1
 44
1.0
  0
POINT
  5
457
330
44E
100
AcDbEntity
  8
Defpoints
 62
     0
100
AcDbPoint
 10
71.69043938721194
 20
531.2245430968208
 30
0.0
  0
POINT
  5
458
330
44E
100
AcDbEntity
  8
Defpoints
 62
     0
100
AcDbPoint
 10
71.69043938721194
 20
534.2245430968208
 30
0.0
  0
POINT
  5
459
330
44E
100
AcDbEntity
  8
Defpoints
 62
     0
100
AcDbPoint
 10
62.72826919156523
 20
534.2245430968208
 30
0.0
  0
ENDBLK
  5
45B
330
44E
100
AcDbEntity
  8
0
100
AcDbBlockEnd
  0
BLOCK
  5
467
330
45D
100
AcDbEntity
  8
0
100
AcDbBlockBegin
  2
*D5
 70
     1
 10
0.0
 20
0.0
 30
0.0
  3
*D5
  1

  0
LINE
  5
45E
330
45D
100
AcDbEntity
  8
BEM
 62
     0
370
    -2
100
AcDbLine
 10
259.1834393872119
 20
697.7245430968208
 30
0.0
 11
45.18183118014626
 21
697.724543096821
 31
0.0
  0
LINE
  5
45F
330
45D
100
AcDbEntity
  8
BEM
 62
     0
370
    -2
100
AcDbLine
 10
251.388439387212
 20
353.7245430968209
 30
0.0
 11
45.18183118014615
 21
353.7245430968209
 31
0.0
  0
LINE
  5
460
330
45D
100
AcDbEntity
  8
BEM
 62
     0
370
    -2
100
AcDbLine
 10
47.18183118014624
 20
690.724543096821
 30
0.0
 11
47.18183118014617
 21
360.7245430968209
 31
0.0
  0
SOLID
  5
461
330
45D
100
AcDbEntity
  8
BEM
 62
     0
100
AcDbTrace
 10
46.01516451347958
 20
690.724543096821
 30
0.0
 11
48.34849784681291
 21
690.724543096821
 31
0.0
 12
47.18183118014624
 22
697.724543096821
 32
0.0
 13
47.18183118014624
 23
697.724543096821
 33
0.0
  0
SOLID
  5
462
330
45D
100
AcDbEntity
  8
BEM
 62
     0
100
AcDbTrace
 10
46.0151645134795
 20
360.7245430968209
 30
0.0
 11
48.34849784681283
 21
360.7245430968209
 31
0.0
 12
47.18183118014617
 22
353.7245430968209
 32
0.0
 13
47.18183118014617
 23
353.7245430968209
 33
0.0
  0
MTEXT
  5
463
330
45D
100
AcDbEntity
  8
BEM
 62
     1
100
AcDbMText
 10
40.68183118014612
 20
525.7245430968209
 30
0.0
 40
7.0
 41
0.0
 71
     5
 72
     1
  1
\A1;344
 11
0.0000000000000001
 21
1.0
 31
0.0
 73
     1
 44
1.0
  0
POINT
  5
464
330
45D
100
AcDbEntity
  8
Defpoints
 62
     0
100
AcDbPoint
 10
261.1834393872119
 20
697.7245430968208
 30
0.0
  0
POINT
  5
465
330
45D
100
AcDbEntity
  8
Defpoints
 62
     0
100
AcDbPoint
 10
253.388439387212
 20
353.7245430968209
 30
0.0
  0
POINT
  5
466
330
45D
100
AcDbEntity
  8
Defpoints
 62
     0
100
AcDbPoint
 10
47.18183118014617
 20
353.7245430968209
 30
0.0
  0
ENDBLK
  5
468
330
45D
100
AcDbEntity
  8
0
100
AcDbBlockEnd
  0
BLOCK
  5
56C
330
562
100
AcDbEntity
  8
0
100
AcDbBlockBegin
  2
*D6
 70
     1
 10
0.0
 20
0.0
 30
0.0
  3
*D6
  1

  0
LINE
  5
563
330
562
100
AcDbEntity
  8
BEM
 62
     0
370
    -2
100
AcDbLine
 10
74.54243938721197
 20
295.942358115865
 30
0.0
 11
55.33714233024376
 21
295.942358115865
 31
0.0
  0
LINE
  5
564
330
562
100
AcDbEntity
  8
BEM
 62
     0
370
    -2
100
AcDbLine
 10
74.54243938721197
 20
255.942358115865
 30
0.0
 11
55.33714233024375
 21
255.942358115865
 31
0.0
  0
LINE
  5
565
330
562
100
AcDbEntity
  8
BEM
 62
     0
370
    -2
100
AcDbLine
 10
57.33714233024375
 20
288.942358115865
 30
0.0
 11
57.33714233024375
 21
262.942358115865
 31
0.0
  0
SOLID
  5
566
330
562
100
AcDbEntity
  8
BEM
 62
     0
100
AcDbTrace
 10
56.17047566357709
 20
288.942358115865
 30
0.0
 11
58.50380899691042
 21
288.942358115865
 31
0.0
 12
57.33714233024375
 22
295.942358115865
 32
0.0
 13
57.33714233024375
 23
295.942358115865
 33
0.0
  0
SOLID
  5
567
330
562
100
AcDbEntity
  8
BEM
 62
     0
100
AcDbTrace
 10
56.17047566357708
 20
262.942358115865
 30
0.0
 11
58.50380899691042
 21
262.942358115865
 31
0.0
 12
57.33714233024375
 22
255.942358115865
 32
0.0
 13
57.33714233024375
 23
255.942358115865
 33
0.0
  0
MTEXT
  5
568
330
562
100
AcDbEntity
  8
BEM
 62
     1
100
AcDbMText
 10
50.8371423302437
 20
275.942358115865
 30
0.0
 40
7.0
 41
0.0
 71
     5
 72
     1
  1
\A1;40
 11
0.0000000000000001
 21
1.0
 31
0.0
 73
     1
 44
1.0
  0
POINT
  5
569
330
562
100
AcDbEntity
  8
Defpoints
 62
     0
100
AcDbPoint
 10
76.54243938721197
 20
295.942358115865
 30
0.0
  0
POINT
  5
56A
330
562
100
AcDbEntity
  8
Defpoints
 62
     0
100
AcDbPoint
 10
76.54243938721197
 20
255.942358115865
 30
0.0
  0
POINT
  5
56B
330
562
100
AcDbEntity
  8
Defpoints
 62
     0
100
AcDbPoint
 10
57.33714233024375
 20
255.942358115865
 30
0.0
  0
ENDBLK
  5
56D
330
562
100
AcDbEntity
  8
0
100
AcDbBlockEnd
  0
ENDSEC
  0
SECTION
  2
ENTITIES
  0
LINE
  5
87
330
1E
100
AcDbEntity
  8
HILF
100
AcDbLine
 10
594.0
 20
-0.0000000000000568
 30
0.0
 11
594.0
 21
840.0
 31
0.0
  0
LINE
  5
88
330
1E
100
AcDbEntity
  8
HILF
100
AcDbLine
 10
594.0
 20
840.0
 30
0.0
 11
0.0
 21
840.0
 31
0.0
  0
LINE
  5
89
330
1E
100
AcDbEntity
  8
HILF
100
AcDbLine
 10
0.0
 20
840.0
 30
0.0
 11
0.0
 21
0.0
 31
0.0
  0
LINE
  5
8B
330
1E
100
AcDbEntity
  8
STEMPEL
100
AcDbLine
 10
10.0
 20
830.0
 30
0.0
 11
10.0
 21
39.99999999999995
 31
0.0
  0
LINE
  5
8D
330
1E
100
AcDbEntity
  8
STEMPEL
100
AcDbLine
 10
584.0
 20
39.99999999999995
 30
0.0
 11
584.0
 21
830.0
 31
0.0
  0
LINE
  5
8E
330
1E
100
AcDbEntity
  8
STEMPEL
100
AcDbLine
 10
584.0
 20
830.0
 30
0.0
 11
10.0
 21
830.0
 31
0.0
  0
LINE
  5
9C
330
1E
100
AcDbEntity
  8
BEM
100
AcDbLine
 10
594.0
 20
455.9999999999999
 30
0.0
 11
584.0
 21
455.9999999999999
 31
0.0
  0
LINE
  5
13E
330
1E
100
AcDbEntity
  8
HILF
100
AcDbLine
 10
594.0
 20
-0.0000000000000568
 30
0.0
 11
0.0
 21
0.0
 31
0.0
  0
LINE
  5
13F
330
1E
100
AcDbEntity
  8
STEMPEL
100
AcDbLine
 10
584.0
 20
39.99999999999995
 30
0.0
 11
10.0
 21
39.99999999999995
 31
0.0
  0
LINE
  5
14A
330
1E
100
AcDbEntity
  8
HILF
100
AcDbLine
 10
297.0
 20
-0.0000000000000568
 30
0.0
 11
297.0
 21
39.99999999999995
 31
0.0
  0
TEXT
  5
15B
330
1E
100
AcDbEntity
  8
BEM
100
AcDbText
 10
583.8320989200114
 20
837.3022923857165
 30
0.0
 40
4.0
  1
Diese Zeichnung ist urheberrechtlich geschützt und bleibt unser Eigentum. Sie darf weder ganz noch teilweise verfielfältigt und nicht an Dritte weitergegeben werden.
 50
180.0
 41
0.8
  7
GREEKS
100
AcDbText
  0
LINE
  5
34A
330
1E
100
AcDbEntity
  8
HILF
100
AcDbLine
 10
436.4254393872119
 20
507.2245430968208
 30
0.0
 11
436.4254393872119
 21
525.2245430968208
 31
0.0
  0
LINE
  5
34B
330
1E
100
AcDbEntity
  8
HILF
100
AcDbLine
 10
442.925439387212
 20
507.2245430968208
 30
0.0
 11
442.925439387212
 21
525.2245430968208
 31
0.0
  0
LINE
  5
34C
330
1E
100
AcDbEntity
  8
STEMPEL
100
AcDbLine
 10
443.6754393872119
 20
507.9745430968208
 30
0.0
 11
435.6754393872119
 21
507.9745430968208
 31
0.0
  0
LINE
  5
34D
330
1E
100
AcDbEntity
  8
HILF
100
AcDbLine
 10
436.4254393872119
 20
532.9745430968208
 30
0.0
 11
436.4254393872119
 21
534.2245430968208
 31
0.0
  0
LINE
  5
34E
330
1E
100
AcDbEntity
  8
HILF
100
AcDbLine
 10
436.4254393872119
 20
531.2245430968208
 30
0.0
 11
436.4254393872119
 21
532.4745430968208
 31
0.0
  0
LINE
  5
34F
330
1E
100
AcDbEntity
  8
HILF
100
AcDbLine
 10
442.925439387212
 20
532.9745430968208
 30
0.0
 11
442.925439387212
 21
534.2245430968208
 31
0.0
  0
LINE
  5
350
330
1E
100
AcDbEntity
  8
HILF
100
AcDbLine
 10
442.925439387212
 20
531.2245430968208
 30
0.0
 11
442.925439387212
 21
532.4745430968208
 31
0.0
  0
LINE
  5
351
330
1E
100
AcDbEntity
  8
STEMPEL
100
AcDbLine
 10
435.6754393872119
 20
532.9745430968208
 30
0.0
 11
435.6754393872119
 21
534.2245430968208
 31
0.0
  0
LINE
  5
352
330
1E
100
AcDbEntity
  8
STEMPEL
100
AcDbLine
 10
435.6754393872119
 20
531.2245430968208
 30
0.0
 11
435.6754393872119
 21
532.4745430968208
 31
0.0
  0
LINE
  5
353
330
1E
100
AcDbEntity
  8
STEMPEL
100
AcDbLine
 10
443.6754393872119
 20
532.4745430968208
 30
0.0
 11
443.6754393872119
 21
531.2245430968208
 31
0.0
  0
LINE
  5
354
330
1E
100
AcDbEntity
  8
STEMPEL
100
AcDbLine
 10
443.6754393872119
 20
534.2245430968208
 30
0.0
 11
443.6754393872119
 21
532.9745430968208
 31
0.0
  0
ARC
  5
355
330
1E
100
AcDbEntity
  8
STEMPEL
100
AcDbCircle
 10
439.6754393872119
 20
531.3665430968208
 30
0.0
 40
11.158
100
AcDbArc
 50
95.91552076699985
 51
109.6528596319998
  0
ARC
  5
356
330
1E
100
AcDbEntity
  8
STEMPEL
100
AcDbCircle
 10
439.6754393872119
 20
531.3665430968208
 30
0.0
 40
11.158
100
AcDbArc
 50
70.34714036800012
 51
84.08447923300014
  0
LINE
  5
357
330
1E
100
AcDbEntity
  8
STEMPEL
100
AcDbLine
 10
438.5254393872119
 20
542.5245430968209
 30
0.0
 11
434.0464393872119
 21
542.5245430968209
 31
0.0
  0
LINE
  5
358
330
1E
100
AcDbEntity
  8
STEMPEL
100
AcDbLine
 10
438.5254393872119
 20
540.0245430968209
 30
0.0
 11
438.5254393872119
 21
542.5245430968209
 31
0.0
  0
LINE
  5
359
330
1E
100
AcDbEntity
  8
STEMPEL
100
AcDbLine
 10
440.8254393872119
 20
540.0245430968209
 30
0.0
 11
438.5254393872119
 21
540.0245430968209
 31
0.0
  0
LINE
  5
35A
330
1E
100
AcDbEntity
  8
STEMPEL
100
AcDbLine
 10
440.8254393872119
 20
542.5245430968209
 30
0.0
 11
440.8254393872119
 21
540.0245430968209
 31
0.0
  0
LINE
  5
35B
330
1E
100
AcDbEntity
  8
STEMPEL
100
AcDbLine
 10
445.304439387212
 20
542.5245430968209
 30
0.0
 11
440.8254393872119
 21
542.5245430968209
 31
0.0
  0
LINE
  5
35C
330
1E
100
AcDbEntity
  8
STEMPEL
100
AcDbLine
 10
435.6754393872119
 20
507.9745430968208
 30
0.0
 11
435.6754393872119
 21
525.2245430968208
 31
0.0
  0
LINE
  5
35D
330
1E
100
AcDbEntity
  8
STEMPEL
100
AcDbLine
 10
436.4254393872119
 20
507.2245430968208
 30
0.0
 11
435.6754393872119
 21
507.9745430968208
 31
0.0
  0
LINE
  5
35E
330
1E
100
AcDbEntity
  8
STEMPEL
100
AcDbLine
 10
442.925439387212
 20
507.2245430968208
 30
0.0
 11
436.4254393872119
 21
507.2245430968208
 31
0.0
  0
LINE
  5
35F
330
1E
100
AcDbEntity
  8
STEMPEL
100
AcDbLine
 10
443.6754393872119
 20
507.9745430968208
 30
0.0
 11
442.925439387212
 21
507.2245430968208
 31
0.0
  0
LINE
  5
360
330
1E
100
AcDbEntity
  8
STEMPEL
100
AcDbLine
 10
443.6754393872119
 20
525.2245430968208
 30
0.0
 11
443.6754393872119
 21
507.9745430968208
 31
0.0
  0
LINE
  5
361
330
1E
100
AcDbEntity
  8
STEMPEL
100
AcDbLine
 10
443.4284393872119
 20
541.8745430968208
 30
0.0
 11
443.4284393872119
 21
537.2245430968209
 31
0.0
  0
ARC
  5
362
330
1E
100
AcDbEntity
  8
STEMPEL
100
AcDbCircle
 10
445.304439387212
 20
539.4915430968207
 30
0.0
 40
3.032999999999999
100
AcDbArc
 50
90.0
 51
128.2132107019998
  0
ARC
  5
363
330
1E
100
AcDbEntity
  8
STEMPEL
100
AcDbCircle
 10
445.304439387212
 20
539.4915430968207
 30
0.0
 40
3.032999999999999
100
AcDbArc
 50
51.78678929800013
 51
90.0
  0
LINE
  5
364
330
1E
100
AcDbEntity
  8
STEMPEL
100
AcDbLine
 10
447.1814393872119
 20
537.2245430968209
 30
0.0
 11
447.1814393872119
 21
541.8745430968208
 31
0.0
  0
LINE
  5
365
330
1E
100
AcDbEntity
  8
STEMPEL
100
AcDbLine
 10
444.0754393872119
 20
537.2245430968209
 30
0.0
 11
447.1814393872119
 21
537.2245430968209
 31
0.0
  0
LINE
  5
366
330
1E
100
AcDbEntity
  8
STEMPEL
100
AcDbLine
 10
435.2754393872119
 20
537.2245430968209
 30
0.0
 11
444.0754393872119
 21
537.2245430968209
 31
0.0
  0
LINE
  5
367
330
1E
100
AcDbEntity
  8
STEMPEL
100
AcDbLine
 10
432.1704393872119
 20
537.2245430968209
 30
0.0
 11
435.2754393872119
 21
537.2245430968209
 31
0.0
  0
LINE
  5
368
330
1E
100
AcDbEntity
  8
STEMPEL
100
AcDbLine
 10
432.1704393872119
 20
541.8745430968208
 30
0.0
 11
432.1704393872119
 21
537.2245430968209
 31
0.0
  0
ARC
  5
369
330
1E
100
AcDbEntity
  8
STEMPEL
100
AcDbCircle
 10
434.0464393872119
 20
539.4915430968207
 30
0.0
 40
3.032999999999999
100
AcDbArc
 50
90.0
 51
128.2132107019998
  0
ARC
  5
36A
330
1E
100
AcDbEntity
  8
STEMPEL
100
AcDbCircle
 10
434.0464393872119
 20
539.4915430968207
 30
0.0
 40
3.032999999999999
100
AcDbArc
 50
51.78678929800013
 51
90.0
  0
LINE
  5
36B
330
1E
100
AcDbEntity
  8
STEMPEL
100
AcDbLine
 10
435.922439387212
 20
537.2245430968209
 30
0.0
 11
435.922439387212
 21
541.8745430968208
 31
0.0
  0
LINE
  5
36C
330
1E
100
AcDbEntity
  8
HILF
100
AcDbLine
 10
79.44043938721193
 20
507.2245430968208
 30
0.0
 11
79.44043938721193
 21
525.2245430968208
 31
0.0
  0
LINE
  5
36D
330
1E
100
AcDbEntity
  8
HILF
100
AcDbLine
 10
85.94043938721194
 20
507.2245430968208
 30
0.0
 11
85.94043938721194
 21
525.2245430968208
 31
0.0
  0
LINE
  5
36E
330
1E
100
AcDbEntity
  8
STEMPEL
100
AcDbLine
 10
86.69043938721193
 20
507.9745430968208
 30
0.0
 11
78.69043938721194
 21
507.9745430968208
 31
0.0
  0
LINE
  5
36F
330
1E
100
AcDbEntity
  8
HILF
100
AcDbLine
 10
79.44043938721193
 20
532.9745430968208
 30
0.0
 11
79.44043938721193
 21
534.2245430968208
 31
0.0
  0
LINE
  5
370
330
1E
100
AcDbEntity
  8
HILF
100
AcDbLine
 10
79.44043938721193
 20
531.2245430968208
 30
0.0
 11
79.44043938721193
 21
532.4745430968208
 31
0.0
  0
LINE
  5
371
330
1E
100
AcDbEntity
  8
HILF
100
AcDbLine
 10
85.94043938721194
 20
532.9745430968208
 30
0.0
 11
85.94043938721194
 21
534.2245430968208
 31
0.0
  0
LINE
  5
372
330
1E
100
AcDbEntity
  8
HILF
100
AcDbLine
 10
85.94043938721194
 20
531.2245430968208
 30
0.0
 11
85.94043938721194
 21
532.4745430968208
 31
0.0
  0
LINE
  5
373
330
1E
100
AcDbEntity
  8
STEMPEL
100
AcDbLine
 10
78.69043938721194
 20
532.9745430968208
 30
0.0
 11
78.69043938721194
 21
534.2245430968208
 31
0.0
  0
LINE
  5
374
330
1E
100
AcDbEntity
  8
STEMPEL
100
AcDbLine
 10
78.69043938721194
 20
531.2245430968208
 30
0.0
 11
78.69043938721194
 21
532.4745430968208
 31
0.0
  0
LINE
  5
375
330
1E
100
AcDbEntity
  8
STEMPEL
100
AcDbLine
 10
86.69043938721193
 20
532.4745430968208
 30
0.0
 11
86.69043938721193
 21
531.2245430968208
 31
0.0
  0
LINE
  5
376
330
1E
100
AcDbEntity
  8
STEMPEL
100
AcDbLine
 10
86.69043938721193
 20
534.2245430968208
 30
0.0
 11
86.69043938721193
 21
532.9745430968208
 31
0.0
  0
ARC
  5
377
330
1E
100
AcDbEntity
  8
STEMPEL
100
AcDbCircle
 10
82.69043938721194
 20
531.3665430968208
 30
0.0
 40
11.158
100
AcDbArc
 50
95.91552076699985
 51
109.6528596319998
  0
ARC
  5
378
330
1E
100
AcDbEntity
  8
STEMPEL
100
AcDbCircle
 10
82.69043938721194
 20
531.3665430968208
 30
0.0
 40
11.158
100
AcDbArc
 50
70.34714036800012
 51
84.08447923300014
  0
LINE
  5
379
330
1E
100
AcDbEntity
  8
STEMPEL
100
AcDbLine
 10
81.54043938721196
 20
542.5245430968209
 30
0.0
 11
77.06143938721197
 21
542.5245430968209
 31
0.0
  0
LINE
  5
37A
330
1E
100
AcDbEntity
  8
STEMPEL
100
AcDbLine
 10
81.54043938721196
 20
540.0245430968209
 30
0.0
 11
81.54043938721196
 21
542.5245430968209
 31
0.0
  0
LINE
  5
37B
330
1E
100
AcDbEntity
  8
STEMPEL
100
AcDbLine
 10
83.84043938721196
 20
540.0245430968209
 30
0.0
 11
81.54043938721196
 21
540.0245430968209
 31
0.0
  0
LINE
  5
37C
330
1E
100
AcDbEntity
  8
STEMPEL
100
AcDbLine
 10
83.84043938721196
 20
542.5245430968209
 30
0.0
 11
83.84043938721196
 21
540.0245430968209
 31
0.0
  0
LINE
  5
37D
330
1E
100
AcDbEntity
  8
STEMPEL
100
AcDbLine
 10
88.31943938721195
 20
542.5245430968209
 30
0.0
 11
83.84043938721196
 21
542.5245430968209
 31
0.0
  0
LINE
  5
37E
330
1E
100
AcDbEntity
  8
STEMPEL
100
AcDbLine
 10
78.69043938721194
 20
507.9745430968208
 30
0.0
 11
78.69043938721194
 21
525.2245430968208
 31
0.0
  0
LINE
  5
37F
330
1E
100
AcDbEntity
  8
STEMPEL
100
AcDbLine
 10
79.44043938721193
 20
507.2245430968208
 30
0.0
 11
78.69043938721194
 21
507.9745430968208
 31
0.0
  0
LINE
  5
380
330
1E
100
AcDbEntity
  8
STEMPEL
100
AcDbLine
 10
85.94043938721194
 20
507.2245430968208
 30
0.0
 11
79.44043938721193
 21
507.2245430968208
 31
0.0
  0
LINE
  5
381
330
1E
100
AcDbEntity
  8
STEMPEL
100
AcDbLine
 10
86.69043938721193
 20
507.9745430968208
 30
0.0
 11
85.94043938721194
 21
507.2245430968208
 31
0.0
  0
LINE
  5
382
330
1E
100
AcDbEntity
  8
STEMPEL
100
AcDbLine
 10
86.69043938721193
 20
525.2245430968208
 30
0.0
 11
86.69043938721193
 21
507.9745430968208
 31
0.0
  0
LINE
  5
383
330
1E
100
AcDbEntity
  8
STEMPEL
100
AcDbLine
 10
86.44343938721192
 20
541.8745430968208
 30
0.0
 11
86.44343938721192
 21
537.2245430968209
 31
0.0
  0
ARC
  5
384
330
1E
100
AcDbEntity
  8
STEMPEL
100
AcDbCircle
 10
88.31943938721195
 20
539.4915430968207
 30
0.0
 40
3.032999999999999
100
AcDbArc
 50
90.0
 51
128.2132107019998
  0
ARC
  5
385
330
1E
100
AcDbEntity
  8
STEMPEL
100
AcDbCircle
 10
88.31943938721195
 20
539.4915430968207
 30
0.0
 40
3.032999999999999
100
AcDbArc
 50
51.78678929800013
 51
90.0
  0
LINE
  5
386
330
1E
100
AcDbEntity
  8
STEMPEL
100
AcDbLine
 10
90.19643938721197
 20
537.2245430968209
 30
0.0
 11
90.19643938721197
 21
541.8745430968208
 31
0.0
  0
LINE
  5
387
330
1E
100
AcDbEntity
  8
STEMPEL
100
AcDbLine
 10
87.09043938721197
 20
537.2245430968209
 30
0.0
 11
90.19643938721197
 21
537.2245430968209
 31
0.0
  0
LINE
  5
388
330
1E
100
AcDbEntity
  8
STEMPEL
100
AcDbLine
 10
78.29043938721196
 20
537.2245430968209
 30
0.0
 11
87.09043938721197
 21
537.2245430968209
 31
0.0
  0
LINE
  5
389
330
1E
100
AcDbEntity
  8
STEMPEL
100
AcDbLine
 10
75.18543938721194
 20
537.2245430968209
 30
0.0
 11
78.29043938721196
 21
537.2245430968209
 31
0.0
  0
LINE
  5
38A
330
1E
100
AcDbEntity
  8
STEMPEL
100
AcDbLine
 10
75.18543938721194
 20
541.8745430968208
 30
0.0
 11
75.18543938721194
 21
537.2245430968209
 31
0.0
  0
ARC
  5
38B
330
1E
100
AcDbEntity
  8
STEMPEL
100
AcDbCircle
 10
77.06143938721197
 20
539.4915430968207
 30
0.0
 40
3.032999999999999
100
AcDbArc
 50
90.0
 51
128.2132107019998
  0
ARC
  5
38C
330
1E
100
AcDbEntity
  8
STEMPEL
100
AcDbCircle
 10
77.06143938721197
 20
539.4915430968207
 30
0.0
 40
3.032999999999999
100
AcDbArc
 50
51.78678929800013
 51
90.0
  0
LINE
  5
38D
330
1E
100
AcDbEntity
  8
STEMPEL
100
AcDbLine
 10
78.93743938721195
 20
537.2245430968209
 30
0.0
 11
78.93743938721195
 21
541.8745430968208
 31
0.0
  0
LINE
  5
38E
330
1E
100
AcDbEntity
  8
STEMPEL
100
AcDbLine
 10
75.44043938721194
 20
532.9745430968208
 30
0.0
 11
75.44043938721194
 21
532.4745430968208
 31
0.0
  0
LINE
  5
38F
330
1E
100
AcDbEntity
  8
STEMPEL
100
AcDbLine
 10
89.94043938721194
 20
532.9745430968208
 30
0.0
 11
75.44043938721194
 21
532.9745430968208
 31
0.0
  0
LINE
  5
390
330
1E
100
AcDbEntity
  8
STEMPEL
100
AcDbLine
 10
89.94043938721194
 20
532.4745430968208
 30
0.0
 11
89.94043938721194
 21
532.9745430968208
 31
0.0
  0
LINE
  5
391
330
1E
100
AcDbEntity
  8
STEMPEL
100
AcDbLine
 10
75.44043938721194
 20
532.4745430968208
 30
0.0
 11
89.94043938721194
 21
532.4745430968208
 31
0.0
  0
LINE
  5
395
330
1E
100
AcDbEntity
  8
STEMPEL
100
AcDbLine
 10
432.4254393872119
 20
532.9745430968208
 30
0.0
 11
432.4254393872119
 21
532.4745430968208
 31
0.0
  0
LINE
  5
396
330
1E
100
AcDbEntity
  8
STEMPEL
100
AcDbLine
 10
446.9254393872119
 20
532.9745430968208
 30
0.0
 11
432.4254393872119
 21
532.9745430968208
 31
0.0
  0
LINE
  5
397
330
1E
100
AcDbEntity
  8
STEMPEL
100
AcDbLine
 10
446.9254393872119
 20
532.4745430968208
 30
0.0
 11
446.9254393872119
 21
532.9745430968208
 31
0.0
  0
LINE
  5
398
330
1E
100
AcDbEntity
  8
STEMPEL
100
AcDbLine
 10
432.4254393872119
 20
532.4745430968208
 30
0.0
 11
446.9254393872119
 21
532.4745430968208
 31
0.0
  0
ARC
  5
3A5
330
1E
100
AcDbEntity
  8
STEMPEL
100
AcDbCircle
 10
253.388439387212
 20
357.9245430968208
 30
0.0
 40
4.2
100
AcDbArc
 50
270.0
 51
308.2132107019999
  0
ARC
  5
3A6
330
1E
100
AcDbEntity
  8
STEMPEL
100
AcDbCircle
 10
253.388439387212
 20
357.9245430968208
 30
0.0
 40
4.2
100
AcDbArc
 50
231.7867892980002
 51
270.0
  0
ARC
  5
3A7
330
1E
100
AcDbEntity
  8
STEMPEL
100
AcDbCircle
 10
261.1834393872119
 20
369.1745430968209
 30
0.0
 40
15.45
100
AcDbArc
 50
250.347140368
 51
270.0
  0
LINE
  5
3A8
330
1E
100
AcDbEntity
  8
STEMPEL
100
AcDbLine
 10
268.977439387212
 20
353.7245430968209
 30
0.0
 11
253.388439387212
 21
353.7245430968209
 31
0.0
  0
LINE
  5
3A9
330
1E
100
AcDbEntity
  8
STEMPEL
100
AcDbLine
 10
250.790439387212
 20
365.3245430968206
 30
0.0
 11
250.790439387212
 21
354.6245430968208
 31
0.0
  0
LINE
  5
3AA
330
1E
100
AcDbEntity
  8
STEMPEL
100
AcDbLine
 10
255.987439387212
 20
365.3245430968206
 30
0.0
 11
255.987439387212
 21
354.6245430968208
 31
0.0
  0
LINE
  5
3AB
330
1E
100
AcDbEntity
  8
STEMPEL
100
AcDbLine
 10
266.379439387212
 20
365.3245430968208
 30
0.0
 11
266.379439387212
 21
354.6245430968208
 31
0.0
  0
LINE
  5
3AD
330
1E
100
AcDbEntity
  8
STEMPEL
100
AcDbLine
 10
271.5754393872119
 20
365.3245430968208
 30
0.0
 11
271.5754393872119
 21
354.6245430968208
 31
0.0
  0
ARC
  5
3AE
330
1E
100
AcDbEntity
  8
STEMPEL
100
AcDbCircle
 10
268.977439387212
 20
357.9245430968208
 30
0.0
 40
4.2
100
AcDbArc
 50
270.0
 51
308.2132107019999
  0
ARC
  5
3B0
330
1E
100
AcDbEntity
  8
STEMPEL
100
AcDbCircle
 10
261.1834393872119
 20
369.1745430968209
 30
0.0
 40
15.45
100
AcDbArc
 50
270.0
 51
289.6528596319998
  0
ARC
  5
3B1
330
1E
100
AcDbEntity
  8
STEMPEL
100
AcDbCircle
 10
268.977439387212
 20
357.9245430968208
 30
0.0
 40
4.2
100
AcDbArc
 50
231.7867892980002
 51
270.0
  0
ARC
  5
3B2
330
1E
100
AcDbEntity
  8
STEMPEL
100
AcDbCircle
 10
433.1754393872119
 20
526.7245430968208
 30
0.0
 40
1.5
100
AcDbArc
 50
0.0
 51
90.0
  0
LINE
  5
3B3
330
1E
100
AcDbEntity
  8
STEMPEL
100
AcDbLine
 10
434.6754393872119
 20
526.7245430968208
 30
0.0
 11
434.6754393872119
 21
525.2245430968208
 31
0.0
  0
LINE
  5
3B4
330
1E
100
AcDbEntity
  8
STEMPEL
100
AcDbLine
 10
434.6754393872119
 20
525.2245430968208
 30
0.0
 11
444.6754393872119
 21
525.2245430968208
 31
0.0
  0
LINE
  5
3B5
330
1E
100
AcDbEntity
  8
STEMPEL
100
AcDbLine
 10
444.6754393872119
 20
525.2245430968208
 30
0.0
 11
444.6754393872119
 21
526.7245430968208
 31
0.0
  0
ARC
  5
3B6
330
1E
100
AcDbEntity
  8
STEMPEL
100
AcDbCircle
 10
446.1754393872119
 20
526.7245430968208
 30
0.0
 40
1.5
100
AcDbArc
 50
90.0
 51
180.0
  0
LINE
  5
3B7
330
1E
100
AcDbEntity
  8
STEMPEL
100
AcDbLine
 10
445.3334393872119
 20
531.2245430968208
 30
0.0
 11
445.3334393872119
 21
528.2245430968209
 31
0.0
  0
LINE
  5
3B8
330
1E
100
AcDbEntity
  8
STEMPEL
100
AcDbLine
 10
77.69043938721194
 20
526.7245430968208
 30
0.0
 11
77.69043938721194
 21
525.2245430968208
 31
0.0
  0
LINE
  5
3B9
330
1E
100
AcDbEntity
  8
STEMPEL
100
AcDbLine
 10
87.69043938721194
 20
525.2245430968208
 30
0.0
 11
87.69043938721194
 21
526.7245430968208
 31
0.0
  0
LINE
  5
3BA
330
1E
100
AcDbEntity
  8
STEMPEL
100
AcDbLine
 10
77.69043938721194
 20
525.2245430968208
 30
0.0
 11
87.69043938721194
 21
525.2245430968208
 31
0.0
  0
ARC
  5
3BB
330
1E
100
AcDbEntity
  8
STEMPEL
100
AcDbCircle
 10
76.19043938721194
 20
526.7245430968208
 30
0.0
 40
1.5
100
AcDbArc
 50
0.0
 51
90.0
  0
LINE
  5
3BC
330
1E
100
AcDbEntity
  8
STEMPEL
100
AcDbLine
 10
77.03243938721198
 20
531.2245430968208
 30
0.0
 11
77.03243938721198
 21
528.2245430968209
 31
0.0
  0
ARC
  5
3BD
330
1E
100
AcDbEntity
  8
STEMPEL
100
AcDbCircle
 10
89.19043938721193
 20
526.7245430968208
 30
0.0
 40
1.5
100
AcDbArc
 50
90.0
 51
180.0
  0
LINE
  5
3BE
330
1E
100
AcDbEntity
  8
STEMPEL
100
AcDbLine
 10
71.69043938721194
 20
528.2245430968209
 30
0.0
 11
93.35043938721197
 21
528.2245430968209
 31
0.0
  0
LINE
  5
3BF
330
1E
100
AcDbEntity
  8
STEMPEL
100
AcDbLine
 10
71.69043938721194
 20
531.2245430968208
 30
0.0
 11
71.69043938721194
 21
528.2245430968209
 31
0.0
  0
LINE
  5
3C0
330
1E
100
AcDbEntity
  8
STEMPEL
100
AcDbLine
 10
93.35043938721197
 20
531.2245430968208
 30
0.0
 11
71.69043938721194
 21
531.2245430968208
 31
0.0
  0
ARC
  5
3C1
330
1E
100
AcDbEntity
  8
STEMPEL
100
AcDbCircle
 10
429.0154393872119
 20
525.2245430968208
 30
0.0
 40
6.0
100
AcDbArc
 50
90.0
 51
177.4413023119993
  0
LINE
  5
3C2
330
1E
100
AcDbEntity
  8
STEMPEL
100
AcDbLine
 10
450.6754393872119
 20
531.2245430968208
 30
0.0
 11
429.0154393872119
 21
531.2245430968208
 31
0.0
  0
LINE
  5
3C3
330
1E
100
AcDbEntity
  8
STEMPEL
100
AcDbLine
 10
450.6754393872119
 20
528.2245430968209
 30
0.0
 11
450.6754393872119
 21
531.2245430968208
 31
0.0
  0
LINE
  5
3C4
330
1E
100
AcDbEntity
  8
STEMPEL
100
AcDbLine
 10
429.0154393872119
 20
528.2245430968209
 30
0.0
 11
450.6754393872119
 21
528.2245430968209
 31
0.0
  0
ARC
  5
3C5
330
1E
100
AcDbEntity
  8
STEMPEL
100
AcDbCircle
 10
429.0154393872119
 20
525.2245430968208
 30
0.0
 40
3.0
100
AcDbArc
 50
90.0
 51
177.4413023119993
  0
INSERT
  5
3C6
330
1E
100
AcDbEntity
  8
49
100
AcDbBlockReference
  2
BEM_0007
 10
138.2434393872119
 20
427.2265430968208
 30
0.0
  0
LINE
  5
3C7
330
1E
100
AcDbEntity
  8
STEMPEL
100
AcDbLine
 10
77.03243938721198
 20
534.2245430968208
 30
0.0
 11
77.03243938721198
 21
537.2245430968209
 31
0.0
  0
LINE
  5
3C8
330
1E
100
AcDbEntity
  8
STEMPEL
100
AcDbLine
 10
445.3334393872119
 20
534.2245430968208
 30
0.0
 11
445.3334393872119
 21
537.2245430968209
 31
0.0
  0
ARC
  5
3C9
330
1E
100
AcDbEntity
  8
STEMPEL
100
AcDbCircle
 10
261.1834393872119
 20
532.7245430968209
 30
0.0
 40
162.0
100
AcDbArc
 50
182.5586976880007
 51
357.441302312001
  0
ARC
  5
3CA
330
1E
100
AcDbEntity
  8
STEMPEL
100
AcDbCircle
 10
93.35043938721197
 20
525.2245430968208
 30
0.0
 40
6.0
100
AcDbArc
 50
2.558697688000662
 51
90.0
  0
ARC
  5
3CB
330
1E
100
AcDbEntity
  8
STEMPEL
100
AcDbCircle
 10
261.1834393872119
 20
532.7245430968209
 30
0.0
 40
165.0
100
AcDbArc
 50
182.5586976880007
 51
357.441302312001
  0
ARC
  5
3CC
330
1E
100
AcDbEntity
  8
STEMPEL
100
AcDbCircle
 10
93.35043938721197
 20
525.2245430968208
 30
0.0
 40
3.0
100
AcDbArc
 50
2.558697688000662
 51
90.0
  0
ARC
  5
3CD
330
1E
100
AcDbEntity
  8
STEMPEL
100
AcDbCircle
 10
93.35043938721197
 20
540.2245430968208
 30
0.0
 40
3.0
100
AcDbArc
 50
270.0
 51
357.441302312001
  0
LINE
  5
3CE
330
1E
100
AcDbEntity
  8
STEMPEL
100
AcDbLine
 10
71.69043938721194
 20
537.2245430968209
 30
0.0
 11
93.35043938721197
 21
537.2245430968209
 31
0.0
  0
LINE
  5
3CF
330
1E
100
AcDbEntity
  8
STEMPEL
100
AcDbLine
 10
71.69043938721194
 20
534.2245430968208
 30
0.0
 11
71.69043938721194
 21
537.2245430968209
 31
0.0
  0
LINE
  5
3D0
330
1E
100
AcDbEntity
  8
STEMPEL
100
AcDbLine
 10
93.35043938721197
 20
534.2245430968208
 30
0.0
 11
71.69043938721194
 21
534.2245430968208
 31
0.0
  0
ARC
  5
3D1
330
1E
100
AcDbEntity
  8
STEMPEL
100
AcDbCircle
 10
93.35043938721197
 20
540.2245430968208
 30
0.0
 40
6.0
100
AcDbArc
 50
270.0
 51
357.441302312001
  0
ARC
  5
3D2
330
1E
100
AcDbEntity
  8
STEMPEL
100
AcDbCircle
 10
261.1834393872119
 20
532.7245430968209
 30
0.0
 40
162.0
100
AcDbArc
 50
2.558697688000662
 51
177.4413023119993
  0
ARC
  5
3D3
330
1E
100
AcDbEntity
  8
STEMPEL
100
AcDbCircle
 10
429.0154393872119
 20
540.2245430968208
 30
0.0
 40
6.0
100
AcDbArc
 50
182.5586976880007
 51
270.0
  0
LINE
  5
3D4
330
1E
100
AcDbEntity
  8
STEMPEL
100
AcDbLine
 10
450.6754393872119
 20
534.2245430968208
 30
0.0
 11
429.0154393872119
 21
534.2245430968208
 31
0.0
  0
LINE
  5
3D5
330
1E
100
AcDbEntity
  8
STEMPEL
100
AcDbLine
 10
450.6754393872119
 20
537.2245430968209
 30
0.0
 11
450.6754393872119
 21
534.2245430968208
 31
0.0
  0
LINE
  5
3D6
330
1E
100
AcDbEntity
  8
STEMPEL
100
AcDbLine
 10
429.0154393872119
 20
537.2245430968209
 30
0.0
 11
450.6754393872119
 21
537.2245430968209
 31
0.0
  0
ARC
  5
3D7
330
1E
100
AcDbEntity
  8
STEMPEL
100
AcDbCircle
 10
429.0154393872119
 20
540.2245430968208
 30
0.0
 40
3.0
100
AcDbArc
 50
182.5586976880007
 51
270.0
  0
ARC
  5
3D8
330
1E
100
AcDbEntity
  8
STEMPEL
100
AcDbCircle
 10
261.1834393872119
 20
532.7245430968209
 30
0.0
 40
165.0
100
AcDbArc
 50
2.558697688000662
 51
177.4413023119993
  0
LINE
  5
3DB
330
1E
100
AcDbEntity
  8
MITTEL
100
AcDbLine
 10
82.69043938721194
 20
502.2245430968208
 30
0.0
 11
82.69043938721194
 21
547.5245430968209
 31
0.0
  0
LINE
  5
3DC
330
1E
100
AcDbEntity
  8
MITTEL
100
AcDbLine
 10
439.6754393872119
 20
502.2245430968208
 30
0.0
 11
439.6754393872119
 21
547.5245430968207
 31
0.0
  0
LINE
  5
3DD
330
1E
100
AcDbEntity
  8
MITTEL
100
AcDbLine
 10
261.1834393872119
 20
341.9635430968209
 30
0.0
 11
261.1834393872119
 21
704.1375430968209
 31
0.0
  0
LINE
  5
3DE
330
1E
100
AcDbEntity
  8
MITTEL
100
AcDbLine
 10
66.69043938721195
 20
532.7245430968209
 30
0.0
 11
455.675439387212
 21
532.7245430968209
 31
0.0
  0
LINE
  5
3DF
330
1E
100
AcDbEntity
  8
HILF
100
AcDbLine
 10
96.32943938721195
 20
295.942358115865
 30
0.0
 11
96.32943938721195
 21
255.942358115865
 31
0.0
  0
LINE
  5
3E0
330
1E
100
AcDbEntity
  8
HILF
100
AcDbLine
 10
426.0374393872119
 20
295.942358115865
 30
0.0
 11
426.0374393872119
 21
255.942358115865
 31
0.0
  0
LINE
  5
3E1
330
1E
100
AcDbEntity
  8
STEMPEL
100
AcDbLine
 10
439.0334393872119
 20
269.442358115865
 30
0.0
 11
439.0334393872119
 21
282.442358115865
 31
0.0
  0
LINE
  5
3E2
330
1E
100
AcDbEntity
  8
STEMPEL
100
AcDbLine
 10
441.3334393872119
 20
269.442358115865
 30
0.0
 11
441.3334393872119
 21
282.442358115865
 31
0.0
  0
ARC
  5
3E3
330
1E
100
AcDbEntity
  8
STEMPEL
100
AcDbCircle
 10
440.1834393872119
 20
275.942358115865
 30
0.0
 40
6.5
100
AcDbArc
 50
280.1905887680001
 51
79.80941123199989
  0
ARC
  5
3E4
330
1E
100
AcDbEntity
  8
STEMPEL
100
AcDbCircle
 10
440.1834393872119
 20
275.942358115865
 30
0.0
 40
6.5
100
AcDbArc
 50
100.1905887680001
 51
259.8094112319998
  0
LINE
  5
3E5
330
1E
100
AcDbEntity
  8
STEMPEL
100
AcDbLine
 10
436.4304393872119
 20
269.442358115865
 30
0.0
 11
432.677439387212
 21
275.942358115865
 31
0.0
  0
LINE
  5
3E6
330
1E
100
AcDbEntity
  8
STEMPEL
100
AcDbLine
 10
443.9354393872119
 20
269.442358115865
 30
0.0
 11
436.4304393872119
 21
269.442358115865
 31
0.0
  0
LINE
  5
3E7
330
1E
100
AcDbEntity
  8
STEMPEL
100
AcDbLine
 10
447.6884393872119
 20
275.942358115865
 30
0.0
 11
443.9354393872119
 21
269.442358115865
 31
0.0
  0
LINE
  5
3E8
330
1E
100
AcDbEntity
  8
STEMPEL
100
AcDbLine
 10
443.9354393872119
 20
282.442358115865
 30
0.0
 11
447.6884393872119
 21
275.942358115865
 31
0.0
  0
LINE
  5
3E9
330
1E
100
AcDbEntity
  8
STEMPEL
100
AcDbLine
 10
436.4304393872119
 20
282.442358115865
 30
0.0
 11
443.9354393872119
 21
282.442358115865
 31
0.0
  0
LINE
  5
3EA
330
1E
100
AcDbEntity
  8
STEMPEL
100
AcDbLine
 10
432.677439387212
 20
275.942358115865
 30
0.0
 11
436.4304393872119
 21
282.442358115865
 31
0.0
  0
LINE
  5
3EB
330
1E
100
AcDbEntity
  8
STEMPEL
100
AcDbLine
 10
81.03343938721195
 20
269.442358115865
 30
0.0
 11
81.03343938721195
 21
282.442358115865
 31
0.0
  0
LINE
  5
3EC
330
1E
100
AcDbEntity
  8
STEMPEL
100
AcDbLine
 10
83.33343938721197
 20
269.442358115865
 30
0.0
 11
83.33343938721197
 21
282.442358115865
 31
0.0
  0
ARC
  5
3ED
330
1E
100
AcDbEntity
  8
STEMPEL
100
AcDbCircle
 10
82.18343938721194
 20
275.942358115865
 30
0.0
 40
6.5
100
AcDbArc
 50
280.1905887680001
 51
79.80941123199989
  0
ARC
  5
3EE
330
1E
100
AcDbEntity
  8
STEMPEL
100
AcDbCircle
 10
82.18343938721194
 20
275.942358115865
 30
0.0
 40
6.5
100
AcDbArc
 50
100.1905887680001
 51
259.8094112319998
  0
LINE
  5
3EF
330
1E
100
AcDbEntity
  8
STEMPEL
100
AcDbLine
 10
78.43043938721194
 20
269.442358115865
 30
0.0
 11
74.67743938721196
 21
275.942358115865
 31
0.0
  0
LINE
  5
3F0
330
1E
100
AcDbEntity
  8
STEMPEL
100
AcDbLine
 10
85.93543938721195
 20
269.442358115865
 30
0.0
 11
78.43043938721194
 21
269.442358115865
 31
0.0
  0
LINE
  5
3F1
330
1E
100
AcDbEntity
  8
STEMPEL
100
AcDbLine
 10
89.68843938721192
 20
275.942358115865
 30
0.0
 11
85.93543938721195
 21
269.442358115865
 31
0.0
  0
LINE
  5
3F2
330
1E
100
AcDbEntity
  8
STEMPEL
100
AcDbLine
 10
85.93543938721195
 20
282.442358115865
 30
0.0
 11
89.68843938721192
 21
275.942358115865
 31
0.0
  0
LINE
  5
3F3
330
1E
100
AcDbEntity
  8
STEMPEL
100
AcDbLine
 10
78.43043938721194
 20
282.442358115865
 30
0.0
 11
85.93543938721195
 21
282.442358115865
 31
0.0
  0
LINE
  5
3F4
330
1E
100
AcDbEntity
  8
STEMPEL
100
AcDbLine
 10
74.67743938721196
 20
275.942358115865
 30
0.0
 11
78.43043938721194
 21
282.442358115865
 31
0.0
  0
LINE
  5
3F8
330
1E
100
AcDbEntity
  8
MITTEL
100
AcDbLine
 10
440.1834393872118
 20
264.4423581158649
 30
0.0
 11
440.1834393872119
 21
287.442358115865
 31
0.0
  0
LINE
  5
3F9
330
1E
100
AcDbEntity
  8
MITTEL
100
AcDbLine
 10
82.18343938721194
 20
264.4423581158649
 30
0.0
 11
82.18343938721194
 21
287.442358115865
 31
0.0
  0
LINE
  5
3FA
330
1E
100
AcDbEntity
  8
MITTEL
100
AcDbLine
 10
261.1834393872119
 20
300.942358115865
 30
0.0
 11
261.183439387212
 21
250.942358115865
 31
0.0
  0
LINE
  5
3FB
330
1E
100
AcDbEntity
  8
MITTEL
100
AcDbLine
 10
456.1834393872119
 20
275.942358115865
 30
0.0
 11
66.18343938721193
 21
275.942358115865
 31
0.0
  0
ARC
  5
3FC
330
1E
100
AcDbEntity
  8
STEMPEL
100
AcDbCircle
 10
411.1834393872119
 20
275.942358115865
 30
0.0
 40
40.0
100
AcDbArc
 50
330.0
 51
30.00000000000001
  0
ARC
  5
3FD
330
1E
100
AcDbEntity
  8
STEMPEL
100
AcDbCircle
 10
111.1834393872119
 20
275.942358115865
 30
0.0
 40
40.0
100
AcDbArc
 50
150.0
 51
210.0
  0
LINE
  5
3FE
330
1E
100
AcDbEntity
  8
STEMPEL
100
AcDbLine
 10
445.8244393872119
 20
295.942358115865
 30
0.0
 11
76.54243938721197
 21
295.942358115865
 31
0.0
  0
LINE
  5
3FF
330
1E
100
AcDbEntity
  8
STEMPEL
100
AcDbLine
 10
76.54243938721197
 20
255.942358115865
 30
0.0
 11
445.8244393872119
 21
255.942358115865
 31
0.0
  0
LINE
  5
40A
330
1E
100
AcDbEntity
  8
BEM
100
AcDbLine
 10
0.0
 20
455.9999999999999
 30
0.0
 11
10.0
 21
455.9999999999999
 31
0.0
  0
TEXT
  5
426
330
1E
100
AcDbEntity
  8
TEXT
 62
     1
100
AcDbText
 10
380.2238058614751
 20
665.8844110930163
 30
0.0
 40
7.0
  1
Schraube M8x30
 41
0.8
  7
GREEKS
100
AcDbText
  0
LINE
  5
427
330
1E
100
AcDbEntity
  8
TEXT
 62
     2
100
AcDbLine
 10
378.1039128654297
 20
662.5045056761198
 30
0.0
 11
453.1055946830601
 21
662.5045056761198
 31
0.0
  0
LINE
  5
428
330
1E
100
AcDbEntity
  8
TEXT
 62
     2
100
AcDbLine
 10
453.1055946830601
 20
662.5045056761198
 30
0.0
 11
444.9383112425935
 21
540.092034877098
 31
0.0
  0
LINE
  5
429
330
1E
100
AcDbEntity
  8
TEXT
 62
     2
100
AcDbLine
 10
269.6407150113681
 20
331.7063415846063
 30
0.0
 11
261.1834393872119
 21
353.7245430968209
 31
0.0
  0
LINE
  5
42A
330
1E
100
AcDbEntity
  8
TEXT
 62
     2
100
AcDbLine
 10
269.6407150113681
 20
331.7063415846063
 30
0.0
 11
287.6046280815661
 21
331.7063415846063
 31
0.0
  0
TEXT
  5
42B
330
1E
100
AcDbEntity
  8
TEXT
 62
     1
100
AcDbText
 10
271.7606080074137
 20
335.0862470015027
 30
0.0
 40
7.0
  1
M12
 41
0.8
  7
GREEKS
100
AcDbText
  0
DIMENSION
  5
432
330
1E
100
AcDbEntity
  8
BEM
100
AcDbDimension
  2
*D2
 10
440.1834393872118
 20
233.533419615
 30
0.0
 11
261.1834393872119
 21
240.033419615
 31
0.0
 70
    32
 71
     5
 42
358.0
  3
Standard
100
AcDbAlignedDimension
 13
82.18343938721194
 23
264.4423581158649
 33
0.0
 14
440.1834393872118
 24
264.4423581158649
 34
0.0
100
AcDbRotatedDimension
1001
ACAD
1000
DSTYLE
1002
{
1070
    40
1040
2.0
1070
    41
1040
3.5
1070
    42
1040
1.0
1070
    43
1040
7.0
1070
    44
1040
1.0
1070
    73
1070
     0
1070
    74
1070
     0
1070
    77
1070
     1
1070
    78
1070
     8
1070
    79
1070
     2
1070
   140
1040
3.5
1070
   141
1040
1.5
1070
   146
1040
0.5142857142857144
1070
   147
1040
1.5
1070
   172
1070
     1
1070
   178
1070
     1
1070
   179
1070
     2
1070
   271
1070
     2
1070
   272
1070
     2
1070
   284
1070
     8
1070
   285
1070
     8
1070
   286
1070
     8
1002
}
  0
DIMENSION
  5
440
330
1E
100
AcDbEntity
  8
BEM
100
AcDbDimension
  2
*D3
 10
71.18343938721193
 20
217.3915361069951
 30
0.0
 11
261.1834393872119
 21
223.8915361069951
 31
0.0
 70
    32
 71
     5
 42
380.0
  3
Standard
100
AcDbAlignedDimension
 13
451.1834393872119
 23
275.942358115865
 33
0.0
 14
71.18343938721193
 24
275.942358115865
 34
0.0
100
AcDbRotatedDimension
1001
ACAD
1000
DSTYLE
1002
{
1070
    40
1040
2.0
1070
    41
1040
3.5
1070
    42
1040
1.0
1070
    43
1040
7.0
1070
    44
1040
1.0
1070
    73
1070
     0
1070
    74
1070
     0
1070
    77
1070
     1
1070
    78
1070
     8
1070
    79
1070
     2
1070
   140
1040
3.5
1070
   141
1040
1.5
1070
   146
1040
0.5142857142857144
1070
   147
1040
1.5
1070
   172
1070
     1
1070
   178
1070
     1
1070
   179
1070
     2
1070
   271
1070
     2
1070
   272
1070
     2
1070
   284
1070
     8
1070
   285
1070
     8
1070
   286
1070
     8
1002
}
  0
DIMENSION
  5
44D
330
1E
100
AcDbEntity
  8
BEM
100
AcDbDimension
  2
*D4
 10
62.72826919156523
 20
534.2245430968208
 30
0.0
 11
56.22826919156515
 21
553.0912097634875
 31
0.0
 70
    32
 71
     5
 42
3.0
  3
Standard
100
AcDbAlignedDimension
 13
71.69043938721194
 23
531.2245430968208
 33
0.0
 14
71.69043938721194
 24
534.2245430968208
 34
0.0
 50
90.0
100
AcDbRotatedDimension
1001
ACAD
1000
DSTYLE
1002
{
1070
    40
1040
2.0
1070
    41
1040
3.5
1070
    42
1040
1.0
1070
    43
1040
7.0
1070
    44
1040
1.0
1070
    73
1070
     0
1070
    74
1070
     0
1070
    77
1070
     1
1070
    78
1070
     8
1070
    79
1070
     2
1070
   140
1040
3.5
1070
   141
1040
1.5
1070
   146
1040
0.5142857142857144
1070
   147
1040
1.5
1070
   172
1070
     1
1070
   178
1070
     1
1070
   179
1070
     2
1070
   271
1070
     2
1070
   272
1070
     2
1070
   284
1070
     8
1070
   285
1070
     8
1070
   286
1070
     8
1002
}
  0
DIMENSION
  5
45C
330
1E
100
AcDbEntity
  8
BEM
100
AcDbDimension
  2
*D5
 10
47.18183118014617
 20
353.7245430968209
 30
0.0
 11
40.68183118014612
 21
525.7245430968209
 31
0.0
 70
    32
 71
     5
 42
344.0000000000001
  3
Standard
100
AcDbAlignedDimension
 13
261.1834393872119
 23
697.7245430968208
 33
0.0
 14
253.388439387212
 24
353.7245430968209
 34
0.0
 50
90.0
100
AcDbRotatedDimension
1001
ACAD
1000
DSTYLE
1002
{
1070
    40
1040
2.0
1070
    41
1040
3.5
1070
    42
1040
1.0
1070
    43
1040
7.0
1070
    44
1040
1.0
1070
    73
1070
     0
1070
    74
1070
     0
1070
    77
1070
     1
1070
    78
1070
     8
1070
    79
1070
     2
1070
   140
1040
3.5
1070
   141
1040
1.5
1070
   146
1040
0.5142857142857144
1070
   147
1040
1.5
1070
   172
1070
     1
1070
   178
1070
     1
1070
   179
1070
     2
1070
   271
1070
     2
1070
   272
1070
     2
1070
   284
1070
     8
1070
   285
1070
     8
1070
   286
1070
     8
1002
}
  0
ARC
  5
473
330
1E
100
AcDbEntity
  8
STEMPEL
100
AcDbCircle
 10
261.1834393872122
 20
350.7754230968237
 30
0.0
 40
15.4491199999972
100
AcDbArc
 50
70.34657509800796
 51
109.6534249019937
  0
ARC
  5
476
330
1E
100
AcDbEntity
  8
STEMPEL
100
AcDbCircle
 10
268.977439387212
 20
362.0247636523766
 30
0.0
 40
4.199779563498137
100
AcDbArc
 50
51.78574491848245
 51
128.2142550815186
  0
ARC
  5
477
330
1E
100
AcDbEntity
  8
STEMPEL
100
AcDbCircle
 10
253.3894393872119
 20
362.0247636523766
 30
0.0
 40
4.199779563498137
100
AcDbArc
 50
51.78574491848134
 51
128.2142550815175
  0
ARC
  5
478
330
1E
100
AcDbEntity
  8
STEMPEL
100
AcDbCircle
 10
261.1834393872119
 20
342.5259499857166
 30
0.0
 40
25.19859311110422
100
AcDbArc
 50
68.21258857355506
 51
111.7874114264448
  0
INSERT
  5
4BF
330
1E
100
AcDbEntity
  8
STEMPEL
100
AcDbBlockReference
  2
LOGO
 10
548.9789472355166
 20
560.9955485457795
 30
0.0
 41
2.0
 42
2.0
 43
2.0
 50
90.0
  0
TEXT
  5
4C0
330
1E
100
AcDbEntity
  8
TEXT
100
AcDbText
 10
503.2363615897696
 20
602.626132208084
 30
0.0
 40
4.0
  1
DIN EN1123-2
 50
90.0
 41
0.8
  7
GREEKS
 72
     1
 11
503.2363615897696
 21
619.6166083985603
 31
0.0
100
AcDbText
  0
TEXT
  5
4C1
330
1E
100
AcDbEntity
  8
TEXT
100
AcDbText
 10
551.3702584697735
 20
644.9837501577827
 30
0.0
 40
4.0
  1
00977300W.DWG
 50
90.0
 41
0.8
  7
GREEKS
100
AcDbText
  0
TEXT
  5
4C2
330
1E
100
AcDbEntity
  8
TEXT
100
AcDbText
 10
542.3598805695783
 20
645.1296391125317
 30
0.0
 40
5.0
  1
EDV-Art.Nr. 00977.300X
 50
90.0
 41
0.8
  7
GREEKS
100
AcDbText
  0
TEXT
  5
4C3
330
1E
100
AcDbEntity
  8
TEXT
100
AcDbText
 10
522.4966558241469
 20
645.1296391125317
 30
0.0
 40
5.0
  1
mit Anschlußgewinde M12
 50
90.0
 41
0.8
  7
GREEKS
100
AcDbText
  0
TEXT
  5
4C4
330
1E
100
AcDbEntity
  8
TEXT
 62
     1
100
AcDbText
 10
506.582512107462
 20
646.8935731057403
 30
0.0
 40
7.0
  1
Rohrschelle DN300
 50
90.0
 41
0.8
  7
GREEKS
100
AcDbText
  0
TEXT
  5
4C5
330
1E
100
AcDbEntity
  8
TEXT
100
AcDbText
 10
530.8923495917425
 20
580.7037590129981
 30
0.0
 40
4.0
  1
29.10.
 50
90.0
 41
0.8
  7
GREEKS
 72
     1
 11
530.8923495917425
 21
587.40852091776
 31
0.0
100
AcDbText
  0
TEXT
  5
4C6
330
1E
100
AcDbEntity
  8
TEXT
 62
     1
100
AcDbText
 10
505.8509857108602
 20
570.5006306481887
 30
0.0
 40
7.0
  1
1:2
 50
90.0
 41
0.8
  7
GREEKS
100
AcDbText
  0
TEXT
  5
4C7
330
1E
100
AcDbEntity
  8
TEXT
 62
     1
100
AcDbText
 10
505.8509857108602
 20
765.7721576428683
 30
0.0
 40
7.0
  1
00977300W
 50
90.0
 41
0.8
  7
GREEKS
 72
     1
 11
505.8509857108602
 21
789.7721576428682
 31
0.0
100
AcDbText
  0
TEXT
  5
4C8
330
1E
100
AcDbEntity
  8
TEXT
100
AcDbText
 10
530.9103608027648
 20
614.4216048581259
 30
0.0
 40
4.0
  1
Koeh
 50
90.0
 41
0.8
  7
GREEKS
 72
     1
 11
530.9103608027648
 21
619.6787477152687
 31
0.0
100
AcDbText
  0
TEXT
  5
4C9
330
1E
100
AcDbEntity
  8
TEXT
100
AcDbText
 10
482.3279999999999
 20
461.8550995097768
 30
0.0
 40
5.0
  1
Erstellt mit AUTOCAD 2004
 50
90.0
 41
0.8
  7
GREEKS
100
AcDbText
  0
TEXT
  5
4CA
330
1E
100
AcDbEntity
  8
TEXT
100
AcDbText
 10
520.8597452884832
 20
558.6221098221041
 30
0.0
 40
4.0
  1
2012
 50
90.0
 41
0.8
  7
GREEKS
100
AcDbText
  0
TEXT
  5
4CC
330
1E
100
AcDbEntity
  8
TEXT
100
AcDbText
 10
541.9258382212139
 20
757.2400861497007
 30
0.0
 40
5.0
  1
ersetzt durch:
 50
90.0
 41
0.8
  7
GREEKS
100
AcDbText
  0
TEXT
  5
4CE
330
1E
100
AcDbEntity
  8
TEXT
100
AcDbText
 10
550.4705361035018
 20
557.6006777387305
 30
0.0
 40
4.0
  1
Norm.
 50
90.0
 41
0.8
  7
GREEKS
100
AcDbText
  0
TEXT
  5
4CF
330
1E
100
AcDbEntity
  8
TEXT
100
AcDbText
 10
540.3107370857161
 20
557.5515086571673
 30
0.0
 40
4.0
  1
Gepr.
 50
90.0
 41
0.8
  7
GREEKS
100
AcDbText
  0
TEXT
  5
4D0
330
1E
100
AcDbEntity
  8
TEXT
100
AcDbText
 10
530.3700963038202
 20
557.5836127167616
 30
0.0
 40
4.0
  1
Gez.
 50
90.0
 41
0.8
  7
GREEKS
100
AcDbText
  0
TEXT
  5
4D1
330
1E
100
AcDbEntity
  8
TEXT
100
AcDbText
 10
520.6903890808477
 20
612.4626584226295
 30
0.0
 40
4.0
  1
Name
 50
90.0
 41
0.8
  7
GREEKS
100
AcDbText
  0
TEXT
  5
4D2
330
1E
100
AcDbEntity
  8
TEXT
100
AcDbText
 10
520.6811949877006
 20
582.3311673153652
 30
0.0
 40
4.0
  1
Tag
 50
90.0
 41
0.8
  7
GREEKS
100
AcDbText
  0
TEXT
  5
4D3
330
1E
100
AcDbEntity
  8
TEXT
100
AcDbText
 10
575.4067578303358
 20
539.0122744386594
 30
0.0
 40
4.0
  1
Name
 50
90.0
 41
0.8
  7
GREEKS
 72
     1
 11
575.4067578303358
 21
545.3360839624689
 31
0.0
100
AcDbText
  0
TEXT
  5
4D4
330
1E
100
AcDbEntity
  8
TEXT
100
AcDbText
 10
575.3284373066017
 20
520.0934676075481
 30
0.0
 40
4.0
  1
Tag
 50
90.0
 41
0.8
  7
GREEKS
 72
     1
 11
575.3284373066017
 21
523.8268009408815
 31
0.0
100
AcDbText
  0
TEXT
  5
4D5
330
1E
100
AcDbEntity
  8
TEXT
100
AcDbText
 10
580.345341539728
 20
468.2664110704576
 30
0.0
 40
4.0
  1
Index
 50
180.0
 41
0.8
  7
GREEKS
100
AcDbText
  0
TEXT
  5
4D6
330
1E
100
AcDbEntity
  8
TEXT
100
AcDbText
 10
520.8188176290001
 20
756.7238616296994
 30
0.0
 40
5.0
  1
Ersatz für:
 50
90.0
 41
0.8
  7
GREEKS
100
AcDbText
  0
TEXT
  5
4D7
330
1E
100
AcDbEntity
  8
TEXT
100
AcDbText
 10
563.1543942980693
 20
644.742238391136
 30
0.0
 40
5.0
  1
Bauvorhaben
 50
90.0
 41
0.8
  7
GREEKS
100
AcDbText
  0
TEXT
  5
4D8
330
1E
100
AcDbEntity
  8
TEXT
100
AcDbText
 10
491.6867965462862
 20
756.1787549576341
 30
0.0
 40
5.0
  1
Zeichnungs Nr.
 50
90.0
 41
0.8
  7
GREEKS
100
AcDbText
  0
TEXT
  5
4D9
330
1E
100
AcDbEntity
  8
TEXT
100
AcDbText
 10
491.4510671988219
 20
644.8779403809011
 30
0.0
 40
5.0
  1
Benennung
 50
90.0
 41
0.8
  7
GREEKS
100
AcDbText
  0
TEXT
  5
4DA
330
1E
100
AcDbEntity
  8
TEXT
100
AcDbText
 10
491.5815831565179
 20
604.2858954734052
 30
0.0
 40
5.0
  1
Zul. Abw.
 50
90.0
 41
0.8
  7
GREEKS
100
AcDbText
  0
TEXT
  5
4DB
330
1E
100
AcDbEntity
  8
TEXT
100
AcDbText
 10
491.537910491291
 20
563.5163572150378
 30
0.0
 40
5.0
  1
Maßstab
 50
90.0
 41
0.8
  7
GREEKS
100
AcDbText
  0
TEXT
  5
4DC
330
1E
100
AcDbEntity
  8
TEXT
100
AcDbText
 10
575.3261810501585
 20
483.8616597963183
 30
0.0
 40
4.0
  1
Änderung
 50
90.0
 41
0.8
  7
GREEKS
 72
     1
 11
575.3261810501585
 21
494.6045169391754
 31
0.0
100
AcDbText
  0
LINE
  5
4DD
330
1E
100
AcDbEntity
  8
HILF
100
AcDbLine
 10
579.1060174197167
 20
643.4909699289885
 30
0.0
 11
579.1060174197168
 21
824.8588839326728
 31
0.0
  0
LINE
  5
4DE
330
1E
100
AcDbEntity
  8
HILF
100
AcDbLine
 10
510.2201636304415
 20
756.7238616296992
 30
0.0
 11
510.2201636304417
 21
824.8588839326728
 31
0.0
  0
LINE
  5
4DF
330
1E
100
AcDbEntity
  8
VOLL
100
AcDbLine
 10
533.9999999999998
 20
752.0
 30
0.0
 11
534.0
 21
830.0
 31
0.0
  0
LINE
  5
4E0
330
1E
100
AcDbEntity
  8
HILF
100
AcDbLine
 10
543.9999999999998
 20
644.7736801096947
 30
0.0
 11
543.9999999999998
 21
744.8353916556309
 31
0.0
  0
LINE
  5
4E1
330
1E
100
AcDbEntity
  8
HILF
100
AcDbLine
 10
533.9999999999998
 20
644.7736801096947
 30
0.0
 11
533.9999999999998
 21
744.8353916556309
 31
0.0
  0
LINE
  5
4E2
330
1E
100
AcDbEntity
  8
HILF
100
AcDbLine
 10
523.9999999999999
 20
644.7736801096947
 30
0.0
 11
523.9999999999999
 21
744.8353916556309
 31
0.0
  0
LINE
  5
4E3
330
1E
100
AcDbEntity
  8
HILF
100
AcDbLine
 10
509.9624175243585
 20
644.7736801096947
 30
0.0
 11
509.9624175243585
 21
744.835391655631
 31
0.0
  0
LINE
  5
4E4
330
1E
100
AcDbEntity
  8
HILF
100
AcDbLine
 10
543.9999999999998
 20
556.0000000000001
 30
0.0
 11
543.9999999999998
 21
640.0
 31
0.0
  0
LINE
  5
4E5
330
1E
100
AcDbEntity
  8
HILF
100
AcDbLine
 10
533.9999999999998
 20
556.0000000000001
 30
0.0
 11
533.9999999999998
 21
640.0
 31
0.0
  0
LINE
  5
4E6
330
1E
100
AcDbEntity
  8
HILF
100
AcDbLine
 10
523.9999999999999
 20
556.0000000000001
 30
0.0
 11
523.9999999999999
 21
640.0
 31
0.0
  0
LINE
  5
4E7
330
1E
100
AcDbEntity
  8
HILF
100
AcDbLine
 10
553.9999999999999
 20
460.0000000000001
 30
0.0
 11
553.9999999999999
 21
556.0000000000001
 31
0.0
  0
LINE
  5
4E8
330
1E
100
AcDbEntity
  8
HILF
100
AcDbLine
 10
543.9999999999998
 20
460.0000000000001
 30
0.0
 11
543.9999999999998
 21
556.0000000000001
 31
0.0
  0
LINE
  5
4E9
330
1E
100
AcDbEntity
  8
HILF
100
AcDbLine
 10
533.9999999999998
 20
460.0000000000001
 30
0.0
 11
533.9999999999998
 21
556.0000000000001
 31
0.0
  0
LINE
  5
4EA
330
1E
100
AcDbEntity
  8
HILF
100
AcDbLine
 10
523.9999999999999
 20
460.0000000000001
 30
0.0
 11
523.9999999999999
 21
556.0000000000001
 31
0.0
  0
LINE
  5
4EB
330
1E
100
AcDbEntity
  8
HILF
100
AcDbLine
 10
513.9999999999998
 20
460.0000000000001
 30
0.0
 11
513.9999999999998
 21
556.0000000000001
 31
0.0
  0
LINE
  5
4EC
330
1E
100
AcDbEntity
  8
HILF
100
AcDbLine
 10
503.9999999999999
 20
460.0000000000001
 30
0.0
 11
503.9999999999999
 21
556.0000000000001
 31
0.0
  0
LINE
  5
4ED
330
1E
100
AcDbEntity
  8
HILF
100
AcDbLine
 10
493.9999999999998
 20
460.0000000000001
 30
0.0
 11
493.9999999999998
 21
556.0000000000001
 31
0.0
  0
LINE
  5
4EE
330
1E
100
AcDbEntity
  8
VOLL
100
AcDbLine
 10
484.0000000000001
 20
600.0
 30
0.0
 11
553.9999999999999
 21
600.0
 31
0.0
  0
LINE
  5
4EF
330
1E
100
AcDbEntity
  8
VOLL
100
AcDbLine
 10
513.9999999999998
 20
574.0000000000001
 30
0.0
 11
553.9999999999999
 21
574.0000000000001
 31
0.0
  0
LINE
  5
4F0
330
1E
100
AcDbEntity
  8
VOLL
100
AcDbLine
 10
483.9999999999998
 20
534.0000000000001
 30
0.0
 11
583.9999999999998
 21
534.0
 31
0.0
  0
LINE
  5
4F1
330
1E
100
AcDbEntity
  8
VOLL
100
AcDbLine
 10
483.9999999999998
 20
514.0000000000001
 30
0.0
 11
583.9999999999998
 21
514.0
 31
0.0
  0
LINE
  5
4F2
330
1E
100
AcDbEntity
  8
VOLL
100
AcDbLine
 10
483.9999999999998
 20
474.0000000000001
 30
0.0
 11
583.9999999999998
 21
474.0
 31
0.0
  0
LINE
  5
4F3
330
1E
100
AcDbEntity
  8
STEMPEL
100
AcDbLine
 10
514.0
 20
830.0
 30
0.0
 11
513.9999999999998
 21
556.0000000000001
 31
0.0
  0
LINE
  5
4F4
330
1E
100
AcDbEntity
  8
STEMPEL
100
AcDbLine
 10
554.0
 20
830.0
 30
0.0
 11
553.9999999999999
 21
556.0000000000001
 31
0.0
  0
LINE
  5
4F5
330
1E
100
AcDbEntity
  8
STEMPEL
100
AcDbLine
 10
563.9999999999998
 20
555.9999999999998
 30
0.0
 11
563.9999999999998
 21
460.0
 31
0.0
  0
LINE
  5
4F6
330
1E
100
AcDbEntity
  8
STEMPEL
100
AcDbLine
 10
484.0000000000001
 20
752.0
 30
0.0
 11
553.9999999999999
 21
752.0
 31
0.0
  0
LINE
  5
4F7
330
1E
100
AcDbEntity
  8
STEMPEL
100
AcDbLine
 10
483.9999999999998
 20
640.0
 30
0.0
 11
583.9999999999998
 21
640.0
 31
0.0
  0
LINE
  5
4F8
330
1E
100
AcDbEntity
  8
STEMPEL
100
AcDbLine
 10
483.9999999999998
 20
556.0000000000001
 30
0.0
 11
583.9999999999998
 21
556.0
 31
0.0
  0
LINE
  5
4F9
330
1E
100
AcDbEntity
  8
STEMPEL
100
AcDbLine
 10
484.0
 20
830.0
 30
0.0
 11
483.9999999999998
 21
460.0
 31
0.0
  0
LINE
  5
53C
330
1E
100
AcDbEntity
  8
STEMPEL
100
AcDbLine
 10
483.9999999999998
 20
460.0
 30
0.0
 11
584.0
 21
460.0
 31
0.0
  0
TEXT
  5
55A
330
1E
100
AcDbEntity
  8
TEXT
 62
     1
100
AcDbText
 10
478.35942916834
 20
647.8365522679117
 30
0.0
 40
7.0
  1
Werkstoff: St37 Dickschichtpassiviert
 50
90.0
 41
0.8
  7
GREEKS
100
AcDbText
  0
DIMENSION
  5
561
330
1E
100
AcDbEntity
  8
BEM
100
AcDbDimension
  2
*D6
 10
57.33714233024375
 20
255.942358115865
 30
0.0
 11
50.8371423302437
 21
275.942358115865
 31
0.0
 70
    32
 71
     5
 42
39.99999999999997
  3
Standard
100
AcDbAlignedDimension
 13
76.54243938721197
 23
295.942358115865
 33
0.0
 14
76.54243938721197
 24
255.942358115865
 34
0.0
 50
90.0
100
AcDbRotatedDimension
1001
ACAD
1000
DSTYLE
1002
{
1070
    40
1040
2.0
1070
    41
1040
3.5
1070
    42
1040
1.0
1070
    43
1040
7.0
1070
    44
1040
1.0
1070
    73
1070
     0
1070
    74
1070
     0
1070
    77
1070
     1
1070
    78
1070
     8
1070
    79
1070
     2
1070
   140
1040
3.5
1070
   141
1040
1.5
1070
   146
1040
0.5142857142857144
1070
   147
1040
1.5
1070
   172
1070
     1
1070
   178
1070
     1
1070
   179
1070
     2
1070
   271
1070
     2
1070
   272
1070
     2
1070
   284
1070
     8
1070
   285
1070
     8
1070
   286
1070
     8
1002
}
  0
ENDSEC
  0
SECTION
  2
OBJECTS
  0
DICTIONARY
  5
C
330
0
100
AcDbDictionary
281
     1
  3
ACAD_COLOR
350
11A
  3
ACAD_GROUP
350
D
  3
ACAD_LAYOUT
350
19
  3
ACAD_MATERIAL
350
119
  3
ACAD_MLINESTYLE
350
16
  3
ACAD_PLOTSETTINGS
350
18
  3
ACAD_PLOTSTYLENAME
350
E
  3
AcDbVariableDictionary
350
125
  0
DICTIONARY
  5
DB
330
1E
100
AcDbDictionary
280
     1
281
     1
  3
ACAD_LAYOUTSELFREF
360
10F
  0
DICTIONARY
  5
DD
330
1A
100
AcDbDictionary
280
     1
281
     1
  3
ACAD_LAYOUTSELFREF
360
10E
  0
DICTIONARY
  5
11A
102
{ACAD_REACTORS
330
C
102
}
330
C
100
AcDbDictionary
281
     1
  0
DICTIONARY
  5
D
102
{ACAD_REACTORS
330
C
102
}
330
C
100
AcDbDictionary
281
     1
  0
DICTIONARY
  5
19
102
{ACAD_REACTORS
330
C
102
}
330
C
100
AcDbDictionary
281
     1
  3
Layout1
350
1D
  3
Model
350
21
  0
DICTIONARY
  5
119
102
{ACAD_REACTORS
330
C
102
}
330
C
100
AcDbDictionary
281
     1
  0
DICTIONARY
  5
16
102
{ACAD_REACTORS
330
C
102
}
330
C
100
AcDbDictionary
281
     1
  3
Standard
350
17
  0
DICTIONARY
  5
18
102
{ACAD_REACTORS
330
C
102
}
330
C
100
AcDbDictionary
281
     1
  0
ACDBDICTIONARYWDFLT
  5
E
102
{ACAD_REACTORS
330
C
102
}
330
C
100
AcDbDictionary
281
     1
  3
Normal
350
F
100
AcDbDictionaryWithDefault
340
F
  0
DICTIONARY
  5
125
102
{ACAD_REACTORS
330
C
102
}
330
C
100
AcDbDictionary
281
     1
  3
DIMASSOC
350
126
  3
PROJECTNAME
350
127
  0
XRECORD
  5
10F
102
{ACAD_REACTORS
330
DB
102
}
330
DB
100
AcDbXrecord
280
     1
340
1E
  0
XRECORD
  5
10E
102
{ACAD_REACTORS
330
DD
102
}
330
DD
100
AcDbXrecord
280
     1
340
1A
  0
LAYOUT
  5
1D
102
{ACAD_REACTORS
330
19
102
}
330
19
100
AcDbPlotSettings
  1

  2
\\NT_WORK01\HP LaserJet 5000 PCL 6
  4

  6

 40
0.0
 41
0.0
 42
0.0
 43
0.0
 44
0.0
 45
0.0
 46
0.0
 47
0.0
 48
0.0
 49
0.0
140
0.0
141
0.0
142
1.0
143
1.0
 70
   688
 72
     0
 73
     0
 74
     5
  7

 75
    16
147
1.0
 76
     0
 77
     2
 78
   300
148
0.0
149
0.0
100
AcDbLayout
  1
Layout1
 70
     0
 71
     1
 10
0.0
 20
0.0
 11
12.0
 21
9.0
 12
0.0
 22
0.0
 32
0.0
 14
1.000000000000000E+20
 24
1.000000000000000E+20
 34
1.000000000000000E+20
 15
-1.000000000000000E+20
 25
-1.000000000000000E+20
 35
-1.000000000000000E+20
146
0.0
 13
0.0
 23
0.0
 33
0.0
 16
1.0
 26
0.0
 36
0.0
 17
0.0
 27
1.0
 37
0.0
 76
     0
330
1A
  0
LAYOUT
  5
21
102
{ACAD_REACTORS
330
19
102
}
330
19
100
AcDbPlotSettings
  1

  2
none_device
  4
Letter_(8.50_x_11.00_Inches)
  6

 40
6.349999904632568
 41
6.349999904632568
 42
6.350006103515625
 43
6.350006103515625
 44
215.8999938964844
 45
279.3999938964844
 46
0.0
 47
0.0
 48
0.0
 49
0.0
140
0.0
141
0.0
142
1.0
143
1.0
 70
 11952
 72
     0
 73
     1
 74
     0
  7

 75
     0
147
1.0
 76
     0
 77
     2
 78
   300
148
3130.251152459748
149
6.051152459748276
100
AcDbLayout
  1
Model
 70
     1
 71
     0
 10
0.0
 20
0.0
 11
12.0
 21
9.0
 12
0.0
 22
0.0
 32
0.0
 14
0.0
 24
0.0
 34
0.0
 15
0.0
 25
0.0
 35
0.0
146
0.0
 13
0.0
 23
0.0
 33
0.0
 16
1.0
 26
0.0
 36
0.0
 17
0.0
 27
1.0
 37
0.0
 76
     0
330
1E
  0
MLINESTYLE
  5
17
102
{ACAD_REACTORS
330
16
102
}
330
16
100
AcDbMlineStyle
  2
STANDARD
 70
     0
  3

 62
   256
 51
90.0
 52
90.0
 71
     2
 49
0.5
 62
   256
  6
BYLAYER
 49
-0.5
 62
   256
  6
BYLAYER
  0
ACDBPLACEHOLDER
  5
F
102
{ACAD_REACTORS
330
E
102
}
330
E
  0
DICTIONARYVAR
  5
126
102
{ACAD_REACTORS
330
125
102
}
330
125
100
DictionaryVariables
280
     0
  1
1
  0
DICTIONARYVAR
  5
127
102
{ACAD_REACTORS
330
125
102
}
330
125
100
DictionaryVariables
280
     0
  1

  0
ENDSEC
  0
EOF
