  0
SECTION
  2
HEADER
  9
$ACADVER
  1
AC1018
  9
$ACADMAINTVER
 70
     2
  9
$DWGCODEPAGE
  3
ANSI_1252
  9
$INSBASE
 10
0.0
 20
0.0
 30
0.0
  9
$EXTMIN
 10
-0.0127449277902088
 20
-0.0317004075857312
 30
-0.0000000000000129
  9
$EXTMAX
 10
420.0082719239349
 20
594.0317242670564
 30
0.0000000000000023
  9
$LIMMIN
 10
0.0
 20
0.0
  9
$LIMMAX
 10
419.9999999999999
 20
594.0
  9
$ORTHOMODE
 70
     1
  9
$REGENMODE
 70
     1
  9
$FILLMODE
 70
     1
  9
$QTEXTMODE
 70
     0
  9
$MIRRTEXT
 70
     1
  9
$LTSCALE
 40
20.0
  9
$ATTMODE
 70
     1
  9
$TEXTSIZE
 40
2.5
  9
$TRACEWID
 40
0.5
  9
$TEXTSTYLE
  7
GREEKS
  9
$CLAYER
  8
BEM
  9
$CELTYPE
  6
ByLayer
  9
$CECOLOR
 62
   256
  9
$CELTSCALE
 40
1.0
  9
$DISPSILH
 70
     0
  9
$DIMSCALE
 40
2.0
  9
$DIMASZ
 40
3.5
  9
$DIMEXO
 40
1.0
  9
$DIMDLI
 40
7.0
  9
$DIMRND
 40
0.0
  9
$DIMDLE
 40
0.0
  9
$DIMEXE
 40
1.0
  9
$DIMTP
 40
0.0
  9
$DIMTM
 40
0.0
  9
$DIMTXT
 40
3.5
  9
$DIMCEN
 40
1.5
  9
$DIMTSZ
 40
0.0
  9
$DIMTOL
 70
     0
  9
$DIMLIM
 70
     0
  9
$DIMTIH
 70
     0
  9
$DIMTOH
 70
     0
  9
$DIMSE1
 70
     0
  9
$DIMSE2
 70
     0
  9
$DIMTAD
 70
     1
  9
$DIMZIN
 70
     8
  9
$DIMBLK
  1

  9
$DIMASO
 70
     1
  9
$DIMSHO
 70
     0
  9
$DIMPOST
  1

  9
$DIMAPOST
  1

  9
$DIMALT
 70
     0
  9
$DIMALTD
 70
     2
  9
$DIMALTF
 40
25.4
  9
$DIMLFAC
 40
1.0
  9
$DIMTOFL
 70
     1
  9
$DIMTVP
 40
0.0
  9
$DIMTIX
 70
     0
  9
$DIMSOXD
 70
     0
  9
$DIMSAH
 70
     0
  9
$DIMBLK1
  1

  9
$DIMBLK2
  1

  9
$DIMSTYLE
  2
Standard
  9
$DIMCLRD
 70
     0
  9
$DIMCLRE
 70
     0
  9
$DIMCLRT
 70
     1
  9
$DIMTFAC
 40
0.5142857142857144
  9
$DIMGAP
 40
1.5
  9
$DIMJUST
 70
     0
  9
$DIMSD1
 70
     0
  9
$DIMSD2
 70
     0
  9
$DIMTOLJ
 70
     1
  9
$DIMTZIN
 70
     8
  9
$DIMALTZ
 70
     8
  9
$DIMALTTZ
 70
     8
  9
$DIMUPT
 70
     0
  9
$DIMDEC
 70
     2
  9
$DIMTDEC
 70
     2
  9
$DIMALTU
 70
     2
  9
$DIMALTTD
 70
     2
  9
$DIMTXSTY
  7
STANDARD
  9
$DIMAUNIT
 70
     0
  9
$DIMADEC
 70
     2
  9
$DIMALTRND
 40
0.0
  9
$DIMAZIN
 70
     2
  9
$DIMDSEP
 70
    46
  9
$DIMATFIT
 70
     3
  9
$DIMFRAC
 70
     0
  9
$DIMLDRBLK
  1

  9
$DIMLUNIT
 70
     2
  9
$DIMLWD
 70
    -2
  9
$DIMLWE
 70
    -2
  9
$DIMTMOVE
 70
     0
  9
$LUNITS
 70
     2
  9
$LUPREC
 70
     2
  9
$SKETCHINC
 40
1.0
  9
$FILLETRAD
 40
0.0
  9
$AUNITS
 70
     0
  9
$AUPREC
 70
     0
  9
$MENU
  1
ACAD
  9
$ELEVATION
 40
0.0
  9
$PELEVATION
 40
0.0
  9
$THICKNESS
 40
0.0
  9
$LIMCHECK
 70
     0
  9
$CHAMFERA
 40
0.0
  9
$CHAMFERB
 40
0.0
  9
$CHAMFERC
 40
0.0
  9
$CHAMFERD
 40
0.0
  9
$SKPOLY
 70
     0
  9
$TDCREATE
 40
2455397.823042361
  9
$TDUCREATE
 40
2455397.781375695
  9
$TDUPDATE
 40
2456230.316422454
  9
$TDUUPDATE
 40
2456230.274755787
  9
$TDINDWG
 40
0.2792553935
  9
$TDUSRTIMER
 40
0.2792553935
  9
$USRTIMER
 70
     1
  9
$ANGBASE
 50
0.0
  9
$ANGDIR
 70
     0
  9
$PDMODE
 70
     0
  9
$PDSIZE
 40
0.0
  9
$PLINEWID
 40
0.0
  9
$SPLFRAME
 70
     0
  9
$SPLINETYPE
 70
     6
  9
$SPLINESEGS
 70
     8
  9
$HANDSEED
  5
18BD
  9
$SURFTAB1
 70
     6
  9
$SURFTAB2
 70
     6
  9
$SURFTYPE
 70
     6
  9
$SURFU
 70
     6
  9
$SURFV
 70
     6
  9
$UCSBASE
  2

  9
$UCSNAME
  2

  9
$UCSORG
 10
0.0
 20
0.0
 30
0.0
  9
$UCSXDIR
 10
1.0
 20
0.0
 30
0.0
  9
$UCSYDIR
 10
0.0
 20
1.0
 30
0.0
  9
$UCSORTHOREF
  2

  9
$UCSORTHOVIEW
 70
     0
  9
$UCSORGTOP
 10
0.0
 20
0.0
 30
0.0
  9
$UCSORGBOTTOM
 10
0.0
 20
0.0
 30
0.0
  9
$UCSORGLEFT
 10
0.0
 20
0.0
 30
0.0
  9
$UCSORGRIGHT
 10
0.0
 20
0.0
 30
0.0
  9
$UCSORGFRONT
 10
0.0
 20
0.0
 30
0.0
  9
$UCSORGBACK
 10
0.0
 20
0.0
 30
0.0
  9
$PUCSBASE
  2

  9
$PUCSNAME
  2

  9
$PUCSORG
 10
0.0
 20
0.0
 30
0.0
  9
$PUCSXDIR
 10
1.0
 20
0.0
 30
0.0
  9
$PUCSYDIR
 10
0.0
 20
1.0
 30
0.0
  9
$PUCSORTHOREF
  2

  9
$PUCSORTHOVIEW
 70
     0
  9
$PUCSORGTOP
 10
0.0
 20
0.0
 30
0.0
  9
$PUCSORGBOTTOM
 10
0.0
 20
0.0
 30
0.0
  9
$PUCSORGLEFT
 10
0.0
 20
0.0
 30
0.0
  9
$PUCSORGRIGHT
 10
0.0
 20
0.0
 30
0.0
  9
$PUCSORGFRONT
 10
0.0
 20
0.0
 30
0.0
  9
$PUCSORGBACK
 10
0.0
 20
0.0
 30
0.0
  9
$USERI1
 70
     0
  9
$USERI2
 70
     0
  9
$USERI3
 70
     0
  9
$USERI4
 70
     0
  9
$USERI5
 70
     0
  9
$USERR1
 40
0.0
  9
$USERR2
 40
0.0
  9
$USERR3
 40
0.0
  9
$USERR4
 40
0.0
  9
$USERR5
 40
0.0
  9
$WORLDVIEW
 70
     1
  9
$SHADEDGE
 70
     3
  9
$SHADEDIF
 70
    70
  9
$TILEMODE
 70
     1
  9
$MAXACTVP
 70
    16
  9
$PINSBASE
 10
0.0
 20
0.0
 30
0.0
  9
$PLIMCHECK
 70
     0
  9
$PEXTMIN
 10
1.000000000000000E+20
 20
1.000000000000000E+20
 30
1.000000000000000E+20
  9
$PEXTMAX
 10
-1.000000000000000E+20
 20
-1.000000000000000E+20
 30
-1.000000000000000E+20
  9
$PLIMMIN
 10
0.0
 20
0.0
  9
$PLIMMAX
 10
12.0
 20
9.0
  9
$UNITMODE
 70
     0
  9
$VISRETAIN
 70
     0
  9
$PLINEGEN
 70
     0
  9
$PSLTSCALE
 70
     0
  9
$TREEDEPTH
 70
  3020
  9
$CMLSTYLE
  2
Standard
  9
$CMLJUST
 70
     0
  9
$CMLSCALE
 40
1.0
  9
$PROXYGRAPHICS
 70
     1
  9
$MEASUREMENT
 70
     0
  9
$CELWEIGHT
370
    -1
  9
$ENDCAPS
280
     0
  9
$JOINSTYLE
280
     0
  9
$LWDISPLAY
290
     0
  9
$INSUNITS
 70
     0
  9
$HYPERLINKBASE
  1

  9
$STYLESHEET
  1
monochrome 1.ctb
  9
$XEDIT
290
     1
  9
$CEPSNTYPE
380
     0
  9
$PSTYLEMODE
290
     1
  9
$FINGERPRINTGUID
  2
{D68B0D02-A558-11D7-B632-000102183313}
  9
$VERSIONGUID
  2
{F14E311A-4547-418A-A4E9-11D884AA703F}
  9
$EXTNAMES
290
     1
  9
$PSVPSCALE
 40
0.0
  9
$OLESTARTUP
290
     0
  9
$SORTENTS
280
   127
  9
$INDEXCTL
280
     0
  9
$HIDETEXT
280
     0
  9
$XCLIPFRAME
290
     0
  9
$HALOGAP
280
     0
  9
$OBSCOLOR
 70
   257
  9
$OBSLTYPE
280
     0
  9
$INTERSECTIONDISPLAY
280
     0
  9
$INTERSECTIONCOLOR
 70
   257
  9
$DIMASSOC
280
     1
  9
$PROJECTNAME
  1

  0
ENDSEC
  0
SECTION
  2
CLASSES
  0
CLASS
  1
ACDBDICTIONARYWDFLT
  2
AcDbDictionaryWithDefault
  3
ObjectDBX Classes
 90
        0
 91
        1
280
     0
281
     0
  0
CLASS
  1
DICTIONARYVAR
  2
AcDbDictionaryVar
  3
ObjectDBX Classes
 90
        0
 91
        2
280
     0
281
     0
  0
ENDSEC
  0
SECTION
  2
TABLES
  0
TABLE
  2
VPORT
  5
8
330
0
100
AcDbSymbolTable
 70
     3
  0
VPORT
  5
18BC
330
8
100
AcDbSymbolTableRecord
100
AcDbViewportTableRecord
  2
*Active
 70
     0
 10
0.0
 20
0.0
 11
1.0
 21
1.0
 12
209.9999999999999
 22
297.0
 13
0.0
 23
0.0
 14
1.0
 24
1.0
 15
10.0
 25
10.0
 16
0.0
 26
0.0
 36
1.0
 17
0.0
 27
0.0
 37
0.0
 40
594.1181190144972
 41
1.404858299595141
 42
50.0
 43
0.0
 44
0.0
 50
0.0
 51
0.0
 71
     0
 72
  1500
 73
     1
 74
     0
 75
     0
 76
     0
 77
     0
 78
     0
281
     0
 65
     1
110
0.0
120
0.0
130
0.0
111
1.0
121
0.0
131
0.0
112
0.0
122
1.0
132
0.0
 79
     0
146
0.0
  0
ENDTAB
  0
TABLE
  2
LTYPE
  5
5
330
0
100
AcDbSymbolTable
 70
     2
  0
LTYPE
  5
13
330
5
100
AcDbSymbolTableRecord
100
AcDbLinetypeTableRecord
  2
ByBlock
 70
     0
  3

 72
    65
 73
     0
 40
0.0
  0
LTYPE
  5
14
330
5
100
AcDbSymbolTableRecord
100
AcDbLinetypeTableRecord
  2
ByLayer
 70
     0
  3

 72
    65
 73
     0
 40
0.0
  0
LTYPE
  5
15
330
5
100
AcDbSymbolTableRecord
100
AcDbLinetypeTableRecord
  2
Continuous
 70
     0
  3
Solid line
 72
    65
 73
     0
 40
0.0
  0
LTYPE
  5
25
330
5
100
AcDbSymbolTableRecord
100
AcDbLinetypeTableRecord
  2
STRICHPUNKT
 70
     0
  3
__ . __ . __ . __ . __ . __ . __ . __ . __ . __
 72
    65
 73
     4
 40
1.0
 49
0.5
 74
     0
 49
-0.25
 74
     0
 49
0.0
 74
     0
 49
-0.25
 74
     0
  0
ENDTAB
  0
TABLE
  2
LAYER
  5
2
330
0
100
AcDbSymbolTable
 70
     8
  0
LAYER
  5
10
330
2
100
AcDbSymbolTableRecord
100
AcDbLayerTableRecord
  2
0
 70
     0
 62
     7
  6
Continuous
370
    -3
390
F
  0
LAYER
  5
2A
330
2
100
AcDbSymbolTableRecord
100
AcDbLayerTableRecord
  2
VOLL
 70
     0
 62
     1
  6
Continuous
370
    -3
390
F
  0
LAYER
  5
2B
330
2
100
AcDbSymbolTableRecord
100
AcDbLayerTableRecord
  2
HILF
 70
     0
 62
     2
  6
Continuous
370
    -3
390
F
  0
LAYER
  5
2C
330
2
100
AcDbSymbolTableRecord
100
AcDbLayerTableRecord
  2
MITTEL
 70
     0
 62
     2
  6
STRICHPUNKT
370
    -3
390
F
  0
LAYER
  5
2F
330
2
100
AcDbSymbolTableRecord
100
AcDbLayerTableRecord
  2
BEM
 70
     0
 62
     7
  6
Continuous
370
    -3
390
F
  0
LAYER
  5
30
330
2
100
AcDbSymbolTableRecord
100
AcDbLayerTableRecord
  2
STEMPEL
 70
     0
 62
     3
  6
Continuous
370
    -3
390
F
  0
LAYER
  5
31
330
2
100
AcDbSymbolTableRecord
100
AcDbLayerTableRecord
  2
TEXT
 70
     0
 62
     7
  6
Continuous
370
    -3
390
F
  0
LAYER
  5
1A8
330
2
100
AcDbSymbolTableRecord
100
AcDbLayerTableRecord
  2
Defpoints
 70
     0
 62
     7
  6
Continuous
290
     0
370
    -3
390
F
  0
ENDTAB
  0
TABLE
  2
STYLE
  5
3
330
0
100
AcDbSymbolTable
 70
     2
  0
STYLE
  5
11
330
3
100
AcDbSymbolTableRecord
100
AcDbTextStyleTableRecord
  2
STANDARD
 70
     0
 40
0.0
 41
0.8
 50
0.0
 71
     0
 42
3.5
  3
simplex.shx
  4

  0
STYLE
  5
24
330
3
100
AcDbSymbolTableRecord
100
AcDbTextStyleTableRecord
  2
GREEKS
 70
     0
 40
0.0
 41
0.8
 50
0.0
 71
     0
 42
2.5
  3
SIMPLEX.shx
  4

  0
ENDTAB
  0
TABLE
  2
VIEW
  5
6
330
0
100
AcDbSymbolTable
 70
     0
  0
ENDTAB
  0
TABLE
  2
UCS
  5
7
330
0
100
AcDbSymbolTable
 70
     0
  0
ENDTAB
  0
TABLE
  2
APPID
  5
9
330
0
100
AcDbSymbolTable
 70
     1
  0
APPID
  5
12
330
9
100
AcDbSymbolTableRecord
100
AcDbRegAppTableRecord
  2
ACAD
 70
     0
  0
ENDTAB
  0
TABLE
  2
DIMSTYLE
  5
A
330
0
100
AcDbSymbolTable
 70
     1
100
AcDbDimStyleTable
 71
     1
340
9D
  0
DIMSTYLE
105
9D
102
{ACAD_REACTORS
330
1813
330
1820
330
1857
330
1866
330
1874
330
18AA
102
}
330
A
100
AcDbSymbolTableRecord
100
AcDbDimStyleTableRecord
  2
Standard
 70
     0
340
11
  0
ENDTAB
  0
TABLE
  2
BLOCK_RECORD
  5
1
330
0
100
AcDbSymbolTable
 70
     7
  0
BLOCK_RECORD
  5
1E
102
{ACAD_XDICTIONARY
360
A0
102
}
330
1
100
AcDbSymbolTableRecord
100
AcDbBlockTableRecord
  2
*Model_Space
340
21
  0
BLOCK_RECORD
  5
1A
102
{ACAD_XDICTIONARY
360
A2
102
}
330
1
100
AcDbSymbolTableRecord
100
AcDbBlockTableRecord
  2
*Paper_Space
340
1D
  0
BLOCK_RECORD
  5
22
330
1
100
AcDbSymbolTableRecord
100
AcDbBlockTableRecord
  2
LOGO
340
0
102
{BLKREFS
331
9B
102
}
  0
BLOCK_RECORD
  5
1814
330
1
100
AcDbSymbolTableRecord
100
AcDbBlockTableRecord
  2
*D1
340
0
  0
BLOCK_RECORD
  5
1821
330
1
100
AcDbSymbolTableRecord
100
AcDbBlockTableRecord
  2
*D2
340
0
  0
BLOCK_RECORD
  5
1858
330
1
100
AcDbSymbolTableRecord
100
AcDbBlockTableRecord
  2
*D3
340
0
  0
BLOCK_RECORD
  5
1867
330
1
100
AcDbSymbolTableRecord
100
AcDbBlockTableRecord
  2
*D4
340
0
  0
BLOCK_RECORD
  5
1875
330
1
100
AcDbSymbolTableRecord
100
AcDbBlockTableRecord
  2
*D5
340
0
  0
BLOCK_RECORD
  5
18AB
330
1
100
AcDbSymbolTableRecord
100
AcDbBlockTableRecord
  2
*D6
340
0
  0
ENDTAB
  0
ENDSEC
  0
SECTION
  2
BLOCKS
  0
BLOCK
  5
35
330
1E
100
AcDbEntity
  8
0
100
AcDbBlockBegin
  2
*Model_Space
 70
     0
 10
0.0
 20
0.0
 30
0.0
  3
*Model_Space
  1

  0
ENDBLK
  5
36
330
1E
100
AcDbEntity
  8
0
100
AcDbBlockEnd
  0
BLOCK
  5
33
330
1A
100
AcDbEntity
 67
     1
  8
0
100
AcDbBlockBegin
  2
*Paper_Space
 70
     0
 10
0.0
 20
0.0
 30
0.0
  3
*Paper_Space
  1

  0
ENDBLK
  5
34
330
1A
100
AcDbEntity
 67
     1
  8
0
100
AcDbBlockEnd
  0
BLOCK
  5
37
330
22
100
AcDbEntity
  8
0
100
AcDbBlockBegin
  2
LOGO
 70
     0
 10
0.0
 20
0.0
 30
0.0
  3
LOGO
  1

  0
ARC
  5
38
330
22
100
AcDbEntity
  8
0
100
AcDbCircle
 10
11.59973089678112
 20
-9.271599258481501
 30
0.0
 40
4.5
100
AcDbArc
 50
270.0
 51
231.0575587310159
  0
LINE
  5
39
330
22
100
AcDbEntity
  8
0
100
AcDbLine
 10
3.599730896781125
 20
-4.771599258481529
 30
0.0
 11
3.599730896781153
 21
-11.77159925848133
 31
0.0
  0
LINE
  5
3A
330
22
100
AcDbEntity
  8
0
100
AcDbLine
 10
2.599730896781125
 20
-4.771599258481529
 30
0.0
 11
2.599730896781153
 21
-11.77159925848133
 31
0.0
  0
CIRCLE
  5
3B
330
22
100
AcDbEntity
  8
0
100
AcDbCircle
 10
11.59973089678112
 20
-9.271599258481501
 30
0.0
 40
3.5
  0
ARC
  5
3C
330
22
100
AcDbEntity
  8
0
100
AcDbCircle
 10
31.59973089678115
 20
-9.271599258481472
 30
0.0
 40
4.5
100
AcDbArc
 50
270.0
 51
231.0575587310182
  0
LINE
  5
3D
330
22
100
AcDbEntity
  8
0
100
AcDbLine
 10
17.59973089678112
 20
-4.771599258481472
 30
0.0
 11
17.59973089678115
 21
-13.77159925848147
 31
0.0
  0
ARC
  5
3E
330
22
100
AcDbEntity
  8
0
100
AcDbCircle
 10
22.59973089678116
 20
-7.271599258481472
 30
0.0
 40
2.5
100
AcDbArc
 50
293.1161887722295
 51
90.0
  0
CIRCLE
  5
3F
330
22
100
AcDbEntity
  8
0
100
AcDbCircle
 10
31.59973089678115
 20
-9.271599258481472
 30
0.0
 40
3.5
  0
ARC
  5
40
330
22
100
AcDbEntity
  8
0
100
AcDbCircle
 10
4.599730896781153
 20
-11.77159925848133
 30
0.0
 40
1.0
100
AcDbArc
 50
180.0
 51
270.0
  0
ARC
  5
41
330
22
100
AcDbEntity
  8
0
100
AcDbCircle
 10
4.599730896781153
 20
-11.77159925848133
 30
0.0
 40
2.0
100
AcDbArc
 50
179.9999999999992
 51
270.0
  0
LINE
  5
42
330
22
100
AcDbEntity
  8
0
100
AcDbLine
 10
11.59973089678115
 20
-13.77159925848144
 30
0.0
 11
4.599730896781153
 21
-13.77159925848147
 31
0.0
  0
LINE
  5
43
330
22
100
AcDbEntity
  8
0
100
AcDbLine
 10
8.771303772034769
 20
-12.77159925848136
 30
0.0
 11
4.599730896781153
 21
-12.77159925848133
 31
0.0
  0
LINE
  5
44
330
22
100
AcDbEntity
  8
0
100
AcDbLine
 10
31.59973089678115
 20
-13.77159925848147
 30
0.0
 11
23.6715276665056
 21
-13.77159925848144
 31
0.0
  0
LINE
  5
45
330
22
100
AcDbEntity
  8
0
100
AcDbLine
 10
23.56565672307022
 20
-9.51278021337896
 30
0.0
 11
24.4388546544846
 21
-12.77159925848144
 31
0.0
  0
LINE
  5
46
330
22
100
AcDbEntity
  8
0
100
AcDbLine
 10
22.59973089678116
 20
-9.771599258481472
 30
0.0
 11
18.59973089678112
 21
-9.771599258481472
 31
0.0
  0
LINE
  5
47
330
22
100
AcDbEntity
  8
0
100
AcDbLine
 10
18.59973089678115
 20
-13.77159925848144
 30
0.0
 11
17.59973089678115
 21
-13.77159925848144
 31
0.0
  0
LINE
  5
48
330
22
100
AcDbEntity
  8
0
100
AcDbLine
 10
18.59973089678115
 20
-9.771599258481472
 30
0.0
 11
18.59973089678115
 21
-13.77159925848144
 31
0.0
  0
LINE
  5
49
330
22
100
AcDbEntity
  8
0
100
AcDbLine
 10
22.59973089678116
 20
-9.771599258481472
 30
0.0
 11
23.67152766650562
 21
-13.77159925848147
 31
0.0
  0
ARC
  5
4A
330
22
100
AcDbEntity
  8
0
100
AcDbCircle
 10
22.59973089678116
 20
-7.271599258481472
 30
0.0
 40
2.5
100
AcDbArc
 50
270.0
 51
270.0000000000007
  0
LINE
  5
4B
330
22
100
AcDbEntity
  8
0
100
AcDbLine
 10
28.77130377203494
 20
-12.77159925848147
 30
0.0
 11
24.43885465448463
 21
-12.77159925848144
 31
0.0
  0
LINE
  5
4C
330
22
100
AcDbEntity
  8
0
100
AcDbLine
 10
3.599730896781125
 20
-4.771599258481472
 30
0.0
 11
2.599730896781125
 21
-4.771599258481472
 31
0.0
  0
LINE
  5
4D
330
22
100
AcDbEntity
  8
0
100
AcDbLine
 10
22.59973089678116
 20
-8.771599258481472
 30
0.0
 11
18.59973089678115
 21
-8.771599258481472
 31
0.0
  0
LINE
  5
4E
330
22
100
AcDbEntity
  8
0
100
AcDbLine
 10
22.59973089678116
 20
-5.771599258481472
 30
0.0
 11
18.59973089678115
 21
-5.771599258481472
 31
0.0
  0
LINE
  5
4F
330
22
100
AcDbEntity
  8
0
100
AcDbLine
 10
22.59973089678116
 20
-4.771599258481472
 30
0.0
 11
17.59973089678115
 21
-4.771599258481472
 31
0.0
  0
LINE
  5
50
330
22
100
AcDbEntity
  8
0
100
AcDbLine
 10
18.59973089678115
 20
-5.771599258481472
 30
0.0
 11
18.59973089678115
 21
-8.771599258481472
 31
0.0
  0
ARC
  5
51
330
22
100
AcDbEntity
  8
0
100
AcDbCircle
 10
22.59973089678116
 20
-7.271599258481472
 30
0.0
 40
1.5
100
AcDbArc
 50
270.0
 51
90.0
  0
ENDBLK
  5
52
330
22
100
AcDbEntity
  8
0
100
AcDbBlockEnd
  0
BLOCK
  5
181E
330
1814
100
AcDbEntity
  8
0
100
AcDbBlockBegin
  2
*D1
 70
     1
 10
0.0
 20
0.0
 30
0.0
  3
*D1
  1

  0
LINE
  5
1815
330
1814
100
AcDbEntity
  8
BEM
 62
     0
370
    -2
100
AcDbLine
 10
144.0071735533866
 20
251.7608771708655
 30
0.0
 11
144.0071735533866
 21
221.1273688131703
 31
0.0
  0
LINE
  5
1816
330
1814
100
AcDbEntity
  8
BEM
 62
     0
370
    -2
100
AcDbLine
 10
309.0071735533866
 20
251.7608771708655
 30
0.0
 11
309.0071735533866
 21
221.1273688131703
 31
0.0
  0
LINE
  5
1817
330
1814
100
AcDbEntity
  8
BEM
 62
     0
370
    -2
100
AcDbLine
 10
151.0071735533866
 20
223.1273688131703
 30
0.0
 11
302.0071735533866
 21
223.1273688131703
 31
0.0
  0
SOLID
  5
1818
330
1814
100
AcDbEntity
  8
BEM
 62
     0
100
AcDbTrace
 10
151.0071735533866
 20
224.2940354798369
 30
0.0
 11
151.0071735533866
 21
221.9607021465036
 31
0.0
 12
144.0071735533866
 22
223.1273688131703
 32
0.0
 13
144.0071735533866
 23
223.1273688131703
 33
0.0
  0
SOLID
  5
1819
330
1814
100
AcDbEntity
  8
BEM
 62
     0
100
AcDbTrace
 10
302.0071735533866
 20
224.2940354798369
 30
0.0
 11
302.0071735533866
 21
221.9607021465036
 31
0.0
 12
309.0071735533866
 22
223.1273688131703
 32
0.0
 13
309.0071735533866
 23
223.1273688131703
 33
0.0
  0
MTEXT
  5
181A
330
1814
100
AcDbEntity
  8
BEM
 62
     1
100
AcDbMText
 10
226.5071735533866
 20
229.6273688131703
 30
0.0
 40
7.0
 41
0.0
 71
     5
 72
     1
  1
\A1;165
 73
     1
 44
1.0
  0
POINT
  5
181B
330
1814
100
AcDbEntity
  8
Defpoints
 62
     0
100
AcDbPoint
 10
144.0071735533866
 20
253.7608771708654
 30
0.0
  0
POINT
  5
181C
330
1814
100
AcDbEntity
  8
Defpoints
 62
     0
100
AcDbPoint
 10
309.0071735533866
 20
253.7608771708654
 30
0.0
  0
POINT
  5
181D
330
1814
100
AcDbEntity
  8
Defpoints
 62
     0
100
AcDbPoint
 10
309.0071735533866
 20
223.1273688131703
 30
0.0
  0
ENDBLK
  5
181F
330
1814
100
AcDbEntity
  8
0
100
AcDbBlockEnd
  0
BLOCK
  5
182B
330
1821
100
AcDbEntity
  8
0
100
AcDbBlockBegin
  2
*D2
 70
     1
 10
0.0
 20
0.0
 30
0.0
  3
*D2
  1

  0
LINE
  5
1822
330
1821
100
AcDbEntity
  8
BEM
 62
     0
370
    -2
100
AcDbLine
 10
133.0071735533866
 20
263.2608771708655
 30
0.0
 11
133.0071735533866
 21
205.6442931899869
 31
0.0
  0
LINE
  5
1823
330
1821
100
AcDbEntity
  8
BEM
 62
     0
370
    -2
100
AcDbLine
 10
320.0071735533866
 20
263.2608771708655
 30
0.0
 11
320.0071735533866
 21
205.6442931899869
 31
0.0
  0
LINE
  5
1824
330
1821
100
AcDbEntity
  8
BEM
 62
     0
370
    -2
100
AcDbLine
 10
140.0071735533866
 20
207.6442931899869
 30
0.0
 11
313.0071735533866
 21
207.6442931899869
 31
0.0
  0
SOLID
  5
1825
330
1821
100
AcDbEntity
  8
BEM
 62
     0
100
AcDbTrace
 10
140.0071735533866
 20
208.8109598566536
 30
0.0
 11
140.0071735533866
 21
206.4776265233203
 31
0.0
 12
133.0071735533866
 22
207.6442931899869
 32
0.0
 13
133.0071735533866
 23
207.6442931899869
 33
0.0
  0
SOLID
  5
1826
330
1821
100
AcDbEntity
  8
BEM
 62
     0
100
AcDbTrace
 10
313.0071735533866
 20
208.8109598566536
 30
0.0
 11
313.0071735533866
 21
206.4776265233203
 31
0.0
 12
320.0071735533866
 22
207.6442931899869
 32
0.0
 13
320.0071735533866
 23
207.6442931899869
 33
0.0
  0
MTEXT
  5
1827
330
1821
100
AcDbEntity
  8
BEM
 62
     1
100
AcDbMText
 10
226.5071735533866
 20
214.1442931899869
 30
0.0
 40
7.0
 41
0.0
 71
     5
 72
     1
  1
\A1;187
 73
     1
 44
1.0
  0
POINT
  5
1828
330
1821
100
AcDbEntity
  8
Defpoints
 62
     0
100
AcDbPoint
 10
133.0071735533866
 20
265.2608771708655
 30
0.0
  0
POINT
  5
1829
330
1821
100
AcDbEntity
  8
Defpoints
 62
     0
100
AcDbPoint
 10
320.0071735533866
 20
265.2608771708655
 30
0.0
  0
POINT
  5
182A
330
1821
100
AcDbEntity
  8
Defpoints
 62
     0
100
AcDbPoint
 10
320.0071735533866
 20
207.6442931899869
 30
0.0
  0
ENDBLK
  5
182C
330
1821
100
AcDbEntity
  8
0
100
AcDbBlockEnd
  0
BLOCK
  5
1864
330
1858
100
AcDbEntity
  8
0
100
AcDbBlockBegin
  2
*D3
 70
     1
 10
0.0
 20
0.0
 30
0.0
  3
*D3
  1

  0
LINE
  5
1859
330
1858
100
AcDbEntity
  8
BEM
 62
     0
370
    -2
100
AcDbLine
 10
131.0071735533866
 20
436.9320646054484
 30
0.0
 11
122.3538832569925
 21
436.9320646054484
 31
0.0
  0
LINE
  5
185A
330
1858
100
AcDbEntity
  8
BEM
 62
     0
370
    -2
100
AcDbLine
 10
131.0071735533866
 20
439.9320646054484
 30
0.0
 11
122.3538832569925
 21
439.9320646054484
 31
0.0
  0
LINE
  5
185B
330
1858
100
AcDbEntity
  8
BEM
 62
     0
370
    -2
100
AcDbLine
 10
124.3538832569925
 20
429.9320646054485
 30
0.0
 11
124.3538832569925
 21
422.9320646054484
 31
0.0
  0
LINE
  5
185C
330
1858
100
AcDbEntity
  8
BEM
 62
     0
370
    -2
100
AcDbLine
 10
124.3538832569925
 20
446.9320646054485
 30
0.0
 11
124.3538832569925
 21
463.6653979387818
 31
0.0
  0
LINE
  5
185D
330
1858
100
AcDbEntity
  8
BEM
 62
     0
370
    -2
100
AcDbLine
 10
124.3538832569925
 20
436.9320646054484
 30
0.0
 11
124.3538832569925
 21
439.9320646054484
 31
0.0
  0
SOLID
  5
185E
330
1858
100
AcDbEntity
  8
BEM
 62
     0
100
AcDbTrace
 10
123.1872165903258
 20
429.9320646054485
 30
0.0
 11
125.5205499236591
 21
429.9320646054485
 31
0.0
 12
124.3538832569925
 22
436.9320646054484
 32
0.0
 13
124.3538832569925
 23
436.9320646054484
 33
0.0
  0
SOLID
  5
185F
330
1858
100
AcDbEntity
  8
BEM
 62
     0
100
AcDbTrace
 10
123.1872165903258
 20
446.9320646054485
 30
0.0
 11
125.5205499236591
 21
446.9320646054485
 31
0.0
 12
124.3538832569925
 22
439.9320646054484
 32
0.0
 13
124.3538832569925
 23
439.9320646054484
 33
0.0
  0
MTEXT
  5
1860
330
1858
100
AcDbEntity
  8
BEM
 62
     1
100
AcDbMText
 10
117.8538832569924
 20
458.7987312721152
 30
0.0
 40
7.0
 41
0.0
 71
     5
 72
     1
  1
\A1;3
 11
0.0000000000000001
 21
1.0
 31
0.0
 73
     1
 44
1.0
  0
POINT
  5
1861
330
1858
100
AcDbEntity
  8
Defpoints
 62
     0
100
AcDbPoint
 10
133.0071735533866
 20
436.9320646054484
 30
0.0
  0
POINT
  5
1862
330
1858
100
AcDbEntity
  8
Defpoints
 62
     0
100
AcDbPoint
 10
133.0071735533866
 20
439.9320646054484
 30
0.0
  0
POINT
  5
1863
330
1858
100
AcDbEntity
  8
Defpoints
 62
     0
100
AcDbPoint
 10
124.3538832569925
 20
439.9320646054484
 30
0.0
  0
ENDBLK
  5
1865
330
1858
100
AcDbEntity
  8
0
100
AcDbBlockEnd
  0
BLOCK
  5
1871
330
1867
100
AcDbEntity
  8
0
100
AcDbBlockBegin
  2
*D4
 70
     1
 10
0.0
 20
0.0
 30
0.0
  3
*D4
  1

  0
LINE
  5
1868
330
1867
100
AcDbEntity
  8
BEM
 62
     0
370
    -2
100
AcDbLine
 10
216.7131735533866
 20
354.9320646054484
 30
0.0
 11
107.8665004616855
 21
354.9320646054485
 31
0.0
  0
LINE
  5
1869
330
1867
100
AcDbEntity
  8
BEM
 62
     0
370
    -2
100
AcDbLine
 10
224.5071735533866
 20
507.9320646054484
 30
0.0
 11
107.8665004616855
 21
507.9320646054484
 31
0.0
  0
LINE
  5
186A
330
1867
100
AcDbEntity
  8
BEM
 62
     0
370
    -2
100
AcDbLine
 10
109.8665004616855
 20
361.9320646054485
 30
0.0
 11
109.8665004616855
 21
500.9320646054485
 31
0.0
  0
SOLID
  5
186B
330
1867
100
AcDbEntity
  8
BEM
 62
     0
100
AcDbTrace
 10
108.6998337950188
 20
361.9320646054485
 30
0.0
 11
111.0331671283521
 21
361.9320646054485
 31
0.0
 12
109.8665004616855
 22
354.9320646054485
 32
0.0
 13
109.8665004616855
 23
354.9320646054485
 33
0.0
  0
SOLID
  5
186C
330
1867
100
AcDbEntity
  8
BEM
 62
     0
100
AcDbTrace
 10
108.6998337950188
 20
500.9320646054485
 30
0.0
 11
111.0331671283522
 21
500.9320646054485
 31
0.0
 12
109.8665004616855
 22
507.9320646054484
 32
0.0
 13
109.8665004616855
 23
507.9320646054484
 33
0.0
  0
MTEXT
  5
186D
330
1867
100
AcDbEntity
  8
BEM
 62
     1
100
AcDbMText
 10
103.3665004616854
 20
431.4320646054484
 30
0.0
 40
7.0
 41
0.0
 71
     5
 72
     1
  1
\A1;153
 11
0.0000000000000001
 21
1.0
 31
0.0
 73
     1
 44
1.0
  0
POINT
  5
186E
330
1867
100
AcDbEntity
  8
Defpoints
 62
     0
100
AcDbPoint
 10
218.7131735533866
 20
354.9320646054484
 30
0.0
  0
POINT
  5
186F
330
1867
100
AcDbEntity
  8
Defpoints
 62
     0
100
AcDbPoint
 10
226.5071735533866
 20
507.9320646054484
 30
0.0
  0
POINT
  5
1870
330
1867
100
AcDbEntity
  8
Defpoints
 62
     0
100
AcDbPoint
 10
109.8665004616855
 20
507.9320646054484
 30
0.0
  0
ENDBLK
  5
1872
330
1867
100
AcDbEntity
  8
0
100
AcDbBlockEnd
  0
BLOCK
  5
187D
330
1875
100
AcDbEntity
  8
0
100
AcDbBlockBegin
  2
*D5
 70
     1
 10
0.0
 20
0.0
 30
0.0
  3
*D5
  1

  0
LINE
  5
1886
330
1875
100
AcDbEntity
  8
BEM
 62
     0
370
    -2
100
AcDbLine
 10
177.947346768639
 20
392.9546569841962
 30
0.0
 11
177.9155242510698
 21
392.9866515315402
 31
0.0
  0
LINE
  5
1887
330
1875
100
AcDbEntity
  8
BEM
 62
     0
370
    -2
100
AcDbLine
 10
272.2457209194965
 20
486.7460032376107
 30
0.0
 11
272.2138984019273
 21
486.7779977849547
 31
0.0
  0
LINE
  5
1888
330
1875
100
AcDbEntity
  8
BEM
 62
     0
370
    -2
100
AcDbLine
 10
184.2889927591469
 20
396.5050175125815
 30
0.0
 11
268.6612222624118
 21
480.4235904760298
 31
0.0
  0
SOLID
  5
1889
330
1875
100
AcDbEntity
  8
BEM
 62
     0
100
AcDbTrace
 10
183.4662616516498
 20
397.3321962332142
 30
0.0
 11
185.1117238666441
 21
395.6778387919488
 31
0.0
 12
179.3259204353506
 22
391.5686308675984
 32
0.0
 13
179.3259204353506
 23
391.5686308675984
 33
0.0
  0
SOLID
  5
188A
330
1875
100
AcDbEntity
  8
BEM
 62
     0
100
AcDbTrace
 10
267.8384911549147
 20
481.2507691966624
 30
0.0
 11
269.4839533699091
 21
479.596411755397
 31
0.0
 12
273.6242945862081
 22
485.3599771210129
 32
0.0
 13
273.6242945862081
 23
485.3599771210129
 33
0.0
  0
MTEXT
  5
188B
330
1875
100
AcDbEntity
  8
BEM
 62
     1
100
AcDbMText
 10
244.1969605407002
 20
465.2585777717903
 30
0.0
 40
7.0
 41
0.0
 71
     5
 72
     1
  1
\A1;133
 11
0.709010331970894
 21
0.7051980921404445
 31
0.0
 73
     1
 44
1.0
  0
POINT
  5
188C
330
1875
100
AcDbEntity
  8
Defpoints
 62
     0
100
AcDbPoint
 10
179.3577429529199
 20
391.5366363202544
 30
0.0
  0
POINT
  5
188D
330
1875
100
AcDbEntity
  8
Defpoints
 62
     0
100
AcDbPoint
 10
273.6561171037773
 20
485.3279825736689
 30
0.0
  0
POINT
  5
188E
330
1875
100
AcDbEntity
  8
Defpoints
 62
     0
100
AcDbPoint
 10
273.6242945862081
 20
485.3599771210129
 30
0.0
  0
ENDBLK
  5
187E
330
1875
100
AcDbEntity
  8
0
100
AcDbBlockEnd
  0
BLOCK
  5
18B5
330
18AB
100
AcDbEntity
  8
0
100
AcDbBlockBegin
  2
*D6
 70
     1
 10
0.0
 20
0.0
 30
0.0
  3
*D6
  1

  0
LINE
  5
18AC
330
18AB
100
AcDbEntity
  8
BEM
 62
     0
370
    -2
100
AcDbLine
 10
136.3661735533866
 20
285.2608771708655
 30
0.0
 11
117.0854352893352
 21
285.2608771708655
 31
0.0
  0
LINE
  5
18AD
330
18AB
100
AcDbEntity
  8
BEM
 62
     0
370
    -2
100
AcDbLine
 10
136.3661574020091
 20
245.2608771708653
 30
0.0
 11
117.0854352893352
 21
245.2608771708653
 31
0.0
  0
LINE
  5
18AE
330
18AB
100
AcDbEntity
  8
BEM
 62
     0
370
    -2
100
AcDbLine
 10
119.0854352893352
 20
278.2608771708655
 30
0.0
 11
119.0854352893352
 21
252.2608771708654
 31
0.0
  0
SOLID
  5
18AF
330
18AB
100
AcDbEntity
  8
BEM
 62
     0
100
AcDbTrace
 10
117.9187686226685
 20
278.2608771708655
 30
0.0
 11
120.2521019560019
 21
278.2608771708655
 31
0.0
 12
119.0854352893352
 22
285.2608771708655
 32
0.0
 13
119.0854352893352
 23
285.2608771708655
 33
0.0
  0
SOLID
  5
18B0
330
18AB
100
AcDbEntity
  8
BEM
 62
     0
100
AcDbTrace
 10
117.9187686226685
 20
252.2608771708654
 30
0.0
 11
120.2521019560019
 21
252.2608771708654
 31
0.0
 12
119.0854352893352
 22
245.2608771708653
 32
0.0
 13
119.0854352893352
 23
245.2608771708653
 33
0.0
  0
MTEXT
  5
18B1
330
18AB
100
AcDbEntity
  8
BEM
 62
     1
100
AcDbMText
 10
112.5854352893352
 20
265.2608771708655
 30
0.0
 40
7.0
 41
0.0
 71
     5
 72
     1
  1
\A1;40
 11
0.0000000000000001
 21
1.0
 31
0.0
 73
     1
 44
1.0
  0
POINT
  5
18B2
330
18AB
100
AcDbEntity
  8
Defpoints
 62
     0
100
AcDbPoint
 10
138.3661735533866
 20
285.2608771708655
 30
0.0
  0
POINT
  5
18B3
330
18AB
100
AcDbEntity
  8
Defpoints
 62
     0
100
AcDbPoint
 10
138.3661574020091
 20
245.2608771708653
 30
0.0
  0
POINT
  5
18B4
330
18AB
100
AcDbEntity
  8
Defpoints
 62
     0
100
AcDbPoint
 10
119.0854352893352
 20
245.2608771708653
 30
0.0
  0
ENDBLK
  5
18B6
330
18AB
100
AcDbEntity
  8
0
100
AcDbBlockEnd
  0
ENDSEC
  0
SECTION
  2
ENTITIES
  0
LINE
  5
57
330
1E
100
AcDbEntity
  8
STEMPEL
100
AcDbLine
 10
410.0
 20
110.0
 30
0.0
 11
39.99999999999997
 21
110.0
 31
0.0
  0
LINE
  5
58
330
1E
100
AcDbEntity
  8
STEMPEL
100
AcDbLine
 10
136.0000000000001
 20
109.9999999999999
 30
0.0
 11
136.0
 21
9.999999999999971
 31
0.0
  0
LINE
  5
59
330
1E
100
AcDbEntity
  8
STEMPEL
100
AcDbLine
 10
220.0
 20
110.0
 30
0.0
 11
220.0
 21
9.999999999999971
 31
0.0
  0
LINE
  5
5A
330
1E
100
AcDbEntity
  8
STEMPEL
100
AcDbLine
 10
332.0
 20
109.9999999999997
 30
0.0
 11
332.0
 21
40.0
 31
0.0
  0
LINE
  5
5B
330
1E
100
AcDbEntity
  8
STEMPEL
100
AcDbLine
 10
135.9999999999999
 20
29.99999999999997
 30
0.0
 11
39.99999999999997
 21
29.99999999999997
 31
0.0
  0
LINE
  5
5C
330
1E
100
AcDbEntity
  8
STEMPEL
100
AcDbLine
 10
410.0
 20
40.0
 30
0.0
 11
136.0000000000001
 21
39.99999999999997
 31
0.0
  0
LINE
  5
5D
330
1E
100
AcDbEntity
  8
STEMPEL
100
AcDbLine
 10
410.0
 20
80.0
 30
0.0
 11
136.0000000000001
 21
79.99999999999994
 31
0.0
  0
LINE
  5
5E
330
1E
100
AcDbEntity
  8
VOLL
100
AcDbLine
 10
54.00000000000009
 20
110.0
 30
0.0
 11
53.99999999999997
 21
9.999999999999971
 31
0.0
  0
LINE
  5
5F
330
1E
100
AcDbEntity
  8
VOLL
100
AcDbLine
 10
94.00000000000011
 20
109.9999999999999
 30
0.0
 11
94.0
 21
9.999999999999971
 31
0.0
  0
LINE
  5
60
330
1E
100
AcDbEntity
  8
VOLL
100
AcDbLine
 10
114.0000000000001
 20
109.9999999999999
 30
0.0
 11
114.0
 21
9.999999999999971
 31
0.0
  0
LINE
  5
61
330
1E
100
AcDbEntity
  8
VOLL
100
AcDbLine
 10
154.0000000000001
 20
79.99999999999994
 30
0.0
 11
154.0000000000001
 21
39.99999999999997
 31
0.0
  0
LINE
  5
62
330
1E
100
AcDbEntity
  8
VOLL
100
AcDbLine
 10
180.0000000000001
 20
109.9999999999998
 30
0.0
 11
180.0
 21
39.99999999999997
 31
0.0
  0
LINE
  5
63
330
1E
100
AcDbEntity
  8
HILF
100
AcDbLine
 10
40.00000000000008
 20
100.0
 30
0.0
 11
136.0000000000001
 21
100.0
 31
0.0
  0
LINE
  5
64
330
1E
100
AcDbEntity
  8
HILF
100
AcDbLine
 10
40.00000000000008
 20
90.00000000000005
 30
0.0
 11
136.0000000000001
 21
90.00000000000005
 31
0.0
  0
LINE
  5
65
330
1E
100
AcDbEntity
  8
HILF
100
AcDbLine
 10
40.00000000000008
 20
79.99999999999994
 30
0.0
 11
136.0000000000001
 21
79.99999999999994
 31
0.0
  0
LINE
  5
66
330
1E
100
AcDbEntity
  8
HILF
100
AcDbLine
 10
40.00000000000008
 20
69.99999999999994
 30
0.0
 11
136.0000000000001
 21
69.99999999999994
 31
0.0
  0
LINE
  5
67
330
1E
100
AcDbEntity
  8
HILF
100
AcDbLine
 10
40.00000000000008
 20
59.99999999999997
 30
0.0
 11
136.0000000000001
 21
59.99999999999997
 31
0.0
  0
LINE
  5
68
330
1E
100
AcDbEntity
  8
HILF
100
AcDbLine
 10
40.00000000000008
 20
49.99999999999997
 30
0.0
 11
136.0000000000001
 21
49.99999999999997
 31
0.0
  0
LINE
  5
69
330
1E
100
AcDbEntity
  8
HILF
100
AcDbLine
 10
40.00000000000008
 20
39.99999999999997
 30
0.0
 11
136.0000000000001
 21
39.99999999999997
 31
0.0
  0
LINE
  5
6A
330
1E
100
AcDbEntity
  8
HILF
100
AcDbLine
 10
136.0000000000001
 20
69.99999999999994
 30
0.0
 11
220.0
 21
69.99999999999994
 31
0.0
  0
LINE
  5
6B
330
1E
100
AcDbEntity
  8
HILF
100
AcDbLine
 10
136.0000000000001
 20
59.99999999999997
 30
0.0
 11
220.0
 21
59.99999999999997
 31
0.0
  0
LINE
  5
6C
330
1E
100
AcDbEntity
  8
HILF
100
AcDbLine
 10
136.0000000000001
 20
49.99999999999997
 30
0.0
 11
220.0
 21
49.99999999999997
 31
0.0
  0
LINE
  5
6D
330
1E
100
AcDbEntity
  8
HILF
100
AcDbLine
 10
224.7736801096948
 20
84.03758247564139
 30
0.0
 11
324.8353916556311
 21
84.03758247564139
 31
0.0
  0
LINE
  5
6E
330
1E
100
AcDbEntity
  8
HILF
100
AcDbLine
 10
224.7736801096948
 20
69.99999999999994
 30
0.0
 11
324.835391655631
 21
69.99999999999994
 31
0.0
  0
LINE
  5
6F
330
1E
100
AcDbEntity
  8
HILF
100
AcDbLine
 10
224.7736801096948
 20
59.99999999999997
 30
0.0
 11
324.835391655631
 21
59.99999999999997
 31
0.0
  0
LINE
  5
70
330
1E
100
AcDbEntity
  8
HILF
100
AcDbLine
 10
224.7736801096948
 20
49.99999999999997
 30
0.0
 11
324.835391655631
 21
49.99999999999997
 31
0.0
  0
LINE
  5
71
330
1E
100
AcDbEntity
  8
VOLL
100
AcDbLine
 10
332.0
 20
60.0
 30
0.0
 11
410.0
 21
60.0
 31
0.0
  0
LINE
  5
72
330
1E
100
AcDbEntity
  8
HILF
100
AcDbLine
 10
336.7238616296993
 20
83.77983636955827
 30
0.0
 11
404.8588839326728
 21
83.77983636955827
 31
0.0
  0
LINE
  5
73
330
1E
100
AcDbEntity
  8
HILF
100
AcDbLine
 10
223.4909699289885
 20
14.89398258028314
 30
0.0
 11
404.8588839326728
 21
14.89398258028314
 31
0.0
  0
TEXT
  5
74
330
1E
100
AcDbEntity
  8
TEXT
100
AcDbText
 10
63.86165979631819
 20
18.67381894984132
 30
0.0
 40
4.0
  1
Änderung
 41
0.8
  7
GREEKS
 72
     1
 11
74.60451693917534
 21
18.67381894984132
 31
0.0
100
AcDbText
  0
TEXT
  5
75
330
1E
100
AcDbEntity
  8
TEXT
100
AcDbText
 10
143.5163572150377
 20
102.4620895087088
 30
0.0
 40
5.0
  1
Maßstab
 41
0.8
  7
GREEKS
100
AcDbText
  0
TEXT
  5
76
330
1E
100
AcDbEntity
  8
TEXT
100
AcDbText
 10
184.2858954734051
 20
102.4184168434819
 30
0.0
 40
5.0
  1
Zul. Abw.
 41
0.8
  7
GREEKS
100
AcDbText
  0
TEXT
  5
77
330
1E
100
AcDbEntity
  8
TEXT
100
AcDbText
 10
224.877940380901
 20
102.5489328011779
 30
0.0
 40
5.0
  1
Benennung
 41
0.8
  7
GREEKS
100
AcDbText
  0
TEXT
  5
78
330
1E
100
AcDbEntity
  8
TEXT
100
AcDbText
 10
336.178754957634
 20
102.3132034537136
 30
0.0
 40
5.0
  1
Zeichnungs Nr.
 41
0.8
  7
GREEKS
100
AcDbText
  0
TEXT
  5
79
330
1E
100
AcDbEntity
  8
TEXT
100
AcDbText
 10
224.742238391136
 20
30.84560570193057
 30
0.0
 40
5.0
  1
Bauvorhaben
 41
0.8
  7
GREEKS
100
AcDbText
  0
TEXT
  5
7A
330
1E
100
AcDbEntity
  8
TEXT
100
AcDbText
 10
336.7238616296993
 20
73.1811823709997
 30
0.0
 40
5.0
  1
Ersatz für:
 41
0.8
  7
GREEKS
100
AcDbText
  0
TEXT
  5
7B
330
1E
100
AcDbEntity
  8
TEXT
100
AcDbText
 10
48.26641107045756
 20
13.65465846027192
 30
0.0
 40
4.0
  1
Index
 50
90.0
 41
0.8
  7
GREEKS
100
AcDbText
  0
TEXT
  5
7C
330
1E
100
AcDbEntity
  8
TEXT
100
AcDbText
 10
100.0934676075481
 20
18.6715626933981
 30
0.0
 40
4.0
  1
Tag
 41
0.8
  7
GREEKS
 72
     1
 11
103.8268009408814
 21
18.6715626933981
 31
0.0
100
AcDbText
  0
TEXT
  5
7D
330
1E
100
AcDbEntity
  8
TEXT
100
AcDbText
 10
119.0122744386592
 20
18.59324216966408
 30
0.0
 40
4.0
  1
Name
 41
0.8
  7
GREEKS
 72
     1
 11
125.3360839624688
 21
18.59324216966408
 31
0.0
100
AcDbText
  0
TEXT
  5
7E
330
1E
100
AcDbEntity
  8
TEXT
100
AcDbText
 10
162.3311673153651
 20
73.31880501229926
 30
0.0
 40
4.0
  1
Tag
 41
0.8
  7
GREEKS
100
AcDbText
  0
TEXT
  5
7F
330
1E
100
AcDbEntity
  8
TEXT
100
AcDbText
 10
192.4626584226295
 20
73.30961091915225
 30
0.0
 40
4.0
  1
Name
 41
0.8
  7
GREEKS
100
AcDbText
  0
TEXT
  5
80
330
1E
100
AcDbEntity
  8
TEXT
100
AcDbText
 10
137.5836127167615
 20
63.62990369617964
 30
0.0
 40
4.0
  1
Gez.
 41
0.8
  7
GREEKS
100
AcDbText
  0
TEXT
  5
81
330
1E
100
AcDbEntity
  8
TEXT
100
AcDbText
 10
137.5515086571672
 20
53.68926291428377
 30
0.0
 40
4.0
  1
Gepr.
 41
0.8
  7
GREEKS
100
AcDbText
  0
TEXT
  5
82
330
1E
100
AcDbEntity
  8
TEXT
100
AcDbText
 10
137.6006777387304
 20
43.52946389649807
 30
0.0
 40
4.0
  1
Norm.
 41
0.8
  7
GREEKS
100
AcDbText
  0
LINE
  5
83
330
1E
100
AcDbEntity
  8
STEMPEL
100
AcDbLine
 10
49.99999999999989
 20
10.0
 30
0.0
 11
410.0
 21
10.0
 31
0.0
  0
TEXT
  5
84
330
1E
100
AcDbEntity
  8
TEXT
100
AcDbText
 10
337.2400861497006
 20
52.07416177878602
 30
0.0
 40
5.0
  1
ersetzt durch:
 41
0.8
  7
GREEKS
100
AcDbText
  0
LINE
  5
85
330
1E
100
AcDbEntity
  8
STEMPEL
100
AcDbLine
 10
410.0
 20
10.0
 30
0.0
 11
39.99999999999989
 21
10.0
 31
0.0
  0
LINE
  5
86
330
1E
100
AcDbEntity
  8
STEMPEL
100
AcDbLine
 10
410.0
 20
10.0
 30
0.0
 11
410.0
 21
584.0
 31
0.0
  0
LINE
  5
87
330
1E
100
AcDbEntity
  8
STEMPEL
100
AcDbLine
 10
40.0
 20
10.0
 30
0.0
 11
39.99999999999989
 21
584.0
 31
0.0
  0
LINE
  5
88
330
1E
100
AcDbEntity
  8
STEMPEL
100
AcDbLine
 10
410.0
 20
584.0
 30
0.0
 11
39.99999999999989
 21
584.0
 31
0.0
  0
LINE
  5
89
330
1E
100
AcDbEntity
  8
HILF
100
AcDbLine
 10
0.0
 20
0.0
 30
0.0
 11
-0.0000000000001137
 21
594.0
 31
0.0
  0
LINE
  5
8A
330
1E
100
AcDbEntity
  8
HILF
100
AcDbLine
 10
419.9999999999999
 20
594.0000000000002
 30
0.0
 11
0.0
 21
594.0
 31
0.0
  0
LINE
  5
8B
330
1E
100
AcDbEntity
  8
HILF
100
AcDbLine
 10
420.0
 20
0.0
 30
0.0
 11
0.0
 21
0.0
 31
0.0
  0
LINE
  5
8C
330
1E
100
AcDbEntity
  8
HILF
100
AcDbLine
 10
31.08767135713856
 20
297.0
 30
0.0
 11
0.0000000000001137
 21
297.0
 31
0.0
  0
TEXT
  5
8D
330
1E
100
AcDbEntity
  8
TEXT
100
AcDbText
 10
138.622109822104
 20
73.14025471151666
 30
0.0
 40
4.0
  1
2012
 41
0.8
  7
GREEKS
100
AcDbText
  0
LINE
  5
8E
330
1E
100
AcDbEntity
  8
HILF
100
AcDbLine
 10
420.0
 20
-0.0000000000001137
 30
0.0
 11
419.9999999999999
 21
594.0
 31
0.0
  0
TEXT
  5
8F
330
1E
100
AcDbEntity
  8
VOLL
100
AcDbText
 10
78.07675471698113
 20
31.02594776470585
 30
0.0
 40
1.8
  1

  7
GREEKS
100
AcDbText
  0
TEXT
  5
90
330
1E
100
AcDbEntity
  8
TEXT
100
AcDbText
 10
41.85509950977674
 20
111.6719999999999
 30
0.0
 40
5.0
  1
Erstellt mit AUTOCAD 2004
 41
0.8
  7
GREEKS
100
AcDbText
  0
TEXT
  5
91
330
1E
100
AcDbEntity
  8
TEXT
100
AcDbText
 10
194.4216048581257
 20
63.0896391972351
 30
0.0
 40
4.0
  1
Koeh
 41
0.8
  7
GREEKS
 72
     1
 11
199.6787477152685
 21
63.0896391972351
 31
0.0
100
AcDbText
  0
TEXT
  5
92
330
1E
100
AcDbEntity
  8
TEXT
 62
     1
100
AcDbText
 10
346.3054909762015
 20
88.14901428913959
 30
0.0
 40
7.0
  1
00977125W
 41
0.8
  7
GREEKS
 72
     1
 11
369.7721576428681
 21
88.14901428913959
 31
0.0
100
AcDbText
  0
TEXT
  5
93
330
1E
100
AcDbEntity
  8
TEXT
 62
     1
100
AcDbText
 10
150.5006306481887
 20
88.14901428913959
 30
0.0
 40
7.0
  1
1:2
 41
0.8
  7
GREEKS
100
AcDbText
  0
TEXT
  5
94
330
1E
100
AcDbEntity
  8
TEXT
100
AcDbText
 10
160.7037590129979
 20
63.10765040825732
 30
0.0
 40
4.0
  1
29.10.
 41
0.8
  7
GREEKS
 72
     1
 11
167.4085209177598
 21
63.10765040825732
 31
0.0
100
AcDbText
  0
TEXT
  5
95
330
1E
100
AcDbEntity
  8
TEXT
 62
     1
100
AcDbText
 10
226.8935731057402
 20
87.41748789253779
 30
0.0
 40
7.0
  1
Rohrschelle DN125
 41
0.8
  7
GREEKS
100
AcDbText
  0
TEXT
  5
96
330
1E
100
AcDbEntity
  8
TEXT
100
AcDbText
 10
225.1296391125315
 20
71.50334417585288
 30
0.0
 40
5.0
  1
mit Anschlußgewinde M12
 41
0.8
  7
GREEKS
100
AcDbText
  0
TEXT
  5
98
330
1E
100
AcDbEntity
  8
TEXT
100
AcDbText
 10
225.1296391125315
 20
51.64011943042158
 30
0.0
 40
5.0
  1
EDV-Art.Nr. 00977.125X
 41
0.8
  7
GREEKS
100
AcDbText
  0
TEXT
  5
99
330
1E
100
AcDbEntity
  8
TEXT
100
AcDbText
 10
224.9837501577827
 20
42.62974153022632
 30
0.0
 40
4.0
  1
00977125W.DWG
 41
0.8
  7
GREEKS
100
AcDbText
  0
TEXT
  5
9A
330
1E
100
AcDbEntity
  8
TEXT
100
AcDbText
 10
182.626132208084
 20
90.76363841023022
 30
0.0
 40
4.0
  1
DIN EN1123-2
 41
0.8
  7
GREEKS
 72
     1
 11
199.6166083985602
 21
90.76363841023022
 31
0.0
100
AcDbText
  0
INSERT
  5
9B
330
1E
100
AcDbEntity
  8
STEMPEL
100
AcDbBlockReference
  2
LOGO
 10
140.9955485457794
 20
45.02105276448322
 30
0.0
 41
2.0
 42
2.0
 43
2.0
  0
TEXT
  5
118
330
1E
100
AcDbEntity
  8
BEM
100
AcDbText
 10
417.3022923857165
 20
10.16790107998849
 30
0.0
 40
4.0
  1
Diese Zeichnung ist urheberrechtlich geschützt und bleibt unser Eigentum. Sie darf weder ganz noch teilweise verfielfältigt und nicht an Dritte weitergegeben werden.
 50
90.0
 41
0.8
  7
GREEKS
100
AcDbText
  0
LINE
  5
7BC
330
1E
100
AcDbEntity
  8
TEXT
 62
     2
100
AcDbLine
 10
321.4185263954539
 20
487.1900324148672
 30
0.0
 11
311.5324843992237
 21
444.9172096321643
 31
0.0
  0
LINE
  5
7BD
330
1E
100
AcDbEntity
  8
TEXT
 62
     2
100
AcDbLine
 10
321.4185263954539
 20
487.1900324148672
 30
0.0
 11
396.4202082130844
 21
487.1900324148672
 31
0.0
  0
TEXT
  5
7BE
330
1E
100
AcDbEntity
  8
TEXT
 62
     1
100
AcDbText
 10
323.5384193914992
 20
490.5699378317636
 30
0.0
 40
7.0
  1
Schraube M8x30
 41
0.8
  7
GREEKS
100
AcDbText
  0
TEXT
  5
7BF
330
1E
100
AcDbEntity
  8
TEXT
 62
     1
100
AcDbText
 10
237.0843421735884
 20
336.2937685101302
 30
0.0
 40
7.0
  1
M12
 41
0.8
  7
GREEKS
100
AcDbText
  0
LINE
  5
7C0
330
1E
100
AcDbEntity
  8
TEXT
 62
     2
100
AcDbLine
 10
234.9644491775428
 20
332.9138630932339
 30
0.0
 11
252.9283622477408
 21
332.9138630932339
 31
0.0
  0
LINE
  5
7C1
330
1E
100
AcDbEntity
  8
TEXT
 62
     2
100
AcDbLine
 10
234.9644491775428
 20
332.9138630932339
 30
0.0
 11
226.5071735533866
 21
354.9320646054484
 31
0.0
  0
LINE
  5
1736
330
1E
100
AcDbEntity
  8
HILF
100
AcDbLine
 10
305.7571735533866
 20
412.9320646054484
 30
0.0
 11
305.7571735533866
 21
430.9320646054484
 31
0.0
  0
LINE
  5
1737
330
1E
100
AcDbEntity
  8
HILF
100
AcDbLine
 10
312.2571735533866
 20
412.9320646054484
 30
0.0
 11
312.2571735533866
 21
430.9320646054484
 31
0.0
  0
LINE
  5
1738
330
1E
100
AcDbEntity
  8
STEMPEL
100
AcDbLine
 10
313.0071735533866
 20
413.6820646054484
 30
0.0
 11
305.0071735533866
 21
413.6820646054484
 31
0.0
  0
LINE
  5
1739
330
1E
100
AcDbEntity
  8
HILF
100
AcDbLine
 10
305.7571735533866
 20
438.6820646054484
 30
0.0
 11
305.7571735533866
 21
439.9320646054484
 31
0.0
  0
LINE
  5
173A
330
1E
100
AcDbEntity
  8
HILF
100
AcDbLine
 10
305.7571735533866
 20
436.9320646054484
 30
0.0
 11
305.7571735533866
 21
438.1820646054484
 31
0.0
  0
LINE
  5
173B
330
1E
100
AcDbEntity
  8
HILF
100
AcDbLine
 10
312.2571735533866
 20
438.6820646054484
 30
0.0
 11
312.2571735533866
 21
439.9320646054484
 31
0.0
  0
LINE
  5
173C
330
1E
100
AcDbEntity
  8
HILF
100
AcDbLine
 10
312.2571735533866
 20
436.9320646054484
 30
0.0
 11
312.2571735533866
 21
438.1820646054484
 31
0.0
  0
LINE
  5
173D
330
1E
100
AcDbEntity
  8
STEMPEL
100
AcDbLine
 10
305.0071735533866
 20
438.6820646054484
 30
0.0
 11
305.0071735533866
 21
439.9320646054484
 31
0.0
  0
LINE
  5
173E
330
1E
100
AcDbEntity
  8
STEMPEL
100
AcDbLine
 10
305.0071735533866
 20
436.9320646054484
 30
0.0
 11
305.0071735533866
 21
438.1820646054484
 31
0.0
  0
LINE
  5
173F
330
1E
100
AcDbEntity
  8
STEMPEL
100
AcDbLine
 10
313.0071735533866
 20
438.1820646054484
 30
0.0
 11
313.0071735533866
 21
436.9320646054484
 31
0.0
  0
LINE
  5
1740
330
1E
100
AcDbEntity
  8
STEMPEL
100
AcDbLine
 10
313.0071735533866
 20
439.9320646054484
 30
0.0
 11
313.0071735533866
 21
438.6820646054484
 31
0.0
  0
ARC
  5
1741
330
1E
100
AcDbEntity
  8
STEMPEL
100
AcDbCircle
 10
309.0071735533866
 20
437.0740646054485
 30
0.0
 40
11.158
100
AcDbArc
 50
95.91552076700024
 51
109.6528596320003
  0
ARC
  5
1742
330
1E
100
AcDbEntity
  8
STEMPEL
100
AcDbCircle
 10
309.0071735533866
 20
437.0740646054485
 30
0.0
 40
11.158
100
AcDbArc
 50
70.3471403679997
 51
84.08447923299975
  0
LINE
  5
1743
330
1E
100
AcDbEntity
  8
STEMPEL
100
AcDbLine
 10
307.8571735533866
 20
448.2320646054485
 30
0.0
 11
303.3781735533866
 21
448.2320646054485
 31
0.0
  0
LINE
  5
1744
330
1E
100
AcDbEntity
  8
STEMPEL
100
AcDbLine
 10
307.8571735533866
 20
445.7320646054484
 30
0.0
 11
307.8571735533866
 21
448.2320646054485
 31
0.0
  0
LINE
  5
1745
330
1E
100
AcDbEntity
  8
STEMPEL
100
AcDbLine
 10
310.1571735533866
 20
445.7320646054484
 30
0.0
 11
307.8571735533866
 21
445.7320646054484
 31
0.0
  0
LINE
  5
1746
330
1E
100
AcDbEntity
  8
STEMPEL
100
AcDbLine
 10
310.1571735533866
 20
448.2320646054485
 30
0.0
 11
310.1571735533866
 21
445.7320646054484
 31
0.0
  0
LINE
  5
1747
330
1E
100
AcDbEntity
  8
STEMPEL
100
AcDbLine
 10
314.6361735533866
 20
448.2320646054485
 30
0.0
 11
310.1571735533866
 21
448.2320646054485
 31
0.0
  0
LINE
  5
1748
330
1E
100
AcDbEntity
  8
STEMPEL
100
AcDbLine
 10
305.0071735533866
 20
413.6820646054484
 30
0.0
 11
305.0071735533866
 21
430.9320646054484
 31
0.0
  0
LINE
  5
1749
330
1E
100
AcDbEntity
  8
STEMPEL
100
AcDbLine
 10
305.7571735533866
 20
412.9320646054484
 30
0.0
 11
305.0071735533866
 21
413.6820646054484
 31
0.0
  0
LINE
  5
174A
330
1E
100
AcDbEntity
  8
STEMPEL
100
AcDbLine
 10
312.2571735533866
 20
412.9320646054484
 30
0.0
 11
305.7571735533866
 21
412.9320646054484
 31
0.0
  0
LINE
  5
174B
330
1E
100
AcDbEntity
  8
STEMPEL
100
AcDbLine
 10
313.0071735533866
 20
413.6820646054484
 30
0.0
 11
312.2571735533866
 21
412.9320646054484
 31
0.0
  0
LINE
  5
174C
330
1E
100
AcDbEntity
  8
STEMPEL
100
AcDbLine
 10
313.0071735533866
 20
430.9320646054484
 30
0.0
 11
313.0071735533866
 21
413.6820646054484
 31
0.0
  0
LINE
  5
174D
330
1E
100
AcDbEntity
  8
STEMPEL
100
AcDbLine
 10
312.7601735533866
 20
447.5820646054485
 30
0.0
 11
312.7601735533866
 21
442.9320646054484
 31
0.0
  0
ARC
  5
174E
330
1E
100
AcDbEntity
  8
STEMPEL
100
AcDbCircle
 10
314.6361735533866
 20
445.1990646054484
 30
0.0
 40
3.032999999999999
100
AcDbArc
 50
90.0
 51
128.2132107019996
  0
ARC
  5
174F
330
1E
100
AcDbEntity
  8
STEMPEL
100
AcDbCircle
 10
314.6361735533866
 20
445.1990646054484
 30
0.0
 40
3.032999999999999
100
AcDbArc
 50
51.78678929800037
 51
90.0
  0
LINE
  5
1750
330
1E
100
AcDbEntity
  8
STEMPEL
100
AcDbLine
 10
316.5121735533866
 20
442.9320646054484
 30
0.0
 11
316.5121735533866
 21
447.5820646054485
 31
0.0
  0
LINE
  5
1751
330
1E
100
AcDbEntity
  8
STEMPEL
100
AcDbLine
 10
313.4071735533866
 20
442.9320646054484
 30
0.0
 11
316.5121735533866
 21
442.9320646054484
 31
0.0
  0
LINE
  5
1752
330
1E
100
AcDbEntity
  8
STEMPEL
100
AcDbLine
 10
304.6071735533866
 20
442.9320646054484
 30
0.0
 11
313.4071735533866
 21
442.9320646054484
 31
0.0
  0
LINE
  5
1753
330
1E
100
AcDbEntity
  8
STEMPEL
100
AcDbLine
 10
301.5011735533866
 20
442.9320646054484
 30
0.0
 11
304.6071735533866
 21
442.9320646054484
 31
0.0
  0
LINE
  5
1754
330
1E
100
AcDbEntity
  8
STEMPEL
100
AcDbLine
 10
301.5011735533866
 20
447.5820646054485
 30
0.0
 11
301.5011735533866
 21
442.9320646054484
 31
0.0
  0
ARC
  5
1755
330
1E
100
AcDbEntity
  8
STEMPEL
100
AcDbCircle
 10
303.3781735533866
 20
445.1990646054484
 30
0.0
 40
3.032999999999999
100
AcDbArc
 50
90.0
 51
128.2132107019996
  0
ARC
  5
1756
330
1E
100
AcDbEntity
  8
STEMPEL
100
AcDbCircle
 10
303.3781735533866
 20
445.1990646054484
 30
0.0
 40
3.032999999999999
100
AcDbArc
 50
51.78678929800037
 51
90.0
  0
LINE
  5
1757
330
1E
100
AcDbEntity
  8
STEMPEL
100
AcDbLine
 10
305.2541735533866
 20
442.9320646054484
 30
0.0
 11
305.2541735533866
 21
447.5820646054485
 31
0.0
  0
LINE
  5
1758
330
1E
100
AcDbEntity
  8
HILF
100
AcDbLine
 10
140.7571735533866
 20
412.9320646054484
 30
0.0
 11
140.7571735533866
 21
430.9320646054484
 31
0.0
  0
LINE
  5
1759
330
1E
100
AcDbEntity
  8
HILF
100
AcDbLine
 10
147.2571735533866
 20
412.9320646054484
 30
0.0
 11
147.2571735533866
 21
430.9320646054484
 31
0.0
  0
LINE
  5
175A
330
1E
100
AcDbEntity
  8
STEMPEL
100
AcDbLine
 10
148.0071735533866
 20
413.6820646054484
 30
0.0
 11
140.0071735533866
 21
413.6820646054484
 31
0.0
  0
LINE
  5
175B
330
1E
100
AcDbEntity
  8
HILF
100
AcDbLine
 10
140.7571735533866
 20
438.6820646054484
 30
0.0
 11
140.7571735533866
 21
439.9320646054484
 31
0.0
  0
LINE
  5
175C
330
1E
100
AcDbEntity
  8
HILF
100
AcDbLine
 10
140.7571735533866
 20
436.9320646054484
 30
0.0
 11
140.7571735533866
 21
438.1820646054484
 31
0.0
  0
LINE
  5
175D
330
1E
100
AcDbEntity
  8
HILF
100
AcDbLine
 10
147.2571735533866
 20
438.6820646054484
 30
0.0
 11
147.2571735533866
 21
439.9320646054484
 31
0.0
  0
LINE
  5
175E
330
1E
100
AcDbEntity
  8
HILF
100
AcDbLine
 10
147.2571735533866
 20
436.9320646054484
 30
0.0
 11
147.2571735533866
 21
438.1820646054484
 31
0.0
  0
LINE
  5
175F
330
1E
100
AcDbEntity
  8
STEMPEL
100
AcDbLine
 10
140.0071735533866
 20
438.6820646054484
 30
0.0
 11
140.0071735533866
 21
439.9320646054484
 31
0.0
  0
LINE
  5
1760
330
1E
100
AcDbEntity
  8
STEMPEL
100
AcDbLine
 10
140.0071735533866
 20
436.9320646054484
 30
0.0
 11
140.0071735533866
 21
438.1820646054484
 31
0.0
  0
LINE
  5
1761
330
1E
100
AcDbEntity
  8
STEMPEL
100
AcDbLine
 10
148.0071735533866
 20
438.1820646054484
 30
0.0
 11
148.0071735533866
 21
436.9320646054484
 31
0.0
  0
LINE
  5
1762
330
1E
100
AcDbEntity
  8
STEMPEL
100
AcDbLine
 10
148.0071735533866
 20
439.9320646054484
 30
0.0
 11
148.0071735533866
 21
438.6820646054484
 31
0.0
  0
ARC
  5
1763
330
1E
100
AcDbEntity
  8
STEMPEL
100
AcDbCircle
 10
144.0071735533866
 20
437.0740646054485
 30
0.0
 40
11.158
100
AcDbArc
 50
95.91552076700024
 51
109.6528596320003
  0
ARC
  5
1764
330
1E
100
AcDbEntity
  8
STEMPEL
100
AcDbCircle
 10
144.0071735533866
 20
437.0740646054485
 30
0.0
 40
11.158
100
AcDbArc
 50
70.3471403679997
 51
84.08447923299975
  0
LINE
  5
1765
330
1E
100
AcDbEntity
  8
STEMPEL
100
AcDbLine
 10
142.8571735533866
 20
448.2320646054485
 30
0.0
 11
138.3781735533866
 21
448.2320646054485
 31
0.0
  0
LINE
  5
1766
330
1E
100
AcDbEntity
  8
STEMPEL
100
AcDbLine
 10
142.8571735533866
 20
445.7320646054484
 30
0.0
 11
142.8571735533866
 21
448.2320646054485
 31
0.0
  0
LINE
  5
1767
330
1E
100
AcDbEntity
  8
STEMPEL
100
AcDbLine
 10
145.1571735533866
 20
445.7320646054484
 30
0.0
 11
142.8571735533866
 21
445.7320646054484
 31
0.0
  0
LINE
  5
1768
330
1E
100
AcDbEntity
  8
STEMPEL
100
AcDbLine
 10
145.1571735533866
 20
448.2320646054485
 30
0.0
 11
145.1571735533866
 21
445.7320646054484
 31
0.0
  0
LINE
  5
1769
330
1E
100
AcDbEntity
  8
STEMPEL
100
AcDbLine
 10
149.6361735533866
 20
448.2320646054485
 30
0.0
 11
145.1571735533866
 21
448.2320646054485
 31
0.0
  0
LINE
  5
176A
330
1E
100
AcDbEntity
  8
STEMPEL
100
AcDbLine
 10
140.0071735533866
 20
413.6820646054484
 30
0.0
 11
140.0071735533866
 21
430.9320646054484
 31
0.0
  0
LINE
  5
176B
330
1E
100
AcDbEntity
  8
STEMPEL
100
AcDbLine
 10
140.7571735533866
 20
412.9320646054484
 30
0.0
 11
140.0071735533866
 21
413.6820646054484
 31
0.0
  0
LINE
  5
176C
330
1E
100
AcDbEntity
  8
STEMPEL
100
AcDbLine
 10
147.2571735533866
 20
412.9320646054484
 30
0.0
 11
140.7571735533866
 21
412.9320646054484
 31
0.0
  0
LINE
  5
176D
330
1E
100
AcDbEntity
  8
STEMPEL
100
AcDbLine
 10
148.0071735533866
 20
413.6820646054484
 30
0.0
 11
147.2571735533866
 21
412.9320646054484
 31
0.0
  0
LINE
  5
176E
330
1E
100
AcDbEntity
  8
STEMPEL
100
AcDbLine
 10
148.0071735533866
 20
430.9320646054484
 30
0.0
 11
148.0071735533866
 21
413.6820646054484
 31
0.0
  0
LINE
  5
176F
330
1E
100
AcDbEntity
  8
STEMPEL
100
AcDbLine
 10
147.7601735533866
 20
447.5820646054485
 30
0.0
 11
147.7601735533866
 21
442.9320646054484
 31
0.0
  0
ARC
  5
1770
330
1E
100
AcDbEntity
  8
STEMPEL
100
AcDbCircle
 10
149.6361735533866
 20
445.1990646054484
 30
0.0
 40
3.032999999999999
100
AcDbArc
 50
90.0
 51
128.2132107019996
  0
ARC
  5
1771
330
1E
100
AcDbEntity
  8
STEMPEL
100
AcDbCircle
 10
149.6361735533866
 20
445.1990646054484
 30
0.0
 40
3.032999999999999
100
AcDbArc
 50
51.78678929800037
 51
90.0
  0
LINE
  5
1772
330
1E
100
AcDbEntity
  8
STEMPEL
100
AcDbLine
 10
151.5121735533866
 20
442.9320646054484
 30
0.0
 11
151.5121735533866
 21
447.5820646054485
 31
0.0
  0
LINE
  5
1773
330
1E
100
AcDbEntity
  8
STEMPEL
100
AcDbLine
 10
148.4071735533866
 20
442.9320646054484
 30
0.0
 11
151.5121735533866
 21
442.9320646054484
 31
0.0
  0
LINE
  5
1774
330
1E
100
AcDbEntity
  8
STEMPEL
100
AcDbLine
 10
139.6071735533866
 20
442.9320646054484
 30
0.0
 11
148.4071735533866
 21
442.9320646054484
 31
0.0
  0
LINE
  5
1775
330
1E
100
AcDbEntity
  8
STEMPEL
100
AcDbLine
 10
136.5011735533866
 20
442.9320646054484
 30
0.0
 11
139.6071735533866
 21
442.9320646054484
 31
0.0
  0
LINE
  5
1776
330
1E
100
AcDbEntity
  8
STEMPEL
100
AcDbLine
 10
136.5011735533866
 20
447.5820646054485
 30
0.0
 11
136.5011735533866
 21
442.9320646054484
 31
0.0
  0
ARC
  5
1777
330
1E
100
AcDbEntity
  8
STEMPEL
100
AcDbCircle
 10
138.3781735533866
 20
445.1990646054484
 30
0.0
 40
3.032999999999999
100
AcDbArc
 50
90.0
 51
128.2132107019996
  0
ARC
  5
1778
330
1E
100
AcDbEntity
  8
STEMPEL
100
AcDbCircle
 10
138.3781735533866
 20
445.1990646054484
 30
0.0
 40
3.032999999999999
100
AcDbArc
 50
51.78678929800037
 51
90.0
  0
LINE
  5
1779
330
1E
100
AcDbEntity
  8
STEMPEL
100
AcDbLine
 10
140.2541735533866
 20
442.9320646054484
 30
0.0
 11
140.2541735533866
 21
447.5820646054485
 31
0.0
  0
LINE
  5
177A
330
1E
100
AcDbEntity
  8
STEMPEL
100
AcDbLine
 10
307.8571735533866
 20
258.7608771708655
 30
0.0
 11
307.8571735533866
 21
271.7608771708655
 31
0.0
  0
LINE
  5
177B
330
1E
100
AcDbEntity
  8
STEMPEL
100
AcDbLine
 10
310.1571735533866
 20
258.7608771708655
 30
0.0
 11
310.1571735533866
 21
271.7608771708655
 31
0.0
  0
ARC
  5
177D
330
1E
100
AcDbEntity
  8
STEMPEL
100
AcDbCircle
 10
309.0071735533866
 20
265.2608771708655
 30
0.0
 40
6.5
100
AcDbArc
 50
280.1905887679999
 51
79.80941123200008
  0
ARC
  5
177E
330
1E
100
AcDbEntity
  8
STEMPEL
100
AcDbCircle
 10
309.0071735533866
 20
265.2608771708655
 30
0.0
 40
6.5
100
AcDbArc
 50
100.1905887679999
 51
259.8094112320001
  0
LINE
  5
177F
330
1E
100
AcDbEntity
  8
STEMPEL
100
AcDbLine
 10
305.2541735533866
 20
258.7608771708655
 30
0.0
 11
301.5011735533866
 21
265.2608771708655
 31
0.0
  0
LINE
  5
1780
330
1E
100
AcDbEntity
  8
STEMPEL
100
AcDbLine
 10
312.7601735533866
 20
258.7608771708655
 30
0.0
 11
305.2541735533866
 21
258.7608771708655
 31
0.0
  0
LINE
  5
1781
330
1E
100
AcDbEntity
  8
STEMPEL
100
AcDbLine
 10
316.5121735533866
 20
265.2608771708655
 30
0.0
 11
312.7601735533866
 21
258.7608771708655
 31
0.0
  0
LINE
  5
1782
330
1E
100
AcDbEntity
  8
STEMPEL
100
AcDbLine
 10
312.7601735533866
 20
271.7608771708655
 30
0.0
 11
316.5121735533866
 21
265.2608771708655
 31
0.0
  0
LINE
  5
1783
330
1E
100
AcDbEntity
  8
STEMPEL
100
AcDbLine
 10
305.2541735533866
 20
271.7608771708655
 30
0.0
 11
312.7601735533866
 21
271.7608771708655
 31
0.0
  0
LINE
  5
1784
330
1E
100
AcDbEntity
  8
STEMPEL
100
AcDbLine
 10
301.5011735533866
 20
265.2608771708655
 30
0.0
 11
305.2541735533866
 21
271.7608771708655
 31
0.0
  0
LINE
  5
1785
330
1E
100
AcDbEntity
  8
STEMPEL
100
AcDbLine
 10
142.8571735533866
 20
258.7608771708655
 30
0.0
 11
142.8571735533866
 21
271.7608771708655
 31
0.0
  0
LINE
  5
1786
330
1E
100
AcDbEntity
  8
STEMPEL
100
AcDbLine
 10
145.1571735533866
 20
258.7608771708655
 30
0.0
 11
145.1571735533866
 21
271.7608771708655
 31
0.0
  0
ARC
  5
1788
330
1E
100
AcDbEntity
  8
STEMPEL
100
AcDbCircle
 10
144.0071735533866
 20
265.2608771708655
 30
0.0
 40
6.5
100
AcDbArc
 50
280.1905887679999
 51
79.80941123200008
  0
ARC
  5
1789
330
1E
100
AcDbEntity
  8
STEMPEL
100
AcDbCircle
 10
144.0071735533866
 20
265.2608771708655
 30
0.0
 40
6.5
100
AcDbArc
 50
100.1905887679999
 51
259.8094112320001
  0
LINE
  5
178A
330
1E
100
AcDbEntity
  8
STEMPEL
100
AcDbLine
 10
140.2541735533866
 20
258.7608771708655
 30
0.0
 11
136.5011735533866
 21
265.2608771708655
 31
0.0
  0
LINE
  5
178B
330
1E
100
AcDbEntity
  8
STEMPEL
100
AcDbLine
 10
147.7601735533866
 20
258.7608771708655
 30
0.0
 11
140.2541735533866
 21
258.7608771708655
 31
0.0
  0
LINE
  5
178C
330
1E
100
AcDbEntity
  8
STEMPEL
100
AcDbLine
 10
151.5121735533866
 20
265.2608771708655
 30
0.0
 11
147.7601735533866
 21
258.7608771708655
 31
0.0
  0
LINE
  5
178D
330
1E
100
AcDbEntity
  8
STEMPEL
100
AcDbLine
 10
147.7601735533866
 20
271.7608771708655
 30
0.0
 11
151.5121735533866
 21
265.2608771708655
 31
0.0
  0
LINE
  5
178E
330
1E
100
AcDbEntity
  8
STEMPEL
100
AcDbLine
 10
140.2541735533866
 20
271.7608771708655
 30
0.0
 11
147.7601735533866
 21
271.7608771708655
 31
0.0
  0
LINE
  5
178F
330
1E
100
AcDbEntity
  8
STEMPEL
100
AcDbLine
 10
136.5011735533866
 20
265.2608771708655
 30
0.0
 11
140.2541735533866
 21
271.7608771708655
 31
0.0
  0
LINE
  5
1790
330
1E
100
AcDbEntity
  8
STEMPEL
100
AcDbLine
 10
136.7571735533866
 20
438.6820646054484
 30
0.0
 11
136.7571735533866
 21
438.1820646054484
 31
0.0
  0
LINE
  5
1791
330
1E
100
AcDbEntity
  8
STEMPEL
100
AcDbLine
 10
151.2571735533866
 20
438.6820646054484
 30
0.0
 11
136.7571735533866
 21
438.6820646054484
 31
0.0
  0
LINE
  5
1792
330
1E
100
AcDbEntity
  8
STEMPEL
100
AcDbLine
 10
151.2571735533866
 20
438.1820646054484
 30
0.0
 11
151.2571735533866
 21
438.6820646054484
 31
0.0
  0
LINE
  5
1793
330
1E
100
AcDbEntity
  8
STEMPEL
100
AcDbLine
 10
136.7571735533866
 20
438.1820646054484
 30
0.0
 11
151.2571735533866
 21
438.1820646054484
 31
0.0
  0
LINE
  5
1794
330
1E
100
AcDbEntity
  8
STEMPEL
100
AcDbLine
 10
302.0671735533866
 20
438.6820646054484
 30
0.0
 11
302.0671735533866
 21
438.1820646054484
 31
0.0
  0
LINE
  5
1795
330
1E
100
AcDbEntity
  8
STEMPEL
100
AcDbLine
 10
316.5671735533866
 20
438.6820646054484
 30
0.0
 11
302.0671735533866
 21
438.6820646054484
 31
0.0
  0
LINE
  5
1796
330
1E
100
AcDbEntity
  8
STEMPEL
100
AcDbLine
 10
316.5671735533866
 20
438.1820646054484
 30
0.0
 11
316.5671735533866
 21
438.6820646054484
 31
0.0
  0
LINE
  5
1797
330
1E
100
AcDbEntity
  8
STEMPEL
100
AcDbLine
 10
302.0671735533866
 20
438.1820646054484
 30
0.0
 11
316.5671735533866
 21
438.1820646054484
 31
0.0
  0
ARC
  5
17A7
330
1E
100
AcDbEntity
  8
STEMPEL
100
AcDbCircle
 10
218.7131735533866
 20
359.1320646054485
 30
0.0
 40
4.2
100
AcDbArc
 50
270.0
 51
308.2132107019996
  0
ARC
  5
17A8
330
1E
100
AcDbEntity
  8
STEMPEL
100
AcDbCircle
 10
218.7131735533866
 20
359.1320646054485
 30
0.0
 40
4.2
100
AcDbArc
 50
231.7867892980003
 51
270.0
  0
ARC
  5
17A9
330
1E
100
AcDbEntity
  8
STEMPEL
100
AcDbCircle
 10
226.5071735533866
 20
370.3820646054485
 30
0.0
 40
15.45
100
AcDbArc
 50
250.3471403679997
 51
270.0
  0
LINE
  5
17AA
330
1E
100
AcDbEntity
  8
STEMPEL
100
AcDbLine
 10
226.5071735533866
 20
354.9320646054484
 30
0.0
 11
218.7131735533866
 21
354.9320646054484
 31
0.0
  0
LINE
  5
17AB
330
1E
100
AcDbEntity
  8
STEMPEL
100
AcDbLine
 10
216.1141735533866
 20
366.5320646054484
 30
0.0
 11
216.1141735533866
 21
355.8320646054485
 31
0.0
  0
LINE
  5
17AC
330
1E
100
AcDbEntity
  8
STEMPEL
100
AcDbLine
 10
221.3111735533866
 20
366.5320646054484
 30
0.0
 11
221.3111735533866
 21
355.8320646054485
 31
0.0
  0
LINE
  5
17AD
330
1E
100
AcDbEntity
  8
STEMPEL
100
AcDbLine
 10
231.7031735533866
 20
366.5320646054484
 30
0.0
 11
231.7031735533866
 21
355.8320646054485
 31
0.0
  0
LINE
  5
17AF
330
1E
100
AcDbEntity
  8
STEMPEL
100
AcDbLine
 10
236.8991735533866
 20
366.5320646054484
 30
0.0
 11
236.8991735533866
 21
355.8320646054485
 31
0.0
  0
ARC
  5
17B0
330
1E
100
AcDbEntity
  8
STEMPEL
100
AcDbCircle
 10
234.3011735533866
 20
359.1320646054485
 30
0.0
 40
4.2
100
AcDbArc
 50
270.0
 51
308.2132107019996
  0
LINE
  5
17B1
330
1E
100
AcDbEntity
  8
STEMPEL
100
AcDbLine
 10
226.5071735533866
 20
354.9320646054484
 30
0.0
 11
234.3011735533866
 21
354.9320646054484
 31
0.0
  0
ARC
  5
17B2
330
1E
100
AcDbEntity
  8
STEMPEL
100
AcDbCircle
 10
226.5071735533866
 20
370.3820646054485
 30
0.0
 40
15.45
100
AcDbArc
 50
270.0
 51
289.6528596320004
  0
ARC
  5
17B3
330
1E
100
AcDbEntity
  8
STEMPEL
100
AcDbCircle
 10
234.3011735533866
 20
359.1320646054485
 30
0.0
 40
4.2
100
AcDbArc
 50
231.7867892980003
 51
270.0
  0
ARC
  5
17B4
330
1E
100
AcDbEntity
  8
STEMPEL
100
AcDbCircle
 10
302.5071735533866
 20
432.4320646054484
 30
0.0
 40
1.5
100
AcDbArc
 50
0.0
 51
90.0
  0
LINE
  5
17B5
330
1E
100
AcDbEntity
  8
STEMPEL
100
AcDbLine
 10
304.0071735533866
 20
432.4320646054484
 30
0.0
 11
304.0071735533866
 21
430.9320646054484
 31
0.0
  0
LINE
  5
17B6
330
1E
100
AcDbEntity
  8
STEMPEL
100
AcDbLine
 10
298.6181735533866
 20
433.9320646054484
 30
0.0
 11
320.0071735533866
 21
433.9320646054484
 31
0.0
  0
LINE
  5
17B7
330
1E
100
AcDbEntity
  8
STEMPEL
100
AcDbLine
 10
304.0071735533866
 20
430.9320646054484
 30
0.0
 11
314.0071735533866
 21
430.9320646054484
 31
0.0
  0
LINE
  5
17B8
330
1E
100
AcDbEntity
  8
STEMPEL
100
AcDbLine
 10
314.0071735533866
 20
430.9320646054484
 30
0.0
 11
314.0071735533866
 21
432.4320646054484
 31
0.0
  0
ARC
  5
17B9
330
1E
100
AcDbEntity
  8
STEMPEL
100
AcDbCircle
 10
315.5071735533866
 20
432.4320646054484
 30
0.0
 40
1.5
100
AcDbArc
 50
90.0
 51
180.0
  0
LINE
  5
17BA
330
1E
100
AcDbEntity
  8
STEMPEL
100
AcDbLine
 10
320.0071735533866
 20
436.9320646054484
 30
0.0
 11
298.6181735533866
 21
436.9320646054484
 31
0.0
  0
LINE
  5
17BB
330
1E
100
AcDbEntity
  8
STEMPEL
100
AcDbLine
 10
314.6651735533867
 20
436.9320646054484
 30
0.0
 11
314.6651735533867
 21
433.9320646054484
 31
0.0
  0
LINE
  5
17BC
330
1E
100
AcDbEntity
  8
STEMPEL
100
AcDbLine
 10
320.0071735533866
 20
433.9320646054484
 30
0.0
 11
320.0071735533866
 21
436.9320646054484
 31
0.0
  0
LINE
  5
17BD
330
1E
100
AcDbEntity
  8
STEMPEL
100
AcDbLine
 10
139.0071735533866
 20
432.4320646054484
 30
0.0
 11
139.0071735533866
 21
430.9320646054484
 31
0.0
  0
LINE
  5
17BE
330
1E
100
AcDbEntity
  8
STEMPEL
100
AcDbLine
 10
149.0071735533866
 20
430.9320646054484
 30
0.0
 11
149.0071735533866
 21
432.4320646054484
 31
0.0
  0
LINE
  5
17BF
330
1E
100
AcDbEntity
  8
STEMPEL
100
AcDbLine
 10
139.0071735533866
 20
430.9320646054484
 30
0.0
 11
149.0071735533866
 21
430.9320646054484
 31
0.0
  0
ARC
  5
17C0
330
1E
100
AcDbEntity
  8
STEMPEL
100
AcDbCircle
 10
137.5071735533866
 20
432.4320646054484
 30
0.0
 40
1.5
100
AcDbArc
 50
0.0
 51
90.0
  0
LINE
  5
17C1
330
1E
100
AcDbEntity
  8
STEMPEL
100
AcDbLine
 10
133.0071735533866
 20
433.9320646054484
 30
0.0
 11
154.3961735533866
 21
433.9320646054484
 31
0.0
  0
LINE
  5
17C2
330
1E
100
AcDbEntity
  8
STEMPEL
100
AcDbLine
 10
138.3491735533866
 20
436.9320646054484
 30
0.0
 11
138.3491735533866
 21
433.9320646054484
 31
0.0
  0
LINE
  5
17C3
330
1E
100
AcDbEntity
  8
STEMPEL
100
AcDbLine
 10
133.0071735533866
 20
436.9320646054484
 30
0.0
 11
133.0071735533866
 21
433.9320646054484
 31
0.0
  0
LINE
  5
17C4
330
1E
100
AcDbEntity
  8
STEMPEL
100
AcDbLine
 10
154.3961735533866
 20
436.9320646054484
 30
0.0
 11
133.0071735533866
 21
436.9320646054484
 31
0.0
  0
ARC
  5
17C5
330
1E
100
AcDbEntity
  8
STEMPEL
100
AcDbCircle
 10
150.5071735533866
 20
432.4320646054484
 30
0.0
 40
1.5
100
AcDbArc
 50
90.0
 51
180.0
  0
ARC
  5
17C6
330
1E
100
AcDbEntity
  8
STEMPEL
100
AcDbCircle
 10
154.3961735533866
 20
430.9320646054484
 30
0.0
 40
3.0
100
AcDbArc
 50
5.937772451999745
 51
90.0
  0
ARC
  5
17C7
330
1E
100
AcDbEntity
  8
STEMPEL
100
AcDbCircle
 10
154.3961735533866
 20
430.9320646054484
 30
0.0
 40
6.0
100
AcDbArc
 50
5.937772451999745
 51
90.0
  0
ARC
  5
17C8
330
1E
100
AcDbEntity
  8
STEMPEL
100
AcDbCircle
 10
226.5071735533866
 20
438.4320646054484
 30
0.0
 40
69.5
100
AcDbArc
 50
185.9377724519997
 51
354.0622275480002
  0
ARC
  5
17C9
330
1E
100
AcDbEntity
  8
STEMPEL
100
AcDbCircle
 10
298.6181735533866
 20
430.9320646054484
 30
0.0
 40
3.0
100
AcDbArc
 50
90.0
 51
174.0622275480002
  0
ARC
  5
17CA
330
1E
100
AcDbEntity
  8
STEMPEL
100
AcDbCircle
 10
298.6181735533866
 20
430.9320646054484
 30
0.0
 40
6.0
100
AcDbArc
 50
90.0
 51
174.0622275480002
  0
ARC
  5
17CB
330
1E
100
AcDbEntity
  8
STEMPEL
100
AcDbCircle
 10
226.5071735533866
 20
438.4320646054484
 30
0.0
 40
66.5
100
AcDbArc
 50
185.9377724519997
 51
354.0622275480002
  0
LINE
  5
17CC
330
1E
100
AcDbEntity
  8
STEMPEL
100
AcDbLine
 10
138.3491735533866
 20
439.9320646054484
 30
0.0
 11
138.3491735533866
 21
442.9320646054484
 31
0.0
  0
LINE
  5
17CD
330
1E
100
AcDbEntity
  8
STEMPEL
100
AcDbLine
 10
314.6651735533867
 20
439.9320646054484
 30
0.0
 11
314.6651735533867
 21
442.9320646054484
 31
0.0
  0
ARC
  5
17CE
330
1E
100
AcDbEntity
  8
STEMPEL
100
AcDbCircle
 10
298.6181735533866
 20
445.9320646054484
 30
0.0
 40
3.0
100
AcDbArc
 50
185.9377724519997
 51
270.0
  0
ARC
  5
17CF
330
1E
100
AcDbEntity
  8
STEMPEL
100
AcDbCircle
 10
226.5071735533866
 20
438.4320646054484
 30
0.0
 40
69.5
100
AcDbArc
 50
5.937772451999745
 51
174.0622275480002
  0
ARC
  5
17D0
330
1E
100
AcDbEntity
  8
STEMPEL
100
AcDbCircle
 10
154.3961735533866
 20
445.9320646054484
 30
0.0
 40
3.0
100
AcDbArc
 50
270.0
 51
354.0622275480002
  0
LINE
  5
17D1
330
1E
100
AcDbEntity
  8
STEMPEL
100
AcDbLine
 10
133.0071735533866
 20
442.9320646054484
 30
0.0
 11
154.3961735533866
 21
442.9320646054484
 31
0.0
  0
LINE
  5
17D2
330
1E
100
AcDbEntity
  8
STEMPEL
100
AcDbLine
 10
133.0071735533866
 20
439.9320646054484
 30
0.0
 11
133.0071735533866
 21
442.9320646054484
 31
0.0
  0
LINE
  5
17D3
330
1E
100
AcDbEntity
  8
STEMPEL
100
AcDbLine
 10
154.3961735533866
 20
439.9320646054484
 30
0.0
 11
133.0071735533866
 21
439.9320646054484
 31
0.0
  0
ARC
  5
17D4
330
1E
100
AcDbEntity
  8
STEMPEL
100
AcDbCircle
 10
154.3961735533866
 20
445.9320646054484
 30
0.0
 40
6.0
100
AcDbArc
 50
270.0
 51
354.0622275480002
  0
ARC
  5
17D5
330
1E
100
AcDbEntity
  8
STEMPEL
100
AcDbCircle
 10
226.5071735533866
 20
438.4320646054484
 30
0.0
 40
66.5
100
AcDbArc
 50
5.937772451999745
 51
174.0622275480002
  0
ARC
  5
17D6
330
1E
100
AcDbEntity
  8
STEMPEL
100
AcDbCircle
 10
298.6181735533866
 20
445.9320646054484
 30
0.0
 40
6.0
100
AcDbArc
 50
185.9377724519997
 51
270.0
  0
LINE
  5
17D7
330
1E
100
AcDbEntity
  8
STEMPEL
100
AcDbLine
 10
320.0071735533866
 20
439.9320646054484
 30
0.0
 11
298.6181735533866
 21
439.9320646054484
 31
0.0
  0
LINE
  5
17D8
330
1E
100
AcDbEntity
  8
STEMPEL
100
AcDbLine
 10
320.0071735533866
 20
442.9320646054484
 30
0.0
 11
320.0071735533866
 21
439.9320646054484
 31
0.0
  0
LINE
  5
17D9
330
1E
100
AcDbEntity
  8
STEMPEL
100
AcDbLine
 10
298.6181735533866
 20
442.9320646054484
 30
0.0
 11
320.0071735533866
 21
442.9320646054484
 31
0.0
  0
LINE
  5
17DA
330
1E
100
AcDbEntity
  8
MITTEL
100
AcDbLine
 10
144.0071735533866
 20
407.9320646054484
 30
0.0
 11
144.0071735533866
 21
453.2320646054485
 31
0.0
  0
LINE
  5
17DB
330
1E
100
AcDbEntity
  8
MITTEL
100
AcDbLine
 10
309.0071735533866
 20
453.2320646054484
 30
0.0
 11
309.0071735533866
 21
407.9320646054483
 31
0.0
  0
LINE
  5
17DC
330
1E
100
AcDbEntity
  8
MITTEL
100
AcDbLine
 10
226.5071735533866
 20
349.9320646054485
 30
0.0
 11
226.5071735533866
 21
512.9320646054484
 31
0.0
  0
LINE
  5
17DD
330
1E
100
AcDbEntity
  8
MITTEL
100
AcDbLine
 10
128.0071735533866
 20
438.4320646054483
 30
0.0
 11
325.0071735533866
 21
438.4320646054483
 31
0.0
  0
LINE
  5
17EF
330
1E
100
AcDbEntity
  8
HILF
100
AcDbLine
 10
157.1531735533866
 20
285.2608771708655
 30
0.0
 11
157.1531735533866
 21
245.2608771708654
 31
0.0
  0
LINE
  5
17F0
330
1E
100
AcDbEntity
  8
HILF
100
AcDbLine
 10
295.8611735533866
 20
285.2608771708655
 30
0.0
 11
295.8611735533866
 21
245.2608771708654
 31
0.0
  0
LINE
  5
17F1
330
1E
100
AcDbEntity
  8
MITTEL
100
AcDbLine
 10
309.0071735533866
 20
253.7608771708654
 30
0.0
 11
309.0071735533866
 21
276.7608771708655
 31
0.0
  0
LINE
  5
17F2
330
1E
100
AcDbEntity
  8
MITTEL
100
AcDbLine
 10
144.0071735533866
 20
253.7608771708654
 30
0.0
 11
144.0071735533866
 21
276.7608771708654
 31
0.0
  0
LINE
  5
17F3
330
1E
100
AcDbEntity
  8
MITTEL
100
AcDbLine
 10
226.5071735533866
 20
290.2608771708654
 30
0.0
 11
226.5071735533866
 21
240.2608771708655
 31
0.0
  0
LINE
  5
17F4
330
1E
100
AcDbEntity
  8
MITTEL
100
AcDbLine
 10
325.0071735533866
 20
265.2608771708655
 30
0.0
 11
128.0071735533866
 21
265.2608771708655
 31
0.0
  0
ARC
  5
17F5
330
1E
100
AcDbEntity
  8
STEMPEL
100
AcDbCircle
 10
280.0071735533866
 20
265.2608771708655
 30
0.0
 40
40.0
100
AcDbArc
 50
329.9999999999999
 51
30.00000000000014
  0
ARC
  5
17F6
330
1E
100
AcDbEntity
  8
STEMPEL
100
AcDbCircle
 10
173.0071735533866
 20
265.2608771708655
 30
0.0
 40
40.0
100
AcDbArc
 50
149.9999999999998
 51
210.0000000000001
  0
LINE
  5
17F7
330
1E
100
AcDbEntity
  8
STEMPEL
100
AcDbLine
 10
314.6481735533866
 20
285.2608771708655
 30
0.0
 11
138.3661735533866
 21
285.2608771708655
 31
0.0
  0
LINE
  5
17F8
330
1E
100
AcDbEntity
  8
STEMPEL
100
AcDbLine
 10
138.3661735533866
 20
245.2608771708654
 30
0.0
 11
314.6481735533866
 21
245.2608771708654
 31
0.0
  0
DIMENSION
  5
1813
330
1E
100
AcDbEntity
  8
BEM
100
AcDbDimension
  2
*D1
 10
309.0071735533866
 20
223.1273688131703
 30
0.0
 11
226.5071735533866
 21
229.6273688131703
 31
0.0
 70
    32
 71
     5
 42
164.9999999999999
  3
Standard
100
AcDbAlignedDimension
 13
144.0071735533866
 23
253.7608771708654
 33
0.0
 14
309.0071735533866
 24
253.7608771708654
 34
0.0
100
AcDbRotatedDimension
1001
ACAD
1000
DSTYLE
1002
{
1070
    40
1040
2.0
1070
    41
1040
3.5
1070
    42
1040
1.0
1070
    43
1040
7.0
1070
    44
1040
1.0
1070
    73
1070
     0
1070
    74
1070
     0
1070
    77
1070
     1
1070
    78
1070
     8
1070
    79
1070
     2
1070
   140
1040
3.5
1070
   141
1040
1.5
1070
   146
1040
0.5142857142857144
1070
   147
1040
1.5
1070
   172
1070
     1
1070
   178
1070
     1
1070
   179
1070
     2
1070
   271
1070
     2
1070
   272
1070
     2
1070
   284
1070
     8
1070
   285
1070
     8
1070
   286
1070
     8
1002
}
  0
DIMENSION
  5
1820
330
1E
100
AcDbEntity
  8
BEM
100
AcDbDimension
  2
*D2
 10
320.0071735533866
 20
207.6442931899869
 30
0.0
 11
226.5071735533866
 21
214.1442931899869
 31
0.0
 70
    32
 71
     5
 42
187.0
  3
Standard
100
AcDbAlignedDimension
 13
133.0071735533866
 23
265.2608771708655
 33
0.0
 14
320.0071735533866
 24
265.2608771708655
 34
0.0
100
AcDbRotatedDimension
1001
ACAD
1000
DSTYLE
1002
{
1070
    40
1040
2.0
1070
    41
1040
3.5
1070
    42
1040
1.0
1070
    43
1040
7.0
1070
    44
1040
1.0
1070
    73
1070
     0
1070
    74
1070
     0
1070
    77
1070
     1
1070
    78
1070
     8
1070
    79
1070
     2
1070
   140
1040
3.5
1070
   141
1040
1.5
1070
   146
1040
0.5142857142857144
1070
   147
1040
1.5
1070
   172
1070
     1
1070
   178
1070
     1
1070
   179
1070
     2
1070
   271
1070
     2
1070
   272
1070
     2
1070
   284
1070
     8
1070
   285
1070
     8
1070
   286
1070
     8
1002
}
  0
ARC
  5
1839
330
1E
100
AcDbEntity
  8
STEMPEL
100
AcDbCircle
 10
226.5071735533866
 20
351.9820646054484
 30
0.0
 40
15.45
100
AcDbArc
 50
70.3471403679997
 51
90.00000000000003
  0
ARC
  5
183B
330
1E
100
AcDbEntity
  8
STEMPEL
100
AcDbCircle
 10
226.5071735533866
 20
351.9820646054484
 30
0.0
 40
15.45
100
AcDbArc
 50
90.00000000000003
 51
109.6528596320003
  0
ARC
  5
1840
330
1E
100
AcDbEntity
  8
STEMPEL
100
AcDbCircle
 10
234.3017497647398
 20
363.2310613535669
 30
0.0
 40
4.201003291398145
100
AcDbArc
 50
51.79152877401151
 51
128.2084712259882
  0
ARC
  5
1841
330
1E
100
AcDbEntity
  8
STEMPEL
100
AcDbCircle
 10
218.7125973420334
 20
363.2310613535669
 30
0.0
 40
4.201003291398145
100
AcDbArc
 50
51.79152877401175
 51
128.2084712259885
  0
ARC
  5
1846
330
1E
100
AcDbEntity
  8
STEMPEL
100
AcDbCircle
 10
226.5071735533866
 20
343.7375135258672
 30
0.0
 40
25.19455107958117
100
AcDbArc
 50
68.38120481628831
 51
111.6187951837116
  0
DIMENSION
  5
1857
330
1E
100
AcDbEntity
  8
BEM
100
AcDbDimension
  2
*D3
 10
124.3538832569925
 20
439.9320646054484
 30
0.0
 11
117.8538832569924
 21
458.7987312721152
 31
0.0
 70
    32
 71
     5
 42
3.0
  3
Standard
100
AcDbAlignedDimension
 13
133.0071735533866
 23
436.9320646054484
 33
0.0
 14
133.0071735533866
 24
439.9320646054484
 34
0.0
 50
90.0
100
AcDbRotatedDimension
1001
ACAD
1000
DSTYLE
1002
{
1070
    40
1040
2.0
1070
    41
1040
3.5
1070
    42
1040
1.0
1070
    43
1040
7.0
1070
    44
1040
1.0
1070
    73
1070
     0
1070
    74
1070
     0
1070
    77
1070
     1
1070
    78
1070
     8
1070
    79
1070
     2
1070
   140
1040
3.5
1070
   141
1040
1.5
1070
   146
1040
0.5142857142857144
1070
   147
1040
1.5
1070
   172
1070
     1
1070
   178
1070
     1
1070
   179
1070
     2
1070
   271
1070
     2
1070
   272
1070
     2
1070
   284
1070
     8
1070
   285
1070
     8
1070
   286
1070
     8
1002
}
  0
DIMENSION
  5
1866
330
1E
100
AcDbEntity
  8
BEM
100
AcDbDimension
  2
*D4
 10
109.8665004616855
 20
507.9320646054484
 30
0.0
 11
103.3665004616854
 21
431.4320646054484
 31
0.0
 70
    32
 71
     5
 42
153.0
  3
Standard
100
AcDbAlignedDimension
 13
218.7131735533866
 23
354.9320646054484
 33
0.0
 14
226.5071735533866
 24
507.9320646054484
 34
0.0
 50
90.0
100
AcDbRotatedDimension
1001
ACAD
1000
DSTYLE
1002
{
1070
    40
1040
2.0
1070
    41
1040
3.5
1070
    42
1040
1.0
1070
    43
1040
7.0
1070
    44
1040
1.0
1070
    73
1070
     0
1070
    74
1070
     0
1070
    77
1070
     1
1070
    78
1070
     8
1070
    79
1070
     2
1070
   140
1040
3.5
1070
   141
1040
1.5
1070
   146
1040
0.5142857142857144
1070
   147
1040
1.5
1070
   172
1070
     1
1070
   178
1070
     1
1070
   179
1070
     2
1070
   271
1070
     2
1070
   272
1070
     2
1070
   284
1070
     8
1070
   285
1070
     8
1070
   286
1070
     8
1002
}
  0
DIMENSION
  5
1874
330
1E
100
AcDbEntity
  8
BEM
100
AcDbDimension
  2
*D5
 10
273.6242945862081
 20
485.3599771210129
 30
0.0
 11
248.780748139613
 21
460.6500106139795
 31
0.0
 70
   161
 71
     5
 42
132.9999999982067
  3
Standard
100
AcDbAlignedDimension
 13
179.3577429529199
 23
391.5366363202545
 33
0.0
 14
273.6561171037773
 24
485.3279825736689
 34
0.0
1001
ACAD
1000
DSTYLE
1002
{
1070
    40
1040
2.0
1070
    41
1040
3.5
1070
    42
1040
1.0
1070
    43
1040
7.0
1070
    44
1040
1.0
1070
    73
1070
     0
1070
    74
1070
     0
1070
    77
1070
     1
1070
    78
1070
     8
1070
    79
1070
     2
1070
   140
1040
3.5
1070
   141
1040
1.5
1070
   146
1040
0.5142857142857144
1070
   147
1040
1.5
1070
   172
1070
     1
1070
   178
1070
     1
1070
   179
1070
     2
1070
   271
1070
     2
1070
   272
1070
     2
1070
   284
1070
     8
1070
   285
1070
     8
1070
   286
1070
     8
1002
}
  0
TEXT
  5
18A3
330
1E
100
AcDbEntity
  8
TEXT
 62
     1
100
AcDbText
 10
227.8365522679116
 20
115.6405708316599
 30
0.0
 40
7.0
  1
Werkstoff: St37 Dickschichtpassiviert
 41
0.8
  7
GREEKS
100
AcDbText
  0
DIMENSION
  5
18AA
330
1E
100
AcDbEntity
  8
BEM
100
AcDbDimension
  2
*D6
 10
119.0854352893352
 20
245.2608771708653
 30
0.0
 11
112.5854352893352
 21
265.2608771708655
 31
0.0
 70
    32
 71
     5
 42
40.00000000000011
  3
Standard
100
AcDbAlignedDimension
 13
138.3661735533866
 23
285.2608771708655
 33
0.0
 14
138.3661574020091
 24
245.2608771708653
 34
0.0
 50
90.0
100
AcDbRotatedDimension
1001
ACAD
1000
DSTYLE
1002
{
1070
    40
1040
2.0
1070
    41
1040
3.5
1070
    42
1040
1.0
1070
    43
1040
7.0
1070
    44
1040
1.0
1070
    73
1070
     0
1070
    74
1070
     0
1070
    77
1070
     1
1070
    78
1070
     8
1070
    79
1070
     2
1070
   140
1040
3.5
1070
   141
1040
1.5
1070
   146
1040
0.5142857142857144
1070
   147
1040
1.5
1070
   172
1070
     1
1070
   178
1070
     1
1070
   179
1070
     2
1070
   271
1070
     2
1070
   272
1070
     2
1070
   284
1070
     8
1070
   285
1070
     8
1070
   286
1070
     8
1002
}
  0
ENDSEC
  0
SECTION
  2
OBJECTS
  0
DICTIONARY
  5
C
330
0
100
AcDbDictionary
281
     1
  3
ACAD_COLOR
350
DF
  3
ACAD_GROUP
350
D
  3
ACAD_LAYOUT
350
19
  3
ACAD_MATERIAL
350
DE
  3
ACAD_MLINESTYLE
350
16
  3
ACAD_PLOTSETTINGS
350
18
  3
ACAD_PLOTSTYLENAME
350
E
  3
AcDbVariableDictionary
350
EA
  0
DICTIONARY
  5
A0
330
1E
100
AcDbDictionary
280
     1
281
     1
  3
ACAD_LAYOUTSELFREF
360
D4
  0
DICTIONARY
  5
A2
330
1A
100
AcDbDictionary
280
     1
281
     1
  3
ACAD_LAYOUTSELFREF
360
D3
  0
DICTIONARY
  5
DF
102
{ACAD_REACTORS
330
C
102
}
330
C
100
AcDbDictionary
281
     1
  0
DICTIONARY
  5
D
102
{ACAD_REACTORS
330
C
102
}
330
C
100
AcDbDictionary
281
     1
  0
DICTIONARY
  5
19
102
{ACAD_REACTORS
330
C
102
}
330
C
100
AcDbDictionary
281
     1
  3
Layout1
350
1D
  3
Model
350
21
  0
DICTIONARY
  5
DE
102
{ACAD_REACTORS
330
C
102
}
330
C
100
AcDbDictionary
281
     1
  0
DICTIONARY
  5
16
102
{ACAD_REACTORS
330
C
102
}
330
C
100
AcDbDictionary
281
     1
  3
Standard
350
17
  0
DICTIONARY
  5
18
102
{ACAD_REACTORS
330
C
102
}
330
C
100
AcDbDictionary
281
     1
  0
ACDBDICTIONARYWDFLT
  5
E
102
{ACAD_REACTORS
330
C
102
}
330
C
100
AcDbDictionary
281
     1
  3
Normal
350
F
100
AcDbDictionaryWithDefault
340
F
  0
DICTIONARY
  5
EA
102
{ACAD_REACTORS
330
C
102
}
330
C
100
AcDbDictionary
281
     1
  3
DIMASSOC
350
EB
  3
PROJECTNAME
350
EC
  0
XRECORD
  5
D4
102
{ACAD_REACTORS
330
A0
102
}
330
A0
100
AcDbXrecord
280
     1
340
1E
  0
XRECORD
  5
D3
102
{ACAD_REACTORS
330
A2
102
}
330
A2
100
AcDbXrecord
280
     1
340
1A
  0
LAYOUT
  5
1D
102
{ACAD_REACTORS
330
19
102
}
330
19
100
AcDbPlotSettings
  1

  2
\\NT_WORK01\HP LaserJet 5000 PCL 6
  4

  6

 40
0.0
 41
0.0
 42
0.0
 43
0.0
 44
0.0
 45
0.0
 46
0.0
 47
0.0
 48
0.0
 49
0.0
140
0.0
141
0.0
142
1.0
143
1.0
 70
   688
 72
     0
 73
     0
 74
     5
  7

 75
    16
147
1.0
 76
     0
 77
     2
 78
   300
148
0.0
149
0.0
100
AcDbLayout
  1
Layout1
 70
     0
 71
     1
 10
0.0
 20
0.0
 11
12.0
 21
9.0
 12
0.0
 22
0.0
 32
0.0
 14
1.000000000000000E+20
 24
1.000000000000000E+20
 34
1.000000000000000E+20
 15
-1.000000000000000E+20
 25
-1.000000000000000E+20
 35
-1.000000000000000E+20
146
0.0
 13
0.0
 23
0.0
 33
0.0
 16
1.0
 26
0.0
 36
0.0
 17
0.0
 27
1.0
 37
0.0
 76
     0
330
1A
  0
LAYOUT
  5
21
102
{ACAD_REACTORS
330
19
102
}
330
19
100
AcDbPlotSettings
  1

  2
none_device
  4
Letter_(8.50_x_11.00_Inches)
  6

 40
6.349999904632568
 41
6.349999904632568
 42
6.350006103515625
 43
6.350006103515625
 44
215.8999938964844
 45
279.3999938964844
 46
0.0
 47
0.0
 48
0.0
 49
0.0
140
0.0
141
0.0
142
1.0
143
1.0
 70
 11952
 72
     0
 73
     1
 74
     0
  7

 75
     0
147
1.0
 76
     0
 77
     2
 78
   300
148
-230.4417396561563
149
47.00486644638983
100
AcDbLayout
  1
Model
 70
     1
 71
     0
 10
0.0
 20
0.0
 11
12.0
 21
9.0
 12
0.0
 22
0.0
 32
0.0
 14
0.0
 24
0.0
 34
0.0
 15
0.0
 25
0.0
 35
0.0
146
0.0
 13
0.0
 23
0.0
 33
0.0
 16
1.0
 26
0.0
 36
0.0
 17
0.0
 27
1.0
 37
0.0
 76
     0
330
1E
  0
MLINESTYLE
  5
17
102
{ACAD_REACTORS
330
16
102
}
330
16
100
AcDbMlineStyle
  2
STANDARD
 70
     0
  3

 62
   256
 51
90.0
 52
90.0
 71
     2
 49
0.5
 62
   256
  6
BYLAYER
 49
-0.5
 62
   256
  6
BYLAYER
  0
ACDBPLACEHOLDER
  5
F
102
{ACAD_REACTORS
330
E
102
}
330
E
  0
DICTIONARYVAR
  5
EB
102
{ACAD_REACTORS
330
EA
102
}
330
EA
100
DictionaryVariables
280
     0
  1
1
  0
DICTIONARYVAR
  5
EC
102
{ACAD_REACTORS
330
EA
102
}
330
EA
100
DictionaryVariables
280
     0
  1

  0
ENDSEC
  0
EOF
