  0
SECTION
  2
HEADER
  9
$ACADVER
  1
AC1018
  9
$ACADMAINTVER
 70
     2
  9
$DWGCODEPAGE
  3
ANSI_1252
  9
$INSBASE
 10
0.0
 20
0.0
 30
0.0
  9
$EXTMIN
 10
-0.0181260584133725
 20
-0.0256328098773793
 30
-0.0015258207003583
  9
$EXTMAX
 10
594.0181288244414
 20
840.0256367214323
 30
0.0000000349246037
  9
$LIMMIN
 10
0.0
 20
0.0
  9
$LIMMAX
 10
594.0
 20
840.0
  9
$ORTHOMODE
 70
     1
  9
$REGENMODE
 70
     1
  9
$FILLMODE
 70
     1
  9
$QTEXTMODE
 70
     0
  9
$MIRRTEXT
 70
     1
  9
$LTSCALE
 40
20.0
  9
$ATTMODE
 70
     1
  9
$TEXTSIZE
 40
2.5
  9
$TRACEWID
 40
0.5
  9
$TEXTSTYLE
  7
GREEKS
  9
$CLAYER
  8
BEM
  9
$CELTYPE
  6
ByLayer
  9
$CECOLOR
 62
   256
  9
$CELTSCALE
 40
1.0
  9
$DISPSILH
 70
     0
  9
$DIMSCALE
 40
2.0
  9
$DIMASZ
 40
3.5
  9
$DIMEXO
 40
1.0
  9
$DIMDLI
 40
7.0
  9
$DIMRND
 40
0.0
  9
$DIMDLE
 40
0.0
  9
$DIMEXE
 40
1.0
  9
$DIMTP
 40
0.0
  9
$DIMTM
 40
0.0
  9
$DIMTXT
 40
3.5
  9
$DIMCEN
 40
1.5
  9
$DIMTSZ
 40
0.0
  9
$DIMTOL
 70
     0
  9
$DIMLIM
 70
     0
  9
$DIMTIH
 70
     0
  9
$DIMTOH
 70
     0
  9
$DIMSE1
 70
     0
  9
$DIMSE2
 70
     0
  9
$DIMTAD
 70
     1
  9
$DIMZIN
 70
     8
  9
$DIMBLK
  1

  9
$DIMASO
 70
     1
  9
$DIMSHO
 70
     0
  9
$DIMPOST
  1

  9
$DIMAPOST
  1

  9
$DIMALT
 70
     0
  9
$DIMALTD
 70
     2
  9
$DIMALTF
 40
25.4
  9
$DIMLFAC
 40
1.0
  9
$DIMTOFL
 70
     1
  9
$DIMTVP
 40
0.0
  9
$DIMTIX
 70
     0
  9
$DIMSOXD
 70
     0
  9
$DIMSAH
 70
     0
  9
$DIMBLK1
  1

  9
$DIMBLK2
  1

  9
$DIMSTYLE
  2
Standard
  9
$DIMCLRD
 70
     0
  9
$DIMCLRE
 70
     0
  9
$DIMCLRT
 70
     1
  9
$DIMTFAC
 40
0.5142857142857144
  9
$DIMGAP
 40
1.5
  9
$DIMJUST
 70
     0
  9
$DIMSD1
 70
     0
  9
$DIMSD2
 70
     0
  9
$DIMTOLJ
 70
     1
  9
$DIMTZIN
 70
     8
  9
$DIMALTZ
 70
     8
  9
$DIMALTTZ
 70
     8
  9
$DIMUPT
 70
     0
  9
$DIMDEC
 70
     2
  9
$DIMTDEC
 70
     2
  9
$DIMALTU
 70
     2
  9
$DIMALTTD
 70
     2
  9
$DIMTXSTY
  7
STANDARD
  9
$DIMAUNIT
 70
     0
  9
$DIMADEC
 70
     2
  9
$DIMALTRND
 40
0.0
  9
$DIMAZIN
 70
     2
  9
$DIMDSEP
 70
    46
  9
$DIMATFIT
 70
     3
  9
$DIMFRAC
 70
     0
  9
$DIMLDRBLK
  1

  9
$DIMLUNIT
 70
     2
  9
$DIMLWD
 70
    -2
  9
$DIMLWE
 70
    -2
  9
$DIMTMOVE
 70
     0
  9
$LUNITS
 70
     2
  9
$LUPREC
 70
     2
  9
$SKETCHINC
 40
1.0
  9
$FILLETRAD
 40
0.0
  9
$AUNITS
 70
     0
  9
$AUPREC
 70
     0
  9
$MENU
  1
ACAD
  9
$ELEVATION
 40
0.0
  9
$PELEVATION
 40
0.0
  9
$THICKNESS
 40
0.0
  9
$LIMCHECK
 70
     0
  9
$CHAMFERA
 40
0.0
  9
$CHAMFERB
 40
0.0
  9
$CHAMFERC
 40
0.0
  9
$CHAMFERD
 40
0.0
  9
$SKPOLY
 70
     0
  9
$TDCREATE
 40
2455397.823042361
  9
$TDUCREATE
 40
2455397.781375695
  9
$TDUPDATE
 40
2456230.313536968
  9
$TDUUPDATE
 40
2456230.271870301
  9
$TDINDWG
 40
0.4112989583
  9
$TDUSRTIMER
 40
0.4112989583
  9
$USRTIMER
 70
     1
  9
$ANGBASE
 50
0.0
  9
$ANGDIR
 70
     0
  9
$PDMODE
 70
     0
  9
$PDSIZE
 40
0.0
  9
$PLINEWID
 40
0.0
  9
$SPLFRAME
 70
     0
  9
$SPLINETYPE
 70
     6
  9
$SPLINESEGS
 70
     8
  9
$HANDSEED
  5
2C33
  9
$SURFTAB1
 70
     6
  9
$SURFTAB2
 70
     6
  9
$SURFTYPE
 70
     6
  9
$SURFU
 70
     6
  9
$SURFV
 70
     6
  9
$UCSBASE
  2

  9
$UCSNAME
  2

  9
$UCSORG
 10
0.0
 20
0.0
 30
0.0
  9
$UCSXDIR
 10
1.0
 20
0.0
 30
0.0
  9
$UCSYDIR
 10
0.0
 20
1.0
 30
0.0
  9
$UCSORTHOREF
  2

  9
$UCSORTHOVIEW
 70
     0
  9
$UCSORGTOP
 10
0.0
 20
0.0
 30
0.0
  9
$UCSORGBOTTOM
 10
0.0
 20
0.0
 30
0.0
  9
$UCSORGLEFT
 10
0.0
 20
0.0
 30
0.0
  9
$UCSORGRIGHT
 10
0.0
 20
0.0
 30
0.0
  9
$UCSORGFRONT
 10
0.0
 20
0.0
 30
0.0
  9
$UCSORGBACK
 10
0.0
 20
0.0
 30
0.0
  9
$PUCSBASE
  2

  9
$PUCSNAME
  2

  9
$PUCSORG
 10
0.0
 20
0.0
 30
0.0
  9
$PUCSXDIR
 10
1.0
 20
0.0
 30
0.0
  9
$PUCSYDIR
 10
0.0
 20
1.0
 30
0.0
  9
$PUCSORTHOREF
  2

  9
$PUCSORTHOVIEW
 70
     0
  9
$PUCSORGTOP
 10
0.0
 20
0.0
 30
0.0
  9
$PUCSORGBOTTOM
 10
0.0
 20
0.0
 30
0.0
  9
$PUCSORGLEFT
 10
0.0
 20
0.0
 30
0.0
  9
$PUCSORGRIGHT
 10
0.0
 20
0.0
 30
0.0
  9
$PUCSORGFRONT
 10
0.0
 20
0.0
 30
0.0
  9
$PUCSORGBACK
 10
0.0
 20
0.0
 30
0.0
  9
$USERI1
 70
     0
  9
$USERI2
 70
     0
  9
$USERI3
 70
     0
  9
$USERI4
 70
     0
  9
$USERI5
 70
     0
  9
$USERR1
 40
0.0
  9
$USERR2
 40
0.0
  9
$USERR3
 40
0.0
  9
$USERR4
 40
0.0
  9
$USERR5
 40
0.0
  9
$WORLDVIEW
 70
     1
  9
$SHADEDGE
 70
     3
  9
$SHADEDIF
 70
    70
  9
$TILEMODE
 70
     1
  9
$MAXACTVP
 70
    16
  9
$PINSBASE
 10
0.0
 20
0.0
 30
0.0
  9
$PLIMCHECK
 70
     0
  9
$PEXTMIN
 10
1.000000000000000E+20
 20
1.000000000000000E+20
 30
1.000000000000000E+20
  9
$PEXTMAX
 10
-1.000000000000000E+20
 20
-1.000000000000000E+20
 30
-1.000000000000000E+20
  9
$PLIMMIN
 10
0.0
 20
0.0
  9
$PLIMMAX
 10
12.0
 20
9.0
  9
$UNITMODE
 70
     0
  9
$VISRETAIN
 70
     0
  9
$PLINEGEN
 70
     0
  9
$PSLTSCALE
 70
     0
  9
$TREEDEPTH
 70
  3020
  9
$CMLSTYLE
  2
Standard
  9
$CMLJUST
 70
     0
  9
$CMLSCALE
 40
1.0
  9
$PROXYGRAPHICS
 70
     1
  9
$MEASUREMENT
 70
     0
  9
$CELWEIGHT
370
    -1
  9
$ENDCAPS
280
     0
  9
$JOINSTYLE
280
     0
  9
$LWDISPLAY
290
     0
  9
$INSUNITS
 70
     0
  9
$HYPERLINKBASE
  1

  9
$STYLESHEET
  1
monochrome 1.ctb
  9
$XEDIT
290
     1
  9
$CEPSNTYPE
380
     0
  9
$PSTYLEMODE
290
     1
  9
$FINGERPRINTGUID
  2
{D68B0D02-A558-11D7-B632-000102183313}
  9
$VERSIONGUID
  2
{87B5EBB6-84DE-41B3-8891-D7CA67D80E1C}
  9
$EXTNAMES
290
     1
  9
$PSVPSCALE
 40
0.0
  9
$OLESTARTUP
290
     0
  9
$SORTENTS
280
   127
  9
$INDEXCTL
280
     0
  9
$HIDETEXT
280
     0
  9
$XCLIPFRAME
290
     0
  9
$HALOGAP
280
     0
  9
$OBSCOLOR
 70
   257
  9
$OBSLTYPE
280
     0
  9
$INTERSECTIONDISPLAY
280
     0
  9
$INTERSECTIONCOLOR
 70
   257
  9
$DIMASSOC
280
     1
  9
$PROJECTNAME
  1

  0
ENDSEC
  0
SECTION
  2
CLASSES
  0
CLASS
  1
ACDBDICTIONARYWDFLT
  2
AcDbDictionaryWithDefault
  3
ObjectDBX Classes
 90
        0
 91
        1
280
     0
281
     0
  0
CLASS
  1
DICTIONARYVAR
  2
AcDbDictionaryVar
  3
ObjectDBX Classes
 90
        0
 91
        2
280
     0
281
     0
  0
ENDSEC
  0
SECTION
  2
TABLES
  0
TABLE
  2
VPORT
  5
8
330
0
100
AcDbSymbolTable
 70
     3
  0
VPORT
  5
2C32
330
8
100
AcDbSymbolTableRecord
100
AcDbViewportTableRecord
  2
*Active
 70
     0
 10
0.0
 20
0.0
 11
1.0
 21
1.0
 12
297.0000000000001
 22
420.0000000000001
 13
0.0
 23
0.0
 14
1.0
 24
1.0
 15
10.0
 25
10.0
 16
0.0
 26
0.0
 36
1.0
 17
0.0
 27
0.0
 37
0.0
 40
840.7254943836715
 41
1.404858299595141
 42
50.0
 43
0.0
 44
0.0
 50
0.0
 51
0.0
 71
     0
 72
  1500
 73
     1
 74
     0
 75
     0
 76
     0
 77
     0
 78
     0
281
     0
 65
     1
110
0.0
120
0.0
130
0.0
111
1.0
121
0.0
131
0.0
112
0.0
122
1.0
132
0.0
 79
     0
146
0.0
  0
ENDTAB
  0
TABLE
  2
LTYPE
  5
5
330
0
100
AcDbSymbolTable
 70
     2
  0
LTYPE
  5
13
330
5
100
AcDbSymbolTableRecord
100
AcDbLinetypeTableRecord
  2
ByBlock
 70
     0
  3

 72
    65
 73
     0
 40
0.0
  0
LTYPE
  5
14
330
5
100
AcDbSymbolTableRecord
100
AcDbLinetypeTableRecord
  2
ByLayer
 70
     0
  3

 72
    65
 73
     0
 40
0.0
  0
LTYPE
  5
15
330
5
100
AcDbSymbolTableRecord
100
AcDbLinetypeTableRecord
  2
Continuous
 70
     0
  3
Solid line
 72
    65
 73
     0
 40
0.0
  0
LTYPE
  5
25
330
5
100
AcDbSymbolTableRecord
100
AcDbLinetypeTableRecord
  2
STRICHPUNKT
 70
     0
  3
__ . __ . __ . __ . __ . __ . __ . __ . __ . __
 72
    65
 73
     4
 40
1.0
 49
0.5
 74
     0
 49
-0.25
 74
     0
 49
0.0
 74
     0
 49
-0.25
 74
     0
  0
ENDTAB
  0
TABLE
  2
LAYER
  5
2
330
0
100
AcDbSymbolTable
 70
     8
  0
LAYER
  5
10
330
2
100
AcDbSymbolTableRecord
100
AcDbLayerTableRecord
  2
0
 70
     0
 62
     7
  6
Continuous
370
    -3
390
F
  0
LAYER
  5
2A
330
2
100
AcDbSymbolTableRecord
100
AcDbLayerTableRecord
  2
VOLL
 70
     0
 62
     1
  6
Continuous
370
    -3
390
F
  0
LAYER
  5
2B
330
2
100
AcDbSymbolTableRecord
100
AcDbLayerTableRecord
  2
HILF
 70
     0
 62
     2
  6
Continuous
370
    -3
390
F
  0
LAYER
  5
2C
330
2
100
AcDbSymbolTableRecord
100
AcDbLayerTableRecord
  2
MITTEL
 70
     0
 62
     2
  6
STRICHPUNKT
370
    -3
390
F
  0
LAYER
  5
2F
330
2
100
AcDbSymbolTableRecord
100
AcDbLayerTableRecord
  2
BEM
 70
     0
 62
     7
  6
Continuous
370
    -3
390
F
  0
LAYER
  5
30
330
2
100
AcDbSymbolTableRecord
100
AcDbLayerTableRecord
  2
STEMPEL
 70
     0
 62
     3
  6
Continuous
370
    -3
390
F
  0
LAYER
  5
31
330
2
100
AcDbSymbolTableRecord
100
AcDbLayerTableRecord
  2
TEXT
 70
     0
 62
     7
  6
Continuous
370
    -3
390
F
  0
LAYER
  5
1A8
330
2
100
AcDbSymbolTableRecord
100
AcDbLayerTableRecord
  2
Defpoints
 70
     0
 62
     7
  6
Continuous
290
     0
370
    -3
390
F
  0
ENDTAB
  0
TABLE
  2
STYLE
  5
3
330
0
100
AcDbSymbolTable
 70
     2
  0
STYLE
  5
11
330
3
100
AcDbSymbolTableRecord
100
AcDbTextStyleTableRecord
  2
STANDARD
 70
     0
 40
0.0
 41
0.8
 50
0.0
 71
     0
 42
3.5
  3
simplex.shx
  4

  0
STYLE
  5
24
330
3
100
AcDbSymbolTableRecord
100
AcDbTextStyleTableRecord
  2
GREEKS
 70
     0
 40
0.0
 41
0.8
 50
0.0
 71
     0
 42
2.5
  3
SIMPLEX.shx
  4

  0
ENDTAB
  0
TABLE
  2
VIEW
  5
6
330
0
100
AcDbSymbolTable
 70
     0
  0
ENDTAB
  0
TABLE
  2
UCS
  5
7
330
0
100
AcDbSymbolTable
 70
     0
  0
ENDTAB
  0
TABLE
  2
APPID
  5
9
330
0
100
AcDbSymbolTable
 70
     1
  0
APPID
  5
12
330
9
100
AcDbSymbolTableRecord
100
AcDbRegAppTableRecord
  2
ACAD
 70
     0
  0
ENDTAB
  0
TABLE
  2
DIMSTYLE
  5
A
330
0
100
AcDbSymbolTable
 70
     1
100
AcDbDimStyleTable
 71
     1
340
9D
  0
DIMSTYLE
105
9D
102
{ACAD_REACTORS
330
29A4
330
29B1
330
29DB
330
2A18
330
2B9E
330
2C20
102
}
330
A
100
AcDbSymbolTableRecord
100
AcDbDimStyleTableRecord
  2
Standard
 70
     0
340
11
  0
ENDTAB
  0
TABLE
  2
BLOCK_RECORD
  5
1
330
0
100
AcDbSymbolTable
 70
     7
  0
BLOCK_RECORD
  5
1E
102
{ACAD_XDICTIONARY
360
A0
102
}
330
1
100
AcDbSymbolTableRecord
100
AcDbBlockTableRecord
  2
*Model_Space
340
21
  0
BLOCK_RECORD
  5
1A
102
{ACAD_XDICTIONARY
360
A2
102
}
330
1
100
AcDbSymbolTableRecord
100
AcDbBlockTableRecord
  2
*Paper_Space
340
1D
  0
BLOCK_RECORD
  5
22
330
1
100
AcDbSymbolTableRecord
100
AcDbBlockTableRecord
  2
LOGO
340
0
102
{BLKREFS
331
9B
102
}
  0
BLOCK_RECORD
  5
29A5
330
1
100
AcDbSymbolTableRecord
100
AcDbBlockTableRecord
  2
*D1
340
0
  0
BLOCK_RECORD
  5
29B2
330
1
100
AcDbSymbolTableRecord
100
AcDbBlockTableRecord
  2
*D2
340
0
  0
BLOCK_RECORD
  5
29DC
330
1
100
AcDbSymbolTableRecord
100
AcDbBlockTableRecord
  2
*D3
340
0
  0
BLOCK_RECORD
  5
2A19
330
1
100
AcDbSymbolTableRecord
100
AcDbBlockTableRecord
  2
*D4
340
0
  0
BLOCK_RECORD
  5
2B9F
330
1
100
AcDbSymbolTableRecord
100
AcDbBlockTableRecord
  2
*D5
340
0
  0
BLOCK_RECORD
  5
2C21
330
1
100
AcDbSymbolTableRecord
100
AcDbBlockTableRecord
  2
*D6
340
0
  0
ENDTAB
  0
ENDSEC
  0
SECTION
  2
BLOCKS
  0
BLOCK
  5
35
330
1E
100
AcDbEntity
  8
0
100
AcDbBlockBegin
  2
*Model_Space
 70
     0
 10
0.0
 20
0.0
 30
0.0
  3
*Model_Space
  1

  0
ENDBLK
  5
36
330
1E
100
AcDbEntity
  8
0
100
AcDbBlockEnd
  0
BLOCK
  5
33
330
1A
100
AcDbEntity
 67
     1
  8
0
100
AcDbBlockBegin
  2
*Paper_Space
 70
     0
 10
0.0
 20
0.0
 30
0.0
  3
*Paper_Space
  1

  0
ENDBLK
  5
34
330
1A
100
AcDbEntity
 67
     1
  8
0
100
AcDbBlockEnd
  0
BLOCK
  5
37
330
22
100
AcDbEntity
  8
0
100
AcDbBlockBegin
  2
LOGO
 70
     0
 10
0.0
 20
0.0
 30
0.0
  3
LOGO
  1

  0
ARC
  5
38
330
22
100
AcDbEntity
  8
0
100
AcDbCircle
 10
11.59973089678112
 20
-9.271599258481501
 30
0.0
 40
4.5
100
AcDbArc
 50
270.0
 51
231.0575587310159
  0
LINE
  5
39
330
22
100
AcDbEntity
  8
0
100
AcDbLine
 10
3.599730896781125
 20
-4.771599258481529
 30
0.0
 11
3.599730896781153
 21
-11.77159925848133
 31
0.0
  0
LINE
  5
3A
330
22
100
AcDbEntity
  8
0
100
AcDbLine
 10
2.599730896781125
 20
-4.771599258481529
 30
0.0
 11
2.599730896781153
 21
-11.77159925848133
 31
0.0
  0
CIRCLE
  5
3B
330
22
100
AcDbEntity
  8
0
100
AcDbCircle
 10
11.59973089678112
 20
-9.271599258481501
 30
0.0
 40
3.5
  0
ARC
  5
3C
330
22
100
AcDbEntity
  8
0
100
AcDbCircle
 10
31.59973089678115
 20
-9.271599258481472
 30
0.0
 40
4.5
100
AcDbArc
 50
270.0
 51
231.0575587310182
  0
LINE
  5
3D
330
22
100
AcDbEntity
  8
0
100
AcDbLine
 10
17.59973089678112
 20
-4.771599258481472
 30
0.0
 11
17.59973089678115
 21
-13.77159925848147
 31
0.0
  0
ARC
  5
3E
330
22
100
AcDbEntity
  8
0
100
AcDbCircle
 10
22.59973089678116
 20
-7.271599258481472
 30
0.0
 40
2.5
100
AcDbArc
 50
293.1161887722295
 51
90.0
  0
CIRCLE
  5
3F
330
22
100
AcDbEntity
  8
0
100
AcDbCircle
 10
31.59973089678115
 20
-9.271599258481472
 30
0.0
 40
3.5
  0
ARC
  5
40
330
22
100
AcDbEntity
  8
0
100
AcDbCircle
 10
4.599730896781153
 20
-11.77159925848133
 30
0.0
 40
1.0
100
AcDbArc
 50
180.0
 51
270.0
  0
ARC
  5
41
330
22
100
AcDbEntity
  8
0
100
AcDbCircle
 10
4.599730896781153
 20
-11.77159925848133
 30
0.0
 40
2.0
100
AcDbArc
 50
179.9999999999992
 51
270.0
  0
LINE
  5
42
330
22
100
AcDbEntity
  8
0
100
AcDbLine
 10
11.59973089678115
 20
-13.77159925848144
 30
0.0
 11
4.599730896781153
 21
-13.77159925848147
 31
0.0
  0
LINE
  5
43
330
22
100
AcDbEntity
  8
0
100
AcDbLine
 10
8.771303772034769
 20
-12.77159925848136
 30
0.0
 11
4.599730896781153
 21
-12.77159925848133
 31
0.0
  0
LINE
  5
44
330
22
100
AcDbEntity
  8
0
100
AcDbLine
 10
31.59973089678115
 20
-13.77159925848147
 30
0.0
 11
23.6715276665056
 21
-13.77159925848144
 31
0.0
  0
LINE
  5
45
330
22
100
AcDbEntity
  8
0
100
AcDbLine
 10
23.56565672307022
 20
-9.51278021337896
 30
0.0
 11
24.4388546544846
 21
-12.77159925848144
 31
0.0
  0
LINE
  5
46
330
22
100
AcDbEntity
  8
0
100
AcDbLine
 10
22.59973089678116
 20
-9.771599258481472
 30
0.0
 11
18.59973089678112
 21
-9.771599258481472
 31
0.0
  0
LINE
  5
47
330
22
100
AcDbEntity
  8
0
100
AcDbLine
 10
18.59973089678115
 20
-13.77159925848144
 30
0.0
 11
17.59973089678115
 21
-13.77159925848144
 31
0.0
  0
LINE
  5
48
330
22
100
AcDbEntity
  8
0
100
AcDbLine
 10
18.59973089678115
 20
-9.771599258481472
 30
0.0
 11
18.59973089678115
 21
-13.77159925848144
 31
0.0
  0
LINE
  5
49
330
22
100
AcDbEntity
  8
0
100
AcDbLine
 10
22.59973089678116
 20
-9.771599258481472
 30
0.0
 11
23.67152766650562
 21
-13.77159925848147
 31
0.0
  0
ARC
  5
4A
330
22
100
AcDbEntity
  8
0
100
AcDbCircle
 10
22.59973089678116
 20
-7.271599258481472
 30
0.0
 40
2.5
100
AcDbArc
 50
270.0
 51
270.0000000000007
  0
LINE
  5
4B
330
22
100
AcDbEntity
  8
0
100
AcDbLine
 10
28.77130377203494
 20
-12.77159925848147
 30
0.0
 11
24.43885465448463
 21
-12.77159925848144
 31
0.0
  0
LINE
  5
4C
330
22
100
AcDbEntity
  8
0
100
AcDbLine
 10
3.599730896781125
 20
-4.771599258481472
 30
0.0
 11
2.599730896781125
 21
-4.771599258481472
 31
0.0
  0
LINE
  5
4D
330
22
100
AcDbEntity
  8
0
100
AcDbLine
 10
22.59973089678116
 20
-8.771599258481472
 30
0.0
 11
18.59973089678115
 21
-8.771599258481472
 31
0.0
  0
LINE
  5
4E
330
22
100
AcDbEntity
  8
0
100
AcDbLine
 10
22.59973089678116
 20
-5.771599258481472
 30
0.0
 11
18.59973089678115
 21
-5.771599258481472
 31
0.0
  0
LINE
  5
4F
330
22
100
AcDbEntity
  8
0
100
AcDbLine
 10
22.59973089678116
 20
-4.771599258481472
 30
0.0
 11
17.59973089678115
 21
-4.771599258481472
 31
0.0
  0
LINE
  5
50
330
22
100
AcDbEntity
  8
0
100
AcDbLine
 10
18.59973089678115
 20
-5.771599258481472
 30
0.0
 11
18.59973089678115
 21
-8.771599258481472
 31
0.0
  0
ARC
  5
51
330
22
100
AcDbEntity
  8
0
100
AcDbCircle
 10
22.59973089678116
 20
-7.271599258481472
 30
0.0
 40
1.5
100
AcDbArc
 50
270.0
 51
90.0
  0
ENDBLK
  5
52
330
22
100
AcDbEntity
  8
0
100
AcDbBlockEnd
  0
BLOCK
  5
29AF
330
29A5
100
AcDbEntity
  8
0
100
AcDbBlockBegin
  2
*D1
 70
     1
 10
0.0
 20
0.0
 30
0.0
  3
*D1
  1

  0
LINE
  5
2C13
330
29A5
100
AcDbEntity
  8
BEM
 62
     0
370
    -2
100
AcDbLine
 10
82.89196565038333
 20
235.1450196221726
 30
0.0
 11
82.89196565038333
 21
201.6329008925054
 31
0.0
  0
LINE
  5
2C14
330
29A5
100
AcDbEntity
  8
BEM
 62
     0
370
    -2
100
AcDbLine
 10
405.8919656503834
 20
235.1450196221726
 30
0.0
 11
405.8919656503834
 21
201.6329008925054
 31
0.0
  0
LINE
  5
2C15
330
29A5
100
AcDbEntity
  8
BEM
 62
     0
370
    -2
100
AcDbLine
 10
89.89196565038332
 20
203.6329008925054
 30
0.0
 11
398.8919656503835
 21
203.6329008925054
 31
0.0
  0
SOLID
  5
2C16
330
29A5
100
AcDbEntity
  8
BEM
 62
     0
100
AcDbTrace
 10
89.89196565038332
 20
204.7995675591721
 30
0.0
 11
89.89196565038332
 21
202.4662342258388
 31
0.0
 12
82.89196565038333
 22
203.6329008925054
 32
0.0
 13
82.89196565038333
 23
203.6329008925054
 33
0.0
  0
SOLID
  5
2C17
330
29A5
100
AcDbEntity
  8
BEM
 62
     0
100
AcDbTrace
 10
398.8919656503835
 20
204.7995675591721
 30
0.0
 11
398.8919656503835
 21
202.4662342258388
 31
0.0
 12
405.8919656503834
 22
203.6329008925054
 32
0.0
 13
405.8919656503834
 23
203.6329008925054
 33
0.0
  0
MTEXT
  5
2C18
330
29A5
100
AcDbEntity
  8
BEM
 62
     1
100
AcDbMText
 10
244.3919656503834
 20
210.1329008925054
 30
0.0
 40
7.0
 41
0.0
 71
     5
 72
     1
  1
\A1;323
 73
     1
 44
1.0
  0
POINT
  5
2C19
330
29A5
100
AcDbEntity
  8
Defpoints
 62
     0
100
AcDbPoint
 10
82.89196565038333
 20
237.1450196221726
 30
0.0
  0
POINT
  5
2C1A
330
29A5
100
AcDbEntity
  8
Defpoints
 62
     0
100
AcDbPoint
 10
405.8919656503834
 20
237.1450196221726
 30
0.0
  0
POINT
  5
2C1B
330
29A5
100
AcDbEntity
  8
Defpoints
 62
     0
100
AcDbPoint
 10
405.8919656503834
 20
203.6329008925054
 30
0.0
  0
ENDBLK
  5
29B0
330
29A5
100
AcDbEntity
  8
0
100
AcDbBlockEnd
  0
BLOCK
  5
29BC
330
29B2
100
AcDbEntity
  8
0
100
AcDbBlockBegin
  2
*D2
 70
     1
 10
0.0
 20
0.0
 30
0.0
  3
*D2
  1

  0
LINE
  5
2C0A
330
29B2
100
AcDbEntity
  8
BEM
 62
     0
370
    -2
100
AcDbLine
 10
71.89196565038333
 20
246.6450196221726
 30
0.0
 11
71.89196565038333
 21
186.3948208696958
 31
0.0
  0
LINE
  5
2C0B
330
29B2
100
AcDbEntity
  8
BEM
 62
     0
370
    -2
100
AcDbLine
 10
416.8919656503833
 20
246.6450196221727
 30
0.0
 11
416.8919656503833
 21
186.3948208696958
 31
0.0
  0
LINE
  5
2C0C
330
29B2
100
AcDbEntity
  8
BEM
 62
     0
370
    -2
100
AcDbLine
 10
78.89196565038332
 20
188.3948208696958
 30
0.0
 11
409.8919656503833
 21
188.3948208696958
 31
0.0
  0
SOLID
  5
2C0D
330
29B2
100
AcDbEntity
  8
BEM
 62
     0
100
AcDbTrace
 10
78.89196565038332
 20
189.5614875363625
 30
0.0
 11
78.89196565038332
 21
187.2281542030292
 31
0.0
 12
71.89196565038333
 22
188.3948208696958
 32
0.0
 13
71.89196565038333
 23
188.3948208696958
 33
0.0
  0
SOLID
  5
2C0E
330
29B2
100
AcDbEntity
  8
BEM
 62
     0
100
AcDbTrace
 10
409.8919656503833
 20
189.5614875363625
 30
0.0
 11
409.8919656503833
 21
187.2281542030292
 31
0.0
 12
416.8919656503833
 22
188.3948208696958
 32
0.0
 13
416.8919656503833
 23
188.3948208696958
 33
0.0
  0
MTEXT
  5
2C0F
330
29B2
100
AcDbEntity
  8
BEM
 62
     1
100
AcDbMText
 10
244.3919656503833
 20
194.8948208696958
 30
0.0
 40
7.0
 41
0.0
 71
     5
 72
     1
  1
\A1;345
 73
     1
 44
1.0
  0
POINT
  5
2C10
330
29B2
100
AcDbEntity
  8
Defpoints
 62
     0
100
AcDbPoint
 10
71.89196565038333
 20
248.6450196221726
 30
0.0
  0
POINT
  5
2C11
330
29B2
100
AcDbEntity
  8
Defpoints
 62
     0
100
AcDbPoint
 10
416.8919656503833
 20
248.6450196221727
 30
0.0
  0
POINT
  5
2C12
330
29B2
100
AcDbEntity
  8
Defpoints
 62
     0
100
AcDbPoint
 10
416.8919656503833
 20
188.3948208696958
 30
0.0
  0
ENDBLK
  5
29BD
330
29B2
100
AcDbEntity
  8
0
100
AcDbBlockEnd
  0
BLOCK
  5
29E6
330
29DC
100
AcDbEntity
  8
0
100
AcDbBlockBegin
  2
*D3
 70
     1
 10
0.0
 20
0.0
 30
0.0
  3
*D3
  1

  0
LINE
  5
2C01
330
29DC
100
AcDbEntity
  8
BEM
 62
     0
370
    -2
100
AcDbLine
 10
234.1789656503832
 20
380.5129608142817
 30
0.0
 11
63.73310340351981
 21
380.5129608142818
 31
0.0
  0
LINE
  5
2C02
330
29DC
100
AcDbEntity
  8
BEM
 62
     0
370
    -2
100
AcDbLine
 10
242.4059656503832
 20
696.5129608142818
 30
0.0
 11
63.73310340351988
 21
696.5129608142818
 31
0.0
  0
LINE
  5
2C03
330
29DC
100
AcDbEntity
  8
BEM
 62
     0
370
    -2
100
AcDbLine
 10
65.73310340351979
 20
387.5129608142818
 30
0.0
 11
65.73310340351986
 21
689.5129608142817
 31
0.0
  0
SOLID
  5
2C04
330
29DC
100
AcDbEntity
  8
BEM
 62
     0
100
AcDbTrace
 10
64.56643673685312
 20
387.5129608142818
 30
0.0
 11
66.89977007018646
 21
387.5129608142818
 31
0.0
 12
65.73310340351979
 22
380.5129608142818
 32
0.0
 13
65.73310340351979
 23
380.5129608142818
 33
0.0
  0
SOLID
  5
2C05
330
29DC
100
AcDbEntity
  8
BEM
 62
     0
100
AcDbTrace
 10
64.56643673685319
 20
689.5129608142817
 30
0.0
 11
66.89977007018653
 21
689.5129608142817
 31
0.0
 12
65.73310340351986
 22
696.5129608142818
 32
0.0
 13
65.73310340351986
 23
696.5129608142818
 33
0.0
  0
MTEXT
  5
2C06
330
29DC
100
AcDbEntity
  8
BEM
 62
     1
100
AcDbMText
 10
59.23310340351974
 20
538.5129608142817
 30
0.0
 40
7.0
 41
0.0
 71
     5
 72
     1
  1
\A1;316
 11
0.0000000000000001
 21
1.0
 31
0.0
 73
     1
 44
1.0
  0
POINT
  5
2C07
330
29DC
100
AcDbEntity
  8
Defpoints
 62
     0
100
AcDbPoint
 10
236.1789656503832
 20
380.5129608142817
 30
0.0
  0
POINT
  5
2C08
330
29DC
100
AcDbEntity
  8
Defpoints
 62
     0
100
AcDbPoint
 10
244.4059656503832
 20
696.5129608142818
 30
0.0
  0
POINT
  5
2C09
330
29DC
100
AcDbEntity
  8
Defpoints
 62
     0
100
AcDbPoint
 10
65.73310340351986
 20
696.5129608142818
 30
0.0
  0
ENDBLK
  5
29E7
330
29DC
100
AcDbEntity
  8
0
100
AcDbBlockEnd
  0
BLOCK
  5
2A25
330
2A19
100
AcDbEntity
  8
0
100
AcDbBlockBegin
  2
*D4
 70
     1
 10
0.0
 20
0.0
 30
0.0
  3
*D4
  1

  0
LINE
  5
2BF6
330
2A19
100
AcDbEntity
  8
BEM
 62
     0
370
    -2
100
AcDbLine
 10
96.09296565038324
 20
543.5129608142817
 30
0.0
 11
127.0997442593093
 21
543.5129608142817
 31
0.0
  0
LINE
  5
2BF7
330
2A19
100
AcDbEntity
  8
BEM
 62
     0
370
    -2
100
AcDbLine
 10
96.09296565038324
 20
546.5129608142818
 30
0.0
 11
127.0997442593093
 21
546.5129608142818
 31
0.0
  0
LINE
  5
2BF8
330
2A19
100
AcDbEntity
  8
BEM
 62
     0
370
    -2
100
AcDbLine
 10
125.0997442593093
 20
536.5129608142817
 30
0.0
 11
125.0997442593093
 21
529.5129608142818
 31
0.0
  0
LINE
  5
2BF9
330
2A19
100
AcDbEntity
  8
BEM
 62
     0
370
    -2
100
AcDbLine
 10
125.0997442593093
 20
553.5129608142817
 30
0.0
 11
125.0997442593093
 21
570.246294147615
 31
0.0
  0
LINE
  5
2BFA
330
2A19
100
AcDbEntity
  8
BEM
 62
     0
370
    -2
100
AcDbLine
 10
125.0997442593093
 20
543.5129608142817
 30
0.0
 11
125.0997442593093
 21
546.5129608142818
 31
0.0
  0
SOLID
  5
2BFB
330
2A19
100
AcDbEntity
  8
BEM
 62
     0
100
AcDbTrace
 10
123.9330775926426
 20
536.5129608142817
 30
0.0
 11
126.2664109259759
 21
536.5129608142817
 31
0.0
 12
125.0997442593093
 22
543.5129608142817
 32
0.0
 13
125.0997442593093
 23
543.5129608142817
 33
0.0
  0
SOLID
  5
2BFC
330
2A19
100
AcDbEntity
  8
BEM
 62
     0
100
AcDbTrace
 10
123.9330775926426
 20
553.5129608142817
 30
0.0
 11
126.266410925976
 21
553.5129608142817
 31
0.0
 12
125.0997442593093
 22
546.5129608142818
 32
0.0
 13
125.0997442593093
 23
546.5129608142818
 33
0.0
  0
MTEXT
  5
2BFD
330
2A19
100
AcDbEntity
  8
BEM
 62
     1
100
AcDbMText
 10
118.5997442593092
 20
565.3796274809484
 30
0.0
 40
7.0
 41
0.0
 71
     5
 72
     1
  1
\A1;3
 11
0.0000000000000001
 21
1.0
 31
0.0
 73
     1
 44
1.0
  0
POINT
  5
2BFE
330
2A19
100
AcDbEntity
  8
Defpoints
 62
     0
100
AcDbPoint
 10
94.09296565038323
 20
543.5129608142817
 30
0.0
  0
POINT
  5
2BFF
330
2A19
100
AcDbEntity
  8
Defpoints
 62
     0
100
AcDbPoint
 10
94.09296565038323
 20
546.5129608142818
 30
0.0
  0
POINT
  5
2C00
330
2A19
100
AcDbEntity
  8
Defpoints
 62
     0
100
AcDbPoint
 10
125.0997442593093
 20
546.5129608142818
 30
0.0
  0
ENDBLK
  5
2A26
330
2A19
100
AcDbEntity
  8
0
100
AcDbBlockEnd
  0
BLOCK
  5
2BA7
330
2B9F
100
AcDbEntity
  8
0
100
AcDbBlockBegin
  2
*D5
 70
     1
 10
0.0
 20
0.0
 30
0.0
  3
*D5
  1

  0
LINE
  5
2BEF
330
2B9F
100
AcDbEntity
  8
BEM
 62
     0
370
    -2
100
AcDbLine
 10
137.5483959500498
 20
458.481407044929
 30
0.0
 11
351.2635353507167
 21
631.5445145836347
 31
0.0
  0
SOLID
  5
2BF0
330
2B9F
100
AcDbEntity
  8
BEM
 62
     0
100
AcDbTrace
 10
136.8141888271583
 20
459.3880773332955
 30
0.0
 11
138.2826030729413
 21
457.5747367565626
 31
0.0
 12
132.108374219851
 22
454.0761643075803
 32
0.0
 13
132.108374219851
 23
454.0761643075803
 33
0.0
  0
SOLID
  5
2BF1
330
2B9F
100
AcDbEntity
  8
BEM
 62
     0
100
AcDbTrace
 10
350.5293282278251
 20
632.4511848720012
 30
0.0
 11
351.9977424736081
 21
630.6378442952683
 31
0.0
 12
356.7035570809154
 22
635.9497573209836
 32
0.0
 13
356.7035570809154
 23
635.9497573209836
 33
0.0
  0
MTEXT
  5
2BF2
330
2B9F
100
AcDbEntity
  8
BEM
 62
     1
100
AcDbMText
 10
266.7774536560748
 20
571.4929717784102
 30
0.0
 40
7.0
 41
0.0
 71
     5
 72
     1
  1
\A1;%%c289
 11
0.77714596145697
 21
0.6293203910498387
 31
0.0
 73
     1
 44
1.0
  0
POINT
  5
2BF3
330
2B9F
100
AcDbEntity
  8
Defpoints
 62
     0
100
AcDbPoint
 10
132.108374219851
 20
454.0761643075803
 30
0.0
  0
POINT
  5
2BF4
330
2B9F
100
AcDbEntity
  8
Defpoints
 62
     0
100
AcDbPoint
 10
356.7035570809155
 20
635.9497573209835
 30
0.0
  0
POINT
  5
2BF5
330
2B9F
100
AcDbEntity
  8
Defpoints
 62
     0
100
AcDbPoint
 10
356.7035570809154
 20
635.9497573209836
 30
0.0
  0
ENDBLK
  5
2BA8
330
2B9F
100
AcDbEntity
  8
0
100
AcDbBlockEnd
  0
BLOCK
  5
2C2B
330
2C21
100
AcDbEntity
  8
0
100
AcDbBlockBegin
  2
*D6
 70
     1
 10
0.0
 20
0.0
 30
0.0
  3
*D6
  1

  0
LINE
  5
2C22
330
2C21
100
AcDbEntity
  8
BEM
 62
     0
370
    -2
100
AcDbLine
 10
75.25096565038325
 20
268.6450196221727
 30
0.0
 11
55.37943678203329
 21
268.6450196221727
 31
0.0
  0
LINE
  5
2C23
330
2C21
100
AcDbEntity
  8
BEM
 62
     0
370
    -2
100
AcDbLine
 10
75.25094949900597
 20
228.6450196221723
 30
0.0
 11
55.37943678203328
 21
228.6450196221724
 31
0.0
  0
LINE
  5
2C24
330
2C21
100
AcDbEntity
  8
BEM
 62
     0
370
    -2
100
AcDbLine
 10
57.37943678203329
 20
261.6450196221726
 30
0.0
 11
57.37943678203328
 21
235.6450196221723
 31
0.0
  0
SOLID
  5
2C25
330
2C21
100
AcDbEntity
  8
BEM
 62
     0
100
AcDbTrace
 10
56.21277011536662
 20
261.6450196221726
 30
0.0
 11
58.54610344869995
 21
261.6450196221726
 31
0.0
 12
57.37943678203329
 22
268.6450196221727
 32
0.0
 13
57.37943678203329
 23
268.6450196221727
 33
0.0
  0
SOLID
  5
2C26
330
2C21
100
AcDbEntity
  8
BEM
 62
     0
100
AcDbTrace
 10
56.21277011536662
 20
235.6450196221723
 30
0.0
 11
58.54610344869994
 21
235.6450196221723
 31
0.0
 12
57.37943678203328
 22
228.6450196221724
 32
0.0
 13
57.37943678203328
 23
228.6450196221724
 33
0.0
  0
MTEXT
  5
2C27
330
2C21
100
AcDbEntity
  8
BEM
 62
     1
100
AcDbMText
 10
50.87943678203324
 20
248.6450196221725
 30
0.0
 40
7.0
 41
0.0
 71
     5
 72
     1
  1
\A1;40
 11
0.0000000000000001
 21
1.0
 31
0.0
 73
     1
 44
1.0
  0
POINT
  5
2C28
330
2C21
100
AcDbEntity
  8
Defpoints
 62
     0
100
AcDbPoint
 10
77.25096565038325
 20
268.6450196221727
 30
0.0
  0
POINT
  5
2C29
330
2C21
100
AcDbEntity
  8
Defpoints
 62
     0
100
AcDbPoint
 10
77.25094949900597
 20
228.6450196221723
 30
0.0
  0
POINT
  5
2C2A
330
2C21
100
AcDbEntity
  8
Defpoints
 62
     0
100
AcDbPoint
 10
57.37943678203328
 20
228.6450196221724
 30
0.0
  0
ENDBLK
  5
2C2C
330
2C21
100
AcDbEntity
  8
0
100
AcDbBlockEnd
  0
ENDSEC
  0
SECTION
  2
ENTITIES
  0
LINE
  5
57
330
1E
100
AcDbEntity
  8
STEMPEL
100
AcDbLine
 10
484.0
 20
830.0
 30
0.0
 11
484.0
 21
460.0
 31
0.0
  0
LINE
  5
58
330
1E
100
AcDbEntity
  8
STEMPEL
100
AcDbLine
 10
484.0
 20
556.0000000000001
 30
0.0
 11
584.0
 21
556.0
 31
0.0
  0
LINE
  5
59
330
1E
100
AcDbEntity
  8
STEMPEL
100
AcDbLine
 10
484.0
 20
640.0
 30
0.0
 11
584.0
 21
640.0
 31
0.0
  0
LINE
  5
5A
330
1E
100
AcDbEntity
  8
STEMPEL
100
AcDbLine
 10
484.0000000000002
 20
752.0
 30
0.0
 11
554.0
 21
752.0
 31
0.0
  0
LINE
  5
5B
330
1E
100
AcDbEntity
  8
STEMPEL
100
AcDbLine
 10
564.0
 20
555.9999999999998
 30
0.0
 11
564.0
 21
460.0
 31
0.0
  0
LINE
  5
5C
330
1E
100
AcDbEntity
  8
STEMPEL
100
AcDbLine
 10
554.0
 20
830.0
 30
0.0
 11
554.0
 21
556.0000000000001
 31
0.0
  0
LINE
  5
5D
330
1E
100
AcDbEntity
  8
STEMPEL
100
AcDbLine
 10
514.0
 20
830.0
 30
0.0
 11
514.0
 21
556.0000000000001
 31
0.0
  0
LINE
  5
5E
330
1E
100
AcDbEntity
  8
VOLL
100
AcDbLine
 10
484.0
 20
474.0000000000001
 30
0.0
 11
584.0
 21
474.0
 31
0.0
  0
LINE
  5
5F
330
1E
100
AcDbEntity
  8
VOLL
100
AcDbLine
 10
484.0
 20
514.0000000000001
 30
0.0
 11
584.0
 21
514.0
 31
0.0
  0
LINE
  5
60
330
1E
100
AcDbEntity
  8
VOLL
100
AcDbLine
 10
484.0
 20
534.0000000000001
 30
0.0
 11
584.0
 21
534.0
 31
0.0
  0
LINE
  5
61
330
1E
100
AcDbEntity
  8
VOLL
100
AcDbLine
 10
514.0
 20
574.0000000000001
 30
0.0
 11
554.0
 21
574.0000000000001
 31
0.0
  0
LINE
  5
62
330
1E
100
AcDbEntity
  8
VOLL
100
AcDbLine
 10
484.0000000000002
 20
600.0
 30
0.0
 11
554.0
 21
600.0
 31
0.0
  0
LINE
  5
63
330
1E
100
AcDbEntity
  8
HILF
100
AcDbLine
 10
494.0
 20
460.0000000000001
 30
0.0
 11
494.0
 21
556.0000000000001
 31
0.0
  0
LINE
  5
64
330
1E
100
AcDbEntity
  8
HILF
100
AcDbLine
 10
504.0
 20
460.0000000000001
 30
0.0
 11
504.0
 21
556.0000000000001
 31
0.0
  0
LINE
  5
65
330
1E
100
AcDbEntity
  8
HILF
100
AcDbLine
 10
514.0
 20
460.0000000000001
 30
0.0
 11
514.0
 21
556.0000000000001
 31
0.0
  0
LINE
  5
66
330
1E
100
AcDbEntity
  8
HILF
100
AcDbLine
 10
524.0
 20
460.0000000000001
 30
0.0
 11
524.0
 21
556.0000000000001
 31
0.0
  0
LINE
  5
67
330
1E
100
AcDbEntity
  8
HILF
100
AcDbLine
 10
534.0
 20
460.0000000000001
 30
0.0
 11
534.0
 21
556.0000000000001
 31
0.0
  0
LINE
  5
68
330
1E
100
AcDbEntity
  8
HILF
100
AcDbLine
 10
544.0
 20
460.0000000000001
 30
0.0
 11
544.0
 21
556.0000000000001
 31
0.0
  0
LINE
  5
69
330
1E
100
AcDbEntity
  8
HILF
100
AcDbLine
 10
554.0
 20
460.0000000000001
 30
0.0
 11
554.0
 21
556.0000000000001
 31
0.0
  0
LINE
  5
6A
330
1E
100
AcDbEntity
  8
HILF
100
AcDbLine
 10
524.0
 20
556.0000000000001
 30
0.0
 11
524.0
 21
640.0
 31
0.0
  0
LINE
  5
6B
330
1E
100
AcDbEntity
  8
HILF
100
AcDbLine
 10
534.0
 20
556.0000000000001
 30
0.0
 11
534.0
 21
640.0
 31
0.0
  0
LINE
  5
6C
330
1E
100
AcDbEntity
  8
HILF
100
AcDbLine
 10
544.0
 20
556.0000000000001
 30
0.0
 11
544.0
 21
640.0
 31
0.0
  0
LINE
  5
6D
330
1E
100
AcDbEntity
  8
HILF
100
AcDbLine
 10
509.9624175243587
 20
644.7736801096947
 30
0.0
 11
509.9624175243587
 21
744.835391655631
 31
0.0
  0
LINE
  5
6E
330
1E
100
AcDbEntity
  8
HILF
100
AcDbLine
 10
524.0
 20
644.7736801096947
 30
0.0
 11
524.0
 21
744.8353916556309
 31
0.0
  0
LINE
  5
6F
330
1E
100
AcDbEntity
  8
HILF
100
AcDbLine
 10
534.0
 20
644.7736801096947
 30
0.0
 11
534.0
 21
744.8353916556309
 31
0.0
  0
LINE
  5
70
330
1E
100
AcDbEntity
  8
HILF
100
AcDbLine
 10
544.0
 20
644.7736801096947
 30
0.0
 11
544.0
 21
744.8353916556309
 31
0.0
  0
LINE
  5
71
330
1E
100
AcDbEntity
  8
VOLL
100
AcDbLine
 10
534.0
 20
752.0
 30
0.0
 11
534.0
 21
830.0
 31
0.0
  0
LINE
  5
72
330
1E
100
AcDbEntity
  8
HILF
100
AcDbLine
 10
510.2201636304417
 20
756.7238616296992
 30
0.0
 11
510.2201636304417
 21
824.8588839326728
 31
0.0
  0
LINE
  5
73
330
1E
100
AcDbEntity
  8
HILF
100
AcDbLine
 10
579.1060174197168
 20
643.4909699289885
 30
0.0
 11
579.1060174197168
 21
824.8588839326728
 31
0.0
  0
TEXT
  5
74
330
1E
100
AcDbEntity
  8
TEXT
100
AcDbText
 10
575.3261810501585
 20
483.8616597963182
 30
0.0
 40
4.0
  1
Änderung
 50
90.0
 41
0.8
  7
GREEKS
 72
     1
 11
575.3261810501585
 21
494.6045169391753
 31
0.0
100
AcDbText
  0
TEXT
  5
75
330
1E
100
AcDbEntity
  8
TEXT
100
AcDbText
 10
491.537910491291
 20
563.5163572150377
 30
0.0
 40
5.0
  1
Maßstab
 50
90.0
 41
0.8
  7
GREEKS
100
AcDbText
  0
TEXT
  5
76
330
1E
100
AcDbEntity
  8
TEXT
100
AcDbText
 10
491.581583156518
 20
604.2858954734051
 30
0.0
 40
5.0
  1
Zul. Abw.
 50
90.0
 41
0.8
  7
GREEKS
100
AcDbText
  0
TEXT
  5
77
330
1E
100
AcDbEntity
  8
TEXT
100
AcDbText
 10
491.4510671988221
 20
644.877940380901
 30
0.0
 40
5.0
  1
Benennung
 50
90.0
 41
0.8
  7
GREEKS
100
AcDbText
  0
TEXT
  5
78
330
1E
100
AcDbEntity
  8
TEXT
100
AcDbText
 10
491.6867965462863
 20
756.178754957634
 30
0.0
 40
5.0
  1
Zeichnungs Nr.
 50
90.0
 41
0.8
  7
GREEKS
100
AcDbText
  0
TEXT
  5
79
330
1E
100
AcDbEntity
  8
TEXT
100
AcDbText
 10
563.1543942980693
 20
644.742238391136
 30
0.0
 40
5.0
  1
Bauvorhaben
 50
90.0
 41
0.8
  7
GREEKS
100
AcDbText
  0
TEXT
  5
7A
330
1E
100
AcDbEntity
  8
TEXT
100
AcDbText
 10
520.8188176290002
 20
756.7238616296992
 30
0.0
 40
5.0
  1
Ersatz für:
 50
90.0
 41
0.8
  7
GREEKS
100
AcDbText
  0
TEXT
  5
7B
330
1E
100
AcDbEntity
  8
TEXT
100
AcDbText
 10
580.345341539728
 20
468.2664110704576
 30
0.0
 40
4.0
  1
Index
 50
180.0
 41
0.8
  7
GREEKS
100
AcDbText
  0
TEXT
  5
7C
330
1E
100
AcDbEntity
  8
TEXT
100
AcDbText
 10
575.3284373066019
 20
520.0934676075481
 30
0.0
 40
4.0
  1
Tag
 50
90.0
 41
0.8
  7
GREEKS
 72
     1
 11
575.3284373066019
 21
523.8268009408813
 31
0.0
100
AcDbText
  0
TEXT
  5
7D
330
1E
100
AcDbEntity
  8
TEXT
100
AcDbText
 10
575.4067578303359
 20
539.0122744386594
 30
0.0
 40
4.0
  1
Name
 50
90.0
 41
0.8
  7
GREEKS
 72
     1
 11
575.4067578303359
 21
545.3360839624687
 31
0.0
100
AcDbText
  0
TEXT
  5
7E
330
1E
100
AcDbEntity
  8
TEXT
100
AcDbText
 10
520.6811949877008
 20
582.331167315365
 30
0.0
 40
4.0
  1
Tag
 50
90.0
 41
0.8
  7
GREEKS
100
AcDbText
  0
TEXT
  5
7F
330
1E
100
AcDbEntity
  8
TEXT
100
AcDbText
 10
520.6903890808478
 20
612.4626584226295
 30
0.0
 40
4.0
  1
Name
 50
90.0
 41
0.8
  7
GREEKS
100
AcDbText
  0
TEXT
  5
80
330
1E
100
AcDbEntity
  8
TEXT
100
AcDbText
 10
530.3700963038204
 20
557.5836127167615
 30
0.0
 40
4.0
  1
Gez.
 50
90.0
 41
0.8
  7
GREEKS
100
AcDbText
  0
TEXT
  5
81
330
1E
100
AcDbEntity
  8
TEXT
100
AcDbText
 10
540.3107370857163
 20
557.5515086571672
 30
0.0
 40
4.0
  1
Gepr.
 50
90.0
 41
0.8
  7
GREEKS
100
AcDbText
  0
TEXT
  5
82
330
1E
100
AcDbEntity
  8
TEXT
100
AcDbText
 10
550.4705361035019
 20
557.6006777387304
 30
0.0
 40
4.0
  1
Norm.
 50
90.0
 41
0.8
  7
GREEKS
100
AcDbText
  0
TEXT
  5
84
330
1E
100
AcDbEntity
  8
TEXT
100
AcDbText
 10
541.925838221214
 20
757.2400861497006
 30
0.0
 40
5.0
  1
ersetzt durch:
 50
90.0
 41
0.8
  7
GREEKS
100
AcDbText
  0
TEXT
  5
8D
330
1E
100
AcDbEntity
  8
TEXT
100
AcDbText
 10
520.8597452884832
 20
558.622109822104
 30
0.0
 40
4.0
  1
2012
 50
90.0
 41
0.8
  7
GREEKS
100
AcDbText
  0
TEXT
  5
8F
330
1E
100
AcDbEntity
  8
VOLL
100
AcDbText
 10
78.07675471698113
 20
31.02594776470585
 30
0.0
 40
1.8
  1

  7
GREEKS
100
AcDbText
  0
TEXT
  5
90
330
1E
100
AcDbEntity
  8
TEXT
100
AcDbText
 10
482.3279999999999
 20
461.8550995097767
 30
0.0
 40
5.0
  1
Erstellt mit AUTOCAD 2004
 50
90.0
 41
0.8
  7
GREEKS
100
AcDbText
  0
TEXT
  5
91
330
1E
100
AcDbEntity
  8
TEXT
100
AcDbText
 10
530.9103608027649
 20
614.4216048581257
 30
0.0
 40
4.0
  1
Koeh
 50
90.0
 41
0.8
  7
GREEKS
 72
     1
 11
530.9103608027649
 21
619.6787477152686
 31
0.0
100
AcDbText
  0
TEXT
  5
92
330
1E
100
AcDbEntity
  8
TEXT
 62
     1
100
AcDbText
 10
505.8509857108604
 20
765.7721576428681
 30
0.0
 40
7.0
  1
00976250W
 50
90.0
 41
0.8
  7
GREEKS
 72
     1
 11
505.8509857108604
 21
789.7721576428681
 31
0.0
100
AcDbText
  0
TEXT
  5
93
330
1E
100
AcDbEntity
  8
TEXT
 62
     1
100
AcDbText
 10
505.8509857108604
 20
570.5006306481887
 30
0.0
 40
7.0
  1
1:2
 50
90.0
 41
0.8
  7
GREEKS
100
AcDbText
  0
TEXT
  5
94
330
1E
100
AcDbEntity
  8
TEXT
100
AcDbText
 10
530.8923495917427
 20
580.703759012998
 30
0.0
 40
4.0
  1
29.10.
 50
90.0
 41
0.8
  7
GREEKS
 72
     1
 11
530.8923495917427
 21
587.4085209177599
 31
0.0
100
AcDbText
  0
TEXT
  5
95
330
1E
100
AcDbEntity
  8
TEXT
 62
     1
100
AcDbText
 10
506.5825121074622
 20
646.8935731057402
 30
0.0
 40
7.0
  1
Rohrschelle DN250
 50
90.0
 41
0.8
  7
GREEKS
100
AcDbText
  0
TEXT
  5
96
330
1E
100
AcDbEntity
  8
TEXT
100
AcDbText
 10
522.4966558241471
 20
645.1296391125315
 30
0.0
 40
5.0
  1
mit Anschlußgewinde M12
 50
90.0
 41
0.8
  7
GREEKS
100
AcDbText
  0
TEXT
  5
98
330
1E
100
AcDbEntity
  8
TEXT
100
AcDbText
 10
542.3598805695783
 20
645.1296391125315
 30
0.0
 40
5.0
  1
EDV-Art.Nr. 00976.250X
 50
90.0
 41
0.8
  7
GREEKS
100
AcDbText
  0
TEXT
  5
99
330
1E
100
AcDbEntity
  8
TEXT
100
AcDbText
 10
551.3702584697737
 20
644.9837501577826
 30
0.0
 40
4.0
  1
00976250W.DWG
 50
90.0
 41
0.8
  7
GREEKS
100
AcDbText
  0
TEXT
  5
9A
330
1E
100
AcDbEntity
  8
TEXT
100
AcDbText
 10
503.2363615897698
 20
602.626132208084
 30
0.0
 40
4.0
  1
DIN EN1123-2
 50
90.0
 41
0.8
  7
GREEKS
 72
     1
 11
503.2363615897698
 21
619.6166083985603
 31
0.0
100
AcDbText
  0
INSERT
  5
9B
330
1E
100
AcDbEntity
  8
STEMPEL
100
AcDbBlockReference
  2
LOGO
 10
548.9789472355169
 20
560.9955485457795
 30
0.0
 41
2.0
 42
2.0
 43
2.0
 50
90.0
  0
TEXT
  5
7BF
330
1E
100
AcDbEntity
  8
TEXT
 62
     1
100
AcDbText
 10
254.7822786010115
 20
362.3975849599578
 30
0.0
 40
7.0
  1
M12
 41
0.8
  7
GREEKS
100
AcDbText
  0
LINE
  5
7C0
330
1E
100
AcDbEntity
  8
TEXT
 62
     2
100
AcDbLine
 10
252.6623856049659
 20
359.0176795430614
 30
0.0
 11
269.8073057933348
 21
359.0176795430614
 31
0.0
  0
LINE
  5
7C1
330
1E
100
AcDbEntity
  8
TEXT
 62
     2
100
AcDbLine
 10
252.6623856049659
 20
359.0176795430614
 30
0.0
 11
244.2051099808097
 21
381.035881055276
 31
0.0
  0
TEXT
  5
1137
330
1E
100
AcDbEntity
  8
TEXT
 62
     1
100
AcDbText
 10
376.95989271201
 20
640.7803722251874
 30
0.0
 40
7.0
  1
Schraube M8x30
 41
0.8
  7
GREEKS
100
AcDbText
  0
LINE
  5
1138
330
1E
100
AcDbEntity
  8
TEXT
 62
     2
100
AcDbLine
 10
374.8399997159646
 20
637.4004668082911
 30
0.0
 11
449.841681533595
 21
637.4004668082911
 31
0.0
  0
LINE
  5
1139
330
1E
100
AcDbEntity
  8
TEXT
 62
     2
100
AcDbLine
 10
449.841681533595
 20
637.4004668082911
 30
0.0
 11
408.7026410206965
 21
552.2227118867065
 31
0.0
  0
LINE
  5
28B8
330
1E
100
AcDbEntity
  8
HILF
100
AcDbLine
 10
402.1469656503832
 20
519.5129608142817
 30
0.0
 11
402.1469656503832
 21
537.5129608142818
 31
0.0
  0
LINE
  5
28B9
330
1E
100
AcDbEntity
  8
HILF
100
AcDbLine
 10
408.6469656503831
 20
519.5129608142817
 30
0.0
 11
408.6469656503831
 21
537.5129608142818
 31
0.0
  0
LINE
  5
28BA
330
1E
100
AcDbEntity
  8
STEMPEL
100
AcDbLine
 10
409.3969656503832
 20
520.2629608142817
 30
0.0
 11
401.3969656503832
 21
520.2629608142817
 31
0.0
  0
LINE
  5
28BB
330
1E
100
AcDbEntity
  8
HILF
100
AcDbLine
 10
402.1469656503832
 20
545.2629608142817
 30
0.0
 11
402.1469656503832
 21
546.5129608142818
 31
0.0
  0
LINE
  5
28BC
330
1E
100
AcDbEntity
  8
HILF
100
AcDbLine
 10
402.1469656503832
 20
543.5129608142817
 30
0.0
 11
402.1469656503832
 21
544.7629608142817
 31
0.0
  0
LINE
  5
28BD
330
1E
100
AcDbEntity
  8
HILF
100
AcDbLine
 10
408.6469656503831
 20
545.2629608142817
 30
0.0
 11
408.6469656503831
 21
546.5129608142818
 31
0.0
  0
LINE
  5
28BE
330
1E
100
AcDbEntity
  8
HILF
100
AcDbLine
 10
408.6469656503831
 20
543.5129608142817
 30
0.0
 11
408.6469656503831
 21
544.7629608142817
 31
0.0
  0
LINE
  5
28BF
330
1E
100
AcDbEntity
  8
STEMPEL
100
AcDbLine
 10
401.3969656503832
 20
545.2629608142817
 30
0.0
 11
401.3969656503832
 21
546.5129608142818
 31
0.0
  0
LINE
  5
28C0
330
1E
100
AcDbEntity
  8
STEMPEL
100
AcDbLine
 10
401.3969656503832
 20
543.5129608142817
 30
0.0
 11
401.3969656503832
 21
544.7629608142817
 31
0.0
  0
LINE
  5
28C1
330
1E
100
AcDbEntity
  8
STEMPEL
100
AcDbLine
 10
409.3969656503832
 20
544.7629608142817
 30
0.0
 11
409.3969656503832
 21
543.5129608142817
 31
0.0
  0
LINE
  5
28C2
330
1E
100
AcDbEntity
  8
STEMPEL
100
AcDbLine
 10
409.3969656503832
 20
546.5129608142818
 30
0.0
 11
409.3969656503832
 21
545.2629608142817
 31
0.0
  0
ARC
  5
28C3
330
1E
100
AcDbEntity
  8
STEMPEL
100
AcDbCircle
 10
405.3969656503832
 20
543.6549608142817
 30
0.0
 40
11.158
100
AcDbArc
 50
95.91552076700034
 51
109.652859632001
  0
ARC
  5
28C4
330
1E
100
AcDbEntity
  8
STEMPEL
100
AcDbCircle
 10
405.3969656503832
 20
543.6549608142817
 30
0.0
 40
11.158
100
AcDbArc
 50
70.34714036799893
 51
84.08447923299966
  0
LINE
  5
28C5
330
1E
100
AcDbEntity
  8
STEMPEL
100
AcDbLine
 10
404.2469656503833
 20
554.8129608142817
 30
0.0
 11
399.7679656503833
 21
554.8129608142817
 31
0.0
  0
LINE
  5
28C6
330
1E
100
AcDbEntity
  8
STEMPEL
100
AcDbLine
 10
404.2469656503833
 20
552.3129608142816
 30
0.0
 11
404.2469656503833
 21
554.8129608142817
 31
0.0
  0
LINE
  5
28C7
330
1E
100
AcDbEntity
  8
STEMPEL
100
AcDbLine
 10
406.5469656503832
 20
552.3129608142816
 30
0.0
 11
404.2469656503833
 21
552.3129608142816
 31
0.0
  0
LINE
  5
28C8
330
1E
100
AcDbEntity
  8
STEMPEL
100
AcDbLine
 10
406.5469656503832
 20
554.8129608142817
 30
0.0
 11
406.5469656503832
 21
552.3129608142816
 31
0.0
  0
LINE
  5
28C9
330
1E
100
AcDbEntity
  8
STEMPEL
100
AcDbLine
 10
411.0259656503833
 20
554.8129608142817
 30
0.0
 11
406.5469656503832
 21
554.8129608142817
 31
0.0
  0
LINE
  5
28CA
330
1E
100
AcDbEntity
  8
STEMPEL
100
AcDbLine
 10
401.3969656503832
 20
520.2629608142817
 30
0.0
 11
401.3969656503832
 21
537.5129608142818
 31
0.0
  0
LINE
  5
28CB
330
1E
100
AcDbEntity
  8
STEMPEL
100
AcDbLine
 10
402.1469656503832
 20
519.5129608142817
 30
0.0
 11
401.3969656503832
 21
520.2629608142817
 31
0.0
  0
LINE
  5
28CC
330
1E
100
AcDbEntity
  8
STEMPEL
100
AcDbLine
 10
408.6469656503831
 20
519.5129608142817
 30
0.0
 11
402.1469656503832
 21
519.5129608142817
 31
0.0
  0
LINE
  5
28CD
330
1E
100
AcDbEntity
  8
STEMPEL
100
AcDbLine
 10
409.3969656503832
 20
520.2629608142817
 30
0.0
 11
408.6469656503831
 21
519.5129608142817
 31
0.0
  0
LINE
  5
28CE
330
1E
100
AcDbEntity
  8
STEMPEL
100
AcDbLine
 10
409.3969656503832
 20
537.5129608142818
 30
0.0
 11
409.3969656503832
 21
520.2629608142817
 31
0.0
  0
LINE
  5
28CF
330
1E
100
AcDbEntity
  8
STEMPEL
100
AcDbLine
 10
409.1499656503832
 20
554.1629608142816
 30
0.0
 11
409.1499656503832
 21
549.5129608142817
 31
0.0
  0
ARC
  5
28D0
330
1E
100
AcDbEntity
  8
STEMPEL
100
AcDbCircle
 10
411.0259656503833
 20
551.7799608142817
 30
0.0
 40
3.032999999999999
100
AcDbArc
 50
90.0
 51
128.2132107020002
  0
ARC
  5
28D1
330
1E
100
AcDbEntity
  8
STEMPEL
100
AcDbCircle
 10
411.0259656503833
 20
551.7799608142817
 30
0.0
 40
3.032999999999999
100
AcDbArc
 50
51.78678929799973
 51
90.0
  0
LINE
  5
28D2
330
1E
100
AcDbEntity
  8
STEMPEL
100
AcDbLine
 10
412.9029656503832
 20
549.5129608142817
 30
0.0
 11
412.9029656503832
 21
554.1629608142816
 31
0.0
  0
LINE
  5
28D3
330
1E
100
AcDbEntity
  8
STEMPEL
100
AcDbLine
 10
409.7969656503833
 20
549.5129608142817
 30
0.0
 11
412.9029656503832
 21
549.5129608142817
 31
0.0
  0
LINE
  5
28D4
330
1E
100
AcDbEntity
  8
STEMPEL
100
AcDbLine
 10
400.9969656503833
 20
549.5129608142817
 30
0.0
 11
409.7969656503833
 21
549.5129608142817
 31
0.0
  0
LINE
  5
28D5
330
1E
100
AcDbEntity
  8
STEMPEL
100
AcDbLine
 10
397.8919656503833
 20
549.5129608142817
 30
0.0
 11
400.9969656503833
 21
549.5129608142817
 31
0.0
  0
LINE
  5
28D6
330
1E
100
AcDbEntity
  8
STEMPEL
100
AcDbLine
 10
397.8919656503833
 20
554.1629608142816
 30
0.0
 11
397.8919656503833
 21
549.5129608142817
 31
0.0
  0
ARC
  5
28D7
330
1E
100
AcDbEntity
  8
STEMPEL
100
AcDbCircle
 10
399.7679656503833
 20
551.7799608142817
 30
0.0
 40
3.032999999999999
100
AcDbArc
 50
90.0
 51
128.2132107020002
  0
ARC
  5
28D8
330
1E
100
AcDbEntity
  8
STEMPEL
100
AcDbCircle
 10
399.7679656503833
 20
551.7799608142817
 30
0.0
 40
3.032999999999999
100
AcDbArc
 50
51.78678929799973
 51
90.0
  0
LINE
  5
28D9
330
1E
100
AcDbEntity
  8
STEMPEL
100
AcDbLine
 10
401.6449656503832
 20
549.5129608142817
 30
0.0
 11
401.6449656503832
 21
554.1629608142816
 31
0.0
  0
LINE
  5
28DA
330
1E
100
AcDbEntity
  8
HILF
100
AcDbLine
 10
80.16396565038325
 20
519.5129608142817
 30
0.0
 11
80.16396565038325
 21
537.5129608142818
 31
0.0
  0
LINE
  5
28DB
330
1E
100
AcDbEntity
  8
HILF
100
AcDbLine
 10
86.66396565038326
 20
519.5129608142817
 30
0.0
 11
86.66396565038326
 21
537.5129608142818
 31
0.0
  0
LINE
  5
28DC
330
1E
100
AcDbEntity
  8
STEMPEL
100
AcDbLine
 10
87.41396565038327
 20
520.2629608142817
 30
0.0
 11
79.41396565038326
 21
520.2629608142817
 31
0.0
  0
LINE
  5
28DD
330
1E
100
AcDbEntity
  8
HILF
100
AcDbLine
 10
80.16396565038325
 20
545.2629608142817
 30
0.0
 11
80.16396565038325
 21
546.5129608142818
 31
0.0
  0
LINE
  5
28DE
330
1E
100
AcDbEntity
  8
HILF
100
AcDbLine
 10
80.16396565038325
 20
543.5129608142817
 30
0.0
 11
80.16396565038325
 21
544.7629608142817
 31
0.0
  0
LINE
  5
28DF
330
1E
100
AcDbEntity
  8
HILF
100
AcDbLine
 10
86.66396565038326
 20
545.2629608142817
 30
0.0
 11
86.66396565038326
 21
546.5129608142818
 31
0.0
  0
LINE
  5
28E0
330
1E
100
AcDbEntity
  8
HILF
100
AcDbLine
 10
86.66396565038326
 20
543.5129608142817
 30
0.0
 11
86.66396565038326
 21
544.7629608142817
 31
0.0
  0
LINE
  5
28E1
330
1E
100
AcDbEntity
  8
STEMPEL
100
AcDbLine
 10
79.41396565038326
 20
545.2629608142817
 30
0.0
 11
79.41396565038326
 21
546.5129608142818
 31
0.0
  0
LINE
  5
28E2
330
1E
100
AcDbEntity
  8
STEMPEL
100
AcDbLine
 10
79.41396565038326
 20
543.5129608142817
 30
0.0
 11
79.41396565038326
 21
544.7629608142817
 31
0.0
  0
LINE
  5
28E3
330
1E
100
AcDbEntity
  8
STEMPEL
100
AcDbLine
 10
87.41396565038327
 20
544.7629608142817
 30
0.0
 11
87.41396565038327
 21
543.5129608142817
 31
0.0
  0
LINE
  5
28E4
330
1E
100
AcDbEntity
  8
STEMPEL
100
AcDbLine
 10
87.41396565038327
 20
546.5129608142818
 30
0.0
 11
87.41396565038327
 21
545.2629608142817
 31
0.0
  0
ARC
  5
28E5
330
1E
100
AcDbEntity
  8
STEMPEL
100
AcDbCircle
 10
83.41396565038326
 20
543.6549608142817
 30
0.0
 40
11.158
100
AcDbArc
 50
95.91552076700034
 51
109.652859632001
  0
ARC
  5
28E6
330
1E
100
AcDbEntity
  8
STEMPEL
100
AcDbCircle
 10
83.41396565038326
 20
543.6549608142817
 30
0.0
 40
11.158
100
AcDbArc
 50
70.34714036799893
 51
84.08447923299966
  0
LINE
  5
28E7
330
1E
100
AcDbEntity
  8
STEMPEL
100
AcDbLine
 10
82.26396565038328
 20
554.8129608142817
 30
0.0
 11
77.78496565038324
 21
554.8129608142817
 31
0.0
  0
LINE
  5
28E8
330
1E
100
AcDbEntity
  8
STEMPEL
100
AcDbLine
 10
82.26396565038328
 20
552.3129608142816
 30
0.0
 11
82.26396565038328
 21
554.8129608142817
 31
0.0
  0
LINE
  5
28E9
330
1E
100
AcDbEntity
  8
STEMPEL
100
AcDbLine
 10
84.56396565038323
 20
552.3129608142816
 30
0.0
 11
82.26396565038328
 21
552.3129608142816
 31
0.0
  0
LINE
  5
28EA
330
1E
100
AcDbEntity
  8
STEMPEL
100
AcDbLine
 10
84.56396565038323
 20
554.8129608142817
 30
0.0
 11
84.56396565038323
 21
552.3129608142816
 31
0.0
  0
LINE
  5
28EB
330
1E
100
AcDbEntity
  8
STEMPEL
100
AcDbLine
 10
89.04296565038327
 20
554.8129608142817
 30
0.0
 11
84.56396565038323
 21
554.8129608142817
 31
0.0
  0
LINE
  5
28EC
330
1E
100
AcDbEntity
  8
STEMPEL
100
AcDbLine
 10
79.41396565038326
 20
520.2629608142817
 30
0.0
 11
79.41396565038326
 21
537.5129608142818
 31
0.0
  0
LINE
  5
28ED
330
1E
100
AcDbEntity
  8
STEMPEL
100
AcDbLine
 10
80.16396565038325
 20
519.5129608142817
 30
0.0
 11
79.41396565038326
 21
520.2629608142817
 31
0.0
  0
LINE
  5
28EE
330
1E
100
AcDbEntity
  8
STEMPEL
100
AcDbLine
 10
86.66396565038326
 20
519.5129608142817
 30
0.0
 11
80.16396565038325
 21
519.5129608142817
 31
0.0
  0
LINE
  5
28EF
330
1E
100
AcDbEntity
  8
STEMPEL
100
AcDbLine
 10
87.41396565038327
 20
520.2629608142817
 30
0.0
 11
86.66396565038326
 21
519.5129608142817
 31
0.0
  0
LINE
  5
28F0
330
1E
100
AcDbEntity
  8
STEMPEL
100
AcDbLine
 10
87.41396565038327
 20
537.5129608142818
 30
0.0
 11
87.41396565038327
 21
520.2629608142817
 31
0.0
  0
LINE
  5
28F1
330
1E
100
AcDbEntity
  8
STEMPEL
100
AcDbLine
 10
87.16696565038331
 20
554.1629608142816
 30
0.0
 11
87.16696565038331
 21
549.5129608142817
 31
0.0
  0
ARC
  5
28F2
330
1E
100
AcDbEntity
  8
STEMPEL
100
AcDbCircle
 10
89.04296565038327
 20
551.7799608142817
 30
0.0
 40
3.032999999999999
100
AcDbArc
 50
90.0
 51
128.2132107020002
  0
ARC
  5
28F3
330
1E
100
AcDbEntity
  8
STEMPEL
100
AcDbCircle
 10
89.04296565038327
 20
551.7799608142817
 30
0.0
 40
3.032999999999999
100
AcDbArc
 50
51.78678929799973
 51
90.0
  0
LINE
  5
28F4
330
1E
100
AcDbEntity
  8
STEMPEL
100
AcDbLine
 10
90.91996565038323
 20
549.5129608142817
 30
0.0
 11
90.91996565038323
 21
554.1629608142816
 31
0.0
  0
LINE
  5
28F5
330
1E
100
AcDbEntity
  8
STEMPEL
100
AcDbLine
 10
87.81396565038324
 20
549.5129608142817
 30
0.0
 11
90.91996565038323
 21
549.5129608142817
 31
0.0
  0
LINE
  5
28F6
330
1E
100
AcDbEntity
  8
STEMPEL
100
AcDbLine
 10
79.01396565038329
 20
549.5129608142817
 30
0.0
 11
87.81396565038324
 21
549.5129608142817
 31
0.0
  0
LINE
  5
28F7
330
1E
100
AcDbEntity
  8
STEMPEL
100
AcDbLine
 10
75.90896565038327
 20
549.5129608142817
 30
0.0
 11
79.01396565038329
 21
549.5129608142817
 31
0.0
  0
LINE
  5
28F8
330
1E
100
AcDbEntity
  8
STEMPEL
100
AcDbLine
 10
75.90896565038327
 20
554.1629608142816
 30
0.0
 11
75.90896565038327
 21
549.5129608142817
 31
0.0
  0
ARC
  5
28F9
330
1E
100
AcDbEntity
  8
STEMPEL
100
AcDbCircle
 10
77.78496565038324
 20
551.7799608142817
 30
0.0
 40
3.032999999999999
100
AcDbArc
 50
90.0
 51
128.2132107020002
  0
ARC
  5
28FA
330
1E
100
AcDbEntity
  8
STEMPEL
100
AcDbCircle
 10
77.78496565038324
 20
551.7799608142817
 30
0.0
 40
3.032999999999999
100
AcDbArc
 50
51.78678929799973
 51
90.0
  0
LINE
  5
28FB
330
1E
100
AcDbEntity
  8
STEMPEL
100
AcDbLine
 10
79.6619656503833
 20
549.5129608142817
 30
0.0
 11
79.6619656503833
 21
554.1629608142816
 31
0.0
  0
LINE
  5
28FC
330
1E
100
AcDbEntity
  8
STEMPEL
100
AcDbLine
 10
81.74196565038323
 20
242.1450196221726
 30
0.0
 11
81.74196565038323
 21
255.1450196221726
 31
0.0
  0
LINE
  5
28FD
330
1E
100
AcDbEntity
  8
STEMPEL
100
AcDbLine
 10
84.04196565038331
 20
242.1450196221726
 30
0.0
 11
84.04196565038331
 21
255.1450196221726
 31
0.0
  0
ARC
  5
28FE
330
1E
100
AcDbEntity
  8
STEMPEL
100
AcDbCircle
 10
82.89196565038333
 20
248.6450196221726
 30
0.0
 40
6.5
100
AcDbArc
 50
280.1905887679998
 51
79.80941123200023
  0
ARC
  5
28FF
330
1E
100
AcDbEntity
  8
STEMPEL
100
AcDbCircle
 10
82.89196565038333
 20
248.6450196221726
 30
0.0
 40
6.5
100
AcDbArc
 50
100.1905887679997
 51
259.8094112320002
  0
LINE
  5
2900
330
1E
100
AcDbEntity
  8
STEMPEL
100
AcDbLine
 10
79.13896565038328
 20
242.1450196221726
 30
0.0
 11
75.38596565038324
 21
248.6450196221726
 31
0.0
  0
LINE
  5
2901
330
1E
100
AcDbEntity
  8
STEMPEL
100
AcDbLine
 10
86.64396565038329
 20
242.1450196221726
 30
0.0
 11
79.13896565038328
 21
242.1450196221726
 31
0.0
  0
LINE
  5
2902
330
1E
100
AcDbEntity
  8
STEMPEL
100
AcDbLine
 10
90.39696565038331
 20
248.6450196221726
 30
0.0
 11
86.64396565038329
 21
242.1450196221726
 31
0.0
  0
LINE
  5
2903
330
1E
100
AcDbEntity
  8
STEMPEL
100
AcDbLine
 10
86.64396565038329
 20
255.1450196221726
 30
0.0
 11
90.39696565038331
 21
248.6450196221726
 31
0.0
  0
LINE
  5
2904
330
1E
100
AcDbEntity
  8
STEMPEL
100
AcDbLine
 10
79.13896565038328
 20
255.1450196221726
 30
0.0
 11
86.64396565038329
 21
255.1450196221726
 31
0.0
  0
LINE
  5
2905
330
1E
100
AcDbEntity
  8
STEMPEL
100
AcDbLine
 10
75.38596565038324
 20
248.6450196221726
 30
0.0
 11
79.13896565038328
 21
255.1450196221726
 31
0.0
  0
LINE
  5
2906
330
1E
100
AcDbEntity
  8
STEMPEL
100
AcDbLine
 10
404.7419656503832
 20
242.1450196221726
 30
0.0
 11
404.7419656503832
 21
255.1450196221726
 31
0.0
  0
LINE
  5
2907
330
1E
100
AcDbEntity
  8
STEMPEL
100
AcDbLine
 10
407.0419656503831
 20
242.1450196221726
 30
0.0
 11
407.0419656503831
 21
255.1450196221726
 31
0.0
  0
ARC
  5
2908
330
1E
100
AcDbEntity
  8
STEMPEL
100
AcDbCircle
 10
405.8919656503833
 20
248.6450196221726
 30
0.0
 40
6.5
100
AcDbArc
 50
280.1905887679998
 51
79.80941123200023
  0
ARC
  5
2909
330
1E
100
AcDbEntity
  8
STEMPEL
100
AcDbCircle
 10
405.8919656503833
 20
248.6450196221726
 30
0.0
 40
6.5
100
AcDbArc
 50
100.1905887679997
 51
259.8094112320002
  0
LINE
  5
290A
330
1E
100
AcDbEntity
  8
STEMPEL
100
AcDbLine
 10
402.1389656503832
 20
242.1450196221726
 30
0.0
 11
398.3859656503832
 21
248.6450196221726
 31
0.0
  0
LINE
  5
290B
330
1E
100
AcDbEntity
  8
STEMPEL
100
AcDbLine
 10
409.6439656503832
 20
242.1450196221726
 30
0.0
 11
402.1389656503832
 21
242.1450196221726
 31
0.0
  0
LINE
  5
290C
330
1E
100
AcDbEntity
  8
STEMPEL
100
AcDbLine
 10
413.3969656503832
 20
248.6450196221726
 30
0.0
 11
409.6439656503832
 21
242.1450196221726
 31
0.0
  0
LINE
  5
290D
330
1E
100
AcDbEntity
  8
STEMPEL
100
AcDbLine
 10
409.6439656503832
 20
255.1450196221726
 30
0.0
 11
413.3969656503832
 21
248.6450196221726
 31
0.0
  0
LINE
  5
290E
330
1E
100
AcDbEntity
  8
STEMPEL
100
AcDbLine
 10
402.1389656503832
 20
255.1450196221726
 30
0.0
 11
409.6439656503832
 21
255.1450196221726
 31
0.0
  0
LINE
  5
290F
330
1E
100
AcDbEntity
  8
STEMPEL
100
AcDbLine
 10
398.3859656503832
 20
248.6450196221726
 30
0.0
 11
402.1389656503832
 21
255.1450196221726
 31
0.0
  0
LINE
  5
2910
330
1E
100
AcDbEntity
  8
STEMPEL
100
AcDbLine
 10
76.16396565038326
 20
545.2629608142817
 30
0.0
 11
76.16396565038326
 21
544.7629608142817
 31
0.0
  0
LINE
  5
2911
330
1E
100
AcDbEntity
  8
STEMPEL
100
AcDbLine
 10
90.66396565038326
 20
545.2629608142817
 30
0.0
 11
76.16396565038326
 21
545.2629608142817
 31
0.0
  0
LINE
  5
2912
330
1E
100
AcDbEntity
  8
STEMPEL
100
AcDbLine
 10
90.66396565038326
 20
544.7629608142817
 30
0.0
 11
90.66396565038326
 21
545.2629608142817
 31
0.0
  0
LINE
  5
2913
330
1E
100
AcDbEntity
  8
STEMPEL
100
AcDbLine
 10
76.16396565038326
 20
544.7629608142817
 30
0.0
 11
90.66396565038326
 21
544.7629608142817
 31
0.0
  0
LINE
  5
2917
330
1E
100
AcDbEntity
  8
STEMPEL
100
AcDbLine
 10
398.1469656503832
 20
545.2629608142817
 30
0.0
 11
398.1469656503832
 21
544.7629608142817
 31
0.0
  0
LINE
  5
2918
330
1E
100
AcDbEntity
  8
STEMPEL
100
AcDbLine
 10
412.6469656503831
 20
545.2629608142817
 30
0.0
 11
398.1469656503832
 21
545.2629608142817
 31
0.0
  0
LINE
  5
2919
330
1E
100
AcDbEntity
  8
STEMPEL
100
AcDbLine
 10
412.6469656503831
 20
544.7629608142817
 30
0.0
 11
412.6469656503831
 21
545.2629608142817
 31
0.0
  0
LINE
  5
291A
330
1E
100
AcDbEntity
  8
STEMPEL
100
AcDbLine
 10
398.1469656503832
 20
544.7629608142817
 30
0.0
 11
412.6469656503831
 21
544.7629608142817
 31
0.0
  0
LINE
  5
291C
330
1E
100
AcDbEntity
  8
STEMPEL
100
AcDbLine
 10
92.49296565038321
 20
272.3950196221726
 30
0.0
 11
92.49296565038321
 21
260.6450196221727
 31
0.0
  0
LINE
  5
291D
330
1E
100
AcDbEntity
  8
STEMPEL
100
AcDbLine
 10
396.2899656503832
 20
272.3950196221726
 30
0.0
 11
92.49296565038321
 21
272.3950196221726
 31
0.0
  0
LINE
  5
291E
330
1E
100
AcDbEntity
  8
STEMPEL
100
AcDbLine
 10
396.2899656503832
 20
260.6450196221727
 30
0.0
 11
396.2899656503832
 21
272.3950196221726
 31
0.0
  0
LINE
  5
291F
330
1E
100
AcDbEntity
  8
STEMPEL
100
AcDbLine
 10
92.49296565038321
 20
260.6450196221727
 30
0.0
 11
396.2899656503832
 21
260.6450196221727
 31
0.0
  0
LINE
  5
2920
330
1E
100
AcDbEntity
  8
STEMPEL
100
AcDbLine
 10
396.2899656503832
 20
224.8950196221727
 30
0.0
 11
396.2899656503832
 21
236.6450196221726
 31
0.0
  0
LINE
  5
2921
330
1E
100
AcDbEntity
  8
STEMPEL
100
AcDbLine
 10
92.49296565038321
 20
224.8950196221727
 30
0.0
 11
396.2899656503832
 21
224.8950196221727
 31
0.0
  0
LINE
  5
2922
330
1E
100
AcDbEntity
  8
STEMPEL
100
AcDbLine
 10
92.49296565038321
 20
236.6450196221726
 30
0.0
 11
92.49296565038321
 21
224.8950196221727
 31
0.0
  0
LINE
  5
2923
330
1E
100
AcDbEntity
  8
STEMPEL
100
AcDbLine
 10
396.2899656503832
 20
236.6450196221726
 30
0.0
 11
92.49296565038321
 21
236.6450196221726
 31
0.0
  0
LINE
  5
2924
330
1E
100
AcDbEntity
  8
HILF
100
AcDbLine
 10
96.03696565038331
 20
260.6450196221727
 30
0.0
 11
96.03696565038331
 21
236.6450196221726
 31
0.0
  0
LINE
  5
2925
330
1E
100
AcDbEntity
  8
HILF
100
AcDbLine
 10
392.7459656503832
 20
260.6450196221727
 30
0.0
 11
392.7459656503832
 21
236.6450196221726
 31
0.0
  0
LINE
  5
2926
330
1E
100
AcDbEntity
  8
MITTEL
100
AcDbLine
 10
405.8919656503834
 20
237.1450196221726
 30
0.0
 11
405.8919656503833
 21
260.1450196221726
 31
0.0
  0
LINE
  5
2927
330
1E
100
AcDbEntity
  8
MITTEL
100
AcDbLine
 10
82.89196565038333
 20
237.1450196221726
 30
0.0
 11
82.89196565038333
 21
260.1450196221726
 31
0.0
  0
LINE
  5
2928
330
1E
100
AcDbEntity
  8
MITTEL
100
AcDbLine
 10
244.4059656503833
 20
277.3950196221727
 30
0.0
 11
244.4059656503832
 21
219.8950196221726
 31
0.0
  0
LINE
  5
2929
330
1E
100
AcDbEntity
  8
MITTEL
100
AcDbLine
 10
421.8919656503833
 20
248.6450196221726
 30
0.0
 11
66.89196565038333
 21
248.6450196221726
 31
0.0
  0
LINE
  5
292A
330
1E
100
AcDbEntity
  8
STEMPEL
100
AcDbLine
 10
411.5329656503832
 20
268.6450196221727
 30
0.0
 11
396.2899656503832
 21
268.6450196221727
 31
0.0
  0
ARC
  5
292B
330
1E
100
AcDbEntity
  8
STEMPEL
100
AcDbCircle
 10
376.8919656503833
 20
248.6450196221726
 30
0.0
 40
40.0
100
AcDbArc
 50
329.9999999999995
 51
30.00000000000055
  0
LINE
  5
292C
330
1E
100
AcDbEntity
  8
STEMPEL
100
AcDbLine
 10
396.2899656503832
 20
228.6450196221726
 30
0.0
 11
411.5329656503832
 21
228.6450196221726
 31
0.0
  0
LINE
  5
292D
330
1E
100
AcDbEntity
  8
STEMPEL
100
AcDbLine
 10
77.25096565038325
 20
228.6450196221726
 30
0.0
 11
92.49296565038321
 21
228.6450196221726
 31
0.0
  0
ARC
  5
292E
330
1E
100
AcDbEntity
  8
STEMPEL
100
AcDbCircle
 10
111.8919656503833
 20
248.6450196221726
 30
0.0
 40
40.0
100
AcDbArc
 50
149.9999999999994
 51
210.0000000000005
  0
LINE
  5
292F
330
1E
100
AcDbEntity
  8
STEMPEL
100
AcDbLine
 10
92.49296565038321
 20
268.6450196221727
 30
0.0
 11
77.25096565038325
 21
268.6450196221727
 31
0.0
  0
ARC
  5
293F
330
1E
100
AcDbEntity
  8
STEMPEL
100
AcDbCircle
 10
236.1789656503832
 20
385.8409608142817
 30
0.0
 40
5.328
100
AcDbArc
 50
270.0
 51
300.9790988619991
  0
ARC
  5
2940
330
1E
100
AcDbEntity
  8
STEMPEL
100
AcDbCircle
 10
236.1789656503832
 20
385.8409608142817
 30
0.0
 40
5.328
100
AcDbArc
 50
239.0209011380008
 51
270.0
  0
ARC
  5
2941
330
1E
100
AcDbEntity
  8
STEMPEL
100
AcDbCircle
 10
244.4059656503832
 20
400.6849608142816
 30
0.0
 40
20.172
100
AcDbArc
 50
254.2221938999995
 51
285.7778061000005
  0
ARC
  5
2942
330
1E
100
AcDbEntity
  8
STEMPEL
100
AcDbCircle
 10
252.6329656503833
 20
385.8409608142817
 30
0.0
 40
5.328
100
AcDbArc
 50
270.0
 51
300.9790988619991
  0
ARC
  5
2943
330
1E
100
AcDbEntity
  8
STEMPEL
100
AcDbCircle
 10
252.6329656503833
 20
385.8409608142817
 30
0.0
 40
5.328
100
AcDbArc
 50
239.0209011380008
 51
270.0
  0
LINE
  5
2944
330
1E
100
AcDbEntity
  8
STEMPEL
100
AcDbLine
 10
252.6329656503833
 20
380.5129608142817
 30
0.0
 11
236.1789656503832
 21
380.5129608142817
 31
0.0
  0
LINE
  5
2945
330
1E
100
AcDbEntity
  8
STEMPEL
100
AcDbLine
 10
233.4359656503833
 20
393.9109608142817
 30
0.0
 11
233.4359656503833
 21
381.2729608142817
 31
0.0
  0
LINE
  5
2946
330
1E
100
AcDbEntity
  8
STEMPEL
100
AcDbLine
 10
238.9209656503833
 20
393.6129608142817
 30
0.0
 11
238.9209656503833
 21
381.2729608142817
 31
0.0
  0
LINE
  5
2947
330
1E
100
AcDbEntity
  8
STEMPEL
100
AcDbLine
 10
249.8909656503832
 20
393.6129608142817
 30
0.0
 11
249.8909656503832
 21
381.2729608142817
 31
0.0
  0
LINE
  5
2948
330
1E
100
AcDbEntity
  8
STEMPEL
100
AcDbLine
 10
255.3749656503833
 20
393.9109608142817
 30
0.0
 11
255.3749656503833
 21
381.2729608142817
 31
0.0
  0
ARC
  5
2949
330
1E
100
AcDbEntity
  8
STEMPEL
100
AcDbCircle
 10
398.8969656503832
 20
539.0129608142817
 30
0.0
 40
1.5
100
AcDbArc
 50
0.0
 51
90.0
  0
LINE
  5
294A
330
1E
100
AcDbEntity
  8
STEMPEL
100
AcDbLine
 10
400.3969656503832
 20
539.0129608142817
 30
0.0
 11
400.3969656503832
 21
537.5129608142818
 31
0.0
  0
LINE
  5
294B
330
1E
100
AcDbEntity
  8
STEMPEL
100
AcDbLine
 10
400.3969656503832
 20
537.5129608142818
 30
0.0
 11
410.3969656503831
 21
537.5129608142818
 31
0.0
  0
LINE
  5
294C
330
1E
100
AcDbEntity
  8
STEMPEL
100
AcDbLine
 10
410.3969656503831
 20
537.5129608142818
 30
0.0
 11
410.3969656503831
 21
539.0129608142817
 31
0.0
  0
ARC
  5
294D
330
1E
100
AcDbEntity
  8
STEMPEL
100
AcDbCircle
 10
411.8969656503832
 20
539.0129608142817
 30
0.0
 40
1.5
100
AcDbArc
 50
90.0
 51
180.0
  0
LINE
  5
294E
330
1E
100
AcDbEntity
  8
STEMPEL
100
AcDbLine
 10
411.0549656503833
 20
543.5129608142817
 30
0.0
 11
411.0549656503833
 21
540.5129608142817
 31
0.0
  0
LINE
  5
294F
330
1E
100
AcDbEntity
  8
STEMPEL
100
AcDbLine
 10
78.41396565038326
 20
539.0129608142817
 30
0.0
 11
78.41396565038326
 21
537.5129608142818
 31
0.0
  0
LINE
  5
2950
330
1E
100
AcDbEntity
  8
STEMPEL
100
AcDbLine
 10
88.41396565038326
 20
537.5129608142818
 30
0.0
 11
88.41396565038326
 21
539.0129608142817
 31
0.0
  0
LINE
  5
2951
330
1E
100
AcDbEntity
  8
STEMPEL
100
AcDbLine
 10
78.41396565038326
 20
537.5129608142818
 30
0.0
 11
88.41396565038326
 21
537.5129608142818
 31
0.0
  0
ARC
  5
2952
330
1E
100
AcDbEntity
  8
STEMPEL
100
AcDbCircle
 10
76.91396565038326
 20
539.0129608142817
 30
0.0
 40
1.5
100
AcDbArc
 50
0.0
 51
90.0
  0
LINE
  5
2953
330
1E
100
AcDbEntity
  8
STEMPEL
100
AcDbLine
 10
77.75596565038324
 20
543.5129608142817
 30
0.0
 11
77.75596565038324
 21
540.5129608142817
 31
0.0
  0
ARC
  5
2954
330
1E
100
AcDbEntity
  8
STEMPEL
100
AcDbCircle
 10
89.91396565038327
 20
539.0129608142817
 30
0.0
 40
1.5
100
AcDbArc
 50
90.0
 51
180.0
  0
LINE
  5
2955
330
1E
100
AcDbEntity
  8
STEMPEL
100
AcDbLine
 10
416.3969656503832
 20
540.5129608142817
 30
0.0
 11
394.7189656503833
 21
540.5129608142817
 31
0.0
  0
LINE
  5
2956
330
1E
100
AcDbEntity
  8
STEMPEL
100
AcDbLine
 10
416.3969656503832
 20
543.5129608142817
 30
0.0
 11
416.3969656503832
 21
540.5129608142817
 31
0.0
  0
LINE
  5
2957
330
1E
100
AcDbEntity
  8
STEMPEL
100
AcDbLine
 10
394.7189656503833
 20
543.5129608142817
 30
0.0
 11
416.3969656503832
 21
543.5129608142817
 31
0.0
  0
ARC
  5
2958
330
1E
100
AcDbEntity
  8
STEMPEL
100
AcDbCircle
 10
94.09296565038323
 20
537.5129608142818
 30
0.0
 40
3.0
100
AcDbArc
 50
2.856454531999935
 51
90.0
  0
LINE
  5
2959
330
1E
100
AcDbEntity
  8
STEMPEL
100
AcDbLine
 10
72.41396565038326
 20
540.5129608142817
 30
0.0
 11
94.09296565038323
 21
540.5129608142817
 31
0.0
  0
LINE
  5
295A
330
1E
100
AcDbEntity
  8
STEMPEL
100
AcDbLine
 10
72.41396565038326
 20
543.5129608142817
 30
0.0
 11
72.41396565038326
 21
540.5129608142817
 31
0.0
  0
LINE
  5
295B
330
1E
100
AcDbEntity
  8
STEMPEL
100
AcDbLine
 10
94.09296565038323
 20
543.5129608142817
 30
0.0
 11
72.41396565038326
 21
543.5129608142817
 31
0.0
  0
ARC
  5
295C
330
1E
100
AcDbEntity
  8
STEMPEL
100
AcDbCircle
 10
94.09296565038323
 20
537.5129608142818
 30
0.0
 40
6.0
100
AcDbArc
 50
2.856454531999935
 51
90.0
  0
LINE
  5
295D
330
1E
100
AcDbEntity
  8
HILF
100
AcDbLine
 10
138.7189656503833
 20
450.3979608142817
 30
0.0
 11
143.2339656503833
 21
453.3799608142817
 31
0.0
  0
LINE
  5
295E
330
1E
100
AcDbEntity
  8
HILF
100
AcDbLine
 10
131.0299656503832
 20
446.3509608142817
 30
0.0
 11
138.7189656503833
 21
450.3979608142817
 31
0.0
  0
LINE
  5
295F
330
1E
100
AcDbEntity
  8
HILF
100
AcDbLine
 10
130.3649656503833
 20
445.2789608142817
 30
0.0
 11
131.0299656503832
 21
446.3509608142817
 31
0.0
  0
LINE
  5
2960
330
1E
100
AcDbEntity
  8
HILF
100
AcDbLine
 10
121.7539656503833
 20
456.9569608142817
 30
0.0
 11
121.4099656503832
 21
456.5579608142817
 31
0.0
  0
LINE
  5
2961
330
1E
100
AcDbEntity
  8
HILF
100
AcDbLine
 10
131.9549656503833
 20
459.4169608142816
 30
0.0
 11
121.7539656503833
 21
456.9569608142817
 31
0.0
  0
LINE
  5
2962
330
1E
100
AcDbEntity
  8
HILF
100
AcDbLine
 10
135.1199656503833
 20
463.2269608142816
 30
0.0
 11
131.9549656503833
 21
459.4169608142816
 31
0.0
  0
LINE
  5
2963
330
1E
100
AcDbEntity
  8
HILF
100
AcDbLine
 10
362.2219656503832
 20
636.6519608142816
 30
0.0
 11
364.8339656503833
 21
636.9339608142817
 31
0.0
  0
LINE
  5
2964
330
1E
100
AcDbEntity
  8
HILF
100
AcDbLine
 10
357.9619656503833
 20
630.5999608142817
 30
0.0
 11
362.2219656503832
 21
636.6519608142816
 31
0.0
  0
LINE
  5
2965
330
1E
100
AcDbEntity
  8
HILF
100
AcDbLine
 10
352.8789656503833
 20
627.8739608142816
 30
0.0
 11
357.9619656503833
 21
630.5999608142817
 31
0.0
  0
LINE
  5
2966
330
1E
100
AcDbEntity
  8
HILF
100
AcDbLine
 10
357.3809656503832
 20
643.5279608142816
 30
0.0
 11
359.0579656503833
 21
644.0439608142817
 31
0.0
  0
LINE
  5
2967
330
1E
100
AcDbEntity
  8
HILF
100
AcDbLine
 10
353.5079656503833
 20
641.7359608142817
 30
0.0
 11
357.3809656503832
 21
643.5279608142816
 31
0.0
  0
LINE
  5
2968
330
1E
100
AcDbEntity
  8
HILF
100
AcDbLine
 10
351.8639656503833
 20
637.8629608142817
 30
0.0
 11
353.5079656503833
 21
641.7359608142817
 31
0.0
  0
LINE
  5
2969
330
1E
100
AcDbEntity
  8
HILF
100
AcDbLine
 10
346.1079656503832
 20
636.0569608142816
 30
0.0
 11
351.8639656503833
 21
637.8629608142817
 31
0.0
  0
LINE
  5
296A
330
1E
100
AcDbEntity
  8
STEMPEL
100
AcDbLine
 10
108.0749656503833
 20
538.2109608142816
 30
0.0
 11
93.09396565038332
 21
537.4639608142817
 31
0.0
  0
LINE
  5
296B
330
1E
100
AcDbEntity
  8
STEMPEL
100
AcDbLine
 10
93.09396565038332
 20
552.5629608142817
 30
0.0
 11
108.0749656503833
 21
551.8159608142816
 31
0.0
  0
LINE
  5
296C
330
1E
100
AcDbEntity
  8
STEMPEL
100
AcDbLine
 10
380.7359656503832
 20
551.8159608142816
 30
0.0
 11
395.7179656503834
 21
552.5629608142817
 31
0.0
  0
LINE
  5
296D
330
1E
100
AcDbEntity
  8
STEMPEL
100
AcDbLine
 10
395.7179656503834
 20
537.4639608142817
 30
0.0
 11
380.7359656503832
 21
538.2109608142816
 31
0.0
  0
ARC
  5
296E
330
1E
100
AcDbEntity
  8
STEMPEL
100
AcDbCircle
 10
244.4059656503832
 20
545.0129608142817
 30
0.0
 40
151.5
100
AcDbArc
 50
221.1712484540011
 51
357.1435454680001
  0
ARC
  5
296F
330
1E
100
AcDbEntity
  8
STEMPEL
100
AcDbCircle
 10
244.4059656503832
 20
545.0129608142817
 30
0.0
 40
151.5
100
AcDbArc
 50
182.8564545319999
 51
215.7226721950009
  0
ARC
  5
2970
330
1E
100
AcDbEntity
  8
STEMPEL
100
AcDbCircle
 10
244.4059656503832
 20
545.0129608142817
 30
0.0
 40
151.5
100
AcDbArc
 50
2.856454531999935
 51
37.35373892300068
  0
ARC
  5
2971
330
1E
100
AcDbEntity
  8
STEMPEL
100
AcDbCircle
 10
244.4059656503832
 20
545.0129608142817
 30
0.0
 40
151.5
100
AcDbArc
 50
40.81886676199919
 51
177.143545468
  0
ARC
  5
2972
330
1E
100
AcDbEntity
  8
STEMPEL
100
AcDbCircle
 10
244.4059656503832
 20
545.0129608142817
 30
0.0
 40
136.5
100
AcDbArc
 50
182.8564545319999
 51
216.810173837
  0
ARC
  5
2973
330
1E
100
AcDbEntity
  8
STEMPEL
100
AcDbCircle
 10
244.4059656503832
 20
545.0129608142817
 30
0.0
 40
136.5
100
AcDbArc
 50
222.1677313199995
 51
357.1435454680001
  0
ARC
  5
2974
330
1E
100
AcDbEntity
  8
STEMPEL
100
AcDbCircle
 10
244.4059656503832
 20
545.0129608142817
 30
0.0
 40
136.5
100
AcDbArc
 50
41.8350323059994
 51
177.143545468
  0
ARC
  5
2975
330
1E
100
AcDbEntity
  8
STEMPEL
100
AcDbCircle
 10
244.4059656503832
 20
545.0129608142817
 30
0.0
 40
136.5
100
AcDbArc
 50
2.856454531999935
 51
37.37568357099945
  0
LINE
  5
2977
330
1E
100
AcDbEntity
  8
MITTEL
100
AcDbLine
 10
244.4059656503832
 20
376.2399608142817
 30
0.0
 11
244.4059656503832
 21
701.5129608142817
 31
0.0
  0
LINE
  5
2978
330
1E
100
AcDbEntity
  8
STEMPEL
100
AcDbLine
 10
77.75596565038324
 20
546.5129608142818
 30
0.0
 11
77.75596565038324
 21
549.5129608142817
 31
0.0
  0
LINE
  5
2979
330
1E
100
AcDbEntity
  8
STEMPEL
100
AcDbLine
 10
411.0549656503833
 20
546.5129608142818
 30
0.0
 11
411.0549656503833
 21
549.5129608142817
 31
0.0
  0
LINE
  5
297A
330
1E
100
AcDbEntity
  8
MITTEL
100
AcDbLine
 10
67.41396565038326
 20
545.0129608142817
 30
0.0
 11
421.3969656503832
 21
545.0129608142817
 31
0.0
  0
ARC
  5
297B
330
1E
100
AcDbEntity
  8
STEMPEL
100
AcDbCircle
 10
394.7189656503833
 20
537.5129608142818
 30
0.0
 40
3.0
100
AcDbArc
 50
90.0
 51
177.143545468
  0
ARC
  5
297C
330
1E
100
AcDbEntity
  8
STEMPEL
100
AcDbCircle
 10
244.4059656503832
 20
545.0129608142817
 30
0.0
 40
147.5
100
AcDbArc
 50
216.2276099460005
 51
221.2868850119993
  0
ARC
  5
297D
330
1E
100
AcDbEntity
  8
STEMPEL
100
AcDbCircle
 10
244.4059656503832
 20
545.0129608142817
 30
0.0
 40
144.5
100
AcDbArc
 50
216.7254057739998
 51
221.5731984970001
  0
ARC
  5
297E
330
1E
100
AcDbEntity
  8
STEMPEL
100
AcDbCircle
 10
394.7189656503833
 20
537.5129608142818
 30
0.0
 40
6.0
100
AcDbArc
 50
90.0
 51
177.143545468
  0
ARC
  5
297F
330
1E
100
AcDbEntity
  8
STEMPEL
100
AcDbCircle
 10
94.09296565038323
 20
552.5129608142817
 30
0.0
 40
3.0
100
AcDbArc
 50
270.0
 51
357.1435454680001
  0
LINE
  5
2980
330
1E
100
AcDbEntity
  8
STEMPEL
100
AcDbLine
 10
72.41396565038326
 20
549.5129608142817
 30
0.0
 11
94.09296565038323
 21
549.5129608142817
 31
0.0
  0
LINE
  5
2981
330
1E
100
AcDbEntity
  8
STEMPEL
100
AcDbLine
 10
72.41396565038326
 20
546.5129608142818
 30
0.0
 11
72.41396565038326
 21
549.5129608142817
 31
0.0
  0
LINE
  5
2982
330
1E
100
AcDbEntity
  8
STEMPEL
100
AcDbLine
 10
94.09296565038323
 20
546.5129608142818
 30
0.0
 11
72.41396565038326
 21
546.5129608142818
 31
0.0
  0
ARC
  5
2983
330
1E
100
AcDbEntity
  8
STEMPEL
100
AcDbCircle
 10
94.09296565038323
 20
552.5129608142817
 30
0.0
 40
6.0
100
AcDbArc
 50
270.0
 51
357.1435454680001
  0
ARC
  5
2984
330
1E
100
AcDbEntity
  8
STEMPEL
100
AcDbCircle
 10
244.4059656503832
 20
545.0129608142817
 30
0.0
 40
144.5
100
AcDbArc
 50
37.29899410200071
 51
41.3119732699988
  0
ARC
  5
2985
330
1E
100
AcDbEntity
  8
STEMPEL
100
AcDbCircle
 10
394.7189656503833
 20
552.5129608142817
 30
0.0
 40
6.0
100
AcDbArc
 50
182.8564545319999
 51
270.0
  0
LINE
  5
2986
330
1E
100
AcDbEntity
  8
STEMPEL
100
AcDbLine
 10
416.3969656503832
 20
546.5129608142818
 30
0.0
 11
394.7189656503833
 21
546.5129608142818
 31
0.0
  0
LINE
  5
2987
330
1E
100
AcDbEntity
  8
STEMPEL
100
AcDbLine
 10
416.3969656503832
 20
549.5129608142817
 30
0.0
 11
416.3969656503832
 21
546.5129608142818
 31
0.0
  0
LINE
  5
2988
330
1E
100
AcDbEntity
  8
STEMPEL
100
AcDbLine
 10
394.7189656503833
 20
549.5129608142817
 30
0.0
 11
416.3969656503832
 21
549.5129608142817
 31
0.0
  0
ARC
  5
2989
330
1E
100
AcDbEntity
  8
STEMPEL
100
AcDbCircle
 10
394.7189656503833
 20
552.5129608142817
 30
0.0
 40
3.0
100
AcDbArc
 50
182.8564545319999
 51
270.0
  0
ARC
  5
298A
330
1E
100
AcDbEntity
  8
STEMPEL
100
AcDbCircle
 10
244.4059656503832
 20
545.0129608142817
 30
0.0
 40
147.5
100
AcDbArc
 50
37.66736967299936
 51
41.36003984999908
  0
LINE
  5
298B
330
1E
100
AcDbEntity
  8
MITTEL
100
AcDbLine
 10
83.41396565038337
 20
514.5129608142817
 30
0.0
 11
83.41396565038337
 21
559.8129608142817
 31
0.0
  0
LINE
  5
298C
330
1E
100
AcDbEntity
  8
MITTEL
100
AcDbLine
 10
405.3969656503832
 20
514.5129608142817
 30
0.0
 11
405.3969656503832
 21
559.8129608142817
 31
0.0
  0
DIMENSION
  5
29A4
330
1E
100
AcDbEntity
  8
BEM
100
AcDbDimension
  2
*D1
 10
405.8919656503834
 20
203.6329008925054
 30
0.0
 11
244.3919656503834
 21
210.1329008925054
 31
0.0
 70
    32
 71
     5
 42
323.0000000000001
  3
Standard
100
AcDbAlignedDimension
 13
82.89196565038333
 23
237.1450196221726
 33
0.0
 14
405.8919656503834
 24
237.1450196221726
 34
0.0
100
AcDbRotatedDimension
1001
ACAD
1000
DSTYLE
1002
{
1070
    40
1040
2.0
1070
    41
1040
3.5
1070
    42
1040
1.0
1070
    43
1040
7.0
1070
    44
1040
1.0
1070
    73
1070
     0
1070
    74
1070
     0
1070
    77
1070
     1
1070
    78
1070
     8
1070
    79
1070
     2
1070
   140
1040
3.5
1070
   141
1040
1.5
1070
   146
1040
0.5142857142857144
1070
   147
1040
1.5
1070
   172
1070
     1
1070
   178
1070
     1
1070
   179
1070
     2
1070
   271
1070
     2
1070
   272
1070
     2
1070
   284
1070
     8
1070
   285
1070
     8
1070
   286
1070
     8
1002
}
  0
DIMENSION
  5
29B1
330
1E
100
AcDbEntity
  8
BEM
100
AcDbDimension
  2
*D2
 10
416.8919656503833
 20
188.3948208696958
 30
0.0
 11
244.3919656503833
 21
194.8948208696958
 31
0.0
 70
    32
 71
     5
 42
345.0
  3
Standard
100
AcDbAlignedDimension
 13
71.89196565038333
 23
248.6450196221726
 33
0.0
 14
416.8919656503833
 24
248.6450196221727
 34
0.0
100
AcDbRotatedDimension
1001
ACAD
1000
DSTYLE
1002
{
1070
    40
1040
2.0
1070
    41
1040
3.5
1070
    42
1040
1.0
1070
    43
1040
7.0
1070
    44
1040
1.0
1070
    73
1070
     0
1070
    74
1070
     0
1070
    77
1070
     1
1070
    78
1070
     8
1070
    79
1070
     2
1070
   140
1040
3.5
1070
   141
1040
1.5
1070
   146
1040
0.5142857142857144
1070
   147
1040
1.5
1070
   172
1070
     1
1070
   178
1070
     1
1070
   179
1070
     2
1070
   271
1070
     2
1070
   272
1070
     2
1070
   284
1070
     8
1070
   285
1070
     8
1070
   286
1070
     8
1002
}
  0
DIMENSION
  5
29DB
330
1E
100
AcDbEntity
  8
BEM
100
AcDbDimension
  2
*D3
 10
65.73310340351986
 20
696.5129608142818
 30
0.0
 11
59.23310340351974
 21
538.5129608142817
 31
0.0
 70
    32
 71
     5
 42
316.0
  3
Standard
100
AcDbAlignedDimension
 13
236.1789656503832
 23
380.5129608142817
 33
0.0
 14
244.4059656503832
 24
696.5129608142818
 34
0.0
 50
90.0
100
AcDbRotatedDimension
1001
ACAD
1000
DSTYLE
1002
{
1070
    40
1040
2.0
1070
    41
1040
3.5
1070
    42
1040
1.0
1070
    43
1040
7.0
1070
    44
1040
1.0
1070
    73
1070
     0
1070
    74
1070
     0
1070
    77
1070
     1
1070
    78
1070
     8
1070
    79
1070
     2
1070
   140
1040
3.5
1070
   141
1040
1.5
1070
   146
1040
0.5142857142857144
1070
   147
1040
1.5
1070
   172
1070
     1
1070
   178
1070
     1
1070
   179
1070
     2
1070
   271
1070
     2
1070
   272
1070
     2
1070
   284
1070
     8
1070
   285
1070
     8
1070
   286
1070
     8
1002
}
  0
DIMENSION
  5
2A18
330
1E
100
AcDbEntity
  8
BEM
100
AcDbDimension
  2
*D4
 10
125.0997442593093
 20
546.5129608142818
 30
0.0
 11
118.5997442593092
 21
565.3796274809484
 31
0.0
 70
    32
 71
     5
 42
3.0
  3
Standard
100
AcDbAlignedDimension
 13
94.09296565038323
 23
543.5129608142817
 33
0.0
 14
94.09296565038323
 24
546.5129608142818
 34
0.0
 50
90.0
100
AcDbRotatedDimension
1001
ACAD
1000
DSTYLE
1002
{
1070
    40
1040
2.0
1070
    41
1040
3.5
1070
    42
1040
1.0
1070
    43
1040
7.0
1070
    44
1040
1.0
1070
    73
1070
     0
1070
    74
1070
     0
1070
    77
1070
     1
1070
    78
1070
     8
1070
    79
1070
     2
1070
   140
1040
3.5
1070
   141
1040
1.5
1070
   146
1040
0.5142857142857144
1070
   147
1040
1.5
1070
   172
1070
     1
1070
   178
1070
     1
1070
   179
1070
     2
1070
   271
1070
     2
1070
   272
1070
     2
1070
   284
1070
     8
1070
   285
1070
     8
1070
   286
1070
     8
1002
}
  0
LINE
  5
2B11
330
1E
100
AcDbEntity
  8
HILF
100
AcDbLine
 10
594.0
 20
-0.0000000000000568
 30
0.0
 11
594.0
 21
840.0
 31
0.0
  0
LINE
  5
2B12
330
1E
100
AcDbEntity
  8
HILF
100
AcDbLine
 10
594.0
 20
840.0
 30
0.0
 11
0.0
 21
840.0
 31
0.0
  0
LINE
  5
2B13
330
1E
100
AcDbEntity
  8
HILF
100
AcDbLine
 10
0.0
 20
840.0
 30
0.0
 11
0.0
 21
0.0
 31
0.0
  0
LINE
  5
2B14
330
1E
100
AcDbEntity
  8
STEMPEL
100
AcDbLine
 10
10.0
 20
830.0
 30
0.0
 11
10.0
 21
39.99999999999995
 31
0.0
  0
LINE
  5
2B15
330
1E
100
AcDbEntity
  8
STEMPEL
100
AcDbLine
 10
584.0
 20
39.99999999999995
 30
0.0
 11
584.0
 21
830.0
 31
0.0
  0
LINE
  5
2B16
330
1E
100
AcDbEntity
  8
STEMPEL
100
AcDbLine
 10
584.0
 20
830.0
 30
0.0
 11
10.0
 21
830.0
 31
0.0
  0
LINE
  5
2B23
330
1E
100
AcDbEntity
  8
BEM
100
AcDbLine
 10
594.0
 20
455.9999999999999
 30
0.0
 11
584.0
 21
455.9999999999999
 31
0.0
  0
LINE
  5
2B24
330
1E
100
AcDbEntity
  8
HILF
100
AcDbLine
 10
594.0
 20
-0.0000000000000568
 30
0.0
 11
0.0
 21
0.0
 31
0.0
  0
LINE
  5
2B25
330
1E
100
AcDbEntity
  8
STEMPEL
100
AcDbLine
 10
584.0
 20
39.99999999999995
 30
0.0
 11
10.0
 21
39.99999999999995
 31
0.0
  0
LINE
  5
2B26
330
1E
100
AcDbEntity
  8
HILF
100
AcDbLine
 10
297.0
 20
-0.0000000000000568
 30
0.0
 11
297.0
 21
39.99999999999995
 31
0.0
  0
TEXT
  5
2B27
330
1E
100
AcDbEntity
  8
BEM
100
AcDbText
 10
583.8320989200114
 20
837.3022923857165
 30
0.0
 40
4.0
  1
Diese Zeichnung ist urheberrechtlich geschützt und bleibt unser Eigentum. Sie darf weder ganz noch teilweise verfielfältigt und nicht an Dritte weitergegeben werden.
 50
180.0
 41
0.8
  7
GREEKS
100
AcDbText
  0
LINE
  5
2B28
330
1E
100
AcDbEntity
  8
STEMPEL
100
AcDbLine
 10
484.0
 20
460.0
 30
0.0
 11
584.0
 21
460.0
 31
0.0
  0
DIMENSION
  5
2B9E
330
1E
100
AcDbEntity
  8
BEM
100
AcDbDimension
  2
*D5
 10
356.7035570809154
 20
635.9497573209836
 30
0.0
 11
270.8680361978988
 21
566.4415230289399
 31
0.0
 70
   160
  1
%%c<>
 71
     5
 42
289.0
  3
Standard
100
AcDbAlignedDimension
 13
132.1083742198509
 23
454.0761643075803
 33
0.0
 14
356.7035570809155
 24
635.9497573209834
 34
0.0
 50
39.00000000000009
100
AcDbRotatedDimension
1001
ACAD
1000
DSTYLE
1002
{
1070
    40
1040
2.0
1070
    41
1040
3.5
1070
    42
1040
1.0
1070
    43
1040
7.0
1070
    44
1040
1.0
1070
    73
1070
     0
1070
    74
1070
     0
1070
    77
1070
     1
1070
    78
1070
     8
1070
    79
1070
     2
1070
   140
1040
3.5
1070
   141
1040
1.5
1070
   146
1040
0.5142857142857144
1070
   147
1040
1.5
1070
   172
1070
     1
1070
   178
1070
     1
1070
   179
1070
     2
1070
   271
1070
     2
1070
   272
1070
     2
1070
   284
1070
     8
1070
   285
1070
     8
1070
   286
1070
     8
1002
}
  0
TEXT
  5
2BE9
330
1E
100
AcDbEntity
  8
TEXT
 62
     1
100
AcDbText
 10
478.35942916834
 20
647.8365522679117
 30
0.0
 40
7.0
  1
Werkstoff: St37 Dickschichtpassiviert
 50
90.0
 41
0.8
  7
GREEKS
100
AcDbText
  0
DIMENSION
  5
2C20
330
1E
100
AcDbEntity
  8
BEM
100
AcDbDimension
  2
*D6
 10
57.37943678203328
 20
228.6450196221724
 30
0.0
 11
50.87943678203324
 21
248.6450196221725
 31
0.0
 70
    32
 71
     5
 42
40.00000000000028
  3
Standard
100
AcDbAlignedDimension
 13
77.25096565038325
 23
268.6450196221727
 33
0.0
 14
77.25094949900597
 24
228.6450196221723
 34
0.0
 50
90.0
100
AcDbRotatedDimension
1001
ACAD
1000
DSTYLE
1002
{
1070
    40
1040
2.0
1070
    41
1040
3.5
1070
    42
1040
1.0
1070
    43
1040
7.0
1070
    44
1040
1.0
1070
    73
1070
     0
1070
    74
1070
     0
1070
    77
1070
     1
1070
    78
1070
     8
1070
    79
1070
     2
1070
   140
1040
3.5
1070
   141
1040
1.5
1070
   146
1040
0.5142857142857144
1070
   147
1040
1.5
1070
   172
1070
     1
1070
   178
1070
     1
1070
   179
1070
     2
1070
   271
1070
     2
1070
   272
1070
     2
1070
   284
1070
     8
1070
   285
1070
     8
1070
   286
1070
     8
1002
}
  0
ENDSEC
  0
SECTION
  2
OBJECTS
  0
DICTIONARY
  5
C
330
0
100
AcDbDictionary
281
     1
  3
ACAD_COLOR
350
DF
  3
ACAD_GROUP
350
D
  3
ACAD_LAYOUT
350
19
  3
ACAD_MATERIAL
350
DE
  3
ACAD_MLINESTYLE
350
16
  3
ACAD_PLOTSETTINGS
350
18
  3
ACAD_PLOTSTYLENAME
350
E
  3
AcDbVariableDictionary
350
EA
  0
DICTIONARY
  5
A0
330
1E
100
AcDbDictionary
280
     1
281
     1
  3
ACAD_LAYOUTSELFREF
360
D4
  0
DICTIONARY
  5
A2
330
1A
100
AcDbDictionary
280
     1
281
     1
  3
ACAD_LAYOUTSELFREF
360
D3
  0
DICTIONARY
  5
DF
102
{ACAD_REACTORS
330
C
102
}
330
C
100
AcDbDictionary
281
     1
  0
DICTIONARY
  5
D
102
{ACAD_REACTORS
330
C
102
}
330
C
100
AcDbDictionary
281
     1
  0
DICTIONARY
  5
19
102
{ACAD_REACTORS
330
C
102
}
330
C
100
AcDbDictionary
281
     1
  3
Layout1
350
1D
  3
Model
350
21
  0
DICTIONARY
  5
DE
102
{ACAD_REACTORS
330
C
102
}
330
C
100
AcDbDictionary
281
     1
  0
DICTIONARY
  5
16
102
{ACAD_REACTORS
330
C
102
}
330
C
100
AcDbDictionary
281
     1
  3
Standard
350
17
  0
DICTIONARY
  5
18
102
{ACAD_REACTORS
330
C
102
}
330
C
100
AcDbDictionary
281
     1
  0
ACDBDICTIONARYWDFLT
  5
E
102
{ACAD_REACTORS
330
C
102
}
330
C
100
AcDbDictionary
281
     1
  3
Normal
350
F
100
AcDbDictionaryWithDefault
340
F
  0
DICTIONARY
  5
EA
102
{ACAD_REACTORS
330
C
102
}
330
C
100
AcDbDictionary
281
     1
  3
DIMASSOC
350
EB
  3
PROJECTNAME
350
EC
  0
XRECORD
  5
D4
102
{ACAD_REACTORS
330
A0
102
}
330
A0
100
AcDbXrecord
280
     1
340
1E
  0
XRECORD
  5
D3
102
{ACAD_REACTORS
330
A2
102
}
330
A2
100
AcDbXrecord
280
     1
340
1A
  0
LAYOUT
  5
1D
102
{ACAD_REACTORS
330
19
102
}
330
19
100
AcDbPlotSettings
  1

  2
\\NT_WORK01\HP LaserJet 5000 PCL 6
  4

  6

 40
0.0
 41
0.0
 42
0.0
 43
0.0
 44
0.0
 45
0.0
 46
0.0
 47
0.0
 48
0.0
 49
0.0
140
0.0
141
0.0
142
1.0
143
1.0
 70
   688
 72
     0
 73
     0
 74
     5
  7

 75
    16
147
1.0
 76
     0
 77
     2
 78
   300
148
0.0
149
0.0
100
AcDbLayout
  1
Layout1
 70
     0
 71
     1
 10
0.0
 20
0.0
 11
12.0
 21
9.0
 12
0.0
 22
0.0
 32
0.0
 14
1.000000000000000E+20
 24
1.000000000000000E+20
 34
1.000000000000000E+20
 15
-1.000000000000000E+20
 25
-1.000000000000000E+20
 35
-1.000000000000000E+20
146
0.0
 13
0.0
 23
0.0
 33
0.0
 16
1.0
 26
0.0
 36
0.0
 17
0.0
 27
1.0
 37
0.0
 76
     0
330
1A
  0
LAYOUT
  5
21
102
{ACAD_REACTORS
330
19
102
}
330
19
100
AcDbPlotSettings
  1

  2
none_device
  4
Letter_(8.50_x_11.00_Inches)
  6

 40
6.349999904632568
 41
6.349999904632568
 42
6.350006103515625
 43
6.350006103515625
 44
215.8999938964844
 45
279.3999938964844
 46
0.0
 47
0.0
 48
0.0
 49
0.0
140
0.0
141
0.0
142
1.0
143
1.0
 70
 11952
 72
     0
 73
     1
 74
     0
  7

 75
     0
147
1.0
 76
     0
 77
     2
 78
   300
148
-230.4417396561563
149
47.00486644638983
100
AcDbLayout
  1
Model
 70
     1
 71
     0
 10
0.0
 20
0.0
 11
12.0
 21
9.0
 12
0.0
 22
0.0
 32
0.0
 14
0.0
 24
0.0
 34
0.0
 15
0.0
 25
0.0
 35
0.0
146
0.0
 13
0.0
 23
0.0
 33
0.0
 16
1.0
 26
0.0
 36
0.0
 17
0.0
 27
1.0
 37
0.0
 76
     0
330
1E
  0
MLINESTYLE
  5
17
102
{ACAD_REACTORS
330
16
102
}
330
16
100
AcDbMlineStyle
  2
STANDARD
 70
     0
  3

 62
   256
 51
90.0
 52
90.0
 71
     2
 49
0.5
 62
   256
  6
BYLAYER
 49
-0.5
 62
   256
  6
BYLAYER
  0
ACDBPLACEHOLDER
  5
F
102
{ACAD_REACTORS
330
E
102
}
330
E
  0
DICTIONARYVAR
  5
EB
102
{ACAD_REACTORS
330
EA
102
}
330
EA
100
DictionaryVariables
280
     0
  1
1
  0
DICTIONARYVAR
  5
EC
102
{ACAD_REACTORS
330
EA
102
}
330
EA
100
DictionaryVariables
280
     0
  1

  0
ENDSEC
  0
EOF
