  0
SECTION
  2
HEADER
  9
$ACADVER
  1
AC1018
  9
$ACADMAINTVER
 70
     2
  9
$DWGCODEPAGE
  3
ANSI_1252
  9
$INSBASE
 10
0.0
 20
0.0
 30
0.0
  9
$EXTMIN
 10
-0.0320386649178772
 20
-0.0453118260982137
 30
-0.0000000000000053
  9
$EXTMAX
 10
420.0256388239485
 20
594.0362606224423
 30
0.0000000000000099
  9
$LIMMIN
 10
0.0
 20
0.0
  9
$LIMMAX
 10
419.9999999999999
 20
594.0
  9
$ORTHOMODE
 70
     1
  9
$REGENMODE
 70
     1
  9
$FILLMODE
 70
     1
  9
$QTEXTMODE
 70
     0
  9
$MIRRTEXT
 70
     1
  9
$LTSCALE
 40
20.0
  9
$ATTMODE
 70
     1
  9
$TEXTSIZE
 40
2.5
  9
$TRACEWID
 40
0.5
  9
$TEXTSTYLE
  7
GREEKS
  9
$CLAYER
  8
BEM
  9
$CELTYPE
  6
ByLayer
  9
$CECOLOR
 62
   256
  9
$CELTSCALE
 40
1.0
  9
$DISPSILH
 70
     0
  9
$DIMSCALE
 40
2.0
  9
$DIMASZ
 40
3.5
  9
$DIMEXO
 40
1.0
  9
$DIMDLI
 40
7.0
  9
$DIMRND
 40
0.0
  9
$DIMDLE
 40
0.0
  9
$DIMEXE
 40
1.0
  9
$DIMTP
 40
0.0
  9
$DIMTM
 40
0.0
  9
$DIMTXT
 40
3.5
  9
$DIMCEN
 40
1.5
  9
$DIMTSZ
 40
0.0
  9
$DIMTOL
 70
     0
  9
$DIMLIM
 70
     0
  9
$DIMTIH
 70
     0
  9
$DIMTOH
 70
     0
  9
$DIMSE1
 70
     0
  9
$DIMSE2
 70
     0
  9
$DIMTAD
 70
     1
  9
$DIMZIN
 70
     8
  9
$DIMBLK
  1

  9
$DIMASO
 70
     1
  9
$DIMSHO
 70
     0
  9
$DIMPOST
  1

  9
$DIMAPOST
  1

  9
$DIMALT
 70
     0
  9
$DIMALTD
 70
     2
  9
$DIMALTF
 40
25.4
  9
$DIMLFAC
 40
1.0
  9
$DIMTOFL
 70
     1
  9
$DIMTVP
 40
0.0
  9
$DIMTIX
 70
     0
  9
$DIMSOXD
 70
     0
  9
$DIMSAH
 70
     0
  9
$DIMBLK1
  1

  9
$DIMBLK2
  1

  9
$DIMSTYLE
  2
Standard
  9
$DIMCLRD
 70
     0
  9
$DIMCLRE
 70
     0
  9
$DIMCLRT
 70
     1
  9
$DIMTFAC
 40
0.5142857142857144
  9
$DIMGAP
 40
1.5
  9
$DIMJUST
 70
     0
  9
$DIMSD1
 70
     0
  9
$DIMSD2
 70
     0
  9
$DIMTOLJ
 70
     1
  9
$DIMTZIN
 70
     8
  9
$DIMALTZ
 70
     8
  9
$DIMALTTZ
 70
     8
  9
$DIMUPT
 70
     0
  9
$DIMDEC
 70
     2
  9
$DIMTDEC
 70
     2
  9
$DIMALTU
 70
     2
  9
$DIMALTTD
 70
     2
  9
$DIMTXSTY
  7
STANDARD
  9
$DIMAUNIT
 70
     0
  9
$DIMADEC
 70
     2
  9
$DIMALTRND
 40
0.0
  9
$DIMAZIN
 70
     2
  9
$DIMDSEP
 70
    46
  9
$DIMATFIT
 70
     3
  9
$DIMFRAC
 70
     0
  9
$DIMLDRBLK
  1

  9
$DIMLUNIT
 70
     2
  9
$DIMLWD
 70
    -2
  9
$DIMLWE
 70
    -2
  9
$DIMTMOVE
 70
     0
  9
$LUNITS
 70
     2
  9
$LUPREC
 70
     2
  9
$SKETCHINC
 40
1.0
  9
$FILLETRAD
 40
0.0
  9
$AUNITS
 70
     0
  9
$AUPREC
 70
     0
  9
$MENU
  1
ACAD
  9
$ELEVATION
 40
0.0
  9
$PELEVATION
 40
0.0
  9
$THICKNESS
 40
0.0
  9
$LIMCHECK
 70
     0
  9
$CHAMFERA
 40
0.0
  9
$CHAMFERB
 40
0.0
  9
$CHAMFERC
 40
0.0
  9
$CHAMFERD
 40
0.0
  9
$SKPOLY
 70
     0
  9
$TDCREATE
 40
2455397.823042361
  9
$TDUCREATE
 40
2455397.781375695
  9
$TDUPDATE
 40
2456230.314401886
  9
$TDUUPDATE
 40
2456230.272735220
  9
$TDINDWG
 40
0.3725120023
  9
$TDUSRTIMER
 40
0.3725120023
  9
$USRTIMER
 70
     1
  9
$ANGBASE
 50
0.0
  9
$ANGDIR
 70
     0
  9
$PDMODE
 70
     0
  9
$PDSIZE
 40
0.0
  9
$PLINEWID
 40
0.0
  9
$SPLFRAME
 70
     0
  9
$SPLINETYPE
 70
     6
  9
$SPLINESEGS
 70
     8
  9
$HANDSEED
  5
2759
  9
$SURFTAB1
 70
     6
  9
$SURFTAB2
 70
     6
  9
$SURFTYPE
 70
     6
  9
$SURFU
 70
     6
  9
$SURFV
 70
     6
  9
$UCSBASE
  2

  9
$UCSNAME
  2

  9
$UCSORG
 10
0.0
 20
0.0
 30
0.0
  9
$UCSXDIR
 10
1.0
 20
0.0
 30
0.0
  9
$UCSYDIR
 10
0.0
 20
1.0
 30
0.0
  9
$UCSORTHOREF
  2

  9
$UCSORTHOVIEW
 70
     0
  9
$UCSORGTOP
 10
0.0
 20
0.0
 30
0.0
  9
$UCSORGBOTTOM
 10
0.0
 20
0.0
 30
0.0
  9
$UCSORGLEFT
 10
0.0
 20
0.0
 30
0.0
  9
$UCSORGRIGHT
 10
0.0
 20
0.0
 30
0.0
  9
$UCSORGFRONT
 10
0.0
 20
0.0
 30
0.0
  9
$UCSORGBACK
 10
0.0
 20
0.0
 30
0.0
  9
$PUCSBASE
  2

  9
$PUCSNAME
  2

  9
$PUCSORG
 10
0.0
 20
0.0
 30
0.0
  9
$PUCSXDIR
 10
1.0
 20
0.0
 30
0.0
  9
$PUCSYDIR
 10
0.0
 20
1.0
 30
0.0
  9
$PUCSORTHOREF
  2

  9
$PUCSORTHOVIEW
 70
     0
  9
$PUCSORGTOP
 10
0.0
 20
0.0
 30
0.0
  9
$PUCSORGBOTTOM
 10
0.0
 20
0.0
 30
0.0
  9
$PUCSORGLEFT
 10
0.0
 20
0.0
 30
0.0
  9
$PUCSORGRIGHT
 10
0.0
 20
0.0
 30
0.0
  9
$PUCSORGFRONT
 10
0.0
 20
0.0
 30
0.0
  9
$PUCSORGBACK
 10
0.0
 20
0.0
 30
0.0
  9
$USERI1
 70
     0
  9
$USERI2
 70
     0
  9
$USERI3
 70
     0
  9
$USERI4
 70
     0
  9
$USERI5
 70
     0
  9
$USERR1
 40
0.0
  9
$USERR2
 40
0.0
  9
$USERR3
 40
0.0
  9
$USERR4
 40
0.0
  9
$USERR5
 40
0.0
  9
$WORLDVIEW
 70
     1
  9
$SHADEDGE
 70
     3
  9
$SHADEDIF
 70
    70
  9
$TILEMODE
 70
     1
  9
$MAXACTVP
 70
    16
  9
$PINSBASE
 10
0.0
 20
0.0
 30
0.0
  9
$PLIMCHECK
 70
     0
  9
$PEXTMIN
 10
1.000000000000000E+20
 20
1.000000000000000E+20
 30
1.000000000000000E+20
  9
$PEXTMAX
 10
-1.000000000000000E+20
 20
-1.000000000000000E+20
 30
-1.000000000000000E+20
  9
$PLIMMIN
 10
0.0
 20
0.0
  9
$PLIMMAX
 10
12.0
 20
9.0
  9
$UNITMODE
 70
     0
  9
$VISRETAIN
 70
     0
  9
$PLINEGEN
 70
     0
  9
$PSLTSCALE
 70
     0
  9
$TREEDEPTH
 70
  3020
  9
$CMLSTYLE
  2
Standard
  9
$CMLJUST
 70
     0
  9
$CMLSCALE
 40
1.0
  9
$PROXYGRAPHICS
 70
     1
  9
$MEASUREMENT
 70
     0
  9
$CELWEIGHT
370
    -1
  9
$ENDCAPS
280
     0
  9
$JOINSTYLE
280
     0
  9
$LWDISPLAY
290
     0
  9
$INSUNITS
 70
     0
  9
$HYPERLINKBASE
  1

  9
$STYLESHEET
  1
monochrome 1.ctb
  9
$XEDIT
290
     1
  9
$CEPSNTYPE
380
     0
  9
$PSTYLEMODE
290
     1
  9
$FINGERPRINTGUID
  2
{D68B0D02-A558-11D7-B632-000102183313}
  9
$VERSIONGUID
  2
{C4F7FD97-0CE6-46DB-A9F9-740FB193F28D}
  9
$EXTNAMES
290
     1
  9
$PSVPSCALE
 40
0.0
  9
$OLESTARTUP
290
     0
  9
$SORTENTS
280
   127
  9
$INDEXCTL
280
     0
  9
$HIDETEXT
280
     0
  9
$XCLIPFRAME
290
     0
  9
$HALOGAP
280
     0
  9
$OBSCOLOR
 70
   257
  9
$OBSLTYPE
280
     0
  9
$INTERSECTIONDISPLAY
280
     0
  9
$INTERSECTIONCOLOR
 70
   257
  9
$DIMASSOC
280
     1
  9
$PROJECTNAME
  1

  0
ENDSEC
  0
SECTION
  2
CLASSES
  0
CLASS
  1
ACDBDICTIONARYWDFLT
  2
AcDbDictionaryWithDefault
  3
ObjectDBX Classes
 90
        0
 91
        1
280
     0
281
     0
  0
CLASS
  1
DICTIONARYVAR
  2
AcDbDictionaryVar
  3
ObjectDBX Classes
 90
        0
 91
        2
280
     0
281
     0
  0
ENDSEC
  0
SECTION
  2
TABLES
  0
TABLE
  2
VPORT
  5
8
330
0
100
AcDbSymbolTable
 70
     3
  0
VPORT
  5
2758
330
8
100
AcDbSymbolTableRecord
100
AcDbViewportTableRecord
  2
*Active
 70
     0
 10
0.0
 20
0.0
 11
1.0
 21
1.0
 12
209.9999999999999
 22
297.0
 13
0.0
 23
0.0
 14
1.0
 24
1.0
 15
10.0
 25
10.0
 16
0.0
 26
0.0
 36
1.0
 17
0.0
 27
0.0
 37
0.0
 40
594.4213782126647
 41
1.404858299595141
 42
50.0
 43
0.0
 44
0.0
 50
0.0
 51
0.0
 71
     0
 72
  1500
 73
     1
 74
     0
 75
     0
 76
     0
 77
     0
 78
     0
281
     0
 65
     1
110
0.0
120
0.0
130
0.0
111
1.0
121
0.0
131
0.0
112
0.0
122
1.0
132
0.0
 79
     0
146
0.0
  0
ENDTAB
  0
TABLE
  2
LTYPE
  5
5
330
0
100
AcDbSymbolTable
 70
     2
  0
LTYPE
  5
13
330
5
100
AcDbSymbolTableRecord
100
AcDbLinetypeTableRecord
  2
ByBlock
 70
     0
  3

 72
    65
 73
     0
 40
0.0
  0
LTYPE
  5
14
330
5
100
AcDbSymbolTableRecord
100
AcDbLinetypeTableRecord
  2
ByLayer
 70
     0
  3

 72
    65
 73
     0
 40
0.0
  0
LTYPE
  5
15
330
5
100
AcDbSymbolTableRecord
100
AcDbLinetypeTableRecord
  2
Continuous
 70
     0
  3
Solid line
 72
    65
 73
     0
 40
0.0
  0
LTYPE
  5
25
330
5
100
AcDbSymbolTableRecord
100
AcDbLinetypeTableRecord
  2
STRICHPUNKT
 70
     0
  3
__ . __ . __ . __ . __ . __ . __ . __ . __ . __
 72
    65
 73
     4
 40
1.0
 49
0.5
 74
     0
 49
-0.25
 74
     0
 49
0.0
 74
     0
 49
-0.25
 74
     0
  0
ENDTAB
  0
TABLE
  2
LAYER
  5
2
330
0
100
AcDbSymbolTable
 70
     8
  0
LAYER
  5
10
330
2
100
AcDbSymbolTableRecord
100
AcDbLayerTableRecord
  2
0
 70
     0
 62
     7
  6
Continuous
370
    -3
390
F
  0
LAYER
  5
2A
330
2
100
AcDbSymbolTableRecord
100
AcDbLayerTableRecord
  2
VOLL
 70
     0
 62
     1
  6
Continuous
370
    -3
390
F
  0
LAYER
  5
2B
330
2
100
AcDbSymbolTableRecord
100
AcDbLayerTableRecord
  2
HILF
 70
     0
 62
     2
  6
Continuous
370
    -3
390
F
  0
LAYER
  5
2C
330
2
100
AcDbSymbolTableRecord
100
AcDbLayerTableRecord
  2
MITTEL
 70
     0
 62
     2
  6
STRICHPUNKT
370
    -3
390
F
  0
LAYER
  5
2F
330
2
100
AcDbSymbolTableRecord
100
AcDbLayerTableRecord
  2
BEM
 70
     0
 62
     7
  6
Continuous
370
    -3
390
F
  0
LAYER
  5
30
330
2
100
AcDbSymbolTableRecord
100
AcDbLayerTableRecord
  2
STEMPEL
 70
     0
 62
     3
  6
Continuous
370
    -3
390
F
  0
LAYER
  5
31
330
2
100
AcDbSymbolTableRecord
100
AcDbLayerTableRecord
  2
TEXT
 70
     0
 62
     7
  6
Continuous
370
    -3
390
F
  0
LAYER
  5
1A8
330
2
100
AcDbSymbolTableRecord
100
AcDbLayerTableRecord
  2
Defpoints
 70
     0
 62
     7
  6
Continuous
290
     0
370
    -3
390
F
  0
ENDTAB
  0
TABLE
  2
STYLE
  5
3
330
0
100
AcDbSymbolTable
 70
     2
  0
STYLE
  5
11
330
3
100
AcDbSymbolTableRecord
100
AcDbTextStyleTableRecord
  2
STANDARD
 70
     0
 40
0.0
 41
0.8
 50
0.0
 71
     0
 42
3.5
  3
simplex.shx
  4

  0
STYLE
  5
24
330
3
100
AcDbSymbolTableRecord
100
AcDbTextStyleTableRecord
  2
GREEKS
 70
     0
 40
0.0
 41
0.8
 50
0.0
 71
     0
 42
2.5
  3
SIMPLEX.shx
  4

  0
ENDTAB
  0
TABLE
  2
VIEW
  5
6
330
0
100
AcDbSymbolTable
 70
     0
  0
ENDTAB
  0
TABLE
  2
UCS
  5
7
330
0
100
AcDbSymbolTable
 70
     0
  0
ENDTAB
  0
TABLE
  2
APPID
  5
9
330
0
100
AcDbSymbolTable
 70
     1
  0
APPID
  5
12
330
9
100
AcDbSymbolTableRecord
100
AcDbRegAppTableRecord
  2
ACAD
 70
     0
  0
ENDTAB
  0
TABLE
  2
DIMSTYLE
  5
A
330
0
100
AcDbSymbolTable
 70
     1
100
AcDbDimStyleTable
 71
     1
340
9D
  0
DIMSTYLE
105
9D
102
{ACAD_REACTORS
330
2662
330
266F
330
2695
330
26A4
330
26D8
330
2746
102
}
330
A
100
AcDbSymbolTableRecord
100
AcDbDimStyleTableRecord
  2
Standard
 70
     0
340
11
  0
ENDTAB
  0
TABLE
  2
BLOCK_RECORD
  5
1
330
0
100
AcDbSymbolTable
 70
     7
  0
BLOCK_RECORD
  5
1E
102
{ACAD_XDICTIONARY
360
A0
102
}
330
1
100
AcDbSymbolTableRecord
100
AcDbBlockTableRecord
  2
*Model_Space
340
21
  0
BLOCK_RECORD
  5
1A
102
{ACAD_XDICTIONARY
360
A2
102
}
330
1
100
AcDbSymbolTableRecord
100
AcDbBlockTableRecord
  2
*Paper_Space
340
1D
  0
BLOCK_RECORD
  5
22
330
1
100
AcDbSymbolTableRecord
100
AcDbBlockTableRecord
  2
LOGO
340
0
102
{BLKREFS
331
9B
102
}
  0
BLOCK_RECORD
  5
2663
330
1
100
AcDbSymbolTableRecord
100
AcDbBlockTableRecord
  2
*D1
340
0
  0
BLOCK_RECORD
  5
2670
330
1
100
AcDbSymbolTableRecord
100
AcDbBlockTableRecord
  2
*D2
340
0
  0
BLOCK_RECORD
  5
2696
330
1
100
AcDbSymbolTableRecord
100
AcDbBlockTableRecord
  2
*D3
340
0
  0
BLOCK_RECORD
  5
26A5
330
1
100
AcDbSymbolTableRecord
100
AcDbBlockTableRecord
  2
*D4
340
0
  0
BLOCK_RECORD
  5
26D9
330
1
100
AcDbSymbolTableRecord
100
AcDbBlockTableRecord
  2
*D5
340
0
  0
BLOCK_RECORD
  5
2747
330
1
100
AcDbSymbolTableRecord
100
AcDbBlockTableRecord
  2
*D6
340
0
  0
ENDTAB
  0
ENDSEC
  0
SECTION
  2
BLOCKS
  0
BLOCK
  5
35
330
1E
100
AcDbEntity
  8
0
100
AcDbBlockBegin
  2
*Model_Space
 70
     0
 10
0.0
 20
0.0
 30
0.0
  3
*Model_Space
  1

  0
ENDBLK
  5
36
330
1E
100
AcDbEntity
  8
0
100
AcDbBlockEnd
  0
BLOCK
  5
33
330
1A
100
AcDbEntity
 67
     1
  8
0
100
AcDbBlockBegin
  2
*Paper_Space
 70
     0
 10
0.0
 20
0.0
 30
0.0
  3
*Paper_Space
  1

  0
ENDBLK
  5
34
330
1A
100
AcDbEntity
 67
     1
  8
0
100
AcDbBlockEnd
  0
BLOCK
  5
37
330
22
100
AcDbEntity
  8
0
100
AcDbBlockBegin
  2
LOGO
 70
     0
 10
0.0
 20
0.0
 30
0.0
  3
LOGO
  1

  0
ARC
  5
38
330
22
100
AcDbEntity
  8
0
100
AcDbCircle
 10
11.59973089678112
 20
-9.271599258481501
 30
0.0
 40
4.5
100
AcDbArc
 50
270.0
 51
231.0575587310159
  0
LINE
  5
39
330
22
100
AcDbEntity
  8
0
100
AcDbLine
 10
3.599730896781125
 20
-4.771599258481529
 30
0.0
 11
3.599730896781153
 21
-11.77159925848133
 31
0.0
  0
LINE
  5
3A
330
22
100
AcDbEntity
  8
0
100
AcDbLine
 10
2.599730896781125
 20
-4.771599258481529
 30
0.0
 11
2.599730896781153
 21
-11.77159925848133
 31
0.0
  0
CIRCLE
  5
3B
330
22
100
AcDbEntity
  8
0
100
AcDbCircle
 10
11.59973089678112
 20
-9.271599258481501
 30
0.0
 40
3.5
  0
ARC
  5
3C
330
22
100
AcDbEntity
  8
0
100
AcDbCircle
 10
31.59973089678115
 20
-9.271599258481472
 30
0.0
 40
4.5
100
AcDbArc
 50
270.0
 51
231.0575587310182
  0
LINE
  5
3D
330
22
100
AcDbEntity
  8
0
100
AcDbLine
 10
17.59973089678112
 20
-4.771599258481472
 30
0.0
 11
17.59973089678115
 21
-13.77159925848147
 31
0.0
  0
ARC
  5
3E
330
22
100
AcDbEntity
  8
0
100
AcDbCircle
 10
22.59973089678116
 20
-7.271599258481472
 30
0.0
 40
2.5
100
AcDbArc
 50
293.1161887722295
 51
90.0
  0
CIRCLE
  5
3F
330
22
100
AcDbEntity
  8
0
100
AcDbCircle
 10
31.59973089678115
 20
-9.271599258481472
 30
0.0
 40
3.5
  0
ARC
  5
40
330
22
100
AcDbEntity
  8
0
100
AcDbCircle
 10
4.599730896781153
 20
-11.77159925848133
 30
0.0
 40
1.0
100
AcDbArc
 50
180.0
 51
270.0
  0
ARC
  5
41
330
22
100
AcDbEntity
  8
0
100
AcDbCircle
 10
4.599730896781153
 20
-11.77159925848133
 30
0.0
 40
2.0
100
AcDbArc
 50
179.9999999999992
 51
270.0
  0
LINE
  5
42
330
22
100
AcDbEntity
  8
0
100
AcDbLine
 10
11.59973089678115
 20
-13.77159925848144
 30
0.0
 11
4.599730896781153
 21
-13.77159925848147
 31
0.0
  0
LINE
  5
43
330
22
100
AcDbEntity
  8
0
100
AcDbLine
 10
8.771303772034769
 20
-12.77159925848136
 30
0.0
 11
4.599730896781153
 21
-12.77159925848133
 31
0.0
  0
LINE
  5
44
330
22
100
AcDbEntity
  8
0
100
AcDbLine
 10
31.59973089678115
 20
-13.77159925848147
 30
0.0
 11
23.6715276665056
 21
-13.77159925848144
 31
0.0
  0
LINE
  5
45
330
22
100
AcDbEntity
  8
0
100
AcDbLine
 10
23.56565672307022
 20
-9.51278021337896
 30
0.0
 11
24.4388546544846
 21
-12.77159925848144
 31
0.0
  0
LINE
  5
46
330
22
100
AcDbEntity
  8
0
100
AcDbLine
 10
22.59973089678116
 20
-9.771599258481472
 30
0.0
 11
18.59973089678112
 21
-9.771599258481472
 31
0.0
  0
LINE
  5
47
330
22
100
AcDbEntity
  8
0
100
AcDbLine
 10
18.59973089678115
 20
-13.77159925848144
 30
0.0
 11
17.59973089678115
 21
-13.77159925848144
 31
0.0
  0
LINE
  5
48
330
22
100
AcDbEntity
  8
0
100
AcDbLine
 10
18.59973089678115
 20
-9.771599258481472
 30
0.0
 11
18.59973089678115
 21
-13.77159925848144
 31
0.0
  0
LINE
  5
49
330
22
100
AcDbEntity
  8
0
100
AcDbLine
 10
22.59973089678116
 20
-9.771599258481472
 30
0.0
 11
23.67152766650562
 21
-13.77159925848147
 31
0.0
  0
ARC
  5
4A
330
22
100
AcDbEntity
  8
0
100
AcDbCircle
 10
22.59973089678116
 20
-7.271599258481472
 30
0.0
 40
2.5
100
AcDbArc
 50
270.0
 51
270.0000000000007
  0
LINE
  5
4B
330
22
100
AcDbEntity
  8
0
100
AcDbLine
 10
28.77130377203494
 20
-12.77159925848147
 30
0.0
 11
24.43885465448463
 21
-12.77159925848144
 31
0.0
  0
LINE
  5
4C
330
22
100
AcDbEntity
  8
0
100
AcDbLine
 10
3.599730896781125
 20
-4.771599258481472
 30
0.0
 11
2.599730896781125
 21
-4.771599258481472
 31
0.0
  0
LINE
  5
4D
330
22
100
AcDbEntity
  8
0
100
AcDbLine
 10
22.59973089678116
 20
-8.771599258481472
 30
0.0
 11
18.59973089678115
 21
-8.771599258481472
 31
0.0
  0
LINE
  5
4E
330
22
100
AcDbEntity
  8
0
100
AcDbLine
 10
22.59973089678116
 20
-5.771599258481472
 30
0.0
 11
18.59973089678115
 21
-5.771599258481472
 31
0.0
  0
LINE
  5
4F
330
22
100
AcDbEntity
  8
0
100
AcDbLine
 10
22.59973089678116
 20
-4.771599258481472
 30
0.0
 11
17.59973089678115
 21
-4.771599258481472
 31
0.0
  0
LINE
  5
50
330
22
100
AcDbEntity
  8
0
100
AcDbLine
 10
18.59973089678115
 20
-5.771599258481472
 30
0.0
 11
18.59973089678115
 21
-8.771599258481472
 31
0.0
  0
ARC
  5
51
330
22
100
AcDbEntity
  8
0
100
AcDbCircle
 10
22.59973089678116
 20
-7.271599258481472
 30
0.0
 40
1.5
100
AcDbArc
 50
270.0
 51
90.0
  0
ENDBLK
  5
52
330
22
100
AcDbEntity
  8
0
100
AcDbBlockEnd
  0
BLOCK
  5
266D
330
2663
100
AcDbEntity
  8
0
100
AcDbBlockBegin
  2
*D1
 70
     1
 10
0.0
 20
0.0
 30
0.0
  3
*D1
  1

  0
LINE
  5
26CE
330
2663
100
AcDbEntity
  8
BEM
 62
     0
370
    -2
100
AcDbLine
 10
98.0822409069794
 20
212.9611375402251
 30
0.0
 11
98.0822409069794
 21
177.3759922752456
 31
0.0
  0
LINE
  5
26CF
330
2663
100
AcDbEntity
  8
BEM
 62
     0
370
    -2
100
AcDbLine
 10
359.0822409069795
 20
212.9611375402251
 30
0.0
 11
359.0822409069795
 21
177.3759922752456
 31
0.0
  0
LINE
  5
26D0
330
2663
100
AcDbEntity
  8
BEM
 62
     0
370
    -2
100
AcDbLine
 10
105.0822409069794
 20
179.3759922752456
 30
0.0
 11
352.0822409069794
 21
179.3759922752456
 31
0.0
  0
SOLID
  5
26D1
330
2663
100
AcDbEntity
  8
BEM
 62
     0
100
AcDbTrace
 10
105.0822409069794
 20
180.5426589419122
 30
0.0
 11
105.0822409069794
 21
178.2093256085789
 31
0.0
 12
98.0822409069794
 22
179.3759922752456
 32
0.0
 13
98.0822409069794
 23
179.3759922752456
 33
0.0
  0
SOLID
  5
26D2
330
2663
100
AcDbEntity
  8
BEM
 62
     0
100
AcDbTrace
 10
352.0822409069794
 20
180.5426589419122
 30
0.0
 11
352.0822409069794
 21
178.2093256085789
 31
0.0
 12
359.0822409069795
 22
179.3759922752456
 32
0.0
 13
359.0822409069795
 23
179.3759922752456
 33
0.0
  0
MTEXT
  5
26D3
330
2663
100
AcDbEntity
  8
BEM
 62
     1
100
AcDbMText
 10
228.5822409069794
 20
185.8759922752456
 30
0.0
 40
7.0
 41
0.0
 71
     5
 72
     1
  1
\A1;261
 73
     1
 44
1.0
  0
POINT
  5
26D4
330
2663
100
AcDbEntity
  8
Defpoints
 62
     0
100
AcDbPoint
 10
98.0822409069794
 20
214.9611375402251
 30
0.0
  0
POINT
  5
26D5
330
2663
100
AcDbEntity
  8
Defpoints
 62
     0
100
AcDbPoint
 10
359.0822409069795
 20
214.9611375402251
 30
0.0
  0
POINT
  5
26D6
330
2663
100
AcDbEntity
  8
Defpoints
 62
     0
100
AcDbPoint
 10
359.0822409069795
 20
179.3759922752456
 30
0.0
  0
ENDBLK
  5
266E
330
2663
100
AcDbEntity
  8
0
100
AcDbBlockEnd
  0
BLOCK
  5
267A
330
2670
100
AcDbEntity
  8
0
100
AcDbBlockBegin
  2
*D2
 70
     1
 10
0.0
 20
0.0
 30
0.0
  3
*D2
  1

  0
LINE
  5
26C5
330
2670
100
AcDbEntity
  8
BEM
 62
     0
370
    -2
100
AcDbLine
 10
87.08224090697934
 20
224.4611375402251
 30
0.0
 11
87.08224090697934
 21
162.7134411912
 31
0.0
  0
LINE
  5
26C6
330
2670
100
AcDbEntity
  8
BEM
 62
     0
370
    -2
100
AcDbLine
 10
370.0822409069794
 20
224.4611375402251
 30
0.0
 11
370.0822409069794
 21
162.7134411912
 31
0.0
  0
LINE
  5
26C7
330
2670
100
AcDbEntity
  8
BEM
 62
     0
370
    -2
100
AcDbLine
 10
94.08224090697933
 20
164.7134411912
 30
0.0
 11
363.0822409069793
 21
164.7134411912
 31
0.0
  0
SOLID
  5
26C8
330
2670
100
AcDbEntity
  8
BEM
 62
     0
100
AcDbTrace
 10
94.08224090697933
 20
165.8801078578666
 30
0.0
 11
94.08224090697933
 21
163.5467745245333
 31
0.0
 12
87.08224090697934
 22
164.7134411912
 32
0.0
 13
87.08224090697934
 23
164.7134411912
 33
0.0
  0
SOLID
  5
26C9
330
2670
100
AcDbEntity
  8
BEM
 62
     0
100
AcDbTrace
 10
363.0822409069793
 20
165.8801078578666
 30
0.0
 11
363.0822409069793
 21
163.5467745245333
 31
0.0
 12
370.0822409069794
 22
164.7134411912
 32
0.0
 13
370.0822409069794
 23
164.7134411912
 33
0.0
  0
MTEXT
  5
26CA
330
2670
100
AcDbEntity
  8
BEM
 62
     1
100
AcDbMText
 10
228.5822409069794
 20
171.2134411912
 30
0.0
 40
7.0
 41
0.0
 71
     5
 72
     1
  1
\A1;283
 73
     1
 44
1.0
  0
POINT
  5
26CB
330
2670
100
AcDbEntity
  8
Defpoints
 62
     0
100
AcDbPoint
 10
87.08224090697934
 20
226.4611375402251
 30
0.0
  0
POINT
  5
26CC
330
2670
100
AcDbEntity
  8
Defpoints
 62
     0
100
AcDbPoint
 10
370.0822409069794
 20
226.4611375402251
 30
0.0
  0
POINT
  5
26CD
330
2670
100
AcDbEntity
  8
Defpoints
 62
     0
100
AcDbPoint
 10
370.0822409069794
 20
164.7134411912
 30
0.0
  0
ENDBLK
  5
267B
330
2670
100
AcDbEntity
  8
0
100
AcDbBlockEnd
  0
BLOCK
  5
26A2
330
2696
100
AcDbEntity
  8
0
100
AcDbBlockBegin
  2
*D3
 70
     1
 10
0.0
 20
0.0
 30
0.0
  3
*D3
  1

  0
LINE
  5
26BA
330
2696
100
AcDbEntity
  8
BEM
 62
     0
370
    -2
100
AcDbLine
 10
85.10724090697932
 20
426.0017455935505
 30
0.0
 11
75.50356045737635
 21
426.0017455935505
 31
0.0
  0
LINE
  5
26BB
330
2696
100
AcDbEntity
  8
BEM
 62
     0
370
    -2
100
AcDbLine
 10
85.10724090697932
 20
429.0017455935505
 30
0.0
 11
75.50356045737635
 21
429.0017455935505
 31
0.0
  0
LINE
  5
26BC
330
2696
100
AcDbEntity
  8
BEM
 62
     0
370
    -2
100
AcDbLine
 10
77.50356045737635
 20
419.0017455935506
 30
0.0
 11
77.50356045737634
 21
412.0017455935506
 31
0.0
  0
LINE
  5
26BD
330
2696
100
AcDbEntity
  8
BEM
 62
     0
370
    -2
100
AcDbLine
 10
77.50356045737635
 20
436.0017455935506
 30
0.0
 11
77.50356045737635
 21
452.7350789268839
 31
0.0
  0
LINE
  5
26BE
330
2696
100
AcDbEntity
  8
BEM
 62
     0
370
    -2
100
AcDbLine
 10
77.50356045737635
 20
426.0017455935505
 30
0.0
 11
77.50356045737635
 21
429.0017455935505
 31
0.0
  0
SOLID
  5
26BF
330
2696
100
AcDbEntity
  8
BEM
 62
     0
100
AcDbTrace
 10
76.33689379070968
 20
419.0017455935506
 30
0.0
 11
78.67022712404303
 21
419.0017455935506
 31
0.0
 12
77.50356045737635
 22
426.0017455935505
 32
0.0
 13
77.50356045737635
 23
426.0017455935505
 33
0.0
  0
SOLID
  5
26C0
330
2696
100
AcDbEntity
  8
BEM
 62
     0
100
AcDbTrace
 10
76.33689379070968
 20
436.0017455935506
 30
0.0
 11
78.67022712404303
 21
436.0017455935506
 31
0.0
 12
77.50356045737635
 22
429.0017455935505
 32
0.0
 13
77.50356045737635
 23
429.0017455935505
 33
0.0
  0
MTEXT
  5
26C1
330
2696
100
AcDbEntity
  8
BEM
 62
     1
100
AcDbMText
 10
71.00356045737628
 20
447.8684122602173
 30
0.0
 40
7.0
 41
0.0
 71
     5
 72
     1
  1
\A1;3
 11
0.0000000000000001
 21
1.0
 31
0.0
 73
     1
 44
1.0
  0
POINT
  5
26C2
330
2696
100
AcDbEntity
  8
Defpoints
 62
     0
100
AcDbPoint
 10
87.10724090697931
 20
426.0017455935505
 30
0.0
  0
POINT
  5
26C3
330
2696
100
AcDbEntity
  8
Defpoints
 62
     0
100
AcDbPoint
 10
87.10724090697931
 20
429.0017455935505
 30
0.0
  0
POINT
  5
26C4
330
2696
100
AcDbEntity
  8
Defpoints
 62
     0
100
AcDbPoint
 10
77.50356045737635
 20
429.0017455935505
 30
0.0
  0
ENDBLK
  5
26A3
330
2696
100
AcDbEntity
  8
0
100
AcDbBlockEnd
  0
BLOCK
  5
26AF
330
26A5
100
AcDbEntity
  8
0
100
AcDbBlockBegin
  2
*D4
 70
     1
 10
0.0
 20
0.0
 30
0.0
  3
*D4
  1

  0
LINE
  5
26B1
330
26A5
100
AcDbEntity
  8
BEM
 62
     0
370
    -2
100
AcDbLine
 10
218.3702409069793
 20
293.7517455935506
 30
0.0
 11
58.62636535848054
 21
293.7517455935506
 31
0.0
  0
LINE
  5
26B2
330
26A5
100
AcDbEntity
  8
BEM
 62
     0
370
    -2
100
AcDbLine
 10
226.5972409069793
 20
548.7517455935505
 30
0.0
 11
58.62636535848061
 21
548.7517455935505
 31
0.0
  0
LINE
  5
26B3
330
26A5
100
AcDbEntity
  8
BEM
 62
     0
370
    -2
100
AcDbLine
 10
60.62636535848054
 20
300.7517455935507
 30
0.0
 11
60.6263653584806
 21
541.7517455935506
 31
0.0
  0
SOLID
  5
26B4
330
26A5
100
AcDbEntity
  8
BEM
 62
     0
100
AcDbTrace
 10
59.45969869181388
 20
300.7517455935507
 30
0.0
 11
61.7930320251472
 21
300.7517455935507
 31
0.0
 12
60.62636535848054
 22
293.7517455935506
 32
0.0
 13
60.62636535848054
 23
293.7517455935506
 33
0.0
  0
SOLID
  5
26B5
330
26A5
100
AcDbEntity
  8
BEM
 62
     0
100
AcDbTrace
 10
59.45969869181393
 20
541.7517455935506
 30
0.0
 11
61.79303202514726
 21
541.7517455935506
 31
0.0
 12
60.6263653584806
 22
548.7517455935505
 32
0.0
 13
60.6263653584806
 23
548.7517455935505
 33
0.0
  0
MTEXT
  5
26B6
330
26A5
100
AcDbEntity
  8
BEM
 62
     1
100
AcDbMText
 10
54.12636535848051
 20
421.2517455935506
 30
0.0
 40
7.0
 41
0.0
 71
     5
 72
     1
  1
\A1;255
 11
0.0000000000000001
 21
1.0
 31
0.0
 73
     1
 44
1.0
  0
POINT
  5
26B7
330
26A5
100
AcDbEntity
  8
Defpoints
 62
     0
100
AcDbPoint
 10
220.3702409069793
 20
293.7517455935506
 30
0.0
  0
POINT
  5
26B8
330
26A5
100
AcDbEntity
  8
Defpoints
 62
     0
100
AcDbPoint
 10
228.5972409069793
 20
548.7517455935505
 30
0.0
  0
POINT
  5
26B9
330
26A5
100
AcDbEntity
  8
Defpoints
 62
     0
100
AcDbPoint
 10
60.6263653584806
 20
548.7517455935505
 30
0.0
  0
ENDBLK
  5
26B0
330
26A5
100
AcDbEntity
  8
0
100
AcDbBlockEnd
  0
BLOCK
  5
26E1
330
26D9
100
AcDbEntity
  8
0
100
AcDbBlockBegin
  2
*D5
 70
     1
 10
0.0
 20
0.0
 30
0.0
  3
*D5
  1

  0
LINE
  5
2719
330
26D9
100
AcDbEntity
  8
BEM
 62
     0
370
    -2
100
AcDbLine
 10
155.2824172002611
 20
348.8812226694894
 30
0.0
 11
301.9120646136977
 21
506.1222685176115
 31
0.0
  0
SOLID
  5
271A
330
26D9
100
AcDbEntity
  8
BEM
 62
     0
100
AcDbTrace
 10
154.4291712150387
 20
349.6768874228957
 30
0.0
 11
156.1356631854834
 21
348.0855579160832
 31
0.0
 12
150.5084286798236
 22
343.7617467581552
 32
0.0
 13
150.5084286798236
 23
343.7617467581552
 33
0.0
  0
SOLID
  5
271B
330
26D9
100
AcDbEntity
  8
BEM
 62
     0
100
AcDbTrace
 10
301.0588186284754
 20
506.9179332710178
 30
0.0
 11
302.7653105989201
 21
505.3266037642052
 31
0.0
 12
306.6860531341352
 22
511.2417444289457
 32
0.0
 13
306.6860531341352
 23
511.2417444289457
 33
0.0
  0
MTEXT
  5
271C
330
26D9
100
AcDbEntity
  8
BEM
 62
     1
100
AcDbMText
 10
252.0937575472028
 20
462.229489539758
 30
0.0
 40
7.0
 41
0.0
 71
     5
 72
     1
  1
\A1;%%c229
 11
0.6819983600624961
 21
0.7313537016191729
 31
0.0
 73
     1
 44
1.0
  0
POINT
  5
271D
330
26D9
100
AcDbEntity
  8
Defpoints
 62
     0
100
AcDbPoint
 10
150.5084286798232
 20
343.7617467581556
 30
0.0
  0
POINT
  5
271E
330
26D9
100
AcDbEntity
  8
Defpoints
 62
     0
100
AcDbPoint
 10
306.6860531341354
 20
511.2417444289455
 30
0.0
  0
POINT
  5
271F
330
26D9
100
AcDbEntity
  8
Defpoints
 62
     0
100
AcDbPoint
 10
306.6860531341352
 20
511.2417444289457
 30
0.0
  0
ENDBLK
  5
26E2
330
26D9
100
AcDbEntity
  8
0
100
AcDbBlockEnd
  0
BLOCK
  5
2751
330
2747
100
AcDbEntity
  8
0
100
AcDbBlockBegin
  2
*D6
 70
     1
 10
0.0
 20
0.0
 30
0.0
  3
*D6
  1

  0
LINE
  5
2748
330
2747
100
AcDbEntity
  8
BEM
 62
     0
370
    -2
100
AcDbLine
 10
90.44122475560198
 20
246.4611375402254
 30
0.0
 11
69.008231912042
 21
246.4611375402254
 31
0.0
  0
LINE
  5
2749
330
2747
100
AcDbEntity
  8
BEM
 62
     0
370
    -2
100
AcDbLine
 10
90.44122475560198
 20
206.4611375402248
 30
0.0
 11
69.00823191204199
 21
206.4611375402248
 31
0.0
  0
LINE
  5
274A
330
2747
100
AcDbEntity
  8
BEM
 62
     0
370
    -2
100
AcDbLine
 10
71.00823191204201
 20
239.4611375402254
 30
0.0
 11
71.00823191204199
 21
213.4611375402247
 31
0.0
  0
SOLID
  5
274B
330
2747
100
AcDbEntity
  8
BEM
 62
     0
100
AcDbTrace
 10
69.84156524537533
 20
239.4611375402254
 30
0.0
 11
72.17489857870868
 21
239.4611375402254
 31
0.0
 12
71.00823191204201
 22
246.4611375402254
 32
0.0
 13
71.00823191204201
 23
246.4611375402254
 33
0.0
  0
SOLID
  5
274C
330
2747
100
AcDbEntity
  8
BEM
 62
     0
100
AcDbTrace
 10
69.84156524537532
 20
213.4611375402247
 30
0.0
 11
72.17489857870866
 21
213.4611375402247
 31
0.0
 12
71.00823191204199
 22
206.4611375402248
 32
0.0
 13
71.00823191204199
 23
206.4611375402248
 33
0.0
  0
MTEXT
  5
274D
330
2747
100
AcDbEntity
  8
BEM
 62
     1
100
AcDbMText
 10
64.50823191204197
 20
226.4611375402251
 30
0.0
 40
7.0
 41
0.0
 71
     5
 72
     1
  1
\A1;40
 11
0.0000000000000001
 21
1.0
 31
0.0
 73
     1
 44
1.0
  0
POINT
  5
274E
330
2747
100
AcDbEntity
  8
Defpoints
 62
     0
100
AcDbPoint
 10
92.44122475560198
 20
246.4611375402254
 30
0.0
  0
POINT
  5
274F
330
2747
100
AcDbEntity
  8
Defpoints
 62
     0
100
AcDbPoint
 10
92.44122475560198
 20
206.4611375402248
 30
0.0
  0
POINT
  5
2750
330
2747
100
AcDbEntity
  8
Defpoints
 62
     0
100
AcDbPoint
 10
71.00823191204199
 20
206.4611375402248
 30
0.0
  0
ENDBLK
  5
2752
330
2747
100
AcDbEntity
  8
0
100
AcDbBlockEnd
  0
ENDSEC
  0
SECTION
  2
ENTITIES
  0
LINE
  5
57
330
1E
100
AcDbEntity
  8
STEMPEL
100
AcDbLine
 10
410.0
 20
110.0
 30
0.0
 11
39.99999999999997
 21
110.0
 31
0.0
  0
LINE
  5
58
330
1E
100
AcDbEntity
  8
STEMPEL
100
AcDbLine
 10
136.0000000000001
 20
109.9999999999999
 30
0.0
 11
136.0
 21
9.999999999999971
 31
0.0
  0
LINE
  5
59
330
1E
100
AcDbEntity
  8
STEMPEL
100
AcDbLine
 10
220.0
 20
110.0
 30
0.0
 11
220.0
 21
9.999999999999971
 31
0.0
  0
LINE
  5
5A
330
1E
100
AcDbEntity
  8
STEMPEL
100
AcDbLine
 10
332.0
 20
109.9999999999997
 30
0.0
 11
332.0
 21
40.0
 31
0.0
  0
LINE
  5
5B
330
1E
100
AcDbEntity
  8
STEMPEL
100
AcDbLine
 10
135.9999999999999
 20
29.99999999999997
 30
0.0
 11
39.99999999999997
 21
29.99999999999997
 31
0.0
  0
LINE
  5
5C
330
1E
100
AcDbEntity
  8
STEMPEL
100
AcDbLine
 10
410.0
 20
40.0
 30
0.0
 11
136.0000000000001
 21
39.99999999999997
 31
0.0
  0
LINE
  5
5D
330
1E
100
AcDbEntity
  8
STEMPEL
100
AcDbLine
 10
410.0
 20
80.0
 30
0.0
 11
136.0000000000001
 21
79.99999999999994
 31
0.0
  0
LINE
  5
5E
330
1E
100
AcDbEntity
  8
VOLL
100
AcDbLine
 10
54.00000000000009
 20
110.0
 30
0.0
 11
53.99999999999997
 21
9.999999999999971
 31
0.0
  0
LINE
  5
5F
330
1E
100
AcDbEntity
  8
VOLL
100
AcDbLine
 10
94.00000000000011
 20
109.9999999999999
 30
0.0
 11
94.0
 21
9.999999999999971
 31
0.0
  0
LINE
  5
60
330
1E
100
AcDbEntity
  8
VOLL
100
AcDbLine
 10
114.0000000000001
 20
109.9999999999999
 30
0.0
 11
114.0
 21
9.999999999999971
 31
0.0
  0
LINE
  5
61
330
1E
100
AcDbEntity
  8
VOLL
100
AcDbLine
 10
154.0000000000001
 20
79.99999999999994
 30
0.0
 11
154.0000000000001
 21
39.99999999999997
 31
0.0
  0
LINE
  5
62
330
1E
100
AcDbEntity
  8
VOLL
100
AcDbLine
 10
180.0000000000001
 20
109.9999999999998
 30
0.0
 11
180.0
 21
39.99999999999997
 31
0.0
  0
LINE
  5
63
330
1E
100
AcDbEntity
  8
HILF
100
AcDbLine
 10
40.00000000000008
 20
100.0
 30
0.0
 11
136.0000000000001
 21
100.0
 31
0.0
  0
LINE
  5
64
330
1E
100
AcDbEntity
  8
HILF
100
AcDbLine
 10
40.00000000000008
 20
90.00000000000005
 30
0.0
 11
136.0000000000001
 21
90.00000000000005
 31
0.0
  0
LINE
  5
65
330
1E
100
AcDbEntity
  8
HILF
100
AcDbLine
 10
40.00000000000008
 20
79.99999999999994
 30
0.0
 11
136.0000000000001
 21
79.99999999999994
 31
0.0
  0
LINE
  5
66
330
1E
100
AcDbEntity
  8
HILF
100
AcDbLine
 10
40.00000000000008
 20
69.99999999999994
 30
0.0
 11
136.0000000000001
 21
69.99999999999994
 31
0.0
  0
LINE
  5
67
330
1E
100
AcDbEntity
  8
HILF
100
AcDbLine
 10
40.00000000000008
 20
59.99999999999997
 30
0.0
 11
136.0000000000001
 21
59.99999999999997
 31
0.0
  0
LINE
  5
68
330
1E
100
AcDbEntity
  8
HILF
100
AcDbLine
 10
40.00000000000008
 20
49.99999999999997
 30
0.0
 11
136.0000000000001
 21
49.99999999999997
 31
0.0
  0
LINE
  5
69
330
1E
100
AcDbEntity
  8
HILF
100
AcDbLine
 10
40.00000000000008
 20
39.99999999999997
 30
0.0
 11
136.0000000000001
 21
39.99999999999997
 31
0.0
  0
LINE
  5
6A
330
1E
100
AcDbEntity
  8
HILF
100
AcDbLine
 10
136.0000000000001
 20
69.99999999999994
 30
0.0
 11
220.0
 21
69.99999999999994
 31
0.0
  0
LINE
  5
6B
330
1E
100
AcDbEntity
  8
HILF
100
AcDbLine
 10
136.0000000000001
 20
59.99999999999997
 30
0.0
 11
220.0
 21
59.99999999999997
 31
0.0
  0
LINE
  5
6C
330
1E
100
AcDbEntity
  8
HILF
100
AcDbLine
 10
136.0000000000001
 20
49.99999999999997
 30
0.0
 11
220.0
 21
49.99999999999997
 31
0.0
  0
LINE
  5
6D
330
1E
100
AcDbEntity
  8
HILF
100
AcDbLine
 10
224.7736801096948
 20
84.03758247564139
 30
0.0
 11
324.8353916556311
 21
84.03758247564139
 31
0.0
  0
LINE
  5
6E
330
1E
100
AcDbEntity
  8
HILF
100
AcDbLine
 10
224.7736801096948
 20
69.99999999999994
 30
0.0
 11
324.835391655631
 21
69.99999999999994
 31
0.0
  0
LINE
  5
6F
330
1E
100
AcDbEntity
  8
HILF
100
AcDbLine
 10
224.7736801096948
 20
59.99999999999997
 30
0.0
 11
324.835391655631
 21
59.99999999999997
 31
0.0
  0
LINE
  5
70
330
1E
100
AcDbEntity
  8
HILF
100
AcDbLine
 10
224.7736801096948
 20
49.99999999999997
 30
0.0
 11
324.835391655631
 21
49.99999999999997
 31
0.0
  0
LINE
  5
71
330
1E
100
AcDbEntity
  8
VOLL
100
AcDbLine
 10
332.0
 20
60.0
 30
0.0
 11
410.0
 21
60.0
 31
0.0
  0
LINE
  5
72
330
1E
100
AcDbEntity
  8
HILF
100
AcDbLine
 10
336.7238616296993
 20
83.77983636955827
 30
0.0
 11
404.8588839326728
 21
83.77983636955827
 31
0.0
  0
LINE
  5
73
330
1E
100
AcDbEntity
  8
HILF
100
AcDbLine
 10
223.4909699289885
 20
14.89398258028314
 30
0.0
 11
404.8588839326728
 21
14.89398258028314
 31
0.0
  0
TEXT
  5
74
330
1E
100
AcDbEntity
  8
TEXT
100
AcDbText
 10
63.86165979631819
 20
18.67381894984132
 30
0.0
 40
4.0
  1
Änderung
 41
0.8
  7
GREEKS
 72
     1
 11
74.60451693917534
 21
18.67381894984132
 31
0.0
100
AcDbText
  0
TEXT
  5
75
330
1E
100
AcDbEntity
  8
TEXT
100
AcDbText
 10
143.5163572150377
 20
102.4620895087088
 30
0.0
 40
5.0
  1
Maßstab
 41
0.8
  7
GREEKS
100
AcDbText
  0
TEXT
  5
76
330
1E
100
AcDbEntity
  8
TEXT
100
AcDbText
 10
184.2858954734051
 20
102.4184168434819
 30
0.0
 40
5.0
  1
Zul. Abw.
 41
0.8
  7
GREEKS
100
AcDbText
  0
TEXT
  5
77
330
1E
100
AcDbEntity
  8
TEXT
100
AcDbText
 10
224.877940380901
 20
102.5489328011779
 30
0.0
 40
5.0
  1
Benennung
 41
0.8
  7
GREEKS
100
AcDbText
  0
TEXT
  5
78
330
1E
100
AcDbEntity
  8
TEXT
100
AcDbText
 10
336.178754957634
 20
102.3132034537136
 30
0.0
 40
5.0
  1
Zeichnungs Nr.
 41
0.8
  7
GREEKS
100
AcDbText
  0
TEXT
  5
79
330
1E
100
AcDbEntity
  8
TEXT
100
AcDbText
 10
224.742238391136
 20
30.84560570193057
 30
0.0
 40
5.0
  1
Bauvorhaben
 41
0.8
  7
GREEKS
100
AcDbText
  0
TEXT
  5
7A
330
1E
100
AcDbEntity
  8
TEXT
100
AcDbText
 10
336.7238616296993
 20
73.1811823709997
 30
0.0
 40
5.0
  1
Ersatz für:
 41
0.8
  7
GREEKS
100
AcDbText
  0
TEXT
  5
7B
330
1E
100
AcDbEntity
  8
TEXT
100
AcDbText
 10
48.26641107045756
 20
13.65465846027192
 30
0.0
 40
4.0
  1
Index
 50
90.0
 41
0.8
  7
GREEKS
100
AcDbText
  0
TEXT
  5
7C
330
1E
100
AcDbEntity
  8
TEXT
100
AcDbText
 10
100.0934676075481
 20
18.6715626933981
 30
0.0
 40
4.0
  1
Tag
 41
0.8
  7
GREEKS
 72
     1
 11
103.8268009408814
 21
18.6715626933981
 31
0.0
100
AcDbText
  0
TEXT
  5
7D
330
1E
100
AcDbEntity
  8
TEXT
100
AcDbText
 10
119.0122744386592
 20
18.59324216966408
 30
0.0
 40
4.0
  1
Name
 41
0.8
  7
GREEKS
 72
     1
 11
125.3360839624688
 21
18.59324216966408
 31
0.0
100
AcDbText
  0
TEXT
  5
7E
330
1E
100
AcDbEntity
  8
TEXT
100
AcDbText
 10
162.3311673153651
 20
73.31880501229926
 30
0.0
 40
4.0
  1
Tag
 41
0.8
  7
GREEKS
100
AcDbText
  0
TEXT
  5
7F
330
1E
100
AcDbEntity
  8
TEXT
100
AcDbText
 10
192.4626584226295
 20
73.30961091915225
 30
0.0
 40
4.0
  1
Name
 41
0.8
  7
GREEKS
100
AcDbText
  0
TEXT
  5
80
330
1E
100
AcDbEntity
  8
TEXT
100
AcDbText
 10
137.5836127167615
 20
63.62990369617964
 30
0.0
 40
4.0
  1
Gez.
 41
0.8
  7
GREEKS
100
AcDbText
  0
TEXT
  5
81
330
1E
100
AcDbEntity
  8
TEXT
100
AcDbText
 10
137.5515086571672
 20
53.68926291428377
 30
0.0
 40
4.0
  1
Gepr.
 41
0.8
  7
GREEKS
100
AcDbText
  0
TEXT
  5
82
330
1E
100
AcDbEntity
  8
TEXT
100
AcDbText
 10
137.6006777387304
 20
43.52946389649807
 30
0.0
 40
4.0
  1
Norm.
 41
0.8
  7
GREEKS
100
AcDbText
  0
LINE
  5
83
330
1E
100
AcDbEntity
  8
STEMPEL
100
AcDbLine
 10
49.99999999999989
 20
10.0
 30
0.0
 11
410.0
 21
10.0
 31
0.0
  0
TEXT
  5
84
330
1E
100
AcDbEntity
  8
TEXT
100
AcDbText
 10
337.2400861497006
 20
52.07416177878602
 30
0.0
 40
5.0
  1
ersetzt durch:
 41
0.8
  7
GREEKS
100
AcDbText
  0
LINE
  5
85
330
1E
100
AcDbEntity
  8
STEMPEL
100
AcDbLine
 10
410.0
 20
10.0
 30
0.0
 11
39.99999999999989
 21
10.0
 31
0.0
  0
LINE
  5
86
330
1E
100
AcDbEntity
  8
STEMPEL
100
AcDbLine
 10
410.0
 20
10.0
 30
0.0
 11
410.0
 21
584.0
 31
0.0
  0
LINE
  5
87
330
1E
100
AcDbEntity
  8
STEMPEL
100
AcDbLine
 10
40.0
 20
10.0
 30
0.0
 11
39.99999999999989
 21
584.0
 31
0.0
  0
LINE
  5
88
330
1E
100
AcDbEntity
  8
STEMPEL
100
AcDbLine
 10
410.0
 20
584.0
 30
0.0
 11
39.99999999999989
 21
584.0
 31
0.0
  0
LINE
  5
89
330
1E
100
AcDbEntity
  8
HILF
100
AcDbLine
 10
0.0
 20
0.0
 30
0.0
 11
-0.0000000000001137
 21
594.0
 31
0.0
  0
LINE
  5
8A
330
1E
100
AcDbEntity
  8
HILF
100
AcDbLine
 10
419.9999999999999
 20
594.0000000000002
 30
0.0
 11
0.0
 21
594.0
 31
0.0
  0
LINE
  5
8B
330
1E
100
AcDbEntity
  8
HILF
100
AcDbLine
 10
420.0
 20
0.0
 30
0.0
 11
0.0
 21
0.0
 31
0.0
  0
LINE
  5
8C
330
1E
100
AcDbEntity
  8
HILF
100
AcDbLine
 10
31.08767135713856
 20
297.0
 30
0.0
 11
0.0000000000001137
 21
297.0
 31
0.0
  0
TEXT
  5
8D
330
1E
100
AcDbEntity
  8
TEXT
100
AcDbText
 10
138.622109822104
 20
73.14025471151666
 30
0.0
 40
4.0
  1
2012
 41
0.8
  7
GREEKS
100
AcDbText
  0
LINE
  5
8E
330
1E
100
AcDbEntity
  8
HILF
100
AcDbLine
 10
420.0
 20
-0.0000000000001137
 30
0.0
 11
419.9999999999999
 21
594.0
 31
0.0
  0
TEXT
  5
8F
330
1E
100
AcDbEntity
  8
VOLL
100
AcDbText
 10
78.07675471698113
 20
31.02594776470585
 30
0.0
 40
1.8
  1

  7
GREEKS
100
AcDbText
  0
TEXT
  5
90
330
1E
100
AcDbEntity
  8
TEXT
100
AcDbText
 10
41.85509950977674
 20
111.6719999999999
 30
0.0
 40
5.0
  1
Erstellt mit AUTOCAD 2004
 41
0.8
  7
GREEKS
100
AcDbText
  0
TEXT
  5
91
330
1E
100
AcDbEntity
  8
TEXT
100
AcDbText
 10
194.4216048581257
 20
63.0896391972351
 30
0.0
 40
4.0
  1
Koeh
 41
0.8
  7
GREEKS
 72
     1
 11
199.6787477152685
 21
63.0896391972351
 31
0.0
100
AcDbText
  0
TEXT
  5
92
330
1E
100
AcDbEntity
  8
TEXT
 62
     1
100
AcDbText
 10
345.7721576428681
 20
88.14901428913959
 30
0.0
 40
7.0
  1
00976200W
 41
0.8
  7
GREEKS
 72
     1
 11
369.7721576428681
 21
88.14901428913959
 31
0.0
100
AcDbText
  0
TEXT
  5
93
330
1E
100
AcDbEntity
  8
TEXT
 62
     1
100
AcDbText
 10
150.5006306481887
 20
88.14901428913959
 30
0.0
 40
7.0
  1
1:2
 41
0.8
  7
GREEKS
100
AcDbText
  0
TEXT
  5
94
330
1E
100
AcDbEntity
  8
TEXT
100
AcDbText
 10
160.7037590129979
 20
63.10765040825732
 30
0.0
 40
4.0
  1
29.10.
 41
0.8
  7
GREEKS
 72
     1
 11
167.4085209177598
 21
63.10765040825732
 31
0.0
100
AcDbText
  0
TEXT
  5
95
330
1E
100
AcDbEntity
  8
TEXT
 62
     1
100
AcDbText
 10
226.8935731057402
 20
87.41748789253779
 30
0.0
 40
7.0
  1
Rohrschelle DN200
 41
0.8
  7
GREEKS
100
AcDbText
  0
TEXT
  5
96
330
1E
100
AcDbEntity
  8
TEXT
100
AcDbText
 10
225.1296391125315
 20
71.50334417585288
 30
0.0
 40
5.0
  1
mit Anschlußgewinde M12
 41
0.8
  7
GREEKS
100
AcDbText
  0
TEXT
  5
98
330
1E
100
AcDbEntity
  8
TEXT
100
AcDbText
 10
225.1296391125315
 20
51.64011943042158
 30
0.0
 40
5.0
  1
EDV-Art.Nr. 00976.200X
 41
0.8
  7
GREEKS
100
AcDbText
  0
TEXT
  5
99
330
1E
100
AcDbEntity
  8
TEXT
100
AcDbText
 10
224.9837501577827
 20
42.62974153022632
 30
0.0
 40
4.0
  1
00976200W.DWG
 41
0.8
  7
GREEKS
100
AcDbText
  0
TEXT
  5
9A
330
1E
100
AcDbEntity
  8
TEXT
100
AcDbText
 10
182.626132208084
 20
90.76363841023022
 30
0.0
 40
4.0
  1
DIN EN1123-2
 41
0.8
  7
GREEKS
 72
     1
 11
199.6166083985602
 21
90.76363841023022
 31
0.0
100
AcDbText
  0
INSERT
  5
9B
330
1E
100
AcDbEntity
  8
STEMPEL
100
AcDbBlockReference
  2
LOGO
 10
140.9955485457794
 20
45.02105276448322
 30
0.0
 41
2.0
 42
2.0
 43
2.0
  0
TEXT
  5
118
330
1E
100
AcDbEntity
  8
BEM
100
AcDbText
 10
417.3022923857165
 20
10.16790107998849
 30
0.0
 40
4.0
  1
Diese Zeichnung ist urheberrechtlich geschützt und bleibt unser Eigentum. Sie darf weder ganz noch teilweise verfielfältigt und nicht an Dritte weitergegeben werden.
 50
90.0
 41
0.8
  7
GREEKS
100
AcDbText
  0
TEXT
  5
7BF
330
1E
100
AcDbEntity
  8
TEXT
 62
     1
100
AcDbText
 10
238.9735538576075
 20
275.6363697392266
 30
0.0
 40
7.0
  1
M12
 41
0.8
  7
GREEKS
100
AcDbText
  0
LINE
  5
7C0
330
1E
100
AcDbEntity
  8
TEXT
 62
     2
100
AcDbLine
 10
236.8536608615619
 20
272.2564643223303
 30
0.0
 11
253.9985810499307
 21
272.2564643223303
 31
0.0
  0
LINE
  5
7C1
330
1E
100
AcDbEntity
  8
TEXT
 62
     2
100
AcDbLine
 10
236.8536608615619
 20
272.2564643223303
 30
0.0
 11
228.3963852374057
 21
294.2746658345448
 31
0.0
  0
TEXT
  5
1137
330
1E
100
AcDbEntity
  8
TEXT
 62
     1
100
AcDbText
 10
330.6501679686061
 20
523.2691570044562
 30
0.0
 40
7.0
  1
Schraube M8x30
 41
0.8
  7
GREEKS
100
AcDbText
  0
LINE
  5
1138
330
1E
100
AcDbEntity
  8
TEXT
 62
     2
100
AcDbLine
 10
328.5302749725607
 20
519.8892515875599
 30
0.0
 11
403.5319567901912
 21
519.8892515875599
 31
0.0
  0
LINE
  5
1139
330
1E
100
AcDbEntity
  8
TEXT
 62
     2
100
AcDbLine
 10
403.5319567901912
 20
519.8892515875599
 30
0.0
 11
362.3929162772927
 21
434.7114966659753
 31
0.0
  0
LINE
  5
256B
330
1E
100
AcDbEntity
  8
HILF
100
AcDbLine
 10
355.8372409069793
 20
402.0017455935506
 30
0.0
 11
355.8372409069793
 21
420.0017455935506
 31
0.0
  0
LINE
  5
256C
330
1E
100
AcDbEntity
  8
HILF
100
AcDbLine
 10
362.3372409069793
 20
402.0017455935506
 30
0.0
 11
362.3372409069793
 21
420.0017455935506
 31
0.0
  0
LINE
  5
256D
330
1E
100
AcDbEntity
  8
STEMPEL
100
AcDbLine
 10
363.0872409069793
 20
402.7517455935505
 30
0.0
 11
355.0872409069793
 21
402.7517455935505
 31
0.0
  0
LINE
  5
256E
330
1E
100
AcDbEntity
  8
HILF
100
AcDbLine
 10
355.8372409069793
 20
427.7517455935505
 30
0.0
 11
355.8372409069793
 21
429.0017455935505
 31
0.0
  0
LINE
  5
256F
330
1E
100
AcDbEntity
  8
HILF
100
AcDbLine
 10
355.8372409069793
 20
426.0017455935505
 30
0.0
 11
355.8372409069793
 21
427.2517455935505
 31
0.0
  0
LINE
  5
2570
330
1E
100
AcDbEntity
  8
HILF
100
AcDbLine
 10
362.3372409069793
 20
427.7517455935505
 30
0.0
 11
362.3372409069793
 21
429.0017455935505
 31
0.0
  0
LINE
  5
2571
330
1E
100
AcDbEntity
  8
HILF
100
AcDbLine
 10
362.3372409069793
 20
426.0017455935505
 30
0.0
 11
362.3372409069793
 21
427.2517455935505
 31
0.0
  0
LINE
  5
2572
330
1E
100
AcDbEntity
  8
STEMPEL
100
AcDbLine
 10
355.0872409069793
 20
427.7517455935505
 30
0.0
 11
355.0872409069793
 21
429.0017455935505
 31
0.0
  0
LINE
  5
2573
330
1E
100
AcDbEntity
  8
STEMPEL
100
AcDbLine
 10
355.0872409069793
 20
426.0017455935505
 30
0.0
 11
355.0872409069793
 21
427.2517455935505
 31
0.0
  0
LINE
  5
2574
330
1E
100
AcDbEntity
  8
STEMPEL
100
AcDbLine
 10
363.0872409069793
 20
427.2517455935505
 30
0.0
 11
363.0872409069793
 21
426.0017455935505
 31
0.0
  0
LINE
  5
2575
330
1E
100
AcDbEntity
  8
STEMPEL
100
AcDbLine
 10
363.0872409069793
 20
429.0017455935505
 30
0.0
 11
363.0872409069793
 21
427.7517455935505
 31
0.0
  0
ARC
  5
2576
330
1E
100
AcDbEntity
  8
STEMPEL
100
AcDbCircle
 10
359.0872409069793
 20
426.1437455935506
 30
0.0
 40
11.158
100
AcDbArc
 50
95.91552076700024
 51
109.652859632001
  0
ARC
  5
2577
330
1E
100
AcDbEntity
  8
STEMPEL
100
AcDbCircle
 10
359.0872409069793
 20
426.1437455935506
 30
0.0
 40
11.158
100
AcDbArc
 50
70.34714036799893
 51
84.08447923299975
  0
LINE
  5
2578
330
1E
100
AcDbEntity
  8
STEMPEL
100
AcDbLine
 10
357.9372409069794
 20
437.3017455935505
 30
0.0
 11
353.4582409069793
 21
437.3017455935505
 31
0.0
  0
LINE
  5
2579
330
1E
100
AcDbEntity
  8
STEMPEL
100
AcDbLine
 10
357.9372409069794
 20
434.8017455935505
 30
0.0
 11
357.9372409069794
 21
437.3017455935505
 31
0.0
  0
LINE
  5
257A
330
1E
100
AcDbEntity
  8
STEMPEL
100
AcDbLine
 10
360.2372409069793
 20
434.8017455935505
 30
0.0
 11
357.9372409069794
 21
434.8017455935505
 31
0.0
  0
LINE
  5
257B
330
1E
100
AcDbEntity
  8
STEMPEL
100
AcDbLine
 10
360.2372409069793
 20
437.3017455935505
 30
0.0
 11
360.2372409069793
 21
434.8017455935505
 31
0.0
  0
LINE
  5
257C
330
1E
100
AcDbEntity
  8
STEMPEL
100
AcDbLine
 10
364.7172409069793
 20
437.3017455935505
 30
0.0
 11
360.2372409069793
 21
437.3017455935505
 31
0.0
  0
LINE
  5
257D
330
1E
100
AcDbEntity
  8
STEMPEL
100
AcDbLine
 10
355.0872409069793
 20
402.7517455935505
 30
0.0
 11
355.0872409069793
 21
420.0017455935506
 31
0.0
  0
LINE
  5
257E
330
1E
100
AcDbEntity
  8
STEMPEL
100
AcDbLine
 10
355.8372409069793
 20
402.0017455935506
 30
0.0
 11
355.0872409069793
 21
402.7517455935505
 31
0.0
  0
LINE
  5
257F
330
1E
100
AcDbEntity
  8
STEMPEL
100
AcDbLine
 10
362.3372409069793
 20
402.0017455935506
 30
0.0
 11
355.8372409069793
 21
402.0017455935506
 31
0.0
  0
LINE
  5
2580
330
1E
100
AcDbEntity
  8
STEMPEL
100
AcDbLine
 10
363.0872409069793
 20
402.7517455935505
 30
0.0
 11
362.3372409069793
 21
402.0017455935506
 31
0.0
  0
LINE
  5
2581
330
1E
100
AcDbEntity
  8
STEMPEL
100
AcDbLine
 10
363.0872409069793
 20
420.0017455935506
 30
0.0
 11
363.0872409069793
 21
402.7517455935505
 31
0.0
  0
LINE
  5
2582
330
1E
100
AcDbEntity
  8
STEMPEL
100
AcDbLine
 10
362.8402409069793
 20
436.6517455935506
 30
0.0
 11
362.8402409069793
 21
432.0017455935506
 31
0.0
  0
ARC
  5
2583
330
1E
100
AcDbEntity
  8
STEMPEL
100
AcDbCircle
 10
364.7172409069793
 20
434.2687455935505
 30
0.0
 40
3.032999999999999
100
AcDbArc
 50
90.0
 51
128.2132107020002
  0
ARC
  5
2584
330
1E
100
AcDbEntity
  8
STEMPEL
100
AcDbCircle
 10
364.7172409069793
 20
434.2687455935505
 30
0.0
 40
3.032999999999999
100
AcDbArc
 50
51.78678929799973
 51
90.0
  0
LINE
  5
2585
330
1E
100
AcDbEntity
  8
STEMPEL
100
AcDbLine
 10
366.5932409069793
 20
432.0017455935506
 30
0.0
 11
366.5932409069793
 21
436.6517455935506
 31
0.0
  0
LINE
  5
2586
330
1E
100
AcDbEntity
  8
STEMPEL
100
AcDbLine
 10
363.4872409069793
 20
432.0017455935506
 30
0.0
 11
366.5932409069793
 21
432.0017455935506
 31
0.0
  0
LINE
  5
2587
330
1E
100
AcDbEntity
  8
STEMPEL
100
AcDbLine
 10
354.6872409069794
 20
432.0017455935506
 30
0.0
 11
363.4872409069793
 21
432.0017455935506
 31
0.0
  0
LINE
  5
2588
330
1E
100
AcDbEntity
  8
STEMPEL
100
AcDbLine
 10
351.5822409069794
 20
432.0017455935506
 30
0.0
 11
354.6872409069794
 21
432.0017455935506
 31
0.0
  0
LINE
  5
2589
330
1E
100
AcDbEntity
  8
STEMPEL
100
AcDbLine
 10
351.5822409069794
 20
436.6517455935506
 30
0.0
 11
351.5822409069794
 21
432.0017455935506
 31
0.0
  0
ARC
  5
258A
330
1E
100
AcDbEntity
  8
STEMPEL
100
AcDbCircle
 10
353.4582409069793
 20
434.2687455935505
 30
0.0
 40
3.032999999999999
100
AcDbArc
 50
90.0
 51
128.2132107020002
  0
ARC
  5
258B
330
1E
100
AcDbEntity
  8
STEMPEL
100
AcDbCircle
 10
353.4582409069793
 20
434.2687455935505
 30
0.0
 40
3.032999999999999
100
AcDbArc
 50
51.78678929799973
 51
90.0
  0
LINE
  5
258C
330
1E
100
AcDbEntity
  8
STEMPEL
100
AcDbLine
 10
355.3352409069794
 20
432.0017455935506
 30
0.0
 11
355.3352409069794
 21
436.6517455935506
 31
0.0
  0
LINE
  5
258D
330
1E
100
AcDbEntity
  8
HILF
100
AcDbLine
 10
94.85724090697932
 20
402.0017455935506
 30
0.0
 11
94.85724090697932
 21
420.0017455935506
 31
0.0
  0
LINE
  5
258E
330
1E
100
AcDbEntity
  8
HILF
100
AcDbLine
 10
101.3572409069793
 20
402.0017455935506
 30
0.0
 11
101.3572409069793
 21
420.0017455935506
 31
0.0
  0
LINE
  5
258F
330
1E
100
AcDbEntity
  8
STEMPEL
100
AcDbLine
 10
102.1072409069793
 20
402.7517455935505
 30
0.0
 11
94.10724090697931
 21
402.7517455935505
 31
0.0
  0
LINE
  5
2590
330
1E
100
AcDbEntity
  8
HILF
100
AcDbLine
 10
94.85724090697932
 20
427.7517455935505
 30
0.0
 11
94.85724090697932
 21
429.0017455935505
 31
0.0
  0
LINE
  5
2591
330
1E
100
AcDbEntity
  8
HILF
100
AcDbLine
 10
94.85724090697932
 20
426.0017455935505
 30
0.0
 11
94.85724090697932
 21
427.2517455935505
 31
0.0
  0
LINE
  5
2592
330
1E
100
AcDbEntity
  8
HILF
100
AcDbLine
 10
101.3572409069793
 20
427.7517455935505
 30
0.0
 11
101.3572409069793
 21
429.0017455935505
 31
0.0
  0
LINE
  5
2593
330
1E
100
AcDbEntity
  8
HILF
100
AcDbLine
 10
101.3572409069793
 20
426.0017455935505
 30
0.0
 11
101.3572409069793
 21
427.2517455935505
 31
0.0
  0
LINE
  5
2594
330
1E
100
AcDbEntity
  8
STEMPEL
100
AcDbLine
 10
94.10724090697931
 20
427.7517455935505
 30
0.0
 11
94.10724090697931
 21
429.0017455935505
 31
0.0
  0
LINE
  5
2595
330
1E
100
AcDbEntity
  8
STEMPEL
100
AcDbLine
 10
94.10724090697931
 20
426.0017455935505
 30
0.0
 11
94.10724090697931
 21
427.2517455935505
 31
0.0
  0
LINE
  5
2596
330
1E
100
AcDbEntity
  8
STEMPEL
100
AcDbLine
 10
102.1072409069793
 20
427.2517455935505
 30
0.0
 11
102.1072409069793
 21
426.0017455935505
 31
0.0
  0
LINE
  5
2597
330
1E
100
AcDbEntity
  8
STEMPEL
100
AcDbLine
 10
102.1072409069793
 20
429.0017455935505
 30
0.0
 11
102.1072409069793
 21
427.7517455935505
 31
0.0
  0
ARC
  5
2598
330
1E
100
AcDbEntity
  8
STEMPEL
100
AcDbCircle
 10
98.10724090697931
 20
426.1437455935506
 30
0.0
 40
11.158
100
AcDbArc
 50
95.91552076700024
 51
109.652859632001
  0
ARC
  5
2599
330
1E
100
AcDbEntity
  8
STEMPEL
100
AcDbCircle
 10
98.10724090697931
 20
426.1437455935506
 30
0.0
 40
11.158
100
AcDbArc
 50
70.34714036799893
 51
84.08447923299975
  0
LINE
  5
259A
330
1E
100
AcDbEntity
  8
STEMPEL
100
AcDbLine
 10
96.95724090697934
 20
437.3017455935505
 30
0.0
 11
92.4782409069793
 21
437.3017455935505
 31
0.0
  0
LINE
  5
259B
330
1E
100
AcDbEntity
  8
STEMPEL
100
AcDbLine
 10
96.95724090697934
 20
434.8017455935505
 30
0.0
 11
96.95724090697934
 21
437.3017455935505
 31
0.0
  0
LINE
  5
259C
330
1E
100
AcDbEntity
  8
STEMPEL
100
AcDbLine
 10
99.25724090697935
 20
434.8017455935505
 30
0.0
 11
96.95724090697934
 21
434.8017455935505
 31
0.0
  0
LINE
  5
259D
330
1E
100
AcDbEntity
  8
STEMPEL
100
AcDbLine
 10
99.25724090697935
 20
437.3017455935505
 30
0.0
 11
99.25724090697935
 21
434.8017455935505
 31
0.0
  0
LINE
  5
259E
330
1E
100
AcDbEntity
  8
STEMPEL
100
AcDbLine
 10
103.7362409069793
 20
437.3017455935505
 30
0.0
 11
99.25724090697935
 21
437.3017455935505
 31
0.0
  0
LINE
  5
259F
330
1E
100
AcDbEntity
  8
STEMPEL
100
AcDbLine
 10
94.10724090697931
 20
402.7517455935505
 30
0.0
 11
94.10724090697931
 21
420.0017455935506
 31
0.0
  0
LINE
  5
25A0
330
1E
100
AcDbEntity
  8
STEMPEL
100
AcDbLine
 10
94.85724090697932
 20
402.0017455935506
 30
0.0
 11
94.10724090697931
 21
402.7517455935505
 31
0.0
  0
LINE
  5
25A1
330
1E
100
AcDbEntity
  8
STEMPEL
100
AcDbLine
 10
101.3572409069793
 20
402.0017455935506
 30
0.0
 11
94.85724090697932
 21
402.0017455935506
 31
0.0
  0
LINE
  5
25A2
330
1E
100
AcDbEntity
  8
STEMPEL
100
AcDbLine
 10
102.1072409069793
 20
402.7517455935505
 30
0.0
 11
101.3572409069793
 21
402.0017455935506
 31
0.0
  0
LINE
  5
25A3
330
1E
100
AcDbEntity
  8
STEMPEL
100
AcDbLine
 10
102.1072409069793
 20
420.0017455935506
 30
0.0
 11
102.1072409069793
 21
402.7517455935505
 31
0.0
  0
LINE
  5
25A4
330
1E
100
AcDbEntity
  8
STEMPEL
100
AcDbLine
 10
101.8602409069793
 20
436.6517455935506
 30
0.0
 11
101.8602409069793
 21
432.0017455935506
 31
0.0
  0
ARC
  5
25A5
330
1E
100
AcDbEntity
  8
STEMPEL
100
AcDbCircle
 10
103.7362409069793
 20
434.2687455935505
 30
0.0
 40
3.032999999999999
100
AcDbArc
 50
90.0
 51
128.2132107020002
  0
ARC
  5
25A6
330
1E
100
AcDbEntity
  8
STEMPEL
100
AcDbCircle
 10
103.7362409069793
 20
434.2687455935505
 30
0.0
 40
3.032999999999999
100
AcDbArc
 50
51.78678929799973
 51
90.0
  0
LINE
  5
25A7
330
1E
100
AcDbEntity
  8
STEMPEL
100
AcDbLine
 10
105.6132409069792
 20
432.0017455935506
 30
0.0
 11
105.6132409069792
 21
436.6517455935506
 31
0.0
  0
LINE
  5
25A8
330
1E
100
AcDbEntity
  8
STEMPEL
100
AcDbLine
 10
102.5072409069793
 20
432.0017455935506
 30
0.0
 11
105.6132409069792
 21
432.0017455935506
 31
0.0
  0
LINE
  5
25A9
330
1E
100
AcDbEntity
  8
STEMPEL
100
AcDbLine
 10
93.70724090697933
 20
432.0017455935506
 30
0.0
 11
102.5072409069793
 21
432.0017455935506
 31
0.0
  0
LINE
  5
25AA
330
1E
100
AcDbEntity
  8
STEMPEL
100
AcDbLine
 10
90.60224090697932
 20
432.0017455935506
 30
0.0
 11
93.70724090697933
 21
432.0017455935506
 31
0.0
  0
LINE
  5
25AB
330
1E
100
AcDbEntity
  8
STEMPEL
100
AcDbLine
 10
90.60224090697932
 20
436.6517455935506
 30
0.0
 11
90.60224090697932
 21
432.0017455935506
 31
0.0
  0
ARC
  5
25AC
330
1E
100
AcDbEntity
  8
STEMPEL
100
AcDbCircle
 10
92.4782409069793
 20
434.2687455935505
 30
0.0
 40
3.032999999999999
100
AcDbArc
 50
90.0
 51
128.2132107020002
  0
ARC
  5
25AD
330
1E
100
AcDbEntity
  8
STEMPEL
100
AcDbCircle
 10
92.4782409069793
 20
434.2687455935505
 30
0.0
 40
3.032999999999999
100
AcDbArc
 50
51.78678929799973
 51
90.0
  0
LINE
  5
25AE
330
1E
100
AcDbEntity
  8
STEMPEL
100
AcDbLine
 10
94.35424090697933
 20
432.0017455935506
 30
0.0
 11
94.35424090697933
 21
436.6517455935506
 31
0.0
  0
LINE
  5
25AF
330
1E
100
AcDbEntity
  8
STEMPEL
100
AcDbLine
 10
357.9322409069793
 20
219.9611375402251
 30
0.0
 11
357.9322409069793
 21
232.9611375402251
 31
0.0
  0
LINE
  5
25B0
330
1E
100
AcDbEntity
  8
STEMPEL
100
AcDbLine
 10
360.2322409069793
 20
219.9611375402251
 30
0.0
 11
360.2322409069793
 21
232.9611375402251
 31
0.0
  0
ARC
  5
25B1
330
1E
100
AcDbEntity
  8
STEMPEL
100
AcDbCircle
 10
359.0822409069793
 20
226.4611375402251
 30
0.0
 40
6.5
100
AcDbArc
 50
280.1905887679999
 51
79.80941123200008
  0
ARC
  5
25B2
330
1E
100
AcDbEntity
  8
STEMPEL
100
AcDbCircle
 10
359.0822409069793
 20
226.4611375402251
 30
0.0
 40
6.5
100
AcDbArc
 50
100.1905887679999
 51
259.8094112320001
  0
LINE
  5
25B3
330
1E
100
AcDbEntity
  8
STEMPEL
100
AcDbLine
 10
355.3292409069793
 20
219.9611375402251
 30
0.0
 11
351.5762409069794
 21
226.4611375402251
 31
0.0
  0
LINE
  5
25B4
330
1E
100
AcDbEntity
  8
STEMPEL
100
AcDbLine
 10
362.8352409069794
 20
219.9611375402251
 30
0.0
 11
355.3292409069793
 21
219.9611375402251
 31
0.0
  0
LINE
  5
25B5
330
1E
100
AcDbEntity
  8
STEMPEL
100
AcDbLine
 10
366.5882409069793
 20
226.4611375402251
 30
0.0
 11
362.8352409069794
 21
219.9611375402251
 31
0.0
  0
LINE
  5
25B6
330
1E
100
AcDbEntity
  8
STEMPEL
100
AcDbLine
 10
362.8352409069794
 20
232.9611375402251
 30
0.0
 11
366.5882409069793
 21
226.4611375402251
 31
0.0
  0
LINE
  5
25B7
330
1E
100
AcDbEntity
  8
STEMPEL
100
AcDbLine
 10
355.3292409069793
 20
232.9611375402251
 30
0.0
 11
362.8352409069794
 21
232.9611375402251
 31
0.0
  0
LINE
  5
25B8
330
1E
100
AcDbEntity
  8
STEMPEL
100
AcDbLine
 10
351.5762409069794
 20
226.4611375402251
 30
0.0
 11
355.3292409069793
 21
232.9611375402251
 31
0.0
  0
LINE
  5
25B9
330
1E
100
AcDbEntity
  8
STEMPEL
100
AcDbLine
 10
96.93224090697937
 20
219.9611375402251
 30
0.0
 11
96.93224090697937
 21
232.9611375402251
 31
0.0
  0
LINE
  5
25BA
330
1E
100
AcDbEntity
  8
STEMPEL
100
AcDbLine
 10
99.23224090697932
 20
219.9611375402251
 30
0.0
 11
99.23224090697932
 21
232.9611375402251
 31
0.0
  0
ARC
  5
25BB
330
1E
100
AcDbEntity
  8
STEMPEL
100
AcDbCircle
 10
98.08224090697933
 20
226.4611375402251
 30
0.0
 40
6.5
100
AcDbArc
 50
280.1905887679999
 51
79.80941123200008
  0
ARC
  5
25BC
330
1E
100
AcDbEntity
  8
STEMPEL
100
AcDbCircle
 10
98.08224090697933
 20
226.4611375402251
 30
0.0
 40
6.5
100
AcDbArc
 50
100.1905887679999
 51
259.8094112320001
  0
LINE
  5
25BD
330
1E
100
AcDbEntity
  8
STEMPEL
100
AcDbLine
 10
94.32924090697929
 20
219.9611375402251
 30
0.0
 11
90.57724090697934
 21
226.4611375402251
 31
0.0
  0
LINE
  5
25BE
330
1E
100
AcDbEntity
  8
STEMPEL
100
AcDbLine
 10
101.8352409069793
 20
219.9611375402251
 30
0.0
 11
94.32924090697929
 21
219.9611375402251
 31
0.0
  0
LINE
  5
25BF
330
1E
100
AcDbEntity
  8
STEMPEL
100
AcDbLine
 10
105.5882409069793
 20
226.4611375402251
 30
0.0
 11
101.8352409069793
 21
219.9611375402251
 31
0.0
  0
LINE
  5
25C0
330
1E
100
AcDbEntity
  8
STEMPEL
100
AcDbLine
 10
101.8352409069793
 20
232.9611375402251
 30
0.0
 11
105.5882409069793
 21
226.4611375402251
 31
0.0
  0
LINE
  5
25C1
330
1E
100
AcDbEntity
  8
STEMPEL
100
AcDbLine
 10
94.32924090697929
 20
232.9611375402251
 30
0.0
 11
101.8352409069793
 21
232.9611375402251
 31
0.0
  0
LINE
  5
25C2
330
1E
100
AcDbEntity
  8
STEMPEL
100
AcDbLine
 10
90.57724090697934
 20
226.4611375402251
 30
0.0
 11
94.32924090697929
 21
232.9611375402251
 31
0.0
  0
LINE
  5
25C6
330
1E
100
AcDbEntity
  8
STEMPEL
100
AcDbLine
 10
351.8372409069793
 20
427.7517455935505
 30
0.0
 11
351.8372409069793
 21
427.2517455935505
 31
0.0
  0
LINE
  5
25C7
330
1E
100
AcDbEntity
  8
STEMPEL
100
AcDbLine
 10
366.3372409069793
 20
427.7517455935505
 30
0.0
 11
351.8372409069793
 21
427.7517455935505
 31
0.0
  0
LINE
  5
25C8
330
1E
100
AcDbEntity
  8
STEMPEL
100
AcDbLine
 10
366.3372409069793
 20
427.2517455935505
 30
0.0
 11
366.3372409069793
 21
427.7517455935505
 31
0.0
  0
LINE
  5
25C9
330
1E
100
AcDbEntity
  8
STEMPEL
100
AcDbLine
 10
351.8372409069793
 20
427.2517455935505
 30
0.0
 11
366.3372409069793
 21
427.2517455935505
 31
0.0
  0
LINE
  5
25CA
330
1E
100
AcDbEntity
  8
STEMPEL
100
AcDbLine
 10
90.85724090697931
 20
427.7517455935505
 30
0.0
 11
90.85724090697931
 21
427.2517455935505
 31
0.0
  0
LINE
  5
25CB
330
1E
100
AcDbEntity
  8
STEMPEL
100
AcDbLine
 10
105.3572409069793
 20
427.7517455935505
 30
0.0
 11
90.85724090697931
 21
427.7517455935505
 31
0.0
  0
LINE
  5
25CC
330
1E
100
AcDbEntity
  8
STEMPEL
100
AcDbLine
 10
105.3572409069793
 20
427.2517455935505
 30
0.0
 11
105.3572409069793
 21
427.7517455935505
 31
0.0
  0
LINE
  5
25CD
330
1E
100
AcDbEntity
  8
STEMPEL
100
AcDbLine
 10
90.85724090697931
 20
427.2517455935505
 30
0.0
 11
105.3572409069793
 21
427.2517455935505
 31
0.0
  0
LINE
  5
25E0
330
1E
100
AcDbEntity
  8
STEMPEL
100
AcDbLine
 10
107.6842409069793
 20
250.211137540225
 30
0.0
 11
107.6842409069793
 21
238.4611375402251
 31
0.0
  0
LINE
  5
25E1
330
1E
100
AcDbEntity
  8
STEMPEL
100
AcDbLine
 10
349.4812409069794
 20
250.211137540225
 30
0.0
 11
107.6842409069793
 21
250.211137540225
 31
0.0
  0
LINE
  5
25E2
330
1E
100
AcDbEntity
  8
STEMPEL
100
AcDbLine
 10
349.4812409069794
 20
238.4611375402251
 30
0.0
 11
349.4812409069794
 21
250.211137540225
 31
0.0
  0
LINE
  5
25E3
330
1E
100
AcDbEntity
  8
STEMPEL
100
AcDbLine
 10
107.6842409069793
 20
238.4611375402251
 30
0.0
 11
349.4812409069794
 21
238.4611375402251
 31
0.0
  0
LINE
  5
25E4
330
1E
100
AcDbEntity
  8
STEMPEL
100
AcDbLine
 10
349.4812409069794
 20
202.7111375402251
 30
0.0
 11
349.4812409069794
 21
214.4611375402251
 31
0.0
  0
LINE
  5
25E5
330
1E
100
AcDbEntity
  8
STEMPEL
100
AcDbLine
 10
107.6842409069793
 20
202.7111375402251
 30
0.0
 11
349.4812409069794
 21
202.7111375402251
 31
0.0
  0
LINE
  5
25E6
330
1E
100
AcDbEntity
  8
STEMPEL
100
AcDbLine
 10
107.6842409069793
 20
214.4611375402251
 30
0.0
 11
107.6842409069793
 21
202.7111375402251
 31
0.0
  0
LINE
  5
25E7
330
1E
100
AcDbEntity
  8
STEMPEL
100
AcDbLine
 10
349.4812409069794
 20
214.4611375402251
 30
0.0
 11
107.6842409069793
 21
214.4611375402251
 31
0.0
  0
LINE
  5
25E8
330
1E
100
AcDbEntity
  8
HILF
100
AcDbLine
 10
111.2282409069793
 20
238.4611375402251
 30
0.0
 11
111.2282409069793
 21
214.4611375402251
 31
0.0
  0
LINE
  5
25E9
330
1E
100
AcDbEntity
  8
HILF
100
AcDbLine
 10
345.9362409069793
 20
238.4611375402251
 30
0.0
 11
345.9362409069793
 21
214.4611375402251
 31
0.0
  0
LINE
  5
25EA
330
1E
100
AcDbEntity
  8
MITTEL
100
AcDbLine
 10
359.0822409069795
 20
214.9611375402251
 30
0.0
 11
359.0822409069792
 21
237.961137540225
 31
0.0
  0
LINE
  5
25EB
330
1E
100
AcDbEntity
  8
MITTEL
100
AcDbLine
 10
98.0822409069794
 20
214.9611375402251
 30
0.0
 11
98.08224090697933
 21
237.9611375402251
 31
0.0
  0
LINE
  5
25EC
330
1E
100
AcDbEntity
  8
MITTEL
100
AcDbLine
 10
228.5972409069793
 20
255.211137540225
 30
0.0
 11
228.5972409069793
 21
197.7111375402251
 31
0.0
  0
LINE
  5
25ED
330
1E
100
AcDbEntity
  8
MITTEL
100
AcDbLine
 10
375.0822409069792
 20
226.4611375402251
 30
0.0
 11
82.08224090697934
 21
226.4611375402251
 31
0.0
  0
LINE
  5
25EE
330
1E
100
AcDbEntity
  8
STEMPEL
100
AcDbLine
 10
364.7232409069793
 20
246.461137540225
 30
0.0
 11
349.4812409069794
 21
246.461137540225
 31
0.0
  0
ARC
  5
25EF
330
1E
100
AcDbEntity
  8
STEMPEL
100
AcDbCircle
 10
330.0822409069793
 20
226.4611375402251
 30
0.0
 40
40.0
100
AcDbArc
 50
329.9999999999995
 51
30.00000000000055
  0
LINE
  5
25F0
330
1E
100
AcDbEntity
  8
STEMPEL
100
AcDbLine
 10
349.4812409069794
 20
206.4611375402251
 30
0.0
 11
364.7232409069793
 21
206.4611375402251
 31
0.0
  0
LINE
  5
25F1
330
1E
100
AcDbEntity
  8
STEMPEL
100
AcDbLine
 10
92.44124090697932
 20
206.4611375402251
 30
0.0
 11
107.6842409069793
 21
206.4611375402251
 31
0.0
  0
ARC
  5
25F2
330
1E
100
AcDbEntity
  8
STEMPEL
100
AcDbCircle
 10
127.0822409069793
 20
226.4611375402251
 30
0.0
 40
40.0
100
AcDbArc
 50
149.9999999999994
 51
210.0000000000005
  0
LINE
  5
25F3
330
1E
100
AcDbEntity
  8
STEMPEL
100
AcDbLine
 10
107.6842409069793
 20
246.461137540225
 30
0.0
 11
92.44124090697932
 21
246.461137540225
 31
0.0
  0
ARC
  5
25F4
330
1E
100
AcDbEntity
  8
STEMPEL
100
AcDbCircle
 10
228.5972409069793
 20
427.5017455935506
 30
0.0
 40
106.5
100
AcDbArc
 50
49.88969665899998
 51
176.4315661509996
  0
ARC
  5
25F5
330
1E
100
AcDbEntity
  8
STEMPEL
100
AcDbCircle
 10
228.5972409069793
 20
427.5017455935506
 30
0.0
 40
106.5
100
AcDbArc
 50
183.5684338490004
 51
225.0647052470008
  0
LINE
  5
25F6
330
1E
100
AcDbEntity
  8
HILF
100
AcDbLine
 10
297.2112409069794
 20
508.9537455935506
 30
0.0
 11
301.7972409069794
 21
511.7577455935506
 31
0.0
  0
LINE
  5
25F7
330
1E
100
AcDbEntity
  8
HILF
100
AcDbLine
 10
303.8712409069793
 20
502.8417455935505
 30
0.0
 11
307.4522409069794
 21
505.0317455935505
 31
0.0
  0
LINE
  5
25F8
330
1E
100
AcDbEntity
  8
HILF
100
AcDbLine
 10
307.4522409069794
 20
505.0317455935505
 30
0.0
 11
310.5102409069794
 21
512.0097455935506
 31
0.0
  0
LINE
  5
25F9
330
1E
100
AcDbEntity
  8
HILF
100
AcDbLine
 10
301.7972409069794
 20
511.7577455935506
 30
0.0
 11
304.8552409069793
 21
518.7357455935504
 31
0.0
  0
LINE
  5
25FA
330
1E
100
AcDbEntity
  8
HILF
100
AcDbLine
 10
304.8552409069793
 20
518.7357455935504
 30
0.0
 11
307.1082409069793
 21
519.9017455935505
 31
0.0
  0
LINE
  5
25FB
330
1E
100
AcDbEntity
  8
HILF
100
AcDbLine
 10
310.5102409069794
 20
512.0097455935506
 30
0.0
 11
313.8392409069793
 21
513.7317455935506
 31
0.0
  0
LINE
  5
25FC
330
1E
100
AcDbEntity
  8
HILF
100
AcDbLine
 10
144.2822409069792
 20
343.1957455935505
 30
0.0
 11
143.2202409069794
 21
341.4077455935506
 31
0.0
  0
LINE
  5
25FD
330
1E
100
AcDbEntity
  8
HILF
100
AcDbLine
 10
149.6762409069793
 20
337.9457455935506
 30
0.0
 11
148.6982409069793
 21
336.3007455935506
 31
0.0
  0
LINE
  5
25FE
330
1E
100
AcDbEntity
  8
HILF
100
AcDbLine
 10
156.4712409069793
 20
343.1587455935506
 30
0.0
 11
149.6762409069793
 21
337.9457455935506
 31
0.0
  0
LINE
  5
25FF
330
1E
100
AcDbEntity
  8
HILF
100
AcDbLine
 10
151.0772409069793
 20
348.4087455935506
 30
0.0
 11
144.2822409069792
 21
343.1957455935505
 31
0.0
  0
LINE
  5
2600
330
1E
100
AcDbEntity
  8
HILF
100
AcDbLine
 10
153.3762409069793
 20
352.1107455935506
 30
0.0
 11
151.0772409069793
 21
348.4087455935506
 31
0.0
  0
LINE
  5
2601
330
1E
100
AcDbEntity
  8
HILF
100
AcDbLine
 10
158.8622409069793
 20
347.0087455935506
 30
0.0
 11
156.4712409069793
 21
343.1587455935506
 31
0.0
  0
LINE
  5
2602
330
1E
100
AcDbEntity
  8
STEMPEL
100
AcDbLine
 10
334.8912409069793
 20
420.8737455935505
 30
0.0
 11
349.6122409069793
 21
419.9557455935505
 31
0.0
  0
LINE
  5
2603
330
1E
100
AcDbEntity
  8
STEMPEL
100
AcDbLine
 10
122.3042409069793
 20
420.8737455935505
 30
0.0
 11
107.5822409069793
 21
419.9557455935505
 31
0.0
  0
LINE
  5
2604
330
1E
100
AcDbEntity
  8
STEMPEL
100
AcDbLine
 10
122.3042409069793
 20
434.1307455935505
 30
0.0
 11
107.5822409069793
 21
435.0487455935505
 31
0.0
  0
LINE
  5
2605
330
1E
100
AcDbEntity
  8
STEMPEL
100
AcDbLine
 10
334.8912409069793
 20
434.1307455935505
 30
0.0
 11
349.6122409069793
 21
435.0487455935505
 31
0.0
  0
ARC
  5
2606
330
1E
100
AcDbEntity
  8
STEMPEL
100
AcDbCircle
 10
228.5972409069793
 20
427.5017455935506
 30
0.0
 40
121.25
100
AcDbArc
 50
228.7793645439998
 51
356.4315661509996
  0
ARC
  5
2607
330
1E
100
AcDbEntity
  8
STEMPEL
100
AcDbCircle
 10
228.5972409069793
 20
427.5017455935506
 30
0.0
 40
121.25
100
AcDbArc
 50
183.5684338490004
 51
225.2394121770002
  0
ARC
  5
2608
330
1E
100
AcDbEntity
  8
STEMPEL
100
AcDbCircle
 10
228.5972409069793
 20
427.5017455935506
 30
0.0
 40
121.25
100
AcDbArc
 50
3.568433849000403
 51
45.33004428099923
  0
ARC
  5
2609
330
1E
100
AcDbEntity
  8
STEMPEL
100
AcDbCircle
 10
228.5972409069793
 20
427.5017455935506
 30
0.0
 40
121.25
100
AcDbArc
 50
49.64561022099911
 51
176.4315661509996
  0
ARC
  5
260A
330
1E
100
AcDbEntity
  8
STEMPEL
100
AcDbCircle
 10
228.5972409069793
 20
427.5017455935506
 30
0.0
 40
106.5
100
AcDbArc
 50
229.0959356549995
 51
356.4315661509996
  0
ARC
  5
260B
330
1E
100
AcDbEntity
  8
STEMPEL
100
AcDbCircle
 10
228.5972409069793
 20
427.5017455935506
 30
0.0
 40
106.5
100
AcDbArc
 50
3.568433849000403
 51
45.02519241499994
  0
ARC
  5
260E
330
1E
100
AcDbEntity
  8
STEMPEL
100
AcDbCircle
 10
220.3702409069793
 20
299.0797455935506
 30
0.0
 40
5.328
100
AcDbArc
 50
270.0
 51
300.9790988619991
  0
ARC
  5
260F
330
1E
100
AcDbEntity
  8
STEMPEL
100
AcDbCircle
 10
220.3702409069793
 20
299.0797455935506
 30
0.0
 40
5.328
100
AcDbArc
 50
239.0209011380008
 51
270.0
  0
ARC
  5
2610
330
1E
100
AcDbEntity
  8
STEMPEL
100
AcDbCircle
 10
228.5972409069793
 20
313.9237455935506
 30
0.0
 40
20.172
100
AcDbArc
 50
254.2221938999997
 51
285.7778061000002
  0
ARC
  5
2611
330
1E
100
AcDbEntity
  8
STEMPEL
100
AcDbCircle
 10
236.8252409069794
 20
299.0797455935506
 30
0.0
 40
5.328
100
AcDbArc
 50
270.0
 51
300.9790988619991
  0
ARC
  5
2612
330
1E
100
AcDbEntity
  8
STEMPEL
100
AcDbCircle
 10
236.8252409069794
 20
299.0797455935506
 30
0.0
 40
5.328
100
AcDbArc
 50
239.0209011380008
 51
270.0
  0
LINE
  5
2613
330
1E
100
AcDbEntity
  8
STEMPEL
100
AcDbLine
 10
236.8252409069794
 20
293.7517455935506
 30
0.0
 11
220.3702409069793
 21
293.7517455935506
 31
0.0
  0
LINE
  5
2614
330
1E
100
AcDbEntity
  8
STEMPEL
100
AcDbLine
 10
217.6282409069793
 20
306.7497455935506
 30
0.0
 11
217.6282409069793
 21
294.5117455935506
 31
0.0
  0
LINE
  5
2615
330
1E
100
AcDbEntity
  8
STEMPEL
100
AcDbLine
 10
223.1122409069793
 20
306.3767455935506
 30
0.0
 11
223.1122409069793
 21
294.5117455935506
 31
0.0
  0
LINE
  5
2616
330
1E
100
AcDbEntity
  8
STEMPEL
100
AcDbLine
 10
234.0822409069793
 20
306.3767455935506
 30
0.0
 11
234.0822409069793
 21
294.5117455935506
 31
0.0
  0
LINE
  5
2617
330
1E
100
AcDbEntity
  8
STEMPEL
100
AcDbLine
 10
239.5672409069793
 20
306.7497455935506
 30
0.0
 11
239.5672409069793
 21
294.5117455935506
 31
0.0
  0
ARC
  5
2618
330
1E
100
AcDbEntity
  8
STEMPEL
100
AcDbCircle
 10
348.8642409069794
 20
420.0017455935506
 30
0.0
 40
3.0
100
AcDbArc
 50
90.0
 51
176.4315661509996
  0
ARC
  5
2619
330
1E
100
AcDbEntity
  8
STEMPEL
100
AcDbCircle
 10
108.3312409069793
 20
420.0017455935506
 30
0.0
 40
3.0
100
AcDbArc
 50
3.568433849000403
 51
90.0
  0
ARC
  5
261A
330
1E
100
AcDbEntity
  8
STEMPEL
100
AcDbCircle
 10
228.5972409069793
 20
427.5017455935506
 30
0.0
 40
117.5
100
AcDbArc
 50
225.1082619429998
 51
228.7910646339996
  0
ARC
  5
261B
330
1E
100
AcDbEntity
  8
STEMPEL
100
AcDbCircle
 10
108.3312409069793
 20
420.0017455935506
 30
0.0
 40
6.0
100
AcDbArc
 50
3.568433849000403
 51
90.0
  0
ARC
  5
261C
330
1E
100
AcDbEntity
  8
STEMPEL
100
AcDbCircle
 10
348.8642409069794
 20
420.0017455935506
 30
0.0
 40
6.0
100
AcDbArc
 50
90.0
 51
176.4315661509996
  0
ARC
  5
261D
330
1E
100
AcDbEntity
  8
STEMPEL
100
AcDbCircle
 10
228.5972409069793
 20
427.5017455935506
 30
0.0
 40
114.5
100
AcDbArc
 50
225.3089304350002
 51
229.0910487890001
  0
ARC
  5
261E
330
1E
100
AcDbEntity
  8
STEMPEL
100
AcDbCircle
 10
352.5872409069793
 20
421.5017455935505
 30
0.0
 40
1.5
100
AcDbArc
 50
0.0
 51
90.0
  0
LINE
  5
261F
330
1E
100
AcDbEntity
  8
STEMPEL
100
AcDbLine
 10
354.0872409069793
 20
421.5017455935505
 30
0.0
 11
354.0872409069793
 21
420.0017455935506
 31
0.0
  0
LINE
  5
2620
330
1E
100
AcDbEntity
  8
STEMPEL
100
AcDbLine
 10
354.0872409069793
 20
420.0017455935506
 30
0.0
 11
364.0872409069793
 21
420.0017455935506
 31
0.0
  0
LINE
  5
2621
330
1E
100
AcDbEntity
  8
STEMPEL
100
AcDbLine
 10
364.0872409069793
 20
420.0017455935506
 30
0.0
 11
364.0872409069793
 21
421.5017455935505
 31
0.0
  0
ARC
  5
2622
330
1E
100
AcDbEntity
  8
STEMPEL
100
AcDbCircle
 10
365.5872409069794
 20
421.5017455935505
 30
0.0
 40
1.5
100
AcDbArc
 50
90.0
 51
180.0
  0
LINE
  5
2623
330
1E
100
AcDbEntity
  8
STEMPEL
100
AcDbLine
 10
364.7452409069793
 20
426.0017455935505
 30
0.0
 11
364.7452409069793
 21
423.0017455935506
 31
0.0
  0
LINE
  5
2624
330
1E
100
AcDbEntity
  8
STEMPEL
100
AcDbLine
 10
93.10724090697931
 20
421.5017455935505
 30
0.0
 11
93.10724090697931
 21
420.0017455935506
 31
0.0
  0
LINE
  5
2625
330
1E
100
AcDbEntity
  8
STEMPEL
100
AcDbLine
 10
103.1072409069793
 20
420.0017455935506
 30
0.0
 11
103.1072409069793
 21
421.5017455935505
 31
0.0
  0
LINE
  5
2626
330
1E
100
AcDbEntity
  8
STEMPEL
100
AcDbLine
 10
93.10724090697931
 20
420.0017455935506
 30
0.0
 11
103.1072409069793
 21
420.0017455935506
 31
0.0
  0
ARC
  5
2627
330
1E
100
AcDbEntity
  8
STEMPEL
100
AcDbCircle
 10
91.60724090697931
 20
421.5017455935505
 30
0.0
 40
1.5
100
AcDbArc
 50
0.0
 51
90.0
  0
LINE
  5
2628
330
1E
100
AcDbEntity
  8
STEMPEL
100
AcDbLine
 10
92.4492409069793
 20
426.0017455935505
 30
0.0
 11
92.4492409069793
 21
423.0017455935506
 31
0.0
  0
ARC
  5
2629
330
1E
100
AcDbEntity
  8
STEMPEL
100
AcDbCircle
 10
104.6072409069793
 20
421.5017455935505
 30
0.0
 40
1.5
100
AcDbArc
 50
90.0
 51
180.0
  0
LINE
  5
262A
330
1E
100
AcDbEntity
  8
STEMPEL
100
AcDbLine
 10
87.10724090697931
 20
423.0017455935506
 30
0.0
 11
108.3312409069793
 21
423.0017455935506
 31
0.0
  0
LINE
  5
262B
330
1E
100
AcDbEntity
  8
STEMPEL
100
AcDbLine
 10
87.10724090697931
 20
426.0017455935505
 30
0.0
 11
87.10724090697931
 21
423.0017455935506
 31
0.0
  0
LINE
  5
262C
330
1E
100
AcDbEntity
  8
STEMPEL
100
AcDbLine
 10
108.3312409069793
 20
426.0017455935505
 30
0.0
 11
87.10724090697931
 21
426.0017455935505
 31
0.0
  0
LINE
  5
262D
330
1E
100
AcDbEntity
  8
STEMPEL
100
AcDbLine
 10
370.0872409069793
 20
423.0017455935506
 30
0.0
 11
348.8642409069794
 21
423.0017455935506
 31
0.0
  0
LINE
  5
262E
330
1E
100
AcDbEntity
  8
STEMPEL
100
AcDbLine
 10
370.0872409069793
 20
426.0017455935505
 30
0.0
 11
370.0872409069793
 21
423.0017455935506
 31
0.0
  0
LINE
  5
262F
330
1E
100
AcDbEntity
  8
STEMPEL
100
AcDbLine
 10
348.8642409069794
 20
426.0017455935505
 30
0.0
 11
370.0872409069793
 21
426.0017455935505
 31
0.0
  0
LINE
  5
2630
330
1E
100
AcDbEntity
  8
STEMPEL
100
AcDbLine
 10
92.4492409069793
 20
429.0017455935505
 30
0.0
 11
92.4492409069793
 21
432.0017455935506
 31
0.0
  0
LINE
  5
2631
330
1E
100
AcDbEntity
  8
STEMPEL
100
AcDbLine
 10
364.7452409069793
 20
429.0017455935505
 30
0.0
 11
364.7452409069793
 21
432.0017455935506
 31
0.0
  0
ARC
  5
2632
330
1E
100
AcDbEntity
  8
STEMPEL
100
AcDbCircle
 10
108.3312409069793
 20
435.0017455935506
 30
0.0
 40
3.0
100
AcDbArc
 50
270.0
 51
356.4315661509996
  0
LINE
  5
2633
330
1E
100
AcDbEntity
  8
STEMPEL
100
AcDbLine
 10
87.10724090697931
 20
432.0017455935506
 30
0.0
 11
108.3312409069793
 21
432.0017455935506
 31
0.0
  0
LINE
  5
2634
330
1E
100
AcDbEntity
  8
STEMPEL
100
AcDbLine
 10
87.10724090697931
 20
429.0017455935505
 30
0.0
 11
87.10724090697931
 21
432.0017455935506
 31
0.0
  0
LINE
  5
2635
330
1E
100
AcDbEntity
  8
STEMPEL
100
AcDbLine
 10
108.3312409069793
 20
429.0017455935505
 30
0.0
 11
87.10724090697931
 21
429.0017455935505
 31
0.0
  0
ARC
  5
2636
330
1E
100
AcDbEntity
  8
STEMPEL
100
AcDbCircle
 10
108.3312409069793
 20
435.0017455935506
 30
0.0
 40
6.0
100
AcDbArc
 50
270.0
 51
356.4315661509996
  0
ARC
  5
2637
330
1E
100
AcDbEntity
  8
STEMPEL
100
AcDbCircle
 10
228.5972409069793
 20
427.5017455935506
 30
0.0
 40
114.5
100
AcDbArc
 50
45.29690916799839
 51
49.466655353001
  0
ARC
  5
2638
330
1E
100
AcDbEntity
  8
STEMPEL
100
AcDbCircle
 10
348.8642409069794
 20
435.0017455935506
 30
0.0
 40
6.0
100
AcDbArc
 50
183.5684338490004
 51
270.0
  0
LINE
  5
2639
330
1E
100
AcDbEntity
  8
STEMPEL
100
AcDbLine
 10
370.0872409069793
 20
429.0017455935505
 30
0.0
 11
348.8642409069794
 21
429.0017455935505
 31
0.0
  0
LINE
  5
263A
330
1E
100
AcDbEntity
  8
STEMPEL
100
AcDbLine
 10
370.0872409069793
 20
432.0017455935506
 30
0.0
 11
370.0872409069793
 21
429.0017455935505
 31
0.0
  0
LINE
  5
263B
330
1E
100
AcDbEntity
  8
STEMPEL
100
AcDbLine
 10
348.8642409069794
 20
432.0017455935506
 30
0.0
 11
370.0872409069793
 21
432.0017455935506
 31
0.0
  0
ARC
  5
263C
330
1E
100
AcDbEntity
  8
STEMPEL
100
AcDbCircle
 10
348.8642409069794
 20
435.0017455935506
 30
0.0
 40
3.0
100
AcDbArc
 50
183.5684338490004
 51
270.0
  0
ARC
  5
263D
330
1E
100
AcDbEntity
  8
STEMPEL
100
AcDbCircle
 10
228.5972409069793
 20
427.5017455935506
 30
0.0
 40
117.5
100
AcDbArc
 50
45.85860037700064
 51
49.90978924599929
  0
LINE
  5
263E
330
1E
100
AcDbEntity
  8
MITTEL
100
AcDbLine
 10
98.10724090697926
 20
397.0017455935505
 30
0.0
 11
98.10724090697931
 21
442.3017455935505
 31
0.0
  0
LINE
  5
263F
330
1E
100
AcDbEntity
  8
MITTEL
100
AcDbLine
 10
359.0872409069793
 20
397.0017455935506
 30
0.0
 11
359.0872409069793
 21
442.3017455935505
 31
0.0
  0
LINE
  5
2640
330
1E
100
AcDbEntity
  8
MITTEL
100
AcDbLine
 10
228.5972409069792
 20
288.7517455935505
 30
0.0
 11
228.5972409069793
 21
553.7517455935506
 31
0.0
  0
LINE
  5
2641
330
1E
100
AcDbEntity
  8
MITTEL
100
AcDbLine
 10
375.0872409069795
 20
427.5017455935506
 30
0.0
 11
82.10724090697937
 21
427.5017455935506
 31
0.0
  0
DIMENSION
  5
2662
330
1E
100
AcDbEntity
  8
BEM
100
AcDbDimension
  2
*D1
 10
359.0822409069795
 20
179.3759922752456
 30
0.0
 11
228.5822409069794
 21
185.8759922752456
 31
0.0
 70
    32
 71
     5
 42
261.0000000000001
  3
Standard
100
AcDbAlignedDimension
 13
98.0822409069794
 23
214.9611375402251
 33
0.0
 14
359.0822409069795
 24
214.9611375402251
 34
0.0
100
AcDbRotatedDimension
1001
ACAD
1000
DSTYLE
1002
{
1070
    40
1040
2.0
1070
    41
1040
3.5
1070
    42
1040
1.0
1070
    43
1040
7.0
1070
    44
1040
1.0
1070
    73
1070
     0
1070
    74
1070
     0
1070
    77
1070
     1
1070
    78
1070
     8
1070
    79
1070
     2
1070
   140
1040
3.5
1070
   141
1040
1.5
1070
   146
1040
0.5142857142857144
1070
   147
1040
1.5
1070
   172
1070
     1
1070
   178
1070
     1
1070
   179
1070
     2
1070
   271
1070
     2
1070
   272
1070
     2
1070
   284
1070
     8
1070
   285
1070
     8
1070
   286
1070
     8
1002
}
  0
DIMENSION
  5
266F
330
1E
100
AcDbEntity
  8
BEM
100
AcDbDimension
  2
*D2
 10
370.0822409069794
 20
164.7134411912
 30
0.0
 11
228.5822409069794
 21
171.2134411912
 31
0.0
 70
    32
 71
     5
 42
283.0
  3
Standard
100
AcDbAlignedDimension
 13
87.08224090697934
 23
226.4611375402251
 33
0.0
 14
370.0822409069794
 24
226.4611375402251
 34
0.0
100
AcDbRotatedDimension
1001
ACAD
1000
DSTYLE
1002
{
1070
    40
1040
2.0
1070
    41
1040
3.5
1070
    42
1040
1.0
1070
    43
1040
7.0
1070
    44
1040
1.0
1070
    73
1070
     0
1070
    74
1070
     0
1070
    77
1070
     1
1070
    78
1070
     8
1070
    79
1070
     2
1070
   140
1040
3.5
1070
   141
1040
1.5
1070
   146
1040
0.5142857142857144
1070
   147
1040
1.5
1070
   172
1070
     1
1070
   178
1070
     1
1070
   179
1070
     2
1070
   271
1070
     2
1070
   272
1070
     2
1070
   284
1070
     8
1070
   285
1070
     8
1070
   286
1070
     8
1002
}
  0
DIMENSION
  5
2695
330
1E
100
AcDbEntity
  8
BEM
100
AcDbDimension
  2
*D3
 10
77.50356045737635
 20
429.0017455935505
 30
0.0
 11
71.00356045737628
 21
447.8684122602173
 31
0.0
 70
    32
 71
     5
 42
3.0
  3
Standard
100
AcDbAlignedDimension
 13
87.10724090697931
 23
426.0017455935505
 33
0.0
 14
87.10724090697931
 24
429.0017455935505
 34
0.0
 50
90.0
100
AcDbRotatedDimension
1001
ACAD
1000
DSTYLE
1002
{
1070
    40
1040
2.0
1070
    41
1040
3.5
1070
    42
1040
1.0
1070
    43
1040
7.0
1070
    44
1040
1.0
1070
    73
1070
     0
1070
    74
1070
     0
1070
    77
1070
     1
1070
    78
1070
     8
1070
    79
1070
     2
1070
   140
1040
3.5
1070
   141
1040
1.5
1070
   146
1040
0.5142857142857144
1070
   147
1040
1.5
1070
   172
1070
     1
1070
   178
1070
     1
1070
   179
1070
     2
1070
   271
1070
     2
1070
   272
1070
     2
1070
   284
1070
     8
1070
   285
1070
     8
1070
   286
1070
     8
1002
}
  0
DIMENSION
  5
26A4
330
1E
100
AcDbEntity
  8
BEM
100
AcDbDimension
  2
*D4
 10
60.6263653584806
 20
548.7517455935505
 30
0.0
 11
54.12636535848051
 21
421.2517455935506
 31
0.0
 70
    32
 71
     5
 42
254.9999999999999
  3
Standard
100
AcDbAlignedDimension
 13
220.3702409069793
 23
293.7517455935506
 33
0.0
 14
228.5972409069793
 24
548.7517455935505
 34
0.0
 50
90.0
100
AcDbRotatedDimension
1001
ACAD
1000
DSTYLE
1002
{
1070
    40
1040
2.0
1070
    41
1040
3.5
1070
    42
1040
1.0
1070
    43
1040
7.0
1070
    44
1040
1.0
1070
    73
1070
     0
1070
    74
1070
     0
1070
    77
1070
     1
1070
    78
1070
     8
1070
    79
1070
     2
1070
   140
1040
3.5
1070
   141
1040
1.5
1070
   146
1040
0.5142857142857144
1070
   147
1040
1.5
1070
   172
1070
     1
1070
   178
1070
     1
1070
   179
1070
     2
1070
   271
1070
     2
1070
   272
1070
     2
1070
   284
1070
     8
1070
   285
1070
     8
1070
   286
1070
     8
1002
}
  0
DIMENSION
  5
26D8
330
1E
100
AcDbEntity
  8
BEM
100
AcDbDimension
  2
*D5
 10
306.6860531341352
 20
511.2417444289457
 30
0.0
 11
256.8475566077274
 21
457.7965001993518
 31
0.0
 70
   160
  1
%%c<>
 71
     5
 42
229.0
  3
Standard
100
AcDbAlignedDimension
 13
150.5084286798233
 23
343.7617467581556
 33
0.0
 14
306.6860531341354
 24
511.2417444289455
 34
0.0
 50
47.00000000000019
100
AcDbRotatedDimension
1001
ACAD
1000
DSTYLE
1002
{
1070
    40
1040
2.0
1070
    41
1040
3.5
1070
    42
1040
1.0
1070
    43
1040
7.0
1070
    44
1040
1.0
1070
    73
1070
     0
1070
    74
1070
     0
1070
    77
1070
     1
1070
    78
1070
     8
1070
    79
1070
     2
1070
   140
1040
3.5
1070
   141
1040
1.5
1070
   146
1040
0.5142857142857144
1070
   147
1040
1.5
1070
   172
1070
     1
1070
   178
1070
     1
1070
   179
1070
     2
1070
   271
1070
     2
1070
   272
1070
     2
1070
   284
1070
     8
1070
   285
1070
     8
1070
   286
1070
     8
1002
}
  0
TEXT
  5
273C
330
1E
100
AcDbEntity
  8
TEXT
 62
     1
100
AcDbText
 10
227.8365522679116
 20
115.6405708316599
 30
0.0
 40
7.0
  1
Werkstoff: St37 Dickschichtpassiviert
 41
0.8
  7
GREEKS
100
AcDbText
  0
DIMENSION
  5
2746
330
1E
100
AcDbEntity
  8
BEM
100
AcDbDimension
  2
*D6
 10
71.00823191204199
 20
206.4611375402248
 30
0.0
 11
64.50823191204197
 21
226.4611375402251
 31
0.0
 70
    32
 71
     5
 42
40.00000000000065
  3
Standard
100
AcDbAlignedDimension
 13
92.44122475560198
 23
246.4611375402254
 33
0.0
 14
92.44122475560198
 24
206.4611375402248
 34
0.0
 50
90.0
100
AcDbRotatedDimension
1001
ACAD
1000
DSTYLE
1002
{
1070
    40
1040
2.0
1070
    41
1040
3.5
1070
    42
1040
1.0
1070
    43
1040
7.0
1070
    44
1040
1.0
1070
    73
1070
     0
1070
    74
1070
     0
1070
    77
1070
     1
1070
    78
1070
     8
1070
    79
1070
     2
1070
   140
1040
3.5
1070
   141
1040
1.5
1070
   146
1040
0.5142857142857144
1070
   147
1040
1.5
1070
   172
1070
     1
1070
   178
1070
     1
1070
   179
1070
     2
1070
   271
1070
     2
1070
   272
1070
     2
1070
   284
1070
     8
1070
   285
1070
     8
1070
   286
1070
     8
1002
}
  0
ENDSEC
  0
SECTION
  2
OBJECTS
  0
DICTIONARY
  5
C
330
0
100
AcDbDictionary
281
     1
  3
ACAD_COLOR
350
DF
  3
ACAD_GROUP
350
D
  3
ACAD_LAYOUT
350
19
  3
ACAD_MATERIAL
350
DE
  3
ACAD_MLINESTYLE
350
16
  3
ACAD_PLOTSETTINGS
350
18
  3
ACAD_PLOTSTYLENAME
350
E
  3
AcDbVariableDictionary
350
EA
  0
DICTIONARY
  5
A0
330
1E
100
AcDbDictionary
280
     1
281
     1
  3
ACAD_LAYOUTSELFREF
360
D4
  0
DICTIONARY
  5
A2
330
1A
100
AcDbDictionary
280
     1
281
     1
  3
ACAD_LAYOUTSELFREF
360
D3
  0
DICTIONARY
  5
DF
102
{ACAD_REACTORS
330
C
102
}
330
C
100
AcDbDictionary
281
     1
  0
DICTIONARY
  5
D
102
{ACAD_REACTORS
330
C
102
}
330
C
100
AcDbDictionary
281
     1
  0
DICTIONARY
  5
19
102
{ACAD_REACTORS
330
C
102
}
330
C
100
AcDbDictionary
281
     1
  3
Layout1
350
1D
  3
Model
350
21
  0
DICTIONARY
  5
DE
102
{ACAD_REACTORS
330
C
102
}
330
C
100
AcDbDictionary
281
     1
  0
DICTIONARY
  5
16
102
{ACAD_REACTORS
330
C
102
}
330
C
100
AcDbDictionary
281
     1
  3
Standard
350
17
  0
DICTIONARY
  5
18
102
{ACAD_REACTORS
330
C
102
}
330
C
100
AcDbDictionary
281
     1
  0
ACDBDICTIONARYWDFLT
  5
E
102
{ACAD_REACTORS
330
C
102
}
330
C
100
AcDbDictionary
281
     1
  3
Normal
350
F
100
AcDbDictionaryWithDefault
340
F
  0
DICTIONARY
  5
EA
102
{ACAD_REACTORS
330
C
102
}
330
C
100
AcDbDictionary
281
     1
  3
DIMASSOC
350
EB
  3
PROJECTNAME
350
EC
  0
XRECORD
  5
D4
102
{ACAD_REACTORS
330
A0
102
}
330
A0
100
AcDbXrecord
280
     1
340
1E
  0
XRECORD
  5
D3
102
{ACAD_REACTORS
330
A2
102
}
330
A2
100
AcDbXrecord
280
     1
340
1A
  0
LAYOUT
  5
1D
102
{ACAD_REACTORS
330
19
102
}
330
19
100
AcDbPlotSettings
  1

  2
\\NT_WORK01\HP LaserJet 5000 PCL 6
  4

  6

 40
0.0
 41
0.0
 42
0.0
 43
0.0
 44
0.0
 45
0.0
 46
0.0
 47
0.0
 48
0.0
 49
0.0
140
0.0
141
0.0
142
1.0
143
1.0
 70
   688
 72
     0
 73
     0
 74
     5
  7

 75
    16
147
1.0
 76
     0
 77
     2
 78
   300
148
0.0
149
0.0
100
AcDbLayout
  1
Layout1
 70
     0
 71
     1
 10
0.0
 20
0.0
 11
12.0
 21
9.0
 12
0.0
 22
0.0
 32
0.0
 14
1.000000000000000E+20
 24
1.000000000000000E+20
 34
1.000000000000000E+20
 15
-1.000000000000000E+20
 25
-1.000000000000000E+20
 35
-1.000000000000000E+20
146
0.0
 13
0.0
 23
0.0
 33
0.0
 16
1.0
 26
0.0
 36
0.0
 17
0.0
 27
1.0
 37
0.0
 76
     0
330
1A
  0
LAYOUT
  5
21
102
{ACAD_REACTORS
330
19
102
}
330
19
100
AcDbPlotSettings
  1

  2
none_device
  4
Letter_(8.50_x_11.00_Inches)
  6

 40
6.349999904632568
 41
6.349999904632568
 42
6.350006103515625
 43
6.350006103515625
 44
215.8999938964844
 45
279.3999938964844
 46
0.0
 47
0.0
 48
0.0
 49
0.0
140
0.0
141
0.0
142
1.0
143
1.0
 70
 11952
 72
     0
 73
     1
 74
     0
  7

 75
     0
147
1.0
 76
     0
 77
     2
 78
   300
148
-230.4417396561563
149
47.00486644638983
100
AcDbLayout
  1
Model
 70
     1
 71
     0
 10
0.0
 20
0.0
 11
12.0
 21
9.0
 12
0.0
 22
0.0
 32
0.0
 14
0.0
 24
0.0
 34
0.0
 15
0.0
 25
0.0
 35
0.0
146
0.0
 13
0.0
 23
0.0
 33
0.0
 16
1.0
 26
0.0
 36
0.0
 17
0.0
 27
1.0
 37
0.0
 76
     0
330
1E
  0
MLINESTYLE
  5
17
102
{ACAD_REACTORS
330
16
102
}
330
16
100
AcDbMlineStyle
  2
STANDARD
 70
     0
  3

 62
   256
 51
90.0
 52
90.0
 71
     2
 49
0.5
 62
   256
  6
BYLAYER
 49
-0.5
 62
   256
  6
BYLAYER
  0
ACDBPLACEHOLDER
  5
F
102
{ACAD_REACTORS
330
E
102
}
330
E
  0
DICTIONARYVAR
  5
EB
102
{ACAD_REACTORS
330
EA
102
}
330
EA
100
DictionaryVariables
280
     0
  1
1
  0
DICTIONARYVAR
  5
EC
102
{ACAD_REACTORS
330
EA
102
}
330
EA
100
DictionaryVariables
280
     0
  1

  0
ENDSEC
  0
EOF
