  0
SECTION
  2
HEADER
  9
$ACADVER
  1
AC1018
  9
$ACADMAINTVER
 70
     2
  9
$DWGCODEPAGE
  3
ANSI_1252
  9
$INSBASE
 10
0.0
 20
0.0
 30
0.0
  9
$EXTMIN
 10
-0.0128164049388033
 20
-0.0181260584133725
 30
-0.0015258207003583
  9
$EXTMAX
 10
420.012818360716
 20
594.0181288244416
 30
0.0000000349246037
  9
$LIMMIN
 10
0.0
 20
0.0
  9
$LIMMAX
 10
419.9999999999999
 20
594.0
  9
$ORTHOMODE
 70
     1
  9
$REGENMODE
 70
     1
  9
$FILLMODE
 70
     1
  9
$QTEXTMODE
 70
     0
  9
$MIRRTEXT
 70
     1
  9
$LTSCALE
 40
20.0
  9
$ATTMODE
 70
     1
  9
$TEXTSIZE
 40
2.5
  9
$TRACEWID
 40
0.5
  9
$TEXTSTYLE
  7
GREEKS
  9
$CLAYER
  8
BEM
  9
$CELTYPE
  6
ByLayer
  9
$CECOLOR
 62
   256
  9
$CELTSCALE
 40
1.0
  9
$DISPSILH
 70
     0
  9
$DIMSCALE
 40
2.0
  9
$DIMASZ
 40
3.5
  9
$DIMEXO
 40
1.0
  9
$DIMDLI
 40
7.0
  9
$DIMRND
 40
0.0
  9
$DIMDLE
 40
0.0
  9
$DIMEXE
 40
1.0
  9
$DIMTP
 40
0.0
  9
$DIMTM
 40
0.0
  9
$DIMTXT
 40
3.5
  9
$DIMCEN
 40
1.5
  9
$DIMTSZ
 40
0.0
  9
$DIMTOL
 70
     0
  9
$DIMLIM
 70
     0
  9
$DIMTIH
 70
     0
  9
$DIMTOH
 70
     0
  9
$DIMSE1
 70
     0
  9
$DIMSE2
 70
     0
  9
$DIMTAD
 70
     1
  9
$DIMZIN
 70
     8
  9
$DIMBLK
  1

  9
$DIMASO
 70
     1
  9
$DIMSHO
 70
     0
  9
$DIMPOST
  1

  9
$DIMAPOST
  1

  9
$DIMALT
 70
     0
  9
$DIMALTD
 70
     2
  9
$DIMALTF
 40
25.4
  9
$DIMLFAC
 40
1.0
  9
$DIMTOFL
 70
     1
  9
$DIMTVP
 40
0.0
  9
$DIMTIX
 70
     0
  9
$DIMSOXD
 70
     0
  9
$DIMSAH
 70
     0
  9
$DIMBLK1
  1

  9
$DIMBLK2
  1

  9
$DIMSTYLE
  2
Standard
  9
$DIMCLRD
 70
     0
  9
$DIMCLRE
 70
     0
  9
$DIMCLRT
 70
     1
  9
$DIMTFAC
 40
0.5142857142857144
  9
$DIMGAP
 40
1.5
  9
$DIMJUST
 70
     0
  9
$DIMSD1
 70
     0
  9
$DIMSD2
 70
     0
  9
$DIMTOLJ
 70
     1
  9
$DIMTZIN
 70
     8
  9
$DIMALTZ
 70
     8
  9
$DIMALTTZ
 70
     8
  9
$DIMUPT
 70
     0
  9
$DIMDEC
 70
     2
  9
$DIMTDEC
 70
     2
  9
$DIMALTU
 70
     2
  9
$DIMALTTD
 70
     2
  9
$DIMTXSTY
  7
STANDARD
  9
$DIMAUNIT
 70
     0
  9
$DIMADEC
 70
     2
  9
$DIMALTRND
 40
0.0
  9
$DIMAZIN
 70
     2
  9
$DIMDSEP
 70
    46
  9
$DIMATFIT
 70
     3
  9
$DIMFRAC
 70
     0
  9
$DIMLDRBLK
  1

  9
$DIMLUNIT
 70
     2
  9
$DIMLWD
 70
    -2
  9
$DIMLWE
 70
    -2
  9
$DIMTMOVE
 70
     0
  9
$LUNITS
 70
     2
  9
$LUPREC
 70
     2
  9
$SKETCHINC
 40
1.0
  9
$FILLETRAD
 40
0.0
  9
$AUNITS
 70
     0
  9
$AUPREC
 70
     0
  9
$MENU
  1
ACAD
  9
$ELEVATION
 40
0.0
  9
$PELEVATION
 40
0.0
  9
$THICKNESS
 40
0.0
  9
$LIMCHECK
 70
     0
  9
$CHAMFERA
 40
0.0
  9
$CHAMFERB
 40
0.0
  9
$CHAMFERC
 40
0.0
  9
$CHAMFERD
 40
0.0
  9
$SKPOLY
 70
     0
  9
$TDCREATE
 40
2455397.823042361
  9
$TDUCREATE
 40
2455397.781375695
  9
$TDUPDATE
 40
2456230.315033704
  9
$TDUUPDATE
 40
2456230.273367037
  9
$TDINDWG
 40
0.3430021412
  9
$TDUSRTIMER
 40
0.3430021412
  9
$USRTIMER
 70
     1
  9
$ANGBASE
 50
0.0
  9
$ANGDIR
 70
     0
  9
$PDMODE
 70
     0
  9
$PDSIZE
 40
0.0
  9
$PLINEWID
 40
0.0
  9
$SPLFRAME
 70
     0
  9
$SPLINETYPE
 70
     6
  9
$SPLINESEGS
 70
     8
  9
$HANDSEED
  5
242A
  9
$SURFTAB1
 70
     6
  9
$SURFTAB2
 70
     6
  9
$SURFTYPE
 70
     6
  9
$SURFU
 70
     6
  9
$SURFV
 70
     6
  9
$UCSBASE
  2

  9
$UCSNAME
  2

  9
$UCSORG
 10
0.0
 20
0.0
 30
0.0
  9
$UCSXDIR
 10
1.0
 20
0.0
 30
0.0
  9
$UCSYDIR
 10
0.0
 20
1.0
 30
0.0
  9
$UCSORTHOREF
  2

  9
$UCSORTHOVIEW
 70
     0
  9
$UCSORGTOP
 10
0.0
 20
0.0
 30
0.0
  9
$UCSORGBOTTOM
 10
0.0
 20
0.0
 30
0.0
  9
$UCSORGLEFT
 10
0.0
 20
0.0
 30
0.0
  9
$UCSORGRIGHT
 10
0.0
 20
0.0
 30
0.0
  9
$UCSORGFRONT
 10
0.0
 20
0.0
 30
0.0
  9
$UCSORGBACK
 10
0.0
 20
0.0
 30
0.0
  9
$PUCSBASE
  2

  9
$PUCSNAME
  2

  9
$PUCSORG
 10
0.0
 20
0.0
 30
0.0
  9
$PUCSXDIR
 10
1.0
 20
0.0
 30
0.0
  9
$PUCSYDIR
 10
0.0
 20
1.0
 30
0.0
  9
$PUCSORTHOREF
  2

  9
$PUCSORTHOVIEW
 70
     0
  9
$PUCSORGTOP
 10
0.0
 20
0.0
 30
0.0
  9
$PUCSORGBOTTOM
 10
0.0
 20
0.0
 30
0.0
  9
$PUCSORGLEFT
 10
0.0
 20
0.0
 30
0.0
  9
$PUCSORGRIGHT
 10
0.0
 20
0.0
 30
0.0
  9
$PUCSORGFRONT
 10
0.0
 20
0.0
 30
0.0
  9
$PUCSORGBACK
 10
0.0
 20
0.0
 30
0.0
  9
$USERI1
 70
     0
  9
$USERI2
 70
     0
  9
$USERI3
 70
     0
  9
$USERI4
 70
     0
  9
$USERI5
 70
     0
  9
$USERR1
 40
0.0
  9
$USERR2
 40
0.0
  9
$USERR3
 40
0.0
  9
$USERR4
 40
0.0
  9
$USERR5
 40
0.0
  9
$WORLDVIEW
 70
     1
  9
$SHADEDGE
 70
     3
  9
$SHADEDIF
 70
    70
  9
$TILEMODE
 70
     1
  9
$MAXACTVP
 70
    16
  9
$PINSBASE
 10
0.0
 20
0.0
 30
0.0
  9
$PLIMCHECK
 70
     0
  9
$PEXTMIN
 10
1.000000000000000E+20
 20
1.000000000000000E+20
 30
1.000000000000000E+20
  9
$PEXTMAX
 10
-1.000000000000000E+20
 20
-1.000000000000000E+20
 30
-1.000000000000000E+20
  9
$PLIMMIN
 10
0.0
 20
0.0
  9
$PLIMMAX
 10
12.0
 20
9.0
  9
$UNITMODE
 70
     0
  9
$VISRETAIN
 70
     0
  9
$PLINEGEN
 70
     0
  9
$PSLTSCALE
 70
     0
  9
$TREEDEPTH
 70
  3020
  9
$CMLSTYLE
  2
Standard
  9
$CMLJUST
 70
     0
  9
$CMLSCALE
 40
1.0
  9
$PROXYGRAPHICS
 70
     1
  9
$MEASUREMENT
 70
     0
  9
$CELWEIGHT
370
    -1
  9
$ENDCAPS
280
     0
  9
$JOINSTYLE
280
     0
  9
$LWDISPLAY
290
     0
  9
$INSUNITS
 70
     0
  9
$HYPERLINKBASE
  1

  9
$STYLESHEET
  1
monochrome 1.ctb
  9
$XEDIT
290
     1
  9
$CEPSNTYPE
380
     0
  9
$PSTYLEMODE
290
     1
  9
$FINGERPRINTGUID
  2
{D68B0D02-A558-11D7-B632-000102183313}
  9
$VERSIONGUID
  2
{FE3A6E92-3574-4678-8CC8-9B61CBF46170}
  9
$EXTNAMES
290
     1
  9
$PSVPSCALE
 40
0.0
  9
$OLESTARTUP
290
     0
  9
$SORTENTS
280
   127
  9
$INDEXCTL
280
     0
  9
$HIDETEXT
280
     0
  9
$XCLIPFRAME
290
     0
  9
$HALOGAP
280
     0
  9
$OBSCOLOR
 70
   257
  9
$OBSLTYPE
280
     0
  9
$INTERSECTIONDISPLAY
280
     0
  9
$INTERSECTIONCOLOR
 70
   257
  9
$DIMASSOC
280
     1
  9
$PROJECTNAME
  1

  0
ENDSEC
  0
SECTION
  2
CLASSES
  0
CLASS
  1
ACDBDICTIONARYWDFLT
  2
AcDbDictionaryWithDefault
  3
ObjectDBX Classes
 90
        0
 91
        1
280
     0
281
     0
  0
CLASS
  1
DICTIONARYVAR
  2
AcDbDictionaryVar
  3
ObjectDBX Classes
 90
        0
 91
        2
280
     0
281
     0
  0
ENDSEC
  0
SECTION
  2
TABLES
  0
TABLE
  2
VPORT
  5
8
330
0
100
AcDbSymbolTable
 70
     3
  0
VPORT
  5
2429
330
8
100
AcDbSymbolTableRecord
100
AcDbViewportTableRecord
  2
*Active
 70
     0
 10
0.0
 20
0.0
 11
1.0
 21
1.0
 12
209.9999999999999
 22
297.0
 13
0.0
 23
0.0
 14
1.0
 24
1.0
 15
10.0
 25
10.0
 16
0.0
 26
0.0
 36
1.0
 17
0.0
 27
0.0
 37
0.0
 40
594.3408430342983
 41
1.404858299595141
 42
50.0
 43
0.0
 44
0.0
 50
0.0
 51
0.0
 71
     0
 72
  1500
 73
     1
 74
     0
 75
     0
 76
     0
 77
     0
 78
     0
281
     0
 65
     1
110
0.0
120
0.0
130
0.0
111
1.0
121
0.0
131
0.0
112
0.0
122
1.0
132
0.0
 79
     0
146
0.0
  0
ENDTAB
  0
TABLE
  2
LTYPE
  5
5
330
0
100
AcDbSymbolTable
 70
     2
  0
LTYPE
  5
13
330
5
100
AcDbSymbolTableRecord
100
AcDbLinetypeTableRecord
  2
ByBlock
 70
     0
  3

 72
    65
 73
     0
 40
0.0
  0
LTYPE
  5
14
330
5
100
AcDbSymbolTableRecord
100
AcDbLinetypeTableRecord
  2
ByLayer
 70
     0
  3

 72
    65
 73
     0
 40
0.0
  0
LTYPE
  5
15
330
5
100
AcDbSymbolTableRecord
100
AcDbLinetypeTableRecord
  2
Continuous
 70
     0
  3
Solid line
 72
    65
 73
     0
 40
0.0
  0
LTYPE
  5
25
330
5
100
AcDbSymbolTableRecord
100
AcDbLinetypeTableRecord
  2
STRICHPUNKT
 70
     0
  3
__ . __ . __ . __ . __ . __ . __ . __ . __ . __
 72
    65
 73
     4
 40
1.0
 49
0.5
 74
     0
 49
-0.25
 74
     0
 49
0.0
 74
     0
 49
-0.25
 74
     0
  0
ENDTAB
  0
TABLE
  2
LAYER
  5
2
330
0
100
AcDbSymbolTable
 70
     8
  0
LAYER
  5
10
330
2
100
AcDbSymbolTableRecord
100
AcDbLayerTableRecord
  2
0
 70
     0
 62
     7
  6
Continuous
370
    -3
390
F
  0
LAYER
  5
2A
330
2
100
AcDbSymbolTableRecord
100
AcDbLayerTableRecord
  2
VOLL
 70
     0
 62
     1
  6
Continuous
370
    -3
390
F
  0
LAYER
  5
2B
330
2
100
AcDbSymbolTableRecord
100
AcDbLayerTableRecord
  2
HILF
 70
     0
 62
     2
  6
Continuous
370
    -3
390
F
  0
LAYER
  5
2C
330
2
100
AcDbSymbolTableRecord
100
AcDbLayerTableRecord
  2
MITTEL
 70
     0
 62
     2
  6
STRICHPUNKT
370
    -3
390
F
  0
LAYER
  5
2F
330
2
100
AcDbSymbolTableRecord
100
AcDbLayerTableRecord
  2
BEM
 70
     0
 62
     7
  6
Continuous
370
    -3
390
F
  0
LAYER
  5
30
330
2
100
AcDbSymbolTableRecord
100
AcDbLayerTableRecord
  2
STEMPEL
 70
     0
 62
     3
  6
Continuous
370
    -3
390
F
  0
LAYER
  5
31
330
2
100
AcDbSymbolTableRecord
100
AcDbLayerTableRecord
  2
TEXT
 70
     0
 62
     7
  6
Continuous
370
    -3
390
F
  0
LAYER
  5
1A8
330
2
100
AcDbSymbolTableRecord
100
AcDbLayerTableRecord
  2
Defpoints
 70
     0
 62
     7
  6
Continuous
290
     0
370
    -3
390
F
  0
ENDTAB
  0
TABLE
  2
STYLE
  5
3
330
0
100
AcDbSymbolTable
 70
     2
  0
STYLE
  5
11
330
3
100
AcDbSymbolTableRecord
100
AcDbTextStyleTableRecord
  2
STANDARD
 70
     0
 40
0.0
 41
0.8
 50
0.0
 71
     0
 42
3.5
  3
simplex.shx
  4

  0
STYLE
  5
24
330
3
100
AcDbSymbolTableRecord
100
AcDbTextStyleTableRecord
  2
GREEKS
 70
     0
 40
0.0
 41
0.8
 50
0.0
 71
     0
 42
2.5
  3
SIMPLEX.shx
  4

  0
ENDTAB
  0
TABLE
  2
VIEW
  5
6
330
0
100
AcDbSymbolTable
 70
     0
  0
ENDTAB
  0
TABLE
  2
UCS
  5
7
330
0
100
AcDbSymbolTable
 70
     0
  0
ENDTAB
  0
TABLE
  2
APPID
  5
9
330
0
100
AcDbSymbolTable
 70
     1
  0
APPID
  5
12
330
9
100
AcDbSymbolTableRecord
100
AcDbRegAppTableRecord
  2
ACAD
 70
     0
  0
ENDTAB
  0
TABLE
  2
DIMSTYLE
  5
A
330
0
100
AcDbSymbolTable
 70
     1
100
AcDbDimStyleTable
 71
     1
340
9D
  0
DIMSTYLE
105
9D
102
{ACAD_REACTORS
330
2343
330
2350
330
2367
330
2383
330
23CE
330
2417
102
}
330
A
100
AcDbSymbolTableRecord
100
AcDbDimStyleTableRecord
  2
Standard
 70
     0
340
11
  0
ENDTAB
  0
TABLE
  2
BLOCK_RECORD
  5
1
330
0
100
AcDbSymbolTable
 70
     7
  0
BLOCK_RECORD
  5
1E
102
{ACAD_XDICTIONARY
360
A0
102
}
330
1
100
AcDbSymbolTableRecord
100
AcDbBlockTableRecord
  2
*Model_Space
340
21
  0
BLOCK_RECORD
  5
1A
102
{ACAD_XDICTIONARY
360
A2
102
}
330
1
100
AcDbSymbolTableRecord
100
AcDbBlockTableRecord
  2
*Paper_Space
340
1D
  0
BLOCK_RECORD
  5
22
330
1
100
AcDbSymbolTableRecord
100
AcDbBlockTableRecord
  2
LOGO
340
0
102
{BLKREFS
331
9B
102
}
  0
BLOCK_RECORD
  5
2344
330
1
100
AcDbSymbolTableRecord
100
AcDbBlockTableRecord
  2
*D1
340
0
  0
BLOCK_RECORD
  5
2351
330
1
100
AcDbSymbolTableRecord
100
AcDbBlockTableRecord
  2
*D2
340
0
  0
BLOCK_RECORD
  5
2368
330
1
100
AcDbSymbolTableRecord
100
AcDbBlockTableRecord
  2
*D3
340
0
  0
BLOCK_RECORD
  5
2384
330
1
100
AcDbSymbolTableRecord
100
AcDbBlockTableRecord
  2
*D4
340
0
  0
BLOCK_RECORD
  5
23CF
330
1
100
AcDbSymbolTableRecord
100
AcDbBlockTableRecord
  2
*D5
340
0
  0
BLOCK_RECORD
  5
2418
330
1
100
AcDbSymbolTableRecord
100
AcDbBlockTableRecord
  2
*D6
340
0
  0
ENDTAB
  0
ENDSEC
  0
SECTION
  2
BLOCKS
  0
BLOCK
  5
35
330
1E
100
AcDbEntity
  8
0
100
AcDbBlockBegin
  2
*Model_Space
 70
     0
 10
0.0
 20
0.0
 30
0.0
  3
*Model_Space
  1

  0
ENDBLK
  5
36
330
1E
100
AcDbEntity
  8
0
100
AcDbBlockEnd
  0
BLOCK
  5
33
330
1A
100
AcDbEntity
 67
     1
  8
0
100
AcDbBlockBegin
  2
*Paper_Space
 70
     0
 10
0.0
 20
0.0
 30
0.0
  3
*Paper_Space
  1

  0
ENDBLK
  5
34
330
1A
100
AcDbEntity
 67
     1
  8
0
100
AcDbBlockEnd
  0
BLOCK
  5
37
330
22
100
AcDbEntity
  8
0
100
AcDbBlockBegin
  2
LOGO
 70
     0
 10
0.0
 20
0.0
 30
0.0
  3
LOGO
  1

  0
ARC
  5
38
330
22
100
AcDbEntity
  8
0
100
AcDbCircle
 10
11.59973089678112
 20
-9.271599258481501
 30
0.0
 40
4.5
100
AcDbArc
 50
270.0
 51
231.0575587310159
  0
LINE
  5
39
330
22
100
AcDbEntity
  8
0
100
AcDbLine
 10
3.599730896781125
 20
-4.771599258481529
 30
0.0
 11
3.599730896781153
 21
-11.77159925848133
 31
0.0
  0
LINE
  5
3A
330
22
100
AcDbEntity
  8
0
100
AcDbLine
 10
2.599730896781125
 20
-4.771599258481529
 30
0.0
 11
2.599730896781153
 21
-11.77159925848133
 31
0.0
  0
CIRCLE
  5
3B
330
22
100
AcDbEntity
  8
0
100
AcDbCircle
 10
11.59973089678112
 20
-9.271599258481501
 30
0.0
 40
3.5
  0
ARC
  5
3C
330
22
100
AcDbEntity
  8
0
100
AcDbCircle
 10
31.59973089678115
 20
-9.271599258481472
 30
0.0
 40
4.5
100
AcDbArc
 50
270.0
 51
231.0575587310182
  0
LINE
  5
3D
330
22
100
AcDbEntity
  8
0
100
AcDbLine
 10
17.59973089678112
 20
-4.771599258481472
 30
0.0
 11
17.59973089678115
 21
-13.77159925848147
 31
0.0
  0
ARC
  5
3E
330
22
100
AcDbEntity
  8
0
100
AcDbCircle
 10
22.59973089678116
 20
-7.271599258481472
 30
0.0
 40
2.5
100
AcDbArc
 50
293.1161887722295
 51
90.0
  0
CIRCLE
  5
3F
330
22
100
AcDbEntity
  8
0
100
AcDbCircle
 10
31.59973089678115
 20
-9.271599258481472
 30
0.0
 40
3.5
  0
ARC
  5
40
330
22
100
AcDbEntity
  8
0
100
AcDbCircle
 10
4.599730896781153
 20
-11.77159925848133
 30
0.0
 40
1.0
100
AcDbArc
 50
180.0
 51
270.0
  0
ARC
  5
41
330
22
100
AcDbEntity
  8
0
100
AcDbCircle
 10
4.599730896781153
 20
-11.77159925848133
 30
0.0
 40
2.0
100
AcDbArc
 50
179.9999999999992
 51
270.0
  0
LINE
  5
42
330
22
100
AcDbEntity
  8
0
100
AcDbLine
 10
11.59973089678115
 20
-13.77159925848144
 30
0.0
 11
4.599730896781153
 21
-13.77159925848147
 31
0.0
  0
LINE
  5
43
330
22
100
AcDbEntity
  8
0
100
AcDbLine
 10
8.771303772034769
 20
-12.77159925848136
 30
0.0
 11
4.599730896781153
 21
-12.77159925848133
 31
0.0
  0
LINE
  5
44
330
22
100
AcDbEntity
  8
0
100
AcDbLine
 10
31.59973089678115
 20
-13.77159925848147
 30
0.0
 11
23.6715276665056
 21
-13.77159925848144
 31
0.0
  0
LINE
  5
45
330
22
100
AcDbEntity
  8
0
100
AcDbLine
 10
23.56565672307022
 20
-9.51278021337896
 30
0.0
 11
24.4388546544846
 21
-12.77159925848144
 31
0.0
  0
LINE
  5
46
330
22
100
AcDbEntity
  8
0
100
AcDbLine
 10
22.59973089678116
 20
-9.771599258481472
 30
0.0
 11
18.59973089678112
 21
-9.771599258481472
 31
0.0
  0
LINE
  5
47
330
22
100
AcDbEntity
  8
0
100
AcDbLine
 10
18.59973089678115
 20
-13.77159925848144
 30
0.0
 11
17.59973089678115
 21
-13.77159925848144
 31
0.0
  0
LINE
  5
48
330
22
100
AcDbEntity
  8
0
100
AcDbLine
 10
18.59973089678115
 20
-9.771599258481472
 30
0.0
 11
18.59973089678115
 21
-13.77159925848144
 31
0.0
  0
LINE
  5
49
330
22
100
AcDbEntity
  8
0
100
AcDbLine
 10
22.59973089678116
 20
-9.771599258481472
 30
0.0
 11
23.67152766650562
 21
-13.77159925848147
 31
0.0
  0
ARC
  5
4A
330
22
100
AcDbEntity
  8
0
100
AcDbCircle
 10
22.59973089678116
 20
-7.271599258481472
 30
0.0
 40
2.5
100
AcDbArc
 50
270.0
 51
270.0000000000007
  0
LINE
  5
4B
330
22
100
AcDbEntity
  8
0
100
AcDbLine
 10
28.77130377203494
 20
-12.77159925848147
 30
0.0
 11
24.43885465448463
 21
-12.77159925848144
 31
0.0
  0
LINE
  5
4C
330
22
100
AcDbEntity
  8
0
100
AcDbLine
 10
3.599730896781125
 20
-4.771599258481472
 30
0.0
 11
2.599730896781125
 21
-4.771599258481472
 31
0.0
  0
LINE
  5
4D
330
22
100
AcDbEntity
  8
0
100
AcDbLine
 10
22.59973089678116
 20
-8.771599258481472
 30
0.0
 11
18.59973089678115
 21
-8.771599258481472
 31
0.0
  0
LINE
  5
4E
330
22
100
AcDbEntity
  8
0
100
AcDbLine
 10
22.59973089678116
 20
-5.771599258481472
 30
0.0
 11
18.59973089678115
 21
-5.771599258481472
 31
0.0
  0
LINE
  5
4F
330
22
100
AcDbEntity
  8
0
100
AcDbLine
 10
22.59973089678116
 20
-4.771599258481472
 30
0.0
 11
17.59973089678115
 21
-4.771599258481472
 31
0.0
  0
LINE
  5
50
330
22
100
AcDbEntity
  8
0
100
AcDbLine
 10
18.59973089678115
 20
-5.771599258481472
 30
0.0
 11
18.59973089678115
 21
-8.771599258481472
 31
0.0
  0
ARC
  5
51
330
22
100
AcDbEntity
  8
0
100
AcDbCircle
 10
22.59973089678116
 20
-7.271599258481472
 30
0.0
 40
1.5
100
AcDbArc
 50
270.0
 51
90.0
  0
ENDBLK
  5
52
330
22
100
AcDbEntity
  8
0
100
AcDbBlockEnd
  0
BLOCK
  5
234E
330
2344
100
AcDbEntity
  8
0
100
AcDbBlockBegin
  2
*D1
 70
     1
 10
0.0
 20
0.0
 30
0.0
  3
*D1
  1

  0
LINE
  5
23AD
330
2344
100
AcDbEntity
  8
BEM
 62
     0
370
    -2
100
AcDbLine
 10
114.7757079731784
 20
223.5489285121885
 30
0.0
 11
114.7757079731784
 21
187.4372981278057
 31
0.0
  0
LINE
  5
23AE
330
2344
100
AcDbEntity
  8
BEM
 62
     0
370
    -2
100
AcDbLine
 10
329.7757079731785
 20
222.5939285121885
 30
0.0
 11
329.7757079731785
 21
187.4372981278057
 31
0.0
  0
LINE
  5
23AF
330
2344
100
AcDbEntity
  8
BEM
 62
     0
370
    -2
100
AcDbLine
 10
121.7757079731784
 20
189.4372981278056
 30
0.0
 11
322.7757079731786
 21
189.4372981278056
 31
0.0
  0
SOLID
  5
23B0
330
2344
100
AcDbEntity
  8
BEM
 62
     0
100
AcDbTrace
 10
121.7757079731784
 20
190.6039647944723
 30
0.0
 11
121.7757079731784
 21
188.270631461139
 31
0.0
 12
114.7757079731784
 22
189.4372981278056
 32
0.0
 13
114.7757079731784
 23
189.4372981278056
 33
0.0
  0
SOLID
  5
23B1
330
2344
100
AcDbEntity
  8
BEM
 62
     0
100
AcDbTrace
 10
322.7757079731786
 20
190.6039647944723
 30
0.0
 11
322.7757079731786
 21
188.270631461139
 31
0.0
 12
329.7757079731785
 22
189.4372981278056
 32
0.0
 13
329.7757079731785
 23
189.4372981278056
 33
0.0
  0
MTEXT
  5
23B2
330
2344
100
AcDbEntity
  8
BEM
 62
     1
100
AcDbMText
 10
222.2757079731785
 20
195.9372981278056
 30
0.0
 40
7.0
 41
0.0
 71
     5
 72
     1
  1
\A1;215
 73
     1
 44
1.0
  0
POINT
  5
23B3
330
2344
100
AcDbEntity
  8
Defpoints
 62
     0
100
AcDbPoint
 10
114.7757079731784
 20
225.5489285121885
 30
0.0
  0
POINT
  5
23B4
330
2344
100
AcDbEntity
  8
Defpoints
 62
     0
100
AcDbPoint
 10
329.7757079731785
 20
224.5939285121885
 30
0.0
  0
POINT
  5
23B5
330
2344
100
AcDbEntity
  8
Defpoints
 62
     0
100
AcDbPoint
 10
329.7757079731785
 20
189.4372981278056
 30
0.0
  0
ENDBLK
  5
234F
330
2344
100
AcDbEntity
  8
0
100
AcDbBlockEnd
  0
BLOCK
  5
235B
330
2351
100
AcDbEntity
  8
0
100
AcDbBlockBegin
  2
*D2
 70
     1
 10
0.0
 20
0.0
 30
0.0
  3
*D2
  1

  0
LINE
  5
23A4
330
2351
100
AcDbEntity
  8
BEM
 62
     0
370
    -2
100
AcDbLine
 10
103.7757079731785
 20
234.0939285121884
 30
0.0
 11
103.7757079731785
 21
172.3006088414131
 31
0.0
  0
LINE
  5
23A5
330
2351
100
AcDbEntity
  8
BEM
 62
     0
370
    -2
100
AcDbLine
 10
340.7757079731786
 20
234.0939285121884
 30
0.0
 11
340.7757079731786
 21
172.3006088414131
 31
0.0
  0
LINE
  5
23A6
330
2351
100
AcDbEntity
  8
BEM
 62
     0
370
    -2
100
AcDbLine
 10
110.7757079731785
 20
174.3006088414131
 30
0.0
 11
333.7757079731785
 21
174.3006088414131
 31
0.0
  0
SOLID
  5
23A7
330
2351
100
AcDbEntity
  8
BEM
 62
     0
100
AcDbTrace
 10
110.7757079731785
 20
175.4672755080798
 30
0.0
 11
110.7757079731785
 21
173.1339421747464
 31
0.0
 12
103.7757079731785
 22
174.3006088414131
 32
0.0
 13
103.7757079731785
 23
174.3006088414131
 33
0.0
  0
SOLID
  5
23A8
330
2351
100
AcDbEntity
  8
BEM
 62
     0
100
AcDbTrace
 10
333.7757079731785
 20
175.4672755080798
 30
0.0
 11
333.7757079731785
 21
173.1339421747464
 31
0.0
 12
340.7757079731786
 22
174.3006088414131
 32
0.0
 13
340.7757079731786
 23
174.3006088414131
 33
0.0
  0
MTEXT
  5
23A9
330
2351
100
AcDbEntity
  8
BEM
 62
     1
100
AcDbMText
 10
222.2757079731786
 20
180.8006088414131
 30
0.0
 40
7.0
 41
0.0
 71
     5
 72
     1
  1
\A1;237
 73
     1
 44
1.0
  0
POINT
  5
23AA
330
2351
100
AcDbEntity
  8
Defpoints
 62
     0
100
AcDbPoint
 10
103.7757079731785
 20
236.0939285121884
 30
0.0
  0
POINT
  5
23AB
330
2351
100
AcDbEntity
  8
Defpoints
 62
     0
100
AcDbPoint
 10
340.7757079731786
 20
236.0939285121884
 30
0.0
  0
POINT
  5
23AC
330
2351
100
AcDbEntity
  8
Defpoints
 62
     0
100
AcDbPoint
 10
340.7757079731786
 20
174.3006088414131
 30
0.0
  0
ENDBLK
  5
235C
330
2351
100
AcDbEntity
  8
0
100
AcDbBlockEnd
  0
BLOCK
  5
2374
330
2368
100
AcDbEntity
  8
0
100
AcDbBlockBegin
  2
*D3
 70
     1
 10
0.0
 20
0.0
 30
0.0
  3
*D3
  1

  0
LINE
  5
2399
330
2368
100
AcDbEntity
  8
BEM
 62
     0
370
    -2
100
AcDbLine
 10
101.7757079731785
 20
425.3833814117621
 30
0.0
 11
93.92003404880824
 21
425.3833814117621
 31
0.0
  0
LINE
  5
239A
330
2368
100
AcDbEntity
  8
BEM
 62
     0
370
    -2
100
AcDbLine
 10
101.7757079731785
 20
428.3833814117621
 30
0.0
 11
93.92003404880824
 21
428.3833814117621
 31
0.0
  0
LINE
  5
239B
330
2368
100
AcDbEntity
  8
BEM
 62
     0
370
    -2
100
AcDbLine
 10
95.92003404880825
 20
418.3833814117622
 30
0.0
 11
95.92003404880824
 21
411.3833814117621
 31
0.0
  0
LINE
  5
239C
330
2368
100
AcDbEntity
  8
BEM
 62
     0
370
    -2
100
AcDbLine
 10
95.92003404880825
 20
435.3833814117622
 30
0.0
 11
95.92003404880825
 21
452.1167147450955
 31
0.0
  0
LINE
  5
239D
330
2368
100
AcDbEntity
  8
BEM
 62
     0
370
    -2
100
AcDbLine
 10
95.92003404880825
 20
425.3833814117621
 30
0.0
 11
95.92003404880825
 21
428.3833814117621
 31
0.0
  0
SOLID
  5
239E
330
2368
100
AcDbEntity
  8
BEM
 62
     0
100
AcDbTrace
 10
94.75336738214158
 20
418.3833814117622
 30
0.0
 11
97.08670071547492
 21
418.3833814117622
 31
0.0
 12
95.92003404880825
 22
425.3833814117621
 32
0.0
 13
95.92003404880825
 23
425.3833814117621
 33
0.0
  0
SOLID
  5
239F
330
2368
100
AcDbEntity
  8
BEM
 62
     0
100
AcDbTrace
 10
94.75336738214158
 20
435.3833814117622
 30
0.0
 11
97.08670071547492
 21
435.3833814117622
 31
0.0
 12
95.92003404880825
 22
428.3833814117621
 32
0.0
 13
95.92003404880825
 23
428.3833814117621
 33
0.0
  0
MTEXT
  5
23A0
330
2368
100
AcDbEntity
  8
BEM
 62
     1
100
AcDbMText
 10
89.42003404880818
 20
447.2500480784288
 30
0.0
 40
7.0
 41
0.0
 71
     5
 72
     1
  1
\A1;3
 11
0.0000000000000001
 21
1.0
 31
0.0
 73
     1
 44
1.0
  0
POINT
  5
23A1
330
2368
100
AcDbEntity
  8
Defpoints
 62
     0
100
AcDbPoint
 10
103.7757079731785
 20
425.3833814117621
 30
0.0
  0
POINT
  5
23A2
330
2368
100
AcDbEntity
  8
Defpoints
 62
     0
100
AcDbPoint
 10
103.7757079731785
 20
428.3833814117621
 30
0.0
  0
POINT
  5
23A3
330
2368
100
AcDbEntity
  8
Defpoints
 62
     0
100
AcDbPoint
 10
95.92003404880825
 20
428.3833814117621
 30
0.0
  0
ENDBLK
  5
2375
330
2368
100
AcDbEntity
  8
0
100
AcDbBlockEnd
  0
BLOCK
  5
238E
330
2384
100
AcDbEntity
  8
0
100
AcDbBlockBegin
  2
*D4
 70
     1
 10
0.0
 20
0.0
 30
0.0
  3
*D4
  1

  0
LINE
  5
2390
330
2384
100
AcDbEntity
  8
BEM
 62
     0
370
    -2
100
AcDbLine
 10
212.0637079731785
 20
315.1333814117622
 30
0.0
 11
78.12021557731618
 21
315.1333814117622
 31
0.0
  0
LINE
  5
2391
330
2384
100
AcDbEntity
  8
BEM
 62
     0
370
    -2
100
AcDbLine
 10
220.2907079731785
 20
526.1333814117622
 30
0.0
 11
78.12021557731623
 21
526.1333814117622
 31
0.0
  0
LINE
  5
2392
330
2384
100
AcDbEntity
  8
BEM
 62
     0
370
    -2
100
AcDbLine
 10
80.12021557731619
 20
322.1333814117622
 30
0.0
 11
80.12021557731623
 21
519.1333814117622
 31
0.0
  0
SOLID
  5
2393
330
2384
100
AcDbEntity
  8
BEM
 62
     0
100
AcDbTrace
 10
78.95354891064951
 20
322.1333814117622
 30
0.0
 11
81.28688224398286
 21
322.1333814117622
 31
0.0
 12
80.12021557731619
 22
315.1333814117622
 32
0.0
 13
80.12021557731619
 23
315.1333814117622
 33
0.0
  0
SOLID
  5
2394
330
2384
100
AcDbEntity
  8
BEM
 62
     0
100
AcDbTrace
 10
78.95354891064956
 20
519.1333814117622
 30
0.0
 11
81.2868822439829
 21
519.1333814117622
 31
0.0
 12
80.12021557731623
 22
526.1333814117622
 32
0.0
 13
80.12021557731623
 23
526.1333814117622
 33
0.0
  0
MTEXT
  5
2395
330
2384
100
AcDbEntity
  8
BEM
 62
     1
100
AcDbMText
 10
73.62021557731615
 20
420.6333814117622
 30
0.0
 40
7.0
 41
0.0
 71
     5
 72
     1
  1
\A1;211
 11
0.0000000000000001
 21
1.0
 31
0.0
 73
     1
 44
1.0
  0
POINT
  5
2396
330
2384
100
AcDbEntity
  8
Defpoints
 62
     0
100
AcDbPoint
 10
214.0637079731785
 20
315.1333814117622
 30
0.0
  0
POINT
  5
2397
330
2384
100
AcDbEntity
  8
Defpoints
 62
     0
100
AcDbPoint
 10
222.2907079731785
 20
526.1333814117622
 30
0.0
  0
POINT
  5
2398
330
2384
100
AcDbEntity
  8
Defpoints
 62
     0
100
AcDbPoint
 10
80.12021557731623
 20
526.1333814117622
 30
0.0
  0
ENDBLK
  5
238F
330
2384
100
AcDbEntity
  8
0
100
AcDbBlockEnd
  0
BLOCK
  5
23D7
330
23CF
100
AcDbEntity
  8
0
100
AcDbBlockBegin
  2
*D5
 70
     1
 10
0.0
 20
0.0
 30
0.0
  3
*D5
  1

  0
LINE
  5
23F0
330
23CF
100
AcDbEntity
  8
BEM
 62
     0
370
    -2
100
AcDbLine
 10
162.5515471422977
 20
357.5473686678628
 30
0.0
 11
162.6210840321097
 21
357.4847573710482
 31
0.0
  0
LINE
  5
23F1
330
23CF
100
AcDbEntity
  8
BEM
 62
     0
370
    -2
100
AcDbLine
 10
285.0024481059688
 20
493.5428717302259
 30
0.0
 11
285.0719849957812
 21
493.4802604334108
 31
0.0
  0
LINE
  5
23F2
330
23CF
100
AcDbEntity
  8
BEM
 62
     0
370
    -2
100
AcDbLine
 10
165.818708625667
 20
364.0250323621076
 30
0.0
 11
278.9017811003144
 21
489.6165078677869
 31
0.0
  0
SOLID
  5
23F3
330
23CF
100
AcDbEntity
  8
BEM
 62
     0
100
AcDbTrace
 10
164.9517063292767
 20
364.805684736193
 30
0.0
 11
166.6857109220573
 21
363.2443799880223
 31
0.0
 12
161.1347943811549
 22
358.8230185837659
 32
0.0
 13
161.1347943811549
 23
358.8230185837659
 33
0.0
  0
SOLID
  5
23F4
330
23CF
100
AcDbEntity
  8
BEM
 62
     0
100
AcDbTrace
 10
278.0347788039242
 20
490.3971602418722
 30
0.0
 11
279.7687833967048
 21
488.8358554937015
 31
0.0
 12
283.5856953448265
 22
494.8185216461285
 32
0.0
 13
283.5856953448265
 23
494.8185216461285
 33
0.0
  0
MTEXT
  5
23F5
330
23CF
100
AcDbEntity
  8
BEM
 62
     1
100
AcDbMText
 10
238.1220007142122
 20
454.0400709931158
 30
0.0
 40
7.0
 41
0.0
 71
     5
 72
     1
  1
\A1;%%c183
 11
0.6691306063588609
 21
0.7431448254773919
 31
0.0
 73
     1
 44
1.0
  0
POINT
  5
23F6
330
23CF
100
AcDbEntity
  8
Defpoints
 62
     0
100
AcDbPoint
 10
161.065257491343
 20
358.8856298805805
 30
0.0
  0
POINT
  5
23F7
330
23CF
100
AcDbEntity
  8
Defpoints
 62
     0
100
AcDbPoint
 10
283.5161584550141
 20
494.8811329429436
 30
0.0
  0
POINT
  5
23F8
330
23CF
100
AcDbEntity
  8
Defpoints
 62
     0
100
AcDbPoint
 10
283.5856953448265
 20
494.8185216461285
 30
0.0
  0
ENDBLK
  5
23D8
330
23CF
100
AcDbEntity
  8
0
100
AcDbBlockEnd
  0
BLOCK
  5
2422
330
2418
100
AcDbEntity
  8
0
100
AcDbBlockBegin
  2
*D6
 70
     1
 10
0.0
 20
0.0
 30
0.0
  3
*D6
  1

  0
LINE
  5
2419
330
2418
100
AcDbEntity
  8
BEM
 62
     0
370
    -2
100
AcDbLine
 10
107.1347079731786
 20
216.0939285121884
 30
0.0
 11
85.83919924720133
 21
216.0939285121884
 31
0.0
  0
LINE
  5
241A
330
2418
100
AcDbEntity
  8
BEM
 62
     0
370
    -2
100
AcDbLine
 10
107.1347079731786
 20
256.0939285121884
 30
0.0
 11
85.83919924720134
 21
256.0939285121884
 31
0.0
  0
LINE
  5
241B
330
2418
100
AcDbEntity
  8
BEM
 62
     0
370
    -2
100
AcDbLine
 10
87.83919924720134
 20
223.0939285121884
 30
0.0
 11
87.83919924720136
 21
249.0939285121884
 31
0.0
  0
SOLID
  5
241C
330
2418
100
AcDbEntity
  8
BEM
 62
     0
100
AcDbTrace
 10
86.67253258053467
 20
223.0939285121884
 30
0.0
 11
89.00586591386801
 21
223.0939285121884
 31
0.0
 12
87.83919924720134
 22
216.0939285121884
 32
0.0
 13
87.83919924720134
 23
216.0939285121884
 33
0.0
  0
SOLID
  5
241D
330
2418
100
AcDbEntity
  8
BEM
 62
     0
100
AcDbTrace
 10
86.67253258053468
 20
249.0939285121884
 30
0.0
 11
89.00586591386803
 21
249.0939285121884
 31
0.0
 12
87.83919924720136
 22
256.0939285121884
 32
0.0
 13
87.83919924720136
 23
256.0939285121884
 33
0.0
  0
MTEXT
  5
241E
330
2418
100
AcDbEntity
  8
BEM
 62
     1
100
AcDbMText
 10
81.3391992472013
 20
236.0939285121884
 30
0.0
 40
7.0
 41
0.0
 71
     5
 72
     1
  1
\A1;40
 11
0.0000000000000001
 21
1.0
 31
0.0
 73
     1
 44
1.0
  0
POINT
  5
241F
330
2418
100
AcDbEntity
  8
Defpoints
 62
     0
100
AcDbPoint
 10
109.1347079731786
 20
216.0939285121884
 30
0.0
  0
POINT
  5
2420
330
2418
100
AcDbEntity
  8
Defpoints
 62
     0
100
AcDbPoint
 10
109.1347079731786
 20
256.0939285121884
 30
0.0
  0
POINT
  5
2421
330
2418
100
AcDbEntity
  8
Defpoints
 62
     0
100
AcDbPoint
 10
87.83919924720136
 20
256.0939285121884
 30
0.0
  0
ENDBLK
  5
2423
330
2418
100
AcDbEntity
  8
0
100
AcDbBlockEnd
  0
ENDSEC
  0
SECTION
  2
ENTITIES
  0
LINE
  5
57
330
1E
100
AcDbEntity
  8
STEMPEL
100
AcDbLine
 10
410.0
 20
110.0
 30
0.0
 11
39.99999999999997
 21
110.0
 31
0.0
  0
LINE
  5
58
330
1E
100
AcDbEntity
  8
STEMPEL
100
AcDbLine
 10
136.0000000000001
 20
109.9999999999999
 30
0.0
 11
136.0
 21
9.999999999999971
 31
0.0
  0
LINE
  5
59
330
1E
100
AcDbEntity
  8
STEMPEL
100
AcDbLine
 10
220.0
 20
110.0
 30
0.0
 11
220.0
 21
9.999999999999971
 31
0.0
  0
LINE
  5
5A
330
1E
100
AcDbEntity
  8
STEMPEL
100
AcDbLine
 10
332.0
 20
109.9999999999997
 30
0.0
 11
332.0
 21
40.0
 31
0.0
  0
LINE
  5
5B
330
1E
100
AcDbEntity
  8
STEMPEL
100
AcDbLine
 10
135.9999999999999
 20
29.99999999999997
 30
0.0
 11
39.99999999999997
 21
29.99999999999997
 31
0.0
  0
LINE
  5
5C
330
1E
100
AcDbEntity
  8
STEMPEL
100
AcDbLine
 10
410.0
 20
40.0
 30
0.0
 11
136.0000000000001
 21
39.99999999999997
 31
0.0
  0
LINE
  5
5D
330
1E
100
AcDbEntity
  8
STEMPEL
100
AcDbLine
 10
410.0
 20
80.0
 30
0.0
 11
136.0000000000001
 21
79.99999999999994
 31
0.0
  0
LINE
  5
5E
330
1E
100
AcDbEntity
  8
VOLL
100
AcDbLine
 10
54.00000000000009
 20
110.0
 30
0.0
 11
53.99999999999997
 21
9.999999999999971
 31
0.0
  0
LINE
  5
5F
330
1E
100
AcDbEntity
  8
VOLL
100
AcDbLine
 10
94.00000000000011
 20
109.9999999999999
 30
0.0
 11
94.0
 21
9.999999999999971
 31
0.0
  0
LINE
  5
60
330
1E
100
AcDbEntity
  8
VOLL
100
AcDbLine
 10
114.0000000000001
 20
109.9999999999999
 30
0.0
 11
114.0
 21
9.999999999999971
 31
0.0
  0
LINE
  5
61
330
1E
100
AcDbEntity
  8
VOLL
100
AcDbLine
 10
154.0000000000001
 20
79.99999999999994
 30
0.0
 11
154.0000000000001
 21
39.99999999999997
 31
0.0
  0
LINE
  5
62
330
1E
100
AcDbEntity
  8
VOLL
100
AcDbLine
 10
180.0000000000001
 20
109.9999999999998
 30
0.0
 11
180.0
 21
39.99999999999997
 31
0.0
  0
LINE
  5
63
330
1E
100
AcDbEntity
  8
HILF
100
AcDbLine
 10
40.00000000000008
 20
100.0
 30
0.0
 11
136.0000000000001
 21
100.0
 31
0.0
  0
LINE
  5
64
330
1E
100
AcDbEntity
  8
HILF
100
AcDbLine
 10
40.00000000000008
 20
90.00000000000005
 30
0.0
 11
136.0000000000001
 21
90.00000000000005
 31
0.0
  0
LINE
  5
65
330
1E
100
AcDbEntity
  8
HILF
100
AcDbLine
 10
40.00000000000008
 20
79.99999999999994
 30
0.0
 11
136.0000000000001
 21
79.99999999999994
 31
0.0
  0
LINE
  5
66
330
1E
100
AcDbEntity
  8
HILF
100
AcDbLine
 10
40.00000000000008
 20
69.99999999999994
 30
0.0
 11
136.0000000000001
 21
69.99999999999994
 31
0.0
  0
LINE
  5
67
330
1E
100
AcDbEntity
  8
HILF
100
AcDbLine
 10
40.00000000000008
 20
59.99999999999997
 30
0.0
 11
136.0000000000001
 21
59.99999999999997
 31
0.0
  0
LINE
  5
68
330
1E
100
AcDbEntity
  8
HILF
100
AcDbLine
 10
40.00000000000008
 20
49.99999999999997
 30
0.0
 11
136.0000000000001
 21
49.99999999999997
 31
0.0
  0
LINE
  5
69
330
1E
100
AcDbEntity
  8
HILF
100
AcDbLine
 10
40.00000000000008
 20
39.99999999999997
 30
0.0
 11
136.0000000000001
 21
39.99999999999997
 31
0.0
  0
LINE
  5
6A
330
1E
100
AcDbEntity
  8
HILF
100
AcDbLine
 10
136.0000000000001
 20
69.99999999999994
 30
0.0
 11
220.0
 21
69.99999999999994
 31
0.0
  0
LINE
  5
6B
330
1E
100
AcDbEntity
  8
HILF
100
AcDbLine
 10
136.0000000000001
 20
59.99999999999997
 30
0.0
 11
220.0
 21
59.99999999999997
 31
0.0
  0
LINE
  5
6C
330
1E
100
AcDbEntity
  8
HILF
100
AcDbLine
 10
136.0000000000001
 20
49.99999999999997
 30
0.0
 11
220.0
 21
49.99999999999997
 31
0.0
  0
LINE
  5
6D
330
1E
100
AcDbEntity
  8
HILF
100
AcDbLine
 10
224.7736801096948
 20
84.03758247564139
 30
0.0
 11
324.8353916556311
 21
84.03758247564139
 31
0.0
  0
LINE
  5
6E
330
1E
100
AcDbEntity
  8
HILF
100
AcDbLine
 10
224.7736801096948
 20
69.99999999999994
 30
0.0
 11
324.835391655631
 21
69.99999999999994
 31
0.0
  0
LINE
  5
6F
330
1E
100
AcDbEntity
  8
HILF
100
AcDbLine
 10
224.7736801096948
 20
59.99999999999997
 30
0.0
 11
324.835391655631
 21
59.99999999999997
 31
0.0
  0
LINE
  5
70
330
1E
100
AcDbEntity
  8
HILF
100
AcDbLine
 10
224.7736801096948
 20
49.99999999999997
 30
0.0
 11
324.835391655631
 21
49.99999999999997
 31
0.0
  0
LINE
  5
71
330
1E
100
AcDbEntity
  8
VOLL
100
AcDbLine
 10
332.0
 20
60.0
 30
0.0
 11
410.0
 21
60.0
 31
0.0
  0
LINE
  5
72
330
1E
100
AcDbEntity
  8
HILF
100
AcDbLine
 10
336.7238616296993
 20
83.77983636955827
 30
0.0
 11
404.8588839326728
 21
83.77983636955827
 31
0.0
  0
LINE
  5
73
330
1E
100
AcDbEntity
  8
HILF
100
AcDbLine
 10
223.4909699289885
 20
14.89398258028314
 30
0.0
 11
404.8588839326728
 21
14.89398258028314
 31
0.0
  0
TEXT
  5
74
330
1E
100
AcDbEntity
  8
TEXT
100
AcDbText
 10
63.86165979631819
 20
18.67381894984132
 30
0.0
 40
4.0
  1
Änderung
 41
0.8
  7
GREEKS
 72
     1
 11
74.60451693917534
 21
18.67381894984132
 31
0.0
100
AcDbText
  0
TEXT
  5
75
330
1E
100
AcDbEntity
  8
TEXT
100
AcDbText
 10
143.5163572150377
 20
102.4620895087088
 30
0.0
 40
5.0
  1
Maßstab
 41
0.8
  7
GREEKS
100
AcDbText
  0
TEXT
  5
76
330
1E
100
AcDbEntity
  8
TEXT
100
AcDbText
 10
184.2858954734051
 20
102.4184168434819
 30
0.0
 40
5.0
  1
Zul. Abw.
 41
0.8
  7
GREEKS
100
AcDbText
  0
TEXT
  5
77
330
1E
100
AcDbEntity
  8
TEXT
100
AcDbText
 10
224.877940380901
 20
102.5489328011779
 30
0.0
 40
5.0
  1
Benennung
 41
0.8
  7
GREEKS
100
AcDbText
  0
TEXT
  5
78
330
1E
100
AcDbEntity
  8
TEXT
100
AcDbText
 10
336.178754957634
 20
102.3132034537136
 30
0.0
 40
5.0
  1
Zeichnungs Nr.
 41
0.8
  7
GREEKS
100
AcDbText
  0
TEXT
  5
79
330
1E
100
AcDbEntity
  8
TEXT
100
AcDbText
 10
224.742238391136
 20
30.84560570193057
 30
0.0
 40
5.0
  1
Bauvorhaben
 41
0.8
  7
GREEKS
100
AcDbText
  0
TEXT
  5
7A
330
1E
100
AcDbEntity
  8
TEXT
100
AcDbText
 10
336.7238616296993
 20
73.1811823709997
 30
0.0
 40
5.0
  1
Ersatz für:
 41
0.8
  7
GREEKS
100
AcDbText
  0
TEXT
  5
7B
330
1E
100
AcDbEntity
  8
TEXT
100
AcDbText
 10
48.26641107045756
 20
13.65465846027192
 30
0.0
 40
4.0
  1
Index
 50
90.0
 41
0.8
  7
GREEKS
100
AcDbText
  0
TEXT
  5
7C
330
1E
100
AcDbEntity
  8
TEXT
100
AcDbText
 10
100.0934676075481
 20
18.6715626933981
 30
0.0
 40
4.0
  1
Tag
 41
0.8
  7
GREEKS
 72
     1
 11
103.8268009408814
 21
18.6715626933981
 31
0.0
100
AcDbText
  0
TEXT
  5
7D
330
1E
100
AcDbEntity
  8
TEXT
100
AcDbText
 10
119.0122744386592
 20
18.59324216966408
 30
0.0
 40
4.0
  1
Name
 41
0.8
  7
GREEKS
 72
     1
 11
125.3360839624688
 21
18.59324216966408
 31
0.0
100
AcDbText
  0
TEXT
  5
7E
330
1E
100
AcDbEntity
  8
TEXT
100
AcDbText
 10
162.3311673153651
 20
73.31880501229926
 30
0.0
 40
4.0
  1
Tag
 41
0.8
  7
GREEKS
100
AcDbText
  0
TEXT
  5
7F
330
1E
100
AcDbEntity
  8
TEXT
100
AcDbText
 10
192.4626584226295
 20
73.30961091915225
 30
0.0
 40
4.0
  1
Name
 41
0.8
  7
GREEKS
100
AcDbText
  0
TEXT
  5
80
330
1E
100
AcDbEntity
  8
TEXT
100
AcDbText
 10
137.5836127167615
 20
63.62990369617964
 30
0.0
 40
4.0
  1
Gez.
 41
0.8
  7
GREEKS
100
AcDbText
  0
TEXT
  5
81
330
1E
100
AcDbEntity
  8
TEXT
100
AcDbText
 10
137.5515086571672
 20
53.68926291428377
 30
0.0
 40
4.0
  1
Gepr.
 41
0.8
  7
GREEKS
100
AcDbText
  0
TEXT
  5
82
330
1E
100
AcDbEntity
  8
TEXT
100
AcDbText
 10
137.6006777387304
 20
43.52946389649807
 30
0.0
 40
4.0
  1
Norm.
 41
0.8
  7
GREEKS
100
AcDbText
  0
LINE
  5
83
330
1E
100
AcDbEntity
  8
STEMPEL
100
AcDbLine
 10
49.99999999999989
 20
10.0
 30
0.0
 11
410.0
 21
10.0
 31
0.0
  0
TEXT
  5
84
330
1E
100
AcDbEntity
  8
TEXT
100
AcDbText
 10
337.2400861497006
 20
52.07416177878602
 30
0.0
 40
5.0
  1
ersetzt durch:
 41
0.8
  7
GREEKS
100
AcDbText
  0
LINE
  5
85
330
1E
100
AcDbEntity
  8
STEMPEL
100
AcDbLine
 10
410.0
 20
10.0
 30
0.0
 11
39.99999999999989
 21
10.0
 31
0.0
  0
LINE
  5
86
330
1E
100
AcDbEntity
  8
STEMPEL
100
AcDbLine
 10
410.0
 20
10.0
 30
0.0
 11
410.0
 21
584.0
 31
0.0
  0
LINE
  5
87
330
1E
100
AcDbEntity
  8
STEMPEL
100
AcDbLine
 10
40.0
 20
10.0
 30
0.0
 11
39.99999999999989
 21
584.0
 31
0.0
  0
LINE
  5
88
330
1E
100
AcDbEntity
  8
STEMPEL
100
AcDbLine
 10
410.0
 20
584.0
 30
0.0
 11
39.99999999999989
 21
584.0
 31
0.0
  0
LINE
  5
89
330
1E
100
AcDbEntity
  8
HILF
100
AcDbLine
 10
0.0
 20
0.0
 30
0.0
 11
-0.0000000000001137
 21
594.0
 31
0.0
  0
LINE
  5
8A
330
1E
100
AcDbEntity
  8
HILF
100
AcDbLine
 10
419.9999999999999
 20
594.0000000000002
 30
0.0
 11
0.0
 21
594.0
 31
0.0
  0
LINE
  5
8B
330
1E
100
AcDbEntity
  8
HILF
100
AcDbLine
 10
420.0
 20
0.0
 30
0.0
 11
0.0
 21
0.0
 31
0.0
  0
LINE
  5
8C
330
1E
100
AcDbEntity
  8
HILF
100
AcDbLine
 10
31.08767135713856
 20
297.0
 30
0.0
 11
0.0000000000001137
 21
297.0
 31
0.0
  0
TEXT
  5
8D
330
1E
100
AcDbEntity
  8
TEXT
100
AcDbText
 10
138.622109822104
 20
73.14025471151666
 30
0.0
 40
4.0
  1
2006
 41
0.8
  7
GREEKS
100
AcDbText
  0
LINE
  5
8E
330
1E
100
AcDbEntity
  8
HILF
100
AcDbLine
 10
420.0
 20
-0.0000000000001137
 30
0.0
 11
419.9999999999999
 21
594.0
 31
0.0
  0
TEXT
  5
8F
330
1E
100
AcDbEntity
  8
VOLL
100
AcDbText
 10
78.07675471698113
 20
31.02594776470585
 30
0.0
 40
1.8
  1

  7
GREEKS
100
AcDbText
  0
TEXT
  5
90
330
1E
100
AcDbEntity
  8
TEXT
100
AcDbText
 10
41.85509950977674
 20
111.6719999999999
 30
0.0
 40
5.0
  1
Erstellt mit AUTOCAD 2004
 41
0.8
  7
GREEKS
100
AcDbText
  0
TEXT
  5
91
330
1E
100
AcDbEntity
  8
TEXT
100
AcDbText
 10
194.4216048581257
 20
63.0896391972351
 30
0.0
 40
4.0
  1
Koeh
 41
0.8
  7
GREEKS
 72
     1
 11
199.6787477152685
 21
63.0896391972351
 31
0.0
100
AcDbText
  0
TEXT
  5
92
330
1E
100
AcDbEntity
  8
TEXT
 62
     1
100
AcDbText
 10
346.3054909762015
 20
88.14901428913959
 30
0.0
 40
7.0
  1
00976168W
 41
0.8
  7
GREEKS
 72
     1
 11
369.7721576428681
 21
88.14901428913959
 31
0.0
100
AcDbText
  0
TEXT
  5
93
330
1E
100
AcDbEntity
  8
TEXT
 62
     1
100
AcDbText
 10
150.5006306481887
 20
88.14901428913959
 30
0.0
 40
7.0
  1
1:2
 41
0.8
  7
GREEKS
100
AcDbText
  0
TEXT
  5
94
330
1E
100
AcDbEntity
  8
TEXT
100
AcDbText
 10
161.0085209177598
 20
63.10765040825732
 30
0.0
 40
4.0
  1
12.10.
 41
0.8
  7
GREEKS
 72
     1
 11
167.4085209177598
 21
63.10765040825732
 31
0.0
100
AcDbText
  0
TEXT
  5
95
330
1E
100
AcDbEntity
  8
TEXT
 62
     1
100
AcDbText
 10
226.8935731057402
 20
87.41748789253779
 30
0.0
 40
7.0
  1
Rohrschelle DN168
 41
0.8
  7
GREEKS
100
AcDbText
  0
TEXT
  5
96
330
1E
100
AcDbEntity
  8
TEXT
100
AcDbText
 10
225.1296391125315
 20
71.50334417585288
 30
0.0
 40
5.0
  1
mit Anschlußgewinde M12
 41
0.8
  7
GREEKS
100
AcDbText
  0
TEXT
  5
98
330
1E
100
AcDbEntity
  8
TEXT
100
AcDbText
 10
225.1296391125315
 20
51.64011943042158
 30
0.0
 40
5.0
  1
EDV-Art.Nr. 00976.168X
 41
0.8
  7
GREEKS
100
AcDbText
  0
TEXT
  5
99
330
1E
100
AcDbEntity
  8
TEXT
100
AcDbText
 10
224.9837501577827
 20
42.62974153022632
 30
0.0
 40
4.0
  1
00976168W.DWG
 41
0.8
  7
GREEKS
100
AcDbText
  0
TEXT
  5
9A
330
1E
100
AcDbEntity
  8
TEXT
100
AcDbText
 10
182.626132208084
 20
90.76363841023022
 30
0.0
 40
4.0
  1
DIN EN1123-2
 41
0.8
  7
GREEKS
 72
     1
 11
199.6166083985602
 21
90.76363841023022
 31
0.0
100
AcDbText
  0
INSERT
  5
9B
330
1E
100
AcDbEntity
  8
STEMPEL
100
AcDbBlockReference
  2
LOGO
 10
140.9955485457794
 20
45.02105276448322
 30
0.0
 41
2.0
 42
2.0
 43
2.0
  0
TEXT
  5
118
330
1E
100
AcDbEntity
  8
BEM
100
AcDbText
 10
417.3022923857165
 20
10.16790107998849
 30
0.0
 40
4.0
  1
Diese Zeichnung ist urheberrechtlich geschützt und bleibt unser Eigentum. Sie darf weder ganz noch teilweise verfielfältigt und nicht an Dritte weitergegeben werden.
 50
90.0
 41
0.8
  7
GREEKS
100
AcDbText
  0
TEXT
  5
7BF
330
1E
100
AcDbEntity
  8
TEXT
 62
     1
100
AcDbText
 10
232.6670209238068
 20
296.495085316444
 30
0.0
 40
7.0
  1
M12
 41
0.8
  7
GREEKS
100
AcDbText
  0
LINE
  5
7C0
330
1E
100
AcDbEntity
  8
TEXT
 62
     2
100
AcDbLine
 10
230.5471279277613
 20
293.1151798995476
 30
0.0
 11
247.6920481161301
 21
293.1151798995476
 31
0.0
  0
LINE
  5
7C1
330
1E
100
AcDbEntity
  8
TEXT
 62
     2
100
AcDbLine
 10
230.5471279277613
 20
293.1151798995476
 30
0.0
 11
222.0898523036051
 21
315.1333814117622
 31
0.0
  0
TEXT
  5
1137
330
1E
100
AcDbEntity
  8
TEXT
 62
     1
100
AcDbText
 10
313.3212209210343
 20
496.481269167664
 30
0.0
 40
7.0
  1
Schraube M8x30
 41
0.8
  7
GREEKS
100
AcDbText
  0
LINE
  5
1138
330
1E
100
AcDbEntity
  8
TEXT
 62
     2
100
AcDbLine
 10
311.201327924989
 20
493.1013637507677
 30
0.0
 11
386.2030097426194
 21
493.1013637507677
 31
0.0
  0
LINE
  5
1139
330
1E
100
AcDbEntity
  8
TEXT
 62
     2
100
AcDbLine
 10
386.2030097426194
 20
493.1013637507677
 30
0.0
 11
333.0843833434919
 21
434.0931324841869
 31
0.0
  0
LINE
  5
2250
330
1E
100
AcDbEntity
  8
HILF
100
AcDbLine
 10
326.5287079731786
 20
401.3833814117622
 30
0.0
 11
326.5287079731786
 21
419.3833814117621
 31
0.0
  0
LINE
  5
2251
330
1E
100
AcDbEntity
  8
HILF
100
AcDbLine
 10
333.0287079731786
 20
401.3833814117622
 30
0.0
 11
333.0287079731786
 21
419.3833814117621
 31
0.0
  0
LINE
  5
2252
330
1E
100
AcDbEntity
  8
STEMPEL
100
AcDbLine
 10
333.7787079731786
 20
402.1333814117621
 30
0.0
 11
325.7787079731786
 21
402.1333814117621
 31
0.0
  0
LINE
  5
2253
330
1E
100
AcDbEntity
  8
HILF
100
AcDbLine
 10
326.5287079731786
 20
427.1333814117621
 30
0.0
 11
326.5287079731786
 21
428.3833814117621
 31
0.0
  0
LINE
  5
2254
330
1E
100
AcDbEntity
  8
HILF
100
AcDbLine
 10
326.5287079731786
 20
425.3833814117621
 30
0.0
 11
326.5287079731786
 21
426.6333814117621
 31
0.0
  0
LINE
  5
2255
330
1E
100
AcDbEntity
  8
HILF
100
AcDbLine
 10
333.0287079731786
 20
427.1333814117621
 30
0.0
 11
333.0287079731786
 21
428.3833814117621
 31
0.0
  0
LINE
  5
2256
330
1E
100
AcDbEntity
  8
HILF
100
AcDbLine
 10
333.0287079731786
 20
425.3833814117621
 30
0.0
 11
333.0287079731786
 21
426.6333814117621
 31
0.0
  0
LINE
  5
2257
330
1E
100
AcDbEntity
  8
STEMPEL
100
AcDbLine
 10
325.7787079731786
 20
427.1333814117621
 30
0.0
 11
325.7787079731786
 21
428.3833814117621
 31
0.0
  0
LINE
  5
2258
330
1E
100
AcDbEntity
  8
STEMPEL
100
AcDbLine
 10
325.7787079731786
 20
425.3833814117621
 30
0.0
 11
325.7787079731786
 21
426.6333814117621
 31
0.0
  0
LINE
  5
2259
330
1E
100
AcDbEntity
  8
STEMPEL
100
AcDbLine
 10
333.7787079731786
 20
426.6333814117621
 30
0.0
 11
333.7787079731786
 21
425.3833814117621
 31
0.0
  0
LINE
  5
225A
330
1E
100
AcDbEntity
  8
STEMPEL
100
AcDbLine
 10
333.7787079731786
 20
428.3833814117621
 30
0.0
 11
333.7787079731786
 21
427.1333814117621
 31
0.0
  0
ARC
  5
225B
330
1E
100
AcDbEntity
  8
STEMPEL
100
AcDbCircle
 10
329.7787079731786
 20
425.5243814117622
 30
0.0
 40
11.158
100
AcDbArc
 50
95.9155207670004
 51
109.652859632001
  0
ARC
  5
225C
330
1E
100
AcDbEntity
  8
STEMPEL
100
AcDbCircle
 10
329.7787079731786
 20
425.5243814117622
 30
0.0
 40
11.158
100
AcDbArc
 50
70.34714036799893
 51
84.08447923299958
  0
LINE
  5
225D
330
1E
100
AcDbEntity
  8
STEMPEL
100
AcDbLine
 10
328.6287079731785
 20
436.6833814117621
 30
0.0
 11
324.1497079731786
 21
436.6833814117621
 31
0.0
  0
LINE
  5
225E
330
1E
100
AcDbEntity
  8
STEMPEL
100
AcDbLine
 10
328.6287079731785
 20
434.1833814117621
 30
0.0
 11
328.6287079731785
 21
436.6833814117621
 31
0.0
  0
LINE
  5
225F
330
1E
100
AcDbEntity
  8
STEMPEL
100
AcDbLine
 10
330.9287079731786
 20
434.1833814117621
 30
0.0
 11
328.6287079731785
 21
434.1833814117621
 31
0.0
  0
LINE
  5
2260
330
1E
100
AcDbEntity
  8
STEMPEL
100
AcDbLine
 10
330.9287079731786
 20
436.6833814117621
 30
0.0
 11
330.9287079731786
 21
434.1833814117621
 31
0.0
  0
LINE
  5
2261
330
1E
100
AcDbEntity
  8
STEMPEL
100
AcDbLine
 10
335.4077079731785
 20
436.6833814117621
 30
0.0
 11
330.9287079731786
 21
436.6833814117621
 31
0.0
  0
LINE
  5
2262
330
1E
100
AcDbEntity
  8
STEMPEL
100
AcDbLine
 10
325.7787079731786
 20
402.1333814117621
 30
0.0
 11
325.7787079731786
 21
419.3833814117621
 31
0.0
  0
LINE
  5
2263
330
1E
100
AcDbEntity
  8
STEMPEL
100
AcDbLine
 10
326.5287079731786
 20
401.3833814117622
 30
0.0
 11
325.7787079731786
 21
402.1333814117621
 31
0.0
  0
LINE
  5
2264
330
1E
100
AcDbEntity
  8
STEMPEL
100
AcDbLine
 10
333.0287079731786
 20
401.3833814117622
 30
0.0
 11
326.5287079731786
 21
401.3833814117622
 31
0.0
  0
LINE
  5
2265
330
1E
100
AcDbEntity
  8
STEMPEL
100
AcDbLine
 10
333.7787079731786
 20
402.1333814117621
 30
0.0
 11
333.0287079731786
 21
401.3833814117622
 31
0.0
  0
LINE
  5
2266
330
1E
100
AcDbEntity
  8
STEMPEL
100
AcDbLine
 10
333.7787079731786
 20
419.3833814117621
 30
0.0
 11
333.7787079731786
 21
402.1333814117621
 31
0.0
  0
LINE
  5
2267
330
1E
100
AcDbEntity
  8
STEMPEL
100
AcDbLine
 10
333.5317079731785
 20
436.0333814117621
 30
0.0
 11
333.5317079731785
 21
431.3833814117622
 31
0.0
  0
ARC
  5
2268
330
1E
100
AcDbEntity
  8
STEMPEL
100
AcDbCircle
 10
335.4077079731785
 20
433.6493814117622
 30
0.0
 40
3.032999999999999
100
AcDbArc
 50
90.0
 51
128.2132107020002
  0
ARC
  5
2269
330
1E
100
AcDbEntity
  8
STEMPEL
100
AcDbCircle
 10
335.4077079731785
 20
433.6493814117622
 30
0.0
 40
3.032999999999999
100
AcDbArc
 50
51.78678929799973
 51
90.0
  0
LINE
  5
226A
330
1E
100
AcDbEntity
  8
STEMPEL
100
AcDbLine
 10
337.2837079731785
 20
431.3833814117622
 30
0.0
 11
337.2837079731785
 21
436.0333814117621
 31
0.0
  0
LINE
  5
226B
330
1E
100
AcDbEntity
  8
STEMPEL
100
AcDbLine
 10
334.1787079731786
 20
431.3833814117622
 30
0.0
 11
337.2837079731785
 21
431.3833814117622
 31
0.0
  0
LINE
  5
226C
330
1E
100
AcDbEntity
  8
STEMPEL
100
AcDbLine
 10
325.3787079731785
 20
431.3833814117622
 30
0.0
 11
334.1787079731786
 21
431.3833814117622
 31
0.0
  0
LINE
  5
226D
330
1E
100
AcDbEntity
  8
STEMPEL
100
AcDbLine
 10
322.2727079731785
 20
431.3833814117622
 30
0.0
 11
325.3787079731785
 21
431.3833814117622
 31
0.0
  0
LINE
  5
226E
330
1E
100
AcDbEntity
  8
STEMPEL
100
AcDbLine
 10
322.2727079731785
 20
436.0333814117621
 30
0.0
 11
322.2727079731785
 21
431.3833814117622
 31
0.0
  0
ARC
  5
226F
330
1E
100
AcDbEntity
  8
STEMPEL
100
AcDbCircle
 10
324.1497079731786
 20
433.6493814117622
 30
0.0
 40
3.032999999999999
100
AcDbArc
 50
90.0
 51
128.2132107020002
  0
ARC
  5
2270
330
1E
100
AcDbEntity
  8
STEMPEL
100
AcDbCircle
 10
324.1497079731786
 20
433.6493814117622
 30
0.0
 40
3.032999999999999
100
AcDbArc
 50
51.78678929799973
 51
90.0
  0
LINE
  5
2271
330
1E
100
AcDbEntity
  8
STEMPEL
100
AcDbLine
 10
326.0257079731786
 20
431.3833814117622
 30
0.0
 11
326.0257079731786
 21
436.0333814117621
 31
0.0
  0
LINE
  5
2272
330
1E
100
AcDbEntity
  8
HILF
100
AcDbLine
 10
111.5527079731785
 20
401.3833814117622
 30
0.0
 11
111.5527079731785
 21
419.3833814117621
 31
0.0
  0
LINE
  5
2273
330
1E
100
AcDbEntity
  8
HILF
100
AcDbLine
 10
118.0527079731785
 20
401.3833814117622
 30
0.0
 11
118.0527079731785
 21
419.3833814117621
 31
0.0
  0
LINE
  5
2274
330
1E
100
AcDbEntity
  8
STEMPEL
100
AcDbLine
 10
118.8027079731785
 20
402.1333814117621
 30
0.0
 11
110.8027079731785
 21
402.1333814117621
 31
0.0
  0
LINE
  5
2275
330
1E
100
AcDbEntity
  8
HILF
100
AcDbLine
 10
111.5527079731785
 20
427.1333814117621
 30
0.0
 11
111.5527079731785
 21
428.3833814117621
 31
0.0
  0
LINE
  5
2276
330
1E
100
AcDbEntity
  8
HILF
100
AcDbLine
 10
111.5527079731785
 20
425.3833814117621
 30
0.0
 11
111.5527079731785
 21
426.6333814117621
 31
0.0
  0
LINE
  5
2277
330
1E
100
AcDbEntity
  8
HILF
100
AcDbLine
 10
118.0527079731785
 20
427.1333814117621
 30
0.0
 11
118.0527079731785
 21
428.3833814117621
 31
0.0
  0
LINE
  5
2278
330
1E
100
AcDbEntity
  8
HILF
100
AcDbLine
 10
118.0527079731785
 20
425.3833814117621
 30
0.0
 11
118.0527079731785
 21
426.6333814117621
 31
0.0
  0
LINE
  5
2279
330
1E
100
AcDbEntity
  8
STEMPEL
100
AcDbLine
 10
110.8027079731785
 20
427.1333814117621
 30
0.0
 11
110.8027079731785
 21
428.3833814117621
 31
0.0
  0
LINE
  5
227A
330
1E
100
AcDbEntity
  8
STEMPEL
100
AcDbLine
 10
110.8027079731785
 20
425.3833814117621
 30
0.0
 11
110.8027079731785
 21
426.6333814117621
 31
0.0
  0
LINE
  5
227B
330
1E
100
AcDbEntity
  8
STEMPEL
100
AcDbLine
 10
118.8027079731785
 20
426.6333814117621
 30
0.0
 11
118.8027079731785
 21
425.3833814117621
 31
0.0
  0
LINE
  5
227C
330
1E
100
AcDbEntity
  8
STEMPEL
100
AcDbLine
 10
118.8027079731785
 20
428.3833814117621
 30
0.0
 11
118.8027079731785
 21
427.1333814117621
 31
0.0
  0
ARC
  5
227D
330
1E
100
AcDbEntity
  8
STEMPEL
100
AcDbCircle
 10
114.8027079731785
 20
425.5243814117622
 30
0.0
 40
11.158
100
AcDbArc
 50
95.9155207670004
 51
109.652859632001
  0
ARC
  5
227E
330
1E
100
AcDbEntity
  8
STEMPEL
100
AcDbCircle
 10
114.8027079731785
 20
425.5243814117622
 30
0.0
 40
11.158
100
AcDbArc
 50
70.34714036799893
 51
84.08447923299958
  0
LINE
  5
227F
330
1E
100
AcDbEntity
  8
STEMPEL
100
AcDbLine
 10
113.6527079731786
 20
436.6833814117621
 30
0.0
 11
109.1737079731786
 21
436.6833814117621
 31
0.0
  0
LINE
  5
2280
330
1E
100
AcDbEntity
  8
STEMPEL
100
AcDbLine
 10
113.6527079731786
 20
434.1833814117621
 30
0.0
 11
113.6527079731786
 21
436.6833814117621
 31
0.0
  0
LINE
  5
2281
330
1E
100
AcDbEntity
  8
STEMPEL
100
AcDbLine
 10
115.9527079731786
 20
434.1833814117621
 30
0.0
 11
113.6527079731786
 21
434.1833814117621
 31
0.0
  0
LINE
  5
2282
330
1E
100
AcDbEntity
  8
STEMPEL
100
AcDbLine
 10
115.9527079731786
 20
436.6833814117621
 30
0.0
 11
115.9527079731786
 21
434.1833814117621
 31
0.0
  0
LINE
  5
2283
330
1E
100
AcDbEntity
  8
STEMPEL
100
AcDbLine
 10
120.4327079731786
 20
436.6833814117621
 30
0.0
 11
115.9527079731786
 21
436.6833814117621
 31
0.0
  0
LINE
  5
2284
330
1E
100
AcDbEntity
  8
STEMPEL
100
AcDbLine
 10
110.8027079731785
 20
402.1333814117621
 30
0.0
 11
110.8027079731785
 21
419.3833814117621
 31
0.0
  0
LINE
  5
2285
330
1E
100
AcDbEntity
  8
STEMPEL
100
AcDbLine
 10
111.5527079731785
 20
401.3833814117622
 30
0.0
 11
110.8027079731785
 21
402.1333814117621
 31
0.0
  0
LINE
  5
2286
330
1E
100
AcDbEntity
  8
STEMPEL
100
AcDbLine
 10
118.0527079731785
 20
401.3833814117622
 30
0.0
 11
111.5527079731785
 21
401.3833814117622
 31
0.0
  0
LINE
  5
2287
330
1E
100
AcDbEntity
  8
STEMPEL
100
AcDbLine
 10
118.8027079731785
 20
402.1333814117621
 30
0.0
 11
118.0527079731785
 21
401.3833814117622
 31
0.0
  0
LINE
  5
2288
330
1E
100
AcDbEntity
  8
STEMPEL
100
AcDbLine
 10
118.8027079731785
 20
419.3833814117621
 30
0.0
 11
118.8027079731785
 21
402.1333814117621
 31
0.0
  0
LINE
  5
2289
330
1E
100
AcDbEntity
  8
STEMPEL
100
AcDbLine
 10
118.5557079731785
 20
436.0333814117621
 30
0.0
 11
118.5557079731785
 21
431.3833814117622
 31
0.0
  0
ARC
  5
228A
330
1E
100
AcDbEntity
  8
STEMPEL
100
AcDbCircle
 10
120.4327079731786
 20
433.6493814117622
 30
0.0
 40
3.032999999999999
100
AcDbArc
 50
90.0
 51
128.2132107020002
  0
ARC
  5
228B
330
1E
100
AcDbEntity
  8
STEMPEL
100
AcDbCircle
 10
120.4327079731786
 20
433.6493814117622
 30
0.0
 40
3.032999999999999
100
AcDbArc
 50
51.78678929799973
 51
90.0
  0
LINE
  5
228C
330
1E
100
AcDbEntity
  8
STEMPEL
100
AcDbLine
 10
122.3087079731785
 20
431.3833814117622
 30
0.0
 11
122.3087079731785
 21
436.0333814117621
 31
0.0
  0
LINE
  5
228D
330
1E
100
AcDbEntity
  8
STEMPEL
100
AcDbLine
 10
119.2027079731786
 20
431.3833814117622
 30
0.0
 11
122.3087079731785
 21
431.3833814117622
 31
0.0
  0
LINE
  5
228E
330
1E
100
AcDbEntity
  8
STEMPEL
100
AcDbLine
 10
110.4027079731785
 20
431.3833814117622
 30
0.0
 11
119.2027079731786
 21
431.3833814117622
 31
0.0
  0
LINE
  5
228F
330
1E
100
AcDbEntity
  8
STEMPEL
100
AcDbLine
 10
107.2977079731785
 20
431.3833814117622
 30
0.0
 11
110.4027079731785
 21
431.3833814117622
 31
0.0
  0
LINE
  5
2290
330
1E
100
AcDbEntity
  8
STEMPEL
100
AcDbLine
 10
107.2977079731785
 20
436.0333814117621
 30
0.0
 11
107.2977079731785
 21
431.3833814117622
 31
0.0
  0
ARC
  5
2291
330
1E
100
AcDbEntity
  8
STEMPEL
100
AcDbCircle
 10
109.1737079731786
 20
433.6493814117622
 30
0.0
 40
3.032999999999999
100
AcDbArc
 50
90.0
 51
128.2132107020002
  0
ARC
  5
2292
330
1E
100
AcDbEntity
  8
STEMPEL
100
AcDbCircle
 10
109.1737079731786
 20
433.6493814117622
 30
0.0
 40
3.032999999999999
100
AcDbArc
 50
51.78678929799973
 51
90.0
  0
LINE
  5
2293
330
1E
100
AcDbEntity
  8
STEMPEL
100
AcDbLine
 10
111.0507079731785
 20
431.3833814117622
 30
0.0
 11
111.0507079731785
 21
436.0333814117621
 31
0.0
  0
LINE
  5
2294
330
1E
100
AcDbEntity
  8
STEMPEL
100
AcDbLine
 10
328.6257079731786
 20
229.5939285121884
 30
0.0
 11
328.6257079731786
 21
242.5939285121884
 31
0.0
  0
LINE
  5
2295
330
1E
100
AcDbEntity
  8
STEMPEL
100
AcDbLine
 10
330.9257079731785
 20
229.5939285121884
 30
0.0
 11
330.9257079731785
 21
242.5939285121884
 31
0.0
  0
ARC
  5
2296
330
1E
100
AcDbEntity
  8
STEMPEL
100
AcDbCircle
 10
329.7757079731785
 20
236.0939285121884
 30
0.0
 40
6.5
100
AcDbArc
 50
280.1905887679999
 51
79.80941123200008
  0
ARC
  5
2297
330
1E
100
AcDbEntity
  8
STEMPEL
100
AcDbCircle
 10
329.7757079731785
 20
236.0939285121884
 30
0.0
 40
6.5
100
AcDbArc
 50
100.1905887679999
 51
259.8094112320001
  0
LINE
  5
2298
330
1E
100
AcDbEntity
  8
STEMPEL
100
AcDbLine
 10
326.0227079731785
 20
229.5939285121884
 30
0.0
 11
322.2697079731786
 21
236.0939285121884
 31
0.0
  0
LINE
  5
2299
330
1E
100
AcDbEntity
  8
STEMPEL
100
AcDbLine
 10
333.5287079731786
 20
229.5939285121884
 30
0.0
 11
326.0227079731785
 21
229.5939285121884
 31
0.0
  0
LINE
  5
229A
330
1E
100
AcDbEntity
  8
STEMPEL
100
AcDbLine
 10
337.2807079731785
 20
236.0939285121884
 30
0.0
 11
333.5287079731786
 21
229.5939285121884
 31
0.0
  0
LINE
  5
229B
330
1E
100
AcDbEntity
  8
STEMPEL
100
AcDbLine
 10
333.5287079731786
 20
242.5939285121884
 30
0.0
 11
337.2807079731785
 21
236.0939285121884
 31
0.0
  0
LINE
  5
229C
330
1E
100
AcDbEntity
  8
STEMPEL
100
AcDbLine
 10
326.0227079731785
 20
242.5939285121884
 30
0.0
 11
333.5287079731786
 21
242.5939285121884
 31
0.0
  0
LINE
  5
229D
330
1E
100
AcDbEntity
  8
STEMPEL
100
AcDbLine
 10
322.2697079731786
 20
236.0939285121884
 30
0.0
 11
326.0227079731785
 21
242.5939285121884
 31
0.0
  0
LINE
  5
229E
330
1E
100
AcDbEntity
  8
STEMPEL
100
AcDbLine
 10
113.6257079731786
 20
230.5489285121885
 30
0.0
 11
113.6257079731786
 21
243.5489285121885
 31
0.0
  0
LINE
  5
229F
330
1E
100
AcDbEntity
  8
STEMPEL
100
AcDbLine
 10
115.9257079731785
 20
230.5489285121885
 30
0.0
 11
115.9257079731785
 21
243.5489285121885
 31
0.0
  0
ARC
  5
22A0
330
1E
100
AcDbEntity
  8
STEMPEL
100
AcDbCircle
 10
114.7757079731785
 20
237.0489285121885
 30
0.0
 40
6.5
100
AcDbArc
 50
280.1905887679999
 51
79.80941123200008
  0
ARC
  5
22A1
330
1E
100
AcDbEntity
  8
STEMPEL
100
AcDbCircle
 10
114.7757079731785
 20
237.0489285121885
 30
0.0
 40
6.5
100
AcDbArc
 50
100.1905887679999
 51
259.8094112320001
  0
LINE
  5
22A2
330
1E
100
AcDbEntity
  8
STEMPEL
100
AcDbLine
 10
111.0227079731785
 20
230.5489285121885
 30
0.0
 11
107.2697079731786
 21
237.0489285121885
 31
0.0
  0
LINE
  5
22A3
330
1E
100
AcDbEntity
  8
STEMPEL
100
AcDbLine
 10
118.5287079731786
 20
230.5489285121885
 30
0.0
 11
111.0227079731785
 21
230.5489285121885
 31
0.0
  0
LINE
  5
22A4
330
1E
100
AcDbEntity
  8
STEMPEL
100
AcDbLine
 10
122.2807079731785
 20
237.0489285121885
 30
0.0
 11
118.5287079731786
 21
230.5489285121885
 31
0.0
  0
LINE
  5
22A5
330
1E
100
AcDbEntity
  8
STEMPEL
100
AcDbLine
 10
118.5287079731786
 20
243.5489285121885
 30
0.0
 11
122.2807079731785
 21
237.0489285121885
 31
0.0
  0
LINE
  5
22A6
330
1E
100
AcDbEntity
  8
STEMPEL
100
AcDbLine
 10
111.0227079731785
 20
243.5489285121885
 30
0.0
 11
118.5287079731786
 21
243.5489285121885
 31
0.0
  0
LINE
  5
22A7
330
1E
100
AcDbEntity
  8
STEMPEL
100
AcDbLine
 10
107.2697079731786
 20
237.0489285121885
 30
0.0
 11
111.0227079731785
 21
243.5489285121885
 31
0.0
  0
LINE
  5
22A8
330
1E
100
AcDbEntity
  8
STEMPEL
100
AcDbLine
 10
124.3767079731785
 20
259.8439285121884
 30
0.0
 11
124.3767079731785
 21
248.0939285121884
 31
0.0
  0
LINE
  5
22A9
330
1E
100
AcDbEntity
  8
STEMPEL
100
AcDbLine
 10
320.1737079731786
 20
259.8439285121884
 30
0.0
 11
124.3767079731785
 21
259.8439285121884
 31
0.0
  0
LINE
  5
22AA
330
1E
100
AcDbEntity
  8
STEMPEL
100
AcDbLine
 10
320.1737079731786
 20
248.0939285121884
 30
0.0
 11
320.1737079731786
 21
259.8439285121884
 31
0.0
  0
LINE
  5
22AB
330
1E
100
AcDbEntity
  8
STEMPEL
100
AcDbLine
 10
124.3767079731785
 20
248.0939285121884
 30
0.0
 11
320.1737079731786
 21
248.0939285121884
 31
0.0
  0
LINE
  5
22AC
330
1E
100
AcDbEntity
  8
STEMPEL
100
AcDbLine
 10
320.1737079731786
 20
212.3439285121884
 30
0.0
 11
320.1737079731786
 21
224.0939285121884
 31
0.0
  0
LINE
  5
22AD
330
1E
100
AcDbEntity
  8
STEMPEL
100
AcDbLine
 10
124.3767079731785
 20
212.3439285121884
 30
0.0
 11
320.1737079731786
 21
212.3439285121884
 31
0.0
  0
LINE
  5
22AE
330
1E
100
AcDbEntity
  8
STEMPEL
100
AcDbLine
 10
124.3767079731785
 20
224.0939285121884
 30
0.0
 11
124.3767079731785
 21
212.3439285121884
 31
0.0
  0
LINE
  5
22AF
330
1E
100
AcDbEntity
  8
STEMPEL
100
AcDbLine
 10
320.1737079731786
 20
224.0939285121884
 30
0.0
 11
124.3767079731785
 21
224.0939285121884
 31
0.0
  0
LINE
  5
22B0
330
1E
100
AcDbEntity
  8
HILF
100
AcDbLine
 10
127.9217079731785
 20
248.0939285121884
 30
0.0
 11
127.9217079731785
 21
224.0939285121884
 31
0.0
  0
LINE
  5
22B1
330
1E
100
AcDbEntity
  8
HILF
100
AcDbLine
 10
316.6297079731785
 20
248.0939285121884
 30
0.0
 11
316.6297079731785
 21
224.0939285121884
 31
0.0
  0
LINE
  5
22B2
330
1E
100
AcDbEntity
  8
MITTEL
100
AcDbLine
 10
329.7757079731785
 20
224.5939285121885
 30
0.0
 11
329.7757079731785
 21
247.5939285121884
 31
0.0
  0
LINE
  5
22B3
330
1E
100
AcDbEntity
  8
MITTEL
100
AcDbLine
 10
114.7757079731784
 20
225.5489285121885
 30
0.0
 11
114.7757079731785
 21
248.5489285121885
 31
0.0
  0
LINE
  5
22B4
330
1E
100
AcDbEntity
  8
MITTEL
100
AcDbLine
 10
222.2907079731784
 20
264.8439285121884
 30
0.0
 11
222.2907079731784
 21
207.3439285121884
 31
0.0
  0
LINE
  5
22B5
330
1E
100
AcDbEntity
  8
MITTEL
100
AcDbLine
 10
345.7757079731785
 20
236.0939285121884
 30
0.0
 11
98.77570797317861
 21
236.0939285121884
 31
0.0
  0
LINE
  5
22B6
330
1E
100
AcDbEntity
  8
STEMPEL
100
AcDbLine
 10
335.4167079731785
 20
256.0939285121884
 30
0.0
 11
320.1737079731786
 21
256.0939285121884
 31
0.0
  0
ARC
  5
22B7
330
1E
100
AcDbEntity
  8
STEMPEL
100
AcDbCircle
 10
300.7757079731785
 20
236.0939285121884
 30
0.0
 40
40.0
100
AcDbArc
 50
329.9999999999995
 51
30.00000000000055
  0
LINE
  5
22B8
330
1E
100
AcDbEntity
  8
STEMPEL
100
AcDbLine
 10
320.1737079731786
 20
216.0939285121884
 30
0.0
 11
335.4167079731785
 21
216.0939285121884
 31
0.0
  0
LINE
  5
22B9
330
1E
100
AcDbEntity
  8
STEMPEL
100
AcDbLine
 10
109.1347079731786
 20
216.0939285121884
 30
0.0
 11
124.3767079731785
 21
216.0939285121884
 31
0.0
  0
ARC
  5
22BA
330
1E
100
AcDbEntity
  8
STEMPEL
100
AcDbCircle
 10
143.7757079731785
 20
236.0939285121884
 30
0.0
 40
40.0
100
AcDbArc
 50
149.9999999999994
 51
210.0000000000005
  0
LINE
  5
22BB
330
1E
100
AcDbEntity
  8
STEMPEL
100
AcDbLine
 10
124.3767079731785
 20
256.0939285121884
 30
0.0
 11
109.1347079731786
 21
256.0939285121884
 31
0.0
  0
LINE
  5
22D0
330
1E
100
AcDbEntity
  8
STEMPEL
100
AcDbLine
 10
322.5287079731786
 20
427.1333814117621
 30
0.0
 11
322.5287079731786
 21
426.6333814117621
 31
0.0
  0
LINE
  5
22D1
330
1E
100
AcDbEntity
  8
STEMPEL
100
AcDbLine
 10
337.0287079731786
 20
427.1333814117621
 30
0.0
 11
322.5287079731786
 21
427.1333814117621
 31
0.0
  0
LINE
  5
22D2
330
1E
100
AcDbEntity
  8
STEMPEL
100
AcDbLine
 10
337.0287079731786
 20
426.6333814117621
 30
0.0
 11
337.0287079731786
 21
427.1333814117621
 31
0.0
  0
LINE
  5
22D3
330
1E
100
AcDbEntity
  8
STEMPEL
100
AcDbLine
 10
322.5287079731786
 20
426.6333814117621
 30
0.0
 11
337.0287079731786
 21
426.6333814117621
 31
0.0
  0
LINE
  5
22D4
330
1E
100
AcDbEntity
  8
STEMPEL
100
AcDbLine
 10
107.5527079731785
 20
427.1333814117621
 30
0.0
 11
107.5527079731785
 21
426.6333814117621
 31
0.0
  0
LINE
  5
22D5
330
1E
100
AcDbEntity
  8
STEMPEL
100
AcDbLine
 10
122.0527079731785
 20
427.1333814117621
 30
0.0
 11
107.5527079731785
 21
427.1333814117621
 31
0.0
  0
LINE
  5
22D6
330
1E
100
AcDbEntity
  8
STEMPEL
100
AcDbLine
 10
122.0527079731785
 20
426.6333814117621
 30
0.0
 11
122.0527079731785
 21
427.1333814117621
 31
0.0
  0
LINE
  5
22D7
330
1E
100
AcDbEntity
  8
STEMPEL
100
AcDbLine
 10
107.5527079731785
 20
426.6333814117621
 30
0.0
 11
122.0527079731785
 21
426.6333814117621
 31
0.0
  0
ARC
  5
22D8
330
1E
100
AcDbEntity
  8
STEMPEL
100
AcDbCircle
 10
222.2907079731785
 20
426.8833814117622
 30
0.0
 40
83.49999999999999
100
AcDbArc
 50
4.413474681000349
 51
45.54634214599951
  0
ARC
  5
22D9
330
1E
100
AcDbEntity
  8
STEMPEL
100
AcDbCircle
 10
222.2907079731785
 20
426.8833814117622
 30
0.0
 40
83.49999999999999
100
AcDbArc
 50
52.09260900500163
 51
175.5865253189996
  0
ARC
  5
22DA
330
1E
100
AcDbEntity
  8
STEMPEL
100
AcDbCircle
 10
222.2907079731785
 20
426.8833814117622
 30
0.0
 40
83.49999999999999
100
AcDbArc
 50
184.4134746810004
 51
224.7949607749998
  0
ARC
  5
22DB
330
1E
100
AcDbEntity
  8
STEMPEL
100
AcDbCircle
 10
222.2907079731785
 20
426.8833814117622
 30
0.0
 40
83.49999999999999
100
AcDbArc
 50
231.7152541160003
 51
355.5865253189996
  0
LINE
  5
22DC
330
1E
100
AcDbEntity
  8
HILF
100
AcDbLine
 10
170.5567079731786
 20
361.3403814117622
 30
0.0
 11
168.8857079731785
 21
356.9423814117622
 31
0.0
  0
LINE
  5
22DD
330
1E
100
AcDbEntity
  8
HILF
100
AcDbLine
 10
168.8857079731785
 20
356.9423814117622
 30
0.0
 11
159.0997079731785
 21
351.9223814117621
 31
0.0
  0
LINE
  5
22DE
330
1E
100
AcDbEntity
  8
HILF
100
AcDbLine
 10
159.0997079731785
 20
351.9223814117621
 30
0.0
 11
158.3557079731786
 21
350.9693814117621
 31
0.0
  0
LINE
  5
22DF
330
1E
100
AcDbEntity
  8
HILF
100
AcDbLine
 10
151.8547079731786
 20
359.3573814117622
 30
0.0
 11
150.8137079731785
 21
358.0233814117621
 31
0.0
  0
LINE
  5
22E0
330
1E
100
AcDbEntity
  8
HILF
100
AcDbLine
 10
161.6407079731786
 20
364.3773814117622
 30
0.0
 11
151.8547079731786
 21
359.3573814117622
 31
0.0
  0
LINE
  5
22E1
330
1E
100
AcDbEntity
  8
HILF
100
AcDbLine
 10
163.0367079731785
 20
368.0513814117622
 30
0.0
 11
161.6407079731786
 21
364.3773814117622
 31
0.0
  0
LINE
  5
22E2
330
1E
100
AcDbEntity
  8
HILF
100
AcDbLine
 10
280.7687079731786
 20
486.4863814117621
 30
0.0
 11
284.1017079731786
 21
488.6363814117621
 31
0.0
  0
LINE
  5
22E3
330
1E
100
AcDbEntity
  8
HILF
100
AcDbLine
 10
284.1017079731786
 20
488.6363814117621
 30
0.0
 11
288.6307079731786
 21
496.8063814117622
 31
0.0
  0
LINE
  5
22E4
330
1E
100
AcDbEntity
  8
HILF
100
AcDbLine
 10
288.6307079731786
 20
496.8063814117622
 30
0.0
 11
291.0467079731786
 21
498.4593814117622
 31
0.0
  0
LINE
  5
22E5
330
1E
100
AcDbEntity
  8
HILF
100
AcDbLine
 10
282.1647079731786
 20
503.5433814117621
 30
0.0
 11
283.8767079731785
 21
504.7143814117622
 31
0.0
  0
LINE
  5
22E6
330
1E
100
AcDbEntity
  8
HILF
100
AcDbLine
 10
277.6357079731786
 20
495.3733814117621
 30
0.0
 11
282.1647079731786
 21
503.5433814117621
 31
0.0
  0
LINE
  5
22E7
330
1E
100
AcDbEntity
  8
HILF
100
AcDbLine
 10
273.5917079731785
 20
492.7653814117621
 30
0.0
 11
277.6357079731786
 21
495.3733814117621
 31
0.0
  0
LINE
  5
22E8
330
1E
100
AcDbEntity
  8
STEMPEL
100
AcDbLine
 10
139.0387079731786
 20
420.4573814117622
 30
0.0
 11
123.3287079731785
 21
419.3263814117621
 31
0.0
  0
LINE
  5
22E9
330
1E
100
AcDbEntity
  8
STEMPEL
100
AcDbLine
 10
139.0387079731786
 20
433.3083814117621
 30
0.0
 11
123.3287079731785
 21
434.4403814117621
 31
0.0
  0
LINE
  5
22EA
330
1E
100
AcDbEntity
  8
STEMPEL
100
AcDbLine
 10
305.5427079731785
 20
420.4573814117622
 30
0.0
 11
321.2527079731785
 21
419.3263814117621
 31
0.0
  0
LINE
  5
22EB
330
1E
100
AcDbEntity
  8
STEMPEL
100
AcDbLine
 10
305.5427079731785
 20
433.3083814117621
 30
0.0
 11
321.2527079731785
 21
434.4403814117621
 31
0.0
  0
ARC
  5
22EC
330
1E
100
AcDbEntity
  8
STEMPEL
100
AcDbCircle
 10
222.2907079731785
 20
426.8833814117622
 30
0.0
 40
99.25
100
AcDbArc
 50
229.8956246540007
 51
355.6331506839991
  0
ARC
  5
22ED
330
1E
100
AcDbEntity
  8
STEMPEL
100
AcDbCircle
 10
222.2907079731785
 20
426.8833814117622
 30
0.0
 40
99.25
100
AcDbArc
 50
184.3668493160008
 51
223.9312640190005
  0
ARC
  5
22EE
330
1E
100
AcDbEntity
  8
STEMPEL
100
AcDbCircle
 10
222.2907079731785
 20
426.8833814117622
 30
0.0
 40
99.25
100
AcDbArc
 50
4.366849316000831
 51
46.15136062399971
  0
ARC
  5
22EF
330
1E
100
AcDbEntity
  8
STEMPEL
100
AcDbCircle
 10
222.2907079731785
 20
426.8833814117622
 30
0.0
 40
99.25
100
AcDbArc
 50
51.6462552379999
 51
175.6331506839992
  0
ARC
  5
22F3
330
1E
100
AcDbEntity
  8
STEMPEL
100
AcDbCircle
 10
214.0637079731785
 20
320.4613814117621
 30
0.0
 40
5.328
100
AcDbArc
 50
270.0
 51
300.9790988619991
  0
ARC
  5
22F4
330
1E
100
AcDbEntity
  8
STEMPEL
100
AcDbCircle
 10
214.0637079731785
 20
320.4613814117621
 30
0.0
 40
5.328
100
AcDbArc
 50
239.0209011380008
 51
270.0
  0
ARC
  5
22F5
330
1E
100
AcDbEntity
  8
STEMPEL
100
AcDbCircle
 10
222.2907079731785
 20
335.3043814117622
 30
0.0
 40
20.172
100
AcDbArc
 50
254.2221938999997
 51
285.7778061000002
  0
ARC
  5
22F6
330
1E
100
AcDbEntity
  8
STEMPEL
100
AcDbCircle
 10
230.5177079731785
 20
320.4613814117621
 30
0.0
 40
5.328
100
AcDbArc
 50
270.0
 51
300.9790988619991
  0
ARC
  5
22F7
330
1E
100
AcDbEntity
  8
STEMPEL
100
AcDbCircle
 10
230.5177079731785
 20
320.4613814117621
 30
0.0
 40
5.328
100
AcDbArc
 50
239.0209011380008
 51
270.0
  0
LINE
  5
22F8
330
1E
100
AcDbEntity
  8
STEMPEL
100
AcDbLine
 10
230.5177079731785
 20
315.1333814117622
 30
0.0
 11
214.0637079731785
 21
315.1333814117622
 31
0.0
  0
LINE
  5
22F9
330
1E
100
AcDbEntity
  8
STEMPEL
100
AcDbLine
 10
211.3207079731785
 20
328.2413814117622
 30
0.0
 11
211.3207079731785
 21
315.8933814117621
 31
0.0
  0
LINE
  5
22FA
330
1E
100
AcDbEntity
  8
STEMPEL
100
AcDbLine
 10
216.8057079731785
 20
327.7843814117622
 30
0.0
 11
216.8057079731785
 21
315.8933814117621
 31
0.0
  0
LINE
  5
22FB
330
1E
100
AcDbEntity
  8
STEMPEL
100
AcDbLine
 10
227.7757079731785
 20
327.7843814117622
 30
0.0
 11
227.7757079731785
 21
315.8933814117621
 31
0.0
  0
LINE
  5
22FC
330
1E
100
AcDbEntity
  8
STEMPEL
100
AcDbLine
 10
233.2607079731786
 20
328.2413814117622
 30
0.0
 11
233.2607079731786
 21
315.8933814117621
 31
0.0
  0
ARC
  5
22FD
330
1E
100
AcDbEntity
  8
STEMPEL
100
AcDbCircle
 10
124.0767079731786
 20
419.3833814117621
 30
0.0
 40
3.0
100
AcDbArc
 50
4.366849316000831
 51
90.0
  0
ARC
  5
22FE
330
1E
100
AcDbEntity
  8
STEMPEL
100
AcDbCircle
 10
125.0797079731785
 20
419.3833814117621
 30
0.0
 40
6.0
100
AcDbArc
 50
4.411725785999814
 51
90.0
  0
ARC
  5
22FF
330
1E
100
AcDbEntity
  8
STEMPEL
100
AcDbCircle
 10
320.5047079731785
 20
419.3833814117621
 30
0.0
 40
3.0
100
AcDbArc
 50
90.0
 51
175.6331506839992
  0
ARC
  5
2300
330
1E
100
AcDbEntity
  8
STEMPEL
100
AcDbCircle
 10
319.5017079731786
 20
419.3833814117621
 30
0.0
 40
6.0
100
AcDbArc
 50
90.0
 51
175.5882742140001
  0
ARC
  5
2301
330
1E
100
AcDbEntity
  8
STEMPEL
100
AcDbCircle
 10
222.2907079731785
 20
426.8833814117622
 30
0.0
 40
91.5
100
AcDbArc
 50
224.9316703569994
 51
231.5952875439982
  0
ARC
  5
2302
330
1E
100
AcDbEntity
  8
STEMPEL
100
AcDbCircle
 10
222.2907079731785
 20
426.8833814117622
 30
0.0
 40
95.5
100
AcDbArc
 50
355.6234443460006
 51
355.6331506839991
  0
ARC
  5
2303
330
1E
100
AcDbEntity
  8
STEMPEL
100
AcDbCircle
 10
222.2907079731785
 20
426.8833814117622
 30
0.0
 40
95.5
100
AcDbArc
 50
224.1638661989986
 51
230.509246540999
  0
ARC
  5
2304
330
1E
100
AcDbEntity
  8
STEMPEL
100
AcDbCircle
 10
222.2907079731785
 20
426.8833814117622
 30
0.0
 40
95.5
100
AcDbArc
 50
184.3668493160008
 51
184.3765556539994
  0
ARC
  5
2305
330
1E
100
AcDbEntity
  8
STEMPEL
100
AcDbCircle
 10
323.2787079731786
 20
420.8833814117621
 30
0.0
 40
1.5
100
AcDbArc
 50
0.0
 51
90.0
  0
LINE
  5
2306
330
1E
100
AcDbEntity
  8
STEMPEL
100
AcDbLine
 10
324.7787079731786
 20
420.8833814117621
 30
0.0
 11
324.7787079731786
 21
419.3833814117621
 31
0.0
  0
LINE
  5
2307
330
1E
100
AcDbEntity
  8
STEMPEL
100
AcDbLine
 10
324.7787079731786
 20
419.3833814117621
 30
0.0
 11
334.7787079731786
 21
419.3833814117621
 31
0.0
  0
LINE
  5
2308
330
1E
100
AcDbEntity
  8
STEMPEL
100
AcDbLine
 10
334.7787079731786
 20
419.3833814117621
 30
0.0
 11
334.7787079731786
 21
420.8833814117621
 31
0.0
  0
ARC
  5
2309
330
1E
100
AcDbEntity
  8
STEMPEL
100
AcDbCircle
 10
336.2787079731786
 20
420.8833814117621
 30
0.0
 40
1.5
100
AcDbArc
 50
90.0
 51
180.0
  0
LINE
  5
230A
330
1E
100
AcDbEntity
  8
STEMPEL
100
AcDbLine
 10
335.4167079731785
 20
425.3833814117621
 30
0.0
 11
335.4167079731785
 21
422.3833814117622
 31
0.0
  0
LINE
  5
230B
330
1E
100
AcDbEntity
  8
STEMPEL
100
AcDbLine
 10
109.8027079731785
 20
420.8833814117621
 30
0.0
 11
109.8027079731785
 21
419.3833814117621
 31
0.0
  0
LINE
  5
230C
330
1E
100
AcDbEntity
  8
STEMPEL
100
AcDbLine
 10
119.8027079731785
 20
419.3833814117621
 30
0.0
 11
119.8027079731785
 21
420.8833814117621
 31
0.0
  0
LINE
  5
230D
330
1E
100
AcDbEntity
  8
STEMPEL
100
AcDbLine
 10
109.8027079731785
 20
419.3833814117621
 30
0.0
 11
119.8027079731785
 21
419.3833814117621
 31
0.0
  0
ARC
  5
230E
330
1E
100
AcDbEntity
  8
STEMPEL
100
AcDbCircle
 10
108.3027079731785
 20
420.8833814117621
 30
0.0
 40
1.5
100
AcDbArc
 50
0.0
 51
90.0
  0
LINE
  5
230F
330
1E
100
AcDbEntity
  8
STEMPEL
100
AcDbLine
 10
109.1447079731786
 20
425.3833814117621
 30
0.0
 11
109.1447079731786
 21
422.3833814117622
 31
0.0
  0
ARC
  5
2310
330
1E
100
AcDbEntity
  8
STEMPEL
100
AcDbCircle
 10
121.3027079731785
 20
420.8833814117621
 30
0.0
 40
1.5
100
AcDbArc
 50
90.0
 51
180.0
  0
LINE
  5
2311
330
1E
100
AcDbEntity
  8
STEMPEL
100
AcDbLine
 10
340.7787079731786
 20
422.3833814117622
 30
0.0
 11
320.5047079731785
 21
422.3833814117622
 31
0.0
  0
LINE
  5
2312
330
1E
100
AcDbEntity
  8
STEMPEL
100
AcDbLine
 10
340.7787079731786
 20
425.3833814117621
 30
0.0
 11
340.7787079731786
 21
422.3833814117622
 31
0.0
  0
LINE
  5
2313
330
1E
100
AcDbEntity
  8
STEMPEL
100
AcDbLine
 10
319.5017079731786
 20
425.3833814117621
 30
0.0
 11
340.7787079731786
 21
425.3833814117621
 31
0.0
  0
LINE
  5
2314
330
1E
100
AcDbEntity
  8
STEMPEL
100
AcDbLine
 10
103.7757079731785
 20
422.3833814117622
 30
0.0
 11
124.0767079731786
 21
422.3833814117622
 31
0.0
  0
LINE
  5
2315
330
1E
100
AcDbEntity
  8
STEMPEL
100
AcDbLine
 10
103.7757079731785
 20
425.3833814117621
 30
0.0
 11
103.7757079731785
 21
422.3833814117622
 31
0.0
  0
LINE
  5
2316
330
1E
100
AcDbEntity
  8
STEMPEL
100
AcDbLine
 10
125.0797079731785
 20
425.3833814117621
 30
0.0
 11
103.7757079731785
 21
425.3833814117621
 31
0.0
  0
ARC
  5
2317
330
1E
100
AcDbEntity
  8
STEMPEL
100
AcDbCircle
 10
124.0767079731786
 20
434.3833814117622
 30
0.0
 40
3.0
100
AcDbArc
 50
270.0
 51
355.6331506839991
  0
ARC
  5
2318
330
1E
100
AcDbEntity
  8
STEMPEL
100
AcDbCircle
 10
125.0797079731785
 20
434.3833814117622
 30
0.0
 40
6.0
100
AcDbArc
 50
270.0
 51
355.5882742140002
  0
ARC
  5
2319
330
1E
100
AcDbEntity
  8
STEMPEL
100
AcDbCircle
 10
319.5017079731786
 20
434.3833814117622
 30
0.0
 40
6.0
100
AcDbArc
 50
184.4117257859998
 51
270.0
  0
ARC
  5
231A
330
1E
100
AcDbEntity
  8
STEMPEL
100
AcDbCircle
 10
320.5047079731785
 20
434.3833814117622
 30
0.0
 40
3.0
100
AcDbArc
 50
184.3668493160008
 51
270.0
  0
ARC
  5
231B
330
1E
100
AcDbEntity
  8
STEMPEL
100
AcDbCircle
 10
222.2907079731785
 20
426.8833814117622
 30
0.0
 40
91.5
100
AcDbArc
 50
45.71430997300113
 51
51.43692690399952
  0
ARC
  5
231C
330
1E
100
AcDbEntity
  8
STEMPEL
100
AcDbCircle
 10
222.2907079731785
 20
426.8833814117622
 30
0.0
 40
95.5
100
AcDbArc
 50
4.366849316000831
 51
4.376555653999361
  0
ARC
  5
231D
330
1E
100
AcDbEntity
  8
STEMPEL
100
AcDbCircle
 10
222.2907079731785
 20
426.8833814117622
 30
0.0
 40
95.5
100
AcDbArc
 50
46.36924623899922
 51
51.84106791899893
  0
ARC
  5
231E
330
1E
100
AcDbEntity
  8
STEMPEL
100
AcDbCircle
 10
222.2907079731785
 20
426.8833814117622
 30
0.0
 40
95.5
100
AcDbArc
 50
175.623444345999
 51
175.6331506839992
  0
LINE
  5
231F
330
1E
100
AcDbEntity
  8
STEMPEL
100
AcDbLine
 10
109.1447079731786
 20
428.3833814117621
 30
0.0
 11
109.1447079731786
 21
431.3833814117622
 31
0.0
  0
LINE
  5
2320
330
1E
100
AcDbEntity
  8
STEMPEL
100
AcDbLine
 10
335.4167079731785
 20
428.3833814117621
 30
0.0
 11
335.4167079731785
 21
431.3833814117622
 31
0.0
  0
LINE
  5
2321
330
1E
100
AcDbEntity
  8
STEMPEL
100
AcDbLine
 10
340.7787079731786
 20
428.3833814117621
 30
0.0
 11
319.5017079731786
 21
428.3833814117621
 31
0.0
  0
LINE
  5
2322
330
1E
100
AcDbEntity
  8
STEMPEL
100
AcDbLine
 10
340.7787079731786
 20
431.3833814117622
 30
0.0
 11
340.7787079731786
 21
428.3833814117621
 31
0.0
  0
LINE
  5
2323
330
1E
100
AcDbEntity
  8
STEMPEL
100
AcDbLine
 10
320.5047079731785
 20
431.3833814117622
 30
0.0
 11
340.7787079731786
 21
431.3833814117622
 31
0.0
  0
LINE
  5
2324
330
1E
100
AcDbEntity
  8
STEMPEL
100
AcDbLine
 10
103.7757079731785
 20
428.3833814117621
 30
0.0
 11
125.0797079731785
 21
428.3833814117621
 31
0.0
  0
LINE
  5
2325
330
1E
100
AcDbEntity
  8
STEMPEL
100
AcDbLine
 10
103.7757079731785
 20
431.3833814117622
 30
0.0
 11
103.7757079731785
 21
428.3833814117621
 31
0.0
  0
LINE
  5
2326
330
1E
100
AcDbEntity
  8
STEMPEL
100
AcDbLine
 10
124.0767079731786
 20
431.3833814117622
 30
0.0
 11
103.7757079731785
 21
431.3833814117622
 31
0.0
  0
LINE
  5
2327
330
1E
100
AcDbEntity
  8
MITTEL
100
AcDbLine
 10
114.8027079731785
 20
396.3833814117622
 30
0.0
 11
114.8027079731785
 21
441.6833814117621
 31
0.0
  0
LINE
  5
2328
330
1E
100
AcDbEntity
  8
MITTEL
100
AcDbLine
 10
329.7787079731784
 20
396.3833814117621
 30
0.0
 11
329.7787079731786
 21
441.6833814117621
 31
0.0
  0
LINE
  5
2329
330
1E
100
AcDbEntity
  8
MITTEL
100
AcDbLine
 10
345.7787079731786
 20
426.8833814117622
 30
0.0
 11
98.77570797317856
 21
426.8833814117622
 31
0.0
  0
LINE
  5
232A
330
1E
100
AcDbEntity
  8
MITTEL
100
AcDbLine
 10
222.2907079731785
 20
310.1333814117622
 30
0.0
 11
222.2907079731785
 21
531.1333814117622
 31
0.0
  0
DIMENSION
  5
2343
330
1E
100
AcDbEntity
  8
BEM
100
AcDbDimension
  2
*D1
 10
329.7757079731785
 20
189.4372981278056
 30
0.0
 11
222.2757079731785
 21
195.9372981278056
 31
0.0
 70
    32
 71
     5
 42
215.0000000000001
  3
Standard
100
AcDbAlignedDimension
 13
114.7757079731784
 23
225.5489285121885
 33
0.0
 14
329.7757079731785
 24
224.5939285121885
 34
0.0
100
AcDbRotatedDimension
1001
ACAD
1000
DSTYLE
1002
{
1070
    40
1040
2.0
1070
    41
1040
3.5
1070
    42
1040
1.0
1070
    43
1040
7.0
1070
    44
1040
1.0
1070
    73
1070
     0
1070
    74
1070
     0
1070
    77
1070
     1
1070
    78
1070
     8
1070
    79
1070
     2
1070
   140
1040
3.5
1070
   141
1040
1.5
1070
   146
1040
0.5142857142857144
1070
   147
1040
1.5
1070
   172
1070
     1
1070
   178
1070
     1
1070
   179
1070
     2
1070
   271
1070
     2
1070
   272
1070
     2
1070
   284
1070
     8
1070
   285
1070
     8
1070
   286
1070
     8
1002
}
  0
DIMENSION
  5
2350
330
1E
100
AcDbEntity
  8
BEM
100
AcDbDimension
  2
*D2
 10
340.7757079731786
 20
174.3006088414131
 30
0.0
 11
222.2757079731786
 21
180.8006088414131
 31
0.0
 70
    32
 71
     5
 42
237.0
  3
Standard
100
AcDbAlignedDimension
 13
103.7757079731785
 23
236.0939285121884
 33
0.0
 14
340.7757079731786
 24
236.0939285121884
 34
0.0
100
AcDbRotatedDimension
1001
ACAD
1000
DSTYLE
1002
{
1070
    40
1040
2.0
1070
    41
1040
3.5
1070
    42
1040
1.0
1070
    43
1040
7.0
1070
    44
1040
1.0
1070
    73
1070
     0
1070
    74
1070
     0
1070
    77
1070
     1
1070
    78
1070
     8
1070
    79
1070
     2
1070
   140
1040
3.5
1070
   141
1040
1.5
1070
   146
1040
0.5142857142857144
1070
   147
1040
1.5
1070
   172
1070
     1
1070
   178
1070
     1
1070
   179
1070
     2
1070
   271
1070
     2
1070
   272
1070
     2
1070
   284
1070
     8
1070
   285
1070
     8
1070
   286
1070
     8
1002
}
  0
DIMENSION
  5
2367
330
1E
100
AcDbEntity
  8
BEM
100
AcDbDimension
  2
*D3
 10
95.92003404880825
 20
428.3833814117621
 30
0.0
 11
89.42003404880818
 21
447.2500480784288
 31
0.0
 70
    32
 71
     5
 42
3.0
  3
Standard
100
AcDbAlignedDimension
 13
103.7757079731785
 23
425.3833814117621
 33
0.0
 14
103.7757079731785
 24
428.3833814117621
 34
0.0
 50
90.0
100
AcDbRotatedDimension
1001
ACAD
1000
DSTYLE
1002
{
1070
    40
1040
2.0
1070
    41
1040
3.5
1070
    42
1040
1.0
1070
    43
1040
7.0
1070
    44
1040
1.0
1070
    73
1070
     0
1070
    74
1070
     0
1070
    77
1070
     1
1070
    78
1070
     8
1070
    79
1070
     2
1070
   140
1040
3.5
1070
   141
1040
1.5
1070
   146
1040
0.5142857142857144
1070
   147
1040
1.5
1070
   172
1070
     1
1070
   178
1070
     1
1070
   179
1070
     2
1070
   271
1070
     2
1070
   272
1070
     2
1070
   284
1070
     8
1070
   285
1070
     8
1070
   286
1070
     8
1002
}
  0
DIMENSION
  5
2383
330
1E
100
AcDbEntity
  8
BEM
100
AcDbDimension
  2
*D4
 10
80.12021557731623
 20
526.1333814117622
 30
0.0
 11
73.62021557731615
 21
420.6333814117622
 31
0.0
 70
    32
 71
     5
 42
211.0
  3
Standard
100
AcDbAlignedDimension
 13
214.0637079731785
 23
315.1333814117622
 33
0.0
 14
222.2907079731785
 24
526.1333814117622
 34
0.0
 50
90.0
100
AcDbRotatedDimension
1001
ACAD
1000
DSTYLE
1002
{
1070
    40
1040
2.0
1070
    41
1040
3.5
1070
    42
1040
1.0
1070
    43
1040
7.0
1070
    44
1040
1.0
1070
    73
1070
     0
1070
    74
1070
     0
1070
    77
1070
     1
1070
    78
1070
     8
1070
    79
1070
     2
1070
   140
1040
3.5
1070
   141
1040
1.5
1070
   146
1040
0.5142857142857144
1070
   147
1040
1.5
1070
   172
1070
     1
1070
   178
1070
     1
1070
   179
1070
     2
1070
   271
1070
     2
1070
   272
1070
     2
1070
   284
1070
     8
1070
   285
1070
     8
1070
   286
1070
     8
1002
}
  0
DIMENSION
  5
23CE
330
1E
100
AcDbEntity
  8
BEM
100
AcDbDimension
  2
*D5
 10
283.5856953448265
 20
494.8185216461285
 30
0.0
 11
242.9524420798153
 21
449.6907220517832
 31
0.0
 70
   160
  1
%%c<>
 71
     5
 42
183.0
  3
Standard
100
AcDbAlignedDimension
 13
161.065257491343
 23
358.8856298805806
 33
0.0
 14
283.5161584550141
 24
494.8811329429436
 34
0.0
 50
47.99999999999981
100
AcDbRotatedDimension
1001
ACAD
1000
DSTYLE
1002
{
1070
    40
1040
2.0
1070
    41
1040
3.5
1070
    42
1040
1.0
1070
    43
1040
7.0
1070
    44
1040
1.0
1070
    73
1070
     0
1070
    74
1070
     0
1070
    77
1070
     1
1070
    78
1070
     8
1070
    79
1070
     2
1070
   140
1040
3.5
1070
   141
1040
1.5
1070
   146
1040
0.5142857142857144
1070
   147
1040
1.5
1070
   172
1070
     1
1070
   178
1070
     1
1070
   179
1070
     2
1070
   271
1070
     2
1070
   272
1070
     2
1070
   284
1070
     8
1070
   285
1070
     8
1070
   286
1070
     8
1002
}
  0
TEXT
  5
240E
330
1E
100
AcDbEntity
  8
TEXT
 62
     1
100
AcDbText
 10
227.8365522679116
 20
115.6405708316599
 30
0.0
 40
7.0
  1
Werkstoff: St37 Dickschichtpassiviert
 41
0.8
  7
GREEKS
100
AcDbText
  0
DIMENSION
  5
2417
330
1E
100
AcDbEntity
  8
BEM
100
AcDbDimension
  2
*D6
 10
87.83919924720136
 20
256.0939285121884
 30
0.0
 11
81.3391992472013
 21
236.0939285121884
 31
0.0
 70
    32
 71
     5
 42
39.99999999999997
  3
Standard
100
AcDbAlignedDimension
 13
109.1347079731786
 23
216.0939285121884
 33
0.0
 14
109.1347079731786
 24
256.0939285121884
 34
0.0
 50
90.0
100
AcDbRotatedDimension
1001
ACAD
1000
DSTYLE
1002
{
1070
    40
1040
2.0
1070
    41
1040
3.5
1070
    42
1040
1.0
1070
    43
1040
7.0
1070
    44
1040
1.0
1070
    73
1070
     0
1070
    74
1070
     0
1070
    77
1070
     1
1070
    78
1070
     8
1070
    79
1070
     2
1070
   140
1040
3.5
1070
   141
1040
1.5
1070
   146
1040
0.5142857142857144
1070
   147
1040
1.5
1070
   172
1070
     1
1070
   178
1070
     1
1070
   179
1070
     2
1070
   271
1070
     2
1070
   272
1070
     2
1070
   284
1070
     8
1070
   285
1070
     8
1070
   286
1070
     8
1002
}
  0
ENDSEC
  0
SECTION
  2
OBJECTS
  0
DICTIONARY
  5
C
330
0
100
AcDbDictionary
281
     1
  3
ACAD_COLOR
350
DF
  3
ACAD_GROUP
350
D
  3
ACAD_LAYOUT
350
19
  3
ACAD_MATERIAL
350
DE
  3
ACAD_MLINESTYLE
350
16
  3
ACAD_PLOTSETTINGS
350
18
  3
ACAD_PLOTSTYLENAME
350
E
  3
AcDbVariableDictionary
350
EA
  0
DICTIONARY
  5
A0
330
1E
100
AcDbDictionary
280
     1
281
     1
  3
ACAD_LAYOUTSELFREF
360
D4
  0
DICTIONARY
  5
A2
330
1A
100
AcDbDictionary
280
     1
281
     1
  3
ACAD_LAYOUTSELFREF
360
D3
  0
DICTIONARY
  5
DF
102
{ACAD_REACTORS
330
C
102
}
330
C
100
AcDbDictionary
281
     1
  0
DICTIONARY
  5
D
102
{ACAD_REACTORS
330
C
102
}
330
C
100
AcDbDictionary
281
     1
  0
DICTIONARY
  5
19
102
{ACAD_REACTORS
330
C
102
}
330
C
100
AcDbDictionary
281
     1
  3
Layout1
350
1D
  3
Model
350
21
  0
DICTIONARY
  5
DE
102
{ACAD_REACTORS
330
C
102
}
330
C
100
AcDbDictionary
281
     1
  0
DICTIONARY
  5
16
102
{ACAD_REACTORS
330
C
102
}
330
C
100
AcDbDictionary
281
     1
  3
Standard
350
17
  0
DICTIONARY
  5
18
102
{ACAD_REACTORS
330
C
102
}
330
C
100
AcDbDictionary
281
     1
  0
ACDBDICTIONARYWDFLT
  5
E
102
{ACAD_REACTORS
330
C
102
}
330
C
100
AcDbDictionary
281
     1
  3
Normal
350
F
100
AcDbDictionaryWithDefault
340
F
  0
DICTIONARY
  5
EA
102
{ACAD_REACTORS
330
C
102
}
330
C
100
AcDbDictionary
281
     1
  3
DIMASSOC
350
EB
  3
PROJECTNAME
350
EC
  0
XRECORD
  5
D4
102
{ACAD_REACTORS
330
A0
102
}
330
A0
100
AcDbXrecord
280
     1
340
1E
  0
XRECORD
  5
D3
102
{ACAD_REACTORS
330
A2
102
}
330
A2
100
AcDbXrecord
280
     1
340
1A
  0
LAYOUT
  5
1D
102
{ACAD_REACTORS
330
19
102
}
330
19
100
AcDbPlotSettings
  1

  2
\\NT_WORK01\HP LaserJet 5000 PCL 6
  4

  6

 40
0.0
 41
0.0
 42
0.0
 43
0.0
 44
0.0
 45
0.0
 46
0.0
 47
0.0
 48
0.0
 49
0.0
140
0.0
141
0.0
142
1.0
143
1.0
 70
   688
 72
     0
 73
     0
 74
     5
  7

 75
    16
147
1.0
 76
     0
 77
     2
 78
   300
148
0.0
149
0.0
100
AcDbLayout
  1
Layout1
 70
     0
 71
     1
 10
0.0
 20
0.0
 11
12.0
 21
9.0
 12
0.0
 22
0.0
 32
0.0
 14
1.000000000000000E+20
 24
1.000000000000000E+20
 34
1.000000000000000E+20
 15
-1.000000000000000E+20
 25
-1.000000000000000E+20
 35
-1.000000000000000E+20
146
0.0
 13
0.0
 23
0.0
 33
0.0
 16
1.0
 26
0.0
 36
0.0
 17
0.0
 27
1.0
 37
0.0
 76
     0
330
1A
  0
LAYOUT
  5
21
102
{ACAD_REACTORS
330
19
102
}
330
19
100
AcDbPlotSettings
  1

  2
none_device
  4
Letter_(8.50_x_11.00_Inches)
  6

 40
6.349999904632568
 41
6.349999904632568
 42
6.350006103515625
 43
6.350006103515625
 44
215.8999938964844
 45
279.3999938964844
 46
0.0
 47
0.0
 48
0.0
 49
0.0
140
0.0
141
0.0
142
1.0
143
1.0
 70
 11952
 72
     0
 73
     1
 74
     0
  7

 75
     0
147
1.0
 76
     0
 77
     2
 78
   300
148
-230.4417396561563
149
47.00486644638983
100
AcDbLayout
  1
Model
 70
     1
 71
     0
 10
0.0
 20
0.0
 11
12.0
 21
9.0
 12
0.0
 22
0.0
 32
0.0
 14
0.0
 24
0.0
 34
0.0
 15
0.0
 25
0.0
 35
0.0
146
0.0
 13
0.0
 23
0.0
 33
0.0
 16
1.0
 26
0.0
 36
0.0
 17
0.0
 27
1.0
 37
0.0
 76
     0
330
1E
  0
MLINESTYLE
  5
17
102
{ACAD_REACTORS
330
16
102
}
330
16
100
AcDbMlineStyle
  2
STANDARD
 70
     0
  3

 62
   256
 51
90.0
 52
90.0
 71
     2
 49
0.5
 62
   256
  6
BYLAYER
 49
-0.5
 62
   256
  6
BYLAYER
  0
ACDBPLACEHOLDER
  5
F
102
{ACAD_REACTORS
330
E
102
}
330
E
  0
DICTIONARYVAR
  5
EB
102
{ACAD_REACTORS
330
EA
102
}
330
EA
100
DictionaryVariables
280
     0
  1
1
  0
DICTIONARYVAR
  5
EC
102
{ACAD_REACTORS
330
EA
102
}
330
EA
100
DictionaryVariables
280
     0
  1

  0
ENDSEC
  0
EOF
