  0
SECTION
  2
HEADER
  9
$ACADVER
  1
AC1018
  9
$ACADMAINTVER
 70
     2
  9
$DWGCODEPAGE
  3
ANSI_1252
  9
$INSBASE
 10
0.0
 20
0.0
 30
0.0
  9
$EXTMIN
 10
-0.015951658689346
 20
-0.0135740042883299
 30
-0.0000000000000053
  9
$EXTMAX
 10
210.0153874624713
 20
297.0136058158889
 30
0.0000000000000099
  9
$LIMMIN
 10
0.0
 20
0.0
  9
$LIMMAX
 10
210.0
 20
297.0
  9
$ORTHOMODE
 70
     1
  9
$REGENMODE
 70
     1
  9
$FILLMODE
 70
     1
  9
$QTEXTMODE
 70
     0
  9
$MIRRTEXT
 70
     1
  9
$LTSCALE
 40
10.0
  9
$ATTMODE
 70
     1
  9
$TEXTSIZE
 40
2.5
  9
$TRACEWID
 40
0.5
  9
$TEXTSTYLE
  7
GREEKS
  9
$CLAYER
  8
BEM
  9
$CELTYPE
  6
ByLayer
  9
$CECOLOR
 62
   256
  9
$CELTSCALE
 40
1.0
  9
$DISPSILH
 70
     0
  9
$DIMSCALE
 40
1.0
  9
$DIMASZ
 40
3.5
  9
$DIMEXO
 40
1.0
  9
$DIMDLI
 40
7.0
  9
$DIMRND
 40
0.0
  9
$DIMDLE
 40
0.0
  9
$DIMEXE
 40
1.0
  9
$DIMTP
 40
0.0
  9
$DIMTM
 40
0.0
  9
$DIMTXT
 40
3.5
  9
$DIMCEN
 40
1.5
  9
$DIMTSZ
 40
0.0
  9
$DIMTOL
 70
     0
  9
$DIMLIM
 70
     0
  9
$DIMTIH
 70
     0
  9
$DIMTOH
 70
     0
  9
$DIMSE1
 70
     0
  9
$DIMSE2
 70
     0
  9
$DIMTAD
 70
     1
  9
$DIMZIN
 70
     8
  9
$DIMBLK
  1

  9
$DIMASO
 70
     1
  9
$DIMSHO
 70
     0
  9
$DIMPOST
  1

  9
$DIMAPOST
  1

  9
$DIMALT
 70
     0
  9
$DIMALTD
 70
     2
  9
$DIMALTF
 40
25.4
  9
$DIMLFAC
 40
1.0
  9
$DIMTOFL
 70
     1
  9
$DIMTVP
 40
0.0
  9
$DIMTIX
 70
     0
  9
$DIMSOXD
 70
     0
  9
$DIMSAH
 70
     0
  9
$DIMBLK1
  1

  9
$DIMBLK2
  1

  9
$DIMSTYLE
  2
Standard
  9
$DIMCLRD
 70
     0
  9
$DIMCLRE
 70
     0
  9
$DIMCLRT
 70
     1
  9
$DIMTFAC
 40
0.5142857142857144
  9
$DIMGAP
 40
1.5
  9
$DIMJUST
 70
     0
  9
$DIMSD1
 70
     0
  9
$DIMSD2
 70
     0
  9
$DIMTOLJ
 70
     1
  9
$DIMTZIN
 70
     8
  9
$DIMALTZ
 70
     8
  9
$DIMALTTZ
 70
     8
  9
$DIMUPT
 70
     0
  9
$DIMDEC
 70
     2
  9
$DIMTDEC
 70
     2
  9
$DIMALTU
 70
     2
  9
$DIMALTTD
 70
     2
  9
$DIMTXSTY
  7
STANDARD
  9
$DIMAUNIT
 70
     0
  9
$DIMADEC
 70
     2
  9
$DIMALTRND
 40
0.0
  9
$DIMAZIN
 70
     2
  9
$DIMDSEP
 70
    46
  9
$DIMATFIT
 70
     3
  9
$DIMFRAC
 70
     0
  9
$DIMLDRBLK
  1

  9
$DIMLUNIT
 70
     2
  9
$DIMLWD
 70
    -2
  9
$DIMLWE
 70
    -2
  9
$DIMTMOVE
 70
     0
  9
$LUNITS
 70
     2
  9
$LUPREC
 70
     2
  9
$SKETCHINC
 40
1.0
  9
$FILLETRAD
 40
15.0
  9
$AUNITS
 70
     0
  9
$AUPREC
 70
     0
  9
$MENU
  1
ACAD
  9
$ELEVATION
 40
0.0
  9
$PELEVATION
 40
0.0
  9
$THICKNESS
 40
0.0
  9
$LIMCHECK
 70
     0
  9
$CHAMFERA
 40
0.0
  9
$CHAMFERB
 40
0.0
  9
$CHAMFERC
 40
0.0
  9
$CHAMFERD
 40
0.0
  9
$SKPOLY
 70
     0
  9
$TDCREATE
 40
2455397.823042361
  9
$TDUCREATE
 40
2455397.781375695
  9
$TDUPDATE
 40
2456230.304131945
  9
$TDUUPDATE
 40
2456230.262465278
  9
$TDINDWG
 40
0.2385201273
  9
$TDUSRTIMER
 40
0.2385201273
  9
$USRTIMER
 70
     1
  9
$ANGBASE
 50
0.0
  9
$ANGDIR
 70
     0
  9
$PDMODE
 70
     0
  9
$PDSIZE
 40
0.0
  9
$PLINEWID
 40
0.0
  9
$SPLFRAME
 70
     0
  9
$SPLINETYPE
 70
     6
  9
$SPLINESEGS
 70
     8
  9
$HANDSEED
  5
12D8
  9
$SURFTAB1
 70
     6
  9
$SURFTAB2
 70
     6
  9
$SURFTYPE
 70
     6
  9
$SURFU
 70
     6
  9
$SURFV
 70
     6
  9
$UCSBASE
  2

  9
$UCSNAME
  2

  9
$UCSORG
 10
0.0
 20
0.0
 30
0.0
  9
$UCSXDIR
 10
1.0
 20
0.0
 30
0.0
  9
$UCSYDIR
 10
0.0
 20
1.0
 30
0.0
  9
$UCSORTHOREF
  2

  9
$UCSORTHOVIEW
 70
     0
  9
$UCSORGTOP
 10
0.0
 20
0.0
 30
0.0
  9
$UCSORGBOTTOM
 10
0.0
 20
0.0
 30
0.0
  9
$UCSORGLEFT
 10
0.0
 20
0.0
 30
0.0
  9
$UCSORGRIGHT
 10
0.0
 20
0.0
 30
0.0
  9
$UCSORGFRONT
 10
0.0
 20
0.0
 30
0.0
  9
$UCSORGBACK
 10
0.0
 20
0.0
 30
0.0
  9
$PUCSBASE
  2

  9
$PUCSNAME
  2

  9
$PUCSORG
 10
0.0
 20
0.0
 30
0.0
  9
$PUCSXDIR
 10
1.0
 20
0.0
 30
0.0
  9
$PUCSYDIR
 10
0.0
 20
1.0
 30
0.0
  9
$PUCSORTHOREF
  2

  9
$PUCSORTHOVIEW
 70
     0
  9
$PUCSORGTOP
 10
0.0
 20
0.0
 30
0.0
  9
$PUCSORGBOTTOM
 10
0.0
 20
0.0
 30
0.0
  9
$PUCSORGLEFT
 10
0.0
 20
0.0
 30
0.0
  9
$PUCSORGRIGHT
 10
0.0
 20
0.0
 30
0.0
  9
$PUCSORGFRONT
 10
0.0
 20
0.0
 30
0.0
  9
$PUCSORGBACK
 10
0.0
 20
0.0
 30
0.0
  9
$USERI1
 70
     0
  9
$USERI2
 70
     0
  9
$USERI3
 70
     0
  9
$USERI4
 70
     0
  9
$USERI5
 70
     0
  9
$USERR1
 40
0.0
  9
$USERR2
 40
0.0
  9
$USERR3
 40
0.0
  9
$USERR4
 40
0.0
  9
$USERR5
 40
0.0
  9
$WORLDVIEW
 70
     1
  9
$SHADEDGE
 70
     3
  9
$SHADEDIF
 70
    70
  9
$TILEMODE
 70
     1
  9
$MAXACTVP
 70
    16
  9
$PINSBASE
 10
0.0
 20
0.0
 30
0.0
  9
$PLIMCHECK
 70
     0
  9
$PEXTMIN
 10
1.000000000000000E+20
 20
1.000000000000000E+20
 30
1.000000000000000E+20
  9
$PEXTMAX
 10
-1.000000000000000E+20
 20
-1.000000000000000E+20
 30
-1.000000000000000E+20
  9
$PLIMMIN
 10
0.0
 20
0.0
  9
$PLIMMAX
 10
12.0
 20
9.0
  9
$UNITMODE
 70
     0
  9
$VISRETAIN
 70
     0
  9
$PLINEGEN
 70
     0
  9
$PSLTSCALE
 70
     0
  9
$TREEDEPTH
 70
  3020
  9
$CMLSTYLE
  2
Standard
  9
$CMLJUST
 70
     0
  9
$CMLSCALE
 40
1.0
  9
$PROXYGRAPHICS
 70
     1
  9
$MEASUREMENT
 70
     0
  9
$CELWEIGHT
370
    -1
  9
$ENDCAPS
280
     0
  9
$JOINSTYLE
280
     0
  9
$LWDISPLAY
290
     0
  9
$INSUNITS
 70
     0
  9
$HYPERLINKBASE
  1

  9
$STYLESHEET
  1
monochrome 1.ctb
  9
$XEDIT
290
     1
  9
$CEPSNTYPE
380
     0
  9
$PSTYLEMODE
290
     1
  9
$FINGERPRINTGUID
  2
{D68B0D02-A558-11D7-B632-000102183313}
  9
$VERSIONGUID
  2
{EDF706C2-C7CE-4833-A2DE-252E99966AFC}
  9
$EXTNAMES
290
     1
  9
$PSVPSCALE
 40
0.0
  9
$OLESTARTUP
290
     0
  9
$SORTENTS
280
   127
  9
$INDEXCTL
280
     0
  9
$HIDETEXT
280
     0
  9
$XCLIPFRAME
290
     0
  9
$HALOGAP
280
     0
  9
$OBSCOLOR
 70
   257
  9
$OBSLTYPE
280
     0
  9
$INTERSECTIONDISPLAY
280
     0
  9
$INTERSECTIONCOLOR
 70
   257
  9
$DIMASSOC
280
     1
  9
$PROJECTNAME
  1

  0
ENDSEC
  0
SECTION
  2
CLASSES
  0
CLASS
  1
ACDBDICTIONARYWDFLT
  2
AcDbDictionaryWithDefault
  3
ObjectDBX Classes
 90
        0
 91
        1
280
     0
281
     0
  0
CLASS
  1
DICTIONARYVAR
  2
AcDbDictionaryVar
  3
ObjectDBX Classes
 90
        0
 91
        2
280
     0
281
     0
  0
ENDSEC
  0
SECTION
  2
TABLES
  0
TABLE
  2
VPORT
  5
8
330
0
100
AcDbSymbolTable
 70
     3
  0
VPORT
  5
12D7
330
8
100
AcDbSymbolTableRecord
100
AcDbViewportTableRecord
  2
*Active
 70
     0
 10
0.0
 20
0.0
 11
1.0
 21
1.0
 12
104.9999999999999
 22
148.5
 13
0.0
 23
0.0
 14
1.0
 24
1.0
 15
10.0
 25
10.0
 16
0.0
 26
0.0
 36
1.0
 17
0.0
 27
0.0
 37
0.0
 40
297.019601006868
 41
1.404858299595141
 42
50.0
 43
0.0
 44
0.0
 50
0.0
 51
0.0
 71
     0
 72
  1500
 73
     1
 74
     0
 75
     0
 76
     0
 77
     0
 78
     0
281
     0
 65
     1
110
0.0
120
0.0
130
0.0
111
1.0
121
0.0
131
0.0
112
0.0
122
1.0
132
0.0
 79
     0
146
0.0
  0
ENDTAB
  0
TABLE
  2
LTYPE
  5
5
330
0
100
AcDbSymbolTable
 70
     2
  0
LTYPE
  5
13
330
5
100
AcDbSymbolTableRecord
100
AcDbLinetypeTableRecord
  2
ByBlock
 70
     0
  3

 72
    65
 73
     0
 40
0.0
  0
LTYPE
  5
14
330
5
100
AcDbSymbolTableRecord
100
AcDbLinetypeTableRecord
  2
ByLayer
 70
     0
  3

 72
    65
 73
     0
 40
0.0
  0
LTYPE
  5
15
330
5
100
AcDbSymbolTableRecord
100
AcDbLinetypeTableRecord
  2
Continuous
 70
     0
  3
Solid line
 72
    65
 73
     0
 40
0.0
  0
LTYPE
  5
25
330
5
100
AcDbSymbolTableRecord
100
AcDbLinetypeTableRecord
  2
STRICHPUNKT
 70
     0
  3
__ . __ . __ . __ . __ . __ . __ . __ . __ . __
 72
    65
 73
     4
 40
1.0
 49
0.5
 74
     0
 49
-0.25
 74
     0
 49
0.0
 74
     0
 49
-0.25
 74
     0
  0
ENDTAB
  0
TABLE
  2
LAYER
  5
2
330
0
100
AcDbSymbolTable
 70
     8
  0
LAYER
  5
10
330
2
100
AcDbSymbolTableRecord
100
AcDbLayerTableRecord
  2
0
 70
     0
 62
     7
  6
Continuous
370
    -3
390
F
  0
LAYER
  5
2A
330
2
100
AcDbSymbolTableRecord
100
AcDbLayerTableRecord
  2
VOLL
 70
     0
 62
     1
  6
Continuous
370
    -3
390
F
  0
LAYER
  5
2B
330
2
100
AcDbSymbolTableRecord
100
AcDbLayerTableRecord
  2
HILF
 70
     0
 62
     2
  6
Continuous
370
    -3
390
F
  0
LAYER
  5
2C
330
2
100
AcDbSymbolTableRecord
100
AcDbLayerTableRecord
  2
MITTEL
 70
     0
 62
     2
  6
STRICHPUNKT
370
    -3
390
F
  0
LAYER
  5
2F
330
2
100
AcDbSymbolTableRecord
100
AcDbLayerTableRecord
  2
BEM
 70
     0
 62
     7
  6
Continuous
370
    -3
390
F
  0
LAYER
  5
30
330
2
100
AcDbSymbolTableRecord
100
AcDbLayerTableRecord
  2
STEMPEL
 70
     0
 62
     3
  6
Continuous
370
    -3
390
F
  0
LAYER
  5
31
330
2
100
AcDbSymbolTableRecord
100
AcDbLayerTableRecord
  2
TEXT
 70
     0
 62
     7
  6
Continuous
370
    -3
390
F
  0
LAYER
  5
1A8
330
2
100
AcDbSymbolTableRecord
100
AcDbLayerTableRecord
  2
Defpoints
 70
     0
 62
     7
  6
Continuous
290
     0
370
    -3
390
F
  0
ENDTAB
  0
TABLE
  2
STYLE
  5
3
330
0
100
AcDbSymbolTable
 70
     2
  0
STYLE
  5
11
330
3
100
AcDbSymbolTableRecord
100
AcDbTextStyleTableRecord
  2
STANDARD
 70
     0
 40
0.0
 41
0.8
 50
0.0
 71
     0
 42
3.5
  3
simplex.shx
  4

  0
STYLE
  5
24
330
3
100
AcDbSymbolTableRecord
100
AcDbTextStyleTableRecord
  2
GREEKS
 70
     0
 40
0.0
 41
0.8
 50
0.0
 71
     0
 42
2.5
  3
SIMPLEX.shx
  4

  0
ENDTAB
  0
TABLE
  2
VIEW
  5
6
330
0
100
AcDbSymbolTable
 70
     0
  0
ENDTAB
  0
TABLE
  2
UCS
  5
7
330
0
100
AcDbSymbolTable
 70
     0
  0
ENDTAB
  0
TABLE
  2
APPID
  5
9
330
0
100
AcDbSymbolTable
 70
     1
  0
APPID
  5
12
330
9
100
AcDbSymbolTableRecord
100
AcDbRegAppTableRecord
  2
ACAD
 70
     0
  0
ENDTAB
  0
TABLE
  2
DIMSTYLE
  5
A
330
0
100
AcDbSymbolTable
 70
     1
100
AcDbDimStyleTable
 71
     1
340
9D
  0
DIMSTYLE
105
9D
102
{ACAD_REACTORS
330
120A
330
1219
330
122E
330
123B
330
1277
330
12C4
102
}
330
A
100
AcDbSymbolTableRecord
100
AcDbDimStyleTableRecord
  2
Standard
 70
     0
340
11
  0
ENDTAB
  0
TABLE
  2
BLOCK_RECORD
  5
1
330
0
100
AcDbSymbolTable
 70
     7
  0
BLOCK_RECORD
  5
1E
102
{ACAD_XDICTIONARY
360
A0
102
}
330
1
100
AcDbSymbolTableRecord
100
AcDbBlockTableRecord
  2
*Model_Space
340
21
  0
BLOCK_RECORD
  5
1A
102
{ACAD_XDICTIONARY
360
A2
102
}
330
1
100
AcDbSymbolTableRecord
100
AcDbBlockTableRecord
  2
*Paper_Space
340
1D
  0
BLOCK_RECORD
  5
22
330
1
100
AcDbSymbolTableRecord
100
AcDbBlockTableRecord
  2
LOGO
340
0
102
{BLKREFS
331
9B
102
}
  0
BLOCK_RECORD
  5
120B
330
1
100
AcDbSymbolTableRecord
100
AcDbBlockTableRecord
  2
*D1
340
0
  0
BLOCK_RECORD
  5
121A
330
1
100
AcDbSymbolTableRecord
100
AcDbBlockTableRecord
  2
*D2
340
0
  0
BLOCK_RECORD
  5
122F
330
1
100
AcDbSymbolTableRecord
100
AcDbBlockTableRecord
  2
*D3
340
0
  0
BLOCK_RECORD
  5
123C
330
1
100
AcDbSymbolTableRecord
100
AcDbBlockTableRecord
  2
*D4
340
0
  0
BLOCK_RECORD
  5
1278
330
1
100
AcDbSymbolTableRecord
100
AcDbBlockTableRecord
  2
*D5
340
0
  0
BLOCK_RECORD
  5
12C5
330
1
100
AcDbSymbolTableRecord
100
AcDbBlockTableRecord
  2
*D6
340
0
  0
ENDTAB
  0
ENDSEC
  0
SECTION
  2
BLOCKS
  0
BLOCK
  5
35
330
1E
100
AcDbEntity
  8
0
100
AcDbBlockBegin
  2
*Model_Space
 70
     0
 10
0.0
 20
0.0
 30
0.0
  3
*Model_Space
  1

  0
ENDBLK
  5
36
330
1E
100
AcDbEntity
  8
0
100
AcDbBlockEnd
  0
BLOCK
  5
33
330
1A
100
AcDbEntity
 67
     1
  8
0
100
AcDbBlockBegin
  2
*Paper_Space
 70
     0
 10
0.0
 20
0.0
 30
0.0
  3
*Paper_Space
  1

  0
ENDBLK
  5
34
330
1A
100
AcDbEntity
 67
     1
  8
0
100
AcDbBlockEnd
  0
BLOCK
  5
37
330
22
100
AcDbEntity
  8
0
100
AcDbBlockBegin
  2
LOGO
 70
     0
 10
0.0
 20
0.0
 30
0.0
  3
LOGO
  1

  0
ARC
  5
38
330
22
100
AcDbEntity
  8
0
100
AcDbCircle
 10
11.59973089678112
 20
-9.271599258481501
 30
0.0
 40
4.5
100
AcDbArc
 50
270.0
 51
231.0575587310159
  0
LINE
  5
39
330
22
100
AcDbEntity
  8
0
100
AcDbLine
 10
3.599730896781125
 20
-4.771599258481529
 30
0.0
 11
3.599730896781153
 21
-11.77159925848133
 31
0.0
  0
LINE
  5
3A
330
22
100
AcDbEntity
  8
0
100
AcDbLine
 10
2.599730896781125
 20
-4.771599258481529
 30
0.0
 11
2.599730896781153
 21
-11.77159925848133
 31
0.0
  0
CIRCLE
  5
3B
330
22
100
AcDbEntity
  8
0
100
AcDbCircle
 10
11.59973089678112
 20
-9.271599258481501
 30
0.0
 40
3.5
  0
ARC
  5
3C
330
22
100
AcDbEntity
  8
0
100
AcDbCircle
 10
31.59973089678115
 20
-9.271599258481472
 30
0.0
 40
4.5
100
AcDbArc
 50
270.0
 51
231.0575587310182
  0
LINE
  5
3D
330
22
100
AcDbEntity
  8
0
100
AcDbLine
 10
17.59973089678112
 20
-4.771599258481472
 30
0.0
 11
17.59973089678115
 21
-13.77159925848147
 31
0.0
  0
ARC
  5
3E
330
22
100
AcDbEntity
  8
0
100
AcDbCircle
 10
22.59973089678116
 20
-7.271599258481472
 30
0.0
 40
2.5
100
AcDbArc
 50
293.1161887722295
 51
90.0
  0
CIRCLE
  5
3F
330
22
100
AcDbEntity
  8
0
100
AcDbCircle
 10
31.59973089678115
 20
-9.271599258481472
 30
0.0
 40
3.5
  0
ARC
  5
40
330
22
100
AcDbEntity
  8
0
100
AcDbCircle
 10
4.599730896781153
 20
-11.77159925848133
 30
0.0
 40
1.0
100
AcDbArc
 50
180.0
 51
270.0
  0
ARC
  5
41
330
22
100
AcDbEntity
  8
0
100
AcDbCircle
 10
4.599730896781153
 20
-11.77159925848133
 30
0.0
 40
2.0
100
AcDbArc
 50
179.9999999999992
 51
270.0
  0
LINE
  5
42
330
22
100
AcDbEntity
  8
0
100
AcDbLine
 10
11.59973089678115
 20
-13.77159925848144
 30
0.0
 11
4.599730896781153
 21
-13.77159925848147
 31
0.0
  0
LINE
  5
43
330
22
100
AcDbEntity
  8
0
100
AcDbLine
 10
8.771303772034769
 20
-12.77159925848136
 30
0.0
 11
4.599730896781153
 21
-12.77159925848133
 31
0.0
  0
LINE
  5
44
330
22
100
AcDbEntity
  8
0
100
AcDbLine
 10
31.59973089678115
 20
-13.77159925848147
 30
0.0
 11
23.6715276665056
 21
-13.77159925848144
 31
0.0
  0
LINE
  5
45
330
22
100
AcDbEntity
  8
0
100
AcDbLine
 10
23.56565672307022
 20
-9.51278021337896
 30
0.0
 11
24.4388546544846
 21
-12.77159925848144
 31
0.0
  0
LINE
  5
46
330
22
100
AcDbEntity
  8
0
100
AcDbLine
 10
22.59973089678116
 20
-9.771599258481472
 30
0.0
 11
18.59973089678112
 21
-9.771599258481472
 31
0.0
  0
LINE
  5
47
330
22
100
AcDbEntity
  8
0
100
AcDbLine
 10
18.59973089678115
 20
-13.77159925848144
 30
0.0
 11
17.59973089678115
 21
-13.77159925848144
 31
0.0
  0
LINE
  5
48
330
22
100
AcDbEntity
  8
0
100
AcDbLine
 10
18.59973089678115
 20
-9.771599258481472
 30
0.0
 11
18.59973089678115
 21
-13.77159925848144
 31
0.0
  0
LINE
  5
49
330
22
100
AcDbEntity
  8
0
100
AcDbLine
 10
22.59973089678116
 20
-9.771599258481472
 30
0.0
 11
23.67152766650562
 21
-13.77159925848147
 31
0.0
  0
ARC
  5
4A
330
22
100
AcDbEntity
  8
0
100
AcDbCircle
 10
22.59973089678116
 20
-7.271599258481472
 30
0.0
 40
2.5
100
AcDbArc
 50
270.0
 51
270.0000000000007
  0
LINE
  5
4B
330
22
100
AcDbEntity
  8
0
100
AcDbLine
 10
28.77130377203494
 20
-12.77159925848147
 30
0.0
 11
24.43885465448463
 21
-12.77159925848144
 31
0.0
  0
LINE
  5
4C
330
22
100
AcDbEntity
  8
0
100
AcDbLine
 10
3.599730896781125
 20
-4.771599258481472
 30
0.0
 11
2.599730896781125
 21
-4.771599258481472
 31
0.0
  0
LINE
  5
4D
330
22
100
AcDbEntity
  8
0
100
AcDbLine
 10
22.59973089678116
 20
-8.771599258481472
 30
0.0
 11
18.59973089678115
 21
-8.771599258481472
 31
0.0
  0
LINE
  5
4E
330
22
100
AcDbEntity
  8
0
100
AcDbLine
 10
22.59973089678116
 20
-5.771599258481472
 30
0.0
 11
18.59973089678115
 21
-5.771599258481472
 31
0.0
  0
LINE
  5
4F
330
22
100
AcDbEntity
  8
0
100
AcDbLine
 10
22.59973089678116
 20
-4.771599258481472
 30
0.0
 11
17.59973089678115
 21
-4.771599258481472
 31
0.0
  0
LINE
  5
50
330
22
100
AcDbEntity
  8
0
100
AcDbLine
 10
18.59973089678115
 20
-5.771599258481472
 30
0.0
 11
18.59973089678115
 21
-8.771599258481472
 31
0.0
  0
ARC
  5
51
330
22
100
AcDbEntity
  8
0
100
AcDbCircle
 10
22.59973089678116
 20
-7.271599258481472
 30
0.0
 40
1.5
100
AcDbArc
 50
270.0
 51
90.0
  0
ENDBLK
  5
52
330
22
100
AcDbEntity
  8
0
100
AcDbBlockEnd
  0
BLOCK
  5
1217
330
120B
100
AcDbEntity
  8
0
100
AcDbBlockBegin
  2
*D1
 70
     1
 10
0.0
 20
0.0
 30
0.0
  3
*D1
  1

  0
LINE
  5
1263
330
120B
100
AcDbEntity
  8
BEM
 62
     0
370
    -2
100
AcDbLine
 10
47.11170725102539
 20
228.748993206939
 30
0.0
 11
37.82902459757452
 21
228.748993206939
 31
0.0
  0
LINE
  5
1264
330
120B
100
AcDbEntity
  8
BEM
 62
     0
370
    -2
100
AcDbLine
 10
47.11170725102539
 20
231.7489932069391
 30
0.0
 11
37.82902459757452
 21
231.7489932069391
 31
0.0
  0
LINE
  5
1265
330
120B
100
AcDbEntity
  8
BEM
 62
     0
370
    -2
100
AcDbLine
 10
38.82902459757452
 20
225.2489932069391
 30
0.0
 11
38.82902459757452
 21
221.7489932069391
 31
0.0
  0
LINE
  5
1266
330
120B
100
AcDbEntity
  8
BEM
 62
     0
370
    -2
100
AcDbLine
 10
38.82902459757452
 20
235.248993206939
 30
0.0
 11
38.82902459757453
 21
243.6156598736057
 31
0.0
  0
LINE
  5
1267
330
120B
100
AcDbEntity
  8
BEM
 62
     0
370
    -2
100
AcDbLine
 10
38.82902459757452
 20
228.748993206939
 30
0.0
 11
38.82902459757452
 21
231.7489932069391
 31
0.0
  0
SOLID
  5
1268
330
120B
100
AcDbEntity
  8
BEM
 62
     0
100
AcDbTrace
 10
38.24569126424118
 20
225.2489932069391
 30
0.0
 11
39.41235793090785
 21
225.2489932069391
 31
0.0
 12
38.82902459757452
 22
228.748993206939
 32
0.0
 13
38.82902459757452
 23
228.748993206939
 33
0.0
  0
SOLID
  5
1269
330
120B
100
AcDbEntity
  8
BEM
 62
     0
100
AcDbTrace
 10
38.24569126424118
 20
235.248993206939
 30
0.0
 11
39.41235793090785
 21
235.248993206939
 31
0.0
 12
38.82902459757452
 22
231.7489932069391
 32
0.0
 13
38.82902459757452
 23
231.7489932069391
 33
0.0
  0
MTEXT
  5
126A
330
120B
100
AcDbEntity
  8
BEM
 62
     1
100
AcDbMText
 10
35.57902459757448
 20
241.1823265402724
 30
0.0
 40
3.5
 41
0.0
 71
     5
 72
     1
  1
\A1;3
 11
0.0000000000000001
 21
1.0
 31
0.0
 73
     1
 44
1.0
  0
POINT
  5
126B
330
120B
100
AcDbEntity
  8
Defpoints
 62
     0
100
AcDbPoint
 10
48.11170725102539
 20
228.748993206939
 30
0.0
  0
POINT
  5
126C
330
120B
100
AcDbEntity
  8
Defpoints
 62
     0
100
AcDbPoint
 10
48.11170725102539
 20
231.7489932069391
 30
0.0
  0
POINT
  5
126D
330
120B
100
AcDbEntity
  8
Defpoints
 62
     0
100
AcDbPoint
 10
38.82902459757452
 20
231.7489932069391
 30
0.0
  0
ENDBLK
  5
1218
330
120B
100
AcDbEntity
  8
0
100
AcDbBlockEnd
  0
BLOCK
  5
1224
330
121A
100
AcDbEntity
  8
0
100
AcDbBlockBegin
  2
*D2
 70
     1
 10
0.0
 20
0.0
 30
0.0
  3
*D2
  1

  0
LINE
  5
125A
330
121A
100
AcDbEntity
  8
BEM
 62
     0
370
    -2
100
AcDbLine
 10
110.1017623210501
 20
277.7489932068127
 30
0.0
 11
29.21534655283474
 21
277.7489932068127
 31
0.0
  0
LINE
  5
125B
330
121A
100
AcDbEntity
  8
BEM
 62
     0
370
    -2
100
AcDbLine
 10
111.3687072510254
 20
168.748993206939
 30
0.0
 11
29.21534655283471
 21
168.748993206939
 31
0.0
  0
LINE
  5
125C
330
121A
100
AcDbEntity
  8
BEM
 62
     0
370
    -2
100
AcDbLine
 10
30.21534655283474
 20
274.2489932068127
 30
0.0
 11
30.21534655283472
 21
172.248993206939
 31
0.0
  0
SOLID
  5
125D
330
121A
100
AcDbEntity
  8
BEM
 62
     0
100
AcDbTrace
 10
29.63201321950141
 20
274.2489932068127
 30
0.0
 11
30.79867988616807
 21
274.2489932068127
 31
0.0
 12
30.21534655283474
 22
277.7489932068127
 32
0.0
 13
30.21534655283474
 23
277.7489932068127
 33
0.0
  0
SOLID
  5
125E
330
121A
100
AcDbEntity
  8
BEM
 62
     0
100
AcDbTrace
 10
29.63201321950139
 20
172.248993206939
 30
0.0
 11
30.79867988616805
 21
172.248993206939
 31
0.0
 12
30.21534655283472
 22
168.748993206939
 32
0.0
 13
30.21534655283472
 23
168.748993206939
 33
0.0
  0
MTEXT
  5
125F
330
121A
100
AcDbEntity
  8
BEM
 62
     1
100
AcDbMText
 10
26.96534655283469
 20
223.2489932068759
 30
0.0
 40
3.5
 41
0.0
 71
     5
 72
     1
  1
\A1;109
 11
0.0000000000000001
 21
1.0
 31
0.0
 73
     1
 44
1.0
  0
POINT
  5
1260
330
121A
100
AcDbEntity
  8
Defpoints
 62
     0
100
AcDbPoint
 10
111.1017623210501
 20
277.7489932068127
 30
0.0
  0
POINT
  5
1261
330
121A
100
AcDbEntity
  8
Defpoints
 62
     0
100
AcDbPoint
 10
112.3687072510254
 20
168.748993206939
 30
0.0
  0
POINT
  5
1262
330
121A
100
AcDbEntity
  8
Defpoints
 62
     0
100
AcDbPoint
 10
30.21534655283472
 20
168.748993206939
 30
0.0
  0
ENDBLK
  5
1225
330
121A
100
AcDbEntity
  8
0
100
AcDbBlockEnd
  0
BLOCK
  5
1239
330
122F
100
AcDbEntity
  8
0
100
AcDbBlockBegin
  2
*D3
 70
     1
 10
0.0
 20
0.0
 30
0.0
  3
*D3
  1

  0
LINE
  5
1251
330
122F
100
AcDbEntity
  8
BEM
 62
     0
370
    -2
100
AcDbLine
 10
60.58670725102553
 20
120.3108891490323
 30
0.0
 11
60.58670725102553
 21
102.0802113969889
 31
0.0
  0
LINE
  5
1252
330
122F
100
AcDbEntity
  8
BEM
 62
     0
370
    -2
100
AcDbLine
 10
178.5867072510255
 20
120.3108891490323
 30
0.0
 11
178.5867072510255
 21
102.0802113969889
 31
0.0
  0
LINE
  5
1253
330
122F
100
AcDbEntity
  8
BEM
 62
     0
370
    -2
100
AcDbLine
 10
64.08670725102552
 20
103.0802113969889
 30
0.0
 11
175.0867072510255
 21
103.0802113969889
 31
0.0
  0
SOLID
  5
1254
330
122F
100
AcDbEntity
  8
BEM
 62
     0
100
AcDbTrace
 10
64.08670725102552
 20
103.6635447303222
 30
0.0
 11
64.08670725102552
 21
102.4968780636556
 31
0.0
 12
60.58670725102553
 22
103.0802113969889
 32
0.0
 13
60.58670725102553
 23
103.0802113969889
 33
0.0
  0
SOLID
  5
1255
330
122F
100
AcDbEntity
  8
BEM
 62
     0
100
AcDbTrace
 10
175.0867072510255
 20
103.6635447303222
 30
0.0
 11
175.0867072510255
 21
102.4968780636556
 31
0.0
 12
178.5867072510255
 22
103.0802113969889
 32
0.0
 13
178.5867072510255
 23
103.0802113969889
 33
0.0
  0
MTEXT
  5
1256
330
122F
100
AcDbEntity
  8
BEM
 62
     1
100
AcDbMText
 10
119.5867072510255
 20
106.3302113969889
 30
0.0
 40
3.5
 41
0.0
 71
     5
 72
     1
  1
\A1;118
 73
     1
 44
1.0
  0
POINT
  5
1257
330
122F
100
AcDbEntity
  8
Defpoints
 62
     0
100
AcDbPoint
 10
60.58670725102553
 20
121.3108891490323
 30
0.0
  0
POINT
  5
1258
330
122F
100
AcDbEntity
  8
Defpoints
 62
     0
100
AcDbPoint
 10
178.5867072510255
 20
121.3108891490323
 30
0.0
  0
POINT
  5
1259
330
122F
100
AcDbEntity
  8
Defpoints
 62
     0
100
AcDbPoint
 10
178.5867072510255
 20
103.0802113969889
 30
0.0
  0
ENDBLK
  5
123A
330
122F
100
AcDbEntity
  8
0
100
AcDbBlockEnd
  0
BLOCK
  5
1246
330
123C
100
AcDbEntity
  8
0
100
AcDbBlockBegin
  2
*D4
 70
     1
 10
0.0
 20
0.0
 30
0.0
  3
*D4
  1

  0
LINE
  5
1248
330
123C
100
AcDbEntity
  8
BEM
 62
     0
370
    -2
100
AcDbLine
 10
48.08670725102553
 20
131.8108891490323
 30
0.0
 11
48.08670725102553
 21
93.4008435268022
 31
0.0
  0
LINE
  5
1249
330
123C
100
AcDbEntity
  8
BEM
 62
     0
370
    -2
100
AcDbLine
 10
191.0867072510255
 20
131.8108891490323
 30
0.0
 11
191.0867072510255
 21
93.4008435268022
 31
0.0
  0
LINE
  5
124A
330
123C
100
AcDbEntity
  8
BEM
 62
     0
370
    -2
100
AcDbLine
 10
51.58670725102552
 20
94.40084352680219
 30
0.0
 11
187.5867072510255
 21
94.40084352680219
 31
0.0
  0
SOLID
  5
124B
330
123C
100
AcDbEntity
  8
BEM
 62
     0
100
AcDbTrace
 10
51.58670725102552
 20
94.98417686013551
 30
0.0
 11
51.58670725102552
 21
93.81751019346886
 31
0.0
 12
48.08670725102553
 22
94.40084352680219
 32
0.0
 13
48.08670725102553
 23
94.40084352680219
 33
0.0
  0
SOLID
  5
124C
330
123C
100
AcDbEntity
  8
BEM
 62
     0
100
AcDbTrace
 10
187.5867072510255
 20
94.98417686013551
 30
0.0
 11
187.5867072510255
 21
93.81751019346886
 31
0.0
 12
191.0867072510255
 22
94.40084352680219
 32
0.0
 13
191.0867072510255
 23
94.40084352680219
 33
0.0
  0
MTEXT
  5
124D
330
123C
100
AcDbEntity
  8
BEM
 62
     1
100
AcDbMText
 10
119.5867072510255
 20
97.65084352680219
 30
0.0
 40
3.5
 41
0.0
 71
     5
 72
     1
  1
\A1;143
 73
     1
 44
1.0
  0
POINT
  5
124E
330
123C
100
AcDbEntity
  8
Defpoints
 62
     0
100
AcDbPoint
 10
48.08670725102553
 20
132.8108891490323
 30
0.0
  0
POINT
  5
124F
330
123C
100
AcDbEntity
  8
Defpoints
 62
     0
100
AcDbPoint
 10
191.0867072510255
 20
132.8108891490323
 30
0.0
  0
POINT
  5
1250
330
123C
100
AcDbEntity
  8
Defpoints
 62
     0
100
AcDbPoint
 10
191.0867072510255
 20
94.40084352680219
 30
0.0
  0
ENDBLK
  5
1247
330
123C
100
AcDbEntity
  8
0
100
AcDbBlockEnd
  0
BLOCK
  5
1280
330
1278
100
AcDbEntity
  8
0
100
AcDbBlockBegin
  2
*D5
 70
     1
 10
0.0
 20
0.0
 30
0.0
  3
*D5
  1

  0
LINE
  5
1289
330
1278
100
AcDbEntity
  8
BEM
 62
     0
370
    -2
100
AcDbLine
 10
87.95988757948416
 20
198.9281545144473
 30
0.0
 11
87.91650208563945
 21
198.9700378688167
 31
0.0
  0
LINE
  5
128A
330
1278
100
AcDbEntity
  8
BEM
 62
     0
370
    -2
100
AcDbLine
 10
149.7741490382445
 20
262.9593740864172
 30
0.0
 11
149.7307635443999
 21
263.0012574407865
 31
0.0
  0
LINE
  5
128B
330
1278
100
AcDbEntity
  8
BEM
 62
     0
370
    -2
100
AcDbLine
 10
91.06685191356437
 20
200.7935772738457
 30
0.0
 11
148.0193175271204
 21
259.7886335085563
 31
0.0
  0
SOLID
  5
128C
330
1278
100
AcDbEntity
  8
BEM
 62
     0
100
AcDbTrace
 10
90.64717163545942
 20
201.1987269276128
 30
0.0
 11
91.48653219166929
 21
200.3884276200787
 31
0.0
 12
88.63595399096221
 22
198.2754956052161
 32
0.0
 13
88.63595399096221
 23
198.2754956052161
 33
0.0
  0
SOLID
  5
128D
330
1278
100
AcDbEntity
  8
BEM
 62
     0
100
AcDbTrace
 10
147.5996372490155
 20
260.1937831623233
 30
0.0
 11
148.4389978052254
 21
259.3834838547893
 31
0.0
 12
150.4502154497226
 22
262.3067151771859
 32
0.0
 13
150.4502154497226
 23
262.3067151771859
 33
0.0
  0
MTEXT
  5
128E
330
1278
100
AcDbEntity
  8
BEM
 62
     1
100
AcDbMText
 10
129.6003706911739
 20
245.3884351054949
 30
0.0
 40
3.5
 41
0.0
 71
     5
 72
     1
  1
\A1;89
 11
0.6945422636006138
 21
0.7194519053227503
 31
0.0
 73
     1
 44
1.0
  0
POINT
  5
128F
330
1278
100
AcDbEntity
  8
Defpoints
 62
     0
100
AcDbPoint
 10
88.67933948480692
 20
198.2336122508468
 30
0.0
  0
POINT
  5
1290
330
1278
100
AcDbEntity
  8
Defpoints
 62
     0
100
AcDbPoint
 10
150.4936009435673
 20
262.2648318228166
 30
0.0
  0
POINT
  5
1291
330
1278
100
AcDbEntity
  8
Defpoints
 62
     0
100
AcDbPoint
 10
150.4502154497226
 20
262.3067151771859
 30
0.0
  0
ENDBLK
  5
1281
330
1278
100
AcDbEntity
  8
0
100
AcDbBlockEnd
  0
BLOCK
  5
12CF
330
12C5
100
AcDbEntity
  8
0
100
AcDbBlockBegin
  2
*D6
 70
     1
 10
0.0
 20
0.0
 30
0.0
  3
*D6
  1

  0
LINE
  5
12C6
330
12C5
100
AcDbEntity
  8
BEM
 62
     0
370
    -2
100
AcDbLine
 10
50.00570725102551
 20
147.8108891490324
 30
0.0
 11
37.32482674254391
 21
147.8108891490324
 31
0.0
  0
LINE
  5
12C7
330
12C5
100
AcDbEntity
  8
BEM
 62
     0
370
    -2
100
AcDbLine
 10
50.00570725102551
 20
117.8108891490323
 30
0.0
 11
37.32482674254391
 21
117.8108891490323
 31
0.0
  0
LINE
  5
12C8
330
12C5
100
AcDbEntity
  8
BEM
 62
     0
370
    -2
100
AcDbLine
 10
38.32482674254391
 20
144.3108891490324
 30
0.0
 11
38.32482674254391
 21
121.3108891490323
 31
0.0
  0
SOLID
  5
12C9
330
12C5
100
AcDbEntity
  8
BEM
 62
     0
100
AcDbTrace
 10
37.74149340921058
 20
144.3108891490324
 30
0.0
 11
38.90816007587725
 21
144.3108891490324
 31
0.0
 12
38.32482674254391
 22
147.8108891490324
 32
0.0
 13
38.32482674254391
 23
147.8108891490324
 33
0.0
  0
SOLID
  5
12CA
330
12C5
100
AcDbEntity
  8
BEM
 62
     0
100
AcDbTrace
 10
37.74149340921057
 20
121.3108891490323
 30
0.0
 11
38.90816007587724
 21
121.3108891490323
 31
0.0
 12
38.32482674254391
 22
117.8108891490323
 32
0.0
 13
38.32482674254391
 23
117.8108891490323
 33
0.0
  0
MTEXT
  5
12CB
330
12C5
100
AcDbEntity
  8
BEM
 62
     1
100
AcDbMText
 10
35.07482674254389
 20
132.8108891490324
 30
0.0
 40
3.5
 41
0.0
 71
     5
 72
     1
  1
\A1;30
 11
0.0000000000000001
 21
1.0
 31
0.0
 73
     1
 44
1.0
  0
POINT
  5
12CC
330
12C5
100
AcDbEntity
  8
Defpoints
 62
     0
100
AcDbPoint
 10
51.00570725102551
 20
147.8108891490324
 30
0.0
  0
POINT
  5
12CD
330
12C5
100
AcDbEntity
  8
Defpoints
 62
     0
100
AcDbPoint
 10
51.00570725102551
 20
117.8108891490323
 30
0.0
  0
POINT
  5
12CE
330
12C5
100
AcDbEntity
  8
Defpoints
 62
     0
100
AcDbPoint
 10
38.32482674254391
 20
117.8108891490323
 30
0.0
  0
ENDBLK
  5
12D0
330
12C5
100
AcDbEntity
  8
0
100
AcDbBlockEnd
  0
ENDSEC
  0
SECTION
  2
ENTITIES
  0
LINE
  5
57
330
1E
100
AcDbEntity
  8
STEMPEL
100
AcDbLine
 10
205.0
 20
55.00000000000003
 30
0.0
 11
19.99999999999998
 21
55.0
 31
0.0
  0
LINE
  5
58
330
1E
100
AcDbEntity
  8
STEMPEL
100
AcDbLine
 10
68.00000000000006
 20
54.99999999999997
 30
0.0
 11
68.0
 21
4.999999999999985
 31
0.0
  0
LINE
  5
59
330
1E
100
AcDbEntity
  8
STEMPEL
100
AcDbLine
 10
110.0
 20
55.00000000000003
 30
0.0
 11
110.0
 21
4.999999999999985
 31
0.0
  0
LINE
  5
5A
330
1E
100
AcDbEntity
  8
STEMPEL
100
AcDbLine
 10
166.0
 20
54.99999999999989
 30
0.0
 11
166.0
 21
20.0
 31
0.0
  0
LINE
  5
5B
330
1E
100
AcDbEntity
  8
STEMPEL
100
AcDbLine
 10
67.99999999999994
 20
14.99999999999998
 30
0.0
 11
19.99999999999998
 21
14.99999999999998
 31
0.0
  0
LINE
  5
5C
330
1E
100
AcDbEntity
  8
STEMPEL
100
AcDbLine
 10
205.0
 20
20.0
 30
0.0
 11
68.00000000000006
 21
19.99999999999998
 31
0.0
  0
LINE
  5
5D
330
1E
100
AcDbEntity
  8
STEMPEL
100
AcDbLine
 10
205.0
 20
40.0
 30
0.0
 11
68.00000000000006
 21
39.99999999999997
 31
0.0
  0
LINE
  5
5E
330
1E
100
AcDbEntity
  8
VOLL
100
AcDbLine
 10
27.00000000000005
 20
55.00000000000003
 30
0.0
 11
26.99999999999999
 21
4.999999999999985
 31
0.0
  0
LINE
  5
5F
330
1E
100
AcDbEntity
  8
VOLL
100
AcDbLine
 10
47.00000000000005
 20
54.99999999999997
 30
0.0
 11
47.0
 21
4.999999999999985
 31
0.0
  0
LINE
  5
60
330
1E
100
AcDbEntity
  8
VOLL
100
AcDbLine
 10
57.00000000000006
 20
54.99999999999997
 30
0.0
 11
57.0
 21
4.999999999999985
 31
0.0
  0
LINE
  5
61
330
1E
100
AcDbEntity
  8
VOLL
100
AcDbLine
 10
77.00000000000006
 20
39.99999999999997
 30
0.0
 11
77.00000000000006
 21
19.99999999999998
 31
0.0
  0
LINE
  5
62
330
1E
100
AcDbEntity
  8
VOLL
100
AcDbLine
 10
90.00000000000005
 20
54.99999999999992
 30
0.0
 11
90.0
 21
19.99999999999998
 31
0.0
  0
LINE
  5
63
330
1E
100
AcDbEntity
  8
HILF
100
AcDbLine
 10
20.00000000000004
 20
50.00000000000003
 30
0.0
 11
68.00000000000006
 21
50.00000000000003
 31
0.0
  0
LINE
  5
64
330
1E
100
AcDbEntity
  8
HILF
100
AcDbLine
 10
20.00000000000004
 20
45.00000000000002
 30
0.0
 11
68.00000000000006
 21
45.00000000000002
 31
0.0
  0
LINE
  5
65
330
1E
100
AcDbEntity
  8
HILF
100
AcDbLine
 10
20.00000000000004
 20
39.99999999999997
 30
0.0
 11
68.00000000000006
 21
39.99999999999997
 31
0.0
  0
LINE
  5
66
330
1E
100
AcDbEntity
  8
HILF
100
AcDbLine
 10
20.00000000000004
 20
34.99999999999997
 30
0.0
 11
68.00000000000006
 21
34.99999999999997
 31
0.0
  0
LINE
  5
67
330
1E
100
AcDbEntity
  8
HILF
100
AcDbLine
 10
20.00000000000004
 20
29.99999999999999
 30
0.0
 11
68.00000000000006
 21
29.99999999999999
 31
0.0
  0
LINE
  5
68
330
1E
100
AcDbEntity
  8
HILF
100
AcDbLine
 10
20.00000000000004
 20
24.99999999999999
 30
0.0
 11
68.00000000000006
 21
24.99999999999999
 31
0.0
  0
LINE
  5
69
330
1E
100
AcDbEntity
  8
HILF
100
AcDbLine
 10
20.00000000000004
 20
19.99999999999998
 30
0.0
 11
68.00000000000006
 21
19.99999999999998
 31
0.0
  0
LINE
  5
6A
330
1E
100
AcDbEntity
  8
HILF
100
AcDbLine
 10
68.00000000000006
 20
34.99999999999997
 30
0.0
 11
110.0
 21
34.99999999999997
 31
0.0
  0
LINE
  5
6B
330
1E
100
AcDbEntity
  8
HILF
100
AcDbLine
 10
68.00000000000006
 20
29.99999999999999
 30
0.0
 11
110.0
 21
29.99999999999999
 31
0.0
  0
LINE
  5
6C
330
1E
100
AcDbEntity
  8
HILF
100
AcDbLine
 10
68.00000000000006
 20
24.99999999999999
 30
0.0
 11
110.0
 21
24.99999999999999
 31
0.0
  0
LINE
  5
6D
330
1E
100
AcDbEntity
  8
HILF
100
AcDbLine
 10
112.3868400548474
 20
42.01879123782069
 30
0.0
 11
162.4176958278155
 21
42.01879123782069
 31
0.0
  0
LINE
  5
6E
330
1E
100
AcDbEntity
  8
HILF
100
AcDbLine
 10
112.3868400548474
 20
34.99999999999997
 30
0.0
 11
162.4176958278155
 21
34.99999999999997
 31
0.0
  0
LINE
  5
6F
330
1E
100
AcDbEntity
  8
HILF
100
AcDbLine
 10
112.3868400548474
 20
29.99999999999999
 30
0.0
 11
162.4176958278155
 21
29.99999999999999
 31
0.0
  0
LINE
  5
70
330
1E
100
AcDbEntity
  8
HILF
100
AcDbLine
 10
112.3868400548474
 20
24.99999999999999
 30
0.0
 11
162.4176958278155
 21
24.99999999999999
 31
0.0
  0
LINE
  5
71
330
1E
100
AcDbEntity
  8
VOLL
100
AcDbLine
 10
166.0
 20
30.0
 30
0.0
 11
205.0
 21
30.0
 31
0.0
  0
LINE
  5
72
330
1E
100
AcDbEntity
  8
HILF
100
AcDbLine
 10
168.3619308148496
 20
41.88991818477913
 30
0.0
 11
202.4294419663364
 21
41.88991818477913
 31
0.0
  0
LINE
  5
73
330
1E
100
AcDbEntity
  8
HILF
100
AcDbLine
 10
111.7454849644942
 20
7.446991290141568
 30
0.0
 11
202.4294419663364
 21
7.446991290141568
 31
0.0
  0
TEXT
  5
74
330
1E
100
AcDbEntity
  8
TEXT
100
AcDbText
 10
31.9308298981591
 20
9.336909474920659
 30
0.0
 40
2.0
  1
Änderung
 41
0.8
  7
GREEKS
 72
     1
 11
37.30225846958767
 21
9.336909474920659
 31
0.0
100
AcDbText
  0
TEXT
  5
75
330
1E
100
AcDbEntity
  8
TEXT
100
AcDbText
 10
71.75817860751886
 20
51.23104475435443
 30
0.0
 40
2.5
  1
Maßstab
 41
0.8
  7
GREEKS
100
AcDbText
  0
TEXT
  5
76
330
1E
100
AcDbEntity
  8
TEXT
100
AcDbText
 10
92.14294773670257
 20
51.20920842174095
 30
0.0
 40
2.5
  1
Zul. Abw.
 41
0.8
  7
GREEKS
100
AcDbText
  0
TEXT
  5
77
330
1E
100
AcDbEntity
  8
TEXT
100
AcDbText
 10
112.4389701904505
 20
51.27446640058898
 30
0.0
 40
2.5
  1
Benennung
 41
0.8
  7
GREEKS
100
AcDbText
  0
TEXT
  5
78
330
1E
100
AcDbEntity
  8
TEXT
100
AcDbText
 10
168.089377478817
 20
51.15660172685682
 30
0.0
 40
2.5
  1
Zeichnungs Nr.
 41
0.8
  7
GREEKS
100
AcDbText
  0
TEXT
  5
79
330
1E
100
AcDbEntity
  8
TEXT
100
AcDbText
 10
112.371119195568
 20
15.42280285096528
 30
0.0
 40
2.5
  1
Bauvorhaben
 41
0.8
  7
GREEKS
100
AcDbText
  0
TEXT
  5
7A
330
1E
100
AcDbEntity
  8
TEXT
100
AcDbText
 10
168.3619308148496
 20
36.59059118549985
 30
0.0
 40
2.5
  1
Ersatz für:
 41
0.8
  7
GREEKS
100
AcDbText
  0
TEXT
  5
7B
330
1E
100
AcDbEntity
  8
TEXT
100
AcDbText
 10
24.13320553522878
 20
6.827329230135958
 30
0.0
 40
2.0
  1
Index
 50
90.0
 41
0.8
  7
GREEKS
100
AcDbText
  0
TEXT
  5
7C
330
1E
100
AcDbEntity
  8
TEXT
100
AcDbText
 10
50.04673380377405
 20
9.33578134669905
 30
0.0
 40
2.0
  1
Tag
 41
0.8
  7
GREEKS
 72
     1
 11
51.91340047044072
 21
9.33578134669905
 31
0.0
100
AcDbText
  0
TEXT
  5
7D
330
1E
100
AcDbEntity
  8
TEXT
100
AcDbText
 10
59.50613721932963
 20
9.29662108483204
 30
0.0
 40
2.0
  1
Name
 41
0.8
  7
GREEKS
 72
     1
 11
62.66804198123439
 21
9.29662108483204
 31
0.0
100
AcDbText
  0
TEXT
  5
7E
330
1E
100
AcDbEntity
  8
TEXT
100
AcDbText
 10
81.16558365768254
 20
36.65940250614963
 30
0.0
 40
2.0
  1
Tag
 41
0.8
  7
GREEKS
100
AcDbText
  0
TEXT
  5
7F
330
1E
100
AcDbEntity
  8
TEXT
100
AcDbText
 10
96.23132921131475
 20
36.65480545957612
 30
0.0
 40
2.0
  1
Name
 41
0.8
  7
GREEKS
100
AcDbText
  0
TEXT
  5
80
330
1E
100
AcDbEntity
  8
TEXT
100
AcDbText
 10
68.79180635838077
 20
31.81495184808982
 30
0.0
 40
2.0
  1
Gez.
 41
0.8
  7
GREEKS
100
AcDbText
  0
TEXT
  5
81
330
1E
100
AcDbEntity
  8
TEXT
100
AcDbText
 10
68.77575432858361
 20
26.84463145714189
 30
0.0
 40
2.0
  1
Gepr.
 41
0.8
  7
GREEKS
100
AcDbText
  0
TEXT
  5
82
330
1E
100
AcDbEntity
  8
TEXT
100
AcDbText
 10
68.80033886936519
 20
21.76473194824904
 30
0.0
 40
2.0
  1
Norm.
 41
0.8
  7
GREEKS
100
AcDbText
  0
LINE
  5
83
330
1E
100
AcDbEntity
  8
STEMPEL
100
AcDbLine
 10
24.99999999999995
 20
5.0
 30
0.0
 11
205.0
 21
5.0
 31
0.0
  0
TEXT
  5
84
330
1E
100
AcDbEntity
  8
TEXT
100
AcDbText
 10
168.6200430748503
 20
26.03708088939301
 30
0.0
 40
2.5
  1
ersetzt durch:
 41
0.8
  7
GREEKS
100
AcDbText
  0
LINE
  5
85
330
1E
100
AcDbEntity
  8
STEMPEL
100
AcDbLine
 10
205.0
 20
5.0
 30
0.0
 11
19.99999999999994
 21
5.0
 31
0.0
  0
LINE
  5
86
330
1E
100
AcDbEntity
  8
STEMPEL
100
AcDbLine
 10
205.0
 20
5.0
 30
0.0
 11
205.0
 21
292.0
 31
0.0
  0
LINE
  5
87
330
1E
100
AcDbEntity
  8
STEMPEL
100
AcDbLine
 10
20.0
 20
5.0
 30
0.0
 11
19.99999999999994
 21
292.0
 31
0.0
  0
LINE
  5
88
330
1E
100
AcDbEntity
  8
STEMPEL
100
AcDbLine
 10
205.0
 20
292.0
 30
0.0
 11
19.99999999999994
 21
292.0
 31
0.0
  0
LINE
  5
89
330
1E
100
AcDbEntity
  8
HILF
100
AcDbLine
 10
0.0
 20
0.0
 30
0.0
 11
-0.0000000000000568
 21
297.0
 31
0.0
  0
LINE
  5
8A
330
1E
100
AcDbEntity
  8
HILF
100
AcDbLine
 10
210.0
 20
297.0000000000001
 30
0.0
 11
0.0
 21
297.0
 31
0.0
  0
LINE
  5
8B
330
1E
100
AcDbEntity
  8
HILF
100
AcDbLine
 10
210.0
 20
0.0
 30
0.0
 11
0.0
 21
0.0
 31
0.0
  0
LINE
  5
8C
330
1E
100
AcDbEntity
  8
HILF
100
AcDbLine
 10
15.54383567856928
 20
148.5
 30
0.0
 11
0.0000000000000568
 21
148.5
 31
0.0
  0
TEXT
  5
8D
330
1E
100
AcDbEntity
  8
TEXT
100
AcDbText
 10
69.31105491105199
 20
36.57012735575833
 30
0.0
 40
2.0
  1
2012
 41
0.8
  7
GREEKS
100
AcDbText
  0
LINE
  5
8E
330
1E
100
AcDbEntity
  8
HILF
100
AcDbLine
 10
210.0
 20
-0.0000000000000568
 30
0.0
 11
210.0
 21
297.0
 31
0.0
  0
TEXT
  5
8F
330
1E
100
AcDbEntity
  8
VOLL
100
AcDbText
 10
78.07675471698113
 20
31.02594776470585
 30
0.0
 40
1.8
  1

  7
GREEKS
100
AcDbText
  0
TEXT
  5
90
330
1E
100
AcDbEntity
  8
TEXT
100
AcDbText
 10
20.92754975488837
 20
55.83599999999997
 30
0.0
 40
2.5
  1
Erstellt mit AUTOCAD 2004
 41
0.8
  7
GREEKS
100
AcDbText
  0
TEXT
  5
91
330
1E
100
AcDbEntity
  8
TEXT
100
AcDbText
 10
97.21080242906285
 20
31.54481959861755
 30
0.0
 40
2.0
  1
Koeh
 41
0.8
  7
GREEKS
 72
     1
 11
99.83937385763429
 21
31.54481959861755
 31
0.0
100
AcDbText
  0
TEXT
  5
92
330
1E
100
AcDbEntity
  8
TEXT
 62
     1
100
AcDbText
 10
172.886078821434
 20
44.07450714456979
 30
0.0
 40
3.5
  1
00975080W
 41
0.8
  7
GREEKS
 72
     1
 11
184.886078821434
 21
44.07450714456979
 31
0.0
100
AcDbText
  0
TEXT
  5
93
330
1E
100
AcDbEntity
  8
TEXT
 62
     1
100
AcDbText
 10
75.25031532409435
 20
44.07450714456979
 30
0.0
 40
3.5
  1
1:1
 41
0.8
  7
GREEKS
100
AcDbText
  0
TEXT
  5
94
330
1E
100
AcDbEntity
  8
TEXT
100
AcDbText
 10
80.35187950649897
 20
31.55382520412866
 30
0.0
 40
2.0
  1
29.10.
 41
0.8
  7
GREEKS
 72
     1
 11
83.70426045887993
 21
31.55382520412866
 31
0.0
100
AcDbText
  0
TEXT
  5
95
330
1E
100
AcDbEntity
  8
TEXT
 62
     1
100
AcDbText
 10
113.4467865528701
 20
43.70874394626889
 30
0.0
 40
3.5
  1
Rohrschelle DN80
 41
0.8
  7
GREEKS
100
AcDbText
  0
TEXT
  5
96
330
1E
100
AcDbEntity
  8
TEXT
100
AcDbText
 10
112.5648195562657
 20
35.75167208792644
 30
0.0
 40
2.5
  1
mit Anschlußgewinde M10
 41
0.8
  7
GREEKS
100
AcDbText
  0
TEXT
  5
98
330
1E
100
AcDbEntity
  8
TEXT
100
AcDbText
 10
112.5648195562657
 20
25.82005971521079
 30
0.0
 40
2.5
  1
EDV-Art.Nr. 00975.080X
 41
0.8
  7
GREEKS
100
AcDbText
  0
TEXT
  5
99
330
1E
100
AcDbEntity
  8
TEXT
100
AcDbText
 10
112.4918750788913
 20
21.31487076511316
 30
0.0
 40
2.0
  1
00975080W.DWG
 41
0.8
  7
GREEKS
100
AcDbText
  0
TEXT
  5
9A
330
1E
100
AcDbEntity
  8
TEXT
100
AcDbText
 10
91.31306610404202
 20
45.38181920511511
 30
0.0
 40
2.0
  1
DIN EN1123-2
 41
0.8
  7
GREEKS
 72
     1
 11
99.80830419928011
 21
45.38181920511511
 31
0.0
100
AcDbText
  0
INSERT
  5
9B
330
1E
100
AcDbEntity
  8
STEMPEL
100
AcDbBlockReference
  2
LOGO
 10
70.4977742728897
 20
22.51052638224161
 30
0.0
  0
TEXT
  5
118
330
1E
100
AcDbEntity
  8
BEM
100
AcDbText
 10
208.6511461928583
 20
5.083950539994247
 30
0.0
 40
2.0
  1
Diese Zeichnung ist urheberrechtlich geschützt und bleibt unser Eigentum. Sie darf weder ganz noch teilweise verfielfältigt und nicht an Dritte weitergegeben werden.
 50
90.0
 41
0.8
  7
GREEKS
100
AcDbText
  0
LINE
  5
7BC
330
1E
100
AcDbEntity
  8
TEXT
 62
     2
100
AcDbLine
 10
197.4558636738315
 20
270.2814961681908
 30
0.0
 11
182.6779679070168
 21
238.5694744971266
 31
0.0
  0
LINE
  5
7BD
330
1E
100
AcDbEntity
  8
TEXT
 62
     2
100
AcDbLine
 10
159.9550227650163
 20
270.2814961681908
 30
0.0
 11
197.4558636738315
 21
270.2814961681908
 31
0.0
  0
TEXT
  5
7BE
330
1E
100
AcDbEntity
  8
TEXT
 62
     1
100
AcDbText
 10
161.014969263039
 20
271.971448876639
 30
0.0
 40
3.5
  1
Schraube M8x25
 41
0.8
  7
GREEKS
100
AcDbText
  0
TEXT
  5
7BF
330
1E
100
AcDbEntity
  8
TEXT
 62
     1
100
AcDbText
 10
124.8752915611263
 20
159.4298451592799
 30
0.0
 40
3.5
  1
M10
 41
0.8
  7
GREEKS
100
AcDbText
  0
LINE
  5
7C0
330
1E
100
AcDbEntity
  8
TEXT
 62
     2
100
AcDbLine
 10
123.8153450631035
 20
157.7398924508317
 30
0.0
 11
132.7973015982025
 21
157.7398924508317
 31
0.0
  0
LINE
  5
7C1
330
1E
100
AcDbEntity
  8
TEXT
 62
     2
100
AcDbLine
 10
123.8153450631035
 20
157.7398924508317
 30
0.0
 11
119.5867072510254
 21
168.748993206939
 31
0.0
  0
LINE
  5
1134
330
1E
100
AcDbEntity
  8
HILF
100
AcDbLine
 10
57.37870725102538
 20
228.748993206939
 30
0.0
 11
57.37870725102538
 21
231.486993206939
 31
0.0
  0
LINE
  5
1135
330
1E
100
AcDbEntity
  8
HILF
100
AcDbLine
 10
57.37870725102538
 20
209.748993206939
 30
0.0
 11
57.37870725102538
 21
223.7489932069391
 31
0.0
  0
LINE
  5
1137
330
1E
100
AcDbEntity
  8
HILF
100
AcDbLine
 10
63.8447072510254
 20
228.748993206939
 30
0.0
 11
63.8447072510254
 21
231.486993206939
 31
0.0
  0
LINE
  5
1138
330
1E
100
AcDbEntity
  8
HILF
100
AcDbLine
 10
63.8447072510254
 20
209.748993206939
 30
0.0
 11
63.8447072510254
 21
223.7489932069391
 31
0.0
  0
LINE
  5
1139
330
1E
100
AcDbEntity
  8
STEMPEL
100
AcDbLine
 10
64.61170725102539
 20
210.5159932069391
 30
0.0
 11
56.6117072510254
 21
210.5159932069391
 31
0.0
  0
LINE
  5
113A
330
1E
100
AcDbEntity
  8
HILF
100
AcDbLine
 10
64.61170725102539
 20
231.486993206939
 30
0.0
 11
56.6117072510254
 21
231.486993206939
 31
0.0
  0
LINE
  5
113B
330
1E
100
AcDbEntity
  8
STEMPEL
100
AcDbLine
 10
56.6117072510254
 20
228.748993206939
 30
0.0
 11
56.6117072510254
 21
231.7489932069391
 31
0.0
  0
LINE
  5
113C
330
1E
100
AcDbEntity
  8
STEMPEL
100
AcDbLine
 10
64.61170725102539
 20
231.7489932069391
 30
0.0
 11
64.61170725102539
 21
228.748993206939
 31
0.0
  0
LINE
  5
113D
330
1E
100
AcDbEntity
  8
STEMPEL
100
AcDbLine
 10
56.6117072510254
 20
210.5159932069391
 30
0.0
 11
56.6117072510254
 21
223.7489932069391
 31
0.0
  0
LINE
  5
113E
330
1E
100
AcDbEntity
  8
STEMPEL
100
AcDbLine
 10
57.37870725102538
 20
209.748993206939
 30
0.0
 11
56.6117072510254
 21
210.5159932069391
 31
0.0
  0
LINE
  5
113F
330
1E
100
AcDbEntity
  8
STEMPEL
100
AcDbLine
 10
63.8447072510254
 20
209.748993206939
 30
0.0
 11
57.37870725102538
 21
209.748993206939
 31
0.0
  0
LINE
  5
1140
330
1E
100
AcDbEntity
  8
STEMPEL
100
AcDbLine
 10
64.61170725102539
 20
210.5159932069391
 30
0.0
 11
63.8447072510254
 21
209.748993206939
 31
0.0
  0
LINE
  5
1141
330
1E
100
AcDbEntity
  8
STEMPEL
100
AcDbLine
 10
64.61170725102539
 20
223.7489932069391
 30
0.0
 11
64.61170725102539
 21
210.5159932069391
 31
0.0
  0
LINE
  5
1142
330
1E
100
AcDbEntity
  8
STEMPEL
100
AcDbLine
 10
59.61170725102539
 20
236.748993206939
 30
0.0
 11
61.6117072510254
 21
236.748993206939
 31
0.0
  0
LINE
  5
1143
330
1E
100
AcDbEntity
  8
STEMPEL
100
AcDbLine
 10
59.61170725102539
 20
239.748993206939
 30
0.0
 11
59.61170725102539
 21
236.748993206939
 31
0.0
  0
LINE
  5
1144
330
1E
100
AcDbEntity
  8
STEMPEL
100
AcDbLine
 10
55.28270725102538
 20
239.748993206939
 30
0.0
 11
59.61170725102539
 21
239.748993206939
 31
0.0
  0
ARC
  5
1145
330
1E
100
AcDbEntity
  8
STEMPEL
100
AcDbCircle
 10
55.28270725102538
 20
238.748993206939
 30
0.0
 40
1.0
100
AcDbArc
 50
90.0
 51
175.6676860170001
  0
LINE
  5
1146
330
1E
100
AcDbEntity
  8
STEMPEL
100
AcDbLine
 10
54.1117072510254
 20
236.5339932069391
 30
0.0
 11
54.28570725102543
 21
238.8249932069391
 31
0.0
  0
LINE
  5
1147
330
1E
100
AcDbEntity
  8
STEMPEL
100
AcDbLine
 10
54.1117072510254
 20
234.748993206939
 30
0.0
 11
54.1117072510254
 21
236.5339932069391
 31
0.0
  0
LINE
  5
1148
330
1E
100
AcDbEntity
  8
STEMPEL
100
AcDbLine
 10
67.11170725102539
 20
234.748993206939
 30
0.0
 11
54.1117072510254
 21
234.748993206939
 31
0.0
  0
LINE
  5
1149
330
1E
100
AcDbEntity
  8
STEMPEL
100
AcDbLine
 10
67.11170725102539
 20
236.5339932069391
 30
0.0
 11
67.11170725102539
 21
234.748993206939
 31
0.0
  0
LINE
  5
114A
330
1E
100
AcDbEntity
  8
STEMPEL
100
AcDbLine
 10
66.93870725102539
 20
238.8249932069391
 30
0.0
 11
67.11170725102539
 21
236.5339932069391
 31
0.0
  0
ARC
  5
114B
330
1E
100
AcDbEntity
  8
STEMPEL
100
AcDbCircle
 10
65.94170725102538
 20
238.748993206939
 30
0.0
 40
1.0
100
AcDbArc
 50
4.332313982999896
 51
90.0
  0
LINE
  5
114C
330
1E
100
AcDbEntity
  8
STEMPEL
100
AcDbLine
 10
61.6117072510254
 20
239.748993206939
 30
0.0
 11
65.94170725102538
 21
239.748993206939
 31
0.0
  0
LINE
  5
114D
330
1E
100
AcDbEntity
  8
STEMPEL
100
AcDbLine
 10
61.6117072510254
 20
236.748993206939
 30
0.0
 11
61.6117072510254
 21
239.748993206939
 31
0.0
  0
LINE
  5
114F
330
1E
100
AcDbEntity
  8
HILF
100
AcDbLine
 10
175.3287072510254
 20
228.748993206939
 30
0.0
 11
175.3287072510254
 21
231.486993206939
 31
0.0
  0
LINE
  5
1150
330
1E
100
AcDbEntity
  8
HILF
100
AcDbLine
 10
175.3287072510254
 20
209.748993206939
 30
0.0
 11
175.3287072510254
 21
223.7489932069391
 31
0.0
  0
LINE
  5
1152
330
1E
100
AcDbEntity
  8
HILF
100
AcDbLine
 10
181.7947072510254
 20
228.748993206939
 30
0.0
 11
181.7947072510254
 21
231.486993206939
 31
0.0
  0
LINE
  5
1153
330
1E
100
AcDbEntity
  8
HILF
100
AcDbLine
 10
181.7947072510254
 20
209.748993206939
 30
0.0
 11
181.7947072510254
 21
223.7489932069391
 31
0.0
  0
LINE
  5
1154
330
1E
100
AcDbEntity
  8
STEMPEL
100
AcDbLine
 10
182.5617072510254
 20
210.5159932069391
 30
0.0
 11
174.5617072510253
 21
210.5159932069391
 31
0.0
  0
LINE
  5
1155
330
1E
100
AcDbEntity
  8
HILF
100
AcDbLine
 10
182.5617072510254
 20
231.486993206939
 30
0.0
 11
174.5617072510253
 21
231.486993206939
 31
0.0
  0
LINE
  5
1156
330
1E
100
AcDbEntity
  8
STEMPEL
100
AcDbLine
 10
182.5617072510254
 20
232.5769932069391
 30
0.0
 11
182.5617072510254
 21
228.748993206939
 31
0.0
  0
LINE
  5
1157
330
1E
100
AcDbEntity
  8
STEMPEL
100
AcDbLine
 10
185.0617072510253
 20
234.748993206939
 30
0.0
 11
184.5217072510254
 21
234.748993206939
 31
0.0
  0
ARC
  5
1158
330
1E
100
AcDbEntity
  8
STEMPEL
100
AcDbCircle
 10
174.1617072510254
 20
234.348993206939
 30
0.0
 40
0.4
100
AcDbArc
 50
0.0
 51
90.0
  0
LINE
  5
1159
330
1E
100
AcDbEntity
  8
STEMPEL
100
AcDbLine
 10
174.5617072510253
 20
228.748993206939
 30
0.0
 11
174.5617072510253
 21
234.348993206939
 31
0.0
  0
LINE
  5
115A
330
1E
100
AcDbEntity
  8
STEMPEL
100
AcDbLine
 10
174.5617072510253
 20
210.5159932069391
 30
0.0
 11
174.5617072510253
 21
223.7489932069391
 31
0.0
  0
LINE
  5
115B
330
1E
100
AcDbEntity
  8
STEMPEL
100
AcDbLine
 10
175.3287072510254
 20
209.748993206939
 30
0.0
 11
174.5617072510253
 21
210.5159932069391
 31
0.0
  0
LINE
  5
115C
330
1E
100
AcDbEntity
  8
STEMPEL
100
AcDbLine
 10
181.7947072510254
 20
209.748993206939
 30
0.0
 11
175.3287072510254
 21
209.748993206939
 31
0.0
  0
LINE
  5
115D
330
1E
100
AcDbEntity
  8
STEMPEL
100
AcDbLine
 10
182.5617072510254
 20
210.5159932069391
 30
0.0
 11
181.7947072510254
 21
209.748993206939
 31
0.0
  0
LINE
  5
115E
330
1E
100
AcDbEntity
  8
STEMPEL
100
AcDbLine
 10
182.5617072510254
 20
223.7489932069391
 30
0.0
 11
182.5617072510254
 21
210.5159932069391
 31
0.0
  0
LINE
  5
115F
330
1E
100
AcDbEntity
  8
STEMPEL
100
AcDbLine
 10
185.0617072510253
 20
236.5339932069391
 30
0.0
 11
185.0617072510253
 21
234.848993206939
 31
0.0
  0
LINE
  5
1160
330
1E
100
AcDbEntity
  8
STEMPEL
100
AcDbLine
 10
184.8877072510254
 20
238.8249932069391
 30
0.0
 11
185.0617072510253
 21
236.5339932069391
 31
0.0
  0
ARC
  5
1161
330
1E
100
AcDbEntity
  8
STEMPEL
100
AcDbCircle
 10
183.8907072510254
 20
238.748993206939
 30
0.0
 40
1.0
100
AcDbArc
 50
4.332313982999896
 51
90.0
  0
LINE
  5
1162
330
1E
100
AcDbEntity
  8
STEMPEL
100
AcDbLine
 10
179.5617072510253
 20
239.748993206939
 30
0.0
 11
183.8907072510254
 21
239.748993206939
 31
0.0
  0
LINE
  5
1163
330
1E
100
AcDbEntity
  8
STEMPEL
100
AcDbLine
 10
179.5617072510253
 20
236.748993206939
 30
0.0
 11
179.5617072510253
 21
239.748993206939
 31
0.0
  0
LINE
  5
1164
330
1E
100
AcDbEntity
  8
STEMPEL
100
AcDbLine
 10
177.5617072510254
 20
236.748993206939
 30
0.0
 11
179.5617072510253
 21
236.748993206939
 31
0.0
  0
LINE
  5
1165
330
1E
100
AcDbEntity
  8
STEMPEL
100
AcDbLine
 10
177.5617072510254
 20
239.748993206939
 30
0.0
 11
177.5617072510254
 21
236.748993206939
 31
0.0
  0
LINE
  5
1166
330
1E
100
AcDbEntity
  8
STEMPEL
100
AcDbLine
 10
173.2317072510254
 20
239.748993206939
 30
0.0
 11
177.5617072510254
 21
239.748993206939
 31
0.0
  0
ARC
  5
1167
330
1E
100
AcDbEntity
  8
STEMPEL
100
AcDbCircle
 10
173.2317072510254
 20
238.748993206939
 30
0.0
 40
1.0
100
AcDbArc
 50
90.0
 51
175.6676860170001
  0
LINE
  5
1168
330
1E
100
AcDbEntity
  8
STEMPEL
100
AcDbLine
 10
172.0617072510254
 20
236.5339932069391
 30
0.0
 11
172.2347072510254
 21
238.8249932069391
 31
0.0
  0
LINE
  5
1169
330
1E
100
AcDbEntity
  8
STEMPEL
100
AcDbLine
 10
172.0617072510254
 20
234.748993206939
 30
0.0
 11
172.0617072510254
 21
236.5339932069391
 31
0.0
  0
LINE
  5
116A
330
1E
100
AcDbEntity
  8
STEMPEL
100
AcDbLine
 10
181.1247072510253
 20
234.748993206939
 30
0.0
 11
172.0617072510254
 21
234.748993206939
 31
0.0
  0
ARC
  5
116B
330
1E
100
AcDbEntity
  8
STEMPEL
100
AcDbCircle
 10
69.64670725102542
 20
237.7489932069391
 30
0.0
 40
6.0
100
AcDbArc
 50
270.0
 51
351.4591301670002
  0
ARC
  5
116C
330
1E
100
AcDbEntity
  8
STEMPEL
100
AcDbCircle
 10
69.64670725102542
 20
237.7489932069391
 30
0.0
 40
3.0
100
AcDbArc
 50
270.0
 51
351.4591301670002
  0
ARC
  5
116D
330
1E
100
AcDbEntity
  8
STEMPEL
100
AcDbCircle
 10
119.5867072510254
 20
230.2489932069391
 30
0.0
 40
47.5
100
AcDbArc
 50
8.540869832999787
 51
171.4591301670002
  0
ARC
  5
116E
330
1E
100
AcDbEntity
  8
STEMPEL
100
AcDbCircle
 10
119.5867072510254
 20
230.2489932069391
 30
0.0
 40
44.5
100
AcDbArc
 50
8.540869832999787
 51
171.4591301670002
  0
ARC
  5
116F
330
1E
100
AcDbEntity
  8
STEMPEL
100
AcDbCircle
 10
169.5267072510254
 20
237.7489932069391
 30
0.0
 40
3.0
100
AcDbArc
 50
188.5408698329997
 51
270.0
  0
ARC
  5
1170
330
1E
100
AcDbEntity
  8
STEMPEL
100
AcDbCircle
 10
169.5267072510254
 20
237.7489932069391
 30
0.0
 40
6.0
100
AcDbArc
 50
188.5408698329997
 51
270.0
  0
LINE
  5
1171
330
1E
100
AcDbEntity
  8
STEMPEL
100
AcDbLine
 10
188.1677072510253
 20
234.748993206939
 30
0.0
 11
188.1677072510253
 21
231.7489932069391
 31
0.0
  0
ARC
  5
1172
330
1E
100
AcDbEntity
  8
STEMPEL
100
AcDbCircle
 10
185.4967072510254
 20
235.7489932069391
 30
0.0
 40
1.0
100
AcDbArc
 50
180.0
 51
270.0
  0
LINE
  5
1173
330
1E
100
AcDbEntity
  8
STEMPEL
100
AcDbLine
 10
183.5217072510254
 20
235.7489932069391
 30
0.0
 11
183.5217072510254
 21
236.748993206939
 31
0.0
  0
ARC
  5
1174
330
1E
100
AcDbEntity
  8
STEMPEL
100
AcDbCircle
 10
184.5217072510254
 20
235.7489932069391
 30
0.0
 40
1.0
100
AcDbArc
 50
180.0
 51
270.0
  0
LINE
  5
1175
330
1E
100
AcDbEntity
  8
STEMPEL
100
AcDbLine
 10
184.4967072510254
 20
235.7489932069391
 30
0.0
 11
184.4967072510254
 21
236.748993206939
 31
0.0
  0
LINE
  5
1176
330
1E
100
AcDbEntity
  8
STEMPEL
100
AcDbLine
 10
180.9977072510254
 20
236.748993206939
 30
0.0
 11
184.4967072510254
 21
236.748993206939
 31
0.0
  0
LINE
  5
1177
330
1E
100
AcDbEntity
  8
STEMPEL
100
AcDbLine
 10
180.9977072510254
 20
235.7489932069391
 30
0.0
 11
180.9977072510254
 21
236.748993206939
 31
0.0
  0
ARC
  5
1178
330
1E
100
AcDbEntity
  8
STEMPEL
100
AcDbCircle
 10
184.9977072510254
 20
235.7489932069391
 30
0.0
 40
4.0
100
AcDbArc
 50
180.0
 51
270.0
  0
LINE
  5
1179
330
1E
100
AcDbEntity
  8
STEMPEL
100
AcDbLine
 10
184.5217072510254
 20
234.748993206939
 30
0.0
 11
191.0617072510254
 21
234.748993206939
 31
0.0
  0
LINE
  5
117A
330
1E
100
AcDbEntity
  8
STEMPEL
100
AcDbLine
 10
191.0617072510254
 20
234.748993206939
 30
0.0
 11
191.0617072510254
 21
231.7489932069391
 31
0.0
  0
LINE
  5
117B
330
1E
100
AcDbEntity
  8
STEMPEL
100
AcDbLine
 10
171.9087072510254
 20
234.748993206939
 30
0.0
 11
171.9087072510254
 21
231.7489932069391
 31
0.0
  0
LINE
  5
117C
330
1E
100
AcDbEntity
  8
STEMPEL
100
AcDbLine
 10
51.0057072510254
 20
234.748993206939
 30
0.0
 11
51.0057072510254
 21
231.7489932069391
 31
0.0
  0
LINE
  5
117D
330
1E
100
AcDbEntity
  8
STEMPEL
100
AcDbLine
 10
182.5617072510254
 20
231.7489932069391
 30
0.0
 11
191.0617072510254
 21
231.7489932069391
 31
0.0
  0
LINE
  5
117E
330
1E
100
AcDbEntity
  8
STEMPEL
100
AcDbLine
 10
169.5267072510254
 20
231.7489932069391
 30
0.0
 11
174.5617072510253
 21
231.7489932069391
 31
0.0
  0
LINE
  5
117F
330
1E
100
AcDbEntity
  8
STEMPEL
100
AcDbLine
 10
181.1247072510253
 20
234.748993206939
 30
0.0
 11
169.5267072510254
 21
234.748993206939
 31
0.0
  0
LINE
  5
1180
330
1E
100
AcDbEntity
  8
STEMPEL
100
AcDbLine
 10
48.11170725102539
 20
231.7489932069391
 30
0.0
 11
69.64670725102542
 21
231.7489932069391
 31
0.0
  0
LINE
  5
1181
330
1E
100
AcDbEntity
  8
STEMPEL
100
AcDbLine
 10
48.11170725102539
 20
234.748993206939
 30
0.0
 11
48.11170725102539
 21
231.7489932069391
 31
0.0
  0
LINE
  5
1182
330
1E
100
AcDbEntity
  8
STEMPEL
100
AcDbLine
 10
69.64670725102542
 20
234.748993206939
 30
0.0
 11
48.11170725102539
 21
234.748993206939
 31
0.0
  0
ARC
  5
1183
330
1E
100
AcDbEntity
  8
HILF
100
AcDbCircle
 10
119.5867072510254
 20
230.2489932069391
 30
0.0
 40
48.5
100
AcDbArc
 50
103.4424757420006
 51
174.0481061659999
  0
ARC
  5
1184
330
1E
100
AcDbEntity
  8
HILF
100
AcDbCircle
 10
111.1017072510254
 20
265.7489932069391
 30
0.0
 40
12.0
100
AcDbArc
 50
89.99973706000059
 51
103.4424757420006
  0
LINE
  5
1185
330
1E
100
AcDbEntity
  8
HILF
100
AcDbLine
 10
128.0717072510253
 20
277.7489932069391
 30
0.0
 11
111.1017072510254
 21
277.7489932069391
 31
0.0
  0
ARC
  5
1186
330
1E
100
AcDbEntity
  8
HILF
100
AcDbCircle
 10
128.0717072510253
 20
265.7489932069391
 30
0.0
 40
12.0
100
AcDbArc
 50
76.55699837800058
 51
89.99973706000059
  0
ARC
  5
1187
330
1E
100
AcDbEntity
  8
HILF
100
AcDbCircle
 10
119.5867072510254
 20
230.2489932069391
 30
0.0
 40
48.5
100
AcDbArc
 50
5.951893834000045
 51
76.55699837800058
  0
ARC
  5
1188
330
1E
100
AcDbEntity
  8
STEMPEL
100
AcDbCircle
 10
119.7297072510254
 20
165.1939932069391
 30
0.0
 40
17.556
100
AcDbArc
 50
56.00782388600019
 51
123.9921761139998
  0
ARC
  5
1189
330
1E
100
AcDbEntity
  8
STEMPEL
100
AcDbCircle
 10
127.0907072510254
 20
175.661993206939
 30
0.0
 40
4.767
100
AcDbArc
 50
90.0
 51
120.9790988620005
  0
ARC
  5
118A
330
1E
100
AcDbEntity
  8
STEMPEL
100
AcDbCircle
 10
127.0907072510254
 20
175.661993206939
 30
0.0
 40
4.767
100
AcDbArc
 50
59.02090113799946
 51
90.0
  0
ARC
  5
118B
330
1E
100
AcDbEntity
  8
STEMPEL
100
AcDbCircle
 10
119.7297072510254
 20
162.380993206939
 30
0.0
 40
18.048
100
AcDbArc
 50
74.22219389999952
 51
105.7778061000004
  0
ARC
  5
118C
330
1E
100
AcDbEntity
  8
STEMPEL
100
AcDbCircle
 10
112.3687072510254
 20
175.661993206939
 30
0.0
 40
4.767
100
AcDbArc
 50
90.0
 51
120.9790988620005
  0
ARC
  5
118D
330
1E
100
AcDbEntity
  8
STEMPEL
100
AcDbCircle
 10
112.3687072510254
 20
175.661993206939
 30
0.0
 40
4.767
100
AcDbArc
 50
59.02090113799946
 51
90.0
  0
ARC
  5
118E
330
1E
100
AcDbEntity
  8
STEMPEL
100
AcDbCircle
 10
112.3687072510254
 20
173.515993206939
 30
0.0
 40
4.767
100
AcDbArc
 50
270.0
 51
300.9790988620006
  0
ARC
  5
118F
330
1E
100
AcDbEntity
  8
STEMPEL
100
AcDbCircle
 10
112.3687072510254
 20
173.515993206939
 30
0.0
 40
4.767
100
AcDbArc
 50
239.0209011379995
 51
270.0
  0
ARC
  5
1190
330
1E
100
AcDbEntity
  8
STEMPEL
100
AcDbCircle
 10
119.7297072510254
 20
186.797993206939
 30
0.0
 40
18.048
100
AcDbArc
 50
254.2221938999995
 51
285.7778061000005
  0
ARC
  5
1191
330
1E
100
AcDbEntity
  8
STEMPEL
100
AcDbCircle
 10
127.0907072510254
 20
173.515993206939
 30
0.0
 40
4.767
100
AcDbArc
 50
270.0
 51
300.9790988620006
  0
ARC
  5
1192
330
1E
100
AcDbEntity
  8
STEMPEL
100
AcDbCircle
 10
127.0907072510254
 20
173.515993206939
 30
0.0
 40
4.767
100
AcDbArc
 50
239.0209011379995
 51
270.0
  0
LINE
  5
1193
330
1E
100
AcDbEntity
  8
STEMPEL
100
AcDbLine
 10
127.0907072510254
 20
168.748993206939
 30
0.0
 11
112.3687072510254
 21
168.748993206939
 31
0.0
  0
LINE
  5
1194
330
1E
100
AcDbEntity
  8
STEMPEL
100
AcDbLine
 10
109.9147072510254
 20
179.748993206939
 30
0.0
 11
109.9147072510254
 21
169.428993206939
 31
0.0
  0
LINE
  5
1195
330
1E
100
AcDbEntity
  8
STEMPEL
100
AcDbLine
 10
114.8227072510254
 20
179.748993206939
 30
0.0
 11
114.8227072510254
 21
169.428993206939
 31
0.0
  0
LINE
  5
1196
330
1E
100
AcDbEntity
  8
STEMPEL
100
AcDbLine
 10
124.6377072510254
 20
179.748993206939
 30
0.0
 11
124.6377072510254
 21
169.428993206939
 31
0.0
  0
LINE
  5
1197
330
1E
100
AcDbEntity
  8
STEMPEL
100
AcDbLine
 10
129.5447072510254
 20
179.748993206939
 30
0.0
 11
129.5447072510254
 21
169.428993206939
 31
0.0
  0
ARC
  5
1198
330
1E
100
AcDbEntity
  8
HILF
100
AcDbCircle
 10
119.5867072510254
 20
230.2489932069391
 30
0.0
 40
48.5
100
AcDbArc
 50
185.951893834
 51
256.5575242579994
  0
ARC
  5
1199
330
1E
100
AcDbEntity
  8
HILF
100
AcDbCircle
 10
111.1017072510254
 20
194.748993206939
 30
0.0
 40
12.0
100
AcDbArc
 50
256.5575242579994
 51
270.0002629399994
  0
LINE
  5
119A
330
1E
100
AcDbEntity
  8
HILF
100
AcDbLine
 10
128.0717072510253
 20
182.748993206939
 30
0.0
 11
111.1017072510254
 21
182.748993206939
 31
0.0
  0
ARC
  5
119B
330
1E
100
AcDbEntity
  8
HILF
100
AcDbCircle
 10
128.0717072510253
 20
194.748993206939
 30
0.0
 40
12.0
100
AcDbArc
 50
270.0002629399994
 51
283.4430016219994
  0
ARC
  5
119C
330
1E
100
AcDbEntity
  8
HILF
100
AcDbCircle
 10
119.5867072510254
 20
230.2489932069391
 30
0.0
 40
48.5
100
AcDbArc
 50
283.4430016219994
 51
354.0481061659999
  0
ARC
  5
119D
330
1E
100
AcDbEntity
  8
STEMPEL
100
AcDbCircle
 10
169.5267072510254
 20
222.748993206939
 30
0.0
 40
6.0
100
AcDbArc
 50
90.0
 51
171.4591301670002
  0
ARC
  5
119E
330
1E
100
AcDbEntity
  8
STEMPEL
100
AcDbCircle
 10
69.64670725102542
 20
222.748993206939
 30
0.0
 40
3.0
100
AcDbArc
 50
8.540869832999787
 51
90.0
  0
ARC
  5
119F
330
1E
100
AcDbEntity
  8
STEMPEL
100
AcDbCircle
 10
69.64670725102542
 20
222.748993206939
 30
0.0
 40
6.0
100
AcDbArc
 50
8.540869832999787
 51
90.0
  0
ARC
  5
11A0
330
1E
100
AcDbEntity
  8
STEMPEL
100
AcDbCircle
 10
119.5867072510254
 20
230.2489932069391
 30
0.0
 40
44.5
100
AcDbArc
 50
188.5408698329997
 51
351.4591301670002
  0
ARC
  5
11A1
330
1E
100
AcDbEntity
  8
STEMPEL
100
AcDbCircle
 10
119.5867072510254
 20
230.2489932069391
 30
0.0
 40
47.5
100
AcDbArc
 50
188.5408698329997
 51
351.4591301670002
  0
ARC
  5
11A2
330
1E
100
AcDbEntity
  8
STEMPEL
100
AcDbCircle
 10
169.5267072510254
 20
222.748993206939
 30
0.0
 40
3.0
100
AcDbArc
 50
90.0
 51
171.4591301670002
  0
ARC
  5
11A3
330
1E
100
AcDbEntity
  8
STEMPEL
100
AcDbCircle
 10
66.11170725102539
 20
224.748993206939
 30
0.0
 40
1.0
100
AcDbArc
 50
90.0
 51
180.0
  0
LINE
  5
11A4
330
1E
100
AcDbEntity
  8
STEMPEL
100
AcDbLine
 10
65.11170725102539
 20
223.7489932069391
 30
0.0
 11
65.11170725102539
 21
224.748993206939
 31
0.0
  0
LINE
  5
11A5
330
1E
100
AcDbEntity
  8
STEMPEL
100
AcDbLine
 10
56.11170725102539
 20
223.7489932069391
 30
0.0
 11
65.11170725102539
 21
223.7489932069391
 31
0.0
  0
LINE
  5
11A6
330
1E
100
AcDbEntity
  8
STEMPEL
100
AcDbLine
 10
56.11170725102539
 20
224.748993206939
 30
0.0
 11
56.11170725102539
 21
223.7489932069391
 31
0.0
  0
ARC
  5
11A7
330
1E
100
AcDbEntity
  8
STEMPEL
100
AcDbCircle
 10
55.11170725102539
 20
224.748993206939
 30
0.0
 40
1.0
100
AcDbArc
 50
0.0
 51
90.0
  0
LINE
  5
11A8
330
1E
100
AcDbEntity
  8
STEMPEL
100
AcDbLine
 10
174.0617072510254
 20
223.7489932069391
 30
0.0
 11
174.0617072510254
 21
224.748993206939
 31
0.0
  0
ARC
  5
11A9
330
1E
100
AcDbEntity
  8
STEMPEL
100
AcDbCircle
 10
173.0617072510254
 20
224.748993206939
 30
0.0
 40
1.0
100
AcDbArc
 50
0.0
 51
90.0
  0
LINE
  5
11AA
330
1E
100
AcDbEntity
  8
STEMPEL
100
AcDbLine
 10
183.0617072510254
 20
223.7489932069391
 30
0.0
 11
174.0617072510254
 21
223.7489932069391
 31
0.0
  0
LINE
  5
11AB
330
1E
100
AcDbEntity
  8
STEMPEL
100
AcDbLine
 10
183.0617072510254
 20
224.748993206939
 30
0.0
 11
183.0617072510254
 21
223.7489932069391
 31
0.0
  0
ARC
  5
11AC
330
1E
100
AcDbEntity
  8
STEMPEL
100
AcDbCircle
 10
184.0617072510253
 20
224.748993206939
 30
0.0
 40
1.0
100
AcDbArc
 50
90.0
 51
180.0
  0
LINE
  5
11AD
330
1E
100
AcDbEntity
  8
STEMPEL
100
AcDbLine
 10
188.1427072510254
 20
228.748993206939
 30
0.0
 11
188.1427072510254
 21
225.7489932069391
 31
0.0
  0
LINE
  5
11AE
330
1E
100
AcDbEntity
  8
STEMPEL
100
AcDbLine
 10
51.03070725102544
 20
228.748993206939
 30
0.0
 11
51.03070725102544
 21
225.7489932069391
 31
0.0
  0
LINE
  5
11AF
330
1E
100
AcDbEntity
  8
STEMPEL
100
AcDbLine
 10
189.8617072510254
 20
228.748993206939
 30
0.0
 11
169.5267072510254
 21
228.748993206939
 31
0.0
  0
LINE
  5
11B0
330
1E
100
AcDbEntity
  8
STEMPEL
100
AcDbLine
 10
191.0617072510254
 20
228.748993206939
 30
0.0
 11
189.8617072510254
 21
228.748993206939
 31
0.0
  0
LINE
  5
11B1
330
1E
100
AcDbEntity
  8
STEMPEL
100
AcDbLine
 10
191.0617072510254
 20
225.7489932069391
 30
0.0
 11
191.0617072510254
 21
228.748993206939
 31
0.0
  0
LINE
  5
11B2
330
1E
100
AcDbEntity
  8
STEMPEL
100
AcDbLine
 10
189.8617072510254
 20
225.7489932069391
 30
0.0
 11
191.0617072510254
 21
225.7489932069391
 31
0.0
  0
LINE
  5
11B3
330
1E
100
AcDbEntity
  8
STEMPEL
100
AcDbLine
 10
169.5267072510254
 20
225.7489932069391
 30
0.0
 11
189.8617072510254
 21
225.7489932069391
 31
0.0
  0
LINE
  5
11B4
330
1E
100
AcDbEntity
  8
STEMPEL
100
AcDbLine
 10
48.11170725102539
 20
228.748993206939
 30
0.0
 11
69.64670725102542
 21
228.748993206939
 31
0.0
  0
LINE
  5
11B5
330
1E
100
AcDbEntity
  8
STEMPEL
100
AcDbLine
 10
48.11170725102539
 20
225.7489932069391
 30
0.0
 11
48.11170725102539
 21
228.748993206939
 31
0.0
  0
LINE
  5
11B6
330
1E
100
AcDbEntity
  8
STEMPEL
100
AcDbLine
 10
69.64670725102542
 20
225.7489932069391
 30
0.0
 11
48.11170725102539
 21
225.7489932069391
 31
0.0
  0
LINE
  5
11B7
330
1E
100
AcDbEntity
  8
MITTEL
100
AcDbLine
 10
60.61170725102539
 20
244.7489932069391
 30
0.0
 11
60.61170725102539
 21
204.7489932069391
 31
0.0
  0
LINE
  5
11B8
330
1E
100
AcDbEntity
  8
MITTEL
100
AcDbLine
 10
178.5617072510254
 20
244.7489932069391
 30
0.0
 11
178.5617072510253
 21
204.7489932069391
 31
0.0
  0
LINE
  5
11B9
330
1E
100
AcDbEntity
  8
MITTEL
100
AcDbLine
 10
196.0617072510254
 20
230.248993206939
 30
0.0
 11
43.11170725102542
 21
230.2489932069391
 31
0.0
  0
LINE
  5
11BA
330
1E
100
AcDbEntity
  8
MITTEL
100
AcDbLine
 10
119.5867072510254
 20
163.748993206939
 30
0.0
 11
119.5867072510254
 21
282.7489932069391
 31
0.0
  0
CIRCLE
  5
11BB
330
1E
100
AcDbEntity
  8
STEMPEL
100
AcDbCircle
 10
178.5867072510255
 20
132.8108891490323
 30
0.0
 40
6.5
  0
CIRCLE
  5
11BC
330
1E
100
AcDbEntity
  8
STEMPEL
100
AcDbCircle
 10
60.58670725102553
 20
132.8108891490323
 30
0.0
 40
6.5
  0
TEXT
  5
11BD
330
1E
100
AcDbEntity
  8
TEXT
 62
     1
100
AcDbText
 10
114.3648660174415
 20
127.6358891490323
 30
0.0
 40
3.5
  1
DN80
 41
0.8
 72
     1
 11
119.4981993507748
 21
127.6358891490323
 31
0.0
100
AcDbText
  0
TEXT
  5
11BE
330
1E
100
AcDbEntity
  8
TEXT
 62
     1
100
AcDbText
 10
114.839983595125
 20
134.7388891490323
 30
0.0
 40
3.5
  1
LORO
 41
0.8
 72
     1
 11
119.9066502617917
 21
134.7388891490323
 31
0.0
100
AcDbText
  0
CIRCLE
  5
11BF
330
1E
100
AcDbEntity
  8
HILF
100
AcDbCircle
 10
119.5827072510255
 20
132.8108891490323
 30
0.0
 40
9.25
  0
CIRCLE
  5
11C0
330
1E
100
AcDbEntity
  8
HILF
100
AcDbCircle
 10
119.5827072510255
 20
132.8108891490323
 30
0.0
 40
10.75
  0
LINE
  5
11C1
330
1E
100
AcDbEntity
  8
STEMPEL
100
AcDbLine
 10
177.5867072510255
 20
126.3888891490323
 30
0.0
 11
177.5867072510255
 21
139.2338891490323
 31
0.0
  0
LINE
  5
11C2
330
1E
100
AcDbEntity
  8
STEMPEL
100
AcDbLine
 10
179.5867072510255
 20
126.3888891490323
 30
0.0
 11
179.5867072510255
 21
139.2338891490323
 31
0.0
  0
LINE
  5
11C3
330
1E
100
AcDbEntity
  8
STEMPEL
100
AcDbLine
 10
59.58670725102553
 20
126.3888891490323
 30
0.0
 11
59.58670725102553
 21
139.2338891490323
 31
0.0
  0
LINE
  5
11C4
330
1E
100
AcDbEntity
  8
STEMPEL
100
AcDbLine
 10
61.58670725102552
 20
126.3888891490323
 30
0.0
 11
61.58670725102552
 21
139.2338891490323
 31
0.0
  0
LINE
  5
11C5
330
1E
100
AcDbEntity
  8
MITTEL
100
AcDbLine
 10
196.0867072510255
 20
132.8108891490323
 30
0.0
 11
43.08670725102553
 21
132.8108891490323
 31
0.0
  0
LINE
  5
11C6
330
1E
100
AcDbEntity
  8
MITTEL
100
AcDbLine
 10
178.5867072510255
 20
121.3108891490323
 30
0.0
 11
178.5867072510255
 21
144.3108891490323
 31
0.0
  0
LINE
  5
11C7
330
1E
100
AcDbEntity
  8
MITTEL
100
AcDbLine
 10
60.58670725102553
 20
121.3108891490323
 30
0.0
 11
60.58670725102553
 21
144.3108891490323
 31
0.0
  0
LINE
  5
11C8
330
1E
100
AcDbEntity
  8
MITTEL
100
AcDbLine
 10
119.5837072510255
 20
152.8108891490324
 30
0.0
 11
119.5837072510255
 21
112.8108891490323
 31
0.0
  0
LINE
  5
11C9
330
1E
100
AcDbEntity
  8
STEMPEL
100
AcDbLine
 10
173.4757072510254
 20
128.7948891490323
 30
0.0
 11
171.9327072510255
 21
117.8108891490323
 31
0.0
  0
LINE
  5
11CA
330
1E
100
AcDbEntity
  8
STEMPEL
100
AcDbLine
 10
181.0207072510255
 20
117.8108891490323
 30
0.0
 11
182.3877072510255
 21
127.5388891490323
 31
0.0
  0
LINE
  5
11CB
330
1E
100
AcDbEntity
  8
HILF
100
AcDbLine
 10
72.83870725102554
 20
128.0808891490323
 30
0.0
 11
72.83870725102554
 21
117.8108891490323
 31
0.0
  0
LINE
  5
11CC
330
1E
100
AcDbEntity
  8
HILF
100
AcDbLine
 10
109.9297072510255
 20
128.0808891490323
 30
0.0
 11
72.83870725102554
 21
128.0808891490323
 31
0.0
  0
LINE
  5
11CD
330
1E
100
AcDbEntity
  8
HILF
100
AcDbLine
 10
72.83870725102554
 20
137.5408891490323
 30
0.0
 11
109.9297072510255
 21
137.5408891490323
 31
0.0
  0
LINE
  5
11CE
330
1E
100
AcDbEntity
  8
HILF
100
AcDbLine
 10
72.83870725102554
 20
147.8108891490324
 30
0.0
 11
72.83870725102554
 21
137.5408891490323
 31
0.0
  0
LINE
  5
11CF
330
1E
100
AcDbEntity
  8
HILF
100
AcDbLine
 10
166.3337072510255
 20
128.0808891490323
 30
0.0
 11
166.3337072510255
 21
117.8108891490323
 31
0.0
  0
LINE
  5
11D0
330
1E
100
AcDbEntity
  8
HILF
100
AcDbLine
 10
129.2367072510255
 20
128.0808891490323
 30
0.0
 11
166.3337072510255
 21
128.0808891490323
 31
0.0
  0
LINE
  5
11D1
330
1E
100
AcDbEntity
  8
HILF
100
AcDbLine
 10
166.3337072510255
 20
137.5408891490323
 30
0.0
 11
129.2367072510255
 21
137.5408891490323
 31
0.0
  0
LINE
  5
11D2
330
1E
100
AcDbEntity
  8
HILF
100
AcDbLine
 10
166.3337072510255
 20
147.8108891490324
 30
0.0
 11
166.3337072510255
 21
137.5408891490323
 31
0.0
  0
ARC
  5
11D3
330
1E
100
AcDbEntity
  8
HILF
100
AcDbCircle
 10
178.5867072510255
 20
132.8108891490323
 30
0.0
 40
6.0
100
AcDbArc
 50
99.59406822700028
 51
260.4059317729997
  0
ARC
  5
11D4
330
1E
100
AcDbEntity
  8
HILF
100
AcDbCircle
 10
178.5867072510255
 20
132.8108891490323
 30
0.0
 40
6.0
100
AcDbArc
 50
279.5940682270003
 51
80.40593177299973
  0
ARC
  5
11D5
330
1E
100
AcDbEntity
  8
HILF
100
AcDbCircle
 10
60.58670725102553
 20
132.8108891490323
 30
0.0
 40
6.0
100
AcDbArc
 50
99.59406822700028
 51
260.4059317729997
  0
ARC
  5
11D6
330
1E
100
AcDbEntity
  8
HILF
100
AcDbCircle
 10
60.58670725102553
 20
132.8108891490323
 30
0.0
 40
6.0
100
AcDbArc
 50
279.5940682270003
 51
80.40593177299973
  0
LINE
  5
11D7
330
1E
100
AcDbEntity
  8
STEMPEL
100
AcDbLine
 10
184.5197072510255
 20
124.7458891490323
 30
0.0
 11
182.0447072510255
 21
125.0938891490323
 31
0.0
  0
LINE
  5
11D8
330
1E
100
AcDbEntity
  8
STEMPEL
100
AcDbLine
 10
183.5457072510255
 20
117.8108891490323
 30
0.0
 11
184.5197072510255
 21
124.7458891490323
 31
0.0
  0
ARC
  5
11D9
330
1E
100
AcDbEntity
  8
HILF
100
AcDbCircle
 10
79.83870725102554
 20
132.8108891490323
 30
0.0
 40
8.5
100
AcDbArc
 50
145.4396782200005
 51
214.5603217799995
  0
ARC
  5
11DA
330
1E
100
AcDbEntity
  8
HILF
100
AcDbCircle
 10
159.3337072510255
 20
132.8108891490323
 30
0.0
 40
8.5
100
AcDbArc
 50
325.4396782200005
 51
34.56032177999951
  0
LINE
  5
11DB
330
1E
100
AcDbEntity
  8
STEMPEL
100
AcDbLine
 10
188.1677072510255
 20
117.8108891490323
 30
0.0
 11
51.00570725102551
 21
117.8108891490323
 31
0.0
  0
ARC
  5
11DC
330
1E
100
AcDbEntity
  8
STEMPEL
100
AcDbCircle
 10
151.0867072510255
 20
132.8108891490323
 30
0.0
 40
40.0
100
AcDbArc
 50
337.9756871630003
 51
22.02431283699973
  0
LINE
  5
11DD
330
1E
100
AcDbEntity
  8
STEMPEL
100
AcDbLine
 10
51.00570725102551
 20
147.8108891490324
 30
0.0
 11
188.1677072510255
 21
147.8108891490324
 31
0.0
  0
ARC
  5
11DE
330
1E
100
AcDbEntity
  8
STEMPEL
100
AcDbCircle
 10
88.08670725102553
 20
132.8108891490323
 30
0.0
 40
40.0
100
AcDbArc
 50
157.9756871630002
 51
202.0243128369997
  0
DIMENSION
  5
120A
330
1E
100
AcDbEntity
  8
BEM
100
AcDbDimension
  2
*D1
 10
38.82902459757452
 20
231.7489932069391
 30
0.0
 11
35.57902459757448
 21
241.1823265402724
 31
0.0
 70
    32
 71
     5
 42
3.0
  3
Standard
100
AcDbAlignedDimension
 13
48.11170725102539
 23
228.748993206939
 33
0.0
 14
48.11170725102539
 24
231.7489932069391
 34
0.0
 50
90.0
100
AcDbRotatedDimension
1001
ACAD
1000
DSTYLE
1002
{
1070
    41
1040
3.5
1070
    42
1040
1.0
1070
    43
1040
7.0
1070
    44
1040
1.0
1070
    73
1070
     0
1070
    74
1070
     0
1070
    77
1070
     1
1070
    78
1070
     8
1070
    79
1070
     2
1070
   140
1040
3.5
1070
   141
1040
1.5
1070
   146
1040
0.5142857142857144
1070
   147
1040
1.5
1070
   172
1070
     1
1070
   178
1070
     1
1070
   179
1070
     2
1070
   271
1070
     2
1070
   272
1070
     2
1070
   284
1070
     8
1070
   285
1070
     8
1070
   286
1070
     8
1002
}
  0
DIMENSION
  5
1219
330
1E
100
AcDbEntity
  8
BEM
100
AcDbDimension
  2
*D2
 10
30.21534655283472
 20
168.748993206939
 30
0.0
 11
26.96534655283469
 21
223.2489932068759
 31
0.0
 70
    32
 71
     5
 42
108.9999999998736
  3
Standard
100
AcDbAlignedDimension
 13
111.1017623210501
 23
277.7489932068127
 33
0.0
 14
112.3687072510254
 24
168.748993206939
 34
0.0
 50
90.0
100
AcDbRotatedDimension
1001
ACAD
1000
DSTYLE
1002
{
1070
    41
1040
3.5
1070
    42
1040
1.0
1070
    43
1040
7.0
1070
    44
1040
1.0
1070
    73
1070
     0
1070
    74
1070
     0
1070
    77
1070
     1
1070
    78
1070
     8
1070
    79
1070
     2
1070
   140
1040
3.5
1070
   141
1040
1.5
1070
   146
1040
0.5142857142857144
1070
   147
1040
1.5
1070
   172
1070
     1
1070
   178
1070
     1
1070
   179
1070
     2
1070
   271
1070
     2
1070
   272
1070
     2
1070
   284
1070
     8
1070
   285
1070
     8
1070
   286
1070
     8
1002
}
  0
DIMENSION
  5
122E
330
1E
100
AcDbEntity
  8
BEM
100
AcDbDimension
  2
*D3
 10
178.5867072510255
 20
103.0802113969889
 30
0.0
 11
119.5867072510255
 21
106.3302113969889
 31
0.0
 70
    32
 71
     5
 42
118.0
  3
Standard
100
AcDbAlignedDimension
 13
60.58670725102553
 23
121.3108891490323
 33
0.0
 14
178.5867072510255
 24
121.3108891490323
 34
0.0
100
AcDbRotatedDimension
1001
ACAD
1000
DSTYLE
1002
{
1070
    41
1040
3.5
1070
    42
1040
1.0
1070
    43
1040
7.0
1070
    44
1040
1.0
1070
    73
1070
     0
1070
    74
1070
     0
1070
    77
1070
     1
1070
    78
1070
     8
1070
    79
1070
     2
1070
   140
1040
3.5
1070
   141
1040
1.5
1070
   146
1040
0.5142857142857144
1070
   147
1040
1.5
1070
   172
1070
     1
1070
   178
1070
     1
1070
   179
1070
     2
1070
   271
1070
     2
1070
   272
1070
     2
1070
   284
1070
     8
1070
   285
1070
     8
1070
   286
1070
     8
1002
}
  0
DIMENSION
  5
123B
330
1E
100
AcDbEntity
  8
BEM
100
AcDbDimension
  2
*D4
 10
191.0867072510255
 20
94.40084352680219
 30
0.0
 11
119.5867072510255
 21
97.65084352680219
 31
0.0
 70
    32
 71
     5
 42
143.0
  3
Standard
100
AcDbAlignedDimension
 13
48.08670725102553
 23
132.8108891490323
 33
0.0
 14
191.0867072510255
 24
132.8108891490323
 34
0.0
100
AcDbRotatedDimension
1001
ACAD
1000
DSTYLE
1002
{
1070
    41
1040
3.5
1070
    42
1040
1.0
1070
    43
1040
7.0
1070
    44
1040
1.0
1070
    73
1070
     0
1070
    74
1070
     0
1070
    77
1070
     1
1070
    78
1070
     8
1070
    79
1070
     2
1070
   140
1040
3.5
1070
   141
1040
1.5
1070
   146
1040
0.5142857142857144
1070
   147
1040
1.5
1070
   172
1070
     1
1070
   178
1070
     1
1070
   179
1070
     2
1070
   271
1070
     2
1070
   272
1070
     2
1070
   284
1070
     8
1070
   285
1070
     8
1070
   286
1070
     8
1002
}
  0
DIMENSION
  5
1277
330
1E
100
AcDbEntity
  8
BEM
100
AcDbDimension
  2
*D5
 10
150.4502154497226
 20
262.3067151771859
 30
0.0
 11
131.9385893834728
 21
243.1311727487929
 31
0.0
 70
   161
 71
     5
 42
88.99999999756071
  3
Standard
100
AcDbAlignedDimension
 13
88.67933948480688
 23
198.2336122508467
 33
0.0
 14
150.4936009435673
 24
262.2648318228166
 34
0.0
1001
ACAD
1000
DSTYLE
1002
{
1070
    41
1040
3.5
1070
    42
1040
1.0
1070
    43
1040
7.0
1070
    44
1040
1.0
1070
    73
1070
     0
1070
    74
1070
     0
1070
    77
1070
     1
1070
    78
1070
     8
1070
    79
1070
     2
1070
   140
1040
3.5
1070
   141
1040
1.5
1070
   146
1040
0.5142857142857144
1070
   147
1040
1.5
1070
   172
1070
     1
1070
   178
1070
     1
1070
   179
1070
     2
1070
   271
1070
     2
1070
   272
1070
     2
1070
   284
1070
     8
1070
   285
1070
     8
1070
   286
1070
     8
1002
}
  0
TEXT
  5
12BA
330
1E
100
AcDbEntity
  8
TEXT
 62
     1
100
AcDbText
 10
113.9182761339558
 20
57.82028541582997
 30
0.0
 40
3.5
  1
Werkstoff: St37 Dickschichtpassiviert
 41
0.8
  7
GREEKS
100
AcDbText
  0
DIMENSION
  5
12C4
330
1E
100
AcDbEntity
  8
BEM
100
AcDbDimension
  2
*D6
 10
38.32482674254391
 20
117.8108891490323
 30
0.0
 11
35.07482674254389
 21
132.8108891490324
 31
0.0
 70
    32
 71
     5
 42
30.00000000000002
  3
Standard
100
AcDbAlignedDimension
 13
51.00570725102551
 23
147.8108891490324
 33
0.0
 14
51.00570725102551
 24
117.8108891490323
 34
0.0
 50
90.0
100
AcDbRotatedDimension
1001
ACAD
1000
DSTYLE
1002
{
1070
    41
1040
3.5
1070
    42
1040
1.0
1070
    43
1040
7.0
1070
    44
1040
1.0
1070
    73
1070
     0
1070
    74
1070
     0
1070
    77
1070
     1
1070
    78
1070
     8
1070
    79
1070
     2
1070
   140
1040
3.5
1070
   141
1040
1.5
1070
   146
1040
0.5142857142857144
1070
   147
1040
1.5
1070
   172
1070
     1
1070
   178
1070
     1
1070
   179
1070
     2
1070
   271
1070
     2
1070
   272
1070
     2
1070
   284
1070
     8
1070
   285
1070
     8
1070
   286
1070
     8
1002
}
  0
ENDSEC
  0
SECTION
  2
OBJECTS
  0
DICTIONARY
  5
C
330
0
100
AcDbDictionary
281
     1
  3
ACAD_COLOR
350
DF
  3
ACAD_GROUP
350
D
  3
ACAD_LAYOUT
350
19
  3
ACAD_MATERIAL
350
DE
  3
ACAD_MLINESTYLE
350
16
  3
ACAD_PLOTSETTINGS
350
18
  3
ACAD_PLOTSTYLENAME
350
E
  3
AcDbVariableDictionary
350
EA
  0
DICTIONARY
  5
A0
330
1E
100
AcDbDictionary
280
     1
281
     1
  3
ACAD_LAYOUTSELFREF
360
D4
  0
DICTIONARY
  5
A2
330
1A
100
AcDbDictionary
280
     1
281
     1
  3
ACAD_LAYOUTSELFREF
360
D3
  0
DICTIONARY
  5
DF
102
{ACAD_REACTORS
330
C
102
}
330
C
100
AcDbDictionary
281
     1
  0
DICTIONARY
  5
D
102
{ACAD_REACTORS
330
C
102
}
330
C
100
AcDbDictionary
281
     1
  0
DICTIONARY
  5
19
102
{ACAD_REACTORS
330
C
102
}
330
C
100
AcDbDictionary
281
     1
  3
Layout1
350
1D
  3
Model
350
21
  0
DICTIONARY
  5
DE
102
{ACAD_REACTORS
330
C
102
}
330
C
100
AcDbDictionary
281
     1
  0
DICTIONARY
  5
16
102
{ACAD_REACTORS
330
C
102
}
330
C
100
AcDbDictionary
281
     1
  3
Standard
350
17
  0
DICTIONARY
  5
18
102
{ACAD_REACTORS
330
C
102
}
330
C
100
AcDbDictionary
281
     1
  0
ACDBDICTIONARYWDFLT
  5
E
102
{ACAD_REACTORS
330
C
102
}
330
C
100
AcDbDictionary
281
     1
  3
Normal
350
F
100
AcDbDictionaryWithDefault
340
F
  0
DICTIONARY
  5
EA
102
{ACAD_REACTORS
330
C
102
}
330
C
100
AcDbDictionary
281
     1
  3
DIMASSOC
350
EB
  3
PROJECTNAME
350
EC
  0
XRECORD
  5
D4
102
{ACAD_REACTORS
330
A0
102
}
330
A0
100
AcDbXrecord
280
     1
340
1E
  0
XRECORD
  5
D3
102
{ACAD_REACTORS
330
A2
102
}
330
A2
100
AcDbXrecord
280
     1
340
1A
  0
LAYOUT
  5
1D
102
{ACAD_REACTORS
330
19
102
}
330
19
100
AcDbPlotSettings
  1

  2
\\NT_WORK01\HP LaserJet 5000 PCL 6
  4

  6

 40
0.0
 41
0.0
 42
0.0
 43
0.0
 44
0.0
 45
0.0
 46
0.0
 47
0.0
 48
0.0
 49
0.0
140
0.0
141
0.0
142
1.0
143
1.0
 70
   688
 72
     0
 73
     0
 74
     5
  7

 75
    16
147
1.0
 76
     0
 77
     2
 78
   300
148
0.0
149
0.0
100
AcDbLayout
  1
Layout1
 70
     0
 71
     1
 10
0.0
 20
0.0
 11
12.0
 21
9.0
 12
0.0
 22
0.0
 32
0.0
 14
1.000000000000000E+20
 24
1.000000000000000E+20
 34
1.000000000000000E+20
 15
-1.000000000000000E+20
 25
-1.000000000000000E+20
 35
-1.000000000000000E+20
146
0.0
 13
0.0
 23
0.0
 33
0.0
 16
1.0
 26
0.0
 36
0.0
 17
0.0
 27
1.0
 37
0.0
 76
     0
330
1A
  0
LAYOUT
  5
21
102
{ACAD_REACTORS
330
19
102
}
330
19
100
AcDbPlotSettings
  1

  2
none_device
  4
Letter_(8.50_x_11.00_Inches)
  6

 40
6.349999904632568
 41
6.349999904632568
 42
6.350006103515625
 43
6.350006103515625
 44
215.8999938964844
 45
279.3999938964844
 46
0.0
 47
0.0
 48
0.0
 49
0.0
140
0.0
141
0.0
142
1.0
143
39.74004481585392
 70
 11952
 72
     0
 73
     1
 74
     0
  7

 75
     0
147
0.0251635347829568
 76
     0
 77
     2
 78
   300
148
2632.334735535089
149
0.2489327872237936
100
AcDbLayout
  1
Model
 70
     1
 71
     0
 10
0.0
 20
0.0
 11
12.0
 21
9.0
 12
0.0
 22
0.0
 32
0.0
 14
0.0
 24
0.0
 34
0.0
 15
0.0
 25
0.0
 35
0.0
146
0.0
 13
0.0
 23
0.0
 33
0.0
 16
1.0
 26
0.0
 36
0.0
 17
0.0
 27
1.0
 37
0.0
 76
     0
330
1E
  0
MLINESTYLE
  5
17
102
{ACAD_REACTORS
330
16
102
}
330
16
100
AcDbMlineStyle
  2
STANDARD
 70
     0
  3

 62
   256
 51
90.0
 52
90.0
 71
     2
 49
0.5
 62
   256
  6
BYLAYER
 49
-0.5
 62
   256
  6
BYLAYER
  0
ACDBPLACEHOLDER
  5
F
102
{ACAD_REACTORS
330
E
102
}
330
E
  0
DICTIONARYVAR
  5
EB
102
{ACAD_REACTORS
330
EA
102
}
330
EA
100
DictionaryVariables
280
     0
  1
1
  0
DICTIONARYVAR
  5
EC
102
{ACAD_REACTORS
330
EA
102
}
330
EA
100
DictionaryVariables
280
     0
  1

  0
ENDSEC
  0
EOF
