  0
SECTION
  2
HEADER
  9
$ACADVER
  1
AC1018
  9
$ACADMAINTVER
 70
     2
  9
$DWGCODEPAGE
  3
ANSI_1252
  9
$INSBASE
 10
0.0
 20
0.0
 30
0.0
  9
$EXTMIN
 10
-0.0000000000000568
 20
-0.0000000000000568
 30
0.0
  9
$EXTMAX
 10
210.0
 20
297.0000000000001
 30
0.0
  9
$LIMMIN
 10
0.0
 20
0.0
  9
$LIMMAX
 10
210.0
 20
297.0
  9
$ORTHOMODE
 70
     1
  9
$REGENMODE
 70
     1
  9
$FILLMODE
 70
     1
  9
$QTEXTMODE
 70
     0
  9
$MIRRTEXT
 70
     1
  9
$LTSCALE
 40
10.0
  9
$ATTMODE
 70
     1
  9
$TEXTSIZE
 40
2.5
  9
$TRACEWID
 40
0.5
  9
$TEXTSTYLE
  7
GREEKS
  9
$CLAYER
  8
BEM
  9
$CELTYPE
  6
ByLayer
  9
$CECOLOR
 62
   256
  9
$CELTSCALE
 40
1.0
  9
$DISPSILH
 70
     0
  9
$DIMSCALE
 40
1.0
  9
$DIMASZ
 40
3.5
  9
$DIMEXO
 40
1.0
  9
$DIMDLI
 40
7.0
  9
$DIMRND
 40
0.0
  9
$DIMDLE
 40
0.0
  9
$DIMEXE
 40
1.0
  9
$DIMTP
 40
0.0
  9
$DIMTM
 40
0.0
  9
$DIMTXT
 40
3.5
  9
$DIMCEN
 40
1.5
  9
$DIMTSZ
 40
0.0
  9
$DIMTOL
 70
     0
  9
$DIMLIM
 70
     0
  9
$DIMTIH
 70
     0
  9
$DIMTOH
 70
     0
  9
$DIMSE1
 70
     0
  9
$DIMSE2
 70
     0
  9
$DIMTAD
 70
     1
  9
$DIMZIN
 70
     8
  9
$DIMBLK
  1

  9
$DIMASO
 70
     1
  9
$DIMSHO
 70
     0
  9
$DIMPOST
  1

  9
$DIMAPOST
  1

  9
$DIMALT
 70
     0
  9
$DIMALTD
 70
     2
  9
$DIMALTF
 40
25.4
  9
$DIMLFAC
 40
1.0
  9
$DIMTOFL
 70
     1
  9
$DIMTVP
 40
0.0
  9
$DIMTIX
 70
     0
  9
$DIMSOXD
 70
     0
  9
$DIMSAH
 70
     0
  9
$DIMBLK1
  1

  9
$DIMBLK2
  1

  9
$DIMSTYLE
  2
Standard
  9
$DIMCLRD
 70
     0
  9
$DIMCLRE
 70
     0
  9
$DIMCLRT
 70
     1
  9
$DIMTFAC
 40
0.5142857142857144
  9
$DIMGAP
 40
1.5
  9
$DIMJUST
 70
     0
  9
$DIMSD1
 70
     0
  9
$DIMSD2
 70
     0
  9
$DIMTOLJ
 70
     1
  9
$DIMTZIN
 70
     8
  9
$DIMALTZ
 70
     8
  9
$DIMALTTZ
 70
     8
  9
$DIMUPT
 70
     0
  9
$DIMDEC
 70
     2
  9
$DIMTDEC
 70
     2
  9
$DIMALTU
 70
     2
  9
$DIMALTTD
 70
     2
  9
$DIMTXSTY
  7
STANDARD
  9
$DIMAUNIT
 70
     0
  9
$DIMADEC
 70
     2
  9
$DIMALTRND
 40
0.0
  9
$DIMAZIN
 70
     2
  9
$DIMDSEP
 70
    46
  9
$DIMATFIT
 70
     3
  9
$DIMFRAC
 70
     0
  9
$DIMLDRBLK
  1

  9
$DIMLUNIT
 70
     2
  9
$DIMLWD
 70
    -2
  9
$DIMLWE
 70
    -2
  9
$DIMTMOVE
 70
     0
  9
$LUNITS
 70
     2
  9
$LUPREC
 70
     2
  9
$SKETCHINC
 40
1.0
  9
$FILLETRAD
 40
0.0
  9
$AUNITS
 70
     0
  9
$AUPREC
 70
     0
  9
$MENU
  1
ACAD
  9
$ELEVATION
 40
0.0
  9
$PELEVATION
 40
0.0
  9
$THICKNESS
 40
0.0
  9
$LIMCHECK
 70
     0
  9
$CHAMFERA
 40
0.0
  9
$CHAMFERB
 40
0.0
  9
$CHAMFERC
 40
0.0
  9
$CHAMFERD
 40
0.0
  9
$SKPOLY
 70
     0
  9
$TDCREATE
 40
2455397.823042361
  9
$TDUCREATE
 40
2455397.781375695
  9
$TDUPDATE
 40
2456230.298528877
  9
$TDUUPDATE
 40
2456230.256862211
  9
$TDINDWG
 40
0.2349208449
  9
$TDUSRTIMER
 40
0.2349208449
  9
$USRTIMER
 70
     1
  9
$ANGBASE
 50
0.0
  9
$ANGDIR
 70
     0
  9
$PDMODE
 70
     0
  9
$PDSIZE
 40
0.0
  9
$PLINEWID
 40
0.0
  9
$SPLFRAME
 70
     0
  9
$SPLINETYPE
 70
     6
  9
$SPLINESEGS
 70
     8
  9
$HANDSEED
  5
17E1
  9
$SURFTAB1
 70
     6
  9
$SURFTAB2
 70
     6
  9
$SURFTYPE
 70
     6
  9
$SURFU
 70
     6
  9
$SURFV
 70
     6
  9
$UCSBASE
  2

  9
$UCSNAME
  2

  9
$UCSORG
 10
0.0
 20
0.0
 30
0.0
  9
$UCSXDIR
 10
1.0
 20
0.0
 30
0.0
  9
$UCSYDIR
 10
0.0
 20
1.0
 30
0.0
  9
$UCSORTHOREF
  2

  9
$UCSORTHOVIEW
 70
     0
  9
$UCSORGTOP
 10
0.0
 20
0.0
 30
0.0
  9
$UCSORGBOTTOM
 10
0.0
 20
0.0
 30
0.0
  9
$UCSORGLEFT
 10
0.0
 20
0.0
 30
0.0
  9
$UCSORGRIGHT
 10
0.0
 20
0.0
 30
0.0
  9
$UCSORGFRONT
 10
0.0
 20
0.0
 30
0.0
  9
$UCSORGBACK
 10
0.0
 20
0.0
 30
0.0
  9
$PUCSBASE
  2

  9
$PUCSNAME
  2

  9
$PUCSORG
 10
0.0
 20
0.0
 30
0.0
  9
$PUCSXDIR
 10
1.0
 20
0.0
 30
0.0
  9
$PUCSYDIR
 10
0.0
 20
1.0
 30
0.0
  9
$PUCSORTHOREF
  2

  9
$PUCSORTHOVIEW
 70
     0
  9
$PUCSORGTOP
 10
0.0
 20
0.0
 30
0.0
  9
$PUCSORGBOTTOM
 10
0.0
 20
0.0
 30
0.0
  9
$PUCSORGLEFT
 10
0.0
 20
0.0
 30
0.0
  9
$PUCSORGRIGHT
 10
0.0
 20
0.0
 30
0.0
  9
$PUCSORGFRONT
 10
0.0
 20
0.0
 30
0.0
  9
$PUCSORGBACK
 10
0.0
 20
0.0
 30
0.0
  9
$USERI1
 70
     0
  9
$USERI2
 70
     0
  9
$USERI3
 70
     0
  9
$USERI4
 70
     0
  9
$USERI5
 70
     0
  9
$USERR1
 40
0.0
  9
$USERR2
 40
0.0
  9
$USERR3
 40
0.0
  9
$USERR4
 40
0.0
  9
$USERR5
 40
0.0
  9
$WORLDVIEW
 70
     1
  9
$SHADEDGE
 70
     3
  9
$SHADEDIF
 70
    70
  9
$TILEMODE
 70
     1
  9
$MAXACTVP
 70
    16
  9
$PINSBASE
 10
0.0
 20
0.0
 30
0.0
  9
$PLIMCHECK
 70
     0
  9
$PEXTMIN
 10
1.000000000000000E+20
 20
1.000000000000000E+20
 30
1.000000000000000E+20
  9
$PEXTMAX
 10
-1.000000000000000E+20
 20
-1.000000000000000E+20
 30
-1.000000000000000E+20
  9
$PLIMMIN
 10
0.0
 20
0.0
  9
$PLIMMAX
 10
12.0
 20
9.0
  9
$UNITMODE
 70
     0
  9
$VISRETAIN
 70
     0
  9
$PLINEGEN
 70
     0
  9
$PSLTSCALE
 70
     0
  9
$TREEDEPTH
 70
  3020
  9
$CMLSTYLE
  2
Standard
  9
$CMLJUST
 70
     0
  9
$CMLSCALE
 40
1.0
  9
$PROXYGRAPHICS
 70
     1
  9
$MEASUREMENT
 70
     0
  9
$CELWEIGHT
370
    -1
  9
$ENDCAPS
280
     0
  9
$JOINSTYLE
280
     0
  9
$LWDISPLAY
290
     0
  9
$INSUNITS
 70
     0
  9
$HYPERLINKBASE
  1

  9
$STYLESHEET
  1
monochrome1.ctb
  9
$XEDIT
290
     1
  9
$CEPSNTYPE
380
     0
  9
$PSTYLEMODE
290
     1
  9
$FINGERPRINTGUID
  2
{D68B0D02-A558-11D7-B632-000102183313}
  9
$VERSIONGUID
  2
{5C8D2B6F-379B-46B5-8CD3-09F82D85721C}
  9
$EXTNAMES
290
     1
  9
$PSVPSCALE
 40
0.0
  9
$OLESTARTUP
290
     0
  9
$SORTENTS
280
   127
  9
$INDEXCTL
280
     0
  9
$HIDETEXT
280
     0
  9
$XCLIPFRAME
290
     0
  9
$HALOGAP
280
     0
  9
$OBSCOLOR
 70
   257
  9
$OBSLTYPE
280
     0
  9
$INTERSECTIONDISPLAY
280
     0
  9
$INTERSECTIONCOLOR
 70
   257
  9
$DIMASSOC
280
     1
  9
$PROJECTNAME
  1

  0
ENDSEC
  0
SECTION
  2
CLASSES
  0
CLASS
  1
ACDBDICTIONARYWDFLT
  2
AcDbDictionaryWithDefault
  3
ObjectDBX Classes
 90
        0
 91
        1
280
     0
281
     0
  0
CLASS
  1
DICTIONARYVAR
  2
AcDbDictionaryVar
  3
ObjectDBX Classes
 90
        0
 91
        2
280
     0
281
     0
  0
ENDSEC
  0
SECTION
  2
TABLES
  0
TABLE
  2
VPORT
  5
8
330
0
100
AcDbSymbolTable
 70
     2
  0
VPORT
  5
17E0
330
8
100
AcDbSymbolTableRecord
100
AcDbViewportTableRecord
  2
*Active
 70
     0
 10
0.0
 20
0.0
 11
1.0
 21
1.0
 12
104.9999999999999
 22
148.5
 13
0.0
 23
0.0
 14
1.0
 24
1.0
 15
10.0
 25
10.0
 16
0.0
 26
0.0
 36
1.0
 17
0.0
 27
0.0
 37
0.0
 40
297.0
 41
1.404858299595141
 42
50.0
 43
0.0
 44
0.0
 50
0.0
 51
0.0
 71
     0
 72
  1500
 73
     1
 74
     0
 75
     0
 76
     0
 77
     0
 78
     0
281
     0
 65
     1
110
0.0
120
0.0
130
0.0
111
1.0
121
0.0
131
0.0
112
0.0
122
1.0
132
0.0
 79
     0
146
0.0
  0
ENDTAB
  0
TABLE
  2
LTYPE
  5
5
330
0
100
AcDbSymbolTable
 70
     2
  0
LTYPE
  5
13
330
5
100
AcDbSymbolTableRecord
100
AcDbLinetypeTableRecord
  2
ByBlock
 70
     0
  3

 72
    65
 73
     0
 40
0.0
  0
LTYPE
  5
14
330
5
100
AcDbSymbolTableRecord
100
AcDbLinetypeTableRecord
  2
ByLayer
 70
     0
  3

 72
    65
 73
     0
 40
0.0
  0
LTYPE
  5
15
330
5
100
AcDbSymbolTableRecord
100
AcDbLinetypeTableRecord
  2
Continuous
 70
     0
  3
Solid line
 72
    65
 73
     0
 40
0.0
  0
LTYPE
  5
25
330
5
100
AcDbSymbolTableRecord
100
AcDbLinetypeTableRecord
  2
STRICHPUNKT
 70
     0
  3
__ . __ . __ . __ . __ . __ . __ . __ . __ . __
 72
    65
 73
     4
 40
1.0
 49
0.5
 74
     0
 49
-0.25
 74
     0
 49
0.0
 74
     0
 49
-0.25
 74
     0
  0
ENDTAB
  0
TABLE
  2
LAYER
  5
2
330
0
100
AcDbSymbolTable
 70
     8
  0
LAYER
  5
10
330
2
100
AcDbSymbolTableRecord
100
AcDbLayerTableRecord
  2
0
 70
     0
 62
     7
  6
Continuous
370
    -3
390
F
  0
LAYER
  5
2A
330
2
100
AcDbSymbolTableRecord
100
AcDbLayerTableRecord
  2
VOLL
 70
     0
 62
     1
  6
Continuous
370
    -3
390
F
  0
LAYER
  5
2B
330
2
100
AcDbSymbolTableRecord
100
AcDbLayerTableRecord
  2
HILF
 70
     0
 62
     2
  6
Continuous
370
    -3
390
F
  0
LAYER
  5
2C
330
2
100
AcDbSymbolTableRecord
100
AcDbLayerTableRecord
  2
MITTEL
 70
     0
 62
     2
  6
STRICHPUNKT
370
    -3
390
F
  0
LAYER
  5
2F
330
2
100
AcDbSymbolTableRecord
100
AcDbLayerTableRecord
  2
BEM
 70
     0
 62
     7
  6
Continuous
370
    -3
390
F
  0
LAYER
  5
30
330
2
100
AcDbSymbolTableRecord
100
AcDbLayerTableRecord
  2
STEMPEL
 70
     0
 62
     3
  6
Continuous
370
    -3
390
F
  0
LAYER
  5
31
330
2
100
AcDbSymbolTableRecord
100
AcDbLayerTableRecord
  2
TEXT
 70
     0
 62
     7
  6
Continuous
370
    -3
390
F
  0
LAYER
  5
1A8
330
2
100
AcDbSymbolTableRecord
100
AcDbLayerTableRecord
  2
Defpoints
 70
     0
 62
     7
  6
Continuous
290
     0
370
    -3
390
F
  0
ENDTAB
  0
TABLE
  2
STYLE
  5
3
330
0
100
AcDbSymbolTable
 70
     2
  0
STYLE
  5
11
330
3
100
AcDbSymbolTableRecord
100
AcDbTextStyleTableRecord
  2
STANDARD
 70
     0
 40
0.0
 41
0.8
 50
0.0
 71
     0
 42
3.5
  3
simplex.shx
  4

  0
STYLE
  5
24
330
3
100
AcDbSymbolTableRecord
100
AcDbTextStyleTableRecord
  2
GREEKS
 70
     0
 40
0.0
 41
0.8
 50
0.0
 71
     0
 42
2.5
  3
SIMPLEX.shx
  4

  0
ENDTAB
  0
TABLE
  2
VIEW
  5
6
330
0
100
AcDbSymbolTable
 70
     0
  0
ENDTAB
  0
TABLE
  2
UCS
  5
7
330
0
100
AcDbSymbolTable
 70
     0
  0
ENDTAB
  0
TABLE
  2
APPID
  5
9
330
0
100
AcDbSymbolTable
 70
     1
  0
APPID
  5
12
330
9
100
AcDbSymbolTableRecord
100
AcDbRegAppTableRecord
  2
ACAD
 70
     0
  0
ENDTAB
  0
TABLE
  2
DIMSTYLE
  5
A
330
0
100
AcDbSymbolTable
 70
     1
100
AcDbDimStyleTable
 71
     1
340
9D
  0
DIMSTYLE
105
9D
102
{ACAD_REACTORS
330
16E5
330
16F2
330
1710
330
171F
330
177A
330
17CB
102
}
330
A
100
AcDbSymbolTableRecord
100
AcDbDimStyleTableRecord
  2
Standard
 70
     0
340
11
  0
ENDTAB
  0
TABLE
  2
BLOCK_RECORD
  5
1
330
0
100
AcDbSymbolTable
 70
     7
  0
BLOCK_RECORD
  5
1E
102
{ACAD_XDICTIONARY
360
A0
102
}
330
1
100
AcDbSymbolTableRecord
100
AcDbBlockTableRecord
  2
*Model_Space
340
21
  0
BLOCK_RECORD
  5
1A
102
{ACAD_XDICTIONARY
360
A2
102
}
330
1
100
AcDbSymbolTableRecord
100
AcDbBlockTableRecord
  2
*Paper_Space
340
1D
  0
BLOCK_RECORD
  5
22
330
1
100
AcDbSymbolTableRecord
100
AcDbBlockTableRecord
  2
LOGO
340
0
102
{BLKREFS
331
9B
102
}
  0
BLOCK_RECORD
  5
16E6
330
1
100
AcDbSymbolTableRecord
100
AcDbBlockTableRecord
  2
*D1
340
0
  0
BLOCK_RECORD
  5
16F3
330
1
100
AcDbSymbolTableRecord
100
AcDbBlockTableRecord
  2
*D2
340
0
  0
BLOCK_RECORD
  5
1711
330
1
100
AcDbSymbolTableRecord
100
AcDbBlockTableRecord
  2
*D3
340
0
  0
BLOCK_RECORD
  5
1720
330
1
100
AcDbSymbolTableRecord
100
AcDbBlockTableRecord
  2
*D4
340
0
  0
BLOCK_RECORD
  5
177B
330
1
100
AcDbSymbolTableRecord
100
AcDbBlockTableRecord
  2
*D5
340
0
  0
BLOCK_RECORD
  5
17CC
330
1
100
AcDbSymbolTableRecord
100
AcDbBlockTableRecord
  2
*D6
340
0
  0
ENDTAB
  0
ENDSEC
  0
SECTION
  2
BLOCKS
  0
BLOCK
  5
35
330
1E
100
AcDbEntity
  8
0
100
AcDbBlockBegin
  2
*Model_Space
 70
     0
 10
0.0
 20
0.0
 30
0.0
  3
*Model_Space
  1

  0
ENDBLK
  5
36
330
1E
100
AcDbEntity
  8
0
100
AcDbBlockEnd
  0
BLOCK
  5
33
330
1A
100
AcDbEntity
 67
     1
  8
0
100
AcDbBlockBegin
  2
*Paper_Space
 70
     0
 10
0.0
 20
0.0
 30
0.0
  3
*Paper_Space
  1

  0
ENDBLK
  5
34
330
1A
100
AcDbEntity
 67
     1
  8
0
100
AcDbBlockEnd
  0
BLOCK
  5
37
330
22
100
AcDbEntity
  8
0
100
AcDbBlockBegin
  2
LOGO
 70
     0
 10
0.0
 20
0.0
 30
0.0
  3
LOGO
  1

  0
ARC
  5
38
330
22
100
AcDbEntity
  8
0
100
AcDbCircle
 10
11.59973089678112
 20
-9.271599258481501
 30
0.0
 40
4.5
100
AcDbArc
 50
270.0
 51
231.0575587310159
  0
LINE
  5
39
330
22
100
AcDbEntity
  8
0
100
AcDbLine
 10
3.599730896781125
 20
-4.771599258481529
 30
0.0
 11
3.599730896781153
 21
-11.77159925848133
 31
0.0
  0
LINE
  5
3A
330
22
100
AcDbEntity
  8
0
100
AcDbLine
 10
2.599730896781125
 20
-4.771599258481529
 30
0.0
 11
2.599730896781153
 21
-11.77159925848133
 31
0.0
  0
CIRCLE
  5
3B
330
22
100
AcDbEntity
  8
0
100
AcDbCircle
 10
11.59973089678112
 20
-9.271599258481501
 30
0.0
 40
3.5
  0
ARC
  5
3C
330
22
100
AcDbEntity
  8
0
100
AcDbCircle
 10
31.59973089678115
 20
-9.271599258481472
 30
0.0
 40
4.5
100
AcDbArc
 50
270.0
 51
231.0575587310182
  0
LINE
  5
3D
330
22
100
AcDbEntity
  8
0
100
AcDbLine
 10
17.59973089678112
 20
-4.771599258481472
 30
0.0
 11
17.59973089678115
 21
-13.77159925848147
 31
0.0
  0
ARC
  5
3E
330
22
100
AcDbEntity
  8
0
100
AcDbCircle
 10
22.59973089678116
 20
-7.271599258481472
 30
0.0
 40
2.5
100
AcDbArc
 50
293.1161887722295
 51
90.0
  0
CIRCLE
  5
3F
330
22
100
AcDbEntity
  8
0
100
AcDbCircle
 10
31.59973089678115
 20
-9.271599258481472
 30
0.0
 40
3.5
  0
ARC
  5
40
330
22
100
AcDbEntity
  8
0
100
AcDbCircle
 10
4.599730896781153
 20
-11.77159925848133
 30
0.0
 40
1.0
100
AcDbArc
 50
180.0
 51
270.0
  0
ARC
  5
41
330
22
100
AcDbEntity
  8
0
100
AcDbCircle
 10
4.599730896781153
 20
-11.77159925848133
 30
0.0
 40
2.0
100
AcDbArc
 50
179.9999999999992
 51
270.0
  0
LINE
  5
42
330
22
100
AcDbEntity
  8
0
100
AcDbLine
 10
11.59973089678115
 20
-13.77159925848144
 30
0.0
 11
4.599730896781153
 21
-13.77159925848147
 31
0.0
  0
LINE
  5
43
330
22
100
AcDbEntity
  8
0
100
AcDbLine
 10
8.771303772034769
 20
-12.77159925848136
 30
0.0
 11
4.599730896781153
 21
-12.77159925848133
 31
0.0
  0
LINE
  5
44
330
22
100
AcDbEntity
  8
0
100
AcDbLine
 10
31.59973089678115
 20
-13.77159925848147
 30
0.0
 11
23.6715276665056
 21
-13.77159925848144
 31
0.0
  0
LINE
  5
45
330
22
100
AcDbEntity
  8
0
100
AcDbLine
 10
23.56565672307022
 20
-9.51278021337896
 30
0.0
 11
24.4388546544846
 21
-12.77159925848144
 31
0.0
  0
LINE
  5
46
330
22
100
AcDbEntity
  8
0
100
AcDbLine
 10
22.59973089678116
 20
-9.771599258481472
 30
0.0
 11
18.59973089678112
 21
-9.771599258481472
 31
0.0
  0
LINE
  5
47
330
22
100
AcDbEntity
  8
0
100
AcDbLine
 10
18.59973089678115
 20
-13.77159925848144
 30
0.0
 11
17.59973089678115
 21
-13.77159925848144
 31
0.0
  0
LINE
  5
48
330
22
100
AcDbEntity
  8
0
100
AcDbLine
 10
18.59973089678115
 20
-9.771599258481472
 30
0.0
 11
18.59973089678115
 21
-13.77159925848144
 31
0.0
  0
LINE
  5
49
330
22
100
AcDbEntity
  8
0
100
AcDbLine
 10
22.59973089678116
 20
-9.771599258481472
 30
0.0
 11
23.67152766650562
 21
-13.77159925848147
 31
0.0
  0
ARC
  5
4A
330
22
100
AcDbEntity
  8
0
100
AcDbCircle
 10
22.59973089678116
 20
-7.271599258481472
 30
0.0
 40
2.5
100
AcDbArc
 50
270.0
 51
270.0000000000007
  0
LINE
  5
4B
330
22
100
AcDbEntity
  8
0
100
AcDbLine
 10
28.77130377203494
 20
-12.77159925848147
 30
0.0
 11
24.43885465448463
 21
-12.77159925848144
 31
0.0
  0
LINE
  5
4C
330
22
100
AcDbEntity
  8
0
100
AcDbLine
 10
3.599730896781125
 20
-4.771599258481472
 30
0.0
 11
2.599730896781125
 21
-4.771599258481472
 31
0.0
  0
LINE
  5
4D
330
22
100
AcDbEntity
  8
0
100
AcDbLine
 10
22.59973089678116
 20
-8.771599258481472
 30
0.0
 11
18.59973089678115
 21
-8.771599258481472
 31
0.0
  0
LINE
  5
4E
330
22
100
AcDbEntity
  8
0
100
AcDbLine
 10
22.59973089678116
 20
-5.771599258481472
 30
0.0
 11
18.59973089678115
 21
-5.771599258481472
 31
0.0
  0
LINE
  5
4F
330
22
100
AcDbEntity
  8
0
100
AcDbLine
 10
22.59973089678116
 20
-4.771599258481472
 30
0.0
 11
17.59973089678115
 21
-4.771599258481472
 31
0.0
  0
LINE
  5
50
330
22
100
AcDbEntity
  8
0
100
AcDbLine
 10
18.59973089678115
 20
-5.771599258481472
 30
0.0
 11
18.59973089678115
 21
-8.771599258481472
 31
0.0
  0
ARC
  5
51
330
22
100
AcDbEntity
  8
0
100
AcDbCircle
 10
22.59973089678116
 20
-7.271599258481472
 30
0.0
 40
1.5
100
AcDbArc
 50
270.0
 51
90.0
  0
ENDBLK
  5
52
330
22
100
AcDbEntity
  8
0
100
AcDbBlockEnd
  0
BLOCK
  5
16F0
330
16E6
100
AcDbEntity
  8
0
100
AcDbBlockBegin
  2
*D1
 70
     1
 10
0.0
 20
0.0
 30
0.0
  3
*D1
  1

  0
LINE
  5
1770
330
16E6
100
AcDbEntity
  8
BEM
 62
     0
370
    -2
100
AcDbLine
 10
52.91369468858784
 20
99.15504387529905
 30
0.0
 11
52.91369468858784
 21
79.00066072972584
 31
0.0
  0
LINE
  5
1771
330
16E6
100
AcDbEntity
  8
BEM
 62
     0
370
    -2
100
AcDbLine
 10
184.9136946885878
 20
99.15504387529905
 30
0.0
 11
184.9136946885878
 21
79.00066072972584
 31
0.0
  0
LINE
  5
1772
330
16E6
100
AcDbEntity
  8
BEM
 62
     0
370
    -2
100
AcDbLine
 10
56.41369468858783
 20
80.00066072972584
 30
0.0
 11
181.4136946885878
 21
80.00066072972584
 31
0.0
  0
SOLID
  5
1773
330
16E6
100
AcDbEntity
  8
BEM
 62
     0
100
AcDbTrace
 10
56.41369468858783
 20
80.58399406305916
 30
0.0
 11
56.41369468858783
 21
79.41732739639251
 31
0.0
 12
52.91369468858784
 22
80.00066072972584
 32
0.0
 13
52.91369468858784
 23
80.00066072972584
 33
0.0
  0
SOLID
  5
1774
330
16E6
100
AcDbEntity
  8
BEM
 62
     0
100
AcDbTrace
 10
181.4136946885878
 20
80.58399406305916
 30
0.0
 11
181.4136946885878
 21
79.41732739639251
 31
0.0
 12
184.9136946885878
 22
80.00066072972584
 32
0.0
 13
184.9136946885878
 23
80.00066072972584
 33
0.0
  0
MTEXT
  5
1775
330
16E6
100
AcDbEntity
  8
BEM
 62
     1
100
AcDbMText
 10
118.9136946885878
 20
83.25066072972584
 30
0.0
 40
3.5
 41
0.0
 71
     5
 72
     1
  1
\A1;132
 73
     1
 44
1.0
  0
POINT
  5
1776
330
16E6
100
AcDbEntity
  8
Defpoints
 62
     0
100
AcDbPoint
 10
52.91369468858784
 20
100.155043875299
 30
0.0
  0
POINT
  5
1777
330
16E6
100
AcDbEntity
  8
Defpoints
 62
     0
100
AcDbPoint
 10
184.9136946885878
 20
100.155043875299
 30
0.0
  0
POINT
  5
1778
330
16E6
100
AcDbEntity
  8
Defpoints
 62
     0
100
AcDbPoint
 10
184.9136946885878
 20
80.00066072972584
 30
0.0
  0
ENDBLK
  5
16F1
330
16E6
100
AcDbEntity
  8
0
100
AcDbBlockEnd
  0
BLOCK
  5
16FD
330
16F3
100
AcDbEntity
  8
0
100
AcDbBlockBegin
  2
*D2
 70
     1
 10
0.0
 20
0.0
 30
0.0
  3
*D2
  1

  0
LINE
  5
1767
330
16F3
100
AcDbEntity
  8
BEM
 62
     0
370
    -2
100
AcDbLine
 10
40.41369468858784
 20
110.655043875299
 30
0.0
 11
40.41369468858784
 21
70.44961269500277
 31
0.0
  0
LINE
  5
1768
330
16F3
100
AcDbEntity
  8
BEM
 62
     0
370
    -2
100
AcDbLine
 10
197.4136946885878
 20
110.655043875299
 30
0.0
 11
197.4136946885878
 21
70.44961269500277
 31
0.0
  0
LINE
  5
1769
330
16F3
100
AcDbEntity
  8
BEM
 62
     0
370
    -2
100
AcDbLine
 10
43.91369468858783
 20
71.44961269500277
 30
0.0
 11
193.9136946885878
 21
71.44961269500277
 31
0.0
  0
SOLID
  5
176A
330
16F3
100
AcDbEntity
  8
BEM
 62
     0
100
AcDbTrace
 10
43.91369468858783
 20
72.0329460283361
 30
0.0
 11
43.91369468858783
 21
70.86627936166944
 31
0.0
 12
40.41369468858784
 22
71.44961269500277
 32
0.0
 13
40.41369468858784
 23
71.44961269500277
 33
0.0
  0
SOLID
  5
176B
330
16F3
100
AcDbEntity
  8
BEM
 62
     0
100
AcDbTrace
 10
193.9136946885878
 20
72.0329460283361
 30
0.0
 11
193.9136946885878
 21
70.86627936166944
 31
0.0
 12
197.4136946885878
 22
71.44961269500277
 32
0.0
 13
197.4136946885878
 23
71.44961269500277
 33
0.0
  0
MTEXT
  5
176C
330
16F3
100
AcDbEntity
  8
BEM
 62
     1
100
AcDbMText
 10
118.9136946885878
 20
74.69961269500277
 30
0.0
 40
3.5
 41
0.0
 71
     5
 72
     1
  1
\A1;157
 73
     1
 44
1.0
  0
POINT
  5
176D
330
16F3
100
AcDbEntity
  8
Defpoints
 62
     0
100
AcDbPoint
 10
40.41369468858784
 20
111.655043875299
 30
0.0
  0
POINT
  5
176E
330
16F3
100
AcDbEntity
  8
Defpoints
 62
     0
100
AcDbPoint
 10
197.4136946885878
 20
111.655043875299
 30
0.0
  0
POINT
  5
176F
330
16F3
100
AcDbEntity
  8
Defpoints
 62
     0
100
AcDbPoint
 10
197.4136946885878
 20
71.44961269500277
 30
0.0
  0
ENDBLK
  5
16FE
330
16F3
100
AcDbEntity
  8
0
100
AcDbBlockEnd
  0
BLOCK
  5
171D
330
1711
100
AcDbEntity
  8
0
100
AcDbBlockBegin
  2
*D3
 70
     1
 10
0.0
 20
0.0
 30
0.0
  3
*D3
  1

  0
LINE
  5
1753
330
1711
100
AcDbEntity
  8
BEM
 62
     0
370
    -2
100
AcDbLine
 10
39.43519468858787
 20
220.8936656113835
 30
0.0
 11
33.85035372443622
 21
220.8936656113835
 31
0.0
  0
LINE
  5
1754
330
1711
100
AcDbEntity
  8
BEM
 62
     0
370
    -2
100
AcDbLine
 10
39.43519468858787
 20
223.8936656113835
 30
0.0
 11
33.85035372443622
 21
223.8936656113835
 31
0.0
  0
LINE
  5
1755
330
1711
100
AcDbEntity
  8
BEM
 62
     0
370
    -2
100
AcDbLine
 10
34.85035372443622
 20
217.3936656113836
 30
0.0
 11
34.85035372443622
 21
213.8936656113835
 31
0.0
  0
LINE
  5
1756
330
1711
100
AcDbEntity
  8
BEM
 62
     0
370
    -2
100
AcDbLine
 10
34.85035372443622
 20
227.3936656113836
 30
0.0
 11
34.85035372443622
 21
235.7603322780502
 31
0.0
  0
LINE
  5
1757
330
1711
100
AcDbEntity
  8
BEM
 62
     0
370
    -2
100
AcDbLine
 10
34.85035372443622
 20
220.8936656113835
 30
0.0
 11
34.85035372443622
 21
223.8936656113835
 31
0.0
  0
SOLID
  5
1758
330
1711
100
AcDbEntity
  8
BEM
 62
     0
100
AcDbTrace
 10
34.26702039110288
 20
217.3936656113836
 30
0.0
 11
35.43368705776956
 21
217.3936656113836
 31
0.0
 12
34.85035372443622
 22
220.8936656113835
 32
0.0
 13
34.85035372443622
 23
220.8936656113835
 33
0.0
  0
SOLID
  5
1759
330
1711
100
AcDbEntity
  8
BEM
 62
     0
100
AcDbTrace
 10
34.26702039110288
 20
227.3936656113836
 30
0.0
 11
35.43368705776956
 21
227.3936656113836
 31
0.0
 12
34.85035372443622
 22
223.8936656113835
 32
0.0
 13
34.85035372443622
 23
223.8936656113835
 33
0.0
  0
MTEXT
  5
175A
330
1711
100
AcDbEntity
  8
BEM
 62
     1
100
AcDbMText
 10
31.60035372443618
 20
233.3269989447169
 30
0.0
 40
3.5
 41
0.0
 71
     5
 72
     1
  1
\A1;3
 11
0.0000000000000001
 21
1.0
 31
0.0
 73
     1
 44
1.0
  0
POINT
  5
175B
330
1711
100
AcDbEntity
  8
Defpoints
 62
     0
100
AcDbPoint
 10
40.43519468858787
 20
220.8936656113835
 30
0.0
  0
POINT
  5
175C
330
1711
100
AcDbEntity
  8
Defpoints
 62
     0
100
AcDbPoint
 10
40.43519468858787
 20
223.8936656113835
 30
0.0
  0
POINT
  5
175D
330
1711
100
AcDbEntity
  8
Defpoints
 62
     0
100
AcDbPoint
 10
34.85035372443622
 20
223.8936656113835
 30
0.0
  0
ENDBLK
  5
171E
330
1711
100
AcDbEntity
  8
0
100
AcDbBlockEnd
  0
BLOCK
  5
172A
330
1720
100
AcDbEntity
  8
0
100
AcDbBlockBegin
  2
*D4
 70
     1
 10
0.0
 20
0.0
 30
0.0
  3
*D4
  1

  0
LINE
  5
175E
330
1720
100
AcDbEntity
  8
BEM
 62
     0
370
    -2
100
AcDbLine
 10
117.9131946885878
 20
280.6436656113835
 30
0.0
 11
26.88537338895041
 21
280.6436656113835
 31
0.0
  0
LINE
  5
175F
330
1720
100
AcDbEntity
  8
BEM
 62
     0
370
    -2
100
AcDbLine
 10
110.7161946885878
 20
153.6436656113835
 30
0.0
 11
26.88537338895038
 21
153.6436656113835
 31
0.0
  0
LINE
  5
1760
330
1720
100
AcDbEntity
  8
BEM
 62
     0
370
    -2
100
AcDbLine
 10
27.8853733889504
 20
277.1436656113835
 30
0.0
 11
27.88537338895037
 21
157.1436656113835
 31
0.0
  0
SOLID
  5
1761
330
1720
100
AcDbEntity
  8
BEM
 62
     0
100
AcDbTrace
 10
27.30204005561706
 20
277.1436656113835
 30
0.0
 11
28.46870672228373
 21
277.1436656113835
 31
0.0
 12
27.8853733889504
 22
280.6436656113835
 32
0.0
 13
27.8853733889504
 23
280.6436656113835
 33
0.0
  0
SOLID
  5
1762
330
1720
100
AcDbEntity
  8
BEM
 62
     0
100
AcDbTrace
 10
27.30204005561704
 20
157.1436656113835
 30
0.0
 11
28.4687067222837
 21
157.1436656113835
 31
0.0
 12
27.88537338895037
 22
153.6436656113835
 32
0.0
 13
27.88537338895037
 23
153.6436656113835
 33
0.0
  0
MTEXT
  5
1763
330
1720
100
AcDbEntity
  8
BEM
 62
     1
100
AcDbMText
 10
24.63537338895035
 20
217.1436656113836
 30
0.0
 40
3.5
 41
0.0
 71
     5
 72
     1
  1
\A1;127
 11
0.0000000000000001
 21
1.0
 31
0.0
 73
     1
 44
1.0
  0
POINT
  5
1764
330
1720
100
AcDbEntity
  8
Defpoints
 62
     0
100
AcDbPoint
 10
118.9131946885878
 20
280.6436656113835
 30
0.0
  0
POINT
  5
1765
330
1720
100
AcDbEntity
  8
Defpoints
 62
     0
100
AcDbPoint
 10
111.7161946885878
 20
153.6436656113835
 30
0.0
  0
POINT
  5
1766
330
1720
100
AcDbEntity
  8
Defpoints
 62
     0
100
AcDbPoint
 10
27.88537338895037
 20
153.6436656113835
 30
0.0
  0
ENDBLK
  5
172B
330
1720
100
AcDbEntity
  8
0
100
AcDbBlockEnd
  0
BLOCK
  5
1783
330
177B
100
AcDbEntity
  8
0
100
AcDbBlockBegin
  2
*D5
 70
     1
 10
0.0
 20
0.0
 30
0.0
  3
*D5
  1

  0
LINE
  5
179C
330
177B
100
AcDbEntity
  8
BEM
 62
     0
370
    -2
100
AcDbLine
 10
86.41861795570969
 20
182.426773275963
 30
0.0
 11
86.34516889614216
 21
182.4841579704836
 31
0.0
  0
LINE
  5
179D
330
177B
100
AcDbEntity
  8
BEM
 62
     0
370
    -2
100
AcDbLine
 10
149.8317499142525
 20
263.5918808974554
 30
0.0
 11
149.7583008546845
 21
263.6492655919763
 31
0.0
  0
LINE
  5
179E
330
177B
100
AcDbEntity
  8
BEM
 62
     0
370
    -2
100
AcDbLine
 10
89.28799481338868
 20
184.6265341327814
 30
0.0
 11
148.3914964446515
 21
260.2755664790271
 31
0.0
  0
SOLID
  5
179F
330
177B
100
AcDbEntity
  8
BEM
 62
     0
100
AcDbTrace
 10
88.82832187378474
 20
184.9856699933881
 30
0.0
 11
89.7476677529926
 21
184.2673982721748
 31
0.0
 12
87.13317964974889
 22
181.8684964951579
 32
0.0
 13
87.13317964974889
 23
181.8684964951579
 33
0.0
  0
SOLID
  5
17A0
330
177B
100
AcDbEntity
  8
BEM
 62
     0
100
AcDbTrace
 10
147.9318235050475
 20
260.6347023396337
 30
0.0
 11
148.8511693842554
 21
259.9164306184205
 31
0.0
 12
150.5463116082913
 22
263.0336041166506
 32
0.0
 13
150.5463116082913
 23
263.0336041166506
 33
0.0
  0
MTEXT
  5
17A1
330
177B
100
AcDbEntity
  8
BEM
 62
     1
100
AcDbMText
 10
131.1318347768075
 20
243.4630820006053
 30
0.0
 40
3.5
 41
0.0
 71
     5
 72
     1
  1
\A1;%%c103
 11
0.6156614753256545
 21
0.788010753606725
 31
0.0
 73
     1
 44
1.0
  0
POINT
  5
17A2
330
177B
100
AcDbEntity
  8
Defpoints
 62
     0
100
AcDbPoint
 10
87.20662870931642
 20
181.8111118006374
 30
0.0
  0
POINT
  5
17A3
330
177B
100
AcDbEntity
  8
Defpoints
 62
     0
100
AcDbPoint
 10
150.6197606678592
 20
262.9762194221297
 30
0.0
  0
POINT
  5
17A4
330
177B
100
AcDbEntity
  8
Defpoints
 62
     0
100
AcDbPoint
 10
150.5463116082913
 20
263.0336041166506
 30
0.0
  0
ENDBLK
  5
1784
330
177B
100
AcDbEntity
  8
0
100
AcDbBlockEnd
  0
BLOCK
  5
17D6
330
17CC
100
AcDbEntity
  8
0
100
AcDbBlockBegin
  2
*D6
 70
     1
 10
0.0
 20
0.0
 30
0.0
  3
*D6
  1

  0
LINE
  5
17CD
330
17CC
100
AcDbEntity
  8
BEM
 62
     0
370
    -2
100
AcDbLine
 10
42.33269468858781
 20
126.655043875299
 30
0.0
 11
28.91534593402424
 21
126.655043875299
 31
0.0
  0
LINE
  5
17CE
330
17CC
100
AcDbEntity
  8
BEM
 62
     0
370
    -2
100
AcDbLine
 10
42.33270225309841
 20
96.65504387532649
 30
0.0
 11
28.91534593402423
 21
96.65504387532651
 31
0.0
  0
LINE
  5
17CF
330
17CC
100
AcDbEntity
  8
BEM
 62
     0
370
    -2
100
AcDbLine
 10
29.91534593402424
 20
123.155043875299
 30
0.0
 11
29.91534593402423
 21
100.1550438753265
 31
0.0
  0
SOLID
  5
17D0
330
17CC
100
AcDbEntity
  8
BEM
 62
     0
100
AcDbTrace
 10
29.3320126006909
 20
123.155043875299
 30
0.0
 11
30.49867926735757
 21
123.155043875299
 31
0.0
 12
29.91534593402424
 22
126.655043875299
 32
0.0
 13
29.91534593402424
 23
126.655043875299
 33
0.0
  0
SOLID
  5
17D1
330
17CC
100
AcDbEntity
  8
BEM
 62
     0
100
AcDbTrace
 10
29.3320126006909
 20
100.1550438753265
 30
0.0
 11
30.49867926735756
 21
100.1550438753265
 31
0.0
 12
29.91534593402423
 22
96.65504387532651
 32
0.0
 13
29.91534593402423
 23
96.65504387532651
 33
0.0
  0
MTEXT
  5
17D2
330
17CC
100
AcDbEntity
  8
BEM
 62
     1
100
AcDbMText
 10
26.66534593402421
 20
111.6550438753128
 30
0.0
 40
3.5
 41
0.0
 71
     5
 72
     1
  1
\A1;30
 11
0.0000000000000001
 21
1.0
 31
0.0
 73
     1
 44
1.0
  0
POINT
  5
17D3
330
17CC
100
AcDbEntity
  8
Defpoints
 62
     0
100
AcDbPoint
 10
43.33269468858782
 20
126.655043875299
 30
0.0
  0
POINT
  5
17D4
330
17CC
100
AcDbEntity
  8
Defpoints
 62
     0
100
AcDbPoint
 10
43.33270225309841
 20
96.65504387532649
 30
0.0
  0
POINT
  5
17D5
330
17CC
100
AcDbEntity
  8
Defpoints
 62
     0
100
AcDbPoint
 10
29.91534593402423
 20
96.65504387532651
 30
0.0
  0
ENDBLK
  5
17D7
330
17CC
100
AcDbEntity
  8
0
100
AcDbBlockEnd
  0
ENDSEC
  0
SECTION
  2
ENTITIES
  0
LINE
  5
57
330
1E
100
AcDbEntity
  8
STEMPEL
100
AcDbLine
 10
205.0
 20
55.00000000000003
 30
0.0
 11
19.99999999999998
 21
55.0
 31
0.0
  0
LINE
  5
58
330
1E
100
AcDbEntity
  8
STEMPEL
100
AcDbLine
 10
68.00000000000006
 20
54.99999999999997
 30
0.0
 11
68.0
 21
4.999999999999985
 31
0.0
  0
LINE
  5
59
330
1E
100
AcDbEntity
  8
STEMPEL
100
AcDbLine
 10
110.0
 20
55.00000000000003
 30
0.0
 11
110.0
 21
4.999999999999985
 31
0.0
  0
LINE
  5
5A
330
1E
100
AcDbEntity
  8
STEMPEL
100
AcDbLine
 10
166.0
 20
54.99999999999989
 30
0.0
 11
166.0
 21
20.0
 31
0.0
  0
LINE
  5
5B
330
1E
100
AcDbEntity
  8
STEMPEL
100
AcDbLine
 10
67.99999999999994
 20
14.99999999999998
 30
0.0
 11
19.99999999999998
 21
14.99999999999998
 31
0.0
  0
LINE
  5
5C
330
1E
100
AcDbEntity
  8
STEMPEL
100
AcDbLine
 10
205.0
 20
20.0
 30
0.0
 11
68.00000000000006
 21
19.99999999999998
 31
0.0
  0
LINE
  5
5D
330
1E
100
AcDbEntity
  8
STEMPEL
100
AcDbLine
 10
205.0
 20
40.0
 30
0.0
 11
68.00000000000006
 21
39.99999999999997
 31
0.0
  0
LINE
  5
5E
330
1E
100
AcDbEntity
  8
VOLL
100
AcDbLine
 10
27.00000000000005
 20
55.00000000000003
 30
0.0
 11
26.99999999999999
 21
4.999999999999985
 31
0.0
  0
LINE
  5
5F
330
1E
100
AcDbEntity
  8
VOLL
100
AcDbLine
 10
47.00000000000005
 20
54.99999999999997
 30
0.0
 11
47.0
 21
4.999999999999985
 31
0.0
  0
LINE
  5
60
330
1E
100
AcDbEntity
  8
VOLL
100
AcDbLine
 10
57.00000000000006
 20
54.99999999999997
 30
0.0
 11
57.0
 21
4.999999999999985
 31
0.0
  0
LINE
  5
61
330
1E
100
AcDbEntity
  8
VOLL
100
AcDbLine
 10
77.00000000000006
 20
39.99999999999997
 30
0.0
 11
77.00000000000006
 21
19.99999999999998
 31
0.0
  0
LINE
  5
62
330
1E
100
AcDbEntity
  8
VOLL
100
AcDbLine
 10
90.00000000000005
 20
54.99999999999992
 30
0.0
 11
90.0
 21
19.99999999999998
 31
0.0
  0
LINE
  5
63
330
1E
100
AcDbEntity
  8
HILF
100
AcDbLine
 10
20.00000000000004
 20
50.00000000000003
 30
0.0
 11
68.00000000000006
 21
50.00000000000003
 31
0.0
  0
LINE
  5
64
330
1E
100
AcDbEntity
  8
HILF
100
AcDbLine
 10
20.00000000000004
 20
45.00000000000002
 30
0.0
 11
68.00000000000006
 21
45.00000000000002
 31
0.0
  0
LINE
  5
65
330
1E
100
AcDbEntity
  8
HILF
100
AcDbLine
 10
20.00000000000004
 20
39.99999999999997
 30
0.0
 11
68.00000000000006
 21
39.99999999999997
 31
0.0
  0
LINE
  5
66
330
1E
100
AcDbEntity
  8
HILF
100
AcDbLine
 10
20.00000000000004
 20
34.99999999999997
 30
0.0
 11
68.00000000000006
 21
34.99999999999997
 31
0.0
  0
LINE
  5
67
330
1E
100
AcDbEntity
  8
HILF
100
AcDbLine
 10
20.00000000000004
 20
29.99999999999999
 30
0.0
 11
68.00000000000006
 21
29.99999999999999
 31
0.0
  0
LINE
  5
68
330
1E
100
AcDbEntity
  8
HILF
100
AcDbLine
 10
20.00000000000004
 20
24.99999999999999
 30
0.0
 11
68.00000000000006
 21
24.99999999999999
 31
0.0
  0
LINE
  5
69
330
1E
100
AcDbEntity
  8
HILF
100
AcDbLine
 10
20.00000000000004
 20
19.99999999999998
 30
0.0
 11
68.00000000000006
 21
19.99999999999998
 31
0.0
  0
LINE
  5
6A
330
1E
100
AcDbEntity
  8
HILF
100
AcDbLine
 10
68.00000000000006
 20
34.99999999999997
 30
0.0
 11
110.0
 21
34.99999999999997
 31
0.0
  0
LINE
  5
6B
330
1E
100
AcDbEntity
  8
HILF
100
AcDbLine
 10
68.00000000000006
 20
29.99999999999999
 30
0.0
 11
110.0
 21
29.99999999999999
 31
0.0
  0
LINE
  5
6C
330
1E
100
AcDbEntity
  8
HILF
100
AcDbLine
 10
68.00000000000006
 20
24.99999999999999
 30
0.0
 11
110.0
 21
24.99999999999999
 31
0.0
  0
LINE
  5
6D
330
1E
100
AcDbEntity
  8
HILF
100
AcDbLine
 10
112.3868400548474
 20
42.01879123782069
 30
0.0
 11
162.4176958278155
 21
42.01879123782069
 31
0.0
  0
LINE
  5
6E
330
1E
100
AcDbEntity
  8
HILF
100
AcDbLine
 10
112.3868400548474
 20
34.99999999999997
 30
0.0
 11
162.4176958278155
 21
34.99999999999997
 31
0.0
  0
LINE
  5
6F
330
1E
100
AcDbEntity
  8
HILF
100
AcDbLine
 10
112.3868400548474
 20
29.99999999999999
 30
0.0
 11
162.4176958278155
 21
29.99999999999999
 31
0.0
  0
LINE
  5
70
330
1E
100
AcDbEntity
  8
HILF
100
AcDbLine
 10
112.3868400548474
 20
24.99999999999999
 30
0.0
 11
162.4176958278155
 21
24.99999999999999
 31
0.0
  0
LINE
  5
71
330
1E
100
AcDbEntity
  8
VOLL
100
AcDbLine
 10
166.0
 20
30.0
 30
0.0
 11
205.0
 21
30.0
 31
0.0
  0
LINE
  5
72
330
1E
100
AcDbEntity
  8
HILF
100
AcDbLine
 10
168.3619308148496
 20
41.88991818477913
 30
0.0
 11
202.4294419663364
 21
41.88991818477913
 31
0.0
  0
LINE
  5
73
330
1E
100
AcDbEntity
  8
HILF
100
AcDbLine
 10
111.7454849644942
 20
7.446991290141568
 30
0.0
 11
202.4294419663364
 21
7.446991290141568
 31
0.0
  0
TEXT
  5
74
330
1E
100
AcDbEntity
  8
TEXT
100
AcDbText
 10
31.9308298981591
 20
9.336909474920659
 30
0.0
 40
2.0
  1
Änderung
 41
0.8
  7
GREEKS
 72
     1
 11
37.30225846958767
 21
9.336909474920659
 31
0.0
100
AcDbText
  0
TEXT
  5
75
330
1E
100
AcDbEntity
  8
TEXT
100
AcDbText
 10
71.75817860751886
 20
51.23104475435443
 30
0.0
 40
2.5
  1
Maßstab
 41
0.8
  7
GREEKS
100
AcDbText
  0
TEXT
  5
76
330
1E
100
AcDbEntity
  8
TEXT
100
AcDbText
 10
92.14294773670257
 20
51.20920842174095
 30
0.0
 40
2.5
  1
Zul. Abw.
 41
0.8
  7
GREEKS
100
AcDbText
  0
TEXT
  5
77
330
1E
100
AcDbEntity
  8
TEXT
100
AcDbText
 10
112.4389701904505
 20
51.27446640058898
 30
0.0
 40
2.5
  1
Benennung
 41
0.8
  7
GREEKS
100
AcDbText
  0
TEXT
  5
78
330
1E
100
AcDbEntity
  8
TEXT
100
AcDbText
 10
168.089377478817
 20
51.15660172685682
 30
0.0
 40
2.5
  1
Zeichnungs Nr.
 41
0.8
  7
GREEKS
100
AcDbText
  0
TEXT
  5
79
330
1E
100
AcDbEntity
  8
TEXT
100
AcDbText
 10
112.371119195568
 20
15.42280285096528
 30
0.0
 40
2.5
  1
Bauvorhaben
 41
0.8
  7
GREEKS
100
AcDbText
  0
TEXT
  5
7A
330
1E
100
AcDbEntity
  8
TEXT
100
AcDbText
 10
168.3619308148496
 20
36.59059118549985
 30
0.0
 40
2.5
  1
Ersatz für:
 41
0.8
  7
GREEKS
100
AcDbText
  0
TEXT
  5
7B
330
1E
100
AcDbEntity
  8
TEXT
100
AcDbText
 10
24.13320553522878
 20
6.827329230135958
 30
0.0
 40
2.0
  1
Index
 50
90.0
 41
0.8
  7
GREEKS
100
AcDbText
  0
TEXT
  5
7C
330
1E
100
AcDbEntity
  8
TEXT
100
AcDbText
 10
50.04673380377405
 20
9.33578134669905
 30
0.0
 40
2.0
  1
Tag
 41
0.8
  7
GREEKS
 72
     1
 11
51.91340047044072
 21
9.33578134669905
 31
0.0
100
AcDbText
  0
TEXT
  5
7D
330
1E
100
AcDbEntity
  8
TEXT
100
AcDbText
 10
59.50613721932963
 20
9.29662108483204
 30
0.0
 40
2.0
  1
Name
 41
0.8
  7
GREEKS
 72
     1
 11
62.66804198123439
 21
9.29662108483204
 31
0.0
100
AcDbText
  0
TEXT
  5
7E
330
1E
100
AcDbEntity
  8
TEXT
100
AcDbText
 10
81.16558365768254
 20
36.65940250614963
 30
0.0
 40
2.0
  1
Tag
 41
0.8
  7
GREEKS
100
AcDbText
  0
TEXT
  5
7F
330
1E
100
AcDbEntity
  8
TEXT
100
AcDbText
 10
96.23132921131475
 20
36.65480545957612
 30
0.0
 40
2.0
  1
Name
 41
0.8
  7
GREEKS
100
AcDbText
  0
TEXT
  5
80
330
1E
100
AcDbEntity
  8
TEXT
100
AcDbText
 10
68.79180635838077
 20
31.81495184808982
 30
0.0
 40
2.0
  1
Gez.
 41
0.8
  7
GREEKS
100
AcDbText
  0
TEXT
  5
81
330
1E
100
AcDbEntity
  8
TEXT
100
AcDbText
 10
68.77575432858361
 20
26.84463145714189
 30
0.0
 40
2.0
  1
Gepr.
 41
0.8
  7
GREEKS
100
AcDbText
  0
TEXT
  5
82
330
1E
100
AcDbEntity
  8
TEXT
100
AcDbText
 10
68.80033886936519
 20
21.76473194824904
 30
0.0
 40
2.0
  1
Norm.
 41
0.8
  7
GREEKS
100
AcDbText
  0
LINE
  5
83
330
1E
100
AcDbEntity
  8
STEMPEL
100
AcDbLine
 10
24.99999999999995
 20
5.0
 30
0.0
 11
205.0
 21
5.0
 31
0.0
  0
TEXT
  5
84
330
1E
100
AcDbEntity
  8
TEXT
100
AcDbText
 10
168.6200430748503
 20
26.03708088939301
 30
0.0
 40
2.5
  1
ersetzt durch:
 41
0.8
  7
GREEKS
100
AcDbText
  0
LINE
  5
85
330
1E
100
AcDbEntity
  8
STEMPEL
100
AcDbLine
 10
205.0
 20
5.0
 30
0.0
 11
19.99999999999994
 21
5.0
 31
0.0
  0
LINE
  5
86
330
1E
100
AcDbEntity
  8
STEMPEL
100
AcDbLine
 10
205.0
 20
5.0
 30
0.0
 11
205.0
 21
292.0
 31
0.0
  0
LINE
  5
87
330
1E
100
AcDbEntity
  8
STEMPEL
100
AcDbLine
 10
20.0
 20
5.0
 30
0.0
 11
19.99999999999994
 21
292.0
 31
0.0
  0
LINE
  5
88
330
1E
100
AcDbEntity
  8
STEMPEL
100
AcDbLine
 10
205.0
 20
292.0
 30
0.0
 11
19.99999999999994
 21
292.0
 31
0.0
  0
LINE
  5
89
330
1E
100
AcDbEntity
  8
HILF
100
AcDbLine
 10
0.0
 20
0.0
 30
0.0
 11
-0.0000000000000568
 21
297.0
 31
0.0
  0
LINE
  5
8A
330
1E
100
AcDbEntity
  8
HILF
100
AcDbLine
 10
210.0
 20
297.0000000000001
 30
0.0
 11
0.0
 21
297.0
 31
0.0
  0
LINE
  5
8B
330
1E
100
AcDbEntity
  8
HILF
100
AcDbLine
 10
210.0
 20
0.0
 30
0.0
 11
0.0
 21
0.0
 31
0.0
  0
LINE
  5
8C
330
1E
100
AcDbEntity
  8
HILF
100
AcDbLine
 10
15.54383567856928
 20
148.5
 30
0.0
 11
0.0000000000000568
 21
148.5
 31
0.0
  0
TEXT
  5
8D
330
1E
100
AcDbEntity
  8
TEXT
100
AcDbText
 10
69.31105491105199
 20
36.57012735575833
 30
0.0
 40
2.0
  1
2012
 41
0.8
  7
GREEKS
100
AcDbText
  0
LINE
  5
8E
330
1E
100
AcDbEntity
  8
HILF
100
AcDbLine
 10
210.0
 20
-0.0000000000000568
 30
0.0
 11
210.0
 21
297.0
 31
0.0
  0
TEXT
  5
8F
330
1E
100
AcDbEntity
  8
VOLL
100
AcDbText
 10
78.07675471698113
 20
31.02594776470585
 30
0.0
 40
1.8
  1

  7
GREEKS
100
AcDbText
  0
TEXT
  5
90
330
1E
100
AcDbEntity
  8
TEXT
100
AcDbText
 10
20.92754975488837
 20
55.83599999999997
 30
0.0
 40
2.5
  1
Erstellt mit AUTOCAD 2004
 41
0.8
  7
GREEKS
100
AcDbText
  0
TEXT
  5
91
330
1E
100
AcDbEntity
  8
TEXT
100
AcDbText
 10
97.21080242906285
 20
31.54481959861755
 30
0.0
 40
2.0
  1
Koeh
 41
0.8
  7
GREEKS
 72
     1
 11
99.83937385763429
 21
31.54481959861755
 31
0.0
100
AcDbText
  0
TEXT
  5
92
330
1E
100
AcDbEntity
  8
TEXT
 62
     1
100
AcDbText
 10
172.886078821434
 20
44.07450714456979
 30
0.0
 40
3.5
  1
00974080W
 41
0.8
  7
GREEKS
 72
     1
 11
184.886078821434
 21
44.07450714456979
 31
0.0
100
AcDbText
  0
TEXT
  5
93
330
1E
100
AcDbEntity
  8
TEXT
 62
     1
100
AcDbText
 10
75.25031532409435
 20
44.07450714456979
 30
0.0
 40
3.5
  1
1:1
 41
0.8
  7
GREEKS
100
AcDbText
  0
TEXT
  5
94
330
1E
100
AcDbEntity
  8
TEXT
100
AcDbText
 10
80.35187950649897
 20
31.55382520412866
 30
0.0
 40
2.0
  1
29.10.
 41
0.8
  7
GREEKS
 72
     1
 11
83.70426045887993
 21
31.55382520412866
 31
0.0
100
AcDbText
  0
TEXT
  5
95
330
1E
100
AcDbEntity
  8
TEXT
 62
     1
100
AcDbText
 10
113.4467865528701
 20
43.70874394626889
 30
0.0
 40
3.5
  1
Rohrschelle DN80
 41
0.8
  7
GREEKS
100
AcDbText
  0
TEXT
  5
96
330
1E
100
AcDbEntity
  8
TEXT
100
AcDbText
 10
112.5648195562657
 20
35.75167208792644
 30
0.0
 40
2.5
  1
mit Anschlußgewinde M10
 41
0.8
  7
GREEKS
100
AcDbText
  0
TEXT
  5
98
330
1E
100
AcDbEntity
  8
TEXT
100
AcDbText
 10
112.5648195562657
 20
25.82005971521079
 30
0.0
 40
2.5
  1
EDV-Art.Nr. 00974.080X
 41
0.8
  7
GREEKS
100
AcDbText
  0
TEXT
  5
99
330
1E
100
AcDbEntity
  8
TEXT
100
AcDbText
 10
112.4918750788913
 20
21.31487076511316
 30
0.0
 40
2.0
  1
00974080W.DWG
 41
0.8
  7
GREEKS
100
AcDbText
  0
TEXT
  5
9A
330
1E
100
AcDbEntity
  8
TEXT
100
AcDbText
 10
91.31306610404202
 20
45.38181920511511
 30
0.0
 40
2.0
  1
DIN EN1123-2
 41
0.8
  7
GREEKS
 72
     1
 11
99.80830419928011
 21
45.38181920511511
 31
0.0
100
AcDbText
  0
INSERT
  5
9B
330
1E
100
AcDbEntity
  8
STEMPEL
100
AcDbBlockReference
  2
LOGO
 10
70.4977742728897
 20
22.51052638224161
 30
0.0
  0
TEXT
  5
118
330
1E
100
AcDbEntity
  8
BEM
100
AcDbText
 10
208.6511461928583
 20
5.083950539994247
 30
0.0
 40
2.0
  1
Diese Zeichnung ist urheberrechtlich geschützt und bleibt unser Eigentum. Sie darf weder ganz noch teilweise verfielfältigt und nicht an Dritte weitergegeben werden.
 50
90.0
 41
0.8
  7
GREEKS
100
AcDbText
  0
TEXT
  5
7BF
330
1E
100
AcDbEntity
  8
TEXT
 62
     1
100
AcDbText
 10
124.3657789986888
 20
144.3245175637244
 30
0.0
 40
3.5
  1
M10
 41
0.8
  7
GREEKS
100
AcDbText
  0
LINE
  5
7C0
330
1E
100
AcDbEntity
  8
TEXT
 62
     2
100
AcDbLine
 10
123.305832500666
 20
142.6345648552762
 30
0.0
 11
131.8782925948504
 21
142.6345648552762
 31
0.0
  0
LINE
  5
7C1
330
1E
100
AcDbEntity
  8
TEXT
 62
     2
100
AcDbLine
 10
123.305832500666
 20
142.6345648552762
 30
0.0
 11
119.0771946885879
 21
153.6436656113835
 31
0.0
  0
TEXT
  5
1137
330
1E
100
AcDbEntity
  8
TEXT
 62
     1
100
AcDbText
 10
164.1184118737402
 20
263.804752759956
 30
0.0
 40
3.5
  1
Schraube M8x25
 41
0.8
  7
GREEKS
100
AcDbText
  0
LINE
  5
1138
330
1E
100
AcDbEntity
  8
TEXT
 62
     2
100
AcDbLine
 10
163.0584653757175
 20
262.1148000515079
 30
0.0
 11
200.5593062845328
 21
262.1148000515079
 31
0.0
  0
LINE
  5
1139
330
1E
100
AcDbEntity
  8
TEXT
 62
     2
100
AcDbLine
 10
200.5593062845328
 20
262.1148000515079
 30
0.0
 11
188.9066132206192
 21
230.0811930727839
 31
0.0
  0
LINE
  5
15EF
330
1E
100
AcDbEntity
  8
STEMPEL
100
AcDbLine
 10
183.8911946885879
 20
228.8936656113835
 30
0.0
 11
185.8911946885879
 21
228.8936656113835
 31
0.0
  0
LINE
  5
15F0
330
1E
100
AcDbEntity
  8
STEMPEL
100
AcDbLine
 10
178.3911946885879
 20
228.6786656113835
 30
0.0
 11
178.3911946885879
 21
226.8936656113835
 31
0.0
  0
LINE
  5
15F1
330
1E
100
AcDbEntity
  8
STEMPEL
100
AcDbLine
 10
191.3911946885879
 20
228.6786656113835
 30
0.0
 11
191.3911946885879
 21
226.8936656113835
 31
0.0
  0
LINE
  5
15F4
330
1E
100
AcDbEntity
  8
HILF
100
AcDbLine
 10
181.6581946885878
 20
220.8936656113835
 30
0.0
 11
181.6581946885878
 21
223.6316656113835
 31
0.0
  0
LINE
  5
15F5
330
1E
100
AcDbEntity
  8
HILF
100
AcDbLine
 10
181.6581946885878
 20
201.8936656113835
 30
0.0
 11
181.6581946885878
 21
215.8936656113835
 31
0.0
  0
LINE
  5
15F6
330
1E
100
AcDbEntity
  8
HILF
100
AcDbLine
 10
188.1241946885879
 20
220.8936656113835
 30
0.0
 11
188.1241946885879
 21
223.6316656113835
 31
0.0
  0
LINE
  5
15F7
330
1E
100
AcDbEntity
  8
HILF
100
AcDbLine
 10
188.1241946885879
 20
201.8936656113835
 30
0.0
 11
188.1241946885879
 21
215.8936656113835
 31
0.0
  0
LINE
  5
15F8
330
1E
100
AcDbEntity
  8
STEMPEL
100
AcDbLine
 10
188.8911946885879
 20
202.6606656113835
 30
0.0
 11
180.8911946885879
 21
202.6606656113835
 31
0.0
  0
LINE
  5
15F9
330
1E
100
AcDbEntity
  8
HILF
100
AcDbLine
 10
188.8911946885879
 20
223.6316656113835
 30
0.0
 11
180.8911946885879
 21
223.6316656113835
 31
0.0
  0
LINE
  5
15FA
330
1E
100
AcDbEntity
  8
STEMPEL
100
AcDbLine
 10
180.8911946885879
 20
220.8936656113835
 30
0.0
 11
180.8911946885879
 21
226.8936656113835
 31
0.0
  0
LINE
  5
15FB
330
1E
100
AcDbEntity
  8
STEMPEL
100
AcDbLine
 10
180.8911946885879
 20
202.6606656113835
 30
0.0
 11
180.8911946885879
 21
215.8936656113835
 31
0.0
  0
LINE
  5
15FC
330
1E
100
AcDbEntity
  8
STEMPEL
100
AcDbLine
 10
181.6581946885878
 20
201.8936656113835
 30
0.0
 11
180.8911946885879
 21
202.6606656113835
 31
0.0
  0
LINE
  5
15FD
330
1E
100
AcDbEntity
  8
STEMPEL
100
AcDbLine
 10
188.1241946885879
 20
201.8936656113835
 30
0.0
 11
181.6581946885878
 21
201.8936656113835
 31
0.0
  0
LINE
  5
15FE
330
1E
100
AcDbEntity
  8
STEMPEL
100
AcDbLine
 10
188.8911946885879
 20
202.6606656113835
 30
0.0
 11
188.1241946885879
 21
201.8936656113835
 31
0.0
  0
LINE
  5
15FF
330
1E
100
AcDbEntity
  8
STEMPEL
100
AcDbLine
 10
188.8911946885879
 20
215.8936656113835
 30
0.0
 11
188.8911946885879
 21
202.6606656113835
 31
0.0
  0
LINE
  5
1600
330
1E
100
AcDbEntity
  8
STEMPEL
100
AcDbLine
 10
188.8911946885879
 20
224.7216656113836
 30
0.0
 11
188.8911946885879
 21
220.8936656113835
 31
0.0
  0
LINE
  5
1601
330
1E
100
AcDbEntity
  8
STEMPEL
100
AcDbLine
 10
180.4911946885878
 20
226.8936656113835
 30
0.0
 11
187.4541946885879
 21
226.8936656113835
 31
0.0
  0
LINE
  5
1602
330
1E
100
AcDbEntity
  8
STEMPEL
100
AcDbLine
 10
187.4541946885879
 20
226.8936656113835
 30
0.0
 11
178.3911946885879
 21
226.8936656113835
 31
0.0
  0
LINE
  5
1603
330
1E
100
AcDbEntity
  8
STEMPEL
100
AcDbLine
 10
191.3911946885879
 20
226.8936656113835
 30
0.0
 11
190.8521946885878
 21
226.8936656113835
 31
0.0
  0
LINE
  5
1604
330
1E
100
AcDbEntity
  8
STEMPEL
100
AcDbLine
 10
183.8911946885879
 20
231.8936656113836
 30
0.0
 11
183.8911946885879
 21
228.8936656113835
 31
0.0
  0
LINE
  5
1605
330
1E
100
AcDbEntity
  8
STEMPEL
100
AcDbLine
 10
185.8911946885879
 20
231.8936656113836
 30
0.0
 11
185.8911946885879
 21
228.8936656113835
 31
0.0
  0
LINE
  5
1606
330
1E
100
AcDbEntity
  8
STEMPEL
100
AcDbLine
 10
191.2171946885879
 20
230.9696656113835
 30
0.0
 11
191.3911946885879
 21
228.6786656113835
 31
0.0
  0
ARC
  5
1607
330
1E
100
AcDbEntity
  8
STEMPEL
100
AcDbCircle
 10
190.2201946885878
 20
230.8936656113835
 30
0.0
 40
1.0
100
AcDbArc
 50
4.332313983000302
 51
90.0
  0
LINE
  5
1608
330
1E
100
AcDbEntity
  8
STEMPEL
100
AcDbLine
 10
185.8911946885879
 20
231.8936656113836
 30
0.0
 11
190.2201946885878
 21
231.8936656113836
 31
0.0
  0
LINE
  5
1609
330
1E
100
AcDbEntity
  8
STEMPEL
100
AcDbLine
 10
179.5621946885878
 20
231.8936656113836
 30
0.0
 11
183.8911946885879
 21
231.8936656113836
 31
0.0
  0
ARC
  5
160A
330
1E
100
AcDbEntity
  8
STEMPEL
100
AcDbCircle
 10
179.5621946885878
 20
230.8936656113835
 30
0.0
 40
1.0
100
AcDbArc
 50
90.0
 51
175.6676860169997
  0
LINE
  5
160B
330
1E
100
AcDbEntity
  8
STEMPEL
100
AcDbLine
 10
178.3911946885879
 20
228.6786656113835
 30
0.0
 11
178.5651946885879
 21
230.9696656113835
 31
0.0
  0
LINE
  5
160C
330
1E
100
AcDbEntity
  8
STEMPEL
100
AcDbLine
 10
51.9351946885879
 20
228.8936656113835
 30
0.0
 11
53.9351946885879
 21
228.8936656113835
 31
0.0
  0
LINE
  5
160D
330
1E
100
AcDbEntity
  8
STEMPEL
100
AcDbLine
 10
46.4351946885879
 20
228.6786656113835
 30
0.0
 11
46.4351946885879
 21
226.8936656113835
 31
0.0
  0
LINE
  5
160E
330
1E
100
AcDbEntity
  8
STEMPEL
100
AcDbLine
 10
59.4351946885879
 20
228.6786656113835
 30
0.0
 11
59.4351946885879
 21
226.8936656113835
 31
0.0
  0
LINE
  5
1611
330
1E
100
AcDbEntity
  8
HILF
100
AcDbLine
 10
49.7021946885879
 20
220.8936656113835
 30
0.0
 11
49.7021946885879
 21
223.6316656113835
 31
0.0
  0
LINE
  5
1612
330
1E
100
AcDbEntity
  8
HILF
100
AcDbLine
 10
49.7021946885879
 20
201.8936656113835
 30
0.0
 11
49.7021946885879
 21
215.8936656113835
 31
0.0
  0
LINE
  5
1613
330
1E
100
AcDbEntity
  8
HILF
100
AcDbLine
 10
56.1681946885879
 20
220.8936656113835
 30
0.0
 11
56.1681946885879
 21
223.6316656113835
 31
0.0
  0
LINE
  5
1614
330
1E
100
AcDbEntity
  8
HILF
100
AcDbLine
 10
56.1681946885879
 20
201.8936656113835
 30
0.0
 11
56.1681946885879
 21
215.8936656113835
 31
0.0
  0
LINE
  5
1615
330
1E
100
AcDbEntity
  8
STEMPEL
100
AcDbLine
 10
56.9351946885879
 20
202.6606656113835
 30
0.0
 11
48.9351946885879
 21
202.6606656113835
 31
0.0
  0
LINE
  5
1616
330
1E
100
AcDbEntity
  8
HILF
100
AcDbLine
 10
56.9351946885879
 20
223.6316656113835
 30
0.0
 11
48.9351946885879
 21
223.6316656113835
 31
0.0
  0
LINE
  5
1617
330
1E
100
AcDbEntity
  8
STEMPEL
100
AcDbLine
 10
48.9351946885879
 20
220.8936656113835
 30
0.0
 11
48.9351946885879
 21
223.8936656113835
 31
0.0
  0
LINE
  5
1618
330
1E
100
AcDbEntity
  8
STEMPEL
100
AcDbLine
 10
48.9351946885879
 20
202.6606656113835
 30
0.0
 11
48.9351946885879
 21
215.8936656113835
 31
0.0
  0
LINE
  5
1619
330
1E
100
AcDbEntity
  8
STEMPEL
100
AcDbLine
 10
49.7021946885879
 20
201.8936656113835
 30
0.0
 11
48.9351946885879
 21
202.6606656113835
 31
0.0
  0
LINE
  5
161A
330
1E
100
AcDbEntity
  8
STEMPEL
100
AcDbLine
 10
56.1681946885879
 20
201.8936656113835
 30
0.0
 11
49.7021946885879
 21
201.8936656113835
 31
0.0
  0
LINE
  5
161B
330
1E
100
AcDbEntity
  8
STEMPEL
100
AcDbLine
 10
56.9351946885879
 20
202.6606656113835
 30
0.0
 11
56.1681946885879
 21
201.8936656113835
 31
0.0
  0
LINE
  5
161C
330
1E
100
AcDbEntity
  8
STEMPEL
100
AcDbLine
 10
56.9351946885879
 20
215.8936656113835
 30
0.0
 11
56.9351946885879
 21
202.6606656113835
 31
0.0
  0
LINE
  5
161D
330
1E
100
AcDbEntity
  8
STEMPEL
100
AcDbLine
 10
56.9351946885879
 20
223.8936656113835
 30
0.0
 11
56.9351946885879
 21
220.8936656113835
 31
0.0
  0
LINE
  5
161E
330
1E
100
AcDbEntity
  8
STEMPEL
100
AcDbLine
 10
48.53519468858786
 20
226.8936656113835
 30
0.0
 11
57.33519468858787
 21
226.8936656113835
 31
0.0
  0
LINE
  5
161F
330
1E
100
AcDbEntity
  8
STEMPEL
100
AcDbLine
 10
59.4351946885879
 20
226.8936656113835
 30
0.0
 11
46.4351946885879
 21
226.8936656113835
 31
0.0
  0
LINE
  5
1620
330
1E
100
AcDbEntity
  8
STEMPEL
100
AcDbLine
 10
51.9351946885879
 20
231.8936656113836
 30
0.0
 11
51.9351946885879
 21
228.8936656113835
 31
0.0
  0
LINE
  5
1621
330
1E
100
AcDbEntity
  8
STEMPEL
100
AcDbLine
 10
53.9351946885879
 20
231.8936656113836
 30
0.0
 11
53.9351946885879
 21
228.8936656113835
 31
0.0
  0
LINE
  5
1622
330
1E
100
AcDbEntity
  8
STEMPEL
100
AcDbLine
 10
59.26119468858786
 20
230.9696656113835
 30
0.0
 11
59.4351946885879
 21
228.6786656113835
 31
0.0
  0
ARC
  5
1623
330
1E
100
AcDbEntity
  8
STEMPEL
100
AcDbCircle
 10
58.26419468858785
 20
230.8936656113835
 30
0.0
 40
1.0
100
AcDbArc
 50
4.332313983000302
 51
90.0
  0
LINE
  5
1624
330
1E
100
AcDbEntity
  8
STEMPEL
100
AcDbLine
 10
53.9351946885879
 20
231.8936656113836
 30
0.0
 11
58.26419468858785
 21
231.8936656113836
 31
0.0
  0
LINE
  5
1625
330
1E
100
AcDbEntity
  8
STEMPEL
100
AcDbLine
 10
47.60519468858785
 20
231.8936656113836
 30
0.0
 11
51.9351946885879
 21
231.8936656113836
 31
0.0
  0
ARC
  5
1626
330
1E
100
AcDbEntity
  8
STEMPEL
100
AcDbCircle
 10
47.60519468858785
 20
230.8936656113835
 30
0.0
 40
1.0
100
AcDbArc
 50
90.0
 51
175.6676860169997
  0
LINE
  5
1627
330
1E
100
AcDbEntity
  8
STEMPEL
100
AcDbLine
 10
46.4351946885879
 20
228.6786656113835
 30
0.0
 11
46.6081946885879
 21
230.9696656113835
 31
0.0
  0
LINE
  5
1628
330
1E
100
AcDbEntity
  8
HILF
100
AcDbLine
 10
79.0791946885879
 20
181.6746656113835
 30
0.0
 11
78.28219468858788
 21
180.6546656113835
 31
0.0
  0
LINE
  5
1629
330
1E
100
AcDbEntity
  8
HILF
100
AcDbLine
 10
86.76419468858785
 20
186.5596656113835
 30
0.0
 11
79.0791946885879
 21
181.6746656113835
 31
0.0
  0
LINE
  5
162A
330
1E
100
AcDbEntity
  8
HILF
100
AcDbLine
 10
88.6851946885879
 20
190.4206656113835
 30
0.0
 11
86.76419468858785
 21
186.5596656113835
 31
0.0
  0
LINE
  5
162B
330
1E
100
AcDbEntity
  8
HILF
100
AcDbLine
 10
150.6491946885878
 20
269.5716656113835
 30
0.0
 11
152.0831946885878
 21
270.2766656113836
 31
0.0
  0
LINE
  5
162C
330
1E
100
AcDbEntity
  8
HILF
100
AcDbLine
 10
146.3721946885879
 20
261.5796656113836
 30
0.0
 11
150.6491946885878
 21
269.5716656113835
 31
0.0
  0
LINE
  5
162D
330
1E
100
AcDbEntity
  8
HILF
100
AcDbLine
 10
143.1171946885879
 20
259.1386656113836
 30
0.0
 11
146.3721946885879
 21
261.5796656113836
 31
0.0
  0
LINE
  5
162E
330
1E
100
AcDbEntity
  8
STEMPEL
100
AcDbLine
 10
61.16019468858787
 20
214.7966656113835
 30
0.0
 11
75.28919468858788
 21
216.6546656113836
 31
0.0
  0
LINE
  5
162F
330
1E
100
AcDbEntity
  8
STEMPEL
100
AcDbLine
 10
75.28919468858788
 20
228.1336656113836
 30
0.0
 11
61.16019468858787
 21
229.9916656113836
 31
0.0
  0
LINE
  5
1630
330
1E
100
AcDbEntity
  8
STEMPEL
100
AcDbLine
 10
162.5371946885878
 20
216.6546656113836
 30
0.0
 11
176.6651946885879
 21
214.7966656113835
 31
0.0
  0
LINE
  5
1631
330
1E
100
AcDbEntity
  8
STEMPEL
100
AcDbLine
 10
162.5371946885878
 20
228.1336656113836
 30
0.0
 11
176.6651946885879
 21
229.9916656113836
 31
0.0
  0
ARC
  5
1632
330
1E
100
AcDbEntity
  8
STEMPEL
100
AcDbCircle
 10
118.9131946885878
 20
222.3936656113835
 30
0.0
 40
58.25
100
AcDbArc
 50
232.3707451360003
 51
352.5052825459998
  0
ARC
  5
1633
330
1E
100
AcDbEntity
  8
STEMPEL
100
AcDbCircle
 10
118.9131946885878
 20
222.3936656113835
 30
0.0
 40
58.25
100
AcDbArc
 50
187.4947174539998
 51
225.7714339770003
  0
ARC
  5
1634
330
1E
100
AcDbEntity
  8
STEMPEL
100
AcDbCircle
 10
118.9131946885878
 20
222.3936656113835
 30
0.0
 40
58.25
100
AcDbArc
 50
7.494717453999784
 51
48.38441782099983
  0
ARC
  5
1635
330
1E
100
AcDbEntity
  8
STEMPEL
100
AcDbCircle
 10
118.9131946885878
 20
222.3936656113835
 30
0.0
 40
58.25
100
AcDbArc
 50
55.28829407600021
 51
172.5052825460002
  0
ARC
  5
1636
330
1E
100
AcDbEntity
  8
STEMPEL
100
AcDbCircle
 10
118.9131946885878
 20
222.3936656113835
 30
0.0
 40
44.0
100
AcDbArc
 50
235.3740918100004
 51
352.5052825459998
  0
ARC
  5
1637
330
1E
100
AcDbEntity
  8
STEMPEL
100
AcDbCircle
 10
118.9131946885878
 20
222.3936656113835
 30
0.0
 40
44.0
100
AcDbArc
 50
187.4947174539998
 51
226.606945285
  0
ARC
  5
1638
330
1E
100
AcDbEntity
  8
STEMPEL
100
AcDbCircle
 10
118.9131946885878
 20
222.3936656113835
 30
0.0
 40
44.0
100
AcDbArc
 50
7.494717453999784
 51
47.60506164399953
  0
ARC
  5
1639
330
1E
100
AcDbEntity
  8
STEMPEL
100
AcDbCircle
 10
118.9131946885878
 20
222.3936656113835
 30
0.0
 40
44.0
100
AcDbArc
 50
56.62636296700064
 51
172.5052825460002
  0
LINE
  5
163A
330
1E
100
AcDbEntity
  8
HILF
100
AcDbLine
 10
148.5791946885879
 20
254.8886656113836
 30
0.0
 11
151.4051946885878
 21
257.0076656113836
 31
0.0
  0
LINE
  5
163B
330
1E
100
AcDbEntity
  8
HILF
100
AcDbLine
 10
151.4051946885878
 20
257.0076656113836
 30
0.0
 11
155.6821946885878
 21
264.9996656113835
 31
0.0
  0
LINE
  5
163C
330
1E
100
AcDbEntity
  8
HILF
100
AcDbLine
 10
155.6821946885878
 20
264.9996656113835
 30
0.0
 11
157.5981946885879
 21
265.9426656113835
 31
0.0
  0
LINE
  5
163D
330
1E
100
AcDbEntity
  8
HILF
100
AcDbLine
 10
93.91119468858789
 20
186.1876656113835
 30
0.0
 11
92.05419468858787
 21
182.4526656113835
 31
0.0
  0
LINE
  5
163E
330
1E
100
AcDbEntity
  8
HILF
100
AcDbLine
 10
92.05419468858787
 20
182.4526656113835
 30
0.0
 11
84.36819468858789
 21
177.5686656113835
 31
0.0
  0
LINE
  5
163F
330
1E
100
AcDbEntity
  8
HILF
100
AcDbLine
 10
84.36819468858789
 20
177.5686656113835
 30
0.0
 11
83.34819468858791
 21
176.2616656113835
 31
0.0
  0
ARC
  5
1640
330
1E
100
AcDbEntity
  8
STEMPEL
100
AcDbCircle
 10
119.0771946885879
 20
150.3386656113835
 30
0.0
 40
17.556
100
AcDbArc
 50
123.7348100750001
 51
123.9921761139998
  0
ARC
  5
1641
330
1E
100
AcDbEntity
  8
STEMPEL
100
AcDbCircle
 10
119.0771946885879
 20
150.3386656113835
 30
0.0
 40
17.556
100
AcDbArc
 50
56.00782388600019
 51
56.52659989099939
  0
ARC
  5
1642
330
1E
100
AcDbEntity
  8
STEMPEL
100
AcDbCircle
 10
126.4381946885879
 20
160.8066656113835
 30
0.0
 40
4.767
100
AcDbArc
 50
59.02090113799946
 51
61.07927901299952
  0
ARC
  5
1643
330
1E
100
AcDbEntity
  8
STEMPEL
100
AcDbCircle
 10
111.7161946885878
 20
160.8066656113835
 30
0.0
 40
4.767
100
AcDbArc
 50
119.9660015309999
 51
120.9790988620005
  0
ARC
  5
1644
330
1E
100
AcDbEntity
  8
STEMPEL
100
AcDbCircle
 10
111.7161946885878
 20
158.4106656113835
 30
0.0
 40
4.767
100
AcDbArc
 50
270.0
 51
300.9790988620003
  0
ARC
  5
1645
330
1E
100
AcDbEntity
  8
STEMPEL
100
AcDbCircle
 10
111.7161946885878
 20
158.4106656113835
 30
0.0
 40
4.767
100
AcDbArc
 50
239.0209011379995
 51
270.0
  0
ARC
  5
1646
330
1E
100
AcDbEntity
  8
STEMPEL
100
AcDbCircle
 10
119.0771946885879
 20
171.6916656113835
 30
0.0
 40
18.048
100
AcDbArc
 50
254.2221938999995
 51
285.7778061000005
  0
ARC
  5
1647
330
1E
100
AcDbEntity
  8
STEMPEL
100
AcDbCircle
 10
126.4381946885879
 20
158.4106656113835
 30
0.0
 40
4.767
100
AcDbArc
 50
270.0
 51
300.9790988620003
  0
ARC
  5
1648
330
1E
100
AcDbEntity
  8
STEMPEL
100
AcDbCircle
 10
126.4381946885879
 20
158.4106656113835
 30
0.0
 40
4.767
100
AcDbArc
 50
239.0209011379995
 51
270.0
  0
LINE
  5
1649
330
1E
100
AcDbEntity
  8
STEMPEL
100
AcDbLine
 10
126.4381946885879
 20
153.6436656113835
 30
0.0
 11
111.7161946885878
 21
153.6436656113835
 31
0.0
  0
LINE
  5
164A
330
1E
100
AcDbEntity
  8
STEMPEL
100
AcDbLine
 10
109.2621946885879
 20
164.8936656113835
 30
0.0
 11
109.2621946885879
 21
154.3236656113835
 31
0.0
  0
LINE
  5
164B
330
1E
100
AcDbEntity
  8
STEMPEL
100
AcDbLine
 10
114.1701946885879
 20
164.3376656113835
 30
0.0
 11
114.1701946885879
 21
154.3236656113835
 31
0.0
  0
LINE
  5
164C
330
1E
100
AcDbEntity
  8
STEMPEL
100
AcDbLine
 10
123.9851946885878
 20
164.3656656113835
 30
0.0
 11
123.9851946885878
 21
154.3236656113835
 31
0.0
  0
LINE
  5
164D
330
1E
100
AcDbEntity
  8
STEMPEL
100
AcDbLine
 10
128.8921946885879
 20
164.8936656113835
 30
0.0
 11
128.8921946885879
 21
154.3236656113835
 31
0.0
  0
ARC
  5
164E
330
1E
100
AcDbEntity
  8
HILF
100
AcDbCircle
 10
118.9131946885878
 20
222.3936656113835
 30
0.0
 40
56.0
100
AcDbArc
 50
184.8711965819998
 51
187.4947174539998
  0
ARC
  5
164F
330
1E
100
AcDbEntity
  8
HILF
100
AcDbCircle
 10
118.9131946885878
 20
222.3936656113835
 30
0.0
 40
56.0
100
AcDbArc
 50
225.8606783189996
 51
232.6006902219994
  0
ARC
  5
1650
330
1E
100
AcDbEntity
  8
HILF
100
AcDbCircle
 10
118.9131946885878
 20
222.3936656113835
 30
0.0
 40
56.0
100
AcDbArc
 50
352.5052825459998
 51
355.1288034179998
  0
ARC
  5
1651
330
1E
100
AcDbEntity
  8
STEMPEL
100
AcDbCircle
 10
61.90419468858789
 20
214.8936656113836
 30
0.0
 40
3.0
100
AcDbArc
 50
7.494717453999784
 51
90.0
  0
ARC
  5
1652
330
1E
100
AcDbEntity
  8
STEMPEL
100
AcDbCircle
 10
61.90419468858789
 20
214.8936656113836
 30
0.0
 40
6.0
100
AcDbArc
 50
7.494717453999784
 51
90.0
  0
ARC
  5
1653
330
1E
100
AcDbEntity
  8
STEMPEL
100
AcDbCircle
 10
175.9221946885879
 20
214.8936656113836
 30
0.0
 40
3.0
100
AcDbArc
 50
90.0
 51
172.5052825460002
  0
ARC
  5
1654
330
1E
100
AcDbEntity
  8
STEMPEL
100
AcDbCircle
 10
175.9221946885879
 20
214.8936656113836
 30
0.0
 40
6.0
100
AcDbArc
 50
90.0
 51
172.5052825460002
  0
ARC
  5
1655
330
1E
100
AcDbEntity
  8
STEMPEL
100
AcDbCircle
 10
118.9131946885878
 20
222.3936656113835
 30
0.0
 40
54.5
100
AcDbArc
 50
226.2373205299996
 51
233.180819407
  0
ARC
  5
1656
330
1E
100
AcDbEntity
  8
STEMPEL
100
AcDbCircle
 10
118.9131946885878
 20
222.3936656113835
 30
0.0
 40
51.5
100
AcDbArc
 50
227.0585549120005
 51
234.4502867699997
  0
ARC
  5
1657
330
1E
100
AcDbEntity
  8
STEMPEL
100
AcDbCircle
 10
58.4351946885879
 20
216.8936656113835
 30
0.0
 40
1.0
100
AcDbArc
 50
90.0
 51
180.0
  0
LINE
  5
1658
330
1E
100
AcDbEntity
  8
STEMPEL
100
AcDbLine
 10
57.4351946885879
 20
215.8936656113835
 30
0.0
 11
57.4351946885879
 21
216.8936656113835
 31
0.0
  0
LINE
  5
1659
330
1E
100
AcDbEntity
  8
STEMPEL
100
AcDbLine
 10
48.4351946885879
 20
215.8936656113835
 30
0.0
 11
57.4351946885879
 21
215.8936656113835
 31
0.0
  0
LINE
  5
165A
330
1E
100
AcDbEntity
  8
STEMPEL
100
AcDbLine
 10
48.4351946885879
 20
216.8936656113835
 30
0.0
 11
48.4351946885879
 21
215.8936656113835
 31
0.0
  0
ARC
  5
165B
330
1E
100
AcDbEntity
  8
STEMPEL
100
AcDbCircle
 10
47.4351946885879
 20
216.8936656113835
 30
0.0
 40
1.0
100
AcDbArc
 50
0.0
 51
90.0
  0
LINE
  5
165C
330
1E
100
AcDbEntity
  8
STEMPEL
100
AcDbLine
 10
180.3911946885879
 20
215.8936656113835
 30
0.0
 11
180.3911946885879
 21
216.8936656113835
 31
0.0
  0
ARC
  5
165D
330
1E
100
AcDbEntity
  8
STEMPEL
100
AcDbCircle
 10
179.3911946885879
 20
216.8936656113835
 30
0.0
 40
1.0
100
AcDbArc
 50
0.0
 51
90.0
  0
LINE
  5
165E
330
1E
100
AcDbEntity
  8
STEMPEL
100
AcDbLine
 10
189.3911946885879
 20
215.8936656113835
 30
0.0
 11
180.3911946885879
 21
215.8936656113835
 31
0.0
  0
LINE
  5
165F
330
1E
100
AcDbEntity
  8
STEMPEL
100
AcDbLine
 10
189.3911946885879
 20
216.8936656113835
 30
0.0
 11
189.3911946885879
 21
215.8936656113835
 31
0.0
  0
ARC
  5
1660
330
1E
100
AcDbEntity
  8
STEMPEL
100
AcDbCircle
 10
190.3911946885879
 20
216.8936656113835
 30
0.0
 40
1.0
100
AcDbArc
 50
90.0
 51
180.0
  0
LINE
  5
1661
330
1E
100
AcDbEntity
  8
STEMPEL
100
AcDbLine
 10
194.5061946885878
 20
220.8936656113835
 30
0.0
 11
194.5061946885878
 21
217.8936656113835
 31
0.0
  0
LINE
  5
1662
330
1E
100
AcDbEntity
  8
STEMPEL
100
AcDbLine
 10
43.34419468858789
 20
220.8936656113835
 30
0.0
 11
43.34419468858789
 21
217.8936656113835
 31
0.0
  0
LINE
  5
1663
330
1E
100
AcDbEntity
  8
STEMPEL
100
AcDbLine
 10
40.43519468858787
 20
217.8936656113835
 30
0.0
 11
61.90419468858789
 21
217.8936656113835
 31
0.0
  0
LINE
  5
1664
330
1E
100
AcDbEntity
  8
STEMPEL
100
AcDbLine
 10
40.43519468858787
 20
220.8936656113835
 30
0.0
 11
40.43519468858787
 21
217.8936656113835
 31
0.0
  0
LINE
  5
1665
330
1E
100
AcDbEntity
  8
STEMPEL
100
AcDbLine
 10
61.90419468858789
 20
220.8936656113835
 30
0.0
 11
40.43519468858787
 21
220.8936656113835
 31
0.0
  0
LINE
  5
1666
330
1E
100
AcDbEntity
  8
STEMPEL
100
AcDbLine
 10
196.1911946885878
 20
217.8936656113835
 30
0.0
 11
175.9221946885879
 21
217.8936656113835
 31
0.0
  0
LINE
  5
1667
330
1E
100
AcDbEntity
  8
STEMPEL
100
AcDbLine
 10
197.4251946885879
 20
217.8936656113835
 30
0.0
 11
196.1911946885878
 21
217.8936656113835
 31
0.0
  0
LINE
  5
1668
330
1E
100
AcDbEntity
  8
STEMPEL
100
AcDbLine
 10
197.4251946885879
 20
220.8936656113835
 30
0.0
 11
197.4251946885879
 21
217.8936656113835
 31
0.0
  0
LINE
  5
1669
330
1E
100
AcDbEntity
  8
STEMPEL
100
AcDbLine
 10
196.1911946885878
 20
220.8936656113835
 30
0.0
 11
197.4251946885879
 21
220.8936656113835
 31
0.0
  0
LINE
  5
166A
330
1E
100
AcDbEntity
  8
STEMPEL
100
AcDbLine
 10
175.9221946885879
 20
220.8936656113835
 30
0.0
 11
196.1911946885878
 21
220.8936656113835
 31
0.0
  0
ARC
  5
166B
330
1E
100
AcDbEntity
  8
STEMPEL
100
AcDbCircle
 10
61.90419468858789
 20
229.8936656113836
 30
0.0
 40
3.0
100
AcDbArc
 50
270.0
 51
352.5052825459998
  0
ARC
  5
166C
330
1E
100
AcDbEntity
  8
STEMPEL
100
AcDbCircle
 10
61.90419468858789
 20
229.8936656113836
 30
0.0
 40
6.0
100
AcDbArc
 50
270.0
 51
352.5052825459998
  0
ARC
  5
166D
330
1E
100
AcDbEntity
  8
STEMPEL
100
AcDbCircle
 10
175.9221946885879
 20
229.8936656113836
 30
0.0
 40
3.0
100
AcDbArc
 50
187.4947174539998
 51
270.0
  0
ARC
  5
166E
330
1E
100
AcDbEntity
  8
STEMPEL
100
AcDbCircle
 10
175.9221946885879
 20
229.8936656113836
 30
0.0
 40
6.0
100
AcDbArc
 50
187.4947174539998
 51
270.0
  0
ARC
  5
166F
330
1E
100
AcDbEntity
  8
STEMPEL
100
AcDbCircle
 10
118.9131946885878
 20
222.3936656113835
 30
0.0
 40
54.5
100
AcDbArc
 50
48.78612159099976
 51
55.82084620499963
  0
ARC
  5
1671
330
1E
100
AcDbEntity
  8
STEMPEL
100
AcDbCircle
 10
118.9131946885878
 20
222.3936656113835
 30
0.0
 40
51.5
100
AcDbArc
 50
48.01069426299983
 51
55.46848696000026
  0
LINE
  5
1673
330
1E
100
AcDbEntity
  8
STEMPEL
100
AcDbLine
 10
194.5061946885878
 20
226.8936656113835
 30
0.0
 11
194.5061946885878
 21
223.8936656113835
 31
0.0
  0
ARC
  5
1674
330
1E
100
AcDbEntity
  8
STEMPEL
100
AcDbCircle
 10
191.8271946885878
 20
227.8936656113836
 30
0.0
 40
1.0
100
AcDbArc
 50
180.0
 51
270.0
  0
LINE
  5
1675
330
1E
100
AcDbEntity
  8
STEMPEL
100
AcDbLine
 10
189.8521946885878
 20
227.8936656113836
 30
0.0
 11
189.8521946885878
 21
228.8936656113835
 31
0.0
  0
ARC
  5
1676
330
1E
100
AcDbEntity
  8
STEMPEL
100
AcDbCircle
 10
190.8521946885878
 20
227.8936656113836
 30
0.0
 40
1.0
100
AcDbArc
 50
180.0
 51
270.0
  0
LINE
  5
1677
330
1E
100
AcDbEntity
  8
STEMPEL
100
AcDbLine
 10
190.8271946885878
 20
227.8936656113836
 30
0.0
 11
190.8271946885878
 21
228.8936656113835
 31
0.0
  0
LINE
  5
1678
330
1E
100
AcDbEntity
  8
STEMPEL
100
AcDbLine
 10
187.3271946885878
 20
228.8936656113835
 30
0.0
 11
190.8271946885878
 21
228.8936656113835
 31
0.0
  0
LINE
  5
1679
330
1E
100
AcDbEntity
  8
STEMPEL
100
AcDbLine
 10
187.3271946885878
 20
227.8936656113836
 30
0.0
 11
187.3271946885878
 21
228.8936656113835
 31
0.0
  0
ARC
  5
167A
330
1E
100
AcDbEntity
  8
STEMPEL
100
AcDbCircle
 10
191.3271946885878
 20
227.8936656113836
 30
0.0
 40
4.0
100
AcDbArc
 50
180.0
 51
270.0
  0
LINE
  5
167B
330
1E
100
AcDbEntity
  8
STEMPEL
100
AcDbLine
 10
190.8521946885878
 20
226.8936656113835
 30
0.0
 11
197.4251946885879
 21
226.8936656113835
 31
0.0
  0
LINE
  5
167C
330
1E
100
AcDbEntity
  8
STEMPEL
100
AcDbLine
 10
197.4251946885879
 20
226.8936656113835
 30
0.0
 11
197.4251946885879
 21
223.8936656113835
 31
0.0
  0
LINE
  5
167D
330
1E
100
AcDbEntity
  8
STEMPEL
100
AcDbLine
 10
197.4251946885879
 20
223.8936656113835
 30
0.0
 11
188.8911946885879
 21
223.8936656113835
 31
0.0
  0
LINE
  5
167E
330
1E
100
AcDbEntity
  8
STEMPEL
100
AcDbLine
 10
178.2391946885878
 20
226.8936656113835
 30
0.0
 11
178.2391946885878
 21
223.8936656113835
 31
0.0
  0
LINE
  5
167F
330
1E
100
AcDbEntity
  8
STEMPEL
100
AcDbLine
 10
43.34419468858789
 20
226.8936656113835
 30
0.0
 11
43.34419468858789
 21
223.8936656113835
 31
0.0
  0
LINE
  5
1680
330
1E
100
AcDbEntity
  8
STEMPEL
100
AcDbLine
 10
180.8911946885879
 20
226.8936656113835
 30
0.0
 11
175.9221946885879
 21
226.8936656113835
 31
0.0
  0
LINE
  5
1681
330
1E
100
AcDbEntity
  8
STEMPEL
100
AcDbLine
 10
180.8911946885879
 20
223.8936656113835
 30
0.0
 11
175.9221946885879
 21
223.8936656113835
 31
0.0
  0
LINE
  5
1682
330
1E
100
AcDbEntity
  8
STEMPEL
100
AcDbLine
 10
40.43519468858787
 20
226.8936656113835
 30
0.0
 11
61.90419468858789
 21
226.8936656113835
 31
0.0
  0
LINE
  5
1683
330
1E
100
AcDbEntity
  8
STEMPEL
100
AcDbLine
 10
40.43519468858787
 20
223.8936656113835
 30
0.0
 11
40.43519468858787
 21
226.8936656113835
 31
0.0
  0
LINE
  5
1684
330
1E
100
AcDbEntity
  8
STEMPEL
100
AcDbLine
 10
61.90419468858789
 20
223.8936656113835
 30
0.0
 11
40.43519468858787
 21
223.8936656113835
 31
0.0
  0
ARC
  5
1687
330
1E
100
AcDbEntity
  8
HILF
100
AcDbCircle
 10
118.9131946885878
 20
222.3936656113835
 30
0.0
 40
56.0
100
AcDbArc
 50
49.14185528200013
 51
55.98279099799984
  0
ARC
  5
1688
330
1E
100
AcDbEntity
  8
HILF
100
AcDbCircle
 10
118.9131946885878
 20
222.3936656113835
 30
0.0
 40
56.0
100
AcDbArc
 50
4.871196581999843
 51
7.494717453999784
  0
ARC
  5
1689
330
1E
100
AcDbEntity
  8
HILF
100
AcDbCircle
 10
118.9131946885878
 20
222.3936656113835
 30
0.0
 40
56.0
100
AcDbArc
 50
172.5052825460002
 51
175.1288034179997
  0
LINE
  5
168B
330
1E
100
AcDbEntity
  8
MITTEL
100
AcDbLine
 10
202.4251946885879
 20
222.3936656113835
 30
0.0
 11
35.43519468858787
 21
222.3936656113836
 31
0.0
  0
LINE
  5
168C
330
1E
100
AcDbEntity
  8
MITTEL
100
AcDbLine
 10
52.93519468858784
 20
236.8936656113836
 30
0.0
 11
52.93519468858784
 21
196.8936656113835
 31
0.0
  0
LINE
  5
168D
330
1E
100
AcDbEntity
  8
MITTEL
100
AcDbLine
 10
184.8911946885879
 20
196.8936656113835
 30
0.0
 11
184.8911946885879
 21
236.8936656113835
 31
0.0
  0
LINE
  5
168E
330
1E
100
AcDbEntity
  8
STEMPEL
100
AcDbLine
 10
176.2656946885878
 20
130.405043875299
 30
0.0
 11
176.2656946885878
 21
119.155043875299
 31
0.0
  0
LINE
  5
168F
330
1E
100
AcDbEntity
  8
STEMPEL
100
AcDbLine
 10
61.56069468858783
 20
130.405043875299
 30
0.0
 11
61.56069468858783
 21
119.155043875299
 31
0.0
  0
LINE
  5
1690
330
1E
100
AcDbEntity
  8
STEMPEL
100
AcDbLine
 10
61.56069468858783
 20
130.405043875299
 30
0.0
 11
176.2656946885878
 21
130.405043875299
 31
0.0
  0
LINE
  5
1691
330
1E
100
AcDbEntity
  8
STEMPEL
100
AcDbLine
 10
61.56069468858783
 20
119.155043875299
 30
0.0
 11
176.2656946885878
 21
119.155043875299
 31
0.0
  0
LINE
  5
1692
330
1E
100
AcDbEntity
  8
STEMPEL
100
AcDbLine
 10
61.56069468858783
 20
104.155043875299
 30
0.0
 11
61.56069468858783
 21
92.90504387529901
 31
0.0
  0
LINE
  5
1693
330
1E
100
AcDbEntity
  8
STEMPEL
100
AcDbLine
 10
176.2656946885878
 20
104.155043875299
 30
0.0
 11
176.2656946885878
 21
92.90504387529901
 31
0.0
  0
LINE
  5
1694
330
1E
100
AcDbEntity
  8
STEMPEL
100
AcDbLine
 10
176.2656946885878
 20
104.155043875299
 30
0.0
 11
61.56069468858783
 21
104.155043875299
 31
0.0
  0
LINE
  5
1695
330
1E
100
AcDbEntity
  8
STEMPEL
100
AcDbLine
 10
176.2656946885878
 20
92.90504387529901
 30
0.0
 11
61.56069468858783
 21
92.90504387529901
 31
0.0
  0
ARC
  5
1696
330
1E
100
AcDbEntity
  8
HILF
100
AcDbCircle
 10
52.91369468858784
 20
111.655043875299
 30
0.0
 40
6.0
100
AcDbArc
 50
99.59406822700028
 51
260.4059317729997
  0
ARC
  5
1697
330
1E
100
AcDbEntity
  8
HILF
100
AcDbCircle
 10
52.91369468858784
 20
111.655043875299
 30
0.0
 40
6.0
100
AcDbArc
 50
279.5940682270003
 51
80.40593177299973
  0
CIRCLE
  5
1698
330
1E
100
AcDbEntity
  8
STEMPEL
100
AcDbCircle
 10
52.91369468858784
 20
111.655043875299
 30
0.0
 40
6.5
  0
LINE
  5
1699
330
1E
100
AcDbEntity
  8
STEMPEL
100
AcDbLine
 10
51.91369468858784
 20
105.233043875299
 30
0.0
 11
51.91369468858784
 21
118.078043875299
 31
0.0
  0
LINE
  5
169A
330
1E
100
AcDbEntity
  8
STEMPEL
100
AcDbLine
 10
53.91369468858783
 20
105.233043875299
 30
0.0
 11
53.91369468858783
 21
118.078043875299
 31
0.0
  0
ARC
  5
169B
330
1E
100
AcDbEntity
  8
HILF
100
AcDbCircle
 10
184.9136946885878
 20
111.655043875299
 30
0.0
 40
6.0
100
AcDbArc
 50
99.59406822700028
 51
260.4059317729997
  0
ARC
  5
169C
330
1E
100
AcDbEntity
  8
HILF
100
AcDbCircle
 10
184.9136946885878
 20
111.655043875299
 30
0.0
 40
6.0
100
AcDbArc
 50
279.5940682270003
 51
80.40593177299973
  0
CIRCLE
  5
169D
330
1E
100
AcDbEntity
  8
STEMPEL
100
AcDbCircle
 10
184.9136946885878
 20
111.655043875299
 30
0.0
 40
6.5
  0
LINE
  5
169E
330
1E
100
AcDbEntity
  8
STEMPEL
100
AcDbLine
 10
183.9136946885878
 20
105.233043875299
 30
0.0
 11
183.9136946885878
 21
118.078043875299
 31
0.0
  0
LINE
  5
169F
330
1E
100
AcDbEntity
  8
STEMPEL
100
AcDbLine
 10
185.9136946885878
 20
105.233043875299
 30
0.0
 11
185.9136946885878
 21
118.078043875299
 31
0.0
  0
ARC
  5
16A0
330
1E
100
AcDbEntity
  8
STEMPEL
100
AcDbCircle
 10
157.4136946885878
 20
111.655043875299
 30
0.0
 40
40.0
100
AcDbArc
 50
337.9756871630003
 51
22.02431283699973
  0
ARC
  5
16A1
330
1E
100
AcDbEntity
  8
STEMPEL
100
AcDbCircle
 10
80.41369468858784
 20
111.655043875299
 30
0.0
 40
40.0
100
AcDbArc
 50
157.9756871630002
 51
202.0243128369997
  0
TEXT
  5
16A2
330
1E
100
AcDbEntity
  8
TEXT
 62
     1
100
AcDbText
 10
113.6493286984911
 20
106.480043875299
 30
0.0
 40
3.5
  1
DN80
 41
0.8
 72
     1
 11
118.7826620318244
 21
106.480043875299
 31
0.0
100
AcDbText
  0
TEXT
  5
16A3
330
1E
100
AcDbEntity
  8
TEXT
 62
     1
100
AcDbText
 10
114.2696325124274
 20
113.583043875299
 30
0.0
 40
3.5
  1
LORO
 41
0.8
 72
     1
 11
119.3362991790941
 21
113.583043875299
 31
0.0
100
AcDbText
  0
ARC
  5
16A4
330
1E
100
AcDbEntity
  8
HILF
100
AcDbCircle
 10
118.6396946885878
 20
111.655043875299
 30
0.0
 40
9.25
100
AcDbArc
 50
305.8247743689999
 51
54.17522563100003
  0
ARC
  5
16A5
330
1E
100
AcDbEntity
  8
HILF
100
AcDbCircle
 10
118.6396946885878
 20
111.655043875299
 30
0.0
 40
9.25
100
AcDbArc
 50
125.8247743689999
 51
234.175225631
  0
ARC
  5
16A6
330
1E
100
AcDbEntity
  8
HILF
100
AcDbCircle
 10
118.6396946885878
 20
111.655043875299
 30
0.0
 40
10.75
100
AcDbArc
 50
315.75928121
 51
44.24071878999995
  0
ARC
  5
16A7
330
1E
100
AcDbEntity
  8
HILF
100
AcDbCircle
 10
118.6396946885878
 20
111.655043875299
 30
0.0
 40
10.75
100
AcDbArc
 50
135.75928121
 51
224.24071879
  0
LINE
  5
16A8
330
1E
100
AcDbEntity
  8
MITTEL
100
AcDbLine
 10
202.4136946885878
 20
111.655043875299
 30
0.0
 11
35.41369468858784
 21
111.655043875299
 31
0.0
  0
LINE
  5
16A9
330
1E
100
AcDbEntity
  8
MITTEL
100
AcDbLine
 10
184.9136946885878
 20
100.155043875299
 30
0.0
 11
184.9136946885878
 21
123.155043875299
 31
0.0
  0
LINE
  5
16AA
330
1E
100
AcDbEntity
  8
STEMPEL
100
AcDbLine
 10
190.8486946885878
 20
103.592043875299
 30
0.0
 11
188.3726946885878
 21
103.940043875299
 31
0.0
  0
LINE
  5
16AB
330
1E
100
AcDbEntity
  8
STEMPEL
100
AcDbLine
 10
189.8736946885878
 20
96.65504387529901
 30
0.0
 11
190.8486946885878
 21
103.592043875299
 31
0.0
  0
LINE
  5
16AC
330
1E
100
AcDbEntity
  8
STEMPEL
100
AcDbLine
 10
188.5626946885878
 20
105.290043875299
 30
0.0
 11
187.3496946885878
 21
96.65504387529901
 31
0.0
  0
LINE
  5
16AD
330
1E
100
AcDbEntity
  8
STEMPEL
100
AcDbLine
 10
179.7996946885878
 20
107.605043875299
 30
0.0
 11
178.2606946885878
 21
96.65504387529901
 31
0.0
  0
LINE
  5
16AE
330
1E
100
AcDbEntity
  8
HILF
100
AcDbLine
 10
65.16569468858779
 20
106.925043875299
 30
0.0
 11
65.16569468858779
 21
104.155043875299
 31
0.0
  0
LINE
  5
16AF
330
1E
100
AcDbEntity
  8
HILF
100
AcDbLine
 10
108.9856946885878
 20
106.925043875299
 30
0.0
 11
65.16569468858779
 21
106.925043875299
 31
0.0
  0
LINE
  5
16B0
330
1E
100
AcDbEntity
  8
HILF
100
AcDbLine
 10
65.16569468858779
 20
116.385043875299
 30
0.0
 11
108.9856946885878
 21
116.385043875299
 31
0.0
  0
LINE
  5
16B1
330
1E
100
AcDbEntity
  8
HILF
100
AcDbLine
 10
65.16569468858779
 20
119.155043875299
 30
0.0
 11
65.16569468858779
 21
116.385043875299
 31
0.0
  0
LINE
  5
16B2
330
1E
100
AcDbEntity
  8
HILF
100
AcDbLine
 10
172.6606946885878
 20
106.925043875299
 30
0.0
 11
172.6606946885878
 21
104.155043875299
 31
0.0
  0
LINE
  5
16B3
330
1E
100
AcDbEntity
  8
HILF
100
AcDbLine
 10
128.2926946885878
 20
106.925043875299
 30
0.0
 11
172.6606946885878
 21
106.925043875299
 31
0.0
  0
LINE
  5
16B4
330
1E
100
AcDbEntity
  8
HILF
100
AcDbLine
 10
172.6606946885878
 20
116.385043875299
 30
0.0
 11
128.2926946885878
 21
116.385043875299
 31
0.0
  0
LINE
  5
16B5
330
1E
100
AcDbEntity
  8
HILF
100
AcDbLine
 10
172.6606946885878
 20
119.155043875299
 30
0.0
 11
172.6606946885878
 21
116.385043875299
 31
0.0
  0
LINE
  5
16B6
330
1E
100
AcDbEntity
  8
MITTEL
100
AcDbLine
 10
52.91369468858784
 20
100.155043875299
 30
0.0
 11
52.91369468858784
 21
123.155043875299
 31
0.0
  0
LINE
  5
16B7
330
1E
100
AcDbEntity
  8
MITTEL
100
AcDbLine
 10
118.9131946885878
 20
135.405043875299
 30
0.0
 11
118.9131946885878
 21
87.90504387529901
 31
0.0
  0
ARC
  5
16B8
330
1E
100
AcDbEntity
  8
HILF
100
AcDbCircle
 10
72.16569468858779
 20
111.655043875299
 30
0.0
 40
8.5
100
AcDbArc
 50
145.4396782200005
 51
214.5603217799995
  0
ARC
  5
16B9
330
1E
100
AcDbEntity
  8
HILF
100
AcDbCircle
 10
165.6606946885878
 20
111.655043875299
 30
0.0
 40
8.5
100
AcDbArc
 50
325.4396782200005
 51
34.56032177999951
  0
LINE
  5
16BA
330
1E
100
AcDbEntity
  8
STEMPEL
100
AcDbLine
 10
176.2656946885878
 20
126.655043875299
 30
0.0
 11
194.4946946885878
 21
126.655043875299
 31
0.0
  0
LINE
  5
16BB
330
1E
100
AcDbEntity
  8
STEMPEL
100
AcDbLine
 10
43.33269468858782
 20
126.655043875299
 30
0.0
 11
61.56069468858783
 21
126.655043875299
 31
0.0
  0
LINE
  5
16BC
330
1E
100
AcDbEntity
  8
STEMPEL
100
AcDbLine
 10
61.56069468858783
 20
96.65504387529901
 30
0.0
 11
43.33269468858782
 21
96.65504387529901
 31
0.0
  0
LINE
  5
16BD
330
1E
100
AcDbEntity
  8
STEMPEL
100
AcDbLine
 10
194.4946946885878
 20
96.65504387529901
 30
0.0
 11
176.2656946885878
 21
96.65504387529901
 31
0.0
  0
LINE
  5
16CD
330
1E
100
AcDbEntity
  8
MITTEL
100
AcDbLine
 10
118.9131946885878
 20
285.6436656113835
 30
0.0
 11
118.9131946885878
 21
148.6436656113835
 31
0.0
  0
DIMENSION
  5
16E5
330
1E
100
AcDbEntity
  8
BEM
100
AcDbDimension
  2
*D1
 10
184.9136946885878
 20
80.00066072972584
 30
0.0
 11
118.9136946885878
 21
83.25066072972584
 31
0.0
 70
    32
 71
     5
 42
132.0
  3
Standard
100
AcDbAlignedDimension
 13
52.91369468858784
 23
100.155043875299
 33
0.0
 14
184.9136946885878
 24
100.155043875299
 34
0.0
100
AcDbRotatedDimension
1001
ACAD
1000
DSTYLE
1002
{
1070
    41
1040
3.5
1070
    42
1040
1.0
1070
    43
1040
7.0
1070
    44
1040
1.0
1070
    73
1070
     0
1070
    74
1070
     0
1070
    77
1070
     1
1070
    78
1070
     8
1070
    79
1070
     2
1070
   140
1040
3.5
1070
   141
1040
1.5
1070
   146
1040
0.5142857142857144
1070
   147
1040
1.5
1070
   172
1070
     1
1070
   178
1070
     1
1070
   179
1070
     2
1070
   271
1070
     2
1070
   272
1070
     2
1070
   284
1070
     8
1070
   285
1070
     8
1070
   286
1070
     8
1002
}
  0
DIMENSION
  5
16F2
330
1E
100
AcDbEntity
  8
BEM
100
AcDbDimension
  2
*D2
 10
197.4136946885878
 20
71.44961269500277
 30
0.0
 11
118.9136946885878
 21
74.69961269500277
 31
0.0
 70
    32
 71
     5
 42
157.0
  3
Standard
100
AcDbAlignedDimension
 13
40.41369468858784
 23
111.655043875299
 33
0.0
 14
197.4136946885878
 24
111.655043875299
 34
0.0
100
AcDbRotatedDimension
1001
ACAD
1000
DSTYLE
1002
{
1070
    41
1040
3.5
1070
    42
1040
1.0
1070
    43
1040
7.0
1070
    44
1040
1.0
1070
    73
1070
     0
1070
    74
1070
     0
1070
    77
1070
     1
1070
    78
1070
     8
1070
    79
1070
     2
1070
   140
1040
3.5
1070
   141
1040
1.5
1070
   146
1040
0.5142857142857144
1070
   147
1040
1.5
1070
   172
1070
     1
1070
   178
1070
     1
1070
   179
1070
     2
1070
   271
1070
     2
1070
   272
1070
     2
1070
   284
1070
     8
1070
   285
1070
     8
1070
   286
1070
     8
1002
}
  0
DIMENSION
  5
1710
330
1E
100
AcDbEntity
  8
BEM
100
AcDbDimension
  2
*D3
 10
34.85035372443622
 20
223.8936656113835
 30
0.0
 11
31.60035372443618
 21
233.3269989447169
 31
0.0
 70
    32
 71
     5
 42
3.0
  3
Standard
100
AcDbAlignedDimension
 13
40.43519468858787
 23
220.8936656113835
 33
0.0
 14
40.43519468858787
 24
223.8936656113835
 34
0.0
 50
90.0
100
AcDbRotatedDimension
1001
ACAD
1000
DSTYLE
1002
{
1070
    41
1040
3.5
1070
    42
1040
1.0
1070
    43
1040
7.0
1070
    44
1040
1.0
1070
    73
1070
     0
1070
    74
1070
     0
1070
    77
1070
     1
1070
    78
1070
     8
1070
    79
1070
     2
1070
   140
1040
3.5
1070
   141
1040
1.5
1070
   146
1040
0.5142857142857144
1070
   147
1040
1.5
1070
   172
1070
     1
1070
   178
1070
     1
1070
   179
1070
     2
1070
   271
1070
     2
1070
   272
1070
     2
1070
   284
1070
     8
1070
   285
1070
     8
1070
   286
1070
     8
1002
}
  0
DIMENSION
  5
171F
330
1E
100
AcDbEntity
  8
BEM
100
AcDbDimension
  2
*D4
 10
27.88537338895037
 20
153.6436656113835
 30
0.0
 11
24.63537338895035
 21
217.1436656113836
 31
0.0
 70
    32
 71
     5
 42
127.0
  3
Standard
100
AcDbAlignedDimension
 13
118.9131946885878
 23
280.6436656113835
 33
0.0
 14
111.7161946885878
 24
153.6436656113835
 34
0.0
 50
90.0
100
AcDbRotatedDimension
1001
ACAD
1000
DSTYLE
1002
{
1070
    41
1040
3.5
1070
    42
1040
1.0
1070
    43
1040
7.0
1070
    44
1040
1.0
1070
    73
1070
     0
1070
    74
1070
     0
1070
    77
1070
     1
1070
    78
1070
     8
1070
    79
1070
     2
1070
   140
1040
3.5
1070
   141
1040
1.5
1070
   146
1040
0.5142857142857144
1070
   147
1040
1.5
1070
   172
1070
     1
1070
   178
1070
     1
1070
   179
1070
     2
1070
   271
1070
     2
1070
   272
1070
     2
1070
   284
1070
     8
1070
   285
1070
     8
1070
   286
1070
     8
1002
}
  0
DIMENSION
  5
177A
330
1E
100
AcDbEntity
  8
BEM
100
AcDbDimension
  2
*D5
 10
150.5463116082913
 20
263.0336041166506
 30
0.0
 11
133.6928697260293
 21
241.4621822057969
 31
0.0
 70
   160
  1
%%c<>
 71
     5
 42
103.0
  3
Standard
100
AcDbAlignedDimension
 13
87.20662870931642
 23
181.8111118006374
 33
0.0
 14
150.6197606678592
 24
262.9762194221297
 34
0.0
 50
52.00000000000028
100
AcDbRotatedDimension
1001
ACAD
1000
DSTYLE
1002
{
1070
    41
1040
3.5
1070
    42
1040
1.0
1070
    43
1040
7.0
1070
    44
1040
1.0
1070
    73
1070
     0
1070
    74
1070
     0
1070
    77
1070
     1
1070
    78
1070
     8
1070
    79
1070
     2
1070
   140
1040
3.5
1070
   141
1040
1.5
1070
   146
1040
0.5142857142857144
1070
   147
1040
1.5
1070
   172
1070
     1
1070
   178
1070
     1
1070
   179
1070
     2
1070
   271
1070
     2
1070
   272
1070
     2
1070
   284
1070
     8
1070
   285
1070
     8
1070
   286
1070
     8
1002
}
  0
TEXT
  5
17C1
330
1E
100
AcDbEntity
  8
TEXT
 62
     1
100
AcDbText
 10
113.9182761339558
 20
57.82028541582997
 30
0.0
 40
3.5
  1
Werkstoff: St37 Dickschichtpassiviert
 41
0.8
  7
GREEKS
100
AcDbText
  0
DIMENSION
  5
17CB
330
1E
100
AcDbEntity
  8
BEM
100
AcDbDimension
  2
*D6
 10
29.91534593402423
 20
96.65504387532651
 30
0.0
 11
26.66534593402421
 21
111.6550438753128
 31
0.0
 70
    32
 71
     5
 42
29.99999999997255
  3
Standard
100
AcDbAlignedDimension
 13
43.33269468858782
 23
126.655043875299
 33
0.0
 14
43.33270225309841
 24
96.65504387532649
 34
0.0
 50
90.0
100
AcDbRotatedDimension
1001
ACAD
1000
DSTYLE
1002
{
1070
    41
1040
3.5
1070
    42
1040
1.0
1070
    43
1040
7.0
1070
    44
1040
1.0
1070
    73
1070
     0
1070
    74
1070
     0
1070
    77
1070
     1
1070
    78
1070
     8
1070
    79
1070
     2
1070
   140
1040
3.5
1070
   141
1040
1.5
1070
   146
1040
0.5142857142857144
1070
   147
1040
1.5
1070
   172
1070
     1
1070
   178
1070
     1
1070
   179
1070
     2
1070
   271
1070
     2
1070
   272
1070
     2
1070
   284
1070
     8
1070
   285
1070
     8
1070
   286
1070
     8
1002
}
  0
ENDSEC
  0
SECTION
  2
OBJECTS
  0
DICTIONARY
  5
C
330
0
100
AcDbDictionary
281
     1
  3
ACAD_COLOR
350
DF
  3
ACAD_GROUP
350
D
  3
ACAD_LAYOUT
350
19
  3
ACAD_MATERIAL
350
DE
  3
ACAD_MLINESTYLE
350
16
  3
ACAD_PLOTSETTINGS
350
18
  3
ACAD_PLOTSTYLENAME
350
E
  3
AcDbVariableDictionary
350
EA
  0
DICTIONARY
  5
A0
330
1E
100
AcDbDictionary
280
     1
281
     1
  3
ACAD_LAYOUTSELFREF
360
D4
  0
DICTIONARY
  5
A2
330
1A
100
AcDbDictionary
280
     1
281
     1
  3
ACAD_LAYOUTSELFREF
360
D3
  0
DICTIONARY
  5
DF
102
{ACAD_REACTORS
330
C
102
}
330
C
100
AcDbDictionary
281
     1
  0
DICTIONARY
  5
D
102
{ACAD_REACTORS
330
C
102
}
330
C
100
AcDbDictionary
281
     1
  0
DICTIONARY
  5
19
102
{ACAD_REACTORS
330
C
102
}
330
C
100
AcDbDictionary
281
     1
  3
Layout1
350
1D
  3
Model
350
21
  0
DICTIONARY
  5
DE
102
{ACAD_REACTORS
330
C
102
}
330
C
100
AcDbDictionary
281
     1
  0
DICTIONARY
  5
16
102
{ACAD_REACTORS
330
C
102
}
330
C
100
AcDbDictionary
281
     1
  3
Standard
350
17
  0
DICTIONARY
  5
18
102
{ACAD_REACTORS
330
C
102
}
330
C
100
AcDbDictionary
281
     1
  0
ACDBDICTIONARYWDFLT
  5
E
102
{ACAD_REACTORS
330
C
102
}
330
C
100
AcDbDictionary
281
     1
  3
Normal
350
F
100
AcDbDictionaryWithDefault
340
F
  0
DICTIONARY
  5
EA
102
{ACAD_REACTORS
330
C
102
}
330
C
100
AcDbDictionary
281
     1
  3
DIMASSOC
350
EB
  3
PROJECTNAME
350
EC
  0
XRECORD
  5
D4
102
{ACAD_REACTORS
330
A0
102
}
330
A0
100
AcDbXrecord
280
     1
340
1E
  0
XRECORD
  5
D3
102
{ACAD_REACTORS
330
A2
102
}
330
A2
100
AcDbXrecord
280
     1
340
1A
  0
LAYOUT
  5
1D
102
{ACAD_REACTORS
330
19
102
}
330
19
100
AcDbPlotSettings
  1

  2
\\NT_WORK01\HP LaserJet 5000 PCL 6
  4

  6

 40
0.0
 41
0.0
 42
0.0
 43
0.0
 44
0.0
 45
0.0
 46
0.0
 47
0.0
 48
0.0
 49
0.0
140
0.0
141
0.0
142
1.0
143
1.0
 70
   688
 72
     0
 73
     0
 74
     5
  7

 75
    16
147
1.0
 76
     0
 77
     2
 78
   300
148
0.0
149
0.0
100
AcDbLayout
  1
Layout1
 70
     0
 71
     1
 10
0.0
 20
0.0
 11
12.0
 21
9.0
 12
0.0
 22
0.0
 32
0.0
 14
1.000000000000000E+20
 24
1.000000000000000E+20
 34
1.000000000000000E+20
 15
-1.000000000000000E+20
 25
-1.000000000000000E+20
 35
-1.000000000000000E+20
146
0.0
 13
0.0
 23
0.0
 33
0.0
 16
1.0
 26
0.0
 36
0.0
 17
0.0
 27
1.0
 37
0.0
 76
     0
330
1A
  0
LAYOUT
  5
21
102
{ACAD_REACTORS
330
19
102
}
330
19
100
AcDbPlotSettings
  1

  2
none_device
  4
Letter_(8.50_x_11.00_Inches)
  6

 40
6.349999904632568
 41
6.349999904632568
 42
6.350006103515625
 43
6.350006103515625
 44
215.8999938964844
 45
279.3999938964844
 46
0.0
 47
0.0
 48
0.0
 49
0.0
140
0.0
141
0.0
142
1.0
143
1.0
 70
 11952
 72
     0
 73
     1
 74
     0
  7

 75
     0
147
1.0
 76
     0
 77
     2
 78
   300
148
-230.4417396561563
149
47.00486644638983
100
AcDbLayout
  1
Model
 70
     1
 71
     0
 10
0.0
 20
0.0
 11
12.0
 21
9.0
 12
0.0
 22
0.0
 32
0.0
 14
0.0
 24
0.0
 34
0.0
 15
0.0
 25
0.0
 35
0.0
146
0.0
 13
0.0
 23
0.0
 33
0.0
 16
1.0
 26
0.0
 36
0.0
 17
0.0
 27
1.0
 37
0.0
 76
     0
330
1E
  0
MLINESTYLE
  5
17
102
{ACAD_REACTORS
330
16
102
}
330
16
100
AcDbMlineStyle
  2
STANDARD
 70
     0
  3

 62
   256
 51
90.0
 52
90.0
 71
     2
 49
0.5
 62
   256
  6
BYLAYER
 49
-0.5
 62
   256
  6
BYLAYER
  0
ACDBPLACEHOLDER
  5
F
102
{ACAD_REACTORS
330
E
102
}
330
E
  0
DICTIONARYVAR
  5
EB
102
{ACAD_REACTORS
330
EA
102
}
330
EA
100
DictionaryVariables
280
     0
  1
1
  0
DICTIONARYVAR
  5
EC
102
{ACAD_REACTORS
330
EA
102
}
330
EA
100
DictionaryVariables
280
     0
  1

  0
ENDSEC
  0
EOF
