  0
SECTION
  2
HEADER
  9
$ACADVER
  1
AC1018
  9
$ACADMAINTVER
 70
     2
  9
$DWGCODEPAGE
  3
ANSI_1252
  9
$INSBASE
 10
0.0
 20
0.0
 30
0.0
  9
$EXTMIN
 10
-0.0064082024694017
 20
-0.0090630292066862
 30
-0.0015258207003583
  9
$EXTMAX
 10
210.006409180358
 20
297.0090644122208
 30
0.0000000349246037
  9
$LIMMIN
 10
0.0
 20
0.0
  9
$LIMMAX
 10
210.0
 20
297.0
  9
$ORTHOMODE
 70
     1
  9
$REGENMODE
 70
     1
  9
$FILLMODE
 70
     1
  9
$QTEXTMODE
 70
     0
  9
$MIRRTEXT
 70
     1
  9
$LTSCALE
 40
10.0
  9
$ATTMODE
 70
     1
  9
$TEXTSIZE
 40
2.5
  9
$TRACEWID
 40
0.5
  9
$TEXTSTYLE
  7
GREEKS
  9
$CLAYER
  8
BEM
  9
$CELTYPE
  6
ByLayer
  9
$CECOLOR
 62
   256
  9
$CELTSCALE
 40
1.0
  9
$DISPSILH
 70
     0
  9
$DIMSCALE
 40
1.0
  9
$DIMASZ
 40
3.5
  9
$DIMEXO
 40
1.0
  9
$DIMDLI
 40
7.0
  9
$DIMRND
 40
0.0
  9
$DIMDLE
 40
0.0
  9
$DIMEXE
 40
1.0
  9
$DIMTP
 40
0.0
  9
$DIMTM
 40
0.0
  9
$DIMTXT
 40
3.5
  9
$DIMCEN
 40
1.5
  9
$DIMTSZ
 40
0.0
  9
$DIMTOL
 70
     0
  9
$DIMLIM
 70
     0
  9
$DIMTIH
 70
     0
  9
$DIMTOH
 70
     0
  9
$DIMSE1
 70
     0
  9
$DIMSE2
 70
     0
  9
$DIMTAD
 70
     1
  9
$DIMZIN
 70
     8
  9
$DIMBLK
  1

  9
$DIMASO
 70
     1
  9
$DIMSHO
 70
     0
  9
$DIMPOST
  1

  9
$DIMAPOST
  1

  9
$DIMALT
 70
     0
  9
$DIMALTD
 70
     2
  9
$DIMALTF
 40
25.4
  9
$DIMLFAC
 40
1.0
  9
$DIMTOFL
 70
     1
  9
$DIMTVP
 40
0.0
  9
$DIMTIX
 70
     0
  9
$DIMSOXD
 70
     0
  9
$DIMSAH
 70
     0
  9
$DIMBLK1
  1

  9
$DIMBLK2
  1

  9
$DIMSTYLE
  2
Standard
  9
$DIMCLRD
 70
     0
  9
$DIMCLRE
 70
     0
  9
$DIMCLRT
 70
     1
  9
$DIMTFAC
 40
0.5142857142857144
  9
$DIMGAP
 40
1.5
  9
$DIMJUST
 70
     0
  9
$DIMSD1
 70
     0
  9
$DIMSD2
 70
     0
  9
$DIMTOLJ
 70
     1
  9
$DIMTZIN
 70
     8
  9
$DIMALTZ
 70
     8
  9
$DIMALTTZ
 70
     8
  9
$DIMUPT
 70
     0
  9
$DIMDEC
 70
     2
  9
$DIMTDEC
 70
     2
  9
$DIMALTU
 70
     2
  9
$DIMALTTD
 70
     2
  9
$DIMTXSTY
  7
STANDARD
  9
$DIMAUNIT
 70
     0
  9
$DIMADEC
 70
     2
  9
$DIMALTRND
 40
0.0
  9
$DIMAZIN
 70
     2
  9
$DIMDSEP
 70
    46
  9
$DIMATFIT
 70
     3
  9
$DIMFRAC
 70
     0
  9
$DIMLDRBLK
  1

  9
$DIMLUNIT
 70
     2
  9
$DIMLWD
 70
    -2
  9
$DIMLWE
 70
    -2
  9
$DIMTMOVE
 70
     0
  9
$LUNITS
 70
     2
  9
$LUPREC
 70
     2
  9
$SKETCHINC
 40
1.0
  9
$FILLETRAD
 40
15.0
  9
$AUNITS
 70
     0
  9
$AUPREC
 70
     0
  9
$MENU
  1
ACAD
  9
$ELEVATION
 40
0.0
  9
$PELEVATION
 40
0.0
  9
$THICKNESS
 40
0.0
  9
$LIMCHECK
 70
     0
  9
$CHAMFERA
 40
0.0
  9
$CHAMFERB
 40
0.0
  9
$CHAMFERC
 40
0.0
  9
$CHAMFERD
 40
0.0
  9
$SKPOLY
 70
     0
  9
$TDCREATE
 40
2455397.823042361
  9
$TDUCREATE
 40
2455397.781375695
  9
$TDUPDATE
 40
2456230.300463148
  9
$TDUUPDATE
 40
2456230.258796481
  9
$TDINDWG
 40
0.1742869329
  9
$TDUSRTIMER
 40
0.1742869329
  9
$USRTIMER
 70
     1
  9
$ANGBASE
 50
0.0
  9
$ANGDIR
 70
     0
  9
$PDMODE
 70
     0
  9
$PDSIZE
 40
0.0
  9
$PLINEWID
 40
0.0
  9
$SPLFRAME
 70
     0
  9
$SPLINETYPE
 70
     6
  9
$SPLINESEGS
 70
     8
  9
$HANDSEED
  5
D71
  9
$SURFTAB1
 70
     6
  9
$SURFTAB2
 70
     6
  9
$SURFTYPE
 70
     6
  9
$SURFU
 70
     6
  9
$SURFV
 70
     6
  9
$UCSBASE
  2

  9
$UCSNAME
  2

  9
$UCSORG
 10
0.0
 20
0.0
 30
0.0
  9
$UCSXDIR
 10
1.0
 20
0.0
 30
0.0
  9
$UCSYDIR
 10
0.0
 20
1.0
 30
0.0
  9
$UCSORTHOREF
  2

  9
$UCSORTHOVIEW
 70
     0
  9
$UCSORGTOP
 10
0.0
 20
0.0
 30
0.0
  9
$UCSORGBOTTOM
 10
0.0
 20
0.0
 30
0.0
  9
$UCSORGLEFT
 10
0.0
 20
0.0
 30
0.0
  9
$UCSORGRIGHT
 10
0.0
 20
0.0
 30
0.0
  9
$UCSORGFRONT
 10
0.0
 20
0.0
 30
0.0
  9
$UCSORGBACK
 10
0.0
 20
0.0
 30
0.0
  9
$PUCSBASE
  2

  9
$PUCSNAME
  2

  9
$PUCSORG
 10
0.0
 20
0.0
 30
0.0
  9
$PUCSXDIR
 10
1.0
 20
0.0
 30
0.0
  9
$PUCSYDIR
 10
0.0
 20
1.0
 30
0.0
  9
$PUCSORTHOREF
  2

  9
$PUCSORTHOVIEW
 70
     0
  9
$PUCSORGTOP
 10
0.0
 20
0.0
 30
0.0
  9
$PUCSORGBOTTOM
 10
0.0
 20
0.0
 30
0.0
  9
$PUCSORGLEFT
 10
0.0
 20
0.0
 30
0.0
  9
$PUCSORGRIGHT
 10
0.0
 20
0.0
 30
0.0
  9
$PUCSORGFRONT
 10
0.0
 20
0.0
 30
0.0
  9
$PUCSORGBACK
 10
0.0
 20
0.0
 30
0.0
  9
$USERI1
 70
     0
  9
$USERI2
 70
     0
  9
$USERI3
 70
     0
  9
$USERI4
 70
     0
  9
$USERI5
 70
     0
  9
$USERR1
 40
0.0
  9
$USERR2
 40
0.0
  9
$USERR3
 40
0.0
  9
$USERR4
 40
0.0
  9
$USERR5
 40
0.0
  9
$WORLDVIEW
 70
     1
  9
$SHADEDGE
 70
     3
  9
$SHADEDIF
 70
    70
  9
$TILEMODE
 70
     1
  9
$MAXACTVP
 70
    16
  9
$PINSBASE
 10
0.0
 20
0.0
 30
0.0
  9
$PLIMCHECK
 70
     0
  9
$PEXTMIN
 10
1.000000000000000E+20
 20
1.000000000000000E+20
 30
1.000000000000000E+20
  9
$PEXTMAX
 10
-1.000000000000000E+20
 20
-1.000000000000000E+20
 30
-1.000000000000000E+20
  9
$PLIMMIN
 10
0.0
 20
0.0
  9
$PLIMMAX
 10
12.0
 20
9.0
  9
$UNITMODE
 70
     0
  9
$VISRETAIN
 70
     0
  9
$PLINEGEN
 70
     0
  9
$PSLTSCALE
 70
     0
  9
$TREEDEPTH
 70
  3020
  9
$CMLSTYLE
  2
Standard
  9
$CMLJUST
 70
     0
  9
$CMLSCALE
 40
1.0
  9
$PROXYGRAPHICS
 70
     1
  9
$MEASUREMENT
 70
     0
  9
$CELWEIGHT
370
    -1
  9
$ENDCAPS
280
     0
  9
$JOINSTYLE
280
     0
  9
$LWDISPLAY
290
     0
  9
$INSUNITS
 70
     0
  9
$HYPERLINKBASE
  1

  9
$STYLESHEET
  1
monochrome 1.ctb
  9
$XEDIT
290
     1
  9
$CEPSNTYPE
380
     0
  9
$PSTYLEMODE
290
     1
  9
$FINGERPRINTGUID
  2
{D68B0D02-A558-11D7-B632-000102183313}
  9
$VERSIONGUID
  2
{FBF3BD62-412F-43B4-ADF5-63973AAA55FD}
  9
$EXTNAMES
290
     1
  9
$PSVPSCALE
 40
0.0
  9
$OLESTARTUP
290
     0
  9
$SORTENTS
280
   127
  9
$INDEXCTL
280
     0
  9
$HIDETEXT
280
     0
  9
$XCLIPFRAME
290
     0
  9
$HALOGAP
280
     0
  9
$OBSCOLOR
 70
   257
  9
$OBSLTYPE
280
     0
  9
$INTERSECTIONDISPLAY
280
     0
  9
$INTERSECTIONCOLOR
 70
   257
  9
$DIMASSOC
280
     1
  9
$PROJECTNAME
  1

  0
ENDSEC
  0
SECTION
  2
CLASSES
  0
CLASS
  1
ACDBDICTIONARYWDFLT
  2
AcDbDictionaryWithDefault
  3
ObjectDBX Classes
 90
        0
 91
        1
280
     0
281
     0
  0
CLASS
  1
DICTIONARYVAR
  2
AcDbDictionaryVar
  3
ObjectDBX Classes
 90
        0
 91
        2
280
     0
281
     0
  0
ENDSEC
  0
SECTION
  2
TABLES
  0
TABLE
  2
VPORT
  5
8
330
0
100
AcDbSymbolTable
 70
     3
  0
VPORT
  5
D70
330
8
100
AcDbSymbolTableRecord
100
AcDbViewportTableRecord
  2
*Active
 70
     0
 10
0.0
 20
0.0
 11
1.0
 21
1.0
 12
104.9999999999999
 22
148.5
 13
0.0
 23
0.0
 14
1.0
 24
1.0
 15
10.0
 25
10.0
 16
0.0
 26
0.0
 36
1.0
 17
0.0
 27
0.0
 37
0.0
 40
297.2631477178499
 41
1.404858299595141
 42
50.0
 43
0.0
 44
0.0
 50
0.0
 51
0.0
 71
     0
 72
  1500
 73
     1
 74
     0
 75
     0
 76
     0
 77
     0
 78
     0
281
     0
 65
     1
110
0.0
120
0.0
130
0.0
111
1.0
121
0.0
131
0.0
112
0.0
122
1.0
132
0.0
 79
     0
146
0.0
  0
ENDTAB
  0
TABLE
  2
LTYPE
  5
5
330
0
100
AcDbSymbolTable
 70
     2
  0
LTYPE
  5
13
330
5
100
AcDbSymbolTableRecord
100
AcDbLinetypeTableRecord
  2
ByBlock
 70
     0
  3

 72
    65
 73
     0
 40
0.0
  0
LTYPE
  5
14
330
5
100
AcDbSymbolTableRecord
100
AcDbLinetypeTableRecord
  2
ByLayer
 70
     0
  3

 72
    65
 73
     0
 40
0.0
  0
LTYPE
  5
15
330
5
100
AcDbSymbolTableRecord
100
AcDbLinetypeTableRecord
  2
Continuous
 70
     0
  3
Solid line
 72
    65
 73
     0
 40
0.0
  0
LTYPE
  5
25
330
5
100
AcDbSymbolTableRecord
100
AcDbLinetypeTableRecord
  2
STRICHPUNKT
 70
     0
  3
__ . __ . __ . __ . __ . __ . __ . __ . __ . __
 72
    65
 73
     4
 40
1.0
 49
0.5
 74
     0
 49
-0.25
 74
     0
 49
0.0
 74
     0
 49
-0.25
 74
     0
  0
ENDTAB
  0
TABLE
  2
LAYER
  5
2
330
0
100
AcDbSymbolTable
 70
     8
  0
LAYER
  5
10
330
2
100
AcDbSymbolTableRecord
100
AcDbLayerTableRecord
  2
0
 70
     0
 62
     7
  6
Continuous
370
    -3
390
F
  0
LAYER
  5
2A
330
2
100
AcDbSymbolTableRecord
100
AcDbLayerTableRecord
  2
VOLL
 70
     0
 62
     1
  6
Continuous
370
    -3
390
F
  0
LAYER
  5
2B
330
2
100
AcDbSymbolTableRecord
100
AcDbLayerTableRecord
  2
HILF
 70
     0
 62
     2
  6
Continuous
370
    -3
390
F
  0
LAYER
  5
2C
330
2
100
AcDbSymbolTableRecord
100
AcDbLayerTableRecord
  2
MITTEL
 70
     0
 62
     2
  6
STRICHPUNKT
370
    -3
390
F
  0
LAYER
  5
2F
330
2
100
AcDbSymbolTableRecord
100
AcDbLayerTableRecord
  2
BEM
 70
     0
 62
     7
  6
Continuous
370
    -3
390
F
  0
LAYER
  5
30
330
2
100
AcDbSymbolTableRecord
100
AcDbLayerTableRecord
  2
STEMPEL
 70
     0
 62
     3
  6
Continuous
370
    -3
390
F
  0
LAYER
  5
31
330
2
100
AcDbSymbolTableRecord
100
AcDbLayerTableRecord
  2
TEXT
 70
     0
 62
     7
  6
Continuous
370
    -3
390
F
  0
LAYER
  5
1A8
330
2
100
AcDbSymbolTableRecord
100
AcDbLayerTableRecord
  2
Defpoints
 70
     0
 62
     7
  6
Continuous
290
     0
370
    -3
390
F
  0
ENDTAB
  0
TABLE
  2
STYLE
  5
3
330
0
100
AcDbSymbolTable
 70
     2
  0
STYLE
  5
11
330
3
100
AcDbSymbolTableRecord
100
AcDbTextStyleTableRecord
  2
STANDARD
 70
     0
 40
0.0
 41
0.8
 50
0.0
 71
     0
 42
3.5
  3
simplex.shx
  4

  0
STYLE
  5
24
330
3
100
AcDbSymbolTableRecord
100
AcDbTextStyleTableRecord
  2
GREEKS
 70
     0
 40
0.0
 41
0.8
 50
0.0
 71
     0
 42
2.5
  3
SIMPLEX.shx
  4

  0
ENDTAB
  0
TABLE
  2
VIEW
  5
6
330
0
100
AcDbSymbolTable
 70
     0
  0
ENDTAB
  0
TABLE
  2
UCS
  5
7
330
0
100
AcDbSymbolTable
 70
     0
  0
ENDTAB
  0
TABLE
  2
APPID
  5
9
330
0
100
AcDbSymbolTable
 70
     1
  0
APPID
  5
12
330
9
100
AcDbSymbolTableRecord
100
AcDbRegAppTableRecord
  2
ACAD
 70
     0
  0
ENDTAB
  0
TABLE
  2
DIMSTYLE
  5
A
330
0
100
AcDbSymbolTable
 70
     1
100
AcDbDimStyleTable
 71
     1
340
9D
  0
DIMSTYLE
105
9D
102
{ACAD_REACTORS
330
C96
330
CA3
330
CBA
330
CC9
330
CFD
330
D5A
102
}
330
A
100
AcDbSymbolTableRecord
100
AcDbDimStyleTableRecord
  2
Standard
 70
     0
340
11
  0
ENDTAB
  0
TABLE
  2
BLOCK_RECORD
  5
1
330
0
100
AcDbSymbolTable
 70
     7
  0
BLOCK_RECORD
  5
1E
102
{ACAD_XDICTIONARY
360
A0
102
}
330
1
100
AcDbSymbolTableRecord
100
AcDbBlockTableRecord
  2
*Model_Space
340
21
  0
BLOCK_RECORD
  5
1A
102
{ACAD_XDICTIONARY
360
A2
102
}
330
1
100
AcDbSymbolTableRecord
100
AcDbBlockTableRecord
  2
*Paper_Space
340
1D
  0
BLOCK_RECORD
  5
22
330
1
100
AcDbSymbolTableRecord
100
AcDbBlockTableRecord
  2
LOGO
340
0
102
{BLKREFS
331
9B
102
}
  0
BLOCK_RECORD
  5
C97
330
1
100
AcDbSymbolTableRecord
100
AcDbBlockTableRecord
  2
*D1
340
0
  0
BLOCK_RECORD
  5
CA4
330
1
100
AcDbSymbolTableRecord
100
AcDbBlockTableRecord
  2
*D2
340
0
  0
BLOCK_RECORD
  5
CBB
330
1
100
AcDbSymbolTableRecord
100
AcDbBlockTableRecord
  2
*D3
340
0
  0
BLOCK_RECORD
  5
CCA
330
1
100
AcDbSymbolTableRecord
100
AcDbBlockTableRecord
  2
*D4
340
0
  0
BLOCK_RECORD
  5
CFE
330
1
100
AcDbSymbolTableRecord
100
AcDbBlockTableRecord
  2
*D5
340
0
  0
BLOCK_RECORD
  5
D5B
330
1
100
AcDbSymbolTableRecord
100
AcDbBlockTableRecord
  2
*D6
340
0
  0
ENDTAB
  0
ENDSEC
  0
SECTION
  2
BLOCKS
  0
BLOCK
  5
35
330
1E
100
AcDbEntity
  8
0
100
AcDbBlockBegin
  2
*Model_Space
 70
     0
 10
0.0
 20
0.0
 30
0.0
  3
*Model_Space
  1

  0
ENDBLK
  5
36
330
1E
100
AcDbEntity
  8
0
100
AcDbBlockEnd
  0
BLOCK
  5
33
330
1A
100
AcDbEntity
 67
     1
  8
0
100
AcDbBlockBegin
  2
*Paper_Space
 70
     0
 10
0.0
 20
0.0
 30
0.0
  3
*Paper_Space
  1

  0
ENDBLK
  5
34
330
1A
100
AcDbEntity
 67
     1
  8
0
100
AcDbBlockEnd
  0
BLOCK
  5
37
330
22
100
AcDbEntity
  8
0
100
AcDbBlockBegin
  2
LOGO
 70
     0
 10
0.0
 20
0.0
 30
0.0
  3
LOGO
  1

  0
ARC
  5
38
330
22
100
AcDbEntity
  8
0
100
AcDbCircle
 10
11.59973089678112
 20
-9.271599258481501
 30
0.0
 40
4.5
100
AcDbArc
 50
270.0
 51
231.0575587310159
  0
LINE
  5
39
330
22
100
AcDbEntity
  8
0
100
AcDbLine
 10
3.599730896781125
 20
-4.771599258481529
 30
0.0
 11
3.599730896781153
 21
-11.77159925848133
 31
0.0
  0
LINE
  5
3A
330
22
100
AcDbEntity
  8
0
100
AcDbLine
 10
2.599730896781125
 20
-4.771599258481529
 30
0.0
 11
2.599730896781153
 21
-11.77159925848133
 31
0.0
  0
CIRCLE
  5
3B
330
22
100
AcDbEntity
  8
0
100
AcDbCircle
 10
11.59973089678112
 20
-9.271599258481501
 30
0.0
 40
3.5
  0
ARC
  5
3C
330
22
100
AcDbEntity
  8
0
100
AcDbCircle
 10
31.59973089678115
 20
-9.271599258481472
 30
0.0
 40
4.5
100
AcDbArc
 50
270.0
 51
231.0575587310182
  0
LINE
  5
3D
330
22
100
AcDbEntity
  8
0
100
AcDbLine
 10
17.59973089678112
 20
-4.771599258481472
 30
0.0
 11
17.59973089678115
 21
-13.77159925848147
 31
0.0
  0
ARC
  5
3E
330
22
100
AcDbEntity
  8
0
100
AcDbCircle
 10
22.59973089678116
 20
-7.271599258481472
 30
0.0
 40
2.5
100
AcDbArc
 50
293.1161887722295
 51
90.0
  0
CIRCLE
  5
3F
330
22
100
AcDbEntity
  8
0
100
AcDbCircle
 10
31.59973089678115
 20
-9.271599258481472
 30
0.0
 40
3.5
  0
ARC
  5
40
330
22
100
AcDbEntity
  8
0
100
AcDbCircle
 10
4.599730896781153
 20
-11.77159925848133
 30
0.0
 40
1.0
100
AcDbArc
 50
180.0
 51
270.0
  0
ARC
  5
41
330
22
100
AcDbEntity
  8
0
100
AcDbCircle
 10
4.599730896781153
 20
-11.77159925848133
 30
0.0
 40
2.0
100
AcDbArc
 50
179.9999999999992
 51
270.0
  0
LINE
  5
42
330
22
100
AcDbEntity
  8
0
100
AcDbLine
 10
11.59973089678115
 20
-13.77159925848144
 30
0.0
 11
4.599730896781153
 21
-13.77159925848147
 31
0.0
  0
LINE
  5
43
330
22
100
AcDbEntity
  8
0
100
AcDbLine
 10
8.771303772034769
 20
-12.77159925848136
 30
0.0
 11
4.599730896781153
 21
-12.77159925848133
 31
0.0
  0
LINE
  5
44
330
22
100
AcDbEntity
  8
0
100
AcDbLine
 10
31.59973089678115
 20
-13.77159925848147
 30
0.0
 11
23.6715276665056
 21
-13.77159925848144
 31
0.0
  0
LINE
  5
45
330
22
100
AcDbEntity
  8
0
100
AcDbLine
 10
23.56565672307022
 20
-9.51278021337896
 30
0.0
 11
24.4388546544846
 21
-12.77159925848144
 31
0.0
  0
LINE
  5
46
330
22
100
AcDbEntity
  8
0
100
AcDbLine
 10
22.59973089678116
 20
-9.771599258481472
 30
0.0
 11
18.59973089678112
 21
-9.771599258481472
 31
0.0
  0
LINE
  5
47
330
22
100
AcDbEntity
  8
0
100
AcDbLine
 10
18.59973089678115
 20
-13.77159925848144
 30
0.0
 11
17.59973089678115
 21
-13.77159925848144
 31
0.0
  0
LINE
  5
48
330
22
100
AcDbEntity
  8
0
100
AcDbLine
 10
18.59973089678115
 20
-9.771599258481472
 30
0.0
 11
18.59973089678115
 21
-13.77159925848144
 31
0.0
  0
LINE
  5
49
330
22
100
AcDbEntity
  8
0
100
AcDbLine
 10
22.59973089678116
 20
-9.771599258481472
 30
0.0
 11
23.67152766650562
 21
-13.77159925848147
 31
0.0
  0
ARC
  5
4A
330
22
100
AcDbEntity
  8
0
100
AcDbCircle
 10
22.59973089678116
 20
-7.271599258481472
 30
0.0
 40
2.5
100
AcDbArc
 50
270.0
 51
270.0000000000007
  0
LINE
  5
4B
330
22
100
AcDbEntity
  8
0
100
AcDbLine
 10
28.77130377203494
 20
-12.77159925848147
 30
0.0
 11
24.43885465448463
 21
-12.77159925848144
 31
0.0
  0
LINE
  5
4C
330
22
100
AcDbEntity
  8
0
100
AcDbLine
 10
3.599730896781125
 20
-4.771599258481472
 30
0.0
 11
2.599730896781125
 21
-4.771599258481472
 31
0.0
  0
LINE
  5
4D
330
22
100
AcDbEntity
  8
0
100
AcDbLine
 10
22.59973089678116
 20
-8.771599258481472
 30
0.0
 11
18.59973089678115
 21
-8.771599258481472
 31
0.0
  0
LINE
  5
4E
330
22
100
AcDbEntity
  8
0
100
AcDbLine
 10
22.59973089678116
 20
-5.771599258481472
 30
0.0
 11
18.59973089678115
 21
-5.771599258481472
 31
0.0
  0
LINE
  5
4F
330
22
100
AcDbEntity
  8
0
100
AcDbLine
 10
22.59973089678116
 20
-4.771599258481472
 30
0.0
 11
17.59973089678115
 21
-4.771599258481472
 31
0.0
  0
LINE
  5
50
330
22
100
AcDbEntity
  8
0
100
AcDbLine
 10
18.59973089678115
 20
-5.771599258481472
 30
0.0
 11
18.59973089678115
 21
-8.771599258481472
 31
0.0
  0
ARC
  5
51
330
22
100
AcDbEntity
  8
0
100
AcDbCircle
 10
22.59973089678116
 20
-7.271599258481472
 30
0.0
 40
1.5
100
AcDbArc
 50
270.0
 51
90.0
  0
ENDBLK
  5
52
330
22
100
AcDbEntity
  8
0
100
AcDbBlockEnd
  0
BLOCK
  5
CA1
330
C97
100
AcDbEntity
  8
0
100
AcDbBlockBegin
  2
*D1
 70
     1
 10
0.0
 20
0.0
 30
0.0
  3
*D1
  1

  0
LINE
  5
CF3
330
C97
100
AcDbEntity
  8
BEM
 62
     0
370
    -2
100
AcDbLine
 10
66.04211947679335
 20
115.9126085336389
 30
0.0
 11
66.04211947679335
 21
99.36630441637499
 31
0.0
  0
LINE
  5
CF4
330
C97
100
AcDbEntity
  8
BEM
 62
     0
370
    -2
100
AcDbLine
 10
148.0421194767933
 20
115.9126085336389
 30
0.0
 11
148.0421194767933
 21
99.36630441637499
 31
0.0
  0
LINE
  5
CF5
330
C97
100
AcDbEntity
  8
BEM
 62
     0
370
    -2
100
AcDbLine
 10
69.54211947679334
 20
100.366304416375
 30
0.0
 11
144.5421194767933
 21
100.366304416375
 31
0.0
  0
SOLID
  5
CF6
330
C97
100
AcDbEntity
  8
BEM
 62
     0
100
AcDbTrace
 10
69.54211947679334
 20
100.9496377497083
 30
0.0
 11
69.54211947679334
 21
99.78297108304166
 31
0.0
 12
66.04211947679335
 22
100.366304416375
 32
0.0
 13
66.04211947679335
 23
100.366304416375
 33
0.0
  0
SOLID
  5
CF7
330
C97
100
AcDbEntity
  8
BEM
 62
     0
100
AcDbTrace
 10
144.5421194767933
 20
100.9496377497083
 30
0.0
 11
144.5421194767933
 21
99.78297108304166
 31
0.0
 12
148.0421194767933
 22
100.366304416375
 32
0.0
 13
148.0421194767933
 23
100.366304416375
 33
0.0
  0
MTEXT
  5
CF8
330
C97
100
AcDbEntity
  8
BEM
 62
     1
100
AcDbMText
 10
107.0421194767933
 20
103.616304416375
 30
0.0
 40
3.5
 41
0.0
 71
     5
 72
     1
  1
\A1;82
 73
     1
 44
1.0
  0
POINT
  5
CF9
330
C97
100
AcDbEntity
  8
Defpoints
 62
     0
100
AcDbPoint
 10
66.04211947679335
 20
116.9126085336389
 30
0.0
  0
POINT
  5
CFA
330
C97
100
AcDbEntity
  8
Defpoints
 62
     0
100
AcDbPoint
 10
148.0421194767933
 20
116.9126085336389
 30
0.0
  0
POINT
  5
CFB
330
C97
100
AcDbEntity
  8
Defpoints
 62
     0
100
AcDbPoint
 10
148.0421194767933
 20
100.366304416375
 30
0.0
  0
ENDBLK
  5
CA2
330
C97
100
AcDbEntity
  8
0
100
AcDbBlockEnd
  0
BLOCK
  5
CAE
330
CA4
100
AcDbEntity
  8
0
100
AcDbBlockBegin
  2
*D2
 70
     1
 10
0.0
 20
0.0
 30
0.0
  3
*D2
  1

  0
LINE
  5
CEA
330
CA4
100
AcDbEntity
  8
BEM
 62
     0
370
    -2
100
AcDbLine
 10
53.54211947679335
 20
127.4126085336389
 30
0.0
 11
53.54211947679335
 21
91.60470949237174
 31
0.0
  0
LINE
  5
CEB
330
CA4
100
AcDbEntity
  8
BEM
 62
     0
370
    -2
100
AcDbLine
 10
160.5421194767933
 20
127.4126085336389
 30
0.0
 11
160.5421194767933
 21
91.60470949237174
 31
0.0
  0
LINE
  5
CEC
330
CA4
100
AcDbEntity
  8
BEM
 62
     0
370
    -2
100
AcDbLine
 10
57.04211947679334
 20
92.60470949237173
 30
0.0
 11
157.0421194767933
 21
92.60470949237173
 31
0.0
  0
SOLID
  5
CED
330
CA4
100
AcDbEntity
  8
BEM
 62
     0
100
AcDbTrace
 10
57.04211947679334
 20
93.18804282570507
 30
0.0
 11
57.04211947679334
 21
92.02137615903842
 31
0.0
 12
53.54211947679335
 22
92.60470949237173
 32
0.0
 13
53.54211947679335
 23
92.60470949237173
 33
0.0
  0
SOLID
  5
CEE
330
CA4
100
AcDbEntity
  8
BEM
 62
     0
100
AcDbTrace
 10
157.0421194767933
 20
93.18804282570507
 30
0.0
 11
157.0421194767933
 21
92.02137615903842
 31
0.0
 12
160.5421194767933
 22
92.60470949237173
 32
0.0
 13
160.5421194767933
 23
92.60470949237173
 33
0.0
  0
MTEXT
  5
CEF
330
CA4
100
AcDbEntity
  8
BEM
 62
     1
100
AcDbMText
 10
107.0421194767933
 20
95.85470949237175
 30
0.0
 40
3.5
 41
0.0
 71
     5
 72
     1
  1
\A1;107
 73
     1
 44
1.0
  0
POINT
  5
CF0
330
CA4
100
AcDbEntity
  8
Defpoints
 62
     0
100
AcDbPoint
 10
53.54211947679335
 20
128.4126085336389
 30
0.0
  0
POINT
  5
CF1
330
CA4
100
AcDbEntity
  8
Defpoints
 62
     0
100
AcDbPoint
 10
160.5421194767933
 20
128.4126085336389
 30
0.0
  0
POINT
  5
CF2
330
CA4
100
AcDbEntity
  8
Defpoints
 62
     0
100
AcDbPoint
 10
160.5421194767933
 20
92.60470949237173
 30
0.0
  0
ENDBLK
  5
CAF
330
CA4
100
AcDbEntity
  8
0
100
AcDbBlockEnd
  0
BLOCK
  5
CC7
330
CBB
100
AcDbEntity
  8
0
100
AcDbBlockBegin
  2
*D3
 70
     1
 10
0.0
 20
0.0
 30
0.0
  3
*D3
  1

  0
LINE
  5
CDF
330
CBB
100
AcDbEntity
  8
BEM
 62
     0
370
    -2
100
AcDbLine
 10
52.54011947679334
 20
217.1824137770191
 30
0.0
 11
43.56031121331511
 21
217.1824137770191
 31
0.0
  0
LINE
  5
CE0
330
CBB
100
AcDbEntity
  8
BEM
 62
     0
370
    -2
100
AcDbLine
 10
52.58211947679336
 20
220.1824137770191
 30
0.0
 11
43.56031121331511
 21
220.1824137770191
 31
0.0
  0
LINE
  5
CE1
330
CBB
100
AcDbEntity
  8
BEM
 62
     0
370
    -2
100
AcDbLine
 10
44.56031121331512
 20
213.6824137770191
 30
0.0
 11
44.56031121331512
 21
210.1824137770191
 31
0.0
  0
LINE
  5
CE2
330
CBB
100
AcDbEntity
  8
BEM
 62
     0
370
    -2
100
AcDbLine
 10
44.56031121331512
 20
223.6824137770191
 30
0.0
 11
44.56031121331512
 21
232.0490804436858
 31
0.0
  0
LINE
  5
CE3
330
CBB
100
AcDbEntity
  8
BEM
 62
     0
370
    -2
100
AcDbLine
 10
44.56031121331512
 20
217.1824137770191
 30
0.0
 11
44.56031121331512
 21
220.1824137770191
 31
0.0
  0
SOLID
  5
CE4
330
CBB
100
AcDbEntity
  8
BEM
 62
     0
100
AcDbTrace
 10
43.97697787998178
 20
213.6824137770191
 30
0.0
 11
45.14364454664845
 21
213.6824137770191
 31
0.0
 12
44.56031121331512
 22
217.1824137770191
 32
0.0
 13
44.56031121331512
 23
217.1824137770191
 33
0.0
  0
SOLID
  5
CE5
330
CBB
100
AcDbEntity
  8
BEM
 62
     0
100
AcDbTrace
 10
43.97697787998178
 20
223.6824137770191
 30
0.0
 11
45.14364454664845
 21
223.6824137770191
 31
0.0
 12
44.56031121331512
 22
220.1824137770191
 32
0.0
 13
44.56031121331512
 23
220.1824137770191
 33
0.0
  0
MTEXT
  5
CE6
330
CBB
100
AcDbEntity
  8
BEM
 62
     1
100
AcDbMText
 10
41.31031121331508
 20
229.6157471103525
 30
0.0
 40
3.5
 41
0.0
 71
     5
 72
     1
  1
\A1;3
 11
0.0000000000000001
 21
1.0
 31
0.0
 73
     1
 44
1.0
  0
POINT
  5
CE7
330
CBB
100
AcDbEntity
  8
Defpoints
 62
     0
100
AcDbPoint
 10
53.54011947679333
 20
217.1824137770191
 30
0.0
  0
POINT
  5
CE8
330
CBB
100
AcDbEntity
  8
Defpoints
 62
     0
100
AcDbPoint
 10
53.58211947679336
 20
220.1824137770191
 30
0.0
  0
POINT
  5
CE9
330
CBB
100
AcDbEntity
  8
Defpoints
 62
     0
100
AcDbPoint
 10
44.56031121331512
 20
220.1824137770191
 30
0.0
  0
ENDBLK
  5
CC8
330
CBB
100
AcDbEntity
  8
0
100
AcDbBlockEnd
  0
BLOCK
  5
CD4
330
CCA
100
AcDbEntity
  8
0
100
AcDbBlockBegin
  2
*D4
 70
     1
 10
0.0
 20
0.0
 30
0.0
  3
*D4
  1

  0
LINE
  5
CD6
330
CCA
100
AcDbEntity
  8
BEM
 62
     0
370
    -2
100
AcDbLine
 10
100.4101194767933
 20
177.1824137770191
 30
0.0
 11
35.56451242810225
 21
177.1824137770192
 31
0.0
  0
LINE
  5
CD7
330
CCA
100
AcDbEntity
  8
BEM
 62
     0
370
    -2
100
AcDbLine
 10
98.64011947679337
 20
248.1824137770192
 30
0.0
 11
35.56451242810226
 21
248.1824137770192
 31
0.0
  0
LINE
  5
CD8
330
CCA
100
AcDbEntity
  8
BEM
 62
     0
370
    -2
100
AcDbLine
 10
36.56451242810225
 20
180.6824137770192
 30
0.0
 11
36.56451242810226
 21
244.6824137770192
 31
0.0
  0
SOLID
  5
CD9
330
CCA
100
AcDbEntity
  8
BEM
 62
     0
100
AcDbTrace
 10
35.98117909476891
 20
180.6824137770192
 30
0.0
 11
37.14784576143558
 21
180.6824137770192
 31
0.0
 12
36.56451242810225
 22
177.1824137770192
 32
0.0
 13
36.56451242810225
 23
177.1824137770192
 33
0.0
  0
SOLID
  5
CDA
330
CCA
100
AcDbEntity
  8
BEM
 62
     0
100
AcDbTrace
 10
35.98117909476893
 20
244.6824137770192
 30
0.0
 11
37.1478457614356
 21
244.6824137770192
 31
0.0
 12
36.56451242810226
 22
248.1824137770192
 32
0.0
 13
36.56451242810226
 23
248.1824137770192
 33
0.0
  0
MTEXT
  5
CDB
330
CCA
100
AcDbEntity
  8
BEM
 62
     1
100
AcDbMText
 10
33.31451242810222
 20
212.6824137770192
 30
0.0
 40
3.5
 41
0.0
 71
     5
 72
     1
  1
\A1;71
 11
0.0000000000000001
 21
1.0
 31
0.0
 73
     1
 44
1.0
  0
POINT
  5
CDC
330
CCA
100
AcDbEntity
  8
Defpoints
 62
     0
100
AcDbPoint
 10
101.4101194767933
 20
177.1824137770191
 30
0.0
  0
POINT
  5
CDD
330
CCA
100
AcDbEntity
  8
Defpoints
 62
     0
100
AcDbPoint
 10
99.64011947679336
 20
248.1824137770192
 30
0.0
  0
POINT
  5
CDE
330
CCA
100
AcDbEntity
  8
Defpoints
 62
     0
100
AcDbPoint
 10
36.56451242810226
 20
248.1824137770192
 30
0.0
  0
ENDBLK
  5
CD5
330
CCA
100
AcDbEntity
  8
0
100
AcDbBlockEnd
  0
BLOCK
  5
D06
330
CFE
100
AcDbEntity
  8
0
100
AcDbBlockBegin
  2
*D5
 70
     1
 10
0.0
 20
0.0
 30
0.0
  3
*D5
  1

  0
LINE
  5
D21
330
CFE
100
AcDbEntity
  8
BEM
 62
     0
370
    -2
100
AcDbLine
 10
88.84249928322811
 20
199.3926258498286
 30
0.0
 11
88.86950322166489
 21
199.3651545718748
 31
0.0
  0
LINE
  5
D22
330
CFE
100
AcDbEntity
  8
BEM
 62
     0
370
    -2
100
AcDbLine
 10
126.6392777677672
 20
236.5464081027737
 30
0.0
 11
126.666281706204
 21
236.5189368248199
 31
0.0
  0
LINE
  5
D23
330
CFE
100
AcDbEntity
  8
BEM
 62
     0
370
    -2
100
AcDbLine
 10
90.66450213583967
 20
202.5318529942244
 30
0.0
 11
123.4692532729275
 21
234.7785319303135
 31
0.0
  0
SOLID
  5
D24
330
CFE
100
AcDbEntity
  8
BEM
 62
     0
100
AcDbTrace
 10
90.25557685943502
 20
202.9478552731787
 30
0.0
 11
91.07342741224433
 21
202.1158507152701
 31
0.0
 12
88.16848846211405
 22
200.0783013357964
 32
0.0
 13
88.16848846211405
 23
200.0783013357964
 33
0.0
  0
SOLID
  5
D25
330
CFE
100
AcDbEntity
  8
BEM
 62
     0
100
AcDbTrace
 10
123.0603279965229
 20
235.1945342092678
 30
0.0
 11
123.8781785493322
 21
234.3625296513593
 31
0.0
 12
125.9652669466531
 22
237.2320835887415
 32
0.0
 13
125.9652669466531
 23
237.2320835887415
 33
0.0
  0
MTEXT
  5
D26
330
CFE
100
AcDbEntity
  8
BEM
 62
     1
100
AcDbMText
 10
115.1036624878036
 20
231.1125227089328
 30
0.0
 40
3.5
 41
0.0
 71
     5
 72
     1
  1
\A1;53
 11
0.71314676392161
 21
0.7010147595508497
 31
0.0
 73
     1
 44
1.0
  0
POINT
  5
D27
330
CFE
100
AcDbEntity
  8
Defpoints
 62
     0
100
AcDbPoint
 10
88.14148452367726
 20
200.1057726137502
 30
0.0
  0
POINT
  5
D28
330
CFE
100
AcDbEntity
  8
Defpoints
 62
     0
100
AcDbPoint
 10
125.9382630082164
 20
237.2595548666953
 30
0.0
  0
POINT
  5
D29
330
CFE
100
AcDbEntity
  8
Defpoints
 62
     0
100
AcDbPoint
 10
125.9652669466531
 20
237.2320835887415
 30
0.0
  0
ENDBLK
  5
D07
330
CFE
100
AcDbEntity
  8
0
100
AcDbBlockEnd
  0
BLOCK
  5
D65
330
D5B
100
AcDbEntity
  8
0
100
AcDbBlockBegin
  2
*D6
 70
     1
 10
0.0
 20
0.0
 30
0.0
  3
*D6
  1

  0
LINE
  5
D5C
330
D5B
100
AcDbEntity
  8
BEM
 62
     0
370
    -2
100
AcDbLine
 10
55.46112704131503
 20
143.4126085336389
 30
0.0
 11
40.51240576182602
 21
143.4126085336389
 31
0.0
  0
LINE
  5
D5D
330
D5B
100
AcDbEntity
  8
BEM
 62
     0
370
    -2
100
AcDbLine
 10
55.46112704131503
 20
113.4126085336389
 30
0.0
 11
40.51240576182602
 21
113.4126085336389
 31
0.0
  0
LINE
  5
D5E
330
D5B
100
AcDbEntity
  8
BEM
 62
     0
370
    -2
100
AcDbLine
 10
41.51240576182601
 20
139.9126085336389
 30
0.0
 11
41.51240576182601
 21
116.9126085336389
 31
0.0
  0
SOLID
  5
D5F
330
D5B
100
AcDbEntity
  8
BEM
 62
     0
100
AcDbTrace
 10
40.92907242849268
 20
139.9126085336389
 30
0.0
 11
42.09573909515935
 21
139.9126085336389
 31
0.0
 12
41.51240576182601
 22
143.4126085336389
 32
0.0
 13
41.51240576182601
 23
143.4126085336389
 33
0.0
  0
SOLID
  5
D60
330
D5B
100
AcDbEntity
  8
BEM
 62
     0
100
AcDbTrace
 10
40.92907242849268
 20
116.9126085336389
 30
0.0
 11
42.09573909515935
 21
116.9126085336389
 31
0.0
 12
41.51240576182601
 22
113.4126085336389
 32
0.0
 13
41.51240576182601
 23
113.4126085336389
 33
0.0
  0
MTEXT
  5
D61
330
D5B
100
AcDbEntity
  8
BEM
 62
     1
100
AcDbMText
 10
38.262405761826
 20
128.4126085336389
 30
0.0
 40
3.5
 41
0.0
 71
     5
 72
     1
  1
\A1;30
 11
0.0000000000000001
 21
1.0
 31
0.0
 73
     1
 44
1.0
  0
POINT
  5
D62
330
D5B
100
AcDbEntity
  8
Defpoints
 62
     0
100
AcDbPoint
 10
56.46112704131503
 20
143.4126085336389
 30
0.0
  0
POINT
  5
D63
330
D5B
100
AcDbEntity
  8
Defpoints
 62
     0
100
AcDbPoint
 10
56.46112704131503
 20
113.4126085336389
 30
0.0
  0
POINT
  5
D64
330
D5B
100
AcDbEntity
  8
Defpoints
 62
     0
100
AcDbPoint
 10
41.51240576182601
 20
113.4126085336389
 30
0.0
  0
ENDBLK
  5
D66
330
D5B
100
AcDbEntity
  8
0
100
AcDbBlockEnd
  0
ENDSEC
  0
SECTION
  2
ENTITIES
  0
LINE
  5
57
330
1E
100
AcDbEntity
  8
STEMPEL
100
AcDbLine
 10
205.0
 20
55.00000000000003
 30
0.0
 11
19.99999999999998
 21
55.0
 31
0.0
  0
LINE
  5
58
330
1E
100
AcDbEntity
  8
STEMPEL
100
AcDbLine
 10
68.00000000000006
 20
54.99999999999997
 30
0.0
 11
68.0
 21
4.999999999999985
 31
0.0
  0
LINE
  5
59
330
1E
100
AcDbEntity
  8
STEMPEL
100
AcDbLine
 10
110.0
 20
55.00000000000003
 30
0.0
 11
110.0
 21
4.999999999999985
 31
0.0
  0
LINE
  5
5A
330
1E
100
AcDbEntity
  8
STEMPEL
100
AcDbLine
 10
166.0
 20
54.99999999999989
 30
0.0
 11
166.0
 21
20.0
 31
0.0
  0
LINE
  5
5B
330
1E
100
AcDbEntity
  8
STEMPEL
100
AcDbLine
 10
67.99999999999994
 20
14.99999999999998
 30
0.0
 11
19.99999999999998
 21
14.99999999999998
 31
0.0
  0
LINE
  5
5C
330
1E
100
AcDbEntity
  8
STEMPEL
100
AcDbLine
 10
205.0
 20
20.0
 30
0.0
 11
68.00000000000006
 21
19.99999999999998
 31
0.0
  0
LINE
  5
5D
330
1E
100
AcDbEntity
  8
STEMPEL
100
AcDbLine
 10
205.0
 20
40.0
 30
0.0
 11
68.00000000000006
 21
39.99999999999997
 31
0.0
  0
LINE
  5
5E
330
1E
100
AcDbEntity
  8
VOLL
100
AcDbLine
 10
27.00000000000005
 20
55.00000000000003
 30
0.0
 11
26.99999999999999
 21
4.999999999999985
 31
0.0
  0
LINE
  5
5F
330
1E
100
AcDbEntity
  8
VOLL
100
AcDbLine
 10
47.00000000000005
 20
54.99999999999997
 30
0.0
 11
47.0
 21
4.999999999999985
 31
0.0
  0
LINE
  5
60
330
1E
100
AcDbEntity
  8
VOLL
100
AcDbLine
 10
57.00000000000006
 20
54.99999999999997
 30
0.0
 11
57.0
 21
4.999999999999985
 31
0.0
  0
LINE
  5
61
330
1E
100
AcDbEntity
  8
VOLL
100
AcDbLine
 10
77.00000000000006
 20
39.99999999999997
 30
0.0
 11
77.00000000000006
 21
19.99999999999998
 31
0.0
  0
LINE
  5
62
330
1E
100
AcDbEntity
  8
VOLL
100
AcDbLine
 10
90.00000000000005
 20
54.99999999999992
 30
0.0
 11
90.0
 21
19.99999999999998
 31
0.0
  0
LINE
  5
63
330
1E
100
AcDbEntity
  8
HILF
100
AcDbLine
 10
20.00000000000004
 20
50.00000000000003
 30
0.0
 11
68.00000000000006
 21
50.00000000000003
 31
0.0
  0
LINE
  5
64
330
1E
100
AcDbEntity
  8
HILF
100
AcDbLine
 10
20.00000000000004
 20
45.00000000000002
 30
0.0
 11
68.00000000000006
 21
45.00000000000002
 31
0.0
  0
LINE
  5
65
330
1E
100
AcDbEntity
  8
HILF
100
AcDbLine
 10
20.00000000000004
 20
39.99999999999997
 30
0.0
 11
68.00000000000006
 21
39.99999999999997
 31
0.0
  0
LINE
  5
66
330
1E
100
AcDbEntity
  8
HILF
100
AcDbLine
 10
20.00000000000004
 20
34.99999999999997
 30
0.0
 11
68.00000000000006
 21
34.99999999999997
 31
0.0
  0
LINE
  5
67
330
1E
100
AcDbEntity
  8
HILF
100
AcDbLine
 10
20.00000000000004
 20
29.99999999999999
 30
0.0
 11
68.00000000000006
 21
29.99999999999999
 31
0.0
  0
LINE
  5
68
330
1E
100
AcDbEntity
  8
HILF
100
AcDbLine
 10
20.00000000000004
 20
24.99999999999999
 30
0.0
 11
68.00000000000006
 21
24.99999999999999
 31
0.0
  0
LINE
  5
69
330
1E
100
AcDbEntity
  8
HILF
100
AcDbLine
 10
20.00000000000004
 20
19.99999999999998
 30
0.0
 11
68.00000000000006
 21
19.99999999999998
 31
0.0
  0
LINE
  5
6A
330
1E
100
AcDbEntity
  8
HILF
100
AcDbLine
 10
68.00000000000006
 20
34.99999999999997
 30
0.0
 11
110.0
 21
34.99999999999997
 31
0.0
  0
LINE
  5
6B
330
1E
100
AcDbEntity
  8
HILF
100
AcDbLine
 10
68.00000000000006
 20
29.99999999999999
 30
0.0
 11
110.0
 21
29.99999999999999
 31
0.0
  0
LINE
  5
6C
330
1E
100
AcDbEntity
  8
HILF
100
AcDbLine
 10
68.00000000000006
 20
24.99999999999999
 30
0.0
 11
110.0
 21
24.99999999999999
 31
0.0
  0
LINE
  5
6D
330
1E
100
AcDbEntity
  8
HILF
100
AcDbLine
 10
112.3868400548474
 20
42.01879123782069
 30
0.0
 11
162.4176958278155
 21
42.01879123782069
 31
0.0
  0
LINE
  5
6E
330
1E
100
AcDbEntity
  8
HILF
100
AcDbLine
 10
112.3868400548474
 20
34.99999999999997
 30
0.0
 11
162.4176958278155
 21
34.99999999999997
 31
0.0
  0
LINE
  5
6F
330
1E
100
AcDbEntity
  8
HILF
100
AcDbLine
 10
112.3868400548474
 20
29.99999999999999
 30
0.0
 11
162.4176958278155
 21
29.99999999999999
 31
0.0
  0
LINE
  5
70
330
1E
100
AcDbEntity
  8
HILF
100
AcDbLine
 10
112.3868400548474
 20
24.99999999999999
 30
0.0
 11
162.4176958278155
 21
24.99999999999999
 31
0.0
  0
LINE
  5
71
330
1E
100
AcDbEntity
  8
VOLL
100
AcDbLine
 10
166.0
 20
30.0
 30
0.0
 11
205.0
 21
30.0
 31
0.0
  0
LINE
  5
72
330
1E
100
AcDbEntity
  8
HILF
100
AcDbLine
 10
168.3619308148496
 20
41.88991818477913
 30
0.0
 11
202.4294419663364
 21
41.88991818477913
 31
0.0
  0
LINE
  5
73
330
1E
100
AcDbEntity
  8
HILF
100
AcDbLine
 10
111.7454849644942
 20
7.446991290141568
 30
0.0
 11
202.4294419663364
 21
7.446991290141568
 31
0.0
  0
TEXT
  5
74
330
1E
100
AcDbEntity
  8
TEXT
100
AcDbText
 10
31.9308298981591
 20
9.336909474920659
 30
0.0
 40
2.0
  1
Änderung
 41
0.8
  7
GREEKS
 72
     1
 11
37.30225846958767
 21
9.336909474920659
 31
0.0
100
AcDbText
  0
TEXT
  5
75
330
1E
100
AcDbEntity
  8
TEXT
100
AcDbText
 10
71.75817860751886
 20
51.23104475435443
 30
0.0
 40
2.5
  1
Maßstab
 41
0.8
  7
GREEKS
100
AcDbText
  0
TEXT
  5
76
330
1E
100
AcDbEntity
  8
TEXT
100
AcDbText
 10
92.14294773670257
 20
51.20920842174095
 30
0.0
 40
2.5
  1
Zul. Abw.
 41
0.8
  7
GREEKS
100
AcDbText
  0
TEXT
  5
77
330
1E
100
AcDbEntity
  8
TEXT
100
AcDbText
 10
112.4389701904505
 20
51.27446640058898
 30
0.0
 40
2.5
  1
Benennung
 41
0.8
  7
GREEKS
100
AcDbText
  0
TEXT
  5
78
330
1E
100
AcDbEntity
  8
TEXT
100
AcDbText
 10
168.089377478817
 20
51.15660172685682
 30
0.0
 40
2.5
  1
Zeichnungs Nr.
 41
0.8
  7
GREEKS
100
AcDbText
  0
TEXT
  5
79
330
1E
100
AcDbEntity
  8
TEXT
100
AcDbText
 10
112.371119195568
 20
15.42280285096528
 30
0.0
 40
2.5
  1
Bauvorhaben
 41
0.8
  7
GREEKS
100
AcDbText
  0
TEXT
  5
7A
330
1E
100
AcDbEntity
  8
TEXT
100
AcDbText
 10
168.3619308148496
 20
36.59059118549985
 30
0.0
 40
2.5
  1
Ersatz für:
 41
0.8
  7
GREEKS
100
AcDbText
  0
TEXT
  5
7B
330
1E
100
AcDbEntity
  8
TEXT
100
AcDbText
 10
24.13320553522878
 20
6.827329230135958
 30
0.0
 40
2.0
  1
Index
 50
90.0
 41
0.8
  7
GREEKS
100
AcDbText
  0
TEXT
  5
7C
330
1E
100
AcDbEntity
  8
TEXT
100
AcDbText
 10
50.04673380377405
 20
9.33578134669905
 30
0.0
 40
2.0
  1
Tag
 41
0.8
  7
GREEKS
 72
     1
 11
51.91340047044072
 21
9.33578134669905
 31
0.0
100
AcDbText
  0
TEXT
  5
7D
330
1E
100
AcDbEntity
  8
TEXT
100
AcDbText
 10
59.50613721932963
 20
9.29662108483204
 30
0.0
 40
2.0
  1
Name
 41
0.8
  7
GREEKS
 72
     1
 11
62.66804198123439
 21
9.29662108483204
 31
0.0
100
AcDbText
  0
TEXT
  5
7E
330
1E
100
AcDbEntity
  8
TEXT
100
AcDbText
 10
81.16558365768254
 20
36.65940250614963
 30
0.0
 40
2.0
  1
Tag
 41
0.8
  7
GREEKS
100
AcDbText
  0
TEXT
  5
7F
330
1E
100
AcDbEntity
  8
TEXT
100
AcDbText
 10
96.23132921131475
 20
36.65480545957612
 30
0.0
 40
2.0
  1
Name
 41
0.8
  7
GREEKS
100
AcDbText
  0
TEXT
  5
80
330
1E
100
AcDbEntity
  8
TEXT
100
AcDbText
 10
68.79180635838077
 20
31.81495184808982
 30
0.0
 40
2.0
  1
Gez.
 41
0.8
  7
GREEKS
100
AcDbText
  0
TEXT
  5
81
330
1E
100
AcDbEntity
  8
TEXT
100
AcDbText
 10
68.77575432858361
 20
26.84463145714189
 30
0.0
 40
2.0
  1
Gepr.
 41
0.8
  7
GREEKS
100
AcDbText
  0
TEXT
  5
82
330
1E
100
AcDbEntity
  8
TEXT
100
AcDbText
 10
68.80033886936519
 20
21.76473194824904
 30
0.0
 40
2.0
  1
Norm.
 41
0.8
  7
GREEKS
100
AcDbText
  0
LINE
  5
83
330
1E
100
AcDbEntity
  8
STEMPEL
100
AcDbLine
 10
24.99999999999995
 20
5.0
 30
0.0
 11
205.0
 21
5.0
 31
0.0
  0
TEXT
  5
84
330
1E
100
AcDbEntity
  8
TEXT
100
AcDbText
 10
168.6200430748503
 20
26.03708088939301
 30
0.0
 40
2.5
  1
ersetzt durch:
 41
0.8
  7
GREEKS
100
AcDbText
  0
LINE
  5
85
330
1E
100
AcDbEntity
  8
STEMPEL
100
AcDbLine
 10
205.0
 20
5.0
 30
0.0
 11
19.99999999999994
 21
5.0
 31
0.0
  0
LINE
  5
86
330
1E
100
AcDbEntity
  8
STEMPEL
100
AcDbLine
 10
205.0
 20
5.0
 30
0.0
 11
205.0
 21
292.0
 31
0.0
  0
LINE
  5
87
330
1E
100
AcDbEntity
  8
STEMPEL
100
AcDbLine
 10
20.0
 20
5.0
 30
0.0
 11
19.99999999999994
 21
292.0
 31
0.0
  0
LINE
  5
88
330
1E
100
AcDbEntity
  8
STEMPEL
100
AcDbLine
 10
205.0
 20
292.0
 30
0.0
 11
19.99999999999994
 21
292.0
 31
0.0
  0
LINE
  5
89
330
1E
100
AcDbEntity
  8
HILF
100
AcDbLine
 10
0.0
 20
0.0
 30
0.0
 11
-0.0000000000000568
 21
297.0
 31
0.0
  0
LINE
  5
8A
330
1E
100
AcDbEntity
  8
HILF
100
AcDbLine
 10
210.0
 20
297.0000000000001
 30
0.0
 11
0.0
 21
297.0
 31
0.0
  0
LINE
  5
8B
330
1E
100
AcDbEntity
  8
HILF
100
AcDbLine
 10
210.0
 20
0.0
 30
0.0
 11
0.0
 21
0.0
 31
0.0
  0
LINE
  5
8C
330
1E
100
AcDbEntity
  8
HILF
100
AcDbLine
 10
15.54383567856928
 20
148.5
 30
0.0
 11
0.0000000000000568
 21
148.5
 31
0.0
  0
TEXT
  5
8D
330
1E
100
AcDbEntity
  8
TEXT
100
AcDbText
 10
69.31105491105199
 20
36.57012735575833
 30
0.0
 40
2.0
  1
2012
 41
0.8
  7
GREEKS
100
AcDbText
  0
LINE
  5
8E
330
1E
100
AcDbEntity
  8
HILF
100
AcDbLine
 10
210.0
 20
-0.0000000000000568
 30
0.0
 11
210.0
 21
297.0
 31
0.0
  0
TEXT
  5
8F
330
1E
100
AcDbEntity
  8
VOLL
100
AcDbText
 10
78.07675471698113
 20
31.02594776470585
 30
0.0
 40
1.8
  1

  7
GREEKS
100
AcDbText
  0
TEXT
  5
90
330
1E
100
AcDbEntity
  8
TEXT
100
AcDbText
 10
20.92754975488837
 20
55.83599999999997
 30
0.0
 40
2.5
  1
Erstellt mit AUTOCAD 2004
 41
0.8
  7
GREEKS
100
AcDbText
  0
TEXT
  5
91
330
1E
100
AcDbEntity
  8
TEXT
100
AcDbText
 10
97.21080242906285
 20
31.54481959861755
 30
0.0
 40
2.0
  1
Koeh
 41
0.8
  7
GREEKS
 72
     1
 11
99.83937385763429
 21
31.54481959861755
 31
0.0
100
AcDbText
  0
TEXT
  5
92
330
1E
100
AcDbEntity
  8
TEXT
 62
     1
100
AcDbText
 10
172.886078821434
 20
44.07450714456979
 30
0.0
 40
3.5
  1
00973050W
 41
0.8
  7
GREEKS
 72
     1
 11
184.886078821434
 21
44.07450714456979
 31
0.0
100
AcDbText
  0
TEXT
  5
93
330
1E
100
AcDbEntity
  8
TEXT
 62
     1
100
AcDbText
 10
75.25031532409435
 20
44.07450714456979
 30
0.0
 40
3.5
  1
1:1
 41
0.8
  7
GREEKS
100
AcDbText
  0
TEXT
  5
94
330
1E
100
AcDbEntity
  8
TEXT
100
AcDbText
 10
80.35187950649897
 20
31.55382520412866
 30
0.0
 40
2.0
  1
26.10.
 41
0.8
  7
GREEKS
 72
     1
 11
83.70426045887993
 21
31.55382520412866
 31
0.0
100
AcDbText
  0
TEXT
  5
95
330
1E
100
AcDbEntity
  8
TEXT
 62
     1
100
AcDbText
 10
113.4467865528701
 20
43.70874394626889
 30
0.0
 40
3.5
  1
Rohrschelle DN50
 41
0.8
  7
GREEKS
100
AcDbText
  0
TEXT
  5
96
330
1E
100
AcDbEntity
  8
TEXT
100
AcDbText
 10
112.5648195562657
 20
35.75167208792644
 30
0.0
 40
2.5
  1
mit Anschlußgewinde M8
 41
0.8
  7
GREEKS
100
AcDbText
  0
TEXT
  5
98
330
1E
100
AcDbEntity
  8
TEXT
100
AcDbText
 10
112.5648195562657
 20
25.82005971521079
 30
0.0
 40
2.5
  1
EDV-Art.Nr. 00973.050X
 41
0.8
  7
GREEKS
100
AcDbText
  0
TEXT
  5
99
330
1E
100
AcDbEntity
  8
TEXT
100
AcDbText
 10
112.4918750788913
 20
21.31487076511316
 30
0.0
 40
2.0
  1
00973050W.DWG
 41
0.8
  7
GREEKS
100
AcDbText
  0
TEXT
  5
9A
330
1E
100
AcDbEntity
  8
TEXT
100
AcDbText
 10
91.31306610404202
 20
45.38181920511511
 30
0.0
 40
2.0
  1
DIN EN1123-2
 41
0.8
  7
GREEKS
 72
     1
 11
99.80830419928011
 21
45.38181920511511
 31
0.0
100
AcDbText
  0
INSERT
  5
9B
330
1E
100
AcDbEntity
  8
STEMPEL
100
AcDbBlockReference
  2
LOGO
 10
70.4977742728897
 20
22.51052638224161
 30
0.0
  0
TEXT
  5
118
330
1E
100
AcDbEntity
  8
BEM
100
AcDbText
 10
208.6511461928583
 20
5.083950539994247
 30
0.0
 40
2.0
  1
Diese Zeichnung ist urheberrechtlich geschützt und bleibt unser Eigentum. Sie darf weder ganz noch teilweise verfielfältigt und nicht an Dritte weitergegeben werden.
 50
90.0
 41
0.8
  7
GREEKS
100
AcDbText
  0
LINE
  5
7BC
330
1E
100
AcDbEntity
  8
TEXT
 62
     2
100
AcDbLine
 10
162.1329266936352
 20
238.3787666339833
 30
0.0
 11
152.0555380088246
 21
226.3699412384195
 31
0.0
  0
LINE
  5
7BD
330
1E
100
AcDbEntity
  8
TEXT
 62
     2
100
AcDbLine
 10
162.1329266936352
 20
238.3787666339833
 30
0.0
 11
199.6337676024504
 21
238.3787666339833
 31
0.0
  0
TEXT
  5
7BE
330
1E
100
AcDbEntity
  8
TEXT
 62
     1
100
AcDbText
 10
163.1928731916579
 20
240.0687193424315
 30
0.0
 40
3.5
  1
Schraube M8x25
 41
0.8
  7
GREEKS
100
AcDbText
  0
TEXT
  5
7BF
330
1E
100
AcDbEntity
  8
TEXT
 62
     1
100
AcDbText
 10
112.3287037868943
 20
167.86326572936
 30
0.0
 40
3.5
  1
M8
 41
0.8
  7
GREEKS
100
AcDbText
  0
LINE
  5
7C0
330
1E
100
AcDbEntity
  8
TEXT
 62
     2
100
AcDbLine
 10
111.2687572888715
 20
166.1733130209118
 30
0.0
 11
117.6993403427579
 21
166.1733130209118
 31
0.0
  0
LINE
  5
7C1
330
1E
100
AcDbEntity
  8
TEXT
 62
     2
100
AcDbLine
 10
111.2687572888715
 20
166.1733130209118
 30
0.0
 11
107.0401194767934
 21
177.1824137770191
 31
0.0
  0
LINE
  5
BD8
330
1E
100
AcDbEntity
  8
HILF
100
AcDbLine
 10
62.80711947679333
 20
217.1824137770191
 30
0.0
 11
62.80711947679333
 21
219.9204137770191
 31
0.0
  0
LINE
  5
BD9
330
1E
100
AcDbEntity
  8
HILF
100
AcDbLine
 10
62.80711947679333
 20
198.1824137770191
 30
0.0
 11
62.80711947679333
 21
212.1824137770191
 31
0.0
  0
LINE
  5
BDB
330
1E
100
AcDbEntity
  8
HILF
100
AcDbLine
 10
69.27311947679334
 20
217.1824137770191
 30
0.0
 11
69.27311947679334
 21
219.9204137770191
 31
0.0
  0
LINE
  5
BDC
330
1E
100
AcDbEntity
  8
HILF
100
AcDbLine
 10
69.27311947679334
 20
198.1824137770191
 30
0.0
 11
69.27311947679334
 21
212.1824137770191
 31
0.0
  0
LINE
  5
BDD
330
1E
100
AcDbEntity
  8
STEMPEL
100
AcDbLine
 10
70.04011947679334
 20
198.9494137770191
 30
0.0
 11
62.04011947679333
 21
198.9494137770191
 31
0.0
  0
LINE
  5
BDE
330
1E
100
AcDbEntity
  8
HILF
100
AcDbLine
 10
70.04011947679334
 20
219.9204137770191
 30
0.0
 11
62.04011947679333
 21
219.9204137770191
 31
0.0
  0
LINE
  5
BDF
330
1E
100
AcDbEntity
  8
STEMPEL
100
AcDbLine
 10
62.04011947679333
 20
217.1824137770191
 30
0.0
 11
62.04011947679333
 21
220.1824137770191
 31
0.0
  0
LINE
  5
BE0
330
1E
100
AcDbEntity
  8
STEMPEL
100
AcDbLine
 10
70.04011947679334
 20
220.1824137770191
 30
0.0
 11
70.04011947679334
 21
217.1824137770191
 31
0.0
  0
LINE
  5
BE1
330
1E
100
AcDbEntity
  8
STEMPEL
100
AcDbLine
 10
62.04011947679333
 20
198.9494137770191
 30
0.0
 11
62.04011947679333
 21
212.1824137770191
 31
0.0
  0
LINE
  5
BE2
330
1E
100
AcDbEntity
  8
STEMPEL
100
AcDbLine
 10
62.80711947679333
 20
198.1824137770191
 30
0.0
 11
62.04011947679333
 21
198.9494137770191
 31
0.0
  0
LINE
  5
BE3
330
1E
100
AcDbEntity
  8
STEMPEL
100
AcDbLine
 10
69.27311947679334
 20
198.1824137770191
 30
0.0
 11
62.80711947679333
 21
198.1824137770191
 31
0.0
  0
LINE
  5
BE4
330
1E
100
AcDbEntity
  8
STEMPEL
100
AcDbLine
 10
70.04011947679334
 20
198.9494137770191
 30
0.0
 11
69.27311947679334
 21
198.1824137770191
 31
0.0
  0
LINE
  5
BE5
330
1E
100
AcDbEntity
  8
STEMPEL
100
AcDbLine
 10
70.04011947679334
 20
212.1824137770191
 30
0.0
 11
70.04011947679334
 21
198.9494137770191
 31
0.0
  0
LINE
  5
BE6
330
1E
100
AcDbEntity
  8
STEMPEL
100
AcDbLine
 10
65.04011947679334
 20
225.1824137770191
 30
0.0
 11
67.04011947679333
 21
225.1824137770191
 31
0.0
  0
LINE
  5
BE7
330
1E
100
AcDbEntity
  8
STEMPEL
100
AcDbLine
 10
65.04011947679334
 20
228.1824137770191
 30
0.0
 11
65.04011947679334
 21
225.1824137770191
 31
0.0
  0
LINE
  5
BE8
330
1E
100
AcDbEntity
  8
STEMPEL
100
AcDbLine
 10
60.71011947679335
 20
228.1824137770191
 30
0.0
 11
65.04011947679334
 21
228.1824137770191
 31
0.0
  0
ARC
  5
BE9
330
1E
100
AcDbEntity
  8
STEMPEL
100
AcDbCircle
 10
60.71011947679335
 20
227.1824137770191
 30
0.0
 40
1.0
100
AcDbArc
 50
90.0
 51
175.6676860169997
  0
LINE
  5
BEA
330
1E
100
AcDbEntity
  8
STEMPEL
100
AcDbLine
 10
59.54011947679333
 20
224.9674137770191
 30
0.0
 11
59.71311947679334
 21
227.2584137770191
 31
0.0
  0
LINE
  5
BEB
330
1E
100
AcDbEntity
  8
STEMPEL
100
AcDbLine
 10
59.54011947679333
 20
223.1824137770191
 30
0.0
 11
59.54011947679333
 21
224.9674137770191
 31
0.0
  0
LINE
  5
BEC
330
1E
100
AcDbEntity
  8
STEMPEL
100
AcDbLine
 10
72.54011947679334
 20
223.1824137770191
 30
0.0
 11
59.54011947679333
 21
223.1824137770191
 31
0.0
  0
LINE
  5
BED
330
1E
100
AcDbEntity
  8
STEMPEL
100
AcDbLine
 10
72.54011947679334
 20
224.9674137770191
 30
0.0
 11
72.54011947679334
 21
223.1824137770191
 31
0.0
  0
LINE
  5
BEE
330
1E
100
AcDbEntity
  8
STEMPEL
100
AcDbLine
 10
72.36611947679335
 20
227.2584137770191
 30
0.0
 11
72.54011947679334
 21
224.9674137770191
 31
0.0
  0
ARC
  5
BEF
330
1E
100
AcDbEntity
  8
STEMPEL
100
AcDbCircle
 10
71.36911947679334
 20
227.1824137770191
 30
0.0
 40
1.0
100
AcDbArc
 50
4.332313983000302
 51
90.0
  0
LINE
  5
BF0
330
1E
100
AcDbEntity
  8
STEMPEL
100
AcDbLine
 10
67.04011947679333
 20
228.1824137770191
 30
0.0
 11
71.36911947679334
 21
228.1824137770191
 31
0.0
  0
LINE
  5
BF1
330
1E
100
AcDbEntity
  8
STEMPEL
100
AcDbLine
 10
67.04011947679333
 20
225.1824137770191
 30
0.0
 11
67.04011947679333
 21
228.1824137770191
 31
0.0
  0
LINE
  5
BF3
330
1E
100
AcDbEntity
  8
HILF
100
AcDbLine
 10
144.7641194767933
 20
217.1824137770191
 30
0.0
 11
144.7641194767933
 21
219.9204137770191
 31
0.0
  0
LINE
  5
BF4
330
1E
100
AcDbEntity
  8
HILF
100
AcDbLine
 10
144.7641194767933
 20
198.1824137770191
 30
0.0
 11
144.7641194767933
 21
212.1824137770191
 31
0.0
  0
LINE
  5
BF6
330
1E
100
AcDbEntity
  8
HILF
100
AcDbLine
 10
151.2301194767933
 20
217.1824137770191
 30
0.0
 11
151.2301194767933
 21
219.9204137770191
 31
0.0
  0
LINE
  5
BF7
330
1E
100
AcDbEntity
  8
HILF
100
AcDbLine
 10
151.2301194767933
 20
198.1824137770191
 30
0.0
 11
151.2301194767933
 21
212.1824137770191
 31
0.0
  0
LINE
  5
BF8
330
1E
100
AcDbEntity
  8
STEMPEL
100
AcDbLine
 10
151.9971194767934
 20
198.9494137770191
 30
0.0
 11
143.9971194767934
 21
198.9494137770191
 31
0.0
  0
LINE
  5
BF9
330
1E
100
AcDbEntity
  8
HILF
100
AcDbLine
 10
151.9971194767934
 20
219.9204137770191
 30
0.0
 11
143.9971194767934
 21
219.9204137770191
 31
0.0
  0
LINE
  5
BFA
330
1E
100
AcDbEntity
  8
STEMPEL
100
AcDbLine
 10
151.9971194767934
 20
221.0104137770191
 30
0.0
 11
151.9971194767934
 21
217.1824137770191
 31
0.0
  0
LINE
  5
BFB
330
1E
100
AcDbEntity
  8
STEMPEL
100
AcDbLine
 10
154.4971194767934
 20
223.1824137770191
 30
0.0
 11
153.9581194767933
 21
223.1824137770191
 31
0.0
  0
ARC
  5
BFC
330
1E
100
AcDbEntity
  8
STEMPEL
100
AcDbCircle
 10
143.5971194767933
 20
222.7824137770191
 30
0.0
 40
0.4
100
AcDbArc
 50
0.0
 51
90.0
  0
LINE
  5
BFD
330
1E
100
AcDbEntity
  8
STEMPEL
100
AcDbLine
 10
143.9971194767934
 20
217.1824137770191
 30
0.0
 11
143.9971194767934
 21
222.7824137770191
 31
0.0
  0
LINE
  5
BFE
330
1E
100
AcDbEntity
  8
STEMPEL
100
AcDbLine
 10
143.9971194767934
 20
198.9494137770191
 30
0.0
 11
143.9971194767934
 21
212.1824137770191
 31
0.0
  0
LINE
  5
BFF
330
1E
100
AcDbEntity
  8
STEMPEL
100
AcDbLine
 10
144.7641194767933
 20
198.1824137770191
 30
0.0
 11
143.9971194767934
 21
198.9494137770191
 31
0.0
  0
LINE
  5
C00
330
1E
100
AcDbEntity
  8
STEMPEL
100
AcDbLine
 10
151.2301194767933
 20
198.1824137770191
 30
0.0
 11
144.7641194767933
 21
198.1824137770191
 31
0.0
  0
LINE
  5
C01
330
1E
100
AcDbEntity
  8
STEMPEL
100
AcDbLine
 10
151.9971194767934
 20
198.9494137770191
 30
0.0
 11
151.2301194767933
 21
198.1824137770191
 31
0.0
  0
LINE
  5
C02
330
1E
100
AcDbEntity
  8
STEMPEL
100
AcDbLine
 10
151.9971194767934
 20
212.1824137770191
 30
0.0
 11
151.9971194767934
 21
198.9494137770191
 31
0.0
  0
LINE
  5
C03
330
1E
100
AcDbEntity
  8
STEMPEL
100
AcDbLine
 10
154.4971194767934
 20
224.9674137770191
 30
0.0
 11
154.4971194767934
 21
223.2824137770192
 31
0.0
  0
LINE
  5
C04
330
1E
100
AcDbEntity
  8
STEMPEL
100
AcDbLine
 10
154.3241194767934
 20
227.2584137770191
 30
0.0
 11
154.4971194767934
 21
224.9674137770191
 31
0.0
  0
ARC
  5
C05
330
1E
100
AcDbEntity
  8
STEMPEL
100
AcDbCircle
 10
153.3261194767933
 20
227.1824137770191
 30
0.0
 40
1.0
100
AcDbArc
 50
4.332313983000302
 51
90.0
  0
LINE
  5
C06
330
1E
100
AcDbEntity
  8
STEMPEL
100
AcDbLine
 10
148.9971194767934
 20
228.1824137770191
 30
0.0
 11
153.3261194767933
 21
228.1824137770191
 31
0.0
  0
LINE
  5
C07
330
1E
100
AcDbEntity
  8
STEMPEL
100
AcDbLine
 10
148.9971194767934
 20
225.1824137770191
 30
0.0
 11
148.9971194767934
 21
228.1824137770191
 31
0.0
  0
LINE
  5
C08
330
1E
100
AcDbEntity
  8
STEMPEL
100
AcDbLine
 10
146.9971194767934
 20
225.1824137770191
 30
0.0
 11
148.9971194767934
 21
225.1824137770191
 31
0.0
  0
LINE
  5
C09
330
1E
100
AcDbEntity
  8
STEMPEL
100
AcDbLine
 10
146.9971194767934
 20
228.1824137770191
 30
0.0
 11
146.9971194767934
 21
225.1824137770191
 31
0.0
  0
LINE
  5
C0A
330
1E
100
AcDbEntity
  8
STEMPEL
100
AcDbLine
 10
142.6681194767933
 20
228.1824137770191
 30
0.0
 11
146.9971194767934
 21
228.1824137770191
 31
0.0
  0
ARC
  5
C0B
330
1E
100
AcDbEntity
  8
STEMPEL
100
AcDbCircle
 10
142.6681194767933
 20
227.1824137770191
 30
0.0
 40
1.0
100
AcDbArc
 50
90.0
 51
175.6676860169997
  0
LINE
  5
C0C
330
1E
100
AcDbEntity
  8
STEMPEL
100
AcDbLine
 10
141.4971194767934
 20
224.9674137770191
 30
0.0
 11
141.6711194767933
 21
227.2584137770191
 31
0.0
  0
LINE
  5
C0D
330
1E
100
AcDbEntity
  8
STEMPEL
100
AcDbLine
 10
141.4971194767934
 20
223.1824137770191
 30
0.0
 11
141.4971194767934
 21
224.9674137770191
 31
0.0
  0
LINE
  5
C0E
330
1E
100
AcDbEntity
  8
STEMPEL
100
AcDbLine
 10
150.5601194767933
 20
223.1824137770191
 30
0.0
 11
141.4971194767934
 21
223.1824137770191
 31
0.0
  0
LINE
  5
C0F
330
1E
100
AcDbEntity
  8
STEMPEL
100
AcDbLine
 10
110.7921194767933
 20
187.0324137770191
 30
0.0
 11
110.7921194767933
 21
177.8324137770191
 31
0.0
  0
LINE
  5
C10
330
1E
100
AcDbEntity
  8
STEMPEL
100
AcDbLine
 10
107.0401194767934
 20
177.1824137770191
 30
0.0
 11
101.4101194767933
 21
177.1824137770191
 31
0.0
  0
ARC
  5
C11
330
1E
100
AcDbEntity
  8
STEMPEL
100
AcDbCircle
 10
107.0401194767934
 20
188.3414137770191
 30
0.0
 40
11.158
100
AcDbArc
 50
250.3471403679989
 51
270.0
  0
ARC
  5
C12
330
1E
100
AcDbEntity
  8
STEMPEL
100
AcDbCircle
 10
107.0401194767934
 20
175.0074137770191
 30
0.0
 40
14.176
100
AcDbArc
 50
58.03079691799998
 51
90.0
  0
ARC
  5
C13
330
1E
100
AcDbEntity
  8
STEMPEL
100
AcDbCircle
 10
107.0401194767934
 20
175.0074137770191
 30
0.0
 40
14.176
100
AcDbArc
 50
90.0
 51
121.969203082
  0
ARC
  5
C14
330
1E
100
AcDbEntity
  8
STEMPEL
100
AcDbCircle
 10
112.6691194767933
 20
180.2164137770191
 30
0.0
 40
3.032999999999999
100
AcDbArc
 50
231.7867892979998
 51
270.0
  0
ARC
  5
C15
330
1E
100
AcDbEntity
  8
STEMPEL
100
AcDbCircle
 10
107.0401194767934
 20
188.3414137770191
 30
0.0
 40
11.158
100
AcDbArc
 50
270.0
 51
289.6528596320011
  0
LINE
  5
C16
330
1E
100
AcDbEntity
  8
STEMPEL
100
AcDbLine
 10
112.6691194767933
 20
177.1824137770191
 30
0.0
 11
107.0401194767934
 21
177.1824137770191
 31
0.0
  0
ARC
  5
C17
330
1E
100
AcDbEntity
  8
STEMPEL
100
AcDbCircle
 10
112.6691194767933
 20
180.2164137770191
 30
0.0
 40
3.032999999999999
100
AcDbArc
 50
270.0
 51
308.2132107020003
  0
LINE
  5
C18
330
1E
100
AcDbEntity
  8
STEMPEL
100
AcDbLine
 10
114.5451194767934
 20
187.0324137770191
 30
0.0
 11
114.5451194767934
 21
177.8324137770191
 31
0.0
  0
ARC
  5
C19
330
1E
100
AcDbEntity
  8
STEMPEL
100
AcDbCircle
 10
112.6691194767933
 20
184.6494137770191
 30
0.0
 40
3.032999999999999
100
AcDbArc
 50
51.78678929799973
 51
90.0
  0
ARC
  5
C1A
330
1E
100
AcDbEntity
  8
STEMPEL
100
AcDbCircle
 10
112.6691194767933
 20
184.6494137770191
 30
0.0
 40
3.032999999999999
100
AcDbArc
 50
90.0
 51
128.2132107020002
  0
ARC
  5
C1B
330
1E
100
AcDbEntity
  8
STEMPEL
100
AcDbCircle
 10
107.0401194767934
 20
176.5244137770191
 30
0.0
 40
11.158
100
AcDbArc
 50
70.34714036799893
 51
90.0
  0
ARC
  5
C1C
330
1E
100
AcDbEntity
  8
STEMPEL
100
AcDbCircle
 10
107.0401194767934
 20
176.5244137770191
 30
0.0
 40
11.158
100
AcDbArc
 50
90.0
 51
109.652859632001
  0
ARC
  5
C1D
330
1E
100
AcDbEntity
  8
STEMPEL
100
AcDbCircle
 10
101.4101194767933
 20
180.2164137770191
 30
0.0
 40
3.032999999999999
100
AcDbArc
 50
231.7867892979998
 51
270.0
  0
LINE
  5
C1E
330
1E
100
AcDbEntity
  8
STEMPEL
100
AcDbLine
 10
99.53411947679336
 20
187.0324137770191
 30
0.0
 11
99.53411947679336
 21
177.8324137770191
 31
0.0
  0
ARC
  5
C1F
330
1E
100
AcDbEntity
  8
STEMPEL
100
AcDbCircle
 10
101.4101194767933
 20
184.6494137770191
 30
0.0
 40
3.032999999999999
100
AcDbArc
 50
90.0
 51
128.2132107020002
  0
ARC
  5
C20
330
1E
100
AcDbEntity
  8
STEMPEL
100
AcDbCircle
 10
101.4101194767933
 20
184.6494137770191
 30
0.0
 40
3.032999999999999
100
AcDbArc
 50
51.78678929799973
 51
90.0
  0
LINE
  5
C21
330
1E
100
AcDbEntity
  8
STEMPEL
100
AcDbLine
 10
103.2871194767933
 20
177.8324137770191
 30
0.0
 11
103.2871194767933
 21
187.0324137770191
 31
0.0
  0
ARC
  5
C22
330
1E
100
AcDbEntity
  8
STEMPEL
100
AcDbCircle
 10
101.4101194767933
 20
180.2164137770191
 30
0.0
 40
3.032999999999999
100
AcDbArc
 50
270.0
 51
308.2132107020003
  0
LINE
  5
C23
330
1E
100
AcDbEntity
  8
STEMPEL
100
AcDbLine
 10
157.6211194767933
 20
217.1824137770191
 30
0.0
 11
157.6211194767933
 21
214.1824137770191
 31
0.0
  0
LINE
  5
C24
330
1E
100
AcDbEntity
  8
STEMPEL
100
AcDbLine
 10
56.45911947679337
 20
217.1824137770191
 30
0.0
 11
56.45911947679337
 21
214.1824137770191
 31
0.0
  0
ARC
  5
C25
330
1E
100
AcDbEntity
  8
STEMPEL
100
AcDbCircle
 10
142.5401194767934
 20
213.1824137770191
 30
0.0
 40
1.0
100
AcDbArc
 50
0.0
 51
90.0
  0
LINE
  5
C26
330
1E
100
AcDbEntity
  8
STEMPEL
100
AcDbLine
 10
143.5401194767934
 20
212.1824137770191
 30
0.0
 11
143.5401194767934
 21
213.1824137770191
 31
0.0
  0
LINE
  5
C27
330
1E
100
AcDbEntity
  8
STEMPEL
100
AcDbLine
 10
152.5401194767934
 20
212.1824137770191
 30
0.0
 11
143.5401194767934
 21
212.1824137770191
 31
0.0
  0
LINE
  5
C28
330
1E
100
AcDbEntity
  8
STEMPEL
100
AcDbLine
 10
152.5401194767934
 20
213.1824137770191
 30
0.0
 11
152.5401194767934
 21
212.1824137770191
 31
0.0
  0
ARC
  5
C29
330
1E
100
AcDbEntity
  8
STEMPEL
100
AcDbCircle
 10
153.5401194767934
 20
213.1824137770191
 30
0.0
 40
1.0
100
AcDbArc
 50
90.0
 51
180.0
  0
ARC
  5
C2A
330
1E
100
AcDbEntity
  8
STEMPEL
100
AcDbCircle
 10
71.54011947679333
 20
213.1824137770191
 30
0.0
 40
1.0
100
AcDbArc
 50
90.0
 51
180.0
  0
LINE
  5
C2B
330
1E
100
AcDbEntity
  8
STEMPEL
100
AcDbLine
 10
70.54011947679334
 20
212.1824137770191
 30
0.0
 11
70.54011947679334
 21
213.1824137770191
 31
0.0
  0
LINE
  5
C2C
330
1E
100
AcDbEntity
  8
STEMPEL
100
AcDbLine
 10
61.54011947679333
 20
212.1824137770191
 30
0.0
 11
70.54011947679334
 21
212.1824137770191
 31
0.0
  0
LINE
  5
C2D
330
1E
100
AcDbEntity
  8
STEMPEL
100
AcDbLine
 10
61.54011947679333
 20
213.1824137770191
 30
0.0
 11
61.54011947679333
 21
212.1824137770191
 31
0.0
  0
ARC
  5
C2E
330
1E
100
AcDbEntity
  8
STEMPEL
100
AcDbCircle
 10
60.54011947679334
 20
213.1824137770191
 30
0.0
 40
1.0
100
AcDbArc
 50
0.0
 51
90.0
  0
ARC
  5
C2F
330
1E
100
AcDbEntity
  8
HILF
100
AcDbCircle
 10
107.0401194767934
 20
218.6824137770191
 30
0.0
 40
31.0
100
AcDbArc
 50
188.6512787989998
 51
247.0804578480006
  0
ARC
  5
C30
330
1E
100
AcDbEntity
  8
HILF
100
AcDbCircle
 10
99.64011947679336
 20
201.1824137770191
 30
0.0
 40
12.0
100
AcDbArc
 50
247.0804578480006
 51
270.0
  0
LINE
  5
C31
330
1E
100
AcDbEntity
  8
HILF
100
AcDbLine
 10
114.4391194767934
 20
189.1824137770191
 30
0.0
 11
99.64011947679336
 21
189.1824137770191
 31
0.0
  0
ARC
  5
C32
330
1E
100
AcDbEntity
  8
HILF
100
AcDbCircle
 10
114.4391194767934
 20
201.1824137770191
 30
0.0
 40
12.0
100
AcDbArc
 50
270.0
 51
292.9195421519994
  0
ARC
  5
C33
330
1E
100
AcDbEntity
  8
HILF
100
AcDbCircle
 10
107.0401194767934
 20
218.6824137770191
 30
0.0
 40
31.0
100
AcDbArc
 50
292.9195421519994
 51
351.3487212010003
  0
ARC
  5
C34
330
1E
100
AcDbEntity
  8
STEMPEL
100
AcDbCircle
 10
138.6621194767933
 20
211.1824137770191
 30
0.0
 40
6.0
100
AcDbArc
 50
90.0
 51
166.6576362029998
  0
LINE
  5
C35
330
1E
100
AcDbEntity
  8
STEMPEL
100
AcDbLine
 10
159.3401194767933
 20
217.1824137770191
 30
0.0
 11
138.6621194767933
 21
217.1824137770191
 31
0.0
  0
LINE
  5
C36
330
1E
100
AcDbEntity
  8
STEMPEL
100
AcDbLine
 10
160.5401194767934
 20
217.1824137770191
 30
0.0
 11
159.3401194767933
 21
217.1824137770191
 31
0.0
  0
LINE
  5
C37
330
1E
100
AcDbEntity
  8
STEMPEL
100
AcDbLine
 10
160.5401194767934
 20
214.1824137770191
 30
0.0
 11
160.5401194767934
 21
217.1824137770191
 31
0.0
  0
LINE
  5
C38
330
1E
100
AcDbEntity
  8
STEMPEL
100
AcDbLine
 10
159.3401194767933
 20
214.1824137770191
 30
0.0
 11
160.5401194767934
 21
214.1824137770191
 31
0.0
  0
LINE
  5
C39
330
1E
100
AcDbEntity
  8
STEMPEL
100
AcDbLine
 10
138.6621194767933
 20
214.1824137770191
 30
0.0
 11
159.3401194767933
 21
214.1824137770191
 31
0.0
  0
ARC
  5
C3A
330
1E
100
AcDbEntity
  8
STEMPEL
100
AcDbCircle
 10
138.6621194767933
 20
211.1824137770191
 30
0.0
 40
3.0
100
AcDbArc
 50
90.0
 51
166.6576362029998
  0
ARC
  5
C3B
330
1E
100
AcDbEntity
  8
STEMPEL
100
AcDbCircle
 10
107.0401194767934
 20
218.6824137770191
 30
0.0
 40
29.5
100
AcDbArc
 50
193.3423637970002
 51
346.6576362029997
  0
ARC
  5
C3C
330
1E
100
AcDbEntity
  8
STEMPEL
100
AcDbCircle
 10
75.41711947679335
 20
211.1824137770191
 30
0.0
 40
3.0
100
AcDbArc
 50
13.34236379700021
 51
90.0
  0
LINE
  5
C3D
330
1E
100
AcDbEntity
  8
STEMPEL
100
AcDbLine
 10
53.54011947679333
 20
214.1824137770191
 30
0.0
 11
75.41711947679335
 21
214.1824137770191
 31
0.0
  0
LINE
  5
C3E
330
1E
100
AcDbEntity
  8
STEMPEL
100
AcDbLine
 10
53.54011947679333
 20
217.1824137770191
 30
0.0
 11
53.54011947679333
 21
214.1824137770191
 31
0.0
  0
LINE
  5
C3F
330
1E
100
AcDbEntity
  8
STEMPEL
100
AcDbLine
 10
75.41711947679335
 20
217.1824137770191
 30
0.0
 11
53.54011947679333
 21
217.1824137770191
 31
0.0
  0
ARC
  5
C40
330
1E
100
AcDbEntity
  8
STEMPEL
100
AcDbCircle
 10
75.41711947679335
 20
211.1824137770191
 30
0.0
 40
6.0
100
AcDbArc
 50
13.34236379700021
 51
90.0
  0
ARC
  5
C41
330
1E
100
AcDbEntity
  8
STEMPEL
100
AcDbCircle
 10
107.0401194767934
 20
218.6824137770191
 30
0.0
 40
26.5
100
AcDbArc
 50
193.3423637970002
 51
346.6576362029997
  0
LINE
  5
C42
330
1E
100
AcDbEntity
  8
STEMPEL
100
AcDbLine
 10
157.6241194767933
 20
223.1824137770191
 30
0.0
 11
157.6241194767933
 21
220.1824137770191
 31
0.0
  0
LINE
  5
C43
330
1E
100
AcDbEntity
  8
STEMPEL
100
AcDbLine
 10
141.3451194767933
 20
223.1824137770191
 30
0.0
 11
141.3451194767933
 21
220.1824137770191
 31
0.0
  0
LINE
  5
C44
330
1E
100
AcDbEntity
  8
STEMPEL
100
AcDbLine
 10
56.46211947679336
 20
223.1824137770191
 30
0.0
 11
56.46211947679336
 21
220.1824137770191
 31
0.0
  0
LINE
  5
C45
330
1E
100
AcDbEntity
  8
STEMPEL
100
AcDbLine
 10
160.4971194767934
 20
220.1824137770191
 30
0.0
 11
151.9971194767934
 21
220.1824137770191
 31
0.0
  0
LINE
  5
C46
330
1E
100
AcDbEntity
  8
STEMPEL
100
AcDbLine
 10
160.4971194767934
 20
223.1824137770191
 30
0.0
 11
160.4971194767934
 21
220.1824137770191
 31
0.0
  0
LINE
  5
C47
330
1E
100
AcDbEntity
  8
STEMPEL
100
AcDbLine
 10
153.9581194767933
 20
223.1824137770191
 30
0.0
 11
160.4971194767934
 21
223.1824137770191
 31
0.0
  0
ARC
  5
C48
330
1E
100
AcDbEntity
  8
STEMPEL
100
AcDbCircle
 10
153.9581194767933
 20
224.1824137770191
 30
0.0
 40
1.0
100
AcDbArc
 50
180.0
 51
270.0
  0
LINE
  5
C49
330
1E
100
AcDbEntity
  8
STEMPEL
100
AcDbLine
 10
152.9581194767933
 20
225.1824137770191
 30
0.0
 11
152.9581194767933
 21
224.1824137770191
 31
0.0
  0
ARC
  5
C4A
330
1E
100
AcDbEntity
  8
STEMPEL
100
AcDbCircle
 10
154.4331194767933
 20
224.1824137770191
 30
0.0
 40
4.0
100
AcDbArc
 50
180.0
 51
270.0
  0
LINE
  5
C4B
330
1E
100
AcDbEntity
  8
STEMPEL
100
AcDbLine
 10
150.4331194767933
 20
225.1824137770191
 30
0.0
 11
150.4331194767933
 21
224.1824137770191
 31
0.0
  0
LINE
  5
C4C
330
1E
100
AcDbEntity
  8
STEMPEL
100
AcDbLine
 10
153.9331194767934
 20
225.1824137770191
 30
0.0
 11
150.4331194767933
 21
225.1824137770191
 31
0.0
  0
LINE
  5
C4D
330
1E
100
AcDbEntity
  8
STEMPEL
100
AcDbLine
 10
153.9331194767934
 20
224.1824137770191
 30
0.0
 11
153.9331194767934
 21
225.1824137770191
 31
0.0
  0
ARC
  5
C4E
330
1E
100
AcDbEntity
  8
STEMPEL
100
AcDbCircle
 10
154.9331194767933
 20
224.1824137770191
 30
0.0
 40
1.0
100
AcDbArc
 50
180.0
 51
270.0
  0
LINE
  5
C4F
330
1E
100
AcDbEntity
  8
STEMPEL
100
AcDbLine
 10
138.6621194767933
 20
220.1824137770191
 30
0.0
 11
143.9971194767934
 21
220.1824137770191
 31
0.0
  0
ARC
  5
C50
330
1E
100
AcDbEntity
  8
STEMPEL
100
AcDbCircle
 10
138.6621194767933
 20
226.1824137770191
 30
0.0
 40
6.0
100
AcDbArc
 50
193.3423637970002
 51
270.0
  0
ARC
  5
C51
330
1E
100
AcDbEntity
  8
STEMPEL
100
AcDbCircle
 10
107.0401194767934
 20
218.6824137770191
 30
0.0
 40
26.5
100
AcDbArc
 50
13.34236379700021
 51
166.6576362029998
  0
ARC
  5
C52
330
1E
100
AcDbEntity
  8
STEMPEL
100
AcDbCircle
 10
75.41711947679335
 20
226.1824137770191
 30
0.0
 40
6.0
100
AcDbArc
 50
270.0
 51
346.6576362029997
  0
LINE
  5
C53
330
1E
100
AcDbEntity
  8
STEMPEL
100
AcDbLine
 10
53.58211947679336
 20
220.1824137770191
 30
0.0
 11
75.41711947679335
 21
220.1824137770191
 31
0.0
  0
LINE
  5
C54
330
1E
100
AcDbEntity
  8
STEMPEL
100
AcDbLine
 10
53.58211947679336
 20
223.1824137770191
 30
0.0
 11
53.58211947679336
 21
220.1824137770191
 31
0.0
  0
LINE
  5
C55
330
1E
100
AcDbEntity
  8
STEMPEL
100
AcDbLine
 10
75.41711947679335
 20
223.1824137770191
 30
0.0
 11
53.58211947679336
 21
223.1824137770191
 31
0.0
  0
ARC
  5
C56
330
1E
100
AcDbEntity
  8
STEMPEL
100
AcDbCircle
 10
75.41711947679335
 20
226.1824137770191
 30
0.0
 40
3.0
100
AcDbArc
 50
270.0
 51
346.6576362029997
  0
ARC
  5
C57
330
1E
100
AcDbEntity
  8
STEMPEL
100
AcDbCircle
 10
107.0401194767934
 20
218.6824137770191
 30
0.0
 40
29.5
100
AcDbArc
 50
13.34236379700021
 51
166.6576362029998
  0
ARC
  5
C58
330
1E
100
AcDbEntity
  8
STEMPEL
100
AcDbCircle
 10
138.6621194767933
 20
226.1824137770191
 30
0.0
 40
3.0
100
AcDbArc
 50
193.3423637970002
 51
270.0
  0
LINE
  5
C59
330
1E
100
AcDbEntity
  8
STEMPEL
100
AcDbLine
 10
150.4331194767933
 20
223.1824137770191
 30
0.0
 11
138.6621194767933
 21
223.1824137770191
 31
0.0
  0
ARC
  5
C5A
330
1E
100
AcDbEntity
  8
HILF
100
AcDbCircle
 10
107.0401194767934
 20
218.6824137770191
 30
0.0
 40
31.0
100
AcDbArc
 50
112.9195421519993
 51
171.3487212010002
  0
ARC
  5
C5B
330
1E
100
AcDbEntity
  8
HILF
100
AcDbCircle
 10
99.64011947679336
 20
236.1824137770191
 30
0.0
 40
12.0
100
AcDbArc
 50
90.0
 51
112.9195421519993
  0
LINE
  5
C5C
330
1E
100
AcDbEntity
  8
HILF
100
AcDbLine
 10
114.4391194767934
 20
248.1824137770192
 30
0.0
 11
99.64011947679336
 21
248.1824137770192
 31
0.0
  0
ARC
  5
C5E
330
1E
100
AcDbEntity
  8
HILF
100
AcDbCircle
 10
114.4391194767934
 20
236.1824137770191
 30
0.0
 40
12.0
100
AcDbArc
 50
67.0804578480006
 51
90.0
  0
ARC
  5
C5F
330
1E
100
AcDbEntity
  8
HILF
100
AcDbCircle
 10
107.0401194767934
 20
218.6824137770191
 30
0.0
 40
31.0
100
AcDbArc
 50
8.651278798999742
 51
67.0804578480006
  0
LINE
  5
C60
330
1E
100
AcDbEntity
  8
MITTEL
100
AcDbLine
 10
66.04011947679333
 20
233.1824137770191
 30
0.0
 11
66.04011947679333
 21
193.1824137770191
 31
0.0
  0
LINE
  5
C61
330
1E
100
AcDbEntity
  8
MITTEL
100
AcDbLine
 10
148.0401194767934
 20
193.1824137770191
 30
0.0
 11
148.0401194767934
 21
233.1824137770191
 31
0.0
  0
LINE
  5
C62
330
1E
100
AcDbEntity
  8
MITTEL
100
AcDbLine
 10
48.58211947679336
 20
218.6824137770191
 30
0.0
 11
165.4971194767933
 21
218.6824137770191
 31
0.0
  0
LINE
  5
C63
330
1E
100
AcDbEntity
  8
MITTEL
100
AcDbLine
 10
107.0401194767934
 20
172.1824137770191
 30
0.0
 11
107.0401194767934
 21
253.1824137770191
 31
0.0
  0
CIRCLE
  5
C64
330
1E
100
AcDbEntity
  8
STEMPEL
100
AcDbCircle
 10
148.0421194767933
 20
128.4126085336389
 30
0.0
 40
6.5
  0
CIRCLE
  5
C65
330
1E
100
AcDbEntity
  8
STEMPEL
100
AcDbCircle
 10
66.04211947679335
 20
128.4126085336389
 30
0.0
 40
6.5
  0
TEXT
  5
C66
330
1E
100
AcDbEntity
  8
TEXT
 62
     1
100
AcDbText
 10
101.7751841815157
 20
123.2376085336388
 30
0.0
 40
3.5
  1
DN50
 41
0.8
 72
     1
 11
106.908517514849
 21
123.2376085336388
 31
0.0
100
AcDbText
  0
TEXT
  5
C67
330
1E
100
AcDbEntity
  8
TEXT
 62
     1
100
AcDbText
 10
102.263504528256
 20
130.3396085336389
 30
0.0
 40
3.5
  1
LORO
 41
0.8
 72
     1
 11
107.3301711949227
 21
130.3396085336389
 31
0.0
100
AcDbText
  0
CIRCLE
  5
C68
330
1E
100
AcDbEntity
  8
HILF
100
AcDbCircle
 10
107.0381194767933
 20
128.4126085336389
 30
0.0
 40
9.25
  0
CIRCLE
  5
C69
330
1E
100
AcDbEntity
  8
HILF
100
AcDbCircle
 10
107.0381194767933
 20
128.4126085336389
 30
0.0
 40
10.75
  0
LINE
  5
C6A
330
1E
100
AcDbEntity
  8
STEMPEL
100
AcDbLine
 10
147.0421194767933
 20
121.9896085336389
 30
0.0
 11
147.0421194767933
 21
134.8346085336389
 31
0.0
  0
LINE
  5
C6B
330
1E
100
AcDbEntity
  8
STEMPEL
100
AcDbLine
 10
149.0421194767933
 20
121.9896085336389
 30
0.0
 11
149.0421194767933
 21
134.8346085336389
 31
0.0
  0
LINE
  5
C6C
330
1E
100
AcDbEntity
  8
STEMPEL
100
AcDbLine
 10
65.04211947679334
 20
121.9896085336389
 30
0.0
 11
65.04211947679334
 21
134.8346085336389
 31
0.0
  0
LINE
  5
C6D
330
1E
100
AcDbEntity
  8
STEMPEL
100
AcDbLine
 10
67.04211947679334
 20
121.9896085336389
 30
0.0
 11
67.04211947679334
 21
134.8346085336389
 31
0.0
  0
LINE
  5
C6E
330
1E
100
AcDbEntity
  8
MITTEL
100
AcDbLine
 10
165.5421194767933
 20
128.4126085336389
 30
0.0
 11
48.54211947679335
 21
128.4126085336389
 31
0.0
  0
LINE
  5
C6F
330
1E
100
AcDbEntity
  8
MITTEL
100
AcDbLine
 10
148.0421194767933
 20
116.9126085336389
 30
0.0
 11
148.0421194767933
 21
139.9126085336389
 31
0.0
  0
LINE
  5
C70
330
1E
100
AcDbEntity
  8
MITTEL
100
AcDbLine
 10
66.04211947679335
 20
116.9126085336389
 30
0.0
 11
66.04211947679335
 21
139.9126085336389
 31
0.0
  0
LINE
  5
C71
330
1E
100
AcDbEntity
  8
MITTEL
100
AcDbLine
 10
107.0401194767934
 20
148.4126085336388
 30
0.0
 11
107.0401194767933
 21
108.4126085336388
 31
0.0
  0
LINE
  5
C72
330
1E
100
AcDbEntity
  8
STEMPEL
100
AcDbLine
 10
142.9311194767933
 20
124.3956085336389
 30
0.0
 11
141.3881194767933
 21
113.4126085336389
 31
0.0
  0
LINE
  5
C73
330
1E
100
AcDbEntity
  8
STEMPEL
100
AcDbLine
 10
150.4761194767933
 20
113.4126085336389
 30
0.0
 11
151.8431194767934
 21
123.1396085336389
 31
0.0
  0
LINE
  5
C74
330
1E
100
AcDbEntity
  8
HILF
100
AcDbLine
 10
78.29411947679336
 20
123.6826085336389
 30
0.0
 11
78.29411947679336
 21
113.4126085336389
 31
0.0
  0
LINE
  5
C75
330
1E
100
AcDbEntity
  8
HILF
100
AcDbLine
 10
97.38511947679336
 20
123.6826085336389
 30
0.0
 11
78.29411947679336
 21
123.6826085336389
 31
0.0
  0
LINE
  5
C76
330
1E
100
AcDbEntity
  8
HILF
100
AcDbLine
 10
78.29411947679336
 20
133.1426085336389
 30
0.0
 11
97.38511947679336
 21
133.1426085336389
 31
0.0
  0
LINE
  5
C77
330
1E
100
AcDbEntity
  8
HILF
100
AcDbLine
 10
78.29411947679336
 20
143.4126085336389
 30
0.0
 11
78.29411947679336
 21
133.1426085336389
 31
0.0
  0
LINE
  5
C78
330
1E
100
AcDbEntity
  8
HILF
100
AcDbLine
 10
135.7901194767934
 20
123.6826085336389
 30
0.0
 11
135.7901194767934
 21
113.4126085336389
 31
0.0
  0
LINE
  5
C79
330
1E
100
AcDbEntity
  8
HILF
100
AcDbLine
 10
116.6921194767933
 20
123.6826085336389
 30
0.0
 11
135.7901194767934
 21
123.6826085336389
 31
0.0
  0
LINE
  5
C7A
330
1E
100
AcDbEntity
  8
HILF
100
AcDbLine
 10
135.7901194767934
 20
133.1426085336389
 30
0.0
 11
116.6921194767933
 21
133.1426085336389
 31
0.0
  0
LINE
  5
C7B
330
1E
100
AcDbEntity
  8
HILF
100
AcDbLine
 10
135.7901194767934
 20
143.4126085336389
 30
0.0
 11
135.7901194767934
 21
133.1426085336389
 31
0.0
  0
ARC
  5
C7C
330
1E
100
AcDbEntity
  8
HILF
100
AcDbCircle
 10
148.0421194767933
 20
128.4126085336389
 30
0.0
 40
6.0
100
AcDbArc
 50
99.59406822700028
 51
260.4059317729997
  0
ARC
  5
C7D
330
1E
100
AcDbEntity
  8
HILF
100
AcDbCircle
 10
148.0421194767933
 20
128.4126085336389
 30
0.0
 40
6.0
100
AcDbArc
 50
279.5940682270003
 51
80.40593177299973
  0
ARC
  5
C7E
330
1E
100
AcDbEntity
  8
HILF
100
AcDbCircle
 10
66.04211947679335
 20
128.4126085336389
 30
0.0
 40
6.0
100
AcDbArc
 50
99.59406822700028
 51
260.4059317729997
  0
ARC
  5
C7F
330
1E
100
AcDbEntity
  8
HILF
100
AcDbCircle
 10
66.04211947679335
 20
128.4126085336389
 30
0.0
 40
6.0
100
AcDbArc
 50
279.5940682270003
 51
80.40593177299973
  0
LINE
  5
C80
330
1E
100
AcDbEntity
  8
STEMPEL
100
AcDbLine
 10
153.9761194767933
 20
120.3466085336389
 30
0.0
 11
151.5001194767933
 21
120.6946085336389
 31
0.0
  0
LINE
  5
C81
330
1E
100
AcDbEntity
  8
STEMPEL
100
AcDbLine
 10
153.0011194767933
 20
113.4126085336389
 30
0.0
 11
153.9761194767933
 21
120.3466085336389
 31
0.0
  0
ARC
  5
C82
330
1E
100
AcDbEntity
  8
HILF
100
AcDbCircle
 10
85.29411947679335
 20
128.4126085336389
 30
0.0
 40
8.5
100
AcDbArc
 50
145.4396782200005
 51
214.5603217799995
  0
ARC
  5
C83
330
1E
100
AcDbEntity
  8
HILF
100
AcDbCircle
 10
128.7901194767934
 20
128.4126085336389
 30
0.0
 40
8.5
100
AcDbArc
 50
325.4396782200005
 51
34.56032177999951
  0
LINE
  5
C84
330
1E
100
AcDbEntity
  8
STEMPEL
100
AcDbLine
 10
157.6231194767933
 20
113.4126085336389
 30
0.0
 11
56.46111947679333
 21
113.4126085336389
 31
0.0
  0
ARC
  5
C85
330
1E
100
AcDbEntity
  8
STEMPEL
100
AcDbCircle
 10
120.5421194767933
 20
128.4126085336389
 30
0.0
 40
40.0
100
AcDbArc
 50
337.9756871630003
 51
22.02431283699973
  0
LINE
  5
C86
330
1E
100
AcDbEntity
  8
STEMPEL
100
AcDbLine
 10
56.46111947679333
 20
143.4126085336389
 30
0.0
 11
157.6231194767933
 21
143.4126085336389
 31
0.0
  0
ARC
  5
C87
330
1E
100
AcDbEntity
  8
STEMPEL
100
AcDbCircle
 10
93.54211947679335
 20
128.4126085336389
 30
0.0
 40
40.0
100
AcDbArc
 50
157.9756871630002
 51
202.0243128369997
  0
DIMENSION
  5
C96
330
1E
100
AcDbEntity
  8
BEM
100
AcDbDimension
  2
*D1
 10
148.0421194767933
 20
100.366304416375
 30
0.0
 11
107.0421194767933
 21
103.616304416375
 31
0.0
 70
    32
 71
     5
 42
82.0
  3
Standard
100
AcDbAlignedDimension
 13
66.04211947679335
 23
116.9126085336389
 33
0.0
 14
148.0421194767933
 24
116.9126085336389
 34
0.0
100
AcDbRotatedDimension
1001
ACAD
1000
DSTYLE
1002
{
1070
    41
1040
3.5
1070
    42
1040
1.0
1070
    43
1040
7.0
1070
    44
1040
1.0
1070
    73
1070
     0
1070
    74
1070
     0
1070
    77
1070
     1
1070
    78
1070
     8
1070
    79
1070
     2
1070
   140
1040
3.5
1070
   141
1040
1.5
1070
   146
1040
0.5142857142857144
1070
   147
1040
1.5
1070
   172
1070
     1
1070
   178
1070
     1
1070
   179
1070
     2
1070
   271
1070
     2
1070
   272
1070
     2
1070
   284
1070
     8
1070
   285
1070
     8
1070
   286
1070
     8
1002
}
  0
DIMENSION
  5
CA3
330
1E
100
AcDbEntity
  8
BEM
100
AcDbDimension
  2
*D2
 10
160.5421194767933
 20
92.60470949237173
 30
0.0
 11
107.0421194767933
 21
95.85470949237175
 31
0.0
 70
    32
 71
     5
 42
107.0
  3
Standard
100
AcDbAlignedDimension
 13
53.54211947679335
 23
128.4126085336389
 33
0.0
 14
160.5421194767933
 24
128.4126085336389
 34
0.0
100
AcDbRotatedDimension
1001
ACAD
1000
DSTYLE
1002
{
1070
    41
1040
3.5
1070
    42
1040
1.0
1070
    43
1040
7.0
1070
    44
1040
1.0
1070
    73
1070
     0
1070
    74
1070
     0
1070
    77
1070
     1
1070
    78
1070
     8
1070
    79
1070
     2
1070
   140
1040
3.5
1070
   141
1040
1.5
1070
   146
1040
0.5142857142857144
1070
   147
1040
1.5
1070
   172
1070
     1
1070
   178
1070
     1
1070
   179
1070
     2
1070
   271
1070
     2
1070
   272
1070
     2
1070
   284
1070
     8
1070
   285
1070
     8
1070
   286
1070
     8
1002
}
  0
DIMENSION
  5
CBA
330
1E
100
AcDbEntity
  8
BEM
100
AcDbDimension
  2
*D3
 10
44.56031121331512
 20
220.1824137770191
 30
0.0
 11
41.31031121331508
 21
229.6157471103525
 31
0.0
 70
    32
 71
     5
 42
3.0
  3
Standard
100
AcDbAlignedDimension
 13
53.54011947679333
 23
217.1824137770191
 33
0.0
 14
53.58211947679336
 24
220.1824137770191
 34
0.0
 50
90.0
100
AcDbRotatedDimension
1001
ACAD
1000
DSTYLE
1002
{
1070
    41
1040
3.5
1070
    42
1040
1.0
1070
    43
1040
7.0
1070
    44
1040
1.0
1070
    73
1070
     0
1070
    74
1070
     0
1070
    77
1070
     1
1070
    78
1070
     8
1070
    79
1070
     2
1070
   140
1040
3.5
1070
   141
1040
1.5
1070
   146
1040
0.5142857142857144
1070
   147
1040
1.5
1070
   172
1070
     1
1070
   178
1070
     1
1070
   179
1070
     2
1070
   271
1070
     2
1070
   272
1070
     2
1070
   284
1070
     8
1070
   285
1070
     8
1070
   286
1070
     8
1002
}
  0
DIMENSION
  5
CC9
330
1E
100
AcDbEntity
  8
BEM
100
AcDbDimension
  2
*D4
 10
36.56451242810226
 20
248.1824137770192
 30
0.0
 11
33.31451242810222
 21
212.6824137770192
 31
0.0
 70
    32
 71
     5
 42
71.0
  3
Standard
100
AcDbAlignedDimension
 13
101.4101194767933
 23
177.1824137770191
 33
0.0
 14
99.64011947679336
 24
248.1824137770192
 34
0.0
 50
90.0
100
AcDbRotatedDimension
1001
ACAD
1000
DSTYLE
1002
{
1070
    41
1040
3.5
1070
    42
1040
1.0
1070
    43
1040
7.0
1070
    44
1040
1.0
1070
    73
1070
     0
1070
    74
1070
     0
1070
    77
1070
     1
1070
    78
1070
     8
1070
    79
1070
     2
1070
   140
1040
3.5
1070
   141
1040
1.5
1070
   146
1040
0.5142857142857144
1070
   147
1040
1.5
1070
   172
1070
     1
1070
   178
1070
     1
1070
   179
1070
     2
1070
   271
1070
     2
1070
   272
1070
     2
1070
   284
1070
     8
1070
   285
1070
     8
1070
   286
1070
     8
1002
}
  0
DIMENSION
  5
CFD
330
1E
100
AcDbEntity
  8
BEM
100
AcDbDimension
  2
*D5
 10
125.9652669466531
 20
237.2320835887415
 30
0.0
 11
117.3819604563439
 21
228.7947957261875
 31
0.0
 70
   161
 71
     5
 42
52.99999999536393
  3
Standard
100
AcDbAlignedDimension
 13
88.14148452367726
 23
200.1057726137502
 33
0.0
 14
125.9382630082164
 24
237.2595548666953
 34
0.0
1001
ACAD
1000
DSTYLE
1002
{
1070
    41
1040
3.5
1070
    42
1040
1.0
1070
    43
1040
7.0
1070
    44
1040
1.0
1070
    73
1070
     0
1070
    74
1070
     0
1070
    77
1070
     1
1070
    78
1070
     8
1070
    79
1070
     2
1070
   140
1040
3.5
1070
   141
1040
1.5
1070
   146
1040
0.5142857142857144
1070
   147
1040
1.5
1070
   172
1070
     1
1070
   178
1070
     1
1070
   179
1070
     2
1070
   271
1070
     2
1070
   272
1070
     2
1070
   284
1070
     8
1070
   285
1070
     8
1070
   286
1070
     8
1002
}
  0
TEXT
  5
D50
330
1E
100
AcDbEntity
  8
TEXT
 62
     1
100
AcDbText
 10
113.9182761339558
 20
57.82028541582997
 30
0.0
 40
3.5
  1
Werkstoff: St37 Dickschichtpassiviert
 41
0.8
  7
GREEKS
100
AcDbText
  0
DIMENSION
  5
D5A
330
1E
100
AcDbEntity
  8
BEM
100
AcDbDimension
  2
*D6
 10
41.51240576182601
 20
113.4126085336389
 30
0.0
 11
38.262405761826
 21
128.4126085336389
 31
0.0
 70
    32
 71
     5
 42
29.99999999999999
  3
Standard
100
AcDbAlignedDimension
 13
56.46112704131503
 23
143.4126085336389
 33
0.0
 14
56.46112704131503
 24
113.4126085336389
 34
0.0
 50
90.0
100
AcDbRotatedDimension
1001
ACAD
1000
DSTYLE
1002
{
1070
    41
1040
3.5
1070
    42
1040
1.0
1070
    43
1040
7.0
1070
    44
1040
1.0
1070
    73
1070
     0
1070
    74
1070
     0
1070
    77
1070
     1
1070
    78
1070
     8
1070
    79
1070
     2
1070
   140
1040
3.5
1070
   141
1040
1.5
1070
   146
1040
0.5142857142857144
1070
   147
1040
1.5
1070
   172
1070
     1
1070
   178
1070
     1
1070
   179
1070
     2
1070
   271
1070
     2
1070
   272
1070
     2
1070
   284
1070
     8
1070
   285
1070
     8
1070
   286
1070
     8
1002
}
  0
ENDSEC
  0
SECTION
  2
OBJECTS
  0
DICTIONARY
  5
C
330
0
100
AcDbDictionary
281
     1
  3
ACAD_COLOR
350
DF
  3
ACAD_GROUP
350
D
  3
ACAD_LAYOUT
350
19
  3
ACAD_MATERIAL
350
DE
  3
ACAD_MLINESTYLE
350
16
  3
ACAD_PLOTSETTINGS
350
18
  3
ACAD_PLOTSTYLENAME
350
E
  3
AcDbVariableDictionary
350
EA
  0
DICTIONARY
  5
A0
330
1E
100
AcDbDictionary
280
     1
281
     1
  3
ACAD_LAYOUTSELFREF
360
D4
  0
DICTIONARY
  5
A2
330
1A
100
AcDbDictionary
280
     1
281
     1
  3
ACAD_LAYOUTSELFREF
360
D3
  0
DICTIONARY
  5
DF
102
{ACAD_REACTORS
330
C
102
}
330
C
100
AcDbDictionary
281
     1
  0
DICTIONARY
  5
D
102
{ACAD_REACTORS
330
C
102
}
330
C
100
AcDbDictionary
281
     1
  0
DICTIONARY
  5
19
102
{ACAD_REACTORS
330
C
102
}
330
C
100
AcDbDictionary
281
     1
  3
Layout1
350
1D
  3
Model
350
21
  0
DICTIONARY
  5
DE
102
{ACAD_REACTORS
330
C
102
}
330
C
100
AcDbDictionary
281
     1
  0
DICTIONARY
  5
16
102
{ACAD_REACTORS
330
C
102
}
330
C
100
AcDbDictionary
281
     1
  3
Standard
350
17
  0
DICTIONARY
  5
18
102
{ACAD_REACTORS
330
C
102
}
330
C
100
AcDbDictionary
281
     1
  0
ACDBDICTIONARYWDFLT
  5
E
102
{ACAD_REACTORS
330
C
102
}
330
C
100
AcDbDictionary
281
     1
  3
Normal
350
F
100
AcDbDictionaryWithDefault
340
F
  0
DICTIONARY
  5
EA
102
{ACAD_REACTORS
330
C
102
}
330
C
100
AcDbDictionary
281
     1
  3
DIMASSOC
350
EB
  3
PROJECTNAME
350
EC
  0
XRECORD
  5
D4
102
{ACAD_REACTORS
330
A0
102
}
330
A0
100
AcDbXrecord
280
     1
340
1E
  0
XRECORD
  5
D3
102
{ACAD_REACTORS
330
A2
102
}
330
A2
100
AcDbXrecord
280
     1
340
1A
  0
LAYOUT
  5
1D
102
{ACAD_REACTORS
330
19
102
}
330
19
100
AcDbPlotSettings
  1

  2
\\NT_WORK01\HP LaserJet 5000 PCL 6
  4

  6

 40
0.0
 41
0.0
 42
0.0
 43
0.0
 44
0.0
 45
0.0
 46
0.0
 47
0.0
 48
0.0
 49
0.0
140
0.0
141
0.0
142
1.0
143
1.0
 70
   688
 72
     0
 73
     0
 74
     5
  7

 75
    16
147
1.0
 76
     0
 77
     2
 78
   300
148
0.0
149
0.0
100
AcDbLayout
  1
Layout1
 70
     0
 71
     1
 10
0.0
 20
0.0
 11
12.0
 21
9.0
 12
0.0
 22
0.0
 32
0.0
 14
1.000000000000000E+20
 24
1.000000000000000E+20
 34
1.000000000000000E+20
 15
-1.000000000000000E+20
 25
-1.000000000000000E+20
 35
-1.000000000000000E+20
146
0.0
 13
0.0
 23
0.0
 33
0.0
 16
1.0
 26
0.0
 36
0.0
 17
0.0
 27
1.0
 37
0.0
 76
     0
330
1A
  0
LAYOUT
  5
21
102
{ACAD_REACTORS
330
19
102
}
330
19
100
AcDbPlotSettings
  1

  2
none_device
  4
Letter_(8.50_x_11.00_Inches)
  6

 40
6.349999904632568
 41
6.349999904632568
 42
6.350006103515625
 43
6.350006103515625
 44
215.8999938964844
 45
279.3999938964844
 46
0.0
 47
0.0
 48
0.0
 49
0.0
140
0.0
141
0.0
142
1.0
143
1.0
 70
 11952
 72
     0
 73
     1
 74
     0
  7

 75
     0
147
1.0
 76
     0
 77
     2
 78
   300
148
-230.4417396561563
149
47.00486644638983
100
AcDbLayout
  1
Model
 70
     1
 71
     0
 10
0.0
 20
0.0
 11
12.0
 21
9.0
 12
0.0
 22
0.0
 32
0.0
 14
0.0
 24
0.0
 34
0.0
 15
0.0
 25
0.0
 35
0.0
146
0.0
 13
0.0
 23
0.0
 33
0.0
 16
1.0
 26
0.0
 36
0.0
 17
0.0
 27
1.0
 37
0.0
 76
     0
330
1E
  0
MLINESTYLE
  5
17
102
{ACAD_REACTORS
330
16
102
}
330
16
100
AcDbMlineStyle
  2
STANDARD
 70
     0
  3

 62
   256
 51
90.0
 52
90.0
 71
     2
 49
0.5
 62
   256
  6
BYLAYER
 49
-0.5
 62
   256
  6
BYLAYER
  0
ACDBPLACEHOLDER
  5
F
102
{ACAD_REACTORS
330
E
102
}
330
E
  0
DICTIONARYVAR
  5
EB
102
{ACAD_REACTORS
330
EA
102
}
330
EA
100
DictionaryVariables
280
     0
  1
1
  0
DICTIONARYVAR
  5
EC
102
{ACAD_REACTORS
330
EA
102
}
330
EA
100
DictionaryVariables
280
     0
  1

  0
ENDSEC
  0
EOF
