  0
SECTION
  2
HEADER
  9
$ACADVER
  1
AC1018
  9
$ACADMAINTVER
 70
     2
  9
$DWGCODEPAGE
  3
ANSI_1252
  9
$INSBASE
 10
0.0
 20
0.0
 30
0.0
  9
$EXTMIN
 10
-0.0064082024694017
 20
-0.0090630292066862
 30
-0.0015258207003583
  9
$EXTMAX
 10
210.006409180358
 20
297.0090644122208
 30
0.0000000349246037
  9
$LIMMIN
 10
0.0
 20
0.0
  9
$LIMMAX
 10
210.0
 20
297.0
  9
$ORTHOMODE
 70
     1
  9
$REGENMODE
 70
     1
  9
$FILLMODE
 70
     1
  9
$QTEXTMODE
 70
     0
  9
$MIRRTEXT
 70
     1
  9
$LTSCALE
 40
10.0
  9
$ATTMODE
 70
     1
  9
$TEXTSIZE
 40
2.5
  9
$TRACEWID
 40
0.5
  9
$TEXTSTYLE
  7
GREEKS
  9
$CLAYER
  8
BEM
  9
$CELTYPE
  6
ByLayer
  9
$CECOLOR
 62
   256
  9
$CELTSCALE
 40
1.0
  9
$DISPSILH
 70
     0
  9
$DIMSCALE
 40
1.0
  9
$DIMASZ
 40
3.5
  9
$DIMEXO
 40
1.0
  9
$DIMDLI
 40
7.0
  9
$DIMRND
 40
0.0
  9
$DIMDLE
 40
0.0
  9
$DIMEXE
 40
1.0
  9
$DIMTP
 40
0.0
  9
$DIMTM
 40
0.0
  9
$DIMTXT
 40
3.5
  9
$DIMCEN
 40
1.5
  9
$DIMTSZ
 40
0.0
  9
$DIMTOL
 70
     0
  9
$DIMLIM
 70
     0
  9
$DIMTIH
 70
     0
  9
$DIMTOH
 70
     0
  9
$DIMSE1
 70
     0
  9
$DIMSE2
 70
     0
  9
$DIMTAD
 70
     1
  9
$DIMZIN
 70
     8
  9
$DIMBLK
  1

  9
$DIMASO
 70
     1
  9
$DIMSHO
 70
     0
  9
$DIMPOST
  1

  9
$DIMAPOST
  1

  9
$DIMALT
 70
     0
  9
$DIMALTD
 70
     2
  9
$DIMALTF
 40
25.4
  9
$DIMLFAC
 40
1.0
  9
$DIMTOFL
 70
     1
  9
$DIMTVP
 40
0.0
  9
$DIMTIX
 70
     0
  9
$DIMSOXD
 70
     0
  9
$DIMSAH
 70
     0
  9
$DIMBLK1
  1

  9
$DIMBLK2
  1

  9
$DIMSTYLE
  2
Standard
  9
$DIMCLRD
 70
     0
  9
$DIMCLRE
 70
     0
  9
$DIMCLRT
 70
     1
  9
$DIMTFAC
 40
0.5142857142857144
  9
$DIMGAP
 40
1.5
  9
$DIMJUST
 70
     0
  9
$DIMSD1
 70
     0
  9
$DIMSD2
 70
     0
  9
$DIMTOLJ
 70
     1
  9
$DIMTZIN
 70
     8
  9
$DIMALTZ
 70
     8
  9
$DIMALTTZ
 70
     8
  9
$DIMUPT
 70
     0
  9
$DIMDEC
 70
     2
  9
$DIMTDEC
 70
     2
  9
$DIMALTU
 70
     2
  9
$DIMALTTD
 70
     2
  9
$DIMTXSTY
  7
STANDARD
  9
$DIMAUNIT
 70
     0
  9
$DIMADEC
 70
     2
  9
$DIMALTRND
 40
0.0
  9
$DIMAZIN
 70
     2
  9
$DIMDSEP
 70
    46
  9
$DIMATFIT
 70
     3
  9
$DIMFRAC
 70
     0
  9
$DIMLDRBLK
  1

  9
$DIMLUNIT
 70
     2
  9
$DIMLWD
 70
    -2
  9
$DIMLWE
 70
    -2
  9
$DIMTMOVE
 70
     0
  9
$LUNITS
 70
     2
  9
$LUPREC
 70
     2
  9
$SKETCHINC
 40
1.0
  9
$FILLETRAD
 40
15.0
  9
$AUNITS
 70
     0
  9
$AUPREC
 70
     0
  9
$MENU
  1
ACAD
  9
$ELEVATION
 40
0.0
  9
$PELEVATION
 40
0.0
  9
$THICKNESS
 40
0.0
  9
$LIMCHECK
 70
     0
  9
$CHAMFERA
 40
0.0
  9
$CHAMFERB
 40
0.0
  9
$CHAMFERC
 40
0.0
  9
$CHAMFERD
 40
0.0
  9
$SKPOLY
 70
     0
  9
$TDCREATE
 40
2455397.823042361
  9
$TDUCREATE
 40
2455397.781375695
  9
$TDUPDATE
 40
2456230.300914769
  9
$TDUUPDATE
 40
2456230.259248102
  9
$TDINDWG
 40
0.1449932639
  9
$TDUSRTIMER
 40
0.1449932639
  9
$USRTIMER
 70
     1
  9
$ANGBASE
 50
0.0
  9
$ANGDIR
 70
     0
  9
$PDMODE
 70
     0
  9
$PDSIZE
 40
0.0
  9
$PLINEWID
 40
0.0
  9
$SPLFRAME
 70
     0
  9
$SPLINETYPE
 70
     6
  9
$SPLINESEGS
 70
     8
  9
$HANDSEED
  5
AAC
  9
$SURFTAB1
 70
     6
  9
$SURFTAB2
 70
     6
  9
$SURFTYPE
 70
     6
  9
$SURFU
 70
     6
  9
$SURFV
 70
     6
  9
$UCSBASE
  2

  9
$UCSNAME
  2

  9
$UCSORG
 10
0.0
 20
0.0
 30
0.0
  9
$UCSXDIR
 10
1.0
 20
0.0
 30
0.0
  9
$UCSYDIR
 10
0.0
 20
1.0
 30
0.0
  9
$UCSORTHOREF
  2

  9
$UCSORTHOVIEW
 70
     0
  9
$UCSORGTOP
 10
0.0
 20
0.0
 30
0.0
  9
$UCSORGBOTTOM
 10
0.0
 20
0.0
 30
0.0
  9
$UCSORGLEFT
 10
0.0
 20
0.0
 30
0.0
  9
$UCSORGRIGHT
 10
0.0
 20
0.0
 30
0.0
  9
$UCSORGFRONT
 10
0.0
 20
0.0
 30
0.0
  9
$UCSORGBACK
 10
0.0
 20
0.0
 30
0.0
  9
$PUCSBASE
  2

  9
$PUCSNAME
  2

  9
$PUCSORG
 10
0.0
 20
0.0
 30
0.0
  9
$PUCSXDIR
 10
1.0
 20
0.0
 30
0.0
  9
$PUCSYDIR
 10
0.0
 20
1.0
 30
0.0
  9
$PUCSORTHOREF
  2

  9
$PUCSORTHOVIEW
 70
     0
  9
$PUCSORGTOP
 10
0.0
 20
0.0
 30
0.0
  9
$PUCSORGBOTTOM
 10
0.0
 20
0.0
 30
0.0
  9
$PUCSORGLEFT
 10
0.0
 20
0.0
 30
0.0
  9
$PUCSORGRIGHT
 10
0.0
 20
0.0
 30
0.0
  9
$PUCSORGFRONT
 10
0.0
 20
0.0
 30
0.0
  9
$PUCSORGBACK
 10
0.0
 20
0.0
 30
0.0
  9
$USERI1
 70
     0
  9
$USERI2
 70
     0
  9
$USERI3
 70
     0
  9
$USERI4
 70
     0
  9
$USERI5
 70
     0
  9
$USERR1
 40
0.0
  9
$USERR2
 40
0.0
  9
$USERR3
 40
0.0
  9
$USERR4
 40
0.0
  9
$USERR5
 40
0.0
  9
$WORLDVIEW
 70
     1
  9
$SHADEDGE
 70
     3
  9
$SHADEDIF
 70
    70
  9
$TILEMODE
 70
     1
  9
$MAXACTVP
 70
    16
  9
$PINSBASE
 10
0.0
 20
0.0
 30
0.0
  9
$PLIMCHECK
 70
     0
  9
$PEXTMIN
 10
1.000000000000000E+20
 20
1.000000000000000E+20
 30
1.000000000000000E+20
  9
$PEXTMAX
 10
-1.000000000000000E+20
 20
-1.000000000000000E+20
 30
-1.000000000000000E+20
  9
$PLIMMIN
 10
0.0
 20
0.0
  9
$PLIMMAX
 10
12.0
 20
9.0
  9
$UNITMODE
 70
     0
  9
$VISRETAIN
 70
     0
  9
$PLINEGEN
 70
     0
  9
$PSLTSCALE
 70
     0
  9
$TREEDEPTH
 70
  3020
  9
$CMLSTYLE
  2
Standard
  9
$CMLJUST
 70
     0
  9
$CMLSCALE
 40
1.0
  9
$PROXYGRAPHICS
 70
     1
  9
$MEASUREMENT
 70
     0
  9
$CELWEIGHT
370
    -1
  9
$ENDCAPS
280
     0
  9
$JOINSTYLE
280
     0
  9
$LWDISPLAY
290
     0
  9
$INSUNITS
 70
     0
  9
$HYPERLINKBASE
  1

  9
$STYLESHEET
  1
monochrome 1.ctb
  9
$XEDIT
290
     1
  9
$CEPSNTYPE
380
     0
  9
$PSTYLEMODE
290
     1
  9
$FINGERPRINTGUID
  2
{D68B0D02-A558-11D7-B632-000102183313}
  9
$VERSIONGUID
  2
{4B0007B6-2BFE-4407-91B1-42F024B92203}
  9
$EXTNAMES
290
     1
  9
$PSVPSCALE
 40
0.0
  9
$OLESTARTUP
290
     0
  9
$SORTENTS
280
   127
  9
$INDEXCTL
280
     0
  9
$HIDETEXT
280
     0
  9
$XCLIPFRAME
290
     0
  9
$HALOGAP
280
     0
  9
$OBSCOLOR
 70
   257
  9
$OBSLTYPE
280
     0
  9
$INTERSECTIONDISPLAY
280
     0
  9
$INTERSECTIONCOLOR
 70
   257
  9
$DIMASSOC
280
     1
  9
$PROJECTNAME
  1

  0
ENDSEC
  0
SECTION
  2
CLASSES
  0
CLASS
  1
ACDBDICTIONARYWDFLT
  2
AcDbDictionaryWithDefault
  3
ObjectDBX Classes
 90
        0
 91
        1
280
     0
281
     0
  0
CLASS
  1
DICTIONARYVAR
  2
AcDbDictionaryVar
  3
ObjectDBX Classes
 90
        0
 91
        2
280
     0
281
     0
  0
ENDSEC
  0
SECTION
  2
TABLES
  0
TABLE
  2
VPORT
  5
8
330
0
100
AcDbSymbolTable
 70
     3
  0
VPORT
  5
AAB
330
8
100
AcDbSymbolTableRecord
100
AcDbViewportTableRecord
  2
*Active
 70
     0
 10
0.0
 20
0.0
 11
1.0
 21
1.0
 12
104.9999999999999
 22
148.5
 13
0.0
 23
0.0
 14
1.0
 24
1.0
 15
10.0
 25
10.0
 16
0.0
 26
0.0
 36
1.0
 17
0.0
 27
0.0
 37
0.0
 40
297.2162402878748
 41
1.404858299595141
 42
50.0
 43
0.0
 44
0.0
 50
0.0
 51
0.0
 71
     0
 72
  1500
 73
     1
 74
     0
 75
     0
 76
     0
 77
     0
 78
     0
281
     0
 65
     1
110
0.0
120
0.0
130
0.0
111
1.0
121
0.0
131
0.0
112
0.0
122
1.0
132
0.0
 79
     0
146
0.0
  0
ENDTAB
  0
TABLE
  2
LTYPE
  5
5
330
0
100
AcDbSymbolTable
 70
     2
  0
LTYPE
  5
13
330
5
100
AcDbSymbolTableRecord
100
AcDbLinetypeTableRecord
  2
ByBlock
 70
     0
  3

 72
    65
 73
     0
 40
0.0
  0
LTYPE
  5
14
330
5
100
AcDbSymbolTableRecord
100
AcDbLinetypeTableRecord
  2
ByLayer
 70
     0
  3

 72
    65
 73
     0
 40
0.0
  0
LTYPE
  5
15
330
5
100
AcDbSymbolTableRecord
100
AcDbLinetypeTableRecord
  2
Continuous
 70
     0
  3
Solid line
 72
    65
 73
     0
 40
0.0
  0
LTYPE
  5
25
330
5
100
AcDbSymbolTableRecord
100
AcDbLinetypeTableRecord
  2
STRICHPUNKT
 70
     0
  3
__ . __ . __ . __ . __ . __ . __ . __ . __ . __
 72
    65
 73
     4
 40
1.0
 49
0.5
 74
     0
 49
-0.25
 74
     0
 49
0.0
 74
     0
 49
-0.25
 74
     0
  0
ENDTAB
  0
TABLE
  2
LAYER
  5
2
330
0
100
AcDbSymbolTable
 70
     9
  0
LAYER
  5
10
330
2
100
AcDbSymbolTableRecord
100
AcDbLayerTableRecord
  2
0
 70
     0
 62
     7
  6
Continuous
370
    -3
390
F
  0
LAYER
  5
2A
330
2
100
AcDbSymbolTableRecord
100
AcDbLayerTableRecord
  2
VOLL
 70
     0
 62
     1
  6
Continuous
370
    -3
390
F
  0
LAYER
  5
2B
330
2
100
AcDbSymbolTableRecord
100
AcDbLayerTableRecord
  2
HILF
 70
     0
 62
     2
  6
Continuous
370
    -3
390
F
  0
LAYER
  5
2C
330
2
100
AcDbSymbolTableRecord
100
AcDbLayerTableRecord
  2
MITTEL
 70
     0
 62
     2
  6
STRICHPUNKT
370
    -3
390
F
  0
LAYER
  5
2F
330
2
100
AcDbSymbolTableRecord
100
AcDbLayerTableRecord
  2
BEM
 70
     0
 62
     7
  6
Continuous
370
    -3
390
F
  0
LAYER
  5
30
330
2
100
AcDbSymbolTableRecord
100
AcDbLayerTableRecord
  2
STEMPEL
 70
     0
 62
     3
  6
Continuous
370
    -3
390
F
  0
LAYER
  5
31
330
2
100
AcDbSymbolTableRecord
100
AcDbLayerTableRecord
  2
TEXT
 70
     0
 62
     7
  6
Continuous
370
    -3
390
F
  0
LAYER
  5
1A8
330
2
100
AcDbSymbolTableRecord
100
AcDbLayerTableRecord
  2
Defpoints
 70
     0
 62
     7
  6
Continuous
290
     0
370
    -3
390
F
  0
LAYER
  5
75F
330
2
100
AcDbSymbolTableRecord
100
AcDbLayerTableRecord
  2
WERK
 70
     0
 62
     7
  6
Continuous
370
    -3
390
F
  0
ENDTAB
  0
TABLE
  2
STYLE
  5
3
330
0
100
AcDbSymbolTable
 70
     2
  0
STYLE
  5
11
330
3
100
AcDbSymbolTableRecord
100
AcDbTextStyleTableRecord
  2
STANDARD
 70
     0
 40
0.0
 41
0.8
 50
0.0
 71
     0
 42
3.5
  3
simplex.shx
  4

  0
STYLE
  5
24
330
3
100
AcDbSymbolTableRecord
100
AcDbTextStyleTableRecord
  2
GREEKS
 70
     0
 40
0.0
 41
0.8
 50
0.0
 71
     0
 42
2.5
  3
SIMPLEX.shx
  4

  0
ENDTAB
  0
TABLE
  2
VIEW
  5
6
330
0
100
AcDbSymbolTable
 70
     0
  0
ENDTAB
  0
TABLE
  2
UCS
  5
7
330
0
100
AcDbSymbolTable
 70
     0
  0
ENDTAB
  0
TABLE
  2
APPID
  5
9
330
0
100
AcDbSymbolTable
 70
     1
  0
APPID
  5
12
330
9
100
AcDbSymbolTableRecord
100
AcDbRegAppTableRecord
  2
ACAD
 70
     0
  0
ENDTAB
  0
TABLE
  2
DIMSTYLE
  5
A
330
0
100
AcDbSymbolTable
 70
     1
100
AcDbDimStyleTable
 71
     1
340
9D
  0
DIMSTYLE
105
9D
102
{ACAD_REACTORS
330
9EA
330
9F7
330
A15
330
A49
330
A58
330
A95
102
}
330
A
100
AcDbSymbolTableRecord
100
AcDbDimStyleTableRecord
  2
Standard
 70
     0
340
11
  0
ENDTAB
  0
TABLE
  2
BLOCK_RECORD
  5
1
330
0
100
AcDbSymbolTable
 70
     7
  0
BLOCK_RECORD
  5
1E
102
{ACAD_XDICTIONARY
360
A0
102
}
330
1
100
AcDbSymbolTableRecord
100
AcDbBlockTableRecord
  2
*Model_Space
340
21
  0
BLOCK_RECORD
  5
1A
102
{ACAD_XDICTIONARY
360
A2
102
}
330
1
100
AcDbSymbolTableRecord
100
AcDbBlockTableRecord
  2
*Paper_Space
340
1D
  0
BLOCK_RECORD
  5
22
330
1
100
AcDbSymbolTableRecord
100
AcDbBlockTableRecord
  2
LOGO
340
0
102
{BLKREFS
331
9B
102
}
  0
BLOCK_RECORD
  5
9EB
330
1
100
AcDbSymbolTableRecord
100
AcDbBlockTableRecord
  2
*D1
340
0
  0
BLOCK_RECORD
  5
9F8
330
1
100
AcDbSymbolTableRecord
100
AcDbBlockTableRecord
  2
*D2
340
0
  0
BLOCK_RECORD
  5
A16
330
1
100
AcDbSymbolTableRecord
100
AcDbBlockTableRecord
  2
*D3
340
0
  0
BLOCK_RECORD
  5
A4A
330
1
100
AcDbSymbolTableRecord
100
AcDbBlockTableRecord
  2
*D4
340
0
  0
BLOCK_RECORD
  5
A59
330
1
100
AcDbSymbolTableRecord
100
AcDbBlockTableRecord
  2
*D5
340
0
  0
BLOCK_RECORD
  5
A96
330
1
100
AcDbSymbolTableRecord
100
AcDbBlockTableRecord
  2
*D6
340
0
  0
ENDTAB
  0
ENDSEC
  0
SECTION
  2
BLOCKS
  0
BLOCK
  5
35
330
1E
100
AcDbEntity
  8
0
100
AcDbBlockBegin
  2
*Model_Space
 70
     0
 10
0.0
 20
0.0
 30
0.0
  3
*Model_Space
  1

  0
ENDBLK
  5
36
330
1E
100
AcDbEntity
  8
0
100
AcDbBlockEnd
  0
BLOCK
  5
33
330
1A
100
AcDbEntity
 67
     1
  8
0
100
AcDbBlockBegin
  2
*Paper_Space
 70
     0
 10
0.0
 20
0.0
 30
0.0
  3
*Paper_Space
  1

  0
ENDBLK
  5
34
330
1A
100
AcDbEntity
 67
     1
  8
0
100
AcDbBlockEnd
  0
BLOCK
  5
37
330
22
100
AcDbEntity
  8
0
100
AcDbBlockBegin
  2
LOGO
 70
     0
 10
0.0
 20
0.0
 30
0.0
  3
LOGO
  1

  0
ARC
  5
38
330
22
100
AcDbEntity
  8
0
100
AcDbCircle
 10
11.59973089678112
 20
-9.271599258481501
 30
0.0
 40
4.5
100
AcDbArc
 50
270.0
 51
231.0575587310159
  0
LINE
  5
39
330
22
100
AcDbEntity
  8
0
100
AcDbLine
 10
3.599730896781125
 20
-4.771599258481529
 30
0.0
 11
3.599730896781153
 21
-11.77159925848133
 31
0.0
  0
LINE
  5
3A
330
22
100
AcDbEntity
  8
0
100
AcDbLine
 10
2.599730896781125
 20
-4.771599258481529
 30
0.0
 11
2.599730896781153
 21
-11.77159925848133
 31
0.0
  0
CIRCLE
  5
3B
330
22
100
AcDbEntity
  8
0
100
AcDbCircle
 10
11.59973089678112
 20
-9.271599258481501
 30
0.0
 40
3.5
  0
ARC
  5
3C
330
22
100
AcDbEntity
  8
0
100
AcDbCircle
 10
31.59973089678115
 20
-9.271599258481472
 30
0.0
 40
4.5
100
AcDbArc
 50
270.0
 51
231.0575587310182
  0
LINE
  5
3D
330
22
100
AcDbEntity
  8
0
100
AcDbLine
 10
17.59973089678112
 20
-4.771599258481472
 30
0.0
 11
17.59973089678115
 21
-13.77159925848147
 31
0.0
  0
ARC
  5
3E
330
22
100
AcDbEntity
  8
0
100
AcDbCircle
 10
22.59973089678116
 20
-7.271599258481472
 30
0.0
 40
2.5
100
AcDbArc
 50
293.1161887722295
 51
90.0
  0
CIRCLE
  5
3F
330
22
100
AcDbEntity
  8
0
100
AcDbCircle
 10
31.59973089678115
 20
-9.271599258481472
 30
0.0
 40
3.5
  0
ARC
  5
40
330
22
100
AcDbEntity
  8
0
100
AcDbCircle
 10
4.599730896781153
 20
-11.77159925848133
 30
0.0
 40
1.0
100
AcDbArc
 50
180.0
 51
270.0
  0
ARC
  5
41
330
22
100
AcDbEntity
  8
0
100
AcDbCircle
 10
4.599730896781153
 20
-11.77159925848133
 30
0.0
 40
2.0
100
AcDbArc
 50
179.9999999999992
 51
270.0
  0
LINE
  5
42
330
22
100
AcDbEntity
  8
0
100
AcDbLine
 10
11.59973089678115
 20
-13.77159925848144
 30
0.0
 11
4.599730896781153
 21
-13.77159925848147
 31
0.0
  0
LINE
  5
43
330
22
100
AcDbEntity
  8
0
100
AcDbLine
 10
8.771303772034769
 20
-12.77159925848136
 30
0.0
 11
4.599730896781153
 21
-12.77159925848133
 31
0.0
  0
LINE
  5
44
330
22
100
AcDbEntity
  8
0
100
AcDbLine
 10
31.59973089678115
 20
-13.77159925848147
 30
0.0
 11
23.6715276665056
 21
-13.77159925848144
 31
0.0
  0
LINE
  5
45
330
22
100
AcDbEntity
  8
0
100
AcDbLine
 10
23.56565672307022
 20
-9.51278021337896
 30
0.0
 11
24.4388546544846
 21
-12.77159925848144
 31
0.0
  0
LINE
  5
46
330
22
100
AcDbEntity
  8
0
100
AcDbLine
 10
22.59973089678116
 20
-9.771599258481472
 30
0.0
 11
18.59973089678112
 21
-9.771599258481472
 31
0.0
  0
LINE
  5
47
330
22
100
AcDbEntity
  8
0
100
AcDbLine
 10
18.59973089678115
 20
-13.77159925848144
 30
0.0
 11
17.59973089678115
 21
-13.77159925848144
 31
0.0
  0
LINE
  5
48
330
22
100
AcDbEntity
  8
0
100
AcDbLine
 10
18.59973089678115
 20
-9.771599258481472
 30
0.0
 11
18.59973089678115
 21
-13.77159925848144
 31
0.0
  0
LINE
  5
49
330
22
100
AcDbEntity
  8
0
100
AcDbLine
 10
22.59973089678116
 20
-9.771599258481472
 30
0.0
 11
23.67152766650562
 21
-13.77159925848147
 31
0.0
  0
ARC
  5
4A
330
22
100
AcDbEntity
  8
0
100
AcDbCircle
 10
22.59973089678116
 20
-7.271599258481472
 30
0.0
 40
2.5
100
AcDbArc
 50
270.0
 51
270.0000000000007
  0
LINE
  5
4B
330
22
100
AcDbEntity
  8
0
100
AcDbLine
 10
28.77130377203494
 20
-12.77159925848147
 30
0.0
 11
24.43885465448463
 21
-12.77159925848144
 31
0.0
  0
LINE
  5
4C
330
22
100
AcDbEntity
  8
0
100
AcDbLine
 10
3.599730896781125
 20
-4.771599258481472
 30
0.0
 11
2.599730896781125
 21
-4.771599258481472
 31
0.0
  0
LINE
  5
4D
330
22
100
AcDbEntity
  8
0
100
AcDbLine
 10
22.59973089678116
 20
-8.771599258481472
 30
0.0
 11
18.59973089678115
 21
-8.771599258481472
 31
0.0
  0
LINE
  5
4E
330
22
100
AcDbEntity
  8
0
100
AcDbLine
 10
22.59973089678116
 20
-5.771599258481472
 30
0.0
 11
18.59973089678115
 21
-5.771599258481472
 31
0.0
  0
LINE
  5
4F
330
22
100
AcDbEntity
  8
0
100
AcDbLine
 10
22.59973089678116
 20
-4.771599258481472
 30
0.0
 11
17.59973089678115
 21
-4.771599258481472
 31
0.0
  0
LINE
  5
50
330
22
100
AcDbEntity
  8
0
100
AcDbLine
 10
18.59973089678115
 20
-5.771599258481472
 30
0.0
 11
18.59973089678115
 21
-8.771599258481472
 31
0.0
  0
ARC
  5
51
330
22
100
AcDbEntity
  8
0
100
AcDbCircle
 10
22.59973089678116
 20
-7.271599258481472
 30
0.0
 40
1.5
100
AcDbArc
 50
270.0
 51
90.0
  0
ENDBLK
  5
52
330
22
100
AcDbEntity
  8
0
100
AcDbBlockEnd
  0
BLOCK
  5
9F5
330
9EB
100
AcDbEntity
  8
0
100
AcDbBlockBegin
  2
*D1
 70
     1
 10
0.0
 20
0.0
 30
0.0
  3
*D1
  1

  0
LINE
  5
9EC
330
9EB
100
AcDbEntity
  8
WERK
 62
     0
370
    -2
100
AcDbLine
 10
74.33946268846466
 20
121.0983962757085
 30
0.0
 11
74.33946268846466
 21
103.5792290408176
 31
0.0
  0
LINE
  5
9ED
330
9EB
100
AcDbEntity
  8
WERK
 62
     0
370
    -2
100
AcDbLine
 10
146.3394626884646
 20
121.0983962757085
 30
0.0
 11
146.3394626884646
 21
103.5792290408176
 31
0.0
  0
LINE
  5
9EE
330
9EB
100
AcDbEntity
  8
WERK
 62
     0
370
    -2
100
AcDbLine
 10
77.83946268846467
 20
104.5792290408176
 30
0.0
 11
142.8394626884646
 21
104.5792290408176
 31
0.0
  0
SOLID
  5
9EF
330
9EB
100
AcDbEntity
  8
WERK
 62
     0
100
AcDbTrace
 10
77.83946268846467
 20
105.1625623741509
 30
0.0
 11
77.83946268846467
 21
103.9958957074843
 31
0.0
 12
74.33946268846466
 22
104.5792290408176
 32
0.0
 13
74.33946268846466
 23
104.5792290408176
 33
0.0
  0
SOLID
  5
9F0
330
9EB
100
AcDbEntity
  8
WERK
 62
     0
100
AcDbTrace
 10
142.8394626884646
 20
105.1625623741509
 30
0.0
 11
142.8394626884646
 21
103.9958957074843
 31
0.0
 12
146.3394626884646
 22
104.5792290408176
 32
0.0
 13
146.3394626884646
 23
104.5792290408176
 33
0.0
  0
MTEXT
  5
9F1
330
9EB
100
AcDbEntity
  8
WERK
 62
     1
100
AcDbMText
 10
110.3394626884646
 20
107.8292290408176
 30
0.0
 40
3.5
 41
0.0
 71
     5
 72
     1
  1
\A1;72
 73
     1
 44
1.0
  0
POINT
  5
9F2
330
9EB
100
AcDbEntity
  8
Defpoints
 62
     0
100
AcDbPoint
 10
74.33946268846466
 20
122.0983962757085
 30
0.0
  0
POINT
  5
9F3
330
9EB
100
AcDbEntity
  8
Defpoints
 62
     0
100
AcDbPoint
 10
146.3394626884646
 20
122.0983962757085
 30
0.0
  0
POINT
  5
9F4
330
9EB
100
AcDbEntity
  8
Defpoints
 62
     0
100
AcDbPoint
 10
146.3394626884646
 20
104.5792290408176
 30
0.0
  0
ENDBLK
  5
9F6
330
9EB
100
AcDbEntity
  8
0
100
AcDbBlockEnd
  0
BLOCK
  5
A02
330
9F8
100
AcDbEntity
  8
0
100
AcDbBlockBegin
  2
*D2
 70
     1
 10
0.0
 20
0.0
 30
0.0
  3
*D2
  1

  0
LINE
  5
9F9
330
9F8
100
AcDbEntity
  8
WERK
 62
     0
370
    -2
100
AcDbLine
 10
61.83946268846466
 20
132.5983962757085
 30
0.0
 11
61.83946268846466
 21
95.14872350896633
 31
0.0
  0
LINE
  5
9FA
330
9F8
100
AcDbEntity
  8
WERK
 62
     0
370
    -2
100
AcDbLine
 10
158.8394626884646
 20
132.5983962757085
 30
0.0
 11
158.8394626884646
 21
95.14872350896633
 31
0.0
  0
LINE
  5
9FB
330
9F8
100
AcDbEntity
  8
WERK
 62
     0
370
    -2
100
AcDbLine
 10
65.33946268846467
 20
96.14872350896632
 30
0.0
 11
155.3394626884646
 21
96.14872350896632
 31
0.0
  0
SOLID
  5
9FC
330
9F8
100
AcDbEntity
  8
WERK
 62
     0
100
AcDbTrace
 10
65.33946268846467
 20
96.73205684229966
 30
0.0
 11
65.33946268846467
 21
95.565390175633
 31
0.0
 12
61.83946268846466
 22
96.14872350896632
 32
0.0
 13
61.83946268846466
 23
96.14872350896632
 33
0.0
  0
SOLID
  5
9FD
330
9F8
100
AcDbEntity
  8
WERK
 62
     0
100
AcDbTrace
 10
155.3394626884646
 20
96.73205684229966
 30
0.0
 11
155.3394626884646
 21
95.565390175633
 31
0.0
 12
158.8394626884646
 22
96.14872350896632
 32
0.0
 13
158.8394626884646
 23
96.14872350896632
 33
0.0
  0
MTEXT
  5
9FE
330
9F8
100
AcDbEntity
  8
WERK
 62
     1
100
AcDbMText
 10
110.3394626884646
 20
99.39872350896633
 30
0.0
 40
3.5
 41
0.0
 71
     5
 72
     1
  1
\A1;97
 73
     1
 44
1.0
  0
POINT
  5
9FF
330
9F8
100
AcDbEntity
  8
Defpoints
 62
     0
100
AcDbPoint
 10
61.83946268846466
 20
133.5983962757085
 30
0.0
  0
POINT
  5
A00
330
9F8
100
AcDbEntity
  8
Defpoints
 62
     0
100
AcDbPoint
 10
158.8394626884646
 20
133.5983962757085
 30
0.0
  0
POINT
  5
A01
330
9F8
100
AcDbEntity
  8
Defpoints
 62
     0
100
AcDbPoint
 10
158.8394626884646
 20
96.14872350896632
 30
0.0
  0
ENDBLK
  5
A03
330
9F8
100
AcDbEntity
  8
0
100
AcDbBlockEnd
  0
BLOCK
  5
A1E
330
A16
100
AcDbEntity
  8
0
100
AcDbBlockBegin
  2
*D3
 70
     1
 10
0.0
 20
0.0
 30
0.0
  3
*D3
  1

  0
LINE
  5
A2E
330
A16
100
AcDbEntity
  8
BEM
 62
     0
370
    -2
100
AcDbLine
 10
93.88194329250705
 20
207.6625733722289
 30
0.0
 11
93.87866484340575
 21
207.6661139625968
 31
0.0
  0
LINE
  5
A2F
330
A16
100
AcDbEntity
  8
BEM
 62
     0
370
    -2
100
AcDbLine
 10
125.4330983355281
 20
236.8777169360419
 30
0.0
 11
125.4298198864268
 21
236.8812575264097
 31
0.0
  0
LINE
  5
A30
330
A16
100
AcDbEntity
  8
BEM
 62
     0
370
    -2
100
AcDbLine
 10
97.12620405944759
 20
209.3103429734922
 30
0.0
 11
123.5411245578077
 21
233.7695329313253
 31
0.0
  0
SOLID
  5
A31
330
A16
100
AcDbEntity
  8
BEM
 62
     0
100
AcDbTrace
 10
96.72987459228261
 20
209.7383625188807
 30
0.0
 11
97.52253352661256
 21
208.8823234281039
 31
0.0
 12
94.55808678711713
 22
206.9323661705023
 32
0.0
 13
94.55808678711713
 23
206.9323661705023
 33
0.0
  0
SOLID
  5
A32
330
A16
100
AcDbEntity
  8
BEM
 62
     0
100
AcDbTrace
 10
123.1447950906428
 20
234.1975524767137
 30
0.0
 11
123.9374540249727
 21
233.3415133859369
 31
0.0
 12
126.1092418301382
 22
236.1475097343152
 32
0.0
 13
126.1092418301382
 23
236.1475097343152
 33
0.0
  0
MTEXT
  5
A33
330
A16
100
AcDbEntity
  8
BEM
 62
     1
100
AcDbMText
 10
113.7796023652365
 20
229.1600575528652
 30
0.0
 40
3.5
 41
0.0
 71
     5
 72
     1
  1
\A1;43
 11
0.7337477920944142
 21
0.6794219437113968
 31
0.0
 73
     1
 44
1.0
  0
POINT
  5
A34
330
A16
100
AcDbEntity
  8
Defpoints
 62
     0
100
AcDbPoint
 10
94.56136523621845
 20
206.9288255801346
 30
0.0
  0
POINT
  5
A35
330
A16
100
AcDbEntity
  8
Defpoints
 62
     0
100
AcDbPoint
 10
126.1125202792395
 20
236.1439691439474
 30
0.0
  0
POINT
  5
A36
330
A16
100
AcDbEntity
  8
Defpoints
 62
     0
100
AcDbPoint
 10
126.1092418301382
 20
236.1475097343152
 30
0.0
  0
ENDBLK
  5
A1F
330
A16
100
AcDbEntity
  8
0
100
AcDbBlockEnd
  0
BLOCK
  5
A56
330
A4A
100
AcDbEntity
  8
0
100
AcDbBlockBegin
  2
*D4
 70
     1
 10
0.0
 20
0.0
 30
0.0
  3
*D4
  1

  0
LINE
  5
A4B
330
A4A
100
AcDbEntity
  8
BEM
 62
     0
370
    -2
100
AcDbLine
 10
60.83846268846463
 20
220.0369158171277
 30
0.0
 11
52.73622936053562
 21
220.0369158171277
 31
0.0
  0
LINE
  5
A4C
330
A4A
100
AcDbEntity
  8
BEM
 62
     0
370
    -2
100
AcDbLine
 10
60.83846268846463
 20
223.0369158171277
 30
0.0
 11
52.73622936053562
 21
223.0369158171277
 31
0.0
  0
LINE
  5
A4D
330
A4A
100
AcDbEntity
  8
BEM
 62
     0
370
    -2
100
AcDbLine
 10
53.73622936053561
 20
216.5369158171277
 30
0.0
 11
53.73622936053561
 21
213.0369158171277
 31
0.0
  0
LINE
  5
A4E
330
A4A
100
AcDbEntity
  8
BEM
 62
     0
370
    -2
100
AcDbLine
 10
53.73622936053561
 20
226.5369158171277
 30
0.0
 11
53.73622936053561
 21
234.9035824837944
 31
0.0
  0
LINE
  5
A4F
330
A4A
100
AcDbEntity
  8
BEM
 62
     0
370
    -2
100
AcDbLine
 10
53.73622936053561
 20
220.0369158171277
 30
0.0
 11
53.73622936053561
 21
223.0369158171277
 31
0.0
  0
SOLID
  5
A50
330
A4A
100
AcDbEntity
  8
BEM
 62
     0
100
AcDbTrace
 10
53.15289602720228
 20
216.5369158171277
 30
0.0
 11
54.31956269386895
 21
216.5369158171277
 31
0.0
 12
53.73622936053561
 22
220.0369158171277
 32
0.0
 13
53.73622936053561
 23
220.0369158171277
 33
0.0
  0
SOLID
  5
A51
330
A4A
100
AcDbEntity
  8
BEM
 62
     0
100
AcDbTrace
 10
53.15289602720228
 20
226.5369158171277
 30
0.0
 11
54.31956269386895
 21
226.5369158171277
 31
0.0
 12
53.73622936053561
 22
223.0369158171277
 32
0.0
 13
53.73622936053561
 23
223.0369158171277
 33
0.0
  0
MTEXT
  5
A52
330
A4A
100
AcDbEntity
  8
BEM
 62
     1
100
AcDbMText
 10
50.48622936053558
 20
232.4702491504611
 30
0.0
 40
3.5
 41
0.0
 71
     5
 72
     1
  1
\A1;3
 11
0.0000000000000001
 21
1.0
 31
0.0
 73
     1
 44
1.0
  0
POINT
  5
A53
330
A4A
100
AcDbEntity
  8
Defpoints
 62
     0
100
AcDbPoint
 10
61.83846268846463
 20
220.0369158171277
 30
0.0
  0
POINT
  5
A54
330
A4A
100
AcDbEntity
  8
Defpoints
 62
     0
100
AcDbPoint
 10
61.83846268846463
 20
223.0369158171277
 30
0.0
  0
POINT
  5
A55
330
A4A
100
AcDbEntity
  8
Defpoints
 62
     0
100
AcDbPoint
 10
53.73622936053561
 20
223.0369158171277
 30
0.0
  0
ENDBLK
  5
A57
330
A4A
100
AcDbEntity
  8
0
100
AcDbBlockEnd
  0
BLOCK
  5
A63
330
A59
100
AcDbEntity
  8
0
100
AcDbBlockBegin
  2
*D5
 70
     1
 10
0.0
 20
0.0
 30
0.0
  3
*D5
  1

  0
LINE
  5
A5A
330
A59
100
AcDbEntity
  8
BEM
 62
     0
370
    -2
100
AcDbLine
 10
103.7074626884646
 20
185.0369158171277
 30
0.0
 11
45.25629629669219
 21
185.0369158171277
 31
0.0
  0
LINE
  5
A5B
330
A59
100
AcDbEntity
  8
BEM
 62
     0
370
    -2
100
AcDbLine
 10
103.0324626884646
 20
246.0369158171277
 30
0.0
 11
45.25629629669221
 21
246.0369158171277
 31
0.0
  0
LINE
  5
A5C
330
A59
100
AcDbEntity
  8
BEM
 62
     0
370
    -2
100
AcDbLine
 10
46.25629629669218
 20
188.5369158171277
 30
0.0
 11
46.2562962966922
 21
242.5369158171278
 31
0.0
  0
SOLID
  5
A5D
330
A59
100
AcDbEntity
  8
BEM
 62
     0
100
AcDbTrace
 10
45.67296296335885
 20
188.5369158171277
 30
0.0
 11
46.83962963002552
 21
188.5369158171277
 31
0.0
 12
46.25629629669218
 22
185.0369158171277
 32
0.0
 13
46.25629629669218
 23
185.0369158171277
 33
0.0
  0
SOLID
  5
A5E
330
A59
100
AcDbEntity
  8
BEM
 62
     0
100
AcDbTrace
 10
45.67296296335887
 20
242.5369158171278
 30
0.0
 11
46.83962963002554
 21
242.5369158171278
 31
0.0
 12
46.2562962966922
 22
246.0369158171277
 32
0.0
 13
46.2562962966922
 23
246.0369158171277
 33
0.0
  0
MTEXT
  5
A5F
330
A59
100
AcDbEntity
  8
BEM
 62
     1
100
AcDbMText
 10
43.00629629669216
 20
215.5369158171278
 30
0.0
 40
3.5
 41
0.0
 71
     5
 72
     1
  1
\A1;61
 11
0.0000000000000001
 21
1.0
 31
0.0
 73
     1
 44
1.0
  0
POINT
  5
A60
330
A59
100
AcDbEntity
  8
Defpoints
 62
     0
100
AcDbPoint
 10
104.7074626884646
 20
185.0369158171277
 30
0.0
  0
POINT
  5
A61
330
A59
100
AcDbEntity
  8
Defpoints
 62
     0
100
AcDbPoint
 10
104.0324626884646
 20
246.0369158171277
 30
0.0
  0
POINT
  5
A62
330
A59
100
AcDbEntity
  8
Defpoints
 62
     0
100
AcDbPoint
 10
46.2562962966922
 20
246.0369158171277
 30
0.0
  0
ENDBLK
  5
A64
330
A59
100
AcDbEntity
  8
0
100
AcDbBlockEnd
  0
BLOCK
  5
AA0
330
A96
100
AcDbEntity
  8
0
100
AcDbBlockBegin
  2
*D6
 70
     1
 10
0.0
 20
0.0
 30
0.0
  3
*D6
  1

  0
LINE
  5
A97
330
A96
100
AcDbEntity
  8
BEM
 62
     0
370
    -2
100
AcDbLine
 10
63.75847025297524
 20
118.598396275736
 30
0.0
 11
48.92750720788193
 21
118.598396275736
 31
0.0
  0
LINE
  5
A98
330
A96
100
AcDbEntity
  8
BEM
 62
     0
370
    -2
100
AcDbLine
 10
63.75846268846466
 20
148.5983962757085
 30
0.0
 11
48.92750720788194
 21
148.5983962757085
 31
0.0
  0
LINE
  5
A99
330
A96
100
AcDbEntity
  8
BEM
 62
     0
370
    -2
100
AcDbLine
 10
49.92750720788194
 20
122.098396275736
 30
0.0
 11
49.92750720788194
 21
145.0983962757085
 31
0.0
  0
SOLID
  5
A9A
330
A96
100
AcDbEntity
  8
BEM
 62
     0
100
AcDbTrace
 10
49.3441738745486
 20
122.098396275736
 30
0.0
 11
50.51084054121528
 21
122.098396275736
 31
0.0
 12
49.92750720788194
 22
118.598396275736
 32
0.0
 13
49.92750720788194
 23
118.598396275736
 33
0.0
  0
SOLID
  5
A9B
330
A96
100
AcDbEntity
  8
BEM
 62
     0
100
AcDbTrace
 10
49.3441738745486
 20
145.0983962757085
 30
0.0
 11
50.51084054121528
 21
145.0983962757085
 31
0.0
 12
49.92750720788194
 22
148.5983962757085
 32
0.0
 13
49.92750720788194
 23
148.5983962757085
 33
0.0
  0
MTEXT
  5
A9C
330
A96
100
AcDbEntity
  8
BEM
 62
     1
100
AcDbMText
 10
46.67750720788191
 20
133.5983962757222
 30
0.0
 40
3.5
 41
0.0
 71
     5
 72
     1
  1
\A1;30
 11
0.0000000000000001
 21
1.0
 31
0.0
 73
     1
 44
1.0
  0
POINT
  5
A9D
330
A96
100
AcDbEntity
  8
Defpoints
 62
     0
100
AcDbPoint
 10
64.75847025297524
 20
118.598396275736
 30
0.0
  0
POINT
  5
A9E
330
A96
100
AcDbEntity
  8
Defpoints
 62
     0
100
AcDbPoint
 10
64.75846268846464
 20
148.5983962757085
 30
0.0
  0
POINT
  5
A9F
330
A96
100
AcDbEntity
  8
Defpoints
 62
     0
100
AcDbPoint
 10
49.92750720788194
 20
148.5983962757085
 30
0.0
  0
ENDBLK
  5
AA1
330
A96
100
AcDbEntity
  8
0
100
AcDbBlockEnd
  0
ENDSEC
  0
SECTION
  2
ENTITIES
  0
LINE
  5
57
330
1E
100
AcDbEntity
  8
STEMPEL
100
AcDbLine
 10
205.0
 20
55.00000000000003
 30
0.0
 11
19.99999999999998
 21
55.0
 31
0.0
  0
LINE
  5
58
330
1E
100
AcDbEntity
  8
STEMPEL
100
AcDbLine
 10
68.00000000000006
 20
54.99999999999997
 30
0.0
 11
68.0
 21
4.999999999999985
 31
0.0
  0
LINE
  5
59
330
1E
100
AcDbEntity
  8
STEMPEL
100
AcDbLine
 10
110.0
 20
55.00000000000003
 30
0.0
 11
110.0
 21
4.999999999999985
 31
0.0
  0
LINE
  5
5A
330
1E
100
AcDbEntity
  8
STEMPEL
100
AcDbLine
 10
166.0
 20
54.99999999999989
 30
0.0
 11
166.0
 21
20.0
 31
0.0
  0
LINE
  5
5B
330
1E
100
AcDbEntity
  8
STEMPEL
100
AcDbLine
 10
67.99999999999994
 20
14.99999999999998
 30
0.0
 11
19.99999999999998
 21
14.99999999999998
 31
0.0
  0
LINE
  5
5C
330
1E
100
AcDbEntity
  8
STEMPEL
100
AcDbLine
 10
205.0
 20
20.0
 30
0.0
 11
68.00000000000006
 21
19.99999999999998
 31
0.0
  0
LINE
  5
5D
330
1E
100
AcDbEntity
  8
STEMPEL
100
AcDbLine
 10
205.0
 20
40.0
 30
0.0
 11
68.00000000000006
 21
39.99999999999997
 31
0.0
  0
LINE
  5
5E
330
1E
100
AcDbEntity
  8
VOLL
100
AcDbLine
 10
27.00000000000005
 20
55.00000000000003
 30
0.0
 11
26.99999999999999
 21
4.999999999999985
 31
0.0
  0
LINE
  5
5F
330
1E
100
AcDbEntity
  8
VOLL
100
AcDbLine
 10
47.00000000000005
 20
54.99999999999997
 30
0.0
 11
47.0
 21
4.999999999999985
 31
0.0
  0
LINE
  5
60
330
1E
100
AcDbEntity
  8
VOLL
100
AcDbLine
 10
57.00000000000006
 20
54.99999999999997
 30
0.0
 11
57.0
 21
4.999999999999985
 31
0.0
  0
LINE
  5
61
330
1E
100
AcDbEntity
  8
VOLL
100
AcDbLine
 10
77.00000000000006
 20
39.99999999999997
 30
0.0
 11
77.00000000000006
 21
19.99999999999998
 31
0.0
  0
LINE
  5
62
330
1E
100
AcDbEntity
  8
VOLL
100
AcDbLine
 10
90.00000000000005
 20
54.99999999999992
 30
0.0
 11
90.0
 21
19.99999999999998
 31
0.0
  0
LINE
  5
63
330
1E
100
AcDbEntity
  8
HILF
100
AcDbLine
 10
20.00000000000004
 20
50.00000000000003
 30
0.0
 11
68.00000000000006
 21
50.00000000000003
 31
0.0
  0
LINE
  5
64
330
1E
100
AcDbEntity
  8
HILF
100
AcDbLine
 10
20.00000000000004
 20
45.00000000000002
 30
0.0
 11
68.00000000000006
 21
45.00000000000002
 31
0.0
  0
LINE
  5
65
330
1E
100
AcDbEntity
  8
HILF
100
AcDbLine
 10
20.00000000000004
 20
39.99999999999997
 30
0.0
 11
68.00000000000006
 21
39.99999999999997
 31
0.0
  0
LINE
  5
66
330
1E
100
AcDbEntity
  8
HILF
100
AcDbLine
 10
20.00000000000004
 20
34.99999999999997
 30
0.0
 11
68.00000000000006
 21
34.99999999999997
 31
0.0
  0
LINE
  5
67
330
1E
100
AcDbEntity
  8
HILF
100
AcDbLine
 10
20.00000000000004
 20
29.99999999999999
 30
0.0
 11
68.00000000000006
 21
29.99999999999999
 31
0.0
  0
LINE
  5
68
330
1E
100
AcDbEntity
  8
HILF
100
AcDbLine
 10
20.00000000000004
 20
24.99999999999999
 30
0.0
 11
68.00000000000006
 21
24.99999999999999
 31
0.0
  0
LINE
  5
69
330
1E
100
AcDbEntity
  8
HILF
100
AcDbLine
 10
20.00000000000004
 20
19.99999999999998
 30
0.0
 11
68.00000000000006
 21
19.99999999999998
 31
0.0
  0
LINE
  5
6A
330
1E
100
AcDbEntity
  8
HILF
100
AcDbLine
 10
68.00000000000006
 20
34.99999999999997
 30
0.0
 11
110.0
 21
34.99999999999997
 31
0.0
  0
LINE
  5
6B
330
1E
100
AcDbEntity
  8
HILF
100
AcDbLine
 10
68.00000000000006
 20
29.99999999999999
 30
0.0
 11
110.0
 21
29.99999999999999
 31
0.0
  0
LINE
  5
6C
330
1E
100
AcDbEntity
  8
HILF
100
AcDbLine
 10
68.00000000000006
 20
24.99999999999999
 30
0.0
 11
110.0
 21
24.99999999999999
 31
0.0
  0
LINE
  5
6D
330
1E
100
AcDbEntity
  8
HILF
100
AcDbLine
 10
112.3868400548474
 20
42.01879123782069
 30
0.0
 11
162.4176958278155
 21
42.01879123782069
 31
0.0
  0
LINE
  5
6E
330
1E
100
AcDbEntity
  8
HILF
100
AcDbLine
 10
112.3868400548474
 20
34.99999999999997
 30
0.0
 11
162.4176958278155
 21
34.99999999999997
 31
0.0
  0
LINE
  5
6F
330
1E
100
AcDbEntity
  8
HILF
100
AcDbLine
 10
112.3868400548474
 20
29.99999999999999
 30
0.0
 11
162.4176958278155
 21
29.99999999999999
 31
0.0
  0
LINE
  5
70
330
1E
100
AcDbEntity
  8
HILF
100
AcDbLine
 10
112.3868400548474
 20
24.99999999999999
 30
0.0
 11
162.4176958278155
 21
24.99999999999999
 31
0.0
  0
LINE
  5
71
330
1E
100
AcDbEntity
  8
VOLL
100
AcDbLine
 10
166.0
 20
30.0
 30
0.0
 11
205.0
 21
30.0
 31
0.0
  0
LINE
  5
72
330
1E
100
AcDbEntity
  8
HILF
100
AcDbLine
 10
168.3619308148496
 20
41.88991818477913
 30
0.0
 11
202.4294419663364
 21
41.88991818477913
 31
0.0
  0
LINE
  5
73
330
1E
100
AcDbEntity
  8
HILF
100
AcDbLine
 10
111.7454849644942
 20
7.446991290141568
 30
0.0
 11
202.4294419663364
 21
7.446991290141568
 31
0.0
  0
TEXT
  5
74
330
1E
100
AcDbEntity
  8
TEXT
100
AcDbText
 10
31.9308298981591
 20
9.336909474920659
 30
0.0
 40
2.0
  1
Änderung
 41
0.8
  7
GREEKS
 72
     1
 11
37.30225846958767
 21
9.336909474920659
 31
0.0
100
AcDbText
  0
TEXT
  5
75
330
1E
100
AcDbEntity
  8
TEXT
100
AcDbText
 10
71.75817860751886
 20
51.23104475435443
 30
0.0
 40
2.5
  1
Maßstab
 41
0.8
  7
GREEKS
100
AcDbText
  0
TEXT
  5
76
330
1E
100
AcDbEntity
  8
TEXT
100
AcDbText
 10
92.14294773670257
 20
51.20920842174095
 30
0.0
 40
2.5
  1
Zul. Abw.
 41
0.8
  7
GREEKS
100
AcDbText
  0
TEXT
  5
77
330
1E
100
AcDbEntity
  8
TEXT
100
AcDbText
 10
112.4389701904505
 20
51.27446640058898
 30
0.0
 40
2.5
  1
Benennung
 41
0.8
  7
GREEKS
100
AcDbText
  0
TEXT
  5
78
330
1E
100
AcDbEntity
  8
TEXT
100
AcDbText
 10
168.089377478817
 20
51.15660172685682
 30
0.0
 40
2.5
  1
Zeichnungs Nr.
 41
0.8
  7
GREEKS
100
AcDbText
  0
TEXT
  5
79
330
1E
100
AcDbEntity
  8
TEXT
100
AcDbText
 10
112.371119195568
 20
15.42280285096528
 30
0.0
 40
2.5
  1
Bauvorhaben
 41
0.8
  7
GREEKS
100
AcDbText
  0
TEXT
  5
7A
330
1E
100
AcDbEntity
  8
TEXT
100
AcDbText
 10
168.3619308148496
 20
36.59059118549985
 30
0.0
 40
2.5
  1
Ersatz für:
 41
0.8
  7
GREEKS
100
AcDbText
  0
TEXT
  5
7B
330
1E
100
AcDbEntity
  8
TEXT
100
AcDbText
 10
24.13320553522878
 20
6.827329230135958
 30
0.0
 40
2.0
  1
Index
 50
90.0
 41
0.8
  7
GREEKS
100
AcDbText
  0
TEXT
  5
7C
330
1E
100
AcDbEntity
  8
TEXT
100
AcDbText
 10
50.04673380377405
 20
9.33578134669905
 30
0.0
 40
2.0
  1
Tag
 41
0.8
  7
GREEKS
 72
     1
 11
51.91340047044072
 21
9.33578134669905
 31
0.0
100
AcDbText
  0
TEXT
  5
7D
330
1E
100
AcDbEntity
  8
TEXT
100
AcDbText
 10
59.50613721932963
 20
9.29662108483204
 30
0.0
 40
2.0
  1
Name
 41
0.8
  7
GREEKS
 72
     1
 11
62.66804198123439
 21
9.29662108483204
 31
0.0
100
AcDbText
  0
TEXT
  5
7E
330
1E
100
AcDbEntity
  8
TEXT
100
AcDbText
 10
81.16558365768254
 20
36.65940250614963
 30
0.0
 40
2.0
  1
Tag
 41
0.8
  7
GREEKS
100
AcDbText
  0
TEXT
  5
7F
330
1E
100
AcDbEntity
  8
TEXT
100
AcDbText
 10
96.23132921131475
 20
36.65480545957612
 30
0.0
 40
2.0
  1
Name
 41
0.8
  7
GREEKS
100
AcDbText
  0
TEXT
  5
80
330
1E
100
AcDbEntity
  8
TEXT
100
AcDbText
 10
68.79180635838077
 20
31.81495184808982
 30
0.0
 40
2.0
  1
Gez.
 41
0.8
  7
GREEKS
100
AcDbText
  0
TEXT
  5
81
330
1E
100
AcDbEntity
  8
TEXT
100
AcDbText
 10
68.77575432858361
 20
26.84463145714189
 30
0.0
 40
2.0
  1
Gepr.
 41
0.8
  7
GREEKS
100
AcDbText
  0
TEXT
  5
82
330
1E
100
AcDbEntity
  8
TEXT
100
AcDbText
 10
68.80033886936519
 20
21.76473194824904
 30
0.0
 40
2.0
  1
Norm.
 41
0.8
  7
GREEKS
100
AcDbText
  0
LINE
  5
83
330
1E
100
AcDbEntity
  8
STEMPEL
100
AcDbLine
 10
24.99999999999995
 20
5.0
 30
0.0
 11
205.0
 21
5.0
 31
0.0
  0
TEXT
  5
84
330
1E
100
AcDbEntity
  8
TEXT
100
AcDbText
 10
168.6200430748503
 20
26.03708088939301
 30
0.0
 40
2.5
  1
ersetzt durch:
 41
0.8
  7
GREEKS
100
AcDbText
  0
LINE
  5
85
330
1E
100
AcDbEntity
  8
STEMPEL
100
AcDbLine
 10
205.0
 20
5.0
 30
0.0
 11
19.99999999999994
 21
5.0
 31
0.0
  0
LINE
  5
86
330
1E
100
AcDbEntity
  8
STEMPEL
100
AcDbLine
 10
205.0
 20
5.0
 30
0.0
 11
205.0
 21
292.0
 31
0.0
  0
LINE
  5
87
330
1E
100
AcDbEntity
  8
STEMPEL
100
AcDbLine
 10
20.0
 20
5.0
 30
0.0
 11
19.99999999999994
 21
292.0
 31
0.0
  0
LINE
  5
88
330
1E
100
AcDbEntity
  8
STEMPEL
100
AcDbLine
 10
205.0
 20
292.0
 30
0.0
 11
19.99999999999994
 21
292.0
 31
0.0
  0
LINE
  5
89
330
1E
100
AcDbEntity
  8
HILF
100
AcDbLine
 10
0.0
 20
0.0
 30
0.0
 11
-0.0000000000000568
 21
297.0
 31
0.0
  0
LINE
  5
8A
330
1E
100
AcDbEntity
  8
HILF
100
AcDbLine
 10
210.0
 20
297.0000000000001
 30
0.0
 11
0.0
 21
297.0
 31
0.0
  0
LINE
  5
8B
330
1E
100
AcDbEntity
  8
HILF
100
AcDbLine
 10
210.0
 20
0.0
 30
0.0
 11
0.0
 21
0.0
 31
0.0
  0
LINE
  5
8C
330
1E
100
AcDbEntity
  8
HILF
100
AcDbLine
 10
15.54383567856928
 20
148.5
 30
0.0
 11
0.0000000000000568
 21
148.5
 31
0.0
  0
TEXT
  5
8D
330
1E
100
AcDbEntity
  8
TEXT
100
AcDbText
 10
69.31105491105199
 20
36.57012735575833
 30
0.0
 40
2.0
  1
2012
 41
0.8
  7
GREEKS
100
AcDbText
  0
LINE
  5
8E
330
1E
100
AcDbEntity
  8
HILF
100
AcDbLine
 10
210.0
 20
-0.0000000000000568
 30
0.0
 11
210.0
 21
297.0
 31
0.0
  0
TEXT
  5
8F
330
1E
100
AcDbEntity
  8
VOLL
100
AcDbText
 10
78.07675471698113
 20
31.02594776470585
 30
0.0
 40
1.8
  1

  7
GREEKS
100
AcDbText
  0
TEXT
  5
90
330
1E
100
AcDbEntity
  8
TEXT
100
AcDbText
 10
20.92754975488837
 20
55.83599999999997
 30
0.0
 40
2.5
  1
Erstellt mit AUTOCAD 2004
 41
0.8
  7
GREEKS
100
AcDbText
  0
TEXT
  5
91
330
1E
100
AcDbEntity
  8
TEXT
100
AcDbText
 10
97.21080242906285
 20
31.54481959861755
 30
0.0
 40
2.0
  1
Koeh
 41
0.8
  7
GREEKS
 72
     1
 11
99.83937385763429
 21
31.54481959861755
 31
0.0
100
AcDbText
  0
TEXT
  5
92
330
1E
100
AcDbEntity
  8
TEXT
 62
     1
100
AcDbText
 10
172.886078821434
 20
44.07450714456979
 30
0.0
 40
3.5
  1
00973040W
 41
0.8
  7
GREEKS
 72
     1
 11
184.886078821434
 21
44.07450714456979
 31
0.0
100
AcDbText
  0
TEXT
  5
93
330
1E
100
AcDbEntity
  8
TEXT
 62
     1
100
AcDbText
 10
75.25031532409435
 20
44.07450714456979
 30
0.0
 40
3.5
  1
1:1
 41
0.8
  7
GREEKS
100
AcDbText
  0
TEXT
  5
94
330
1E
100
AcDbEntity
  8
TEXT
100
AcDbText
 10
80.35187950649897
 20
31.55382520412866
 30
0.0
 40
2.0
  1
26.10.
 41
0.8
  7
GREEKS
 72
     1
 11
83.70426045887993
 21
31.55382520412866
 31
0.0
100
AcDbText
  0
TEXT
  5
95
330
1E
100
AcDbEntity
  8
TEXT
 62
     1
100
AcDbText
 10
113.4467865528701
 20
43.70874394626889
 30
0.0
 40
3.5
  1
Rohrschelle DN40
 41
0.8
  7
GREEKS
100
AcDbText
  0
TEXT
  5
96
330
1E
100
AcDbEntity
  8
TEXT
100
AcDbText
 10
112.5648195562657
 20
35.75167208792644
 30
0.0
 40
2.5
  1
mit Anschlußgewinde M8
 41
0.8
  7
GREEKS
100
AcDbText
  0
TEXT
  5
98
330
1E
100
AcDbEntity
  8
TEXT
100
AcDbText
 10
112.5648195562657
 20
25.82005971521079
 30
0.0
 40
2.5
  1
EDV-Art.Nr. 00973.040X
 41
0.8
  7
GREEKS
100
AcDbText
  0
TEXT
  5
99
330
1E
100
AcDbEntity
  8
TEXT
100
AcDbText
 10
112.4918750788913
 20
21.31487076511316
 30
0.0
 40
2.0
  1
00973040W.DWG
 41
0.8
  7
GREEKS
100
AcDbText
  0
TEXT
  5
9A
330
1E
100
AcDbEntity
  8
TEXT
100
AcDbText
 10
91.31306610404202
 20
45.38181920511511
 30
0.0
 40
2.0
  1
DIN EN1123-2
 41
0.8
  7
GREEKS
 72
     1
 11
99.80830419928011
 21
45.38181920511511
 31
0.0
100
AcDbText
  0
INSERT
  5
9B
330
1E
100
AcDbEntity
  8
STEMPEL
100
AcDbBlockReference
  2
LOGO
 10
70.4977742728897
 20
22.51052638224161
 30
0.0
  0
TEXT
  5
118
330
1E
100
AcDbEntity
  8
BEM
100
AcDbText
 10
208.6511461928583
 20
5.083950539994247
 30
0.0
 40
2.0
  1
Diese Zeichnung ist urheberrechtlich geschützt und bleibt unser Eigentum. Sie darf weder ganz noch teilweise verfielfältigt und nicht an Dritte weitergegeben werden.
 50
90.0
 41
0.8
  7
GREEKS
100
AcDbText
  0
LINE
  5
7BC
330
1E
100
AcDbEntity
  8
TEXT
 62
     2
100
AcDbLine
 10
160.3772699053064
 20
241.2332686740919
 30
0.0
 11
150.2998812204959
 21
229.2244432785281
 31
0.0
  0
LINE
  5
7BD
330
1E
100
AcDbEntity
  8
TEXT
 62
     2
100
AcDbLine
 10
160.3772699053064
 20
241.2332686740919
 30
0.0
 11
197.8781108141216
 21
241.2332686740919
 31
0.0
  0
TEXT
  5
7BE
330
1E
100
AcDbEntity
  8
TEXT
 62
     1
100
AcDbText
 10
161.4372164033291
 20
242.9232213825401
 30
0.0
 40
3.5
  1
Schraube M8x25
 41
0.8
  7
GREEKS
100
AcDbText
  0
TEXT
  5
7BF
330
1E
100
AcDbEntity
  8
TEXT
 62
     1
100
AcDbText
 10
115.6250469985655
 20
175.7177677694686
 30
0.0
 40
3.5
  1
M8
 41
0.8
  7
GREEKS
100
AcDbText
  0
LINE
  5
7C0
330
1E
100
AcDbEntity
  8
TEXT
 62
     2
100
AcDbLine
 10
114.5651005005427
 20
174.0278150610204
 30
0.0
 11
120.9956835544292
 21
174.0278150610204
 31
0.0
  0
LINE
  5
7C1
330
1E
100
AcDbEntity
  8
TEXT
 62
     2
100
AcDbLine
 10
114.5651005005427
 20
174.0278150610204
 30
0.0
 11
110.3364626884646
 21
185.0369158171277
 31
0.0
  0
LINE
  5
927
330
1E
100
AcDbEntity
  8
STEMPEL
100
AcDbLine
 10
145.2844626884646
 20
228.0369158171277
 30
0.0
 11
147.2844626884646
 21
228.0369158171277
 31
0.0
  0
LINE
  5
928
330
1E
100
AcDbEntity
  8
STEMPEL
100
AcDbLine
 10
139.7844626884646
 20
227.8219158171277
 30
0.0
 11
139.7844626884646
 21
226.0369158171277
 31
0.0
  0
LINE
  5
929
330
1E
100
AcDbEntity
  8
STEMPEL
100
AcDbLine
 10
152.7844626884646
 20
227.8219158171277
 30
0.0
 11
152.7844626884646
 21
226.1359158171277
 31
0.0
  0
LINE
  5
92C
330
1E
100
AcDbEntity
  8
HILF
100
AcDbLine
 10
143.0514626884646
 20
220.0369158171277
 30
0.0
 11
143.0514626884646
 21
222.7739158171277
 31
0.0
  0
LINE
  5
92D
330
1E
100
AcDbEntity
  8
HILF
100
AcDbLine
 10
143.0514626884646
 20
201.0369158171277
 30
0.0
 11
143.0514626884646
 21
215.0369158171277
 31
0.0
  0
LINE
  5
92E
330
1E
100
AcDbEntity
  8
HILF
100
AcDbLine
 10
149.5174626884646
 20
220.0369158171277
 30
0.0
 11
149.5174626884646
 21
222.7739158171277
 31
0.0
  0
LINE
  5
92F
330
1E
100
AcDbEntity
  8
HILF
100
AcDbLine
 10
149.5174626884646
 20
201.0369158171277
 30
0.0
 11
149.5174626884646
 21
215.0369158171277
 31
0.0
  0
LINE
  5
930
330
1E
100
AcDbEntity
  8
STEMPEL
100
AcDbLine
 10
150.2844626884646
 20
201.8039158171277
 30
0.0
 11
142.2844626884646
 21
201.8039158171277
 31
0.0
  0
LINE
  5
931
330
1E
100
AcDbEntity
  8
HILF
100
AcDbLine
 10
150.2844626884646
 20
222.7739158171277
 30
0.0
 11
142.2844626884646
 21
222.7739158171277
 31
0.0
  0
LINE
  5
932
330
1E
100
AcDbEntity
  8
STEMPEL
100
AcDbLine
 10
142.2844626884646
 20
220.0369158171277
 30
0.0
 11
142.2844626884646
 21
225.6369158171277
 31
0.0
  0
LINE
  5
933
330
1E
100
AcDbEntity
  8
STEMPEL
100
AcDbLine
 10
142.2844626884646
 20
201.8039158171277
 30
0.0
 11
142.2844626884646
 21
215.0369158171277
 31
0.0
  0
LINE
  5
934
330
1E
100
AcDbEntity
  8
STEMPEL
100
AcDbLine
 10
143.0514626884646
 20
201.0369158171277
 30
0.0
 11
142.2844626884646
 21
201.8039158171277
 31
0.0
  0
LINE
  5
935
330
1E
100
AcDbEntity
  8
STEMPEL
100
AcDbLine
 10
149.5174626884646
 20
201.0369158171277
 30
0.0
 11
143.0514626884646
 21
201.0369158171277
 31
0.0
  0
LINE
  5
936
330
1E
100
AcDbEntity
  8
STEMPEL
100
AcDbLine
 10
150.2844626884646
 20
201.8039158171277
 30
0.0
 11
149.5174626884646
 21
201.0369158171277
 31
0.0
  0
LINE
  5
937
330
1E
100
AcDbEntity
  8
STEMPEL
100
AcDbLine
 10
150.2844626884646
 20
215.0369158171277
 30
0.0
 11
150.2844626884646
 21
201.8039158171277
 31
0.0
  0
LINE
  5
938
330
1E
100
AcDbEntity
  8
STEMPEL
100
AcDbLine
 10
150.2844626884646
 20
223.8639158171277
 30
0.0
 11
150.2844626884646
 21
220.0369158171277
 31
0.0
  0
LINE
  5
939
330
1E
100
AcDbEntity
  8
STEMPEL
100
AcDbLine
 10
141.8844626884646
 20
226.0369158171277
 30
0.0
 11
148.8474626884646
 21
226.0369158171277
 31
0.0
  0
ARC
  5
93A
330
1E
100
AcDbEntity
  8
STEMPEL
100
AcDbCircle
 10
141.8844626884646
 20
225.6369158171277
 30
0.0
 40
0.4
100
AcDbArc
 50
0.0
 51
90.0
  0
LINE
  5
93B
330
1E
100
AcDbEntity
  8
STEMPEL
100
AcDbLine
 10
148.8474626884646
 20
226.0369158171277
 30
0.0
 11
139.7844626884646
 21
226.0369158171277
 31
0.0
  0
LINE
  5
93C
330
1E
100
AcDbEntity
  8
STEMPEL
100
AcDbLine
 10
145.2844626884646
 20
231.0369158171277
 30
0.0
 11
145.2844626884646
 21
228.0369158171277
 31
0.0
  0
LINE
  5
93D
330
1E
100
AcDbEntity
  8
STEMPEL
100
AcDbLine
 10
147.2844626884646
 20
231.0369158171277
 30
0.0
 11
147.2844626884646
 21
228.0369158171277
 31
0.0
  0
LINE
  5
93E
330
1E
100
AcDbEntity
  8
STEMPEL
100
AcDbLine
 10
152.6104626884646
 20
230.1119158171277
 30
0.0
 11
152.7844626884646
 21
227.8219158171277
 31
0.0
  0
ARC
  5
93F
330
1E
100
AcDbEntity
  8
STEMPEL
100
AcDbCircle
 10
151.6134626884646
 20
230.0369158171277
 30
0.0
 40
1.0
100
AcDbArc
 50
4.332313983000302
 51
90.0
  0
LINE
  5
940
330
1E
100
AcDbEntity
  8
STEMPEL
100
AcDbLine
 10
147.2844626884646
 20
231.0369158171277
 30
0.0
 11
151.6134626884646
 21
231.0369158171277
 31
0.0
  0
LINE
  5
941
330
1E
100
AcDbEntity
  8
STEMPEL
100
AcDbLine
 10
140.9554626884646
 20
231.0369158171277
 30
0.0
 11
145.2844626884646
 21
231.0369158171277
 31
0.0
  0
ARC
  5
942
330
1E
100
AcDbEntity
  8
STEMPEL
100
AcDbCircle
 10
140.9554626884646
 20
230.0369158171277
 30
0.0
 40
1.0
100
AcDbArc
 50
90.0
 51
175.6676860169997
  0
LINE
  5
943
330
1E
100
AcDbEntity
  8
STEMPEL
100
AcDbLine
 10
139.7844626884646
 20
227.8219158171277
 30
0.0
 11
139.9584626884646
 21
230.1119158171277
 31
0.0
  0
LINE
  5
944
330
1E
100
AcDbEntity
  8
STEMPEL
100
AcDbLine
 10
73.38946268846462
 20
228.0369158171277
 30
0.0
 11
75.38946268846462
 21
228.0369158171277
 31
0.0
  0
LINE
  5
945
330
1E
100
AcDbEntity
  8
STEMPEL
100
AcDbLine
 10
67.88946268846462
 20
227.8219158171277
 30
0.0
 11
67.88946268846462
 21
226.0369158171277
 31
0.0
  0
LINE
  5
946
330
1E
100
AcDbEntity
  8
STEMPEL
100
AcDbLine
 10
80.88946268846461
 20
227.8219158171277
 30
0.0
 11
80.88946268846461
 21
226.0369158171277
 31
0.0
  0
LINE
  5
949
330
1E
100
AcDbEntity
  8
HILF
100
AcDbLine
 10
71.15646268846461
 20
220.0369158171277
 30
0.0
 11
71.15646268846461
 21
222.7739158171277
 31
0.0
  0
LINE
  5
94A
330
1E
100
AcDbEntity
  8
HILF
100
AcDbLine
 10
71.15646268846461
 20
201.0369158171277
 30
0.0
 11
71.15646268846461
 21
215.0369158171277
 31
0.0
  0
LINE
  5
94B
330
1E
100
AcDbEntity
  8
HILF
100
AcDbLine
 10
77.62246268846462
 20
220.0369158171277
 30
0.0
 11
77.62246268846462
 21
222.7739158171277
 31
0.0
  0
LINE
  5
94C
330
1E
100
AcDbEntity
  8
HILF
100
AcDbLine
 10
77.62246268846462
 20
201.0369158171277
 30
0.0
 11
77.62246268846462
 21
215.0369158171277
 31
0.0
  0
LINE
  5
94D
330
1E
100
AcDbEntity
  8
STEMPEL
100
AcDbLine
 10
78.38946268846462
 20
201.8039158171277
 30
0.0
 11
70.38946268846462
 21
201.8039158171277
 31
0.0
  0
LINE
  5
94E
330
1E
100
AcDbEntity
  8
HILF
100
AcDbLine
 10
78.38946268846462
 20
222.7739158171277
 30
0.0
 11
70.38946268846462
 21
222.7739158171277
 31
0.0
  0
LINE
  5
94F
330
1E
100
AcDbEntity
  8
STEMPEL
100
AcDbLine
 10
70.38946268846462
 20
220.0369158171277
 30
0.0
 11
70.38946268846462
 21
223.0369158171277
 31
0.0
  0
LINE
  5
950
330
1E
100
AcDbEntity
  8
STEMPEL
100
AcDbLine
 10
70.38946268846462
 20
201.8039158171277
 30
0.0
 11
70.38946268846462
 21
215.0369158171277
 31
0.0
  0
LINE
  5
951
330
1E
100
AcDbEntity
  8
STEMPEL
100
AcDbLine
 10
71.15646268846461
 20
201.0369158171277
 30
0.0
 11
70.38946268846462
 21
201.8039158171277
 31
0.0
  0
LINE
  5
952
330
1E
100
AcDbEntity
  8
STEMPEL
100
AcDbLine
 10
77.62246268846462
 20
201.0369158171277
 30
0.0
 11
71.15646268846461
 21
201.0369158171277
 31
0.0
  0
LINE
  5
953
330
1E
100
AcDbEntity
  8
STEMPEL
100
AcDbLine
 10
78.38946268846462
 20
201.8039158171277
 30
0.0
 11
77.62246268846462
 21
201.0369158171277
 31
0.0
  0
LINE
  5
954
330
1E
100
AcDbEntity
  8
STEMPEL
100
AcDbLine
 10
78.38946268846462
 20
215.0369158171277
 30
0.0
 11
78.38946268846462
 21
201.8039158171277
 31
0.0
  0
LINE
  5
955
330
1E
100
AcDbEntity
  8
STEMPEL
100
AcDbLine
 10
78.38946268846462
 20
223.0369158171277
 30
0.0
 11
78.38946268846462
 21
220.0369158171277
 31
0.0
  0
LINE
  5
956
330
1E
100
AcDbEntity
  8
STEMPEL
100
AcDbLine
 10
69.98946268846464
 20
226.0369158171277
 30
0.0
 11
78.78946268846465
 21
226.0369158171277
 31
0.0
  0
LINE
  5
957
330
1E
100
AcDbEntity
  8
STEMPEL
100
AcDbLine
 10
80.88946268846461
 20
226.0369158171277
 30
0.0
 11
67.88946268846462
 21
226.0369158171277
 31
0.0
  0
LINE
  5
958
330
1E
100
AcDbEntity
  8
STEMPEL
100
AcDbLine
 10
73.38946268846462
 20
231.0369158171277
 30
0.0
 11
73.38946268846462
 21
228.0369158171277
 31
0.0
  0
LINE
  5
959
330
1E
100
AcDbEntity
  8
STEMPEL
100
AcDbLine
 10
75.38946268846462
 20
231.0369158171277
 30
0.0
 11
75.38946268846462
 21
228.0369158171277
 31
0.0
  0
LINE
  5
95A
330
1E
100
AcDbEntity
  8
STEMPEL
100
AcDbLine
 10
80.71546268846464
 20
230.1119158171277
 30
0.0
 11
80.88946268846461
 21
227.8219158171277
 31
0.0
  0
ARC
  5
95B
330
1E
100
AcDbEntity
  8
STEMPEL
100
AcDbCircle
 10
79.71846268846462
 20
230.0369158171277
 30
0.0
 40
1.0
100
AcDbArc
 50
4.332313983000302
 51
90.0
  0
LINE
  5
95C
330
1E
100
AcDbEntity
  8
STEMPEL
100
AcDbLine
 10
75.38946268846462
 20
231.0369158171277
 30
0.0
 11
79.71846268846462
 21
231.0369158171277
 31
0.0
  0
LINE
  5
95D
330
1E
100
AcDbEntity
  8
STEMPEL
100
AcDbLine
 10
69.05946268846463
 20
231.0369158171277
 30
0.0
 11
73.38946268846462
 21
231.0369158171277
 31
0.0
  0
ARC
  5
95E
330
1E
100
AcDbEntity
  8
STEMPEL
100
AcDbCircle
 10
69.05946268846463
 20
230.0369158171277
 30
0.0
 40
1.0
100
AcDbArc
 50
90.0
 51
175.6676860169997
  0
LINE
  5
95F
330
1E
100
AcDbEntity
  8
STEMPEL
100
AcDbLine
 10
67.88946268846462
 20
227.8219158171277
 30
0.0
 11
68.06246268846462
 21
230.1119158171277
 31
0.0
  0
ARC
  5
960
330
1E
100
AcDbEntity
  8
STEMPEL
100
AcDbCircle
 10
110.3364626884646
 20
182.8609158171277
 30
0.0
 40
14.176
100
AcDbArc
 50
62.10337950900071
 51
121.969203082
  0
LINE
  5
961
330
1E
100
AcDbEntity
  8
STEMPEL
100
AcDbLine
 10
104.7074626884646
 20
185.0369158171277
 30
0.0
 11
115.9664626884646
 21
185.0369158171277
 31
0.0
  0
ARC
  5
962
330
1E
100
AcDbEntity
  8
STEMPEL
100
AcDbCircle
 10
110.3364626884646
 20
184.3779158171277
 30
0.0
 40
11.158
100
AcDbArc
 50
70.34714036800045
 51
109.6528596319995
  0
ARC
  5
963
330
1E
100
AcDbEntity
  8
STEMPEL
100
AcDbCircle
 10
104.7074626884646
 20
192.5029158171277
 30
0.0
 40
3.032999999999999
100
AcDbArc
 50
90.0
 51
128.2132107020002
  0
ARC
  5
964
330
1E
100
AcDbEntity
  8
STEMPEL
100
AcDbCircle
 10
104.7074626884646
 20
192.5029158171277
 30
0.0
 40
3.032999999999999
100
AcDbArc
 50
51.78678929799973
 51
90.0
  0
ARC
  5
965
330
1E
100
AcDbEntity
  8
STEMPEL
100
AcDbCircle
 10
104.7074626884646
 20
188.0699158171277
 30
0.0
 40
3.032999999999999
100
AcDbArc
 50
270.0
 51
308.2132107020003
  0
ARC
  5
966
330
1E
100
AcDbEntity
  8
STEMPEL
100
AcDbCircle
 10
104.7074626884646
 20
188.0699158171277
 30
0.0
 40
3.032999999999999
100
AcDbArc
 50
231.7867892979998
 51
270.0
  0
LINE
  5
967
330
1E
100
AcDbEntity
  8
STEMPEL
100
AcDbLine
 10
102.8314626884646
 20
194.8869158171277
 30
0.0
 11
102.8314626884646
 21
185.6869158171277
 31
0.0
  0
LINE
  5
968
330
1E
100
AcDbEntity
  8
STEMPEL
100
AcDbLine
 10
106.5844626884646
 20
194.8869158171277
 30
0.0
 11
106.5844626884646
 21
185.6869158171277
 31
0.0
  0
ARC
  5
969
330
1E
100
AcDbEntity
  8
STEMPEL
100
AcDbCircle
 10
104.7074626884646
 20
188.0699158171277
 30
0.0
 40
3.032999999999999
100
AcDbArc
 50
270.0
 51
308.2132107020003
  0
LINE
  5
96A
330
1E
100
AcDbEntity
  8
STEMPEL
100
AcDbLine
 10
114.0894626884646
 20
194.8869158171277
 30
0.0
 11
114.0894626884646
 21
185.6869158171277
 31
0.0
  0
ARC
  5
96B
330
1E
100
AcDbEntity
  8
STEMPEL
100
AcDbCircle
 10
115.9664626884646
 20
192.5029158171277
 30
0.0
 40
3.032999999999999
100
AcDbArc
 50
90.0
 51
128.2132107020002
  0
LINE
  5
96C
330
1E
100
AcDbEntity
  8
STEMPEL
100
AcDbLine
 10
117.8424626884646
 20
194.8869158171277
 30
0.0
 11
117.8424626884646
 21
185.6869158171277
 31
0.0
  0
ARC
  5
96D
330
1E
100
AcDbEntity
  8
STEMPEL
100
AcDbCircle
 10
115.9664626884646
 20
192.5029158171277
 30
0.0
 40
3.032999999999999
100
AcDbArc
 50
51.78678929799973
 51
90.0
  0
ARC
  5
96E
330
1E
100
AcDbEntity
  8
STEMPEL
100
AcDbCircle
 10
115.9664626884646
 20
188.0699158171277
 30
0.0
 40
3.032999999999999
100
AcDbArc
 50
270.0
 51
308.2132107020003
  0
ARC
  5
96F
330
1E
100
AcDbEntity
  8
STEMPEL
100
AcDbCircle
 10
115.9664626884646
 20
188.0699158171277
 30
0.0
 40
3.032999999999999
100
AcDbArc
 50
231.7867892979998
 51
270.0
  0
ARC
  5
970
330
1E
100
AcDbEntity
  8
STEMPEL
100
AcDbCircle
 10
110.3364626884646
 20
196.1949158171277
 30
0.0
 40
11.158
100
AcDbArc
 50
250.3471403680005
 51
289.6528596319996
  0
LINE
  5
971
330
1E
100
AcDbEntity
  8
STEMPEL
100
AcDbLine
 10
155.9214626884646
 20
220.0369158171277
 30
0.0
 11
155.9214626884646
 21
217.0369158171277
 31
0.0
  0
LINE
  5
972
330
1E
100
AcDbEntity
  8
STEMPEL
100
AcDbLine
 10
64.75846268846464
 20
220.0369158171277
 30
0.0
 11
64.75846268846464
 21
217.0369158171277
 31
0.0
  0
ARC
  5
973
330
1E
100
AcDbEntity
  8
HILF
100
AcDbCircle
 10
110.3364626884646
 20
221.5369158171277
 30
0.0
 40
26.0
100
AcDbArc
 50
296.7655005770009
 51
349.742575561
  0
ARC
  5
974
330
1E
100
AcDbEntity
  8
HILF
100
AcDbCircle
 10
116.6414626884646
 20
209.0369158171277
 30
0.0
 40
12.0
100
AcDbArc
 50
270.0
 51
296.7655005770009
  0
LINE
  5
975
330
1E
100
AcDbEntity
  8
HILF
100
AcDbLine
 10
104.0324626884646
 20
197.0369158171277
 30
0.0
 11
116.6414626884646
 21
197.0369158171277
 31
0.0
  0
ARC
  5
976
330
1E
100
AcDbEntity
  8
HILF
100
AcDbCircle
 10
104.0324626884646
 20
209.0369158171277
 30
0.0
 40
12.0
100
AcDbArc
 50
243.234499422999
 51
270.0
  0
ARC
  5
977
330
1E
100
AcDbEntity
  8
HILF
100
AcDbCircle
 10
110.3364626884646
 20
221.5369158171277
 30
0.0
 40
26.0
100
AcDbArc
 50
190.257424439
 51
243.234499422999
  0
LINE
  5
978
330
1E
100
AcDbEntity
  8
STEMPEL
100
AcDbLine
 10
157.6394626884646
 20
217.0369158171277
 30
0.0
 11
158.8394626884646
 21
217.0369158171277
 31
0.0
  0
LINE
  5
979
330
1E
100
AcDbEntity
  8
STEMPEL
100
AcDbLine
 10
136.7944626884646
 20
217.0369158171277
 30
0.0
 11
157.6394626884646
 21
217.0369158171277
 31
0.0
  0
ARC
  5
97A
330
1E
100
AcDbEntity
  8
STEMPEL
100
AcDbCircle
 10
136.7944626884646
 20
214.0369158171277
 30
0.0
 40
3.0
100
AcDbArc
 50
90.0
 51
164.1733798680002
  0
ARC
  5
97B
330
1E
100
AcDbEntity
  8
STEMPEL
100
AcDbCircle
 10
110.3364626884646
 20
221.5369158171277
 30
0.0
 40
24.5
100
AcDbArc
 50
195.8266201319997
 51
344.1733798680003
  0
ARC
  5
97C
330
1E
100
AcDbEntity
  8
STEMPEL
100
AcDbCircle
 10
83.87946268846462
 20
214.0369158171277
 30
0.0
 40
3.0
100
AcDbArc
 50
15.82662013199975
 51
90.0
  0
LINE
  5
97D
330
1E
100
AcDbEntity
  8
STEMPEL
100
AcDbLine
 10
61.83846268846463
 20
217.0369158171277
 30
0.0
 11
83.87946268846462
 21
217.0369158171277
 31
0.0
  0
LINE
  5
97E
330
1E
100
AcDbEntity
  8
STEMPEL
100
AcDbLine
 10
61.83846268846463
 20
220.0369158171277
 30
0.0
 11
61.83846268846463
 21
217.0369158171277
 31
0.0
  0
LINE
  5
97F
330
1E
100
AcDbEntity
  8
STEMPEL
100
AcDbLine
 10
83.87946268846462
 20
220.0369158171277
 30
0.0
 11
61.83846268846463
 21
220.0369158171277
 31
0.0
  0
ARC
  5
980
330
1E
100
AcDbEntity
  8
STEMPEL
100
AcDbCircle
 10
83.87946268846462
 20
214.0369158171277
 30
0.0
 40
6.0
100
AcDbArc
 50
15.82662013199975
 51
90.0
  0
ARC
  5
981
330
1E
100
AcDbEntity
  8
STEMPEL
100
AcDbCircle
 10
110.3364626884646
 20
221.5369158171277
 30
0.0
 40
21.5
100
AcDbArc
 50
195.8266201319997
 51
344.1733798680003
  0
ARC
  5
982
330
1E
100
AcDbEntity
  8
STEMPEL
100
AcDbCircle
 10
136.7944626884646
 20
214.0369158171277
 30
0.0
 40
6.0
100
AcDbArc
 50
90.0
 51
164.1733798680002
  0
LINE
  5
983
330
1E
100
AcDbEntity
  8
STEMPEL
100
AcDbLine
 10
157.6394626884646
 20
220.0369158171277
 30
0.0
 11
136.7944626884646
 21
220.0369158171277
 31
0.0
  0
LINE
  5
984
330
1E
100
AcDbEntity
  8
STEMPEL
100
AcDbLine
 10
158.8394626884646
 20
220.0369158171277
 30
0.0
 11
157.6394626884646
 21
220.0369158171277
 31
0.0
  0
LINE
  5
985
330
1E
100
AcDbEntity
  8
STEMPEL
100
AcDbLine
 10
158.8394626884646
 20
217.0369158171277
 30
0.0
 11
158.8394626884646
 21
220.0369158171277
 31
0.0
  0
ARC
  5
986
330
1E
100
AcDbEntity
  8
STEMPEL
100
AcDbCircle
 10
140.7844626884646
 20
216.0369158171277
 30
0.0
 40
1.0
100
AcDbArc
 50
0.0
 51
90.0
  0
LINE
  5
987
330
1E
100
AcDbEntity
  8
STEMPEL
100
AcDbLine
 10
141.7844626884646
 20
215.0369158171277
 30
0.0
 11
141.7844626884646
 21
216.0369158171277
 31
0.0
  0
LINE
  5
988
330
1E
100
AcDbEntity
  8
STEMPEL
100
AcDbLine
 10
150.7844626884646
 20
215.0369158171277
 30
0.0
 11
141.7844626884646
 21
215.0369158171277
 31
0.0
  0
LINE
  5
989
330
1E
100
AcDbEntity
  8
STEMPEL
100
AcDbLine
 10
150.7844626884646
 20
216.0369158171277
 30
0.0
 11
150.7844626884646
 21
215.0369158171277
 31
0.0
  0
ARC
  5
98A
330
1E
100
AcDbEntity
  8
STEMPEL
100
AcDbCircle
 10
151.7844626884646
 20
216.0369158171277
 30
0.0
 40
1.0
100
AcDbArc
 50
90.0
 51
180.0
  0
ARC
  5
98B
330
1E
100
AcDbEntity
  8
STEMPEL
100
AcDbCircle
 10
79.88946268846461
 20
216.0369158171277
 30
0.0
 40
1.0
100
AcDbArc
 50
90.0
 51
180.0
  0
LINE
  5
98C
330
1E
100
AcDbEntity
  8
STEMPEL
100
AcDbLine
 10
78.88946268846462
 20
215.0369158171277
 30
0.0
 11
78.88946268846462
 21
216.0369158171277
 31
0.0
  0
LINE
  5
98D
330
1E
100
AcDbEntity
  8
STEMPEL
100
AcDbLine
 10
69.88946268846461
 20
215.0369158171277
 30
0.0
 11
78.88946268846462
 21
215.0369158171277
 31
0.0
  0
LINE
  5
98E
330
1E
100
AcDbEntity
  8
STEMPEL
100
AcDbLine
 10
69.88946268846461
 20
216.0369158171277
 30
0.0
 11
69.88946268846461
 21
215.0369158171277
 31
0.0
  0
ARC
  5
98F
330
1E
100
AcDbEntity
  8
STEMPEL
100
AcDbCircle
 10
68.88946268846462
 20
216.0369158171277
 30
0.0
 40
1.0
100
AcDbArc
 50
0.0
 51
90.0
  0
LINE
  5
990
330
1E
100
AcDbEntity
  8
STEMPEL
100
AcDbLine
 10
155.9204626884646
 20
226.0369158171277
 30
0.0
 11
155.9204626884646
 21
223.0369158171277
 31
0.0
  0
LINE
  5
991
330
1E
100
AcDbEntity
  8
STEMPEL
100
AcDbLine
 10
139.6854626884646
 20
226.0369158171277
 30
0.0
 11
139.6854626884646
 21
223.0369158171277
 31
0.0
  0
LINE
  5
992
330
1E
100
AcDbEntity
  8
STEMPEL
100
AcDbLine
 10
64.75746268846461
 20
226.0369158171277
 30
0.0
 11
64.75746268846461
 21
223.0369158171277
 31
0.0
  0
ARC
  5
993
330
1E
100
AcDbEntity
  8
STEMPEL
100
AcDbCircle
 10
152.7204626884646
 20
227.0369158171277
 30
0.0
 40
4.0
100
AcDbArc
 50
180.0
 51
270.0
  0
LINE
  5
994
330
1E
100
AcDbEntity
  8
STEMPEL
100
AcDbLine
 10
148.7204626884646
 20
228.0369158171277
 30
0.0
 11
148.7204626884646
 21
227.0369158171277
 31
0.0
  0
LINE
  5
995
330
1E
100
AcDbEntity
  8
STEMPEL
100
AcDbLine
 10
152.2204626884646
 20
228.0369158171277
 30
0.0
 11
148.7204626884646
 21
228.0369158171277
 31
0.0
  0
LINE
  5
996
330
1E
100
AcDbEntity
  8
STEMPEL
100
AcDbLine
 10
152.2204626884646
 20
227.0369158171277
 30
0.0
 11
152.2204626884646
 21
228.0369158171277
 31
0.0
  0
ARC
  5
997
330
1E
100
AcDbEntity
  8
STEMPEL
100
AcDbCircle
 10
153.2204626884646
 20
227.0369158171277
 30
0.0
 40
1.0
100
AcDbArc
 50
180.0
 51
270.0
  0
ARC
  5
998
330
1E
100
AcDbEntity
  8
HILF
100
AcDbCircle
 10
110.3364626884646
 20
221.5369158171277
 30
0.0
 40
26.0
100
AcDbArc
 50
116.7655005770009
 51
169.7425755609999
  0
ARC
  5
999
330
1E
100
AcDbEntity
  8
HILF
100
AcDbCircle
 10
104.0324626884646
 20
234.0369158171277
 30
0.0
 40
12.0
100
AcDbArc
 50
90.0
 51
116.7655005770009
  0
LINE
  5
99A
330
1E
100
AcDbEntity
  8
HILF
100
AcDbLine
 10
116.6414626884646
 20
246.0369158171277
 30
0.0
 11
104.0324626884646
 21
246.0369158171277
 31
0.0
  0
ARC
  5
99B
330
1E
100
AcDbEntity
  8
HILF
100
AcDbCircle
 10
116.6414626884646
 20
234.0369158171277
 30
0.0
 40
12.0
100
AcDbArc
 50
63.23449942299906
 51
90.0
  0
ARC
  5
99C
330
1E
100
AcDbEntity
  8
HILF
100
AcDbCircle
 10
110.3364626884646
 20
221.5369158171277
 30
0.0
 40
26.0
100
AcDbArc
 50
10.25742443900003
 51
63.23449942299906
  0
LINE
  5
99D
330
1E
100
AcDbEntity
  8
STEMPEL
100
AcDbLine
 10
136.7944626884646
 20
226.0369158171277
 30
0.0
 11
148.8474626884646
 21
226.0369158171277
 31
0.0
  0
ARC
  5
99E
330
1E
100
AcDbEntity
  8
STEMPEL
100
AcDbCircle
 10
136.7944626884646
 20
229.0369158171277
 30
0.0
 40
3.0
100
AcDbArc
 50
195.8266201319997
 51
270.0
  0
ARC
  5
99F
330
1E
100
AcDbEntity
  8
STEMPEL
100
AcDbCircle
 10
110.3364626884646
 20
221.5369158171277
 30
0.0
 40
24.5
100
AcDbArc
 50
15.82662013199975
 51
164.1733798680002
  0
ARC
  5
9A0
330
1E
100
AcDbEntity
  8
STEMPEL
100
AcDbCircle
 10
83.87946268846462
 20
229.0369158171277
 30
0.0
 40
3.0
100
AcDbArc
 50
270.0
 51
344.1733798680003
  0
LINE
  5
9A1
330
1E
100
AcDbEntity
  8
STEMPEL
100
AcDbLine
 10
61.83846268846463
 20
226.0369158171277
 30
0.0
 11
83.87946268846462
 21
226.0369158171277
 31
0.0
  0
LINE
  5
9A2
330
1E
100
AcDbEntity
  8
STEMPEL
100
AcDbLine
 10
61.83846268846463
 20
223.0369158171277
 30
0.0
 11
61.83846268846463
 21
226.0369158171277
 31
0.0
  0
LINE
  5
9A3
330
1E
100
AcDbEntity
  8
STEMPEL
100
AcDbLine
 10
83.87946268846462
 20
223.0369158171277
 30
0.0
 11
61.83846268846463
 21
223.0369158171277
 31
0.0
  0
ARC
  5
9A4
330
1E
100
AcDbEntity
  8
STEMPEL
100
AcDbCircle
 10
83.87946268846462
 20
229.0369158171277
 30
0.0
 40
6.0
100
AcDbArc
 50
270.0
 51
344.1733798680003
  0
ARC
  5
9A5
330
1E
100
AcDbEntity
  8
STEMPEL
100
AcDbCircle
 10
110.3364626884646
 20
221.5369158171277
 30
0.0
 40
21.5
100
AcDbArc
 50
15.82662013199975
 51
164.1733798680002
  0
ARC
  5
9A6
330
1E
100
AcDbEntity
  8
STEMPEL
100
AcDbCircle
 10
136.7944626884646
 20
229.0369158171277
 30
0.0
 40
6.0
100
AcDbArc
 50
195.8266201319997
 51
270.0
  0
LINE
  5
9A7
330
1E
100
AcDbEntity
  8
STEMPEL
100
AcDbLine
 10
142.2844626884646
 20
223.0369158171277
 30
0.0
 11
136.7944626884646
 21
223.0369158171277
 31
0.0
  0
LINE
  5
9A8
330
1E
100
AcDbEntity
  8
STEMPEL
100
AcDbLine
 10
158.8394626884646
 20
223.0369158171277
 30
0.0
 11
150.2844626884646
 21
223.0369158171277
 31
0.0
  0
LINE
  5
9A9
330
1E
100
AcDbEntity
  8
STEMPEL
100
AcDbLine
 10
158.8394626884646
 20
226.0369158171277
 30
0.0
 11
158.8394626884646
 21
223.0369158171277
 31
0.0
  0
LINE
  5
9AA
330
1E
100
AcDbEntity
  8
STEMPEL
100
AcDbLine
 10
152.2454626884646
 20
226.0369158171277
 30
0.0
 11
158.8394626884646
 21
226.0369158171277
 31
0.0
  0
ARC
  5
9AB
330
1E
100
AcDbEntity
  8
STEMPEL
100
AcDbCircle
 10
152.2454626884646
 20
227.0369158171277
 30
0.0
 40
1.0
100
AcDbArc
 50
180.0
 51
270.0
  0
LINE
  5
9AC
330
1E
100
AcDbEntity
  8
STEMPEL
100
AcDbLine
 10
151.2454626884646
 20
228.0369158171277
 30
0.0
 11
151.2454626884646
 21
227.0369158171277
 31
0.0
  0
LINE
  5
9AD
330
1E
100
AcDbEntity
  8
MITTEL
100
AcDbLine
 10
74.38946268846462
 20
196.0369158171277
 30
0.0
 11
74.38946268846462
 21
236.0369158171277
 31
0.0
  0
LINE
  5
9AE
330
1E
100
AcDbEntity
  8
MITTEL
100
AcDbLine
 10
146.2844626884646
 20
196.0369158171277
 30
0.0
 11
146.2844626884646
 21
236.0369158171277
 31
0.0
  0
LINE
  5
9AF
330
1E
100
AcDbEntity
  8
MITTEL
100
AcDbLine
 10
56.83846268846463
 20
221.5369158171277
 30
0.0
 11
163.8394626884647
 21
221.5369158171277
 31
0.0
  0
LINE
  5
9B0
330
1E
100
AcDbEntity
  8
MITTEL
100
AcDbLine
 10
110.3364626884646
 20
180.0369158171277
 30
0.0
 11
110.3364626884646
 21
251.0369158171277
 31
0.0
  0
ARC
  5
9B1
330
1E
100
AcDbEntity
  8
HILF
100
AcDbCircle
 10
146.3394626884646
 20
133.5983962757085
 30
0.0
 40
6.0
100
AcDbArc
 50
99.59406822700028
 51
260.4059317729997
  0
ARC
  5
9B2
330
1E
100
AcDbEntity
  8
HILF
100
AcDbCircle
 10
146.3394626884646
 20
133.5983962757085
 30
0.0
 40
6.0
100
AcDbArc
 50
279.5940682270003
 51
80.40593177299973
  0
CIRCLE
  5
9B3
330
1E
100
AcDbEntity
  8
STEMPEL
100
AcDbCircle
 10
146.3394626884646
 20
133.5983962757085
 30
0.0
 40
6.5
  0
LINE
  5
9B4
330
1E
100
AcDbEntity
  8
STEMPEL
100
AcDbLine
 10
145.3394626884646
 20
127.1763962757085
 30
0.0
 11
145.3394626884646
 21
140.0213962757085
 31
0.0
  0
LINE
  5
9B5
330
1E
100
AcDbEntity
  8
STEMPEL
100
AcDbLine
 10
147.3394626884646
 20
127.1763962757085
 30
0.0
 11
147.3394626884646
 21
140.0213962757085
 31
0.0
  0
ARC
  5
9B6
330
1E
100
AcDbEntity
  8
HILF
100
AcDbCircle
 10
74.33946268846466
 20
133.5983962757085
 30
0.0
 40
6.0
100
AcDbArc
 50
99.59406822700028
 51
260.4059317729997
  0
ARC
  5
9B7
330
1E
100
AcDbEntity
  8
HILF
100
AcDbCircle
 10
74.33946268846466
 20
133.5983962757085
 30
0.0
 40
6.0
100
AcDbArc
 50
279.5940682270003
 51
80.40593177299973
  0
CIRCLE
  5
9B8
330
1E
100
AcDbEntity
  8
STEMPEL
100
AcDbCircle
 10
74.33946268846466
 20
133.5983962757085
 30
0.0
 40
6.5
  0
LINE
  5
9B9
330
1E
100
AcDbEntity
  8
STEMPEL
100
AcDbLine
 10
73.33946268846466
 20
127.1763962757085
 30
0.0
 11
73.33946268846466
 21
140.0213962757085
 31
0.0
  0
LINE
  5
9BA
330
1E
100
AcDbEntity
  8
STEMPEL
100
AcDbLine
 10
75.33946268846467
 20
127.1763962757085
 30
0.0
 11
75.33946268846467
 21
140.0213962757085
 31
0.0
  0
ARC
  5
9BB
330
1E
100
AcDbEntity
  8
STEMPEL
100
AcDbCircle
 10
101.8394626884646
 20
133.5983962757085
 30
0.0
 40
40.0
100
AcDbArc
 50
157.9756871630002
 51
202.0243128369997
  0
TEXT
  5
9BC
330
1E
100
AcDbEntity
  8
TEXT
 62
     1
100
AcDbText
 10
105.0371309637893
 20
128.4243962757085
 30
0.0
 40
3.5
  1
DN40
 41
0.8
 72
     1
 11
110.1704642971226
 21
128.4243962757085
 31
0.0
100
AcDbText
  0
TEXT
  5
9BD
330
1E
100
AcDbEntity
  8
TEXT
 62
     1
100
AcDbText
 10
105.6933584485452
 20
135.5263962757085
 30
0.0
 40
3.5
  1
LORO
 41
0.8
 72
     1
 11
110.7600251152119
 21
135.5263962757085
 31
0.0
100
AcDbText
  0
CIRCLE
  5
9BE
330
1E
100
AcDbEntity
  8
HILF
100
AcDbCircle
 10
110.3354626884646
 20
133.5983962757085
 30
0.0
 40
9.25
  0
CIRCLE
  5
9BF
330
1E
100
AcDbEntity
  8
HILF
100
AcDbCircle
 10
110.3354626884646
 20
133.5983962757085
 30
0.0
 40
10.75
  0
LINE
  5
9C0
330
1E
100
AcDbEntity
  8
MITTEL
 62
     2
100
AcDbLine
 10
163.8394626884647
 20
133.5983962757085
 30
0.0
 11
56.83946268846466
 21
133.5983962757085
 31
0.0
  0
LINE
  5
9C1
330
1E
100
AcDbEntity
  8
MITTEL
 62
     2
100
AcDbLine
 10
146.3394626884646
 20
122.0983962757085
 30
0.0
 11
146.3394626884646
 21
145.0983962757085
 31
0.0
  0
LINE
  5
9C2
330
1E
100
AcDbEntity
  8
STEMPEL
100
AcDbLine
 10
152.2724626884646
 20
125.5333962757085
 30
0.0
 11
149.7974626884646
 21
125.8813962757085
 31
0.0
  0
LINE
  5
9C3
330
1E
100
AcDbEntity
  8
STEMPEL
100
AcDbLine
 10
151.2984626884646
 20
118.5983962757085
 30
0.0
 11
152.2724626884646
 21
125.5333962757085
 31
0.0
  0
LINE
  5
9C4
330
1E
100
AcDbEntity
  8
MITTEL
 62
     2
100
AcDbLine
 10
74.33946268846466
 20
122.0983962757085
 30
0.0
 11
74.33946268846466
 21
145.0983962757085
 31
0.0
  0
LINE
  5
9C5
330
1E
100
AcDbEntity
  8
MITTEL
 62
     2
100
AcDbLine
 10
110.3364626884646
 20
153.5983962757085
 30
0.0
 11
110.3364626884646
 21
113.5983962757085
 31
0.0
  0
LINE
  5
9C6
330
1E
100
AcDbEntity
  8
HILF
100
AcDbLine
 10
86.59146268846461
 20
128.8683962757085
 30
0.0
 11
86.59146268846461
 21
118.5983962757085
 31
0.0
  0
LINE
  5
9C7
330
1E
100
AcDbEntity
  8
HILF
100
AcDbLine
 10
100.6824626884646
 20
128.8683962757085
 30
0.0
 11
86.59146268846461
 21
128.8683962757085
 31
0.0
  0
LINE
  5
9C8
330
1E
100
AcDbEntity
  8
HILF
100
AcDbLine
 10
86.59146268846461
 20
138.3283962757085
 30
0.0
 11
100.6824626884646
 21
138.3283962757085
 31
0.0
  0
LINE
  5
9C9
330
1E
100
AcDbEntity
  8
HILF
100
AcDbLine
 10
86.59146268846461
 20
148.5983962757085
 30
0.0
 11
86.59146268846461
 21
138.3283962757085
 31
0.0
  0
LINE
  5
9CA
330
1E
100
AcDbEntity
  8
HILF
100
AcDbLine
 10
134.0864626884646
 20
128.8683962757085
 30
0.0
 11
134.0864626884646
 21
118.5983962757085
 31
0.0
  0
LINE
  5
9CB
330
1E
100
AcDbEntity
  8
HILF
100
AcDbLine
 10
119.9894626884646
 20
128.8683962757085
 30
0.0
 11
134.0864626884646
 21
128.8683962757085
 31
0.0
  0
LINE
  5
9CC
330
1E
100
AcDbEntity
  8
HILF
100
AcDbLine
 10
134.0864626884646
 20
138.3283962757085
 30
0.0
 11
119.9894626884646
 21
138.3283962757085
 31
0.0
  0
LINE
  5
9CD
330
1E
100
AcDbEntity
  8
HILF
100
AcDbLine
 10
134.0864626884646
 20
148.5983962757085
 30
0.0
 11
134.0864626884646
 21
138.3283962757085
 31
0.0
  0
ARC
  5
9CE
330
1E
100
AcDbEntity
  8
HILF
100
AcDbCircle
 10
93.59146268846462
 20
133.5983962757085
 30
0.0
 40
8.5
100
AcDbArc
 50
145.4396782200005
 51
214.5603217799995
  0
ARC
  5
9CF
330
1E
100
AcDbEntity
  8
HILF
100
AcDbCircle
 10
127.0864626884646
 20
133.5983962757085
 30
0.0
 40
8.5
100
AcDbArc
 50
325.4396782200005
 51
34.56032177999951
  0
LINE
  5
9D0
330
1E
100
AcDbEntity
  8
STEMPEL
100
AcDbLine
 10
64.75846268846464
 20
148.5983962757085
 30
0.0
 11
155.9204626884646
 21
148.5983962757085
 31
0.0
  0
LINE
  5
9D1
330
1E
100
AcDbEntity
  8
STEMPEL
100
AcDbLine
 10
155.9204626884646
 20
118.5983962757085
 30
0.0
 11
64.75846268846464
 21
118.5983962757085
 31
0.0
  0
LINE
  5
9D2
330
1E
100
AcDbEntity
  8
STEMPEL
100
AcDbLine
 10
141.2284626884646
 20
129.5823962757085
 30
0.0
 11
139.6854626884646
 21
118.5983962757085
 31
0.0
  0
LINE
  5
9D3
330
1E
100
AcDbEntity
  8
STEMPEL
100
AcDbLine
 10
148.7734626884646
 20
118.5983962757085
 30
0.0
 11
150.1404626884646
 21
128.3263962757085
 31
0.0
  0
ARC
  5
9D4
330
1E
100
AcDbEntity
  8
STEMPEL
100
AcDbCircle
 10
118.8394626884646
 20
133.5983962757085
 30
0.0
 40
40.0
100
AcDbArc
 50
337.9756871630003
 51
22.02431283699973
  0
DIMENSION
  5
9EA
330
1E
100
AcDbEntity
  8
WERK
100
AcDbDimension
  2
*D1
 10
146.3394626884646
 20
104.5792290408176
 30
0.0
 11
110.3394626884646
 21
107.8292290408176
 31
0.0
 70
    32
 71
     5
 42
72.0
  3
Standard
100
AcDbAlignedDimension
 13
74.33946268846466
 23
122.0983962757085
 33
0.0
 14
146.3394626884646
 24
122.0983962757085
 34
0.0
100
AcDbRotatedDimension
1001
ACAD
1000
DSTYLE
1002
{
1070
    41
1040
3.5
1070
    42
1040
1.0
1070
    43
1040
7.0
1070
    44
1040
1.0
1070
    73
1070
     0
1070
    74
1070
     0
1070
    77
1070
     1
1070
    78
1070
     8
1070
    79
1070
     2
1070
   140
1040
3.5
1070
   141
1040
1.5
1070
   146
1040
0.5142857142857144
1070
   147
1040
1.5
1070
   172
1070
     1
1070
   178
1070
     1
1070
   179
1070
     2
1070
   271
1070
     2
1070
   272
1070
     2
1070
   284
1070
     8
1070
   285
1070
     8
1070
   286
1070
     8
1002
}
  0
DIMENSION
  5
9F7
330
1E
100
AcDbEntity
  8
WERK
100
AcDbDimension
  2
*D2
 10
158.8394626884646
 20
96.14872350896632
 30
0.0
 11
110.3394626884646
 21
99.39872350896633
 31
0.0
 70
    32
 71
     5
 42
97.0
  3
Standard
100
AcDbAlignedDimension
 13
61.83946268846466
 23
133.5983962757085
 33
0.0
 14
158.8394626884646
 24
133.5983962757085
 34
0.0
100
AcDbRotatedDimension
1001
ACAD
1000
DSTYLE
1002
{
1070
    41
1040
3.5
1070
    42
1040
1.0
1070
    43
1040
7.0
1070
    44
1040
1.0
1070
    73
1070
     0
1070
    74
1070
     0
1070
    77
1070
     1
1070
    78
1070
     8
1070
    79
1070
     2
1070
   140
1040
3.5
1070
   141
1040
1.5
1070
   146
1040
0.5142857142857144
1070
   147
1040
1.5
1070
   172
1070
     1
1070
   178
1070
     1
1070
   179
1070
     2
1070
   271
1070
     2
1070
   272
1070
     2
1070
   284
1070
     8
1070
   285
1070
     8
1070
   286
1070
     8
1002
}
  0
DIMENSION
  5
A15
330
1E
100
AcDbEntity
  8
BEM
100
AcDbDimension
  2
*D3
 10
126.1092418301382
 20
236.1475097343152
 30
0.0
 11
115.9877236822985
 21
226.7753772285583
 31
0.0
 70
   161
 71
     5
 42
42.9999999767785
  3
Standard
100
AcDbAlignedDimension
 13
94.56136523621843
 23
206.9288255801346
 33
0.0
 14
126.1125202792395
 24
236.1439691439474
 34
0.0
1001
ACAD
1000
DSTYLE
1002
{
1070
    41
1040
3.5
1070
    42
1040
1.0
1070
    43
1040
7.0
1070
    44
1040
1.0
1070
    73
1070
     0
1070
    74
1070
     0
1070
    77
1070
     1
1070
    78
1070
     8
1070
    79
1070
     2
1070
   140
1040
3.5
1070
   141
1040
1.5
1070
   146
1040
0.5142857142857144
1070
   147
1040
1.5
1070
   172
1070
     1
1070
   178
1070
     1
1070
   179
1070
     2
1070
   271
1070
     2
1070
   272
1070
     2
1070
   284
1070
     8
1070
   285
1070
     8
1070
   286
1070
     8
1002
}
  0
DIMENSION
  5
A49
330
1E
100
AcDbEntity
  8
BEM
100
AcDbDimension
  2
*D4
 10
53.73622936053561
 20
223.0369158171277
 30
0.0
 11
50.48622936053558
 21
232.4702491504611
 31
0.0
 70
    32
 71
     5
 42
3.0
  3
Standard
100
AcDbAlignedDimension
 13
61.83846268846463
 23
220.0369158171277
 33
0.0
 14
61.83846268846463
 24
223.0369158171277
 34
0.0
 50
90.0
100
AcDbRotatedDimension
1001
ACAD
1000
DSTYLE
1002
{
1070
    41
1040
3.5
1070
    42
1040
1.0
1070
    43
1040
7.0
1070
    44
1040
1.0
1070
    73
1070
     0
1070
    74
1070
     0
1070
    77
1070
     1
1070
    78
1070
     8
1070
    79
1070
     2
1070
   140
1040
3.5
1070
   141
1040
1.5
1070
   146
1040
0.5142857142857144
1070
   147
1040
1.5
1070
   172
1070
     1
1070
   178
1070
     1
1070
   179
1070
     2
1070
   271
1070
     2
1070
   272
1070
     2
1070
   284
1070
     8
1070
   285
1070
     8
1070
   286
1070
     8
1002
}
  0
DIMENSION
  5
A58
330
1E
100
AcDbEntity
  8
BEM
100
AcDbDimension
  2
*D5
 10
46.2562962966922
 20
246.0369158171277
 30
0.0
 11
43.00629629669216
 21
215.5369158171278
 31
0.0
 70
    32
 71
     5
 42
61.0
  3
Standard
100
AcDbAlignedDimension
 13
104.7074626884646
 23
185.0369158171277
 33
0.0
 14
104.0324626884646
 24
246.0369158171277
 34
0.0
 50
90.0
100
AcDbRotatedDimension
1001
ACAD
1000
DSTYLE
1002
{
1070
    41
1040
3.5
1070
    42
1040
1.0
1070
    43
1040
7.0
1070
    44
1040
1.0
1070
    73
1070
     0
1070
    74
1070
     0
1070
    77
1070
     1
1070
    78
1070
     8
1070
    79
1070
     2
1070
   140
1040
3.5
1070
   141
1040
1.5
1070
   146
1040
0.5142857142857144
1070
   147
1040
1.5
1070
   172
1070
     1
1070
   178
1070
     1
1070
   179
1070
     2
1070
   271
1070
     2
1070
   272
1070
     2
1070
   284
1070
     8
1070
   285
1070
     8
1070
   286
1070
     8
1002
}
  0
TEXT
  5
A8B
330
1E
100
AcDbEntity
  8
TEXT
 62
     1
100
AcDbText
 10
113.9182761339558
 20
57.82028541582997
 30
0.0
 40
3.5
  1
Werkstoff: St37 Dickschichtpassiviert
 41
0.8
  7
GREEKS
100
AcDbText
  0
DIMENSION
  5
A95
330
1E
100
AcDbEntity
  8
BEM
100
AcDbDimension
  2
*D6
 10
49.92750720788194
 20
148.5983962757085
 30
0.0
 11
46.67750720788191
 21
133.5983962757222
 31
0.0
 70
    32
 71
     5
 42
29.99999999997253
  3
Standard
100
AcDbAlignedDimension
 13
64.75847025297524
 23
118.598396275736
 33
0.0
 14
64.75846268846464
 24
148.5983962757085
 34
0.0
 50
90.0
100
AcDbRotatedDimension
1001
ACAD
1000
DSTYLE
1002
{
1070
    41
1040
3.5
1070
    42
1040
1.0
1070
    43
1040
7.0
1070
    44
1040
1.0
1070
    73
1070
     0
1070
    74
1070
     0
1070
    77
1070
     1
1070
    78
1070
     8
1070
    79
1070
     2
1070
   140
1040
3.5
1070
   141
1040
1.5
1070
   146
1040
0.5142857142857144
1070
   147
1040
1.5
1070
   172
1070
     1
1070
   178
1070
     1
1070
   179
1070
     2
1070
   271
1070
     2
1070
   272
1070
     2
1070
   284
1070
     8
1070
   285
1070
     8
1070
   286
1070
     8
1002
}
  0
ENDSEC
  0
SECTION
  2
OBJECTS
  0
DICTIONARY
  5
C
330
0
100
AcDbDictionary
281
     1
  3
ACAD_COLOR
350
DF
  3
ACAD_GROUP
350
D
  3
ACAD_LAYOUT
350
19
  3
ACAD_MATERIAL
350
DE
  3
ACAD_MLINESTYLE
350
16
  3
ACAD_PLOTSETTINGS
350
18
  3
ACAD_PLOTSTYLENAME
350
E
  3
AcDbVariableDictionary
350
EA
  0
DICTIONARY
  5
A0
330
1E
100
AcDbDictionary
280
     1
281
     1
  3
ACAD_LAYOUTSELFREF
360
D4
  0
DICTIONARY
  5
A2
330
1A
100
AcDbDictionary
280
     1
281
     1
  3
ACAD_LAYOUTSELFREF
360
D3
  0
DICTIONARY
  5
DF
102
{ACAD_REACTORS
330
C
102
}
330
C
100
AcDbDictionary
281
     1
  0
DICTIONARY
  5
D
102
{ACAD_REACTORS
330
C
102
}
330
C
100
AcDbDictionary
281
     1
  0
DICTIONARY
  5
19
102
{ACAD_REACTORS
330
C
102
}
330
C
100
AcDbDictionary
281
     1
  3
Layout1
350
1D
  3
Model
350
21
  0
DICTIONARY
  5
DE
102
{ACAD_REACTORS
330
C
102
}
330
C
100
AcDbDictionary
281
     1
  0
DICTIONARY
  5
16
102
{ACAD_REACTORS
330
C
102
}
330
C
100
AcDbDictionary
281
     1
  3
Standard
350
17
  0
DICTIONARY
  5
18
102
{ACAD_REACTORS
330
C
102
}
330
C
100
AcDbDictionary
281
     1
  0
ACDBDICTIONARYWDFLT
  5
E
102
{ACAD_REACTORS
330
C
102
}
330
C
100
AcDbDictionary
281
     1
  3
Normal
350
F
100
AcDbDictionaryWithDefault
340
F
  0
DICTIONARY
  5
EA
102
{ACAD_REACTORS
330
C
102
}
330
C
100
AcDbDictionary
281
     1
  3
DIMASSOC
350
EB
  3
PROJECTNAME
350
EC
  0
XRECORD
  5
D4
102
{ACAD_REACTORS
330
A0
102
}
330
A0
100
AcDbXrecord
280
     1
340
1E
  0
XRECORD
  5
D3
102
{ACAD_REACTORS
330
A2
102
}
330
A2
100
AcDbXrecord
280
     1
340
1A
  0
LAYOUT
  5
1D
102
{ACAD_REACTORS
330
19
102
}
330
19
100
AcDbPlotSettings
  1

  2
\\NT_WORK01\HP LaserJet 5000 PCL 6
  4

  6

 40
0.0
 41
0.0
 42
0.0
 43
0.0
 44
0.0
 45
0.0
 46
0.0
 47
0.0
 48
0.0
 49
0.0
140
0.0
141
0.0
142
1.0
143
1.0
 70
   688
 72
     0
 73
     0
 74
     5
  7

 75
    16
147
1.0
 76
     0
 77
     2
 78
   300
148
0.0
149
0.0
100
AcDbLayout
  1
Layout1
 70
     0
 71
     1
 10
0.0
 20
0.0
 11
12.0
 21
9.0
 12
0.0
 22
0.0
 32
0.0
 14
1.000000000000000E+20
 24
1.000000000000000E+20
 34
1.000000000000000E+20
 15
-1.000000000000000E+20
 25
-1.000000000000000E+20
 35
-1.000000000000000E+20
146
0.0
 13
0.0
 23
0.0
 33
0.0
 16
1.0
 26
0.0
 36
0.0
 17
0.0
 27
1.0
 37
0.0
 76
     0
330
1A
  0
LAYOUT
  5
21
102
{ACAD_REACTORS
330
19
102
}
330
19
100
AcDbPlotSettings
  1

  2
none_device
  4
Letter_(8.50_x_11.00_Inches)
  6

 40
6.349999904632568
 41
6.349999904632568
 42
6.350006103515625
 43
6.350006103515625
 44
215.8999938964844
 45
279.3999938964844
 46
0.0
 47
0.0
 48
0.0
 49
0.0
140
0.0
141
0.0
142
1.0
143
1.0
 70
 11952
 72
     0
 73
     1
 74
     0
  7

 75
     0
147
1.0
 76
     0
 77
     2
 78
   300
148
-230.4417396561563
149
47.00486644638983
100
AcDbLayout
  1
Model
 70
     1
 71
     0
 10
0.0
 20
0.0
 11
12.0
 21
9.0
 12
0.0
 22
0.0
 32
0.0
 14
0.0
 24
0.0
 34
0.0
 15
0.0
 25
0.0
 35
0.0
146
0.0
 13
0.0
 23
0.0
 33
0.0
 16
1.0
 26
0.0
 36
0.0
 17
0.0
 27
1.0
 37
0.0
 76
     0
330
1E
  0
MLINESTYLE
  5
17
102
{ACAD_REACTORS
330
16
102
}
330
16
100
AcDbMlineStyle
  2
STANDARD
 70
     0
  3

 62
   256
 51
90.0
 52
90.0
 71
     2
 49
0.5
 62
   256
  6
BYLAYER
 49
-0.5
 62
   256
  6
BYLAYER
  0
ACDBPLACEHOLDER
  5
F
102
{ACAD_REACTORS
330
E
102
}
330
E
  0
DICTIONARYVAR
  5
EB
102
{ACAD_REACTORS
330
EA
102
}
330
EA
100
DictionaryVariables
280
     0
  1
1
  0
DICTIONARYVAR
  5
EC
102
{ACAD_REACTORS
330
EA
102
}
330
EA
100
DictionaryVariables
280
     0
  1

  0
ENDSEC
  0
EOF
