  0
SECTION
  2
HEADER
  9
$ACADVER
  1
AC1018
  9
$ACADMAINTVER
 70
     2
  9
$DWGCODEPAGE
  3
ANSI_1252
  9
$INSBASE
 10
0.0
 20
0.0
 30
0.0
  9
$EXTMIN
 10
-0.0160161050886245
 20
-0.0226513486255726
 30
-0.0000000000000053
  9
$EXTMAX
 10
210.0000024450054
 20
297.000003457936
 30
0.0000000000000099
  9
$LIMMIN
 10
0.0
 20
0.0
  9
$LIMMAX
 10
210.0
 20
297.0
  9
$ORTHOMODE
 70
     1
  9
$REGENMODE
 70
     1
  9
$FILLMODE
 70
     1
  9
$QTEXTMODE
 70
     0
  9
$MIRRTEXT
 70
     1
  9
$LTSCALE
 40
10.0
  9
$ATTMODE
 70
     1
  9
$TEXTSIZE
 40
3.5
  9
$TRACEWID
 40
0.5
  9
$TEXTSTYLE
  7
STANDARD
  9
$CLAYER
  8
BEM
  9
$CELTYPE
  6
ByLayer
  9
$CECOLOR
 62
   256
  9
$CELTSCALE
 40
1.0
  9
$DISPSILH
 70
     0
  9
$DIMSCALE
 40
1.0
  9
$DIMASZ
 40
3.5
  9
$DIMEXO
 40
1.0
  9
$DIMDLI
 40
7.0
  9
$DIMRND
 40
0.0
  9
$DIMDLE
 40
0.0
  9
$DIMEXE
 40
1.0
  9
$DIMTP
 40
0.6
  9
$DIMTM
 40
0.6
  9
$DIMTXT
 40
3.5
  9
$DIMCEN
 40
1.5
  9
$DIMTSZ
 40
0.0
  9
$DIMTOL
 70
     0
  9
$DIMLIM
 70
     0
  9
$DIMTIH
 70
     0
  9
$DIMTOH
 70
     0
  9
$DIMSE1
 70
     0
  9
$DIMSE2
 70
     0
  9
$DIMTAD
 70
     1
  9
$DIMZIN
 70
     8
  9
$DIMBLK
  1

  9
$DIMASO
 70
     1
  9
$DIMSHO
 70
     0
  9
$DIMPOST
  1

  9
$DIMAPOST
  1

  9
$DIMALT
 70
     0
  9
$DIMALTD
 70
     2
  9
$DIMALTF
 40
25.4
  9
$DIMLFAC
 40
1.0
  9
$DIMTOFL
 70
     1
  9
$DIMTVP
 40
0.0
  9
$DIMTIX
 70
     0
  9
$DIMSOXD
 70
     0
  9
$DIMSAH
 70
     0
  9
$DIMBLK1
  1

  9
$DIMBLK2
  1

  9
$DIMSTYLE
  2
Standard
  9
$DIMCLRD
 70
     0
  9
$DIMCLRE
 70
     0
  9
$DIMCLRT
 70
     1
  9
$DIMTFAC
 40
0.5142857142857144
  9
$DIMGAP
 40
1.5
  9
$DIMJUST
 70
     0
  9
$DIMSD1
 70
     0
  9
$DIMSD2
 70
     0
  9
$DIMTOLJ
 70
     1
  9
$DIMTZIN
 70
     8
  9
$DIMALTZ
 70
     8
  9
$DIMALTTZ
 70
     8
  9
$DIMUPT
 70
     0
  9
$DIMDEC
 70
     2
  9
$DIMTDEC
 70
     2
  9
$DIMALTU
 70
     2
  9
$DIMALTTD
 70
     2
  9
$DIMTXSTY
  7
STANDARD
  9
$DIMAUNIT
 70
     0
  9
$DIMADEC
 70
     2
  9
$DIMALTRND
 40
0.0
  9
$DIMAZIN
 70
     2
  9
$DIMDSEP
 70
    46
  9
$DIMATFIT
 70
     3
  9
$DIMFRAC
 70
     0
  9
$DIMLDRBLK
  1

  9
$DIMLUNIT
 70
     2
  9
$DIMLWD
 70
    -2
  9
$DIMLWE
 70
    -2
  9
$DIMTMOVE
 70
     0
  9
$LUNITS
 70
     2
  9
$LUPREC
 70
     2
  9
$SKETCHINC
 40
1.0
  9
$FILLETRAD
 40
0.0
  9
$AUNITS
 70
     0
  9
$AUPREC
 70
     0
  9
$MENU
  1
ACAD
  9
$ELEVATION
 40
0.0
  9
$PELEVATION
 40
0.0
  9
$THICKNESS
 40
0.0
  9
$LIMCHECK
 70
     0
  9
$CHAMFERA
 40
0.0
  9
$CHAMFERB
 40
0.0
  9
$CHAMFERC
 40
0.0
  9
$CHAMFERD
 40
0.0
  9
$SKPOLY
 70
     0
  9
$TDCREATE
 40
2451729.335056250
  9
$TDUCREATE
 40
2451729.251722917
  9
$TDUPDATE
 40
2455450.565218484
  9
$TDUUPDATE
 40
2455450.481885151
  9
$TDINDWG
 40
0.1122553009
  9
$TDUSRTIMER
 40
0.1122553009
  9
$USRTIMER
 70
     1
  9
$ANGBASE
 50
0.0
  9
$ANGDIR
 70
     0
  9
$PDMODE
 70
     0
  9
$PDSIZE
 40
0.0
  9
$PLINEWID
 40
0.0
  9
$SPLFRAME
 70
     0
  9
$SPLINETYPE
 70
     6
  9
$SPLINESEGS
 70
     8
  9
$HANDSEED
  5
1155
  9
$SURFTAB1
 70
     6
  9
$SURFTAB2
 70
     6
  9
$SURFTYPE
 70
     6
  9
$SURFU
 70
     6
  9
$SURFV
 70
     6
  9
$UCSBASE
  2

  9
$UCSNAME
  2

  9
$UCSORG
 10
0.0
 20
0.0
 30
0.0
  9
$UCSXDIR
 10
1.0
 20
0.0
 30
0.0
  9
$UCSYDIR
 10
0.0
 20
1.0
 30
0.0
  9
$UCSORTHOREF
  2

  9
$UCSORTHOVIEW
 70
     0
  9
$UCSORGTOP
 10
0.0
 20
0.0
 30
0.0
  9
$UCSORGBOTTOM
 10
0.0
 20
0.0
 30
0.0
  9
$UCSORGLEFT
 10
0.0
 20
0.0
 30
0.0
  9
$UCSORGRIGHT
 10
0.0
 20
0.0
 30
0.0
  9
$UCSORGFRONT
 10
0.0
 20
0.0
 30
0.0
  9
$UCSORGBACK
 10
0.0
 20
0.0
 30
0.0
  9
$PUCSBASE
  2

  9
$PUCSNAME
  2

  9
$PUCSORG
 10
0.0
 20
0.0
 30
0.0
  9
$PUCSXDIR
 10
1.0
 20
0.0
 30
0.0
  9
$PUCSYDIR
 10
0.0
 20
1.0
 30
0.0
  9
$PUCSORTHOREF
  2

  9
$PUCSORTHOVIEW
 70
     0
  9
$PUCSORGTOP
 10
0.0
 20
0.0
 30
0.0
  9
$PUCSORGBOTTOM
 10
0.0
 20
0.0
 30
0.0
  9
$PUCSORGLEFT
 10
0.0
 20
0.0
 30
0.0
  9
$PUCSORGRIGHT
 10
0.0
 20
0.0
 30
0.0
  9
$PUCSORGFRONT
 10
0.0
 20
0.0
 30
0.0
  9
$PUCSORGBACK
 10
0.0
 20
0.0
 30
0.0
  9
$USERI1
 70
     0
  9
$USERI2
 70
     0
  9
$USERI3
 70
     0
  9
$USERI4
 70
     0
  9
$USERI5
 70
     0
  9
$USERR1
 40
0.0
  9
$USERR2
 40
0.0
  9
$USERR3
 40
0.0
  9
$USERR4
 40
0.0
  9
$USERR5
 40
0.0
  9
$WORLDVIEW
 70
     1
  9
$SHADEDGE
 70
     3
  9
$SHADEDIF
 70
    70
  9
$TILEMODE
 70
     1
  9
$MAXACTVP
 70
    16
  9
$PINSBASE
 10
94.77699787264981
 20
50.00000000000001
 30
160.541677480246
  9
$PLIMCHECK
 70
     0
  9
$PEXTMIN
 10
1.000000000000000E+20
 20
1.000000000000000E+20
 30
1.000000000000000E+20
  9
$PEXTMAX
 10
-1.000000000000000E+20
 20
-1.000000000000000E+20
 30
-1.000000000000000E+20
  9
$PLIMMIN
 10
0.0
 20
0.0
  9
$PLIMMAX
 10
12.0
 20
9.0
  9
$UNITMODE
 70
     0
  9
$VISRETAIN
 70
     0
  9
$PLINEGEN
 70
     0
  9
$PSLTSCALE
 70
     0
  9
$TREEDEPTH
 70
  3020
  9
$CMLSTYLE
  2
Standard
  9
$CMLJUST
 70
     0
  9
$CMLSCALE
 40
1.0
  9
$PROXYGRAPHICS
 70
     1
  9
$MEASUREMENT
 70
     0
  9
$CELWEIGHT
370
    -1
  9
$ENDCAPS
280
     0
  9
$JOINSTYLE
280
     0
  9
$LWDISPLAY
290
     0
  9
$INSUNITS
 70
     0
  9
$HYPERLINKBASE
  1

  9
$STYLESHEET
  1
monochrome 1.ctb
  9
$XEDIT
290
     1
  9
$CEPSNTYPE
380
     0
  9
$PSTYLEMODE
290
     1
  9
$FINGERPRINTGUID
  2
{5FB5DE59-4758-4550-9D6E-98D0683C8784}
  9
$VERSIONGUID
  2
{7C01EDF4-5561-47F5-908A-7F9246699206}
  9
$EXTNAMES
290
     1
  9
$PSVPSCALE
 40
0.0
  9
$OLESTARTUP
290
     0
  9
$SORTENTS
280
   127
  9
$INDEXCTL
280
     0
  9
$HIDETEXT
280
     1
  9
$XCLIPFRAME
290
     0
  9
$HALOGAP
280
     0
  9
$OBSCOLOR
 70
   257
  9
$OBSLTYPE
280
     0
  9
$INTERSECTIONDISPLAY
280
     0
  9
$INTERSECTIONCOLOR
 70
   257
  9
$DIMASSOC
280
     2
  9
$PROJECTNAME
  1

  0
ENDSEC
  0
SECTION
  2
CLASSES
  0
CLASS
  1
ACDBDICTIONARYWDFLT
  2
AcDbDictionaryWithDefault
  3
ObjectDBX Classes
 90
        0
 91
        1
280
     0
281
     0
  0
CLASS
  1
DICTIONARYVAR
  2
AcDbDictionaryVar
  3
ObjectDBX Classes
 90
        0
 91
        3
280
     0
281
     0
  0
CLASS
  1
DIMASSOC
  2
AcDbDimAssoc
  3
"AcDbDimAssoc|Product Desc:     AcDim ARX App For Dimension|Company:          Autodesk, Inc.|WEB Address:      www.autodesk.com"
 90
        0
 91
        5
280
     0
281
     0
  0
ENDSEC
  0
SECTION
  2
TABLES
  0
TABLE
  2
VPORT
  5
8
330
0
100
AcDbSymbolTable
 70
     2
  0
VPORT
  5
1154
330
8
100
AcDbSymbolTableRecord
100
AcDbViewportTableRecord
  2
*Active
 70
     0
 10
0.0
 20
0.0
 11
1.0
 21
1.0
 12
104.9919931699583
 22
148.4886760546552
 13
0.0
 23
0.0
 14
1.0
 24
1.0
 15
10.0
 25
10.0
 16
0.0
 26
0.0
 36
1.0
 17
0.0
 27
0.0
 37
0.0
 40
299.4212226784854
 41
1.336927223719676
 42
50.0
 43
0.0
 44
0.0
 50
0.0
 51
0.0
 71
     0
 72
  1500
 73
     1
 74
     0
 75
     0
 76
     0
 77
     0
 78
     0
281
     0
 65
     1
110
0.0
120
0.0
130
0.0
111
1.0
121
0.0
131
0.0
112
0.0
122
1.0
132
0.0
 79
     0
146
0.0
  0
ENDTAB
  0
TABLE
  2
LTYPE
  5
5
330
0
100
AcDbSymbolTable
 70
     2
  0
LTYPE
  5
13
330
5
100
AcDbSymbolTableRecord
100
AcDbLinetypeTableRecord
  2
ByBlock
 70
     0
  3

 72
    65
 73
     0
 40
0.0
  0
LTYPE
  5
14
330
5
100
AcDbSymbolTableRecord
100
AcDbLinetypeTableRecord
  2
ByLayer
 70
     0
  3

 72
    65
 73
     0
 40
0.0
  0
LTYPE
  5
15
330
5
100
AcDbSymbolTableRecord
100
AcDbLinetypeTableRecord
  2
Continuous
 70
     0
  3
Solid line
 72
    65
 73
     0
 40
0.0
  0
LTYPE
  5
38
330
5
100
AcDbSymbolTableRecord
100
AcDbLinetypeTableRecord
  2
STRICHPUNKT
 70
     0
  3
__ . __ . __ . __ . __ . __ . __ . __ . __ . __
 72
    65
 73
     4
 40
1.0
 49
0.5
 74
     0
 49
-0.25
 74
     0
 49
0.0
 74
     0
 49
-0.25
 74
     0
  0
ENDTAB
  0
TABLE
  2
LAYER
  5
2
330
0
100
AcDbSymbolTable
 70
     9
  0
LAYER
  5
10
330
2
100
AcDbSymbolTableRecord
100
AcDbLayerTableRecord
  2
0
 70
     0
 62
     7
  6
Continuous
370
    -3
390
F
  0
LAYER
  5
3B
330
2
100
AcDbSymbolTableRecord
100
AcDbLayerTableRecord
  2
VOLL
 70
     0
 62
     1
  6
Continuous
370
    -3
390
F
  0
LAYER
  5
3C
330
2
100
AcDbSymbolTableRecord
100
AcDbLayerTableRecord
  2
HILF
 70
     0
 62
     2
  6
Continuous
370
    -3
390
F
  0
LAYER
  5
3D
330
2
100
AcDbSymbolTableRecord
100
AcDbLayerTableRecord
  2
MITTEL
 70
     0
 62
     2
  6
STRICHPUNKT
370
    -3
390
F
  0
LAYER
  5
3E
330
2
100
AcDbSymbolTableRecord
100
AcDbLayerTableRecord
  2
BEM
 70
     0
 62
     7
  6
Continuous
370
    -3
390
F
  0
LAYER
  5
3F
330
2
100
AcDbSymbolTableRecord
100
AcDbLayerTableRecord
  2
SCHRAFF
 70
     0
 62
     7
  6
Continuous
370
    -3
390
F
  0
LAYER
  5
40
330
2
100
AcDbSymbolTableRecord
100
AcDbLayerTableRecord
  2
STEMPEL
 70
     0
 62
     3
  6
Continuous
370
    -3
390
F
  0
LAYER
  5
41
330
2
100
AcDbSymbolTableRecord
100
AcDbLayerTableRecord
  2
DEFPOINTS
 70
     0
 62
     7
  6
Continuous
290
     0
370
    -3
390
F
  0
LAYER
  5
42
330
2
100
AcDbSymbolTableRecord
100
AcDbLayerTableRecord
  2
TEXT
 70
     0
 62
     7
  6
Continuous
370
    -3
390
F
  0
ENDTAB
  0
TABLE
  2
STYLE
  5
3
330
0
100
AcDbSymbolTable
 70
     2
  0
STYLE
  5
11
330
3
100
AcDbSymbolTableRecord
100
AcDbTextStyleTableRecord
  2
STANDARD
 70
     0
 40
0.0
 41
0.8
 50
0.0
 71
     0
 42
3.5
  3
simplex.shx
  4

  0
STYLE
  5
37
330
3
100
AcDbSymbolTableRecord
100
AcDbTextStyleTableRecord
  2
GREEKS
 70
     0
 40
0.0
 41
0.8
 50
0.0
 71
     0
 42
3.5
  3
SIMPLEX.shx
  4

  0
ENDTAB
  0
TABLE
  2
VIEW
  5
6
330
0
100
AcDbSymbolTable
 70
     0
  0
ENDTAB
  0
TABLE
  2
UCS
  5
7
330
0
100
AcDbSymbolTable
 70
     0
  0
ENDTAB
  0
TABLE
  2
APPID
  5
9
330
0
100
AcDbSymbolTable
 70
     1
  0
APPID
  5
12
330
9
100
AcDbSymbolTableRecord
100
AcDbRegAppTableRecord
  2
ACAD
 70
     0
  0
ENDTAB
  0
TABLE
  2
DIMSTYLE
  5
A
330
0
100
AcDbSymbolTable
 70
     1
100
AcDbDimStyleTable
 71
     1
340
20F
  0
DIMSTYLE
105
20F
102
{ACAD_REACTORS
330
105D
330
1075
330
10BA
330
10D2
330
10EA
102
}
330
A
100
AcDbSymbolTableRecord
100
AcDbDimStyleTableRecord
  2
Standard
 70
     0
340
11
  0
ENDTAB
  0
TABLE
  2
BLOCK_RECORD
  5
1
330
0
100
AcDbSymbolTable
 70
     5
  0
BLOCK_RECORD
  5
20
330
1
100
AcDbSymbolTableRecord
100
AcDbBlockTableRecord
  2
*Model_Space
340
23
  0
BLOCK_RECORD
  5
1C
330
1
100
AcDbSymbolTableRecord
100
AcDbBlockTableRecord
  2
*Paper_Space
340
1F
  0
BLOCK_RECORD
  5
105E
330
1
100
AcDbSymbolTableRecord
100
AcDbBlockTableRecord
  2
*D0
340
0
  0
BLOCK_RECORD
  5
1076
330
1
100
AcDbSymbolTableRecord
100
AcDbBlockTableRecord
  2
*D1
340
0
  0
BLOCK_RECORD
  5
10BB
330
1
100
AcDbSymbolTableRecord
100
AcDbBlockTableRecord
  2
*D2
340
0
  0
BLOCK_RECORD
  5
10D3
330
1
100
AcDbSymbolTableRecord
100
AcDbBlockTableRecord
  2
*D3
340
0
  0
BLOCK_RECORD
  5
10EB
330
1
100
AcDbSymbolTableRecord
100
AcDbBlockTableRecord
  2
*D4
340
0
  0
ENDTAB
  0
ENDSEC
  0
SECTION
  2
BLOCKS
  0
BLOCK
  5
46
330
20
100
AcDbEntity
  8
0
100
AcDbBlockBegin
  2
*Model_Space
 70
     0
 10
0.0
 20
0.0
 30
0.0
  3
*Model_Space
  1

  0
ENDBLK
  5
47
330
20
100
AcDbEntity
  8
0
100
AcDbBlockEnd
  0
BLOCK
  5
44
330
1C
100
AcDbEntity
 67
     1
  8
0
100
AcDbBlockBegin
  2
*Paper_Space
 70
     0
 10
0.0
 20
0.0
 30
0.0
  3
*Paper_Space
  1

  0
ENDBLK
  5
45
330
1C
100
AcDbEntity
 67
     1
  8
0
100
AcDbBlockEnd
  0
BLOCK
  5
1068
330
105E
100
AcDbEntity
  8
0
100
AcDbBlockBegin
  2
*D0
 70
     1
 10
0.0
 20
0.0
 30
0.0
  3
*D0
  1

  0
LINE
  5
1141
330
105E
100
AcDbEntity
  8
BEM
 62
     0
370
    -2
100
AcDbLine
 10
51.77872851906091
 20
138.2385766076743
 30
0.0
 11
35.13430777561734
 21
138.2385766076743
 31
0.0
  0
LINE
  5
1142
330
105E
100
AcDbEntity
  8
BEM
 62
     0
370
    -2
100
AcDbLine
 10
40.77872851906088
 20
162.2385766076743
 30
0.0
 11
35.13430777561735
 21
162.2385766076743
 31
0.0
  0
LINE
  5
1143
330
105E
100
AcDbEntity
  8
BEM
 62
     0
370
    -2
100
AcDbLine
 10
36.13430777561734
 20
141.7385766076743
 30
0.0
 11
36.13430777561735
 21
158.7385766076743
 31
0.0
  0
SOLID
  5
1144
330
105E
100
AcDbEntity
  8
BEM
 62
     0
100
AcDbTrace
 10
35.550974442284
 20
141.7385766076743
 30
0.0
 11
36.71764110895067
 21
141.7385766076743
 31
0.0
 12
36.13430777561734
 22
138.2385766076743
 32
0.0
 13
36.13430777561734
 23
138.2385766076743
 33
0.0
  0
SOLID
  5
1145
330
105E
100
AcDbEntity
  8
BEM
 62
     0
100
AcDbTrace
 10
35.55097444228401
 20
158.7385766076743
 30
0.0
 11
36.71764110895068
 21
158.7385766076743
 31
0.0
 12
36.13430777561735
 22
162.2385766076743
 32
0.0
 13
36.13430777561735
 23
162.2385766076743
 33
0.0
  0
MTEXT
  5
1146
330
105E
100
AcDbEntity
  8
BEM
 62
     1
100
AcDbMText
 10
32.88430777561732
 20
150.2385766076743
 30
0.0
 40
3.5
 41
0.0
 71
     5
 72
     1
  1
\A1;24
 11
0.0000000000000001
 21
1.0
 31
0.0
 73
     1
 44
1.0
  0
POINT
  5
1147
330
105E
100
AcDbEntity
  8
DEFPOINTS
 62
     0
100
AcDbPoint
 10
52.7787285190609
 20
138.2385766076743
 30
0.0
  0
POINT
  5
1148
330
105E
100
AcDbEntity
  8
DEFPOINTS
 62
     0
100
AcDbPoint
 10
41.77872851906087
 20
162.2385766076743
 30
0.0
  0
POINT
  5
1149
330
105E
100
AcDbEntity
  8
DEFPOINTS
 62
     0
100
AcDbPoint
 10
36.13430777561735
 20
162.2385766076743
 30
0.0
  0
ENDBLK
  5
1069
330
105E
100
AcDbEntity
  8
0
100
AcDbBlockEnd
  0
BLOCK
  5
1080
330
1076
100
AcDbEntity
  8
0
100
AcDbBlockBegin
  2
*D1
 70
     1
 10
0.0
 20
0.0
 30
0.0
  3
*D1
  1

  0
LINE
  5
1138
330
1076
100
AcDbEntity
  8
BEM
 62
     0
370
    -2
100
AcDbLine
 10
51.77872851906091
 20
138.2385766076743
 30
0.0
 11
26.71534836746127
 21
138.2385766076743
 31
0.0
  0
LINE
  5
1139
330
1076
100
AcDbEntity
  8
BEM
 62
     0
370
    -2
100
AcDbLine
 10
44.80288843241981
 20
169.2385766076743
 30
0.0
 11
26.71534836746128
 21
169.2385766076743
 31
0.0
  0
LINE
  5
113A
330
1076
100
AcDbEntity
  8
BEM
 62
     0
370
    -2
100
AcDbLine
 10
27.71534836746127
 20
141.7385766076743
 30
0.0
 11
27.71534836746127
 21
165.7385766076743
 31
0.0
  0
SOLID
  5
113B
330
1076
100
AcDbEntity
  8
BEM
 62
     0
100
AcDbTrace
 10
27.13201503412794
 20
141.7385766076743
 30
0.0
 11
28.2986817007946
 21
141.7385766076743
 31
0.0
 12
27.71534836746127
 22
138.2385766076743
 32
0.0
 13
27.71534836746127
 23
138.2385766076743
 33
0.0
  0
SOLID
  5
113C
330
1076
100
AcDbEntity
  8
BEM
 62
     0
100
AcDbTrace
 10
27.13201503412794
 20
165.7385766076743
 30
0.0
 11
28.29868170079461
 21
165.7385766076743
 31
0.0
 12
27.71534836746127
 22
169.2385766076743
 32
0.0
 13
27.71534836746127
 23
169.2385766076743
 33
0.0
  0
MTEXT
  5
113D
330
1076
100
AcDbEntity
  8
BEM
 62
     1
100
AcDbMText
 10
24.46534836746125
 20
153.7385766076743
 30
0.0
 40
3.5
 41
0.0
 71
     5
 72
     1
  1
\A1;31
 11
0.0000000000000001
 21
1.0
 31
0.0
 73
     1
 44
1.0
  0
POINT
  5
113E
330
1076
100
AcDbEntity
  8
DEFPOINTS
 62
     0
100
AcDbPoint
 10
52.7787285190609
 20
138.2385766076743
 30
0.0
  0
POINT
  5
113F
330
1076
100
AcDbEntity
  8
DEFPOINTS
 62
     0
100
AcDbPoint
 10
45.80288843241982
 20
169.2385766076743
 30
0.0
  0
POINT
  5
1140
330
1076
100
AcDbEntity
  8
DEFPOINTS
 62
     0
100
AcDbPoint
 10
27.71534836746127
 20
169.2385766076743
 30
0.0
  0
ENDBLK
  5
1081
330
1076
100
AcDbEntity
  8
0
100
AcDbBlockEnd
  0
BLOCK
  5
10C5
330
10BB
100
AcDbEntity
  8
0
100
AcDbBlockBegin
  2
*D2
 70
     1
 10
0.0
 20
0.0
 30
0.0
  3
*D2
  1

  0
LINE
  5
112F
330
10BB
100
AcDbEntity
  8
BEM
 62
     0
370
    -2
100
AcDbLine
 10
53.77872851906087
 20
163.2385766076743
 30
0.0
 11
53.77872851906087
 21
177.9901759022766
 31
0.0
  0
LINE
  5
1130
330
10BB
100
AcDbEntity
  8
BEM
 62
     0
370
    -2
100
AcDbLine
 10
180.7787285190608
 20
163.2385766076743
 30
0.0
 11
180.7787285190608
 21
177.9901759022766
 31
0.0
  0
LINE
  5
1131
330
10BB
100
AcDbEntity
  8
BEM
 62
     0
370
    -2
100
AcDbLine
 10
57.27872851906088
 20
176.9901759022766
 30
0.0
 11
177.2787285190609
 21
176.9901759022766
 31
0.0
  0
SOLID
  5
1132
330
10BB
100
AcDbEntity
  8
BEM
 62
     0
100
AcDbTrace
 10
57.27872851906088
 20
177.5735092356099
 30
0.0
 11
57.27872851906088
 21
176.4068425689433
 31
0.0
 12
53.77872851906087
 22
176.9901759022766
 32
0.0
 13
53.77872851906087
 23
176.9901759022766
 33
0.0
  0
SOLID
  5
1133
330
10BB
100
AcDbEntity
  8
BEM
 62
     0
100
AcDbTrace
 10
177.2787285190609
 20
177.5735092356099
 30
0.0
 11
177.2787285190609
 21
176.4068425689433
 31
0.0
 12
180.7787285190608
 22
176.9901759022766
 32
0.0
 13
180.7787285190608
 23
176.9901759022766
 33
0.0
  0
MTEXT
  5
1134
330
10BB
100
AcDbEntity
  8
BEM
 62
     1
100
AcDbMText
 10
117.2787285190608
 20
180.2401759022766
 30
0.0
 40
3.5
 41
0.0
 71
     5
 72
     1
  1
\A1;%%c127
 73
     1
 44
1.0
  0
POINT
  5
1135
330
10BB
100
AcDbEntity
  8
DEFPOINTS
 62
     0
100
AcDbPoint
 10
53.77872851906087
 20
162.2385766076743
 30
0.0
  0
POINT
  5
1136
330
10BB
100
AcDbEntity
  8
DEFPOINTS
 62
     0
100
AcDbPoint
 10
180.7787285190608
 20
162.2385766076743
 30
0.0
  0
POINT
  5
1137
330
10BB
100
AcDbEntity
  8
DEFPOINTS
 62
     0
100
AcDbPoint
 10
180.7787285190608
 20
176.9901759022766
 30
0.0
  0
ENDBLK
  5
10C6
330
10BB
100
AcDbEntity
  8
0
100
AcDbBlockEnd
  0
BLOCK
  5
10DD
330
10D3
100
AcDbEntity
  8
0
100
AcDbBlockBegin
  2
*D3
 70
     1
 10
0.0
 20
0.0
 30
0.0
  3
*D3
  1

  0
LINE
  5
1126
330
10D3
100
AcDbEntity
  8
BEM
 62
     0
370
    -2
100
AcDbLine
 10
41.77872851906087
 20
163.2385766076743
 30
0.0
 11
41.77872851906087
 21
186.2160233732102
 31
0.0
  0
LINE
  5
1127
330
10D3
100
AcDbEntity
  8
BEM
 62
     0
370
    -2
100
AcDbLine
 10
192.7787285190609
 20
163.2385766076743
 30
0.0
 11
192.7787285190609
 21
186.2160233732102
 31
0.0
  0
LINE
  5
1128
330
10D3
100
AcDbEntity
  8
BEM
 62
     0
370
    -2
100
AcDbLine
 10
45.27872851906088
 20
185.2160233732102
 30
0.0
 11
189.2787285190609
 21
185.2160233732102
 31
0.0
  0
SOLID
  5
1129
330
10D3
100
AcDbEntity
  8
BEM
 62
     0
100
AcDbTrace
 10
45.27872851906088
 20
185.7993567065435
 30
0.0
 11
45.27872851906088
 21
184.6326900398768
 31
0.0
 12
41.77872851906087
 22
185.2160233732102
 32
0.0
 13
41.77872851906087
 23
185.2160233732102
 33
0.0
  0
SOLID
  5
112A
330
10D3
100
AcDbEntity
  8
BEM
 62
     0
100
AcDbTrace
 10
189.2787285190609
 20
185.7993567065435
 30
0.0
 11
189.2787285190609
 21
184.6326900398768
 31
0.0
 12
192.7787285190609
 22
185.2160233732102
 32
0.0
 13
192.7787285190609
 23
185.2160233732102
 33
0.0
  0
MTEXT
  5
112B
330
10D3
100
AcDbEntity
  8
BEM
 62
     1
100
AcDbMText
 10
117.2787285190608
 20
188.4660233732102
 30
0.0
 40
3.5
 41
0.0
 71
     5
 72
     1
  1
\A1;%%c151
 73
     1
 44
1.0
  0
POINT
  5
112C
330
10D3
100
AcDbEntity
  8
DEFPOINTS
 62
     0
100
AcDbPoint
 10
41.77872851906087
 20
162.2385766076743
 30
0.0
  0
POINT
  5
112D
330
10D3
100
AcDbEntity
  8
DEFPOINTS
 62
     0
100
AcDbPoint
 10
192.7787285190609
 20
162.2385766076743
 30
0.0
  0
POINT
  5
112E
330
10D3
100
AcDbEntity
  8
DEFPOINTS
 62
     0
100
AcDbPoint
 10
192.7787285190609
 20
185.2160233732102
 30
0.0
  0
ENDBLK
  5
10DE
330
10D3
100
AcDbEntity
  8
0
100
AcDbBlockEnd
  0
BLOCK
  5
10F5
330
10EB
100
AcDbEntity
  8
0
100
AcDbBlockBegin
  2
*D4
 70
     1
 10
0.0
 20
0.0
 30
0.0
  3
*D4
  1

  0
LINE
  5
111D
330
10EB
100
AcDbEntity
  8
BEM
 62
     0
370
    -2
100
AcDbLine
 10
41.57872851906086
 20
146.7385766076743
 30
0.0
 11
41.57872851906086
 21
122.6333249500471
 31
0.0
  0
LINE
  5
111E
330
10EB
100
AcDbEntity
  8
BEM
 62
     0
370
    -2
100
AcDbLine
 10
192.9787285190608
 20
146.7385766076743
 30
0.0
 11
192.9787285190608
 21
122.6333249500471
 31
0.0
  0
LINE
  5
111F
330
10EB
100
AcDbEntity
  8
BEM
 62
     0
370
    -2
100
AcDbLine
 10
45.07872851906085
 20
123.6333249500471
 30
0.0
 11
189.4787285190608
 21
123.6333249500471
 31
0.0
  0
SOLID
  5
1120
330
10EB
100
AcDbEntity
  8
BEM
 62
     0
100
AcDbTrace
 10
45.07872851906085
 20
124.2166582833805
 30
0.0
 11
45.07872851906085
 21
123.0499916167138
 31
0.0
 12
41.57872851906086
 22
123.6333249500471
 32
0.0
 13
41.57872851906086
 23
123.6333249500471
 33
0.0
  0
SOLID
  5
1121
330
10EB
100
AcDbEntity
  8
BEM
 62
     0
100
AcDbTrace
 10
189.4787285190608
 20
124.2166582833805
 30
0.0
 11
189.4787285190608
 21
123.0499916167138
 31
0.0
 12
192.9787285190608
 22
123.6333249500471
 32
0.0
 13
192.9787285190608
 23
123.6333249500471
 33
0.0
  0
MTEXT
  5
1122
330
10EB
100
AcDbEntity
  8
BEM
 62
     1
100
AcDbMText
 10
117.2787285190608
 20
126.8833249500471
 30
0.0
 40
3.5
 41
0.0
 71
     5
 72
     1
  1
\A1;%%c151.4
 73
     1
 44
1.0
  0
POINT
  5
1123
330
10EB
100
AcDbEntity
  8
DEFPOINTS
 62
     0
100
AcDbPoint
 10
41.57872851906086
 20
147.7385766076743
 30
0.0
  0
POINT
  5
1124
330
10EB
100
AcDbEntity
  8
DEFPOINTS
 62
     0
100
AcDbPoint
 10
192.9787285190608
 20
147.7385766076743
 30
0.0
  0
POINT
  5
1125
330
10EB
100
AcDbEntity
  8
DEFPOINTS
 62
     0
100
AcDbPoint
 10
192.9787285190608
 20
123.6333249500471
 30
0.0
  0
ENDBLK
  5
10F6
330
10EB
100
AcDbEntity
  8
0
100
AcDbBlockEnd
  0
ENDSEC
  0
SECTION
  2
ENTITIES
  0
LINE
  5
144
330
20
100
AcDbEntity
  8
HILF
100
AcDbLine
 10
210.0
 20
0.0
 30
0.0
 11
0.0
 21
0.0
 31
0.0
  0
LINE
  5
145
330
20
100
AcDbEntity
  8
HILF
100
AcDbLine
 10
210.0
 20
297.0000000000001
 30
0.0
 11
0.0
 21
297.0
 31
0.0
  0
LINE
  5
146
330
20
100
AcDbEntity
  8
STEMPEL
100
AcDbLine
 10
205.0
 20
292.0
 30
0.0
 11
19.99999999999994
 21
292.0
 31
0.0
  0
LINE
  5
147
330
20
100
AcDbEntity
  8
STEMPEL
100
AcDbLine
 10
205.0
 20
5.0
 30
0.0
 11
19.99999999999994
 21
5.0
 31
0.0
  0
LINE
  5
148
330
20
100
AcDbEntity
  8
STEMPEL
100
AcDbLine
 10
24.99999999999995
 20
5.0
 30
0.0
 11
205.0
 21
5.0
 31
0.0
  0
LINE
  5
149
330
20
100
AcDbEntity
  8
HILF
100
AcDbLine
 10
111.7454849644942
 20
7.446991290141568
 30
0.0
 11
202.4294419663364
 21
7.446991290141568
 31
0.0
  0
LINE
  5
14A
330
20
100
AcDbEntity
  8
HILF
100
AcDbLine
 10
112.3868400548474
 20
24.99999999999999
 30
0.0
 11
162.4176958278155
 21
24.99999999999999
 31
0.0
  0
LINE
  5
14B
330
20
100
AcDbEntity
  8
HILF
100
AcDbLine
 10
112.3868400548474
 20
29.99999999999999
 30
0.0
 11
162.4176958278155
 21
29.99999999999999
 31
0.0
  0
LINE
  5
14C
330
20
100
AcDbEntity
  8
HILF
100
AcDbLine
 10
112.3868400548474
 20
34.99999999999997
 30
0.0
 11
162.4176958278155
 21
34.99999999999997
 31
0.0
  0
LINE
  5
14D
330
20
100
AcDbEntity
  8
HILF
100
AcDbLine
 10
112.3868400548474
 20
42.01879123782069
 30
0.0
 11
162.4176958278155
 21
42.01879123782069
 31
0.0
  0
LINE
  5
14E
330
20
100
AcDbEntity
  8
STEMPEL
100
AcDbLine
 10
205.0
 20
40.0
 30
0.0
 11
68.00000000000006
 21
39.99999999999997
 31
0.0
  0
LINE
  5
14F
330
20
100
AcDbEntity
  8
STEMPEL
100
AcDbLine
 10
205.0
 20
20.0
 30
0.0
 11
68.00000000000006
 21
19.99999999999998
 31
0.0
  0
LINE
  5
150
330
20
100
AcDbEntity
  8
STEMPEL
100
AcDbLine
 10
205.0
 20
55.00000000000003
 30
0.0
 11
19.99999999999998
 21
55.0
 31
0.0
  0
LINE
  5
154
330
20
100
AcDbEntity
  8
HILF
100
AcDbLine
 10
0.0
 20
0.0
 30
0.0
 11
-0.0000000000000568
 21
297.0
 31
0.0
  0
LINE
  5
155
330
20
100
AcDbEntity
  8
STEMPEL
100
AcDbLine
 10
20.0
 20
5.0
 30
0.0
 11
19.99999999999994
 21
292.0
 31
0.0
  0
TEXT
  5
15C
330
20
100
AcDbEntity
  8
TEXT
100
AcDbText
 10
21.16299821803051
 20
55.83599999999997
 30
0.0
 40
2.5
  1
Erstellt mit AUTOCAD 2004
 41
0.8
  7
GREEKS
100
AcDbText
  0
LINE
  5
15D
330
20
100
AcDbEntity
  8
HILF
100
AcDbLine
 10
20.00000000000004
 20
19.99999999999998
 30
0.0
 11
68.00000000000006
 21
19.99999999999998
 31
0.0
  0
LINE
  5
15E
330
20
100
AcDbEntity
  8
HILF
100
AcDbLine
 10
20.00000000000004
 20
24.99999999999999
 30
0.0
 11
68.00000000000006
 21
24.99999999999999
 31
0.0
  0
LINE
  5
15F
330
20
100
AcDbEntity
  8
HILF
100
AcDbLine
 10
20.00000000000004
 20
29.99999999999999
 30
0.0
 11
68.00000000000006
 21
29.99999999999999
 31
0.0
  0
LINE
  5
160
330
20
100
AcDbEntity
  8
HILF
100
AcDbLine
 10
20.00000000000004
 20
34.99999999999997
 30
0.0
 11
68.00000000000006
 21
34.99999999999997
 31
0.0
  0
LINE
  5
161
330
20
100
AcDbEntity
  8
HILF
100
AcDbLine
 10
20.00000000000004
 20
39.99999999999997
 30
0.0
 11
68.00000000000006
 21
39.99999999999997
 31
0.0
  0
LINE
  5
162
330
20
100
AcDbEntity
  8
HILF
100
AcDbLine
 10
20.00000000000004
 20
45.00000000000002
 30
0.0
 11
68.00000000000006
 21
45.00000000000002
 31
0.0
  0
LINE
  5
163
330
20
100
AcDbEntity
  8
HILF
100
AcDbLine
 10
20.00000000000004
 20
50.00000000000003
 30
0.0
 11
68.00000000000006
 21
50.00000000000003
 31
0.0
  0
LINE
  5
164
330
20
100
AcDbEntity
  8
STEMPEL
100
AcDbLine
 10
67.99999999999994
 20
14.99999999999998
 30
0.0
 11
19.99999999999998
 21
14.99999999999998
 31
0.0
  0
TEXT
  5
165
330
20
100
AcDbEntity
  8
TEXT
100
AcDbText
 10
49.79273626936724
 20
9.33578134669905
 30
0.0
 40
2.0
  1
Tag
 41
0.8
  7
GREEKS
 72
     1
 11
51.65940293603391
 21
9.33578134669905
 31
0.0
100
AcDbText
  0
TEXT
  5
166
330
20
100
AcDbEntity
  8
TEXT
100
AcDbText
 10
31.1234419470788
 20
9.336909474920659
 30
0.0
 40
2.0
  1
Änderung
 41
0.8
  7
GREEKS
 72
     1
 11
36.49487051850737
 21
9.336909474920659
 31
0.0
100
AcDbText
  0
TEXT
  5
167
330
20
100
AcDbEntity
  8
TEXT
100
AcDbText
 10
24.13320553522878
 20
6.827329230135958
 30
0.0
 40
1.8
  1
Index
 50
90.0
 41
0.8
  7
GREEKS
100
AcDbText
  0
LINE
  5
168
330
20
100
AcDbEntity
  8
VOLL
100
AcDbLine
 10
57.00000000000006
 20
54.99999999999997
 30
0.0
 11
57.0
 21
4.999999999999985
 31
0.0
  0
LINE
  5
169
330
20
100
AcDbEntity
  8
VOLL
100
AcDbLine
 10
47.00000000000005
 20
54.99999999999997
 30
0.0
 11
47.0
 21
4.999999999999985
 31
0.0
  0
LINE
  5
16A
330
20
100
AcDbEntity
  8
VOLL
100
AcDbLine
 10
27.00000000000005
 20
55.00000000000003
 30
0.0
 11
26.99999999999999
 21
4.999999999999985
 31
0.0
  0
LINE
  5
16E
330
20
100
AcDbEntity
  8
HILF
100
AcDbLine
 10
15.54383567856928
 20
148.5
 30
0.0
 11
0.0000000000000568
 21
148.5
 31
0.0
  0
TEXT
  5
17F
330
20
100
AcDbEntity
  8
TEXT
100
AcDbText
 10
92.14294773670257
 20
51.20920842174095
 30
0.0
 40
2.5
  1
Zul. Abw.
 41
0.8
  7
GREEKS
100
AcDbText
  0
LINE
  5
180
330
20
100
AcDbEntity
  8
HILF
100
AcDbLine
 10
68.00000000000006
 20
24.99999999999999
 30
0.0
 11
110.0
 21
24.99999999999999
 31
0.0
  0
LINE
  5
181
330
20
100
AcDbEntity
  8
HILF
100
AcDbLine
 10
68.00000000000006
 20
29.99999999999999
 30
0.0
 11
110.0
 21
29.99999999999999
 31
0.0
  0
LINE
  5
182
330
20
100
AcDbEntity
  8
HILF
100
AcDbLine
 10
68.00000000000006
 20
34.99999999999997
 30
0.0
 11
110.0
 21
34.99999999999997
 31
0.0
  0
ARC
  5
183
330
20
100
AcDbEntity
  8
TEXT
 62
     3
100
AcDbCircle
 10
82.09750516967082
 20
13.23892712376011
 30
0.0
 40
4.5
100
AcDbArc
 50
270.0
 51
231.0575587310159
  0
ARC
  5
184
330
20
100
AcDbEntity
  8
TEXT
 62
     3
100
AcDbCircle
 10
102.0975051696708
 20
13.23892712376014
 30
0.0
 40
4.5
100
AcDbArc
 50
270.0
 51
231.0575587310182
  0
LINE
  5
185
330
20
100
AcDbEntity
  8
TEXT
 62
     3
100
AcDbLine
 10
88.09750516967083
 20
17.73892712376014
 30
0.0
 11
88.09750516967085
 21
8.738927123760138
 31
0.0
  0
ARC
  5
186
330
20
100
AcDbEntity
  8
TEXT
 62
     3
100
AcDbCircle
 10
75.09750516967085
 20
10.73892712376028
 30
0.0
 40
2.0
100
AcDbArc
 50
179.9999999999992
 51
270.0
  0
LINE
  5
187
330
20
100
AcDbEntity
  8
TEXT
 62
     3
100
AcDbLine
 10
89.09750516967084
 20
12.73892712376014
 30
0.0
 11
89.09750516967084
 21
8.738927123760166
 31
0.0
  0
LINE
  5
188
330
20
100
AcDbEntity
  8
TEXT
 62
     3
100
AcDbLine
 10
93.09750516967085
 20
12.73892712376014
 30
0.0
 11
94.16930193939533
 21
8.738927123760138
 31
0.0
  0
LINE
  5
189
330
20
100
AcDbEntity
  8
STEMPEL
100
AcDbLine
 10
68.00000000000006
 20
54.99999999999997
 30
0.0
 11
68.0
 21
4.999999999999985
 31
0.0
  0
LINE
  5
18A
330
20
100
AcDbEntity
  8
TEXT
 62
     3
100
AcDbLine
 10
82.09750516967085
 20
8.738927123760166
 30
0.0
 11
75.09750516967085
 21
8.738927123760138
 31
0.0
  0
LINE
  5
18B
330
20
100
AcDbEntity
  8
TEXT
 62
     3
100
AcDbLine
 10
102.0975051696708
 20
8.738927123760138
 30
0.0
 11
94.1693019393953
 21
8.738927123760166
 31
0.0
  0
LINE
  5
18C
330
20
100
AcDbEntity
  8
TEXT
 62
     3
100
AcDbLine
 10
89.09750516967084
 20
8.738927123760166
 30
0.0
 11
88.09750516967085
 21
8.738927123760166
 31
0.0
  0
CIRCLE
  5
18D
330
20
100
AcDbEntity
  8
TEXT
 62
     3
100
AcDbCircle
 10
82.09750516967082
 20
13.23892712376011
 30
0.0
 40
3.5
  0
TEXT
  5
18E
330
20
100
AcDbEntity
  8
TEXT
100
AcDbText
 10
80.16366688624525
 20
31.6381230352273
 30
0.0
 40
2.0
  1
24.06.
 41
0.8
  7
GREEKS
 72
     1
 11
83.66842879100715
 21
31.6381230352273
 31
0.0
100
AcDbText
  0
TEXT
  5
18F
330
20
100
AcDbEntity
  8
TEXT
100
AcDbText
 10
81.16558365768254
 20
36.65940250614963
 30
0.0
 40
1.8
  1
Tag
 41
0.8
  7
GREEKS
100
AcDbText
  0
TEXT
  5
190
330
20
100
AcDbEntity
  8
TEXT
100
AcDbText
 10
71.75817860751886
 20
51.23104475435443
 30
0.0
 40
2.5
  1
Maßstab
 41
0.8
  7
GREEKS
100
AcDbText
  0
TEXT
  5
191
330
20
100
AcDbEntity
  8
TEXT
100
AcDbText
 10
68.79180635838077
 20
31.81495184808982
 30
0.0
 40
1.8
  1
Gez.
 41
0.8
  7
GREEKS
100
AcDbText
  0
LINE
  5
192
330
20
100
AcDbEntity
  8
VOLL
100
AcDbLine
 10
77.00000000000006
 20
39.99999999999997
 30
0.0
 11
77.00000000000006
 21
19.99999999999998
 31
0.0
  0
TEXT
  5
193
330
20
100
AcDbEntity
  8
TEXT
100
AcDbText
 10
68.80033886936519
 20
21.76473194824904
 30
0.0
 40
1.8
  1
Norm.
 41
0.8
  7
GREEKS
100
AcDbText
  0
TEXT
  5
194
330
20
100
AcDbEntity
  8
TEXT
100
AcDbText
 10
68.77575432858361
 20
26.84463145714189
 30
0.0
 40
1.8
  1
Gepr.
 41
0.8
  7
GREEKS
100
AcDbText
  0
TEXT
  5
195
330
20
100
AcDbEntity
  8
TEXT
100
AcDbText
 10
59.44494414379217
 20
9.29662108483204
 30
0.0
 40
2.0
  1
Name
 41
0.8
  7
GREEKS
 72
     1
 11
62.60684890569694
 21
9.29662108483204
 31
0.0
100
AcDbText
  0
LINE
  5
197
330
20
100
AcDbEntity
  8
TEXT
 62
     3
100
AcDbLine
 10
79.26907804492447
 20
9.738927123760252
 30
0.0
 11
75.09750516967085
 21
9.73892712376028
 31
0.0
  0
LINE
  5
198
330
20
100
AcDbEntity
  8
TEXT
 62
     3
100
AcDbLine
 10
74.09750516967083
 20
17.73892712376008
 30
0.0
 11
74.09750516967085
 21
10.73892712376028
 31
0.0
  0
LINE
  5
199
330
20
100
AcDbEntity
  8
TEXT
 62
     3
100
AcDbLine
 10
73.09750516967082
 20
17.73892712376008
 30
0.0
 11
73.09750516967085
 21
10.73892712376028
 31
0.0
  0
ARC
  5
19A
330
20
100
AcDbEntity
  8
TEXT
 62
     3
100
AcDbCircle
 10
75.09750516967085
 20
10.73892712376028
 30
0.0
 40
1.0
100
AcDbArc
 50
180.0
 51
270.0
  0
LINE
  5
19B
330
20
100
AcDbEntity
  8
TEXT
 62
     3
100
AcDbLine
 10
74.09750516967083
 20
17.73892712376014
 30
0.0
 11
73.09750516967082
 21
17.73892712376014
 31
0.0
  0
TEXT
  5
19C
330
20
100
AcDbEntity
  8
TEXT
100
AcDbText
 10
69.31105491105199
 20
36.57012735575833
 30
0.0
 40
1.8
  1
2008
 41
0.8
  7
GREEKS
100
AcDbText
  0
TEXT
  5
19E
330
20
100
AcDbEntity
  8
TEXT
 62
     1
100
AcDbText
 10
75.62939046306187
 20
43.47879250756998
 30
0.0
 40
3.5
  1
1:1
 41
0.8
  7
GREEKS
100
AcDbText
  0
TEXT
  5
19F
330
20
100
AcDbEntity
  8
TEXT
100
AcDbText
 10
97.42845740347638
 20
31.54481959861755
 30
0.0
 40
2.0
  1
Koeh
 41
0.8
  7
GREEKS
 72
     1
 11
100.0570288320478
 21
31.54481959861755
 31
0.0
100
AcDbText
  0
LINE
  5
1A0
330
20
100
AcDbEntity
  8
VOLL
100
AcDbLine
 10
90.00000000000005
 20
54.99999999999992
 30
0.0
 11
90.0
 21
19.99999999999998
 31
0.0
  0
LINE
  5
1A1
330
20
100
AcDbEntity
  8
TEXT
 62
     3
100
AcDbLine
 10
99.26907804492465
 20
9.738927123760138
 30
0.0
 11
94.93662892737432
 21
9.738927123760166
 31
0.0
  0
LINE
  5
1A2
330
20
100
AcDbEntity
  8
TEXT
 62
     3
100
AcDbLine
 10
93.09750516967085
 20
12.73892712376014
 30
0.0
 11
89.09750516967083
 21
12.73892712376014
 31
0.0
  0
LINE
  5
1A3
330
20
100
AcDbEntity
  8
TEXT
 62
     3
100
AcDbLine
 10
93.09750516967085
 20
13.73892712376014
 30
0.0
 11
89.09750516967084
 21
13.73892712376014
 31
0.0
  0
LINE
  5
1A4
330
20
100
AcDbEntity
  8
TEXT
 62
     3
100
AcDbLine
 10
93.09750516967085
 20
16.73892712376014
 30
0.0
 11
89.09750516967084
 21
16.73892712376014
 31
0.0
  0
LINE
  5
1A5
330
20
100
AcDbEntity
  8
TEXT
 62
     3
100
AcDbLine
 10
93.09750516967085
 20
17.73892712376014
 30
0.0
 11
88.09750516967085
 21
17.73892712376014
 31
0.0
  0
LINE
  5
1A6
330
20
100
AcDbEntity
  8
TEXT
 62
     3
100
AcDbLine
 10
89.09750516967084
 20
16.73892712376014
 30
0.0
 11
89.09750516967084
 21
13.73892712376014
 31
0.0
  0
ARC
  5
1A7
330
20
100
AcDbEntity
  8
TEXT
 62
     3
100
AcDbCircle
 10
93.09750516967085
 20
15.23892712376014
 30
0.0
 40
2.5
100
AcDbArc
 50
293.1161887722295
 51
90.0
  0
ARC
  5
1A8
330
20
100
AcDbEntity
  8
TEXT
 62
     3
100
AcDbCircle
 10
93.09750516967085
 20
15.23892712376014
 30
0.0
 40
1.5
100
AcDbArc
 50
270.0
 51
90.0
  0
ARC
  5
1A9
330
20
100
AcDbEntity
  8
TEXT
 62
     3
100
AcDbCircle
 10
93.09750516967085
 20
15.23892712376014
 30
0.0
 40
2.5
100
AcDbArc
 50
270.0
 51
270.0000000000007
  0
LINE
  5
1AA
330
20
100
AcDbEntity
  8
TEXT
 62
     3
100
AcDbLine
 10
94.06343099595991
 20
12.99774616886265
 30
0.0
 11
94.93662892737431
 21
9.738927123760166
 31
0.0
  0
CIRCLE
  5
1AB
330
20
100
AcDbEntity
  8
TEXT
 62
     3
100
AcDbCircle
 10
102.0975051696708
 20
13.23892712376014
 30
0.0
 40
3.5
  0
TEXT
  5
1AC
330
20
100
AcDbEntity
  8
TEXT
100
AcDbText
 10
91.3473965120978
 20
44.64562352614806
 30
0.0
 40
2.0
  1
DIN EN1123-2
 41
0.8
  7
GREEKS
 72
     1
 11
99.8426346073359
 21
44.64562352614806
 31
0.0
100
AcDbText
  0
TEXT
  5
1AD
330
20
100
AcDbEntity
  8
TEXT
100
AcDbText
 10
96.23132921131475
 20
36.65480545957612
 30
0.0
 40
1.8
  1
Name
 41
0.8
  7
GREEKS
100
AcDbText
  0
LINE
  5
1AE
330
20
100
AcDbEntity
  8
STEMPEL
100
AcDbLine
 10
110.0
 20
55.00000000000003
 30
0.0
 11
110.0
 21
4.999999999999985
 31
0.0
  0
TEXT
  5
1AF
330
20
100
AcDbEntity
  8
TEXT
100
AcDbText
 10
112.5648195562657
 20
25.82005971521079
 30
0.0
 40
2.5
  1
EDV-Art.Nr. 00944.125X
 41
0.8
  7
GREEKS
100
AcDbText
  0
TEXT
  5
1B0
330
20
100
AcDbEntity
  8
TEXT
100
AcDbText
 10
112.371119195568
 20
15.42280285096528
 30
0.0
 40
2.5
  1
Bauvorhaben
 41
0.8
  7
GREEKS
100
AcDbText
  0
TEXT
  5
1B1
330
20
100
AcDbEntity
  8
TEXT
 62
     1
100
AcDbText
 10
113.4467865528701
 20
43.70874394626889
 30
0.0
 40
3.5
  1
Dichtelement DN125
 41
0.8
  7
GREEKS
100
AcDbText
  0
TEXT
  5
1B2
330
20
100
AcDbEntity
  8
TEXT
100
AcDbText
 10
112.4918750788913
 20
21.31487076511316
 30
0.0
 40
1.8
  1
00944125W.DWG
 41
0.8
  7
GREEKS
100
AcDbText
  0
TEXT
  5
1B3
330
20
100
AcDbEntity
  8
TEXT
100
AcDbText
 10
112.4389701904505
 20
51.27446640058898
 30
0.0
 40
2.5
  1
Benennung
 41
0.8
  7
GREEKS
100
AcDbText
  0
LINE
  5
1EF
330
20
100
AcDbEntity
  8
HILF
100
AcDbLine
 10
210.0
 20
-0.0000000000000568
 30
0.0
 11
210.0
 21
297.0
 31
0.0
  0
LINE
  5
1F0
330
20
100
AcDbEntity
  8
STEMPEL
100
AcDbLine
 10
205.0
 20
55.00000000000003
 30
0.0
 11
205.0
 21
292.0
 31
0.0
  0
LINE
  5
1F1
330
20
100
AcDbEntity
  8
STEMPEL
100
AcDbLine
 10
205.0
 20
55.00000000000003
 30
0.0
 11
205.0
 21
5.0
 31
0.0
  0
TEXT
  5
1F2
330
20
100
AcDbEntity
  8
TEXT
 62
     1
100
AcDbText
 10
171.8905253938001
 20
44.07450714456979
 30
0.0
 40
3.5
  1
00944125W
 41
0.8
  7
GREEKS
 72
     1
 11
183.6238587271335
 21
44.07450714456979
 31
0.0
100
AcDbText
  0
TEXT
  5
1F4
330
20
100
AcDbEntity
  8
TEXT
100
AcDbText
 10
168.6200430748503
 20
26.03708088939301
 30
0.0
 40
2.5
  1
ersetzt durch:
 41
0.8
  7
GREEKS
100
AcDbText
  0
TEXT
  5
1F5
330
20
100
AcDbEntity
  8
TEXT
100
AcDbText
 10
168.3619308148496
 20
36.59059118549985
 30
0.0
 40
2.5
  1
Ersatz für:
 41
0.8
  7
GREEKS
100
AcDbText
  0
TEXT
  5
1F6
330
20
100
AcDbEntity
  8
TEXT
100
AcDbText
 10
168.089377478817
 20
51.15660172685682
 30
0.0
 40
2.5
  1
Zeichnungs Nr.
 41
0.8
  7
GREEKS
100
AcDbText
  0
LINE
  5
1F7
330
20
100
AcDbEntity
  8
HILF
100
AcDbLine
 10
168.3619308148496
 20
41.88991818477913
 30
0.0
 11
202.4294419663364
 21
41.88991818477913
 31
0.0
  0
LINE
  5
1F8
330
20
100
AcDbEntity
  8
VOLL
100
AcDbLine
 10
166.0
 20
30.0
 30
0.0
 11
205.0
 21
30.0
 31
0.0
  0
LINE
  5
1F9
330
20
100
AcDbEntity
  8
STEMPEL
100
AcDbLine
 10
166.0
 20
54.99999999999989
 30
0.0
 11
166.0
 21
20.0
 31
0.0
  0
TEXT
  5
208
330
20
100
AcDbEntity
  8
TEXT
100
AcDbText
 10
99.8426346073359
 20
42.01939489256613
 30
0.0
 40
2.0
  1

 41
0.8
  7
GREEKS
 72
     1
 11
99.8426346073359
 21
42.01939489256613
 31
0.0
100
AcDbText
  0
TEXT
  5
249
330
20
100
AcDbEntity
  8
BEM
100
AcDbText
 10
208.2905770718719
 20
6.074024076691515
 30
0.0
 40
2.0
  1
Diese Zeichnung ist urheberrechtlich geschützt und bleibt unser Eigentum. Sie darf weder ganz noch teilweise vervielfältigt und nicht an Dritte weitergegeben werden.
 50
90.0
 41
0.8
  7
GREEKS
100
AcDbText
  0
TEXT
  5
C74
330
20
100
AcDbEntity
  8
TEXT
 62
     1
100
AcDbText
 10
79.92076801469238
 20
63.17904385584265
 30
0.0
 40
3.5
  1
Farbe: schwarz
 41
0.8
  7
GREEKS
100
AcDbText
  0
TEXT
  5
C75
330
20
100
AcDbEntity
  8
TEXT
 62
     1
100
AcDbText
 10
72.09387902890256
 20
69.17904385584265
 30
0.0
 40
3.5
  1
Werkstoff: Styrol-Butadien-Kautschuk (SBR) 50%%P5 IRHD
 41
0.8
  7
GREEKS
100
AcDbText
  0
TEXT
  5
E87
330
20
100
AcDbEntity
  8
TEXT
100
AcDbText
 10
112.5648195562657
 20
35.82005971521077
 30
0.0
 40
2.5
  1
für KA-Rohr DN125
 41
0.8
  7
GREEKS
100
AcDbText
  0
TEXT
  5
FBC
330
20
100
AcDbEntity
  8
TEXT
100
AcDbText
 10
112.5648195562657
 20
30.82005971521079
 30
0.0
 40
2.5
  1
LORO-Muffe DN125
 41
0.8
  7
GREEKS
100
AcDbText
  0
HATCH
  5
FFE
330
20
100
AcDbEntity
  8
SCHRAFF
100
AcDbHatch
 10
0.0
 20
0.0
 30
0.0
210
0.0
220
0.0
230
1.0
  2
NET
 70
     0
 71
     0
 91
        2
 92
        7
 72
     1
 73
     1
 93
       25
 10
53.77872851906087
 20
162.2385766076743
 42
0.0
 10
52.45916091931137
 20
167.1632699339614
 42
0.3394542588633794
 10
49.75456860570197
 20
169.2385766076743
 42
0.0
 10
45.80288843241982
 20
169.2385766076743
 42
0.3394542588633769
 10
43.09829611881042
 20
167.1632699339614
 42
0.0
 10
41.77872851906087
 20
162.2385766076743
 42
0.0
 10
46.27872851906087
 20
162.2385766076743
 42
-0.4142135623730951
 10
47.27872851906087
 20
161.2385766076743
 42
0.0
 10
47.27872851906087
 20
160.2385766076743
 42
-0.4142135623731301
 10
46.27872851906075
 20
159.2385766076743
 42
0.0
 10
45.79857969039187
 20
159.2385766076744
 42
0.0
 10
43.97872851906086
 20
154.2385766076743
 42
0.0
 10
43.97872851906085
 20
151.1385766076743
 42
0.0
 10
41.57872851906086
 20
148.7385766076743
 42
0.0
 10
41.57872851906086
 20
147.7385766076743
 42
0.0
 10
43.77872851906087
 20
145.5385766076743
 42
0.0
 10
43.77872851906087
 20
143.0490883843259
 42
0.0
 10
41.57872851906086
 20
139.2385766076743
 42
0.0
 10
43.57872851906085
 20
139.2385766076743
 42
0.0
 10
46.57872851906085
 20
142.2385766076744
 42
0.0
 10
47.12187426956851
 20
142.2385766076743
 42
0.3178372451957819
 10
52.77872851906089
 20
138.2385766076743
 42
0.0
 10
59.77872851906084
 20
138.2385766076743
 42
0.0
 10
59.77872851906084
 20
140.2385766076743
 42
-0.4142135623730937
 10
53.77872851906087
 20
146.2385766076743
 42
0.0
 97
        0
 92
        7
 72
     1
 73
     1
 93
       25
 10
190.5787285190609
 20
154.2385766076744
 42
0.0
 10
188.7588773477299
 20
159.2385766076744
 42
0.0
 10
188.278728519061
 20
159.2385766076743
 42
-0.414213562373128
 10
187.2787285190609
 20
160.2385766076743
 42
0.0
 10
187.2787285190609
 20
161.2385766076743
 42
-0.4142135623730951
 10
188.2787285190609
 20
162.2385766076743
 42
0.0
 10
192.7787285190608
 20
162.2385766076743
 42
0.0
 10
191.4591609193114
 20
167.1632699339614
 42
0.33945425886338
 10
188.754568605702
 20
169.2385766076743
 42
0.0
 10
184.8028884324198
 20
169.2385766076743
 42
0.3394542588633784
 10
182.0982961188104
 20
167.1632699339614
 42
0.0
 10
180.7787285190608
 20
162.2385766076743
 42
0.0
 10
180.7787285190608
 20
146.2385766076743
 42
-0.4142135623730924
 10
174.7787285190609
 20
140.2385766076743
 42
0.0
 10
174.7787285190609
 20
138.2385766076743
 42
0.0
 10
181.7787285190608
 20
138.2385766076743
 42
0.3178372451957825
 10
187.4355827685532
 20
142.2385766076743
 42
0.0
 10
187.9787285190609
 20
142.2385766076743
 42
0.0
 10
190.9787285190609
 20
139.2385766076743
 42
0.0
 10
192.9787285190608
 20
139.2385766076744
 42
0.0
 10
190.7787285190608
 20
143.0490883843259
 42
0.0
 10
190.7787285190608
 20
145.5385766076743
 42
0.0
 10
192.9787285190608
 20
147.7385766076743
 42
0.0
 10
192.9787285190608
 20
148.7385766076744
 42
0.0
 10
190.5787285190609
 20
151.1385766076743
 42
0.0
 97
        0
 75
     0
 76
     1
 52
45.0
 41
20.0
 77
     0
 78
     2
 53
45.0
 43
3.896825675760965
 44
25.31685278093017
 45
-1.767766952966368
 46
1.767766952966368
 79
     0
 53
135.0
 43
3.896825675760965
 44
25.31685278093017
 45
-1.767766952966368
 46
-1.767766952966368
 79
     0
 47
0.2552306289436157
 98
        2
 10
49.05867362828814
 20
152.6863199087451
 10
185.4301847640287
 20
152.6863199087451
  0
LINE
  5
FFF
330
20
100
AcDbEntity
  8
STEMPEL
100
AcDbLine
 10
188.7545686057019
 20
169.2385766076743
 30
0.0
 11
45.80288843241982
 21
169.2385766076743
 31
0.0
  0
LINE
  5
1000
102
{ACAD_REACTORS
330
1074
330
108C
102
}
330
20
100
AcDbEntity
  8
STEMPEL
100
AcDbLine
 10
181.7787285190608
 20
138.2385766076743
 30
0.0
 11
52.7787285190609
 21
138.2385766076743
 31
0.0
  0
LINE
  5
1001
102
{ACAD_REACTORS
330
10D1
102
}
330
20
100
AcDbEntity
  8
STEMPEL
100
AcDbLine
 10
180.7787285190608
 20
162.2385766076743
 30
0.0
 11
53.77872851906087
 21
162.2385766076743
 31
0.0
  0
LINE
  5
1002
330
20
100
AcDbEntity
  8
STEMPEL
100
AcDbLine
 10
174.7787285190609
 20
140.2385766076743
 30
0.0
 11
59.77872851906084
 21
140.2385766076743
 31
0.0
  0
ARC
  5
1003
330
20
100
AcDbEntity
  8
STEMPEL
100
AcDbCircle
 10
49.75456860570196
 20
166.4385766076743
 30
0.0
 40
2.799999999999999
100
AcDbArc
 50
14.99999999999959
 51
90.0
  0
ARC
  5
1004
102
{ACAD_REACTORS
330
108C
102
}
330
20
100
AcDbEntity
  8
STEMPEL
100
AcDbCircle
 10
45.80288843241982
 20
166.4385766076743
 30
0.0
 40
2.799999999999999
100
AcDbArc
 50
90.0
 51
165.0000000000004
  0
LINE
  5
1005
330
20
100
AcDbEntity
  8
STEMPEL
100
AcDbLine
 10
43.77872851906087
 20
145.5385766076743
 30
0.0
 11
43.77872851906087
 21
143.0490883843259
 31
0.0
  0
ARC
  5
1006
330
20
100
AcDbEntity
  8
STEMPEL
100
AcDbCircle
 10
59.77872851906088
 20
146.2385766076743
 30
0.0
 40
6.0
100
AcDbArc
 50
180.0
 51
270.0
  0
LINE
  5
1007
330
20
100
AcDbEntity
  8
STEMPEL
100
AcDbLine
 10
41.57872851906086
 20
139.2385766076743
 30
0.0
 11
49.46210372870552
 21
139.2385766076743
 31
0.0
  0
ARC
  5
1008
330
20
100
AcDbEntity
  8
STEMPEL
100
AcDbCircle
 10
52.7787285190609
 20
144.2385766076743
 30
0.0
 40
6.0
100
AcDbArc
 50
199.4712206344913
 51
270.0
  0
LINE
  5
1009
330
20
100
AcDbEntity
  8
STEMPEL
100
AcDbLine
 10
43.57872851906086
 20
139.2385766076743
 30
0.0
 11
46.57872851906086
 21
142.2385766076743
 31
0.0
  0
LINE
  5
100A
330
20
100
AcDbEntity
  8
STEMPEL
100
AcDbLine
 10
43.57872851906086
 20
139.2385766076743
 30
0.0
 11
46.57872851906086
 21
142.2385766076743
 31
0.0
  0
LINE
  5
100B
330
20
100
AcDbEntity
  8
STEMPEL
100
AcDbLine
 10
41.57872851906086
 20
139.2385766076743
 30
0.0
 11
43.77872851906087
 21
143.0490883843259
 31
0.0
  0
LINE
  5
100C
330
20
100
AcDbEntity
  8
STEMPEL
100
AcDbLine
 10
46.57872851906086
 20
142.2385766076743
 30
0.0
 11
47.1218742695687
 21
142.2385766076743
 31
0.0
  0
LINE
  5
100D
330
20
100
AcDbEntity
  8
STEMPEL
100
AcDbLine
 10
59.77872851906084
 20
140.2385766076743
 30
0.0
 11
59.77872851906084
 21
138.2385766076743
 31
0.0
  0
LINE
  5
100E
330
20
100
AcDbEntity
  8
STEMPEL
100
AcDbLine
 10
43.97872851906086
 20
154.2385766076743
 30
0.0
 11
45.79857969039184
 21
159.2385766076743
 31
0.0
  0
LINE
  5
100F
102
{ACAD_REACTORS
330
10D1
102
}
330
20
100
AcDbEntity
  8
STEMPEL
100
AcDbLine
 10
53.77872851906087
 20
162.2385766076743
 30
0.0
 11
53.77872851906087
 21
146.2385766076743
 31
0.0
  0
LINE
  5
1010
330
20
100
AcDbEntity
  8
STEMPEL
100
AcDbLine
 10
41.57872851906086
 20
148.7385766076743
 30
0.0
 11
43.97872851906086
 21
151.1385766076743
 31
0.0
  0
LINE
  5
1011
330
20
100
AcDbEntity
  8
STEMPEL
100
AcDbLine
 10
41.57872851906086
 20
148.7385766076743
 30
0.0
 11
41.57872851906086
 21
147.7385766076743
 31
0.0
  0
LINE
  5
1012
102
{ACAD_REACTORS
330
1101
102
}
330
20
100
AcDbEntity
  8
STEMPEL
100
AcDbLine
 10
41.57872851906086
 20
147.7385766076743
 30
0.0
 11
43.77872851906087
 21
145.5385766076743
 31
0.0
  0
LINE
  5
1013
330
20
100
AcDbEntity
  8
STEMPEL
100
AcDbLine
 10
43.97872851906086
 20
154.2385766076743
 30
0.0
 11
43.97872851906086
 21
151.1385766076743
 31
0.0
  0
ARC
  5
1014
330
20
100
AcDbEntity
  8
STEMPEL
100
AcDbCircle
 10
46.27872851906087
 20
161.2385766076743
 30
0.0
 40
1.0
100
AcDbArc
 50
0.0
 51
90.0
  0
ARC
  5
1015
330
20
100
AcDbEntity
  8
STEMPEL
100
AcDbCircle
 10
46.27872851906087
 20
160.2385766076743
 30
0.0
 40
1.0
100
AcDbArc
 50
270.0
 51
0.0
  0
LINE
  5
1016
330
20
100
AcDbEntity
  8
STEMPEL
100
AcDbLine
 10
45.79857969039188
 20
159.2385766076744
 30
0.0
 11
46.27872851906087
 21
159.2385766076743
 31
0.0
  0
LINE
  5
1017
330
20
100
AcDbEntity
  8
STEMPEL
100
AcDbLine
 10
47.27872851906087
 20
161.2385766076743
 30
0.0
 11
47.27872851906087
 21
160.2385766076743
 31
0.0
  0
LINE
  5
1018
102
{ACAD_REACTORS
330
10E9
102
}
330
20
100
AcDbEntity
  8
STEMPEL
100
AcDbLine
 10
41.77872851906087
 20
162.2385766076743
 30
0.0
 11
46.27872851906087
 21
162.2385766076743
 31
0.0
  0
LINE
  5
1019
102
{ACAD_REACTORS
330
1074
102
}
330
20
100
AcDbEntity
  8
STEMPEL
100
AcDbLine
 10
41.77872851906087
 20
162.2385766076743
 30
0.0
 11
43.09829611881042
 21
167.1632699339614
 31
0.0
  0
LINE
  5
101A
330
20
100
AcDbEntity
  8
STEMPEL
100
AcDbLine
 10
53.77872851906087
 20
162.2385766076743
 30
0.0
 11
52.45916091931135
 21
167.1632699339614
 31
0.0
  0
ARC
  5
101B
330
20
100
AcDbEntity
  8
STEMPEL
100
AcDbCircle
 10
184.8028884324198
 20
166.4385766076743
 30
0.0
 40
2.799999999999999
100
AcDbArc
 50
89.99999999999959
 51
165.0000000000004
  0
ARC
  5
101C
330
20
100
AcDbEntity
  8
STEMPEL
100
AcDbCircle
 10
188.7545686057019
 20
166.4385766076743
 30
0.0
 40
2.799999999999999
100
AcDbArc
 50
14.99999999999959
 51
90.0
  0
LINE
  5
101D
330
20
100
AcDbEntity
  8
MITTEL
100
AcDbLine
 10
117.2787285190608
 20
173.4007387675453
 30
0.0
 11
117.2787285190608
 21
132.3737117631033
 31
0.0
  0
LINE
  5
101E
330
20
100
AcDbEntity
  8
STEMPEL
100
AcDbLine
 10
190.7787285190608
 20
145.5385766076743
 30
0.0
 11
190.7787285190608
 21
143.0490883843259
 31
0.0
  0
ARC
  5
101F
330
20
100
AcDbEntity
  8
STEMPEL
100
AcDbCircle
 10
174.7787285190609
 20
146.2385766076743
 30
0.0
 40
6.0
100
AcDbArc
 50
270.0
 51
0.0
  0
ARC
  5
1020
330
20
100
AcDbEntity
  8
STEMPEL
100
AcDbCircle
 10
181.7787285190608
 20
144.2385766076743
 30
0.0
 40
6.0
100
AcDbArc
 50
270.0
 51
340.5287793655087
  0
LINE
  5
1021
330
20
100
AcDbEntity
  8
STEMPEL
100
AcDbLine
 10
187.9787285190609
 20
142.2385766076743
 30
0.0
 11
187.4355827685532
 21
142.2385766076743
 31
0.0
  0
LINE
  5
1022
330
20
100
AcDbEntity
  8
STEMPEL
100
AcDbLine
 10
192.9787285190608
 20
139.2385766076743
 30
0.0
 11
185.0953533094162
 21
139.2385766076743
 31
0.0
  0
LINE
  5
1023
330
20
100
AcDbEntity
  8
STEMPEL
100
AcDbLine
 10
174.7787285190609
 20
140.2385766076743
 30
0.0
 11
174.7787285190609
 21
138.2385766076743
 31
0.0
  0
LINE
  5
1024
330
20
100
AcDbEntity
  8
STEMPEL
100
AcDbLine
 10
192.9787285190608
 20
139.2385766076743
 30
0.0
 11
190.7787285190608
 21
143.0490883843259
 31
0.0
  0
LINE
  5
1025
330
20
100
AcDbEntity
  8
STEMPEL
100
AcDbLine
 10
190.9787285190608
 20
139.2385766076743
 30
0.0
 11
187.9787285190609
 21
142.2385766076743
 31
0.0
  0
ARC
  5
1026
330
20
100
AcDbEntity
  8
STEMPEL
100
AcDbCircle
 10
188.2787285190609
 20
161.2385766076743
 30
0.0
 40
1.0
100
AcDbArc
 50
90.0
 51
180.0
  0
ARC
  5
1027
330
20
100
AcDbEntity
  8
STEMPEL
100
AcDbCircle
 10
188.2787285190609
 20
160.2385766076743
 30
0.0
 40
1.0
100
AcDbArc
 50
180.0
 51
270.0
  0
LINE
  5
1028
330
20
100
AcDbEntity
  8
STEMPEL
100
AcDbLine
 10
180.7787285190608
 20
162.2385766076743
 30
0.0
 11
180.7787285190608
 21
146.2385766076743
 31
0.0
  0
LINE
  5
1029
330
20
100
AcDbEntity
  8
STEMPEL
100
AcDbLine
 10
187.2787285190609
 20
161.2385766076743
 30
0.0
 11
187.2787285190609
 21
160.2385766076743
 31
0.0
  0
LINE
  5
102A
330
20
100
AcDbEntity
  8
STEMPEL
100
AcDbLine
 10
180.7787285190608
 20
162.2385766076743
 30
0.0
 11
182.0982961188104
 21
167.1632699339614
 31
0.0
  0
LINE
  5
102B
330
20
100
AcDbEntity
  8
STEMPEL
100
AcDbLine
 10
190.5787285190609
 20
154.2385766076743
 30
0.0
 11
188.7588773477299
 21
159.2385766076743
 31
0.0
  0
LINE
  5
102C
330
20
100
AcDbEntity
  8
STEMPEL
100
AcDbLine
 10
192.9787285190608
 20
148.7385766076743
 30
0.0
 11
190.5787285190609
 21
151.1385766076743
 31
0.0
  0
LINE
  5
102D
102
{ACAD_REACTORS
330
1101
102
}
330
20
100
AcDbEntity
  8
STEMPEL
100
AcDbLine
 10
192.9787285190608
 20
147.7385766076743
 30
0.0
 11
190.7787285190608
 21
145.5385766076743
 31
0.0
  0
LINE
  5
102E
102
{ACAD_REACTORS
330
1101
102
}
330
20
100
AcDbEntity
  8
STEMPEL
100
AcDbLine
 10
192.9787285190608
 20
148.7385766076743
 30
0.0
 11
192.9787285190608
 21
147.7385766076743
 31
0.0
  0
LINE
  5
102F
330
20
100
AcDbEntity
  8
STEMPEL
100
AcDbLine
 10
190.5787285190609
 20
154.2385766076743
 30
0.0
 11
190.5787285190609
 21
151.1385766076743
 31
0.0
  0
LINE
  5
1030
330
20
100
AcDbEntity
  8
STEMPEL
100
AcDbLine
 10
188.7588773477298
 20
159.2385766076744
 30
0.0
 11
188.2787285190609
 21
159.2385766076743
 31
0.0
  0
LINE
  5
1031
330
20
100
AcDbEntity
  8
STEMPEL
100
AcDbLine
 10
192.7787285190609
 20
162.2385766076743
 30
0.0
 11
188.2787285190609
 21
162.2385766076743
 31
0.0
  0
LINE
  5
1032
102
{ACAD_REACTORS
330
10E9
102
}
330
20
100
AcDbEntity
  8
STEMPEL
100
AcDbLine
 10
192.7787285190609
 20
162.2385766076743
 30
0.0
 11
191.4591609193113
 21
167.1632699339614
 31
0.0
  0
LINE
  5
104A
330
20
100
AcDbEntity
  8
TEXT
 62
     1
100
AcDbLine
 10
167.7688867104014
 20
205.5248587542574
 30
0.0
 11
195.7688867104015
 21
205.5248587542574
 31
0.0
  0
TEXT
  5
104B
330
20
100
AcDbEntity
  8
TEXT
 62
     2
100
AcDbText
 10
167.3015093467811
 20
216.5216649430333
 30
0.0
 40
2.0
  1
Raster für weitere Jahre
 41
0.8
  7
GREEKS
100
AcDbText
  0
ARC
  5
104C
330
20
100
AcDbEntity
  8
TEXT
 62
     2
100
AcDbCircle
 10
183.7406142632492
 20
214.3792216185548
 30
0.0
 40
1.873481366226997
100
AcDbArc
 50
179.0306871800672
 51
271.5608338456508
  0
TEXT
  5
104D
330
20
100
AcDbEntity
  8
TEXT
 62
     1
100
AcDbText
 10
28.09238332855699
 20
203.6048133620608
 30
0.0
 40
3.5
  1
Gravur: EN 1123 LORO DN125/%%c125 TG Nest.Nr. WC Jahreszahl
 41
0.8
  7
GREEKS
100
AcDbText
  0
LINE
  5
104E
330
20
100
AcDbEntity
  8
TEXT
 62
     2
100
AcDbLine
 10
28.09238332855699
 20
201.6804073156875
 30
0.0
 11
42.43851231893565
 21
164.7009232708179
 31
0.0
  0
LINE
  5
104F
330
20
100
AcDbEntity
  8
TEXT
 62
     2
100
AcDbLine
 10
41.80562246910961
 20
201.6804073156875
 30
0.0
 11
28.09238332855699
 21
201.6804073156875
 31
0.0
  0
LINE
  5
1050
330
20
100
AcDbEntity
  8
TEXT
 62
     1
100
AcDbLine
 10
167.7688867104014
 20
207.6090591942701
 30
0.0
 11
167.7688867104014
 21
203.4406583142448
 31
0.0
  0
LINE
  5
1051
330
20
100
AcDbEntity
  8
TEXT
 62
     1
100
AcDbLine
 10
171.7688867104014
 20
207.6090591942701
 30
0.0
 11
171.7688867104014
 21
203.4406583142448
 31
0.0
  0
LINE
  5
1052
330
20
100
AcDbEntity
  8
TEXT
 62
     1
100
AcDbLine
 10
175.7688867104014
 20
207.6090591942701
 30
0.0
 11
175.7688867104014
 21
203.4406583142448
 31
0.0
  0
LINE
  5
1053
330
20
100
AcDbEntity
  8
TEXT
 62
     1
100
AcDbLine
 10
179.7688867104014
 20
207.6090591942701
 30
0.0
 11
179.7688867104014
 21
203.4406583142448
 31
0.0
  0
LINE
  5
1054
330
20
100
AcDbEntity
  8
TEXT
 62
     2
100
AcDbLine
 10
169.8473154856725
 20
212.5064353736482
 30
0.0
 11
179.9431572386911
 21
212.5064353736482
 31
0.0
  0
ARC
  5
1055
330
20
100
AcDbEntity
  8
TEXT
 62
     2
100
AcDbCircle
 10
169.7962849999162
 20
210.6336491287416
 30
0.0
 40
1.873481366226997
100
AcDbArc
 50
88.43916615435899
 51
180.9693128199328
  0
ARC
  5
1056
330
20
100
AcDbEntity
  8
TEXT
 62
     2
100
AcDbCircle
 10
179.9941877244473
 20
214.3792216185548
 30
0.0
 40
1.873481366226997
100
AcDbArc
 50
268.4391661543623
 51
0.9693128199328235
  0
LINE
  5
1057
330
20
100
AcDbEntity
  8
TEXT
 62
     1
100
AcDbLine
 10
183.7688867104013
 20
207.6090591942701
 30
0.0
 11
183.7688867104013
 21
203.4406583142448
 31
0.0
  0
LINE
  5
1058
330
20
100
AcDbEntity
  8
TEXT
 62
     1
100
AcDbLine
 10
187.7688867104014
 20
207.6090591942701
 30
0.0
 11
187.7688867104014
 21
203.4406583142448
 31
0.0
  0
LINE
  5
1059
330
20
100
AcDbEntity
  8
TEXT
 62
     1
100
AcDbLine
 10
191.7688867104015
 20
207.6090591942701
 30
0.0
 11
191.7688867104015
 21
203.4406583142448
 31
0.0
  0
LINE
  5
105A
330
20
100
AcDbEntity
  8
TEXT
 62
     1
100
AcDbLine
 10
195.7688867104015
 20
207.6090591942701
 30
0.0
 11
195.7688867104015
 21
203.4406583142448
 31
0.0
  0
LINE
  5
105B
330
20
100
AcDbEntity
  8
TEXT
 62
     2
100
AcDbLine
 10
183.7916447490058
 20
212.5064353736482
 30
0.0
 11
193.7103796522455
 21
212.5064353736483
 31
0.0
  0
ARC
  5
105C
330
20
100
AcDbEntity
  8
TEXT
 62
     2
100
AcDbCircle
 10
193.7614101380019
 20
210.6336491287416
 30
0.0
 40
1.873481366226997
100
AcDbArc
 50
359.0306871800672
 51
91.56083384564427
  0
DIMENSION
  5
105D
102
{ACAD_XDICTIONARY
360
106A
102
}
102
{ACAD_REACTORS
330
1074
102
}
330
20
100
AcDbEntity
  8
BEM
100
AcDbDimension
  2
*D0
 10
36.13430777561735
 20
162.2385766076743
 30
0.0
 11
32.88430777561732
 21
150.2385766076743
 31
0.0
 70
    32
 71
     5
 42
24.0
  3
Standard
100
AcDbAlignedDimension
 13
52.7787285190609
 23
138.2385766076743
 33
0.0
 14
41.77872851906087
 24
162.2385766076743
 34
0.0
 50
90.0
100
AcDbRotatedDimension
1001
ACAD
1000
DSTYLE
1002
{
1070
    41
1040
3.5
1070
    42
1040
1.0
1070
    43
1040
7.0
1070
    44
1040
1.0
1070
    47
1040
0.6
1070
    48
1040
0.6
1070
    73
1070
     0
1070
    74
1070
     0
1070
    77
1070
     1
1070
    78
1070
     8
1070
    79
1070
     2
1070
   140
1040
3.5
1070
   141
1040
1.5
1070
   146
1040
0.5142857142857144
1070
   147
1040
1.5
1070
   172
1070
     1
1070
   178
1070
     1
1070
   179
1070
     2
1070
   271
1070
     2
1070
   272
1070
     2
1070
   284
1070
     8
1070
   285
1070
     8
1070
   286
1070
     8
1002
}
  0
DIMENSION
  5
1075
102
{ACAD_XDICTIONARY
360
1082
102
}
102
{ACAD_REACTORS
330
108C
102
}
330
20
100
AcDbEntity
  8
BEM
100
AcDbDimension
  2
*D1
 10
27.71534836746127
 20
169.2385766076743
 30
0.0
 11
24.46534836746125
 21
153.7385766076743
 31
0.0
 70
    32
 71
     5
 42
31.0
  3
Standard
100
AcDbAlignedDimension
 13
52.7787285190609
 23
138.2385766076743
 33
0.0
 14
45.80288843241982
 24
169.2385766076743
 34
0.0
 50
90.0
100
AcDbRotatedDimension
1001
ACAD
1000
DSTYLE
1002
{
1070
    41
1040
3.5
1070
    42
1040
1.0
1070
    43
1040
7.0
1070
    44
1040
1.0
1070
    47
1040
0.6
1070
    48
1040
0.6
1070
    73
1070
     0
1070
    74
1070
     0
1070
    77
1070
     1
1070
    78
1070
     8
1070
    79
1070
     2
1070
   140
1040
3.5
1070
   141
1040
1.5
1070
   146
1040
0.5142857142857144
1070
   147
1040
1.5
1070
   172
1070
     1
1070
   178
1070
     1
1070
   179
1070
     2
1070
   271
1070
     2
1070
   272
1070
     2
1070
   284
1070
     8
1070
   285
1070
     8
1070
   286
1070
     8
1002
}
  0
DIMENSION
  5
10BA
102
{ACAD_XDICTIONARY
360
10C7
102
}
102
{ACAD_REACTORS
330
10D1
102
}
330
20
100
AcDbEntity
  8
BEM
100
AcDbDimension
  2
*D2
 10
180.7787285190608
 20
176.9901759022766
 30
0.0
 11
117.2787285190608
 21
180.2401759022766
 31
0.0
 70
    32
  1
%%c<>
 71
     5
 42
127.0
  3
Standard
100
AcDbAlignedDimension
 13
53.77872851906087
 23
162.2385766076743
 33
0.0
 14
180.7787285190608
 24
162.2385766076743
 34
0.0
100
AcDbRotatedDimension
1001
ACAD
1000
DSTYLE
1002
{
1070
    41
1040
3.5
1070
    42
1040
1.0
1070
    43
1040
7.0
1070
    44
1040
1.0
1070
    47
1040
0.6
1070
    48
1040
0.6
1070
    73
1070
     0
1070
    74
1070
     0
1070
    77
1070
     1
1070
    78
1070
     8
1070
    79
1070
     2
1070
   140
1040
3.5
1070
   141
1040
1.5
1070
   146
1040
0.5142857142857144
1070
   147
1040
1.5
1070
   172
1070
     1
1070
   178
1070
     1
1070
   179
1070
     2
1070
   271
1070
     2
1070
   272
1070
     2
1070
   284
1070
     8
1070
   285
1070
     8
1070
   286
1070
     8
1002
}
  0
DIMENSION
  5
10D2
102
{ACAD_XDICTIONARY
360
10DF
102
}
102
{ACAD_REACTORS
330
10E9
102
}
330
20
100
AcDbEntity
  8
BEM
100
AcDbDimension
  2
*D3
 10
192.7787285190609
 20
185.2160233732102
 30
0.0
 11
117.2787285190608
 21
188.4660233732102
 31
0.0
 70
    32
  1
%%c<>
 71
     5
 42
151.0
  3
Standard
100
AcDbAlignedDimension
 13
41.77872851906087
 23
162.2385766076743
 33
0.0
 14
192.7787285190609
 24
162.2385766076743
 34
0.0
100
AcDbRotatedDimension
1001
ACAD
1000
DSTYLE
1002
{
1070
    41
1040
3.5
1070
    42
1040
1.0
1070
    43
1040
7.0
1070
    44
1040
1.0
1070
    47
1040
0.6
1070
    48
1040
0.6
1070
    73
1070
     0
1070
    74
1070
     0
1070
    77
1070
     1
1070
    78
1070
     8
1070
    79
1070
     2
1070
   140
1040
3.5
1070
   141
1040
1.5
1070
   146
1040
0.5142857142857144
1070
   147
1040
1.5
1070
   172
1070
     1
1070
   178
1070
     1
1070
   179
1070
     2
1070
   271
1070
     2
1070
   272
1070
     2
1070
   284
1070
     8
1070
   285
1070
     8
1070
   286
1070
     8
1002
}
  0
DIMENSION
  5
10EA
102
{ACAD_XDICTIONARY
360
10F7
102
}
102
{ACAD_REACTORS
330
1101
102
}
330
20
100
AcDbEntity
  8
BEM
100
AcDbDimension
  2
*D4
 10
192.9787285190608
 20
123.6333249500471
 30
0.0
 11
117.2787285190608
 21
126.8833249500471
 31
0.0
 70
    32
  1
%%c<>
 71
     5
 42
151.4
  3
Standard
100
AcDbAlignedDimension
 13
41.57872851906086
 23
147.7385766076743
 33
0.0
 14
192.9787285190608
 24
147.7385766076743
 34
0.0
100
AcDbRotatedDimension
1001
ACAD
1000
DSTYLE
1002
{
1070
    41
1040
3.5
1070
    42
1040
1.0
1070
    43
1040
7.0
1070
    44
1040
1.0
1070
    47
1040
0.6
1070
    48
1040
0.6
1070
    73
1070
     0
1070
    74
1070
     0
1070
    77
1070
     1
1070
    78
1070
     8
1070
    79
1070
     2
1070
   140
1040
3.5
1070
   141
1040
1.5
1070
   146
1040
0.5142857142857144
1070
   147
1040
1.5
1070
   172
1070
     1
1070
   178
1070
     1
1070
   179
1070
     2
1070
   271
1070
     2
1070
   272
1070
     2
1070
   284
1070
     8
1070
   285
1070
     8
1070
   286
1070
     8
1002
}
  0
ENDSEC
  0
SECTION
  2
OBJECTS
  0
DICTIONARY
  5
C
330
0
100
AcDbDictionary
281
     1
  3
ACAD_COLOR
350
1B
  3
ACAD_GROUP
350
D
  3
ACAD_LAYOUT
350
19
  3
ACAD_MATERIAL
350
1A
  3
ACAD_MLINESTYLE
350
16
  3
ACAD_PLOTSETTINGS
350
18
  3
ACAD_PLOTSTYLENAME
350
E
  3
AcDbVariableDictionary
350
25E
  0
DICTIONARY
  5
106A
330
105D
100
AcDbDictionary
280
     1
281
     1
  3
ACAD_DIMASSOC
360
1074
  0
DICTIONARY
  5
1082
330
1075
100
AcDbDictionary
280
     1
281
     1
  3
ACAD_DIMASSOC
360
108C
  0
DICTIONARY
  5
10C7
330
10BA
100
AcDbDictionary
280
     1
281
     1
  3
ACAD_DIMASSOC
360
10D1
  0
DICTIONARY
  5
10DF
330
10D2
100
AcDbDictionary
280
     1
281
     1
  3
ACAD_DIMASSOC
360
10E9
  0
DICTIONARY
  5
10F7
330
10EA
100
AcDbDictionary
280
     1
281
     1
  3
ACAD_DIMASSOC
360
1101
  0
DICTIONARY
  5
1B
102
{ACAD_REACTORS
330
C
102
}
330
C
100
AcDbDictionary
281
     1
  0
DICTIONARY
  5
D
102
{ACAD_REACTORS
330
C
102
}
330
C
100
AcDbDictionary
281
     1
  0
DICTIONARY
  5
19
102
{ACAD_REACTORS
330
C
102
}
330
C
100
AcDbDictionary
281
     1
  3
Layout1
350
1F
  3
Model
350
23
  0
DICTIONARY
  5
1A
102
{ACAD_REACTORS
330
C
102
}
330
C
100
AcDbDictionary
281
     1
  0
DICTIONARY
  5
16
102
{ACAD_REACTORS
330
C
102
}
330
C
100
AcDbDictionary
281
     1
  3
Standard
350
17
  0
DICTIONARY
  5
18
102
{ACAD_REACTORS
330
C
102
}
330
C
100
AcDbDictionary
281
     1
  0
ACDBDICTIONARYWDFLT
  5
E
102
{ACAD_REACTORS
330
C
102
}
330
C
100
AcDbDictionary
281
     1
  3
Normal
350
F
100
AcDbDictionaryWithDefault
340
F
  0
DICTIONARY
  5
25E
102
{ACAD_REACTORS
330
C
102
}
330
C
100
AcDbDictionary
281
     1
  3
DIMASSOC
350
260
  3
HIDETEXT
350
25F
  3
PROJECTNAME
350
261
  0
DIMASSOC
  5
1074
102
{ACAD_REACTORS
330
106A
102
}
330
106A
100
AcDbDimAssoc
330
105D
 90
        3
 70
     0
 71
     0
  1
AcDbOsnapPointRef
 72
     1
331
1000
 73
     2
 91
        0
 40
1.0
 10
0.0
 20
0.0
 30
2.000000000000000E+50
 75
     0
  1
AcDbOsnapPointRef
 72
    13
331
1019
 73
     2
 91
        0
 40
0.0
 10
0.0
 20
0.0
 30
2.000000000000000E+50
 75
     0
  0
DIMASSOC
  5
108C
102
{ACAD_REACTORS
330
1082
102
}
330
1082
100
AcDbDimAssoc
330
1075
 90
        3
 70
     0
 71
     0
  1
AcDbOsnapPointRef
 72
     1
331
1000
 73
     2
 91
        0
 40
1.0
 10
0.0
 20
0.0
 30
2.000000000000000E+50
 75
     0
  1
AcDbOsnapPointRef
 72
    13
331
1004
 73
     2
 91
        0
 40
1.570796326794896
 10
0.0
 20
0.0
 30
2.000000000000000E+50
 75
     0
  0
DIMASSOC
  5
10D1
102
{ACAD_REACTORS
330
10C7
102
}
330
10C7
100
AcDbDimAssoc
330
10BA
 90
        3
 70
     0
 71
     0
  1
AcDbOsnapPointRef
 72
    13
331
100F
 73
     2
 91
        0
 40
0.0
 10
0.0
 20
0.0
 30
2.000000000000000E+50
 75
     0
  1
AcDbOsnapPointRef
 72
    13
331
1001
 73
     2
 91
        0
 40
0.0
 10
0.0
 20
0.0
 30
2.000000000000000E+50
 75
     0
  0
DIMASSOC
  5
10E9
102
{ACAD_REACTORS
330
10DF
102
}
330
10DF
100
AcDbDimAssoc
330
10D2
 90
        3
 70
     0
 71
     0
  1
AcDbOsnapPointRef
 72
    13
331
1018
 73
     2
 91
        0
 40
0.0
 10
0.0
 20
0.0
 30
2.000000000000000E+50
 75
     0
  1
AcDbOsnapPointRef
 72
    13
331
1032
 73
     2
 91
        0
 40
0.0
 10
0.0
 20
0.0
 30
2.000000000000000E+50
 75
     0
  0
DIMASSOC
  5
1101
102
{ACAD_REACTORS
330
10F7
102
}
330
10F7
100
AcDbDimAssoc
330
10EA
 90
        3
 70
     0
 71
     0
  1
AcDbOsnapPointRef
 72
    13
331
1012
 73
     2
 91
        0
 40
0.0
 10
0.0
 20
0.0
 30
2.000000000000000E+50
 75
     0
  1
AcDbOsnapPointRef
 72
     6
331
102E
 73
     2
 91
        0
 40
1.0
 10
0.0
 20
0.0
 30
0.0
332
102D
 74
     2
 92
        0
 75
     0
  0
LAYOUT
  5
1F
102
{ACAD_REACTORS
330
19
102
}
330
19
100
AcDbPlotSettings
  1

  2
RICOH Aficio 2027 PCL 6
  4

  6

 40
0.0
 41
0.0
 42
0.0
 43
0.0
 44
0.0
 45
0.0
 46
0.0
 47
0.0
 48
0.0
 49
0.0
140
0.0
141
0.0
142
1.0
143
1.0
 70
   688
 72
     0
 73
     0
 74
     5
  7
monochrome1.ctb
 75
    16
147
1.0
 76
     0
 77
     2
 78
   300
148
0.0
149
0.0
100
AcDbLayout
  1
Layout1
 70
     0
 71
     1
 10
0.0
 20
0.0
 11
12.0
 21
9.0
 12
94.77699787264981
 22
50.00000000000001
 32
160.541677480246
 14
1.000000000000000E+20
 24
1.000000000000000E+20
 34
1.000000000000000E+20
 15
-1.000000000000000E+20
 25
-1.000000000000000E+20
 35
-1.000000000000000E+20
146
0.0
 13
0.0
 23
0.0
 33
0.0
 16
1.0
 26
0.0
 36
0.0
 17
0.0
 27
1.0
 37
0.0
 76
     0
330
1C
  0
LAYOUT
  5
23
102
{ACAD_REACTORS
330
19
102
}
330
19
100
AcDbPlotSettings
  1

  2
RICOH Aficio 2027 PCL 6
  4
A4
  6

 40
5.027083396911621
 41
5.027085304260253
 42
5.027084350585937
 43
5.027069091796875
 44
209.9733276367187
 45
296.9259948730469
 46
0.0
 47
0.0
 48
0.0
 49
0.0
140
0.0
141
0.0
142
1.0
143
1.0
 70
 11952
 72
     0
 73
     1
 74
     0
  7
monochrome1.ctb
 75
     0
147
1.0
 76
     0
 77
     2
 78
   300
148
1149.94759482167
149
45.04758967657628
100
AcDbLayout
  1
Model
 70
     1
 71
     0
 10
0.0
 20
0.0
 11
12.0
 21
9.0
 12
0.0
 22
0.0
 32
0.0
 14
0.0
 24
0.0
 34
0.0
 15
0.0
 25
0.0
 35
0.0
146
0.0
 13
0.0
 23
0.0
 33
0.0
 16
1.0
 26
0.0
 36
0.0
 17
0.0
 27
1.0
 37
0.0
 76
     0
330
20
  0
MLINESTYLE
  5
17
102
{ACAD_REACTORS
330
16
102
}
330
16
100
AcDbMlineStyle
  2
STANDARD
 70
     0
  3

 62
   256
 51
90.0
 52
90.0
 71
     2
 49
0.5
 62
   256
  6
BYLAYER
 49
-0.5
 62
   256
  6
BYLAYER
  0
ACDBPLACEHOLDER
  5
F
102
{ACAD_REACTORS
330
E
102
}
330
E
  0
DICTIONARYVAR
  5
260
102
{ACAD_REACTORS
330
25E
102
}
330
25E
100
DictionaryVariables
280
     0
  1
2
  0
DICTIONARYVAR
  5
25F
102
{ACAD_REACTORS
330
25E
102
}
330
25E
100
DictionaryVariables
280
     0
  1
1
  0
DICTIONARYVAR
  5
261
102
{ACAD_REACTORS
330
25E
102
}
330
25E
100
DictionaryVariables
280
     0
  1

  0
ENDSEC
  0
EOF
