  0
SECTION
  2
HEADER
  9
$ACADVER
  1
AC1018
  9
$ACADMAINTVER
 70
     2
  9
$DWGCODEPAGE
  3
ANSI_1252
  9
$INSBASE
 10
0.0
 20
0.0
 30
0.0
  9
$EXTMIN
 10
-0.0160161050886245
 20
-0.0226513486255726
 30
-0.0000000000000053
  9
$EXTMAX
 10
210.0000024450054
 20
297.000003457936
 30
0.0000000000000099
  9
$LIMMIN
 10
0.0
 20
0.0
  9
$LIMMAX
 10
210.0
 20
297.0
  9
$ORTHOMODE
 70
     0
  9
$REGENMODE
 70
     1
  9
$FILLMODE
 70
     1
  9
$QTEXTMODE
 70
     0
  9
$MIRRTEXT
 70
     1
  9
$LTSCALE
 40
10.0
  9
$ATTMODE
 70
     1
  9
$TEXTSIZE
 40
3.5
  9
$TRACEWID
 40
0.5
  9
$TEXTSTYLE
  7
STANDARD
  9
$CLAYER
  8
BEM
  9
$CELTYPE
  6
ByLayer
  9
$CECOLOR
 62
   256
  9
$CELTSCALE
 40
1.0
  9
$DISPSILH
 70
     0
  9
$DIMSCALE
 40
1.0
  9
$DIMASZ
 40
3.5
  9
$DIMEXO
 40
1.0
  9
$DIMDLI
 40
7.0
  9
$DIMRND
 40
0.0
  9
$DIMDLE
 40
0.0
  9
$DIMEXE
 40
1.0
  9
$DIMTP
 40
0.6
  9
$DIMTM
 40
0.6
  9
$DIMTXT
 40
3.5
  9
$DIMCEN
 40
1.5
  9
$DIMTSZ
 40
0.0
  9
$DIMTOL
 70
     0
  9
$DIMLIM
 70
     0
  9
$DIMTIH
 70
     0
  9
$DIMTOH
 70
     0
  9
$DIMSE1
 70
     0
  9
$DIMSE2
 70
     0
  9
$DIMTAD
 70
     1
  9
$DIMZIN
 70
     8
  9
$DIMBLK
  1

  9
$DIMASO
 70
     1
  9
$DIMSHO
 70
     0
  9
$DIMPOST
  1

  9
$DIMAPOST
  1

  9
$DIMALT
 70
     0
  9
$DIMALTD
 70
     2
  9
$DIMALTF
 40
25.4
  9
$DIMLFAC
 40
1.0
  9
$DIMTOFL
 70
     1
  9
$DIMTVP
 40
0.0
  9
$DIMTIX
 70
     0
  9
$DIMSOXD
 70
     0
  9
$DIMSAH
 70
     0
  9
$DIMBLK1
  1

  9
$DIMBLK2
  1

  9
$DIMSTYLE
  2
Standard
  9
$DIMCLRD
 70
     0
  9
$DIMCLRE
 70
     0
  9
$DIMCLRT
 70
     1
  9
$DIMTFAC
 40
0.5142857142857144
  9
$DIMGAP
 40
1.5
  9
$DIMJUST
 70
     0
  9
$DIMSD1
 70
     0
  9
$DIMSD2
 70
     0
  9
$DIMTOLJ
 70
     1
  9
$DIMTZIN
 70
     8
  9
$DIMALTZ
 70
     8
  9
$DIMALTTZ
 70
     8
  9
$DIMUPT
 70
     0
  9
$DIMDEC
 70
     2
  9
$DIMTDEC
 70
     2
  9
$DIMALTU
 70
     2
  9
$DIMALTTD
 70
     2
  9
$DIMTXSTY
  7
STANDARD
  9
$DIMAUNIT
 70
     0
  9
$DIMADEC
 70
     2
  9
$DIMALTRND
 40
0.0
  9
$DIMAZIN
 70
     2
  9
$DIMDSEP
 70
    46
  9
$DIMATFIT
 70
     3
  9
$DIMFRAC
 70
     0
  9
$DIMLDRBLK
  1

  9
$DIMLUNIT
 70
     2
  9
$DIMLWD
 70
    -2
  9
$DIMLWE
 70
    -2
  9
$DIMTMOVE
 70
     0
  9
$LUNITS
 70
     2
  9
$LUPREC
 70
     2
  9
$SKETCHINC
 40
1.0
  9
$FILLETRAD
 40
0.0
  9
$AUNITS
 70
     0
  9
$AUPREC
 70
     0
  9
$MENU
  1
ACAD
  9
$ELEVATION
 40
0.0
  9
$PELEVATION
 40
0.0
  9
$THICKNESS
 40
0.0
  9
$LIMCHECK
 70
     0
  9
$CHAMFERA
 40
0.0
  9
$CHAMFERB
 40
0.0
  9
$CHAMFERC
 40
0.0
  9
$CHAMFERD
 40
0.0
  9
$SKPOLY
 70
     0
  9
$TDCREATE
 40
2451729.335056250
  9
$TDUCREATE
 40
2451729.251722917
  9
$TDUPDATE
 40
2455450.564430058
  9
$TDUUPDATE
 40
2455450.481096725
  9
$TDINDWG
 40
0.1073254745
  9
$TDUSRTIMER
 40
0.1073254745
  9
$USRTIMER
 70
     1
  9
$ANGBASE
 50
0.0
  9
$ANGDIR
 70
     0
  9
$PDMODE
 70
     0
  9
$PDSIZE
 40
0.0
  9
$PLINEWID
 40
0.0
  9
$SPLFRAME
 70
     0
  9
$SPLINETYPE
 70
     6
  9
$SPLINESEGS
 70
     8
  9
$HANDSEED
  5
FC8
  9
$SURFTAB1
 70
     6
  9
$SURFTAB2
 70
     6
  9
$SURFTYPE
 70
     6
  9
$SURFU
 70
     6
  9
$SURFV
 70
     6
  9
$UCSBASE
  2

  9
$UCSNAME
  2

  9
$UCSORG
 10
0.0
 20
0.0
 30
0.0
  9
$UCSXDIR
 10
1.0
 20
0.0
 30
0.0
  9
$UCSYDIR
 10
0.0
 20
1.0
 30
0.0
  9
$UCSORTHOREF
  2

  9
$UCSORTHOVIEW
 70
     0
  9
$UCSORGTOP
 10
0.0
 20
0.0
 30
0.0
  9
$UCSORGBOTTOM
 10
0.0
 20
0.0
 30
0.0
  9
$UCSORGLEFT
 10
0.0
 20
0.0
 30
0.0
  9
$UCSORGRIGHT
 10
0.0
 20
0.0
 30
0.0
  9
$UCSORGFRONT
 10
0.0
 20
0.0
 30
0.0
  9
$UCSORGBACK
 10
0.0
 20
0.0
 30
0.0
  9
$PUCSBASE
  2

  9
$PUCSNAME
  2

  9
$PUCSORG
 10
0.0
 20
0.0
 30
0.0
  9
$PUCSXDIR
 10
1.0
 20
0.0
 30
0.0
  9
$PUCSYDIR
 10
0.0
 20
1.0
 30
0.0
  9
$PUCSORTHOREF
  2

  9
$PUCSORTHOVIEW
 70
     0
  9
$PUCSORGTOP
 10
0.0
 20
0.0
 30
0.0
  9
$PUCSORGBOTTOM
 10
0.0
 20
0.0
 30
0.0
  9
$PUCSORGLEFT
 10
0.0
 20
0.0
 30
0.0
  9
$PUCSORGRIGHT
 10
0.0
 20
0.0
 30
0.0
  9
$PUCSORGFRONT
 10
0.0
 20
0.0
 30
0.0
  9
$PUCSORGBACK
 10
0.0
 20
0.0
 30
0.0
  9
$USERI1
 70
     0
  9
$USERI2
 70
     0
  9
$USERI3
 70
     0
  9
$USERI4
 70
     0
  9
$USERI5
 70
     0
  9
$USERR1
 40
0.0
  9
$USERR2
 40
0.0
  9
$USERR3
 40
0.0
  9
$USERR4
 40
0.0
  9
$USERR5
 40
0.0
  9
$WORLDVIEW
 70
     1
  9
$SHADEDGE
 70
     3
  9
$SHADEDIF
 70
    70
  9
$TILEMODE
 70
     1
  9
$MAXACTVP
 70
    16
  9
$PINSBASE
 10
94.77699787264981
 20
50.00000000000001
 30
160.541677480246
  9
$PLIMCHECK
 70
     0
  9
$PEXTMIN
 10
1.000000000000000E+20
 20
1.000000000000000E+20
 30
1.000000000000000E+20
  9
$PEXTMAX
 10
-1.000000000000000E+20
 20
-1.000000000000000E+20
 30
-1.000000000000000E+20
  9
$PLIMMIN
 10
0.0
 20
0.0
  9
$PLIMMAX
 10
12.0
 20
9.0
  9
$UNITMODE
 70
     0
  9
$VISRETAIN
 70
     0
  9
$PLINEGEN
 70
     0
  9
$PSLTSCALE
 70
     0
  9
$TREEDEPTH
 70
  3020
  9
$CMLSTYLE
  2
Standard
  9
$CMLJUST
 70
     0
  9
$CMLSCALE
 40
1.0
  9
$PROXYGRAPHICS
 70
     1
  9
$MEASUREMENT
 70
     0
  9
$CELWEIGHT
370
    -1
  9
$ENDCAPS
280
     0
  9
$JOINSTYLE
280
     0
  9
$LWDISPLAY
290
     0
  9
$INSUNITS
 70
     0
  9
$HYPERLINKBASE
  1

  9
$STYLESHEET
  1
monochrome 1.ctb
  9
$XEDIT
290
     1
  9
$CEPSNTYPE
380
     0
  9
$PSTYLEMODE
290
     1
  9
$FINGERPRINTGUID
  2
{5FB5DE59-4758-4550-9D6E-98D0683C8784}
  9
$VERSIONGUID
  2
{5A5ADB43-DE0A-4719-A9EC-2BF939F7F053}
  9
$EXTNAMES
290
     1
  9
$PSVPSCALE
 40
0.0
  9
$OLESTARTUP
290
     0
  9
$SORTENTS
280
   127
  9
$INDEXCTL
280
     0
  9
$HIDETEXT
280
     1
  9
$XCLIPFRAME
290
     0
  9
$HALOGAP
280
     0
  9
$OBSCOLOR
 70
   257
  9
$OBSLTYPE
280
     0
  9
$INTERSECTIONDISPLAY
280
     0
  9
$INTERSECTIONCOLOR
 70
   257
  9
$DIMASSOC
280
     2
  9
$PROJECTNAME
  1

  0
ENDSEC
  0
SECTION
  2
CLASSES
  0
CLASS
  1
ACDBDICTIONARYWDFLT
  2
AcDbDictionaryWithDefault
  3
ObjectDBX Classes
 90
        0
 91
        1
280
     0
281
     0
  0
CLASS
  1
DICTIONARYVAR
  2
AcDbDictionaryVar
  3
ObjectDBX Classes
 90
        0
 91
        3
280
     0
281
     0
  0
CLASS
  1
DIMASSOC
  2
AcDbDimAssoc
  3
"AcDbDimAssoc|Product Desc:     AcDim ARX App For Dimension|Company:          Autodesk, Inc.|WEB Address:      www.autodesk.com"
 90
        0
 91
        7
280
     0
281
     0
  0
ENDSEC
  0
SECTION
  2
TABLES
  0
TABLE
  2
VPORT
  5
8
330
0
100
AcDbSymbolTable
 70
     2
  0
VPORT
  5
FC7
330
8
100
AcDbSymbolTableRecord
100
AcDbViewportTableRecord
  2
*Active
 70
     0
 10
0.0
 20
0.0
 11
1.0
 21
1.0
 12
104.9919931699583
 22
148.4886760546552
 13
0.0
 23
0.0
 14
1.0
 24
1.0
 15
10.0
 25
10.0
 16
0.0
 26
0.0
 36
1.0
 17
0.0
 27
0.0
 37
0.0
 40
299.4212226784854
 41
1.336927223719676
 42
50.0
 43
0.0
 44
0.0
 50
0.0
 51
0.0
 71
     0
 72
  1500
 73
     1
 74
     0
 75
     0
 76
     0
 77
     0
 78
     0
281
     0
 65
     1
110
0.0
120
0.0
130
0.0
111
1.0
121
0.0
131
0.0
112
0.0
122
1.0
132
0.0
 79
     0
146
0.0
  0
ENDTAB
  0
TABLE
  2
LTYPE
  5
5
330
0
100
AcDbSymbolTable
 70
     2
  0
LTYPE
  5
13
330
5
100
AcDbSymbolTableRecord
100
AcDbLinetypeTableRecord
  2
ByBlock
 70
     0
  3

 72
    65
 73
     0
 40
0.0
  0
LTYPE
  5
14
330
5
100
AcDbSymbolTableRecord
100
AcDbLinetypeTableRecord
  2
ByLayer
 70
     0
  3

 72
    65
 73
     0
 40
0.0
  0
LTYPE
  5
15
330
5
100
AcDbSymbolTableRecord
100
AcDbLinetypeTableRecord
  2
Continuous
 70
     0
  3
Solid line
 72
    65
 73
     0
 40
0.0
  0
LTYPE
  5
38
330
5
100
AcDbSymbolTableRecord
100
AcDbLinetypeTableRecord
  2
STRICHPUNKT
 70
     0
  3
__ . __ . __ . __ . __ . __ . __ . __ . __ . __
 72
    65
 73
     4
 40
1.0
 49
0.5
 74
     0
 49
-0.25
 74
     0
 49
0.0
 74
     0
 49
-0.25
 74
     0
  0
ENDTAB
  0
TABLE
  2
LAYER
  5
2
330
0
100
AcDbSymbolTable
 70
     9
  0
LAYER
  5
10
330
2
100
AcDbSymbolTableRecord
100
AcDbLayerTableRecord
  2
0
 70
     0
 62
     7
  6
Continuous
370
    -3
390
F
  0
LAYER
  5
3B
330
2
100
AcDbSymbolTableRecord
100
AcDbLayerTableRecord
  2
VOLL
 70
     0
 62
     1
  6
Continuous
370
    -3
390
F
  0
LAYER
  5
3C
330
2
100
AcDbSymbolTableRecord
100
AcDbLayerTableRecord
  2
HILF
 70
     0
 62
     2
  6
Continuous
370
    -3
390
F
  0
LAYER
  5
3D
330
2
100
AcDbSymbolTableRecord
100
AcDbLayerTableRecord
  2
MITTEL
 70
     0
 62
     2
  6
STRICHPUNKT
370
    -3
390
F
  0
LAYER
  5
3E
330
2
100
AcDbSymbolTableRecord
100
AcDbLayerTableRecord
  2
BEM
 70
     0
 62
     7
  6
Continuous
370
    -3
390
F
  0
LAYER
  5
3F
330
2
100
AcDbSymbolTableRecord
100
AcDbLayerTableRecord
  2
SCHRAFF
 70
     0
 62
     7
  6
Continuous
370
    -3
390
F
  0
LAYER
  5
40
330
2
100
AcDbSymbolTableRecord
100
AcDbLayerTableRecord
  2
STEMPEL
 70
     0
 62
     3
  6
Continuous
370
    -3
390
F
  0
LAYER
  5
41
330
2
100
AcDbSymbolTableRecord
100
AcDbLayerTableRecord
  2
DEFPOINTS
 70
     0
 62
     7
  6
Continuous
290
     0
370
    -3
390
F
  0
LAYER
  5
42
330
2
100
AcDbSymbolTableRecord
100
AcDbLayerTableRecord
  2
TEXT
 70
     0
 62
     7
  6
Continuous
370
    -3
390
F
  0
ENDTAB
  0
TABLE
  2
STYLE
  5
3
330
0
100
AcDbSymbolTable
 70
     2
  0
STYLE
  5
11
330
3
100
AcDbSymbolTableRecord
100
AcDbTextStyleTableRecord
  2
STANDARD
 70
     0
 40
0.0
 41
0.8
 50
0.0
 71
     0
 42
3.5
  3
simplex.shx
  4

  0
STYLE
  5
37
330
3
100
AcDbSymbolTableRecord
100
AcDbTextStyleTableRecord
  2
GREEKS
 70
     0
 40
0.0
 41
0.8
 50
0.0
 71
     0
 42
3.5
  3
SIMPLEX.shx
  4

  0
ENDTAB
  0
TABLE
  2
VIEW
  5
6
330
0
100
AcDbSymbolTable
 70
     0
  0
ENDTAB
  0
TABLE
  2
UCS
  5
7
330
0
100
AcDbSymbolTable
 70
     0
  0
ENDTAB
  0
TABLE
  2
APPID
  5
9
330
0
100
AcDbSymbolTable
 70
     1
  0
APPID
  5
12
330
9
100
AcDbSymbolTableRecord
100
AcDbRegAppTableRecord
  2
ACAD
 70
     0
  0
ENDTAB
  0
TABLE
  2
DIMSTYLE
  5
A
330
0
100
AcDbSymbolTable
 70
     1
100
AcDbDimStyleTable
 71
     1
340
20F
  0
DIMSTYLE
105
20F
102
{ACAD_REACTORS
330
F10
330
F28
330
F40
330
F58
330
F70
330
F8C
330
FA4
102
}
330
A
100
AcDbSymbolTableRecord
100
AcDbDimStyleTableRecord
  2
Standard
 70
     0
340
11
  0
ENDTAB
  0
TABLE
  2
BLOCK_RECORD
  5
1
330
0
100
AcDbSymbolTable
 70
     7
  0
BLOCK_RECORD
  5
20
330
1
100
AcDbSymbolTableRecord
100
AcDbBlockTableRecord
  2
*Model_Space
340
23
  0
BLOCK_RECORD
  5
1C
330
1
100
AcDbSymbolTableRecord
100
AcDbBlockTableRecord
  2
*Paper_Space
340
1F
  0
BLOCK_RECORD
  5
F11
330
1
100
AcDbSymbolTableRecord
100
AcDbBlockTableRecord
  2
*D0
340
0
  0
BLOCK_RECORD
  5
F29
330
1
100
AcDbSymbolTableRecord
100
AcDbBlockTableRecord
  2
*D1
340
0
  0
BLOCK_RECORD
  5
F41
330
1
100
AcDbSymbolTableRecord
100
AcDbBlockTableRecord
  2
*D2
340
0
  0
BLOCK_RECORD
  5
F59
330
1
100
AcDbSymbolTableRecord
100
AcDbBlockTableRecord
  2
*D3
340
0
  0
BLOCK_RECORD
  5
F71
330
1
100
AcDbSymbolTableRecord
100
AcDbBlockTableRecord
  2
*D4
340
0
  0
BLOCK_RECORD
  5
F8D
330
1
100
AcDbSymbolTableRecord
100
AcDbBlockTableRecord
  2
*D5
340
0
  0
BLOCK_RECORD
  5
FA5
330
1
100
AcDbSymbolTableRecord
100
AcDbBlockTableRecord
  2
*D6
340
0
  0
ENDTAB
  0
ENDSEC
  0
SECTION
  2
BLOCKS
  0
BLOCK
  5
46
330
20
100
AcDbEntity
  8
0
100
AcDbBlockBegin
  2
*Model_Space
 70
     0
 10
0.0
 20
0.0
 30
0.0
  3
*Model_Space
  1

  0
ENDBLK
  5
47
330
20
100
AcDbEntity
  8
0
100
AcDbBlockEnd
  0
BLOCK
  5
44
330
1C
100
AcDbEntity
 67
     1
  8
0
100
AcDbBlockBegin
  2
*Paper_Space
 70
     0
 10
0.0
 20
0.0
 30
0.0
  3
*Paper_Space
  1

  0
ENDBLK
  5
45
330
1C
100
AcDbEntity
 67
     1
  8
0
100
AcDbBlockEnd
  0
BLOCK
  5
F1B
330
F11
100
AcDbEntity
  8
0
100
AcDbBlockBegin
  2
*D0
 70
     1
 10
0.0
 20
0.0
 30
0.0
  3
*D0
  1

  0
LINE
  5
F1E
330
F11
100
AcDbEntity
  8
BEM
 62
     0
370
    -2
100
AcDbLine
 10
66.40169172501177
 20
155.1986396175381
 30
0.0
 11
66.40169172501177
 21
168.5183390002514
 31
0.0
  0
LINE
  5
F1F
330
F11
100
AcDbEntity
  8
BEM
 62
     0
370
    -2
100
AcDbLine
 10
172.9016917250118
 20
155.1986396175381
 30
0.0
 11
172.9016917250118
 21
168.5183390002514
 31
0.0
  0
LINE
  5
F20
330
F11
100
AcDbEntity
  8
BEM
 62
     0
370
    -2
100
AcDbLine
 10
69.90169172501177
 20
167.5183390002514
 30
0.0
 11
169.4016917250118
 21
167.5183390002514
 31
0.0
  0
SOLID
  5
F21
330
F11
100
AcDbEntity
  8
BEM
 62
     0
100
AcDbTrace
 10
69.90169172501177
 20
168.1016723335848
 30
0.0
 11
69.90169172501177
 21
166.9350056669181
 31
0.0
 12
66.40169172501177
 22
167.5183390002514
 32
0.0
 13
66.40169172501177
 23
167.5183390002514
 33
0.0
  0
SOLID
  5
F22
330
F11
100
AcDbEntity
  8
BEM
 62
     0
100
AcDbTrace
 10
169.4016917250118
 20
168.1016723335848
 30
0.0
 11
169.4016917250118
 21
166.9350056669181
 31
0.0
 12
172.9016917250118
 22
167.5183390002514
 32
0.0
 13
172.9016917250118
 23
167.5183390002514
 33
0.0
  0
MTEXT
  5
F23
330
F11
100
AcDbEntity
  8
BEM
 62
     1
100
AcDbMText
 10
119.6516917250117
 20
170.7683390002514
 30
0.0
 40
3.5
 41
0.0
 71
     5
 72
     1
  1
\A1;106.5
 73
     1
 44
1.0
  0
POINT
  5
F24
330
F11
100
AcDbEntity
  8
DEFPOINTS
 62
     0
100
AcDbPoint
 10
66.40169172501177
 20
154.1986396175381
 30
0.0
  0
POINT
  5
F25
330
F11
100
AcDbEntity
  8
DEFPOINTS
 62
     0
100
AcDbPoint
 10
172.9016917250118
 20
154.1986396175381
 30
0.0
  0
POINT
  5
F26
330
F11
100
AcDbEntity
  8
DEFPOINTS
 62
     0
100
AcDbPoint
 10
172.9016917250118
 20
167.5183390002514
 30
0.0
  0
ENDBLK
  5
F1C
330
F11
100
AcDbEntity
  8
0
100
AcDbBlockEnd
  0
BLOCK
  5
F33
330
F29
100
AcDbEntity
  8
0
100
AcDbBlockBegin
  2
*D1
 70
     1
 10
0.0
 20
0.0
 30
0.0
  3
*D1
  1

  0
LINE
  5
F36
330
F29
100
AcDbEntity
  8
BEM
 62
     0
370
    -2
100
AcDbLine
 10
60.40169172501177
 20
155.1986396175381
 30
0.0
 11
60.40169172501177
 21
176.1281056413432
 31
0.0
  0
LINE
  5
F37
330
F29
100
AcDbEntity
  8
BEM
 62
     0
370
    -2
100
AcDbLine
 10
178.9016917250117
 20
155.1986396175381
 30
0.0
 11
178.9016917250117
 21
176.1281056413432
 31
0.0
  0
LINE
  5
F38
330
F29
100
AcDbEntity
  8
BEM
 62
     0
370
    -2
100
AcDbLine
 10
63.90169172501177
 20
175.1281056413432
 30
0.0
 11
175.4016917250117
 21
175.1281056413432
 31
0.0
  0
SOLID
  5
F39
330
F29
100
AcDbEntity
  8
BEM
 62
     0
100
AcDbTrace
 10
63.90169172501177
 20
175.7114389746766
 30
0.0
 11
63.90169172501177
 21
174.5447723080099
 31
0.0
 12
60.40169172501177
 22
175.1281056413432
 32
0.0
 13
60.40169172501177
 23
175.1281056413432
 33
0.0
  0
SOLID
  5
F3A
330
F29
100
AcDbEntity
  8
BEM
 62
     0
100
AcDbTrace
 10
175.4016917250117
 20
175.7114389746766
 30
0.0
 11
175.4016917250117
 21
174.5447723080099
 31
0.0
 12
178.9016917250117
 22
175.1281056413432
 32
0.0
 13
178.9016917250117
 23
175.1281056413432
 33
0.0
  0
MTEXT
  5
F3B
330
F29
100
AcDbEntity
  8
BEM
 62
     1
100
AcDbMText
 10
119.6516917250117
 20
178.3781056413432
 30
0.0
 40
3.5
 41
0.0
 71
     5
 72
     1
  1
\A1;118.5
 73
     1
 44
1.0
  0
POINT
  5
F3C
330
F29
100
AcDbEntity
  8
DEFPOINTS
 62
     0
100
AcDbPoint
 10
60.40169172501177
 20
154.1986396175381
 30
0.0
  0
POINT
  5
F3D
330
F29
100
AcDbEntity
  8
DEFPOINTS
 62
     0
100
AcDbPoint
 10
178.9016917250117
 20
154.1986396175381
 30
0.0
  0
POINT
  5
F3E
330
F29
100
AcDbEntity
  8
DEFPOINTS
 62
     0
100
AcDbPoint
 10
178.9016917250117
 20
175.1281056413432
 30
0.0
  0
ENDBLK
  5
F34
330
F29
100
AcDbEntity
  8
0
100
AcDbBlockEnd
  0
BLOCK
  5
F4B
330
F41
100
AcDbEntity
  8
0
100
AcDbBlockBegin
  2
*D2
 70
     1
 10
0.0
 20
0.0
 30
0.0
  3
*D2
  1

  0
LINE
  5
F4E
330
F41
100
AcDbEntity
  8
BEM
 62
     0
370
    -2
100
AcDbLine
 10
63.40169172501177
 20
143.1986396175381
 30
0.0
 11
63.40169172501177
 21
122.1914495907426
 31
0.0
  0
LINE
  5
F4F
330
F41
100
AcDbEntity
  8
BEM
 62
     0
370
    -2
100
AcDbLine
 10
175.9016917250117
 20
143.1986396175381
 30
0.0
 11
175.9016917250117
 21
122.1914495907426
 31
0.0
  0
LINE
  5
F50
330
F41
100
AcDbEntity
  8
BEM
 62
     0
370
    -2
100
AcDbLine
 10
66.90169172501177
 20
123.1914495907426
 30
0.0
 11
172.4016917250118
 21
123.1914495907426
 31
0.0
  0
SOLID
  5
F51
330
F41
100
AcDbEntity
  8
BEM
 62
     0
100
AcDbTrace
 10
66.90169172501177
 20
123.7747829240759
 30
0.0
 11
66.90169172501177
 21
122.6081162574093
 31
0.0
 12
63.40169172501177
 22
123.1914495907426
 32
0.0
 13
63.40169172501177
 23
123.1914495907426
 33
0.0
  0
SOLID
  5
F52
330
F41
100
AcDbEntity
  8
BEM
 62
     0
100
AcDbTrace
 10
172.4016917250118
 20
123.7747829240759
 30
0.0
 11
172.4016917250118
 21
122.6081162574093
 31
0.0
 12
175.9016917250117
 22
123.1914495907426
 32
0.0
 13
175.9016917250117
 23
123.1914495907426
 33
0.0
  0
MTEXT
  5
F53
330
F41
100
AcDbEntity
  8
BEM
 62
     1
100
AcDbMText
 10
119.6516917250117
 20
126.4414495907426
 30
0.0
 40
3.5
 41
0.0
 71
     5
 72
     1
  1
\A1;112.5
 73
     1
 44
1.0
  0
POINT
  5
F54
330
F41
100
AcDbEntity
  8
DEFPOINTS
 62
     0
100
AcDbPoint
 10
63.40169172501177
 20
144.1986396175381
 30
0.0
  0
POINT
  5
F55
330
F41
100
AcDbEntity
  8
DEFPOINTS
 62
     0
100
AcDbPoint
 10
175.9016917250117
 20
144.1986396175381
 30
0.0
  0
POINT
  5
F56
330
F41
100
AcDbEntity
  8
DEFPOINTS
 62
     0
100
AcDbPoint
 10
175.9016917250117
 20
123.1914495907426
 30
0.0
  0
ENDBLK
  5
F4C
330
F41
100
AcDbEntity
  8
0
100
AcDbBlockEnd
  0
BLOCK
  5
F63
330
F59
100
AcDbEntity
  8
0
100
AcDbBlockBegin
  2
*D3
 70
     1
 10
0.0
 20
0.0
 30
0.0
  3
*D3
  1

  0
LINE
  5
F66
330
F59
100
AcDbEntity
  8
BEM
 62
     0
370
    -2
100
AcDbLine
 10
57.90169172501177
 20
138.1986396175381
 30
0.0
 11
57.90169172501177
 21
113.8207063553965
 31
0.0
  0
LINE
  5
F67
330
F59
100
AcDbEntity
  8
BEM
 62
     0
370
    -2
100
AcDbLine
 10
181.4016917250117
 20
138.1986396175381
 30
0.0
 11
181.4016917250117
 21
113.8207063553965
 31
0.0
  0
LINE
  5
F68
330
F59
100
AcDbEntity
  8
BEM
 62
     0
370
    -2
100
AcDbLine
 10
61.40169172501177
 20
114.8207063553965
 30
0.0
 11
177.9016917250118
 21
114.8207063553965
 31
0.0
  0
SOLID
  5
F69
330
F59
100
AcDbEntity
  8
BEM
 62
     0
100
AcDbTrace
 10
61.40169172501177
 20
115.4040396887298
 30
0.0
 11
61.40169172501177
 21
114.2373730220632
 31
0.0
 12
57.90169172501177
 22
114.8207063553965
 32
0.0
 13
57.90169172501177
 23
114.8207063553965
 33
0.0
  0
SOLID
  5
F6A
330
F59
100
AcDbEntity
  8
BEM
 62
     0
100
AcDbTrace
 10
177.9016917250118
 20
115.4040396887298
 30
0.0
 11
177.9016917250118
 21
114.2373730220632
 31
0.0
 12
181.4016917250117
 22
114.8207063553965
 32
0.0
 13
181.4016917250117
 23
114.8207063553965
 33
0.0
  0
MTEXT
  5
F6B
330
F59
100
AcDbEntity
  8
BEM
 62
     1
100
AcDbMText
 10
119.6516917250117
 20
118.0707063553965
 30
0.0
 40
3.5
 41
0.0
 71
     5
 72
     1
  1
\A1;123.5
 73
     1
 44
1.0
  0
POINT
  5
F6C
330
F59
100
AcDbEntity
  8
DEFPOINTS
 62
     0
100
AcDbPoint
 10
57.90169172501177
 20
139.1986396175381
 30
0.0
  0
POINT
  5
F6D
330
F59
100
AcDbEntity
  8
DEFPOINTS
 62
     0
100
AcDbPoint
 10
181.4016917250117
 20
139.1986396175381
 30
0.0
  0
POINT
  5
F6E
330
F59
100
AcDbEntity
  8
DEFPOINTS
 62
     0
100
AcDbPoint
 10
181.4016917250117
 20
114.8207063553965
 30
0.0
  0
ENDBLK
  5
F64
330
F59
100
AcDbEntity
  8
0
100
AcDbBlockEnd
  0
BLOCK
  5
F7D
330
F71
100
AcDbEntity
  8
0
100
AcDbBlockBegin
  2
*D4
 70
     1
 10
0.0
 20
0.0
 30
0.0
  3
*D4
  1

  0
LINE
  5
F80
330
F71
100
AcDbEntity
  8
BEM
 62
     0
370
    -2
100
AcDbLine
 10
59.90169172501177
 20
136.1986396175381
 30
0.0
 11
51.63190486368148
 21
136.1986396175381
 31
0.0
  0
LINE
  5
F81
330
F71
100
AcDbEntity
  8
BEM
 62
     0
370
    -2
100
AcDbLine
 10
59.90169172501177
 20
142.1986396175381
 30
0.0
 11
51.63190486368148
 21
142.1986396175381
 31
0.0
  0
LINE
  5
F82
330
F71
100
AcDbEntity
  8
BEM
 62
     0
370
    -2
100
AcDbLine
 10
52.63190486368149
 20
132.6986396175381
 30
0.0
 11
52.63190486368149
 21
129.1986396175381
 31
0.0
  0
LINE
  5
F83
330
F71
100
AcDbEntity
  8
BEM
 62
     0
370
    -2
100
AcDbLine
 10
52.63190486368149
 20
145.6986396175381
 30
0.0
 11
52.63190486368149
 21
149.1986396175381
 31
0.0
  0
LINE
  5
F84
330
F71
100
AcDbEntity
  8
BEM
 62
     0
370
    -2
100
AcDbLine
 10
52.63190486368149
 20
136.1986396175381
 30
0.0
 11
52.63190486368149
 21
142.1986396175381
 31
0.0
  0
SOLID
  5
F85
330
F71
100
AcDbEntity
  8
BEM
 62
     0
100
AcDbTrace
 10
52.04857153034815
 20
132.6986396175381
 30
0.0
 11
53.21523819701482
 21
132.6986396175381
 31
0.0
 12
52.63190486368149
 22
136.1986396175381
 32
0.0
 13
52.63190486368149
 23
136.1986396175381
 33
0.0
  0
SOLID
  5
F86
330
F71
100
AcDbEntity
  8
BEM
 62
     0
100
AcDbTrace
 10
52.04857153034815
 20
145.6986396175381
 30
0.0
 11
53.21523819701482
 21
145.6986396175381
 31
0.0
 12
52.63190486368149
 22
142.1986396175381
 32
0.0
 13
52.63190486368149
 23
142.1986396175381
 33
0.0
  0
MTEXT
  5
F87
330
F71
100
AcDbEntity
  8
BEM
 62
     1
100
AcDbMText
 10
49.38190486368146
 20
139.1986396175381
 30
0.0
 40
3.5
 41
0.0
 71
     5
 72
     1
  1
\A1;6
 11
0.0000000000000001
 21
1.0
 31
0.0
 73
     1
 44
1.0
  0
POINT
  5
F88
330
F71
100
AcDbEntity
  8
DEFPOINTS
 62
     0
100
AcDbPoint
 10
60.90169172501177
 20
136.1986396175381
 30
0.0
  0
POINT
  5
F89
330
F71
100
AcDbEntity
  8
DEFPOINTS
 62
     0
100
AcDbPoint
 10
60.90169172501177
 20
142.1986396175381
 30
0.0
  0
POINT
  5
F8A
330
F71
100
AcDbEntity
  8
DEFPOINTS
 62
     0
100
AcDbPoint
 10
52.63190486368149
 20
142.1986396175381
 30
0.0
  0
ENDBLK
  5
F7E
330
F71
100
AcDbEntity
  8
0
100
AcDbBlockEnd
  0
BLOCK
  5
F97
330
F8D
100
AcDbEntity
  8
0
100
AcDbBlockBegin
  2
*D5
 70
     1
 10
0.0
 20
0.0
 30
0.0
  3
*D5
  1

  0
LINE
  5
F9A
330
F8D
100
AcDbEntity
  8
BEM
 62
     0
370
    -2
100
AcDbLine
 10
59.90169172501177
 20
136.1986396175381
 30
0.0
 11
44.20790297619282
 21
136.1986396175381
 31
0.0
  0
LINE
  5
F9B
330
F8D
100
AcDbEntity
  8
BEM
 62
     0
370
    -2
100
AcDbLine
 10
59.40169172501177
 20
154.1986396175381
 30
0.0
 11
44.20790297619283
 21
154.1986396175381
 31
0.0
  0
LINE
  5
F9C
330
F8D
100
AcDbEntity
  8
BEM
 62
     0
370
    -2
100
AcDbLine
 10
45.20790297619281
 20
139.6986396175381
 30
0.0
 11
45.20790297619282
 21
150.6986396175381
 31
0.0
  0
SOLID
  5
F9D
330
F8D
100
AcDbEntity
  8
BEM
 62
     0
100
AcDbTrace
 10
44.62456964285948
 20
139.6986396175381
 30
0.0
 11
45.79123630952615
 21
139.6986396175381
 31
0.0
 12
45.20790297619281
 22
136.1986396175381
 32
0.0
 13
45.20790297619281
 23
136.1986396175381
 33
0.0
  0
SOLID
  5
F9E
330
F8D
100
AcDbEntity
  8
BEM
 62
     0
100
AcDbTrace
 10
44.62456964285949
 20
150.6986396175381
 30
0.0
 11
45.79123630952616
 21
150.6986396175381
 31
0.0
 12
45.20790297619282
 22
154.1986396175381
 32
0.0
 13
45.20790297619282
 23
154.1986396175381
 33
0.0
  0
MTEXT
  5
F9F
330
F8D
100
AcDbEntity
  8
BEM
 62
     1
100
AcDbMText
 10
41.9579029761928
 20
145.1986396175381
 30
0.0
 40
3.5
 41
0.0
 71
     5
 72
     1
  1
\A1;18
 11
0.0000000000000001
 21
1.0
 31
0.0
 73
     1
 44
1.0
  0
POINT
  5
FA0
330
F8D
100
AcDbEntity
  8
DEFPOINTS
 62
     0
100
AcDbPoint
 10
60.90169172501177
 20
136.1986396175381
 30
0.0
  0
POINT
  5
FA1
330
F8D
100
AcDbEntity
  8
DEFPOINTS
 62
     0
100
AcDbPoint
 10
60.40169172501177
 20
154.1986396175381
 30
0.0
  0
POINT
  5
FA2
330
F8D
100
AcDbEntity
  8
DEFPOINTS
 62
     0
100
AcDbPoint
 10
45.20790297619282
 20
154.1986396175381
 30
0.0
  0
ENDBLK
  5
F98
330
F8D
100
AcDbEntity
  8
0
100
AcDbBlockEnd
  0
BLOCK
  5
FAF
330
FA5
100
AcDbEntity
  8
0
100
AcDbBlockBegin
  2
*D6
 70
     1
 10
0.0
 20
0.0
 30
0.0
  3
*D6
  1

  0
LINE
  5
FB2
330
FA5
100
AcDbEntity
  8
BEM
 62
     0
370
    -2
100
AcDbLine
 10
59.90169172501177
 20
136.1986396175381
 30
0.0
 11
37.20790297619282
 21
136.1986396175381
 31
0.0
  0
LINE
  5
FB3
330
FA5
100
AcDbEntity
  8
BEM
 62
     0
370
    -2
100
AcDbLine
 10
62.86579334014952
 20
159.1986396175381
 30
0.0
 11
37.20790297619283
 21
159.1986396175381
 31
0.0
  0
LINE
  5
FB4
330
FA5
100
AcDbEntity
  8
BEM
 62
     0
370
    -2
100
AcDbLine
 10
38.20790297619282
 20
139.6986396175381
 30
0.0
 11
38.20790297619283
 21
155.6986396175381
 31
0.0
  0
SOLID
  5
FB5
330
FA5
100
AcDbEntity
  8
BEM
 62
     0
100
AcDbTrace
 10
37.62456964285949
 20
139.6986396175381
 30
0.0
 11
38.79123630952616
 21
139.6986396175381
 31
0.0
 12
38.20790297619282
 22
136.1986396175381
 32
0.0
 13
38.20790297619282
 23
136.1986396175381
 33
0.0
  0
SOLID
  5
FB6
330
FA5
100
AcDbEntity
  8
BEM
 62
     0
100
AcDbTrace
 10
37.62456964285949
 20
155.6986396175381
 30
0.0
 11
38.79123630952616
 21
155.6986396175381
 31
0.0
 12
38.20790297619283
 22
159.1986396175381
 32
0.0
 13
38.20790297619283
 23
159.1986396175381
 33
0.0
  0
MTEXT
  5
FB7
330
FA5
100
AcDbEntity
  8
BEM
 62
     1
100
AcDbMText
 10
34.9579029761928
 20
147.6986396175381
 30
0.0
 40
3.5
 41
0.0
 71
     5
 72
     1
  1
\A1;23
 11
0.0000000000000001
 21
1.0
 31
0.0
 73
     1
 44
1.0
  0
POINT
  5
FB8
330
FA5
100
AcDbEntity
  8
DEFPOINTS
 62
     0
100
AcDbPoint
 10
60.90169172501177
 20
136.1986396175381
 30
0.0
  0
POINT
  5
FB9
330
FA5
100
AcDbEntity
  8
DEFPOINTS
 62
     0
100
AcDbPoint
 10
63.86579334014952
 20
159.1986396175381
 30
0.0
  0
POINT
  5
FBA
330
FA5
100
AcDbEntity
  8
DEFPOINTS
 62
     0
100
AcDbPoint
 10
38.20790297619283
 20
159.1986396175381
 30
0.0
  0
ENDBLK
  5
FB0
330
FA5
100
AcDbEntity
  8
0
100
AcDbBlockEnd
  0
ENDSEC
  0
SECTION
  2
ENTITIES
  0
LINE
  5
144
330
20
100
AcDbEntity
  8
HILF
100
AcDbLine
 10
210.0
 20
0.0
 30
0.0
 11
0.0
 21
0.0
 31
0.0
  0
LINE
  5
145
330
20
100
AcDbEntity
  8
HILF
100
AcDbLine
 10
210.0
 20
297.0000000000001
 30
0.0
 11
0.0
 21
297.0
 31
0.0
  0
LINE
  5
146
330
20
100
AcDbEntity
  8
STEMPEL
100
AcDbLine
 10
205.0
 20
292.0
 30
0.0
 11
19.99999999999994
 21
292.0
 31
0.0
  0
LINE
  5
147
330
20
100
AcDbEntity
  8
STEMPEL
100
AcDbLine
 10
205.0
 20
5.0
 30
0.0
 11
19.99999999999994
 21
5.0
 31
0.0
  0
LINE
  5
148
330
20
100
AcDbEntity
  8
STEMPEL
100
AcDbLine
 10
24.99999999999995
 20
5.0
 30
0.0
 11
205.0
 21
5.0
 31
0.0
  0
LINE
  5
149
330
20
100
AcDbEntity
  8
HILF
100
AcDbLine
 10
111.7454849644942
 20
7.446991290141568
 30
0.0
 11
202.4294419663364
 21
7.446991290141568
 31
0.0
  0
LINE
  5
14A
330
20
100
AcDbEntity
  8
HILF
100
AcDbLine
 10
112.3868400548474
 20
24.99999999999999
 30
0.0
 11
162.4176958278155
 21
24.99999999999999
 31
0.0
  0
LINE
  5
14B
330
20
100
AcDbEntity
  8
HILF
100
AcDbLine
 10
112.3868400548474
 20
29.99999999999999
 30
0.0
 11
162.4176958278155
 21
29.99999999999999
 31
0.0
  0
LINE
  5
14C
330
20
100
AcDbEntity
  8
HILF
100
AcDbLine
 10
112.3868400548474
 20
34.99999999999997
 30
0.0
 11
162.4176958278155
 21
34.99999999999997
 31
0.0
  0
LINE
  5
14D
330
20
100
AcDbEntity
  8
HILF
100
AcDbLine
 10
112.3868400548474
 20
42.01879123782069
 30
0.0
 11
162.4176958278155
 21
42.01879123782069
 31
0.0
  0
LINE
  5
14E
330
20
100
AcDbEntity
  8
STEMPEL
100
AcDbLine
 10
205.0
 20
40.0
 30
0.0
 11
68.00000000000006
 21
39.99999999999997
 31
0.0
  0
LINE
  5
14F
330
20
100
AcDbEntity
  8
STEMPEL
100
AcDbLine
 10
205.0
 20
20.0
 30
0.0
 11
68.00000000000006
 21
19.99999999999998
 31
0.0
  0
LINE
  5
150
330
20
100
AcDbEntity
  8
STEMPEL
100
AcDbLine
 10
205.0
 20
55.00000000000003
 30
0.0
 11
19.99999999999998
 21
55.0
 31
0.0
  0
LINE
  5
154
330
20
100
AcDbEntity
  8
HILF
100
AcDbLine
 10
0.0
 20
0.0
 30
0.0
 11
-0.0000000000000568
 21
297.0
 31
0.0
  0
LINE
  5
155
330
20
100
AcDbEntity
  8
STEMPEL
100
AcDbLine
 10
20.0
 20
5.0
 30
0.0
 11
19.99999999999994
 21
292.0
 31
0.0
  0
TEXT
  5
15C
330
20
100
AcDbEntity
  8
TEXT
100
AcDbText
 10
21.16299821803051
 20
55.83599999999997
 30
0.0
 40
2.5
  1
Erstellt mit AUTOCAD 2004
 41
0.8
  7
GREEKS
100
AcDbText
  0
LINE
  5
15D
330
20
100
AcDbEntity
  8
HILF
100
AcDbLine
 10
20.00000000000004
 20
19.99999999999998
 30
0.0
 11
68.00000000000006
 21
19.99999999999998
 31
0.0
  0
LINE
  5
15E
330
20
100
AcDbEntity
  8
HILF
100
AcDbLine
 10
20.00000000000004
 20
24.99999999999999
 30
0.0
 11
68.00000000000006
 21
24.99999999999999
 31
0.0
  0
LINE
  5
15F
330
20
100
AcDbEntity
  8
HILF
100
AcDbLine
 10
20.00000000000004
 20
29.99999999999999
 30
0.0
 11
68.00000000000006
 21
29.99999999999999
 31
0.0
  0
LINE
  5
160
330
20
100
AcDbEntity
  8
HILF
100
AcDbLine
 10
20.00000000000004
 20
34.99999999999997
 30
0.0
 11
68.00000000000006
 21
34.99999999999997
 31
0.0
  0
LINE
  5
161
330
20
100
AcDbEntity
  8
HILF
100
AcDbLine
 10
20.00000000000004
 20
39.99999999999997
 30
0.0
 11
68.00000000000006
 21
39.99999999999997
 31
0.0
  0
LINE
  5
162
330
20
100
AcDbEntity
  8
HILF
100
AcDbLine
 10
20.00000000000004
 20
45.00000000000002
 30
0.0
 11
68.00000000000006
 21
45.00000000000002
 31
0.0
  0
LINE
  5
163
330
20
100
AcDbEntity
  8
HILF
100
AcDbLine
 10
20.00000000000004
 20
50.00000000000003
 30
0.0
 11
68.00000000000006
 21
50.00000000000003
 31
0.0
  0
LINE
  5
164
330
20
100
AcDbEntity
  8
STEMPEL
100
AcDbLine
 10
67.99999999999994
 20
14.99999999999998
 30
0.0
 11
19.99999999999998
 21
14.99999999999998
 31
0.0
  0
TEXT
  5
165
330
20
100
AcDbEntity
  8
TEXT
100
AcDbText
 10
49.79273626936724
 20
9.33578134669905
 30
0.0
 40
2.0
  1
Tag
 41
0.8
  7
GREEKS
 72
     1
 11
51.65940293603391
 21
9.33578134669905
 31
0.0
100
AcDbText
  0
TEXT
  5
166
330
20
100
AcDbEntity
  8
TEXT
100
AcDbText
 10
31.1234419470788
 20
9.336909474920659
 30
0.0
 40
2.0
  1
Änderung
 41
0.8
  7
GREEKS
 72
     1
 11
36.49487051850737
 21
9.336909474920659
 31
0.0
100
AcDbText
  0
TEXT
  5
167
330
20
100
AcDbEntity
  8
TEXT
100
AcDbText
 10
24.13320553522878
 20
6.827329230135958
 30
0.0
 40
1.8
  1
Index
 50
90.0
 41
0.8
  7
GREEKS
100
AcDbText
  0
LINE
  5
168
330
20
100
AcDbEntity
  8
VOLL
100
AcDbLine
 10
57.00000000000006
 20
54.99999999999997
 30
0.0
 11
57.0
 21
4.999999999999985
 31
0.0
  0
LINE
  5
169
330
20
100
AcDbEntity
  8
VOLL
100
AcDbLine
 10
47.00000000000005
 20
54.99999999999997
 30
0.0
 11
47.0
 21
4.999999999999985
 31
0.0
  0
LINE
  5
16A
330
20
100
AcDbEntity
  8
VOLL
100
AcDbLine
 10
27.00000000000005
 20
55.00000000000003
 30
0.0
 11
26.99999999999999
 21
4.999999999999985
 31
0.0
  0
LINE
  5
16E
330
20
100
AcDbEntity
  8
HILF
100
AcDbLine
 10
15.54383567856928
 20
148.5
 30
0.0
 11
0.0000000000000568
 21
148.5
 31
0.0
  0
TEXT
  5
17F
330
20
100
AcDbEntity
  8
TEXT
100
AcDbText
 10
92.14294773670257
 20
51.20920842174095
 30
0.0
 40
2.5
  1
Zul. Abw.
 41
0.8
  7
GREEKS
100
AcDbText
  0
LINE
  5
180
330
20
100
AcDbEntity
  8
HILF
100
AcDbLine
 10
68.00000000000006
 20
24.99999999999999
 30
0.0
 11
110.0
 21
24.99999999999999
 31
0.0
  0
LINE
  5
181
330
20
100
AcDbEntity
  8
HILF
100
AcDbLine
 10
68.00000000000006
 20
29.99999999999999
 30
0.0
 11
110.0
 21
29.99999999999999
 31
0.0
  0
LINE
  5
182
330
20
100
AcDbEntity
  8
HILF
100
AcDbLine
 10
68.00000000000006
 20
34.99999999999997
 30
0.0
 11
110.0
 21
34.99999999999997
 31
0.0
  0
ARC
  5
183
330
20
100
AcDbEntity
  8
TEXT
 62
     3
100
AcDbCircle
 10
82.09750516967082
 20
13.23892712376011
 30
0.0
 40
4.5
100
AcDbArc
 50
270.0
 51
231.0575587310159
  0
ARC
  5
184
330
20
100
AcDbEntity
  8
TEXT
 62
     3
100
AcDbCircle
 10
102.0975051696708
 20
13.23892712376014
 30
0.0
 40
4.5
100
AcDbArc
 50
270.0
 51
231.0575587310182
  0
LINE
  5
185
330
20
100
AcDbEntity
  8
TEXT
 62
     3
100
AcDbLine
 10
88.09750516967083
 20
17.73892712376014
 30
0.0
 11
88.09750516967085
 21
8.738927123760138
 31
0.0
  0
ARC
  5
186
330
20
100
AcDbEntity
  8
TEXT
 62
     3
100
AcDbCircle
 10
75.09750516967085
 20
10.73892712376028
 30
0.0
 40
2.0
100
AcDbArc
 50
179.9999999999992
 51
270.0
  0
LINE
  5
187
330
20
100
AcDbEntity
  8
TEXT
 62
     3
100
AcDbLine
 10
89.09750516967084
 20
12.73892712376014
 30
0.0
 11
89.09750516967084
 21
8.738927123760166
 31
0.0
  0
LINE
  5
188
330
20
100
AcDbEntity
  8
TEXT
 62
     3
100
AcDbLine
 10
93.09750516967085
 20
12.73892712376014
 30
0.0
 11
94.16930193939533
 21
8.738927123760138
 31
0.0
  0
LINE
  5
189
330
20
100
AcDbEntity
  8
STEMPEL
100
AcDbLine
 10
68.00000000000006
 20
54.99999999999997
 30
0.0
 11
68.0
 21
4.999999999999985
 31
0.0
  0
LINE
  5
18A
330
20
100
AcDbEntity
  8
TEXT
 62
     3
100
AcDbLine
 10
82.09750516967085
 20
8.738927123760166
 30
0.0
 11
75.09750516967085
 21
8.738927123760138
 31
0.0
  0
LINE
  5
18B
330
20
100
AcDbEntity
  8
TEXT
 62
     3
100
AcDbLine
 10
102.0975051696708
 20
8.738927123760138
 30
0.0
 11
94.1693019393953
 21
8.738927123760166
 31
0.0
  0
LINE
  5
18C
330
20
100
AcDbEntity
  8
TEXT
 62
     3
100
AcDbLine
 10
89.09750516967084
 20
8.738927123760166
 30
0.0
 11
88.09750516967085
 21
8.738927123760166
 31
0.0
  0
CIRCLE
  5
18D
330
20
100
AcDbEntity
  8
TEXT
 62
     3
100
AcDbCircle
 10
82.09750516967082
 20
13.23892712376011
 30
0.0
 40
3.5
  0
TEXT
  5
18E
330
20
100
AcDbEntity
  8
TEXT
100
AcDbText
 10
80.16366688624525
 20
31.6381230352273
 30
0.0
 40
2.0
  1
24.06.
 41
0.8
  7
GREEKS
 72
     1
 11
83.66842879100715
 21
31.6381230352273
 31
0.0
100
AcDbText
  0
TEXT
  5
18F
330
20
100
AcDbEntity
  8
TEXT
100
AcDbText
 10
81.16558365768254
 20
36.65940250614963
 30
0.0
 40
1.8
  1
Tag
 41
0.8
  7
GREEKS
100
AcDbText
  0
TEXT
  5
190
330
20
100
AcDbEntity
  8
TEXT
100
AcDbText
 10
71.75817860751886
 20
51.23104475435443
 30
0.0
 40
2.5
  1
Maßstab
 41
0.8
  7
GREEKS
100
AcDbText
  0
TEXT
  5
191
330
20
100
AcDbEntity
  8
TEXT
100
AcDbText
 10
68.79180635838077
 20
31.81495184808982
 30
0.0
 40
1.8
  1
Gez.
 41
0.8
  7
GREEKS
100
AcDbText
  0
LINE
  5
192
330
20
100
AcDbEntity
  8
VOLL
100
AcDbLine
 10
77.00000000000006
 20
39.99999999999997
 30
0.0
 11
77.00000000000006
 21
19.99999999999998
 31
0.0
  0
TEXT
  5
193
330
20
100
AcDbEntity
  8
TEXT
100
AcDbText
 10
68.80033886936519
 20
21.76473194824904
 30
0.0
 40
1.8
  1
Norm.
 41
0.8
  7
GREEKS
100
AcDbText
  0
TEXT
  5
194
330
20
100
AcDbEntity
  8
TEXT
100
AcDbText
 10
68.77575432858361
 20
26.84463145714189
 30
0.0
 40
1.8
  1
Gepr.
 41
0.8
  7
GREEKS
100
AcDbText
  0
TEXT
  5
195
330
20
100
AcDbEntity
  8
TEXT
100
AcDbText
 10
59.44494414379217
 20
9.29662108483204
 30
0.0
 40
2.0
  1
Name
 41
0.8
  7
GREEKS
 72
     1
 11
62.60684890569694
 21
9.29662108483204
 31
0.0
100
AcDbText
  0
LINE
  5
197
330
20
100
AcDbEntity
  8
TEXT
 62
     3
100
AcDbLine
 10
79.26907804492447
 20
9.738927123760252
 30
0.0
 11
75.09750516967085
 21
9.73892712376028
 31
0.0
  0
LINE
  5
198
330
20
100
AcDbEntity
  8
TEXT
 62
     3
100
AcDbLine
 10
74.09750516967083
 20
17.73892712376008
 30
0.0
 11
74.09750516967085
 21
10.73892712376028
 31
0.0
  0
LINE
  5
199
330
20
100
AcDbEntity
  8
TEXT
 62
     3
100
AcDbLine
 10
73.09750516967082
 20
17.73892712376008
 30
0.0
 11
73.09750516967085
 21
10.73892712376028
 31
0.0
  0
ARC
  5
19A
330
20
100
AcDbEntity
  8
TEXT
 62
     3
100
AcDbCircle
 10
75.09750516967085
 20
10.73892712376028
 30
0.0
 40
1.0
100
AcDbArc
 50
180.0
 51
270.0
  0
LINE
  5
19B
330
20
100
AcDbEntity
  8
TEXT
 62
     3
100
AcDbLine
 10
74.09750516967083
 20
17.73892712376014
 30
0.0
 11
73.09750516967082
 21
17.73892712376014
 31
0.0
  0
TEXT
  5
19C
330
20
100
AcDbEntity
  8
TEXT
100
AcDbText
 10
69.31105491105199
 20
36.57012735575833
 30
0.0
 40
1.8
  1
2008
 41
0.8
  7
GREEKS
100
AcDbText
  0
TEXT
  5
19E
330
20
100
AcDbEntity
  8
TEXT
 62
     1
100
AcDbText
 10
75.62939046306187
 20
43.47879250756998
 30
0.0
 40
3.5
  1
1:1
 41
0.8
  7
GREEKS
100
AcDbText
  0
TEXT
  5
19F
330
20
100
AcDbEntity
  8
TEXT
100
AcDbText
 10
97.42845740347638
 20
31.54481959861755
 30
0.0
 40
2.0
  1
Koeh
 41
0.8
  7
GREEKS
 72
     1
 11
100.0570288320478
 21
31.54481959861755
 31
0.0
100
AcDbText
  0
LINE
  5
1A0
330
20
100
AcDbEntity
  8
VOLL
100
AcDbLine
 10
90.00000000000005
 20
54.99999999999992
 30
0.0
 11
90.0
 21
19.99999999999998
 31
0.0
  0
LINE
  5
1A1
330
20
100
AcDbEntity
  8
TEXT
 62
     3
100
AcDbLine
 10
99.26907804492465
 20
9.738927123760138
 30
0.0
 11
94.93662892737432
 21
9.738927123760166
 31
0.0
  0
LINE
  5
1A2
330
20
100
AcDbEntity
  8
TEXT
 62
     3
100
AcDbLine
 10
93.09750516967085
 20
12.73892712376014
 30
0.0
 11
89.09750516967083
 21
12.73892712376014
 31
0.0
  0
LINE
  5
1A3
330
20
100
AcDbEntity
  8
TEXT
 62
     3
100
AcDbLine
 10
93.09750516967085
 20
13.73892712376014
 30
0.0
 11
89.09750516967084
 21
13.73892712376014
 31
0.0
  0
LINE
  5
1A4
330
20
100
AcDbEntity
  8
TEXT
 62
     3
100
AcDbLine
 10
93.09750516967085
 20
16.73892712376014
 30
0.0
 11
89.09750516967084
 21
16.73892712376014
 31
0.0
  0
LINE
  5
1A5
330
20
100
AcDbEntity
  8
TEXT
 62
     3
100
AcDbLine
 10
93.09750516967085
 20
17.73892712376014
 30
0.0
 11
88.09750516967085
 21
17.73892712376014
 31
0.0
  0
LINE
  5
1A6
330
20
100
AcDbEntity
  8
TEXT
 62
     3
100
AcDbLine
 10
89.09750516967084
 20
16.73892712376014
 30
0.0
 11
89.09750516967084
 21
13.73892712376014
 31
0.0
  0
ARC
  5
1A7
330
20
100
AcDbEntity
  8
TEXT
 62
     3
100
AcDbCircle
 10
93.09750516967085
 20
15.23892712376014
 30
0.0
 40
2.5
100
AcDbArc
 50
293.1161887722295
 51
90.0
  0
ARC
  5
1A8
330
20
100
AcDbEntity
  8
TEXT
 62
     3
100
AcDbCircle
 10
93.09750516967085
 20
15.23892712376014
 30
0.0
 40
1.5
100
AcDbArc
 50
270.0
 51
90.0
  0
ARC
  5
1A9
330
20
100
AcDbEntity
  8
TEXT
 62
     3
100
AcDbCircle
 10
93.09750516967085
 20
15.23892712376014
 30
0.0
 40
2.5
100
AcDbArc
 50
270.0
 51
270.0000000000007
  0
LINE
  5
1AA
330
20
100
AcDbEntity
  8
TEXT
 62
     3
100
AcDbLine
 10
94.06343099595991
 20
12.99774616886265
 30
0.0
 11
94.93662892737431
 21
9.738927123760166
 31
0.0
  0
CIRCLE
  5
1AB
330
20
100
AcDbEntity
  8
TEXT
 62
     3
100
AcDbCircle
 10
102.0975051696708
 20
13.23892712376014
 30
0.0
 40
3.5
  0
TEXT
  5
1AC
330
20
100
AcDbEntity
  8
TEXT
100
AcDbText
 10
91.3473965120978
 20
44.64562352614806
 30
0.0
 40
2.0
  1
DIN EN1123-2
 41
0.8
  7
GREEKS
 72
     1
 11
99.8426346073359
 21
44.64562352614806
 31
0.0
100
AcDbText
  0
TEXT
  5
1AD
330
20
100
AcDbEntity
  8
TEXT
100
AcDbText
 10
96.23132921131475
 20
36.65480545957612
 30
0.0
 40
1.8
  1
Name
 41
0.8
  7
GREEKS
100
AcDbText
  0
LINE
  5
1AE
330
20
100
AcDbEntity
  8
STEMPEL
100
AcDbLine
 10
110.0
 20
55.00000000000003
 30
0.0
 11
110.0
 21
4.999999999999985
 31
0.0
  0
TEXT
  5
1AF
330
20
100
AcDbEntity
  8
TEXT
100
AcDbText
 10
112.5648195562657
 20
25.82005971521079
 30
0.0
 40
2.5
  1
EDV-Art.Nr. 00937.100X
 41
0.8
  7
GREEKS
100
AcDbText
  0
TEXT
  5
1B0
330
20
100
AcDbEntity
  8
TEXT
100
AcDbText
 10
112.371119195568
 20
15.42280285096528
 30
0.0
 40
2.5
  1
Bauvorhaben
 41
0.8
  7
GREEKS
100
AcDbText
  0
TEXT
  5
1B1
330
20
100
AcDbEntity
  8
TEXT
 62
     1
100
AcDbText
 10
113.4467865528701
 20
43.70874394626889
 30
0.0
 40
3.5
  1
Dichtelement DN100
 41
0.8
  7
GREEKS
100
AcDbText
  0
TEXT
  5
1B2
330
20
100
AcDbEntity
  8
TEXT
100
AcDbText
 10
112.4918750788913
 20
21.31487076511316
 30
0.0
 40
1.8
  1
00937100W.DWG
 41
0.8
  7
GREEKS
100
AcDbText
  0
TEXT
  5
1B3
330
20
100
AcDbEntity
  8
TEXT
100
AcDbText
 10
112.4389701904505
 20
51.27446640058898
 30
0.0
 40
2.5
  1
Benennung
 41
0.8
  7
GREEKS
100
AcDbText
  0
LINE
  5
1EF
330
20
100
AcDbEntity
  8
HILF
100
AcDbLine
 10
210.0
 20
-0.0000000000000568
 30
0.0
 11
210.0
 21
297.0
 31
0.0
  0
LINE
  5
1F0
330
20
100
AcDbEntity
  8
STEMPEL
100
AcDbLine
 10
205.0
 20
55.00000000000003
 30
0.0
 11
205.0
 21
292.0
 31
0.0
  0
LINE
  5
1F1
330
20
100
AcDbEntity
  8
STEMPEL
100
AcDbLine
 10
205.0
 20
55.00000000000003
 30
0.0
 11
205.0
 21
5.0
 31
0.0
  0
TEXT
  5
1F2
330
20
100
AcDbEntity
  8
TEXT
 62
     1
100
AcDbText
 10
171.8905253938001
 20
44.07450714456979
 30
0.0
 40
3.5
  1
00937100W
 41
0.8
  7
GREEKS
 72
     1
 11
183.6238587271335
 21
44.07450714456979
 31
0.0
100
AcDbText
  0
TEXT
  5
1F4
330
20
100
AcDbEntity
  8
TEXT
100
AcDbText
 10
168.6200430748503
 20
26.03708088939301
 30
0.0
 40
2.5
  1
ersetzt durch:
 41
0.8
  7
GREEKS
100
AcDbText
  0
TEXT
  5
1F5
330
20
100
AcDbEntity
  8
TEXT
100
AcDbText
 10
168.3619308148496
 20
36.59059118549985
 30
0.0
 40
2.5
  1
Ersatz für:
 41
0.8
  7
GREEKS
100
AcDbText
  0
TEXT
  5
1F6
330
20
100
AcDbEntity
  8
TEXT
100
AcDbText
 10
168.089377478817
 20
51.15660172685682
 30
0.0
 40
2.5
  1
Zeichnungs Nr.
 41
0.8
  7
GREEKS
100
AcDbText
  0
LINE
  5
1F7
330
20
100
AcDbEntity
  8
HILF
100
AcDbLine
 10
168.3619308148496
 20
41.88991818477913
 30
0.0
 11
202.4294419663364
 21
41.88991818477913
 31
0.0
  0
LINE
  5
1F8
330
20
100
AcDbEntity
  8
VOLL
100
AcDbLine
 10
166.0
 20
30.0
 30
0.0
 11
205.0
 21
30.0
 31
0.0
  0
LINE
  5
1F9
330
20
100
AcDbEntity
  8
STEMPEL
100
AcDbLine
 10
166.0
 20
54.99999999999989
 30
0.0
 11
166.0
 21
20.0
 31
0.0
  0
TEXT
  5
208
330
20
100
AcDbEntity
  8
TEXT
100
AcDbText
 10
99.8426346073359
 20
42.01939489256613
 30
0.0
 40
2.0
  1

 41
0.8
  7
GREEKS
 72
     1
 11
99.8426346073359
 21
42.01939489256613
 31
0.0
100
AcDbText
  0
TEXT
  5
249
330
20
100
AcDbEntity
  8
BEM
100
AcDbText
 10
208.2905770718719
 20
6.074024076691515
 30
0.0
 40
2.0
  1
Diese Zeichnung ist urheberrechtlich geschützt und bleibt unser Eigentum. Sie darf weder ganz noch teilweise vervielfältigt und nicht an Dritte weitergegeben werden.
 50
90.0
 41
0.8
  7
GREEKS
100
AcDbText
  0
TEXT
  5
C74
330
20
100
AcDbEntity
  8
TEXT
 62
     1
100
AcDbText
 10
79.92076801469238
 20
63.17904385584265
 30
0.0
 40
3.5
  1
Farbe: schwarz
 41
0.8
  7
GREEKS
100
AcDbText
  0
TEXT
  5
C75
330
20
100
AcDbEntity
  8
TEXT
 62
     1
100
AcDbText
 10
72.09387902890256
 20
69.17904385584265
 30
0.0
 40
3.5
  1
Werkstoff: Styrol-Butadien-Kautschuk (SBR) 50%%P5 IRHD
 41
0.8
  7
GREEKS
100
AcDbText
  0
TEXT
  5
E87
330
20
100
AcDbEntity
  8
TEXT
100
AcDbText
 10
112.5648195562657
 20
35.82005971521077
 30
0.0
 40
2.5
  1
für KA-Muffe DN100
 41
0.8
  7
GREEKS
100
AcDbText
  0
HATCH
  5
EB9
330
20
100
AcDbEntity
  8
SCHRAFF
100
AcDbHatch
 10
0.0
 20
0.0
 30
0.0
210
0.0
220
0.0
230
1.0
  2
NET
 70
     0
 71
     1
 91
        2
 92
        7
 72
     1
 73
     1
 93
       17
 10
175.9016917250117
 20
136.1986396175381
 42
0.0
 10
178.4016917250117
 20
136.1986396175381
 42
1.0
 10
178.4016917250117
 20
142.1986396175381
 42
0.0
 10
177.9016917250118
 20
142.1986396175381
 42
-0.4142135623730951
 10
175.9016917250117
 20
144.1986396175381
 42
0.0
 10
175.9016917250118
 20
154.1986396175381
 42
0.0
 10
178.9016917250117
 20
154.1986396175381
 42
0.0
 10
178.9016917250117
 20
155.1986396175382
 42
0.0
 10
177.1696409174429
 20
158.1986396175381
 42
0.2778685794268477
 10
175.3637528309802
 20
159.19727616685
 42
0.3750300771188795
 10
173.5210520092512
 20
157.7112063373386
 42
0.0
 10
172.9016917250118
 20
154.1986396175381
 42
0.0
 10
172.9016917250118
 20
147.4044109834781
 42
-0.1316524975873956
 10
171.8298949552872
 20
143.4044109834781
 42
0.0
 10
169.4016917250118
 20
139.1986396175381
 42
0.0
 10
169.4016917250118
 20
138.1986396175381
 42
0.0
 10
172.437590109874
 20
138.1986396175382
 42
0.0
 97
       17
330
EC0
330
EC6
330
EC2
330
EBD
330
EBA
330
EBC
330
EBB
330
EBF
330
EBE
330
EC3
330
EC1
330
EC7
330
EC4
330
EDB
330
EC5
330
ED9
330
EC8
 92
        7
 72
     1
 73
     1
 93
       17
 10
61.40169172501177
 20
142.1986396175381
 42
0.0
 10
60.90169172501177
 20
142.1986396175381
 42
1.0
 10
60.90169172501177
 20
136.1986396175381
 42
0.0
 10
63.40169172501179
 20
136.1986396175381
 42
0.0
 10
66.86579334014952
 20
138.1986396175381
 42
0.0
 10
69.90169172501175
 20
138.1986396175381
 42
0.0
 10
69.90169172501177
 20
139.1986396175381
 42
0.0
 10
67.47348849473628
 20
143.4044109834781
 42
-0.1316524975873965
 10
66.40169172501177
 20
147.4044109834782
 42
0.0
 10
66.40169172501176
 20
154.1986396175381
 42
0.0
 10
65.78233144077231
 20
157.7112063373386
 42
0.3750300771188495
 10
63.9396306190435
 20
159.19727616685
 42
0.277868579426874
 10
62.13374253258064
 20
158.1986396175381
 42
0.0
 10
60.40169172501178
 20
155.1986396175381
 42
0.0
 10
60.40169172501178
 20
154.1986396175381
 42
0.0
 10
63.40169172501177
 20
154.1986396175381
 42
0.0
 10
63.40169172501177
 20
144.1986396175381
 42
-0.414213562373094
 97
       17
330
ED2
330
ED5
330
ECC
330
ECD
330
ED1
330
ED0
330
ECF
330
ECE
330
ED4
330
ED8
330
ED3
330
ED7
330
ED9
330
ED6
330
EDB
330
ECA
330
EDC
 75
     0
 76
     1
 52
45.0
 41
10.0
 77
     0
 78
     2
 53
45.0
 43
-10.84022377512542
 44
109.6705615333824
 45
-0.8838834764831842
 46
0.8838834764831844
 79
     0
 53
135.0
 43
-10.84022377512542
 44
109.6705615333824
 45
-0.8838834764831844
 46
-0.8838834764831842
 79
     0
 47
0.168002819809473
 98
        2
 10
173.6199311255761
 20
139.6582652634799
 10
62.48595134080847
 20
140.330276615753
  0
LINE
  5
EBA
102
{ACAD_REACTORS
330
EB9
102
}
330
20
100
AcDbEntity
  8
STEMPEL
100
AcDbLine
 10
178.9016917250117
 20
154.1986396175381
 30
0.0
 11
178.9016917250117
 21
155.1986396175381
 31
0.0
  0
ARC
  5
EBB
102
{ACAD_REACTORS
330
EB9
102
}
330
20
100
AcDbEntity
  8
STEMPEL
100
AcDbCircle
 10
175.437590109874
 20
157.1986396175381
 30
0.0
 40
2.0
100
AcDbArc
 50
30.00000000000014
 51
90.0
  0
LINE
  5
EBC
102
{ACAD_REACTORS
330
EB9
102
}
330
20
100
AcDbEntity
  8
STEMPEL
100
AcDbLine
 10
178.9016917250117
 20
155.1986396175381
 30
0.0
 11
177.1696409174429
 21
158.1986396175381
 31
0.0
  0
LINE
  5
EBD
102
{ACAD_REACTORS
330
EB9
330
F3F
102
}
330
20
100
AcDbEntity
  8
STEMPEL
100
AcDbLine
 10
175.9016917250117
 20
154.1986396175381
 30
0.0
 11
178.9016917250117
 21
154.1986396175381
 31
0.0
  0
LINE
  5
EBE
102
{ACAD_REACTORS
330
EB9
102
}
330
20
100
AcDbEntity
  8
STEMPEL
100
AcDbLine
 10
172.9016917250118
 20
154.1986396175381
 30
0.0
 11
173.5210520092512
 21
157.7112063373386
 31
0.0
  0
ARC
  5
EBF
102
{ACAD_REACTORS
330
EB9
102
}
330
20
100
AcDbEntity
  8
STEMPEL
100
AcDbCircle
 10
175.2937059646732
 20
157.3986396175381
 30
0.0
 40
1.8
100
AcDbArc
 50
90.0
 51
169.9999999999997
  0
LINE
  5
EC0
102
{ACAD_REACTORS
330
EB9
102
}
330
20
100
AcDbEntity
  8
STEMPEL
100
AcDbLine
 10
177.9016917250118
 20
142.1986396175381
 30
0.0
 11
178.4016917250117
 21
142.1986396175381
 31
0.0
  0
ARC
  5
EC1
102
{ACAD_REACTORS
330
EB9
102
}
330
20
100
AcDbEntity
  8
STEMPEL
100
AcDbCircle
 10
164.9016917250117
 20
147.4044109834781
 30
0.0
 40
8.0
100
AcDbArc
 50
329.9999999999999
 51
0.0
  0
LINE
  5
EC2
102
{ACAD_REACTORS
330
EB9
102
}
330
20
100
AcDbEntity
  8
STEMPEL
100
AcDbLine
 10
175.9016917250117
 20
144.1986396175381
 30
0.0
 11
175.9016917250117
 21
154.1986396175381
 31
0.0
  0
LINE
  5
EC3
102
{ACAD_REACTORS
330
EB9
102
}
330
20
100
AcDbEntity
  8
STEMPEL
100
AcDbLine
 10
172.9016917250118
 20
147.4044109834781
 30
0.0
 11
172.9016917250118
 21
154.1986396175381
 31
0.0
  0
LINE
  5
EC4
102
{ACAD_REACTORS
330
EB9
102
}
330
20
100
AcDbEntity
  8
STEMPEL
100
AcDbLine
 10
169.4016917250118
 20
138.1986396175381
 30
0.0
 11
169.4016917250118
 21
139.1986396175381
 31
0.0
  0
LINE
  5
EC5
102
{ACAD_REACTORS
330
EB9
102
}
330
20
100
AcDbEntity
  8
STEMPEL
100
AcDbLine
 10
175.9016917250117
 20
136.1986396175381
 30
0.0
 11
172.437590109874
 21
138.1986396175381
 31
0.0
  0
ARC
  5
EC6
102
{ACAD_REACTORS
330
EB9
330
F57
102
}
330
20
100
AcDbEntity
  8
STEMPEL
100
AcDbCircle
 10
177.9016917250118
 20
144.1986396175381
 30
0.0
 40
2.0
100
AcDbArc
 50
180.0
 51
270.0
  0
LINE
  5
EC7
102
{ACAD_REACTORS
330
EB9
102
}
330
20
100
AcDbEntity
  8
STEMPEL
100
AcDbLine
 10
169.4016917250118
 20
139.1986396175381
 30
0.0
 11
171.8298949552872
 21
143.4044109834781
 31
0.0
  0
ARC
  5
EC8
102
{ACAD_REACTORS
330
EB9
330
F6F
102
}
330
20
100
AcDbEntity
  8
STEMPEL
100
AcDbCircle
 10
178.4016917250117
 20
139.1986396175381
 30
0.0
 40
3.0
100
AcDbArc
 50
270.0
 51
90.0
  0
LINE
  5
EC9
330
20
100
AcDbEntity
  8
MITTEL
100
AcDbLine
 10
119.6516917250117
 20
131.1986396175381
 30
0.0
 11
119.6516917250117
 21
164.1986396175381
 31
0.0
  0
LINE
  5
ECA
102
{ACAD_REACTORS
330
EB9
102
}
330
20
100
AcDbEntity
  8
STEMPEL
100
AcDbLine
 10
69.90169172501177
 20
138.1986396175381
 30
0.0
 11
69.90169172501175
 21
139.1986396175381
 31
0.0
  0
LINE
  5
ECB
330
20
100
AcDbEntity
  8
STEMPEL
100
AcDbLine
 10
169.4016917250118
 20
139.1986396175381
 30
0.0
 11
69.90169172501175
 21
139.1986396175381
 31
0.0
  0
LINE
  5
ECC
102
{ACAD_REACTORS
330
EB9
102
}
330
20
100
AcDbEntity
  8
STEMPEL
100
AcDbLine
 10
66.40169172501177
 20
154.1986396175381
 30
0.0
 11
65.78233144077231
 21
157.7112063373386
 31
0.0
  0
ARC
  5
ECD
102
{ACAD_REACTORS
330
EB9
102
}
330
20
100
AcDbEntity
  8
STEMPEL
100
AcDbCircle
 10
64.00967748535035
 20
157.3986396175381
 30
0.0
 40
1.8
100
AcDbArc
 50
10.00000000000021
 51
90.0
  0
LINE
  5
ECE
102
{ACAD_REACTORS
330
EB9
102
}
330
20
100
AcDbEntity
  8
STEMPEL
100
AcDbLine
 10
63.40169172501177
 20
154.1986396175381
 30
0.0
 11
60.40169172501177
 21
154.1986396175381
 31
0.0
  0
LINE
  5
ECF
102
{ACAD_REACTORS
330
EB9
330
F3F
330
FA3
102
}
330
20
100
AcDbEntity
  8
STEMPEL
100
AcDbLine
 10
60.40169172501177
 20
154.1986396175381
 30
0.0
 11
60.40169172501177
 21
155.1986396175381
 31
0.0
  0
LINE
  5
ED0
102
{ACAD_REACTORS
330
EB9
102
}
330
20
100
AcDbEntity
  8
STEMPEL
100
AcDbLine
 10
60.40169172501177
 20
155.1986396175381
 30
0.0
 11
62.13374253258064
 21
158.1986396175381
 31
0.0
  0
ARC
  5
ED1
102
{ACAD_REACTORS
330
EB9
102
}
330
20
100
AcDbEntity
  8
STEMPEL
100
AcDbCircle
 10
63.86579334014952
 20
157.1986396175381
 30
0.0
 40
2.0
100
AcDbArc
 50
90.0
 51
149.9999999999998
  0
ARC
  5
ED2
102
{ACAD_REACTORS
330
EB9
102
}
330
20
100
AcDbEntity
  8
STEMPEL
100
AcDbCircle
 10
74.40169172501177
 20
147.4044109834781
 30
0.0
 40
8.0
100
AcDbArc
 50
180.0
 51
210.0000000000001
  0
LINE
  5
ED3
102
{ACAD_REACTORS
330
EB9
102
}
330
20
100
AcDbEntity
  8
STEMPEL
100
AcDbLine
 10
61.40169172501177
 20
142.1986396175381
 30
0.0
 11
60.90169172501177
 21
142.1986396175381
 31
0.0
  0
LINE
  5
ED4
102
{ACAD_REACTORS
330
EB9
330
F57
102
}
330
20
100
AcDbEntity
  8
STEMPEL
100
AcDbLine
 10
63.40169172501177
 20
144.1986396175381
 30
0.0
 11
63.40169172501177
 21
154.1986396175381
 31
0.0
  0
LINE
  5
ED5
102
{ACAD_REACTORS
330
EB9
102
}
330
20
100
AcDbEntity
  8
STEMPEL
100
AcDbLine
 10
66.40169172501177
 20
147.4044109834781
 30
0.0
 11
66.40169172501177
 21
154.1986396175381
 31
0.0
  0
LINE
  5
ED6
102
{ACAD_REACTORS
330
EB9
102
}
330
20
100
AcDbEntity
  8
STEMPEL
100
AcDbLine
 10
63.40169172501177
 20
136.1986396175381
 30
0.0
 11
66.86579334014954
 21
138.1986396175381
 31
0.0
  0
ARC
  5
ED7
102
{ACAD_REACTORS
330
EB9
330
F6F
330
F8B
102
}
330
20
100
AcDbEntity
  8
STEMPEL
100
AcDbCircle
 10
60.90169172501177
 20
139.1986396175381
 30
0.0
 40
3.0
100
AcDbArc
 50
90.0
 51
270.0
  0
ARC
  5
ED8
102
{ACAD_REACTORS
330
EB9
102
}
330
20
100
AcDbEntity
  8
STEMPEL
100
AcDbCircle
 10
61.40169172501177
 20
144.1986396175381
 30
0.0
 40
2.0
100
AcDbArc
 50
270.0
 51
0.0
  0
LINE
  5
ED9
102
{ACAD_REACTORS
330
EB9
330
F8B
330
FA3
330
FBB
102
}
330
20
100
AcDbEntity
  8
STEMPEL
100
AcDbLine
 10
178.4016917250117
 20
136.1986396175381
 30
0.0
 11
60.90169172501177
 21
136.1986396175381
 31
0.0
  0
LINE
  5
EDA
102
{ACAD_REACTORS
330
FBB
102
}
330
20
100
AcDbEntity
  8
STEMPEL
100
AcDbLine
 10
175.2937059646732
 20
159.1986396175381
 30
0.0
 11
63.86579334014952
 21
159.1986396175381
 31
0.0
  0
LINE
  5
EDB
102
{ACAD_REACTORS
330
EB9
102
}
330
20
100
AcDbEntity
  8
STEMPEL
100
AcDbLine
 10
172.437590109874
 20
138.1986396175381
 30
0.0
 11
66.86579334014954
 21
138.1986396175381
 31
0.0
  0
LINE
  5
EDC
102
{ACAD_REACTORS
330
EB9
102
}
330
20
100
AcDbEntity
  8
STEMPEL
100
AcDbLine
 10
69.90169172501175
 20
139.1986396175381
 30
0.0
 11
67.47348849473628
 21
143.4044109834781
 31
0.0
  0
LINE
  5
EDD
102
{ACAD_REACTORS
330
F27
102
}
330
20
100
AcDbEntity
  8
STEMPEL
100
AcDbLine
 10
172.9016917250118
 20
154.1986396175381
 30
0.0
 11
66.40169172501177
 21
154.1986396175381
 31
0.0
  0
LINE
  5
EF5
330
20
100
AcDbEntity
  8
TEXT
 62
     1
100
AcDbLine
 10
169.4875694740671
 20
203.8540744614004
 30
0.0
 11
169.4875694740671
 21
199.6856735813751
 31
0.0
  0
LINE
  5
EF6
330
20
100
AcDbEntity
  8
TEXT
 62
     1
100
AcDbLine
 10
173.4875694740671
 20
203.8540744614004
 30
0.0
 11
173.4875694740671
 21
199.6856735813751
 31
0.0
  0
LINE
  5
EF7
330
20
100
AcDbEntity
  8
TEXT
 62
     1
100
AcDbLine
 10
177.4875694740672
 20
203.8540744614004
 30
0.0
 11
177.4875694740672
 21
199.6856735813751
 31
0.0
  0
LINE
  5
EF8
330
20
100
AcDbEntity
  8
TEXT
 62
     1
100
AcDbLine
 10
181.4875694740672
 20
203.8540744614004
 30
0.0
 11
181.4875694740672
 21
199.6856735813751
 31
0.0
  0
LINE
  5
EF9
330
20
100
AcDbEntity
  8
TEXT
 62
     1
100
AcDbLine
 10
185.4875694740672
 20
203.8540744614004
 30
0.0
 11
185.4875694740672
 21
199.6856735813751
 31
0.0
  0
LINE
  5
EFA
330
20
100
AcDbEntity
  8
TEXT
 62
     1
100
AcDbLine
 10
189.4875694740672
 20
203.8540744614004
 30
0.0
 11
189.4875694740672
 21
199.6856735813751
 31
0.0
  0
LINE
  5
EFB
330
20
100
AcDbEntity
  8
TEXT
 62
     1
100
AcDbLine
 10
193.4875694740672
 20
203.8540744614004
 30
0.0
 11
193.4875694740672
 21
199.6856735813751
 31
0.0
  0
LINE
  5
EFC
330
20
100
AcDbEntity
  8
TEXT
 62
     1
100
AcDbLine
 10
197.4875694740672
 20
203.8540744614004
 30
0.0
 11
197.4875694740672
 21
199.6856735813751
 31
0.0
  0
LINE
  5
EFD
330
20
100
AcDbEntity
  8
TEXT
 62
     1
100
AcDbLine
 10
169.4875694740671
 20
201.7698740213878
 30
0.0
 11
197.4875694740672
 21
201.7698740213878
 31
0.0
  0
TEXT
  5
EFE
330
20
100
AcDbEntity
  8
TEXT
 62
     2
100
AcDbText
 10
169.0201921104469
 20
212.7666802101637
 30
0.0
 40
2.0
  1
Raster für weitere Jahre
 41
0.8
  7
GREEKS
100
AcDbText
  0
LINE
  5
EFF
330
20
100
AcDbEntity
  8
TEXT
 62
     2
100
AcDbLine
 10
171.5659982493382
 20
208.7514506407786
 30
0.0
 11
181.6618400023569
 21
208.7514506407786
 31
0.0
  0
LINE
  5
F00
330
20
100
AcDbEntity
  8
TEXT
 62
     2
100
AcDbLine
 10
185.5103275126715
 20
208.7514506407786
 30
0.0
 11
195.4290624159113
 21
208.7514506407787
 31
0.0
  0
ARC
  5
F01
330
20
100
AcDbEntity
  8
TEXT
 62
     2
100
AcDbCircle
 10
171.5149677635819
 20
206.878664395872
 30
0.0
 40
1.873481366226997
100
AcDbArc
 50
88.43916615436063
 51
180.9693128199328
  0
ARC
  5
F02
330
20
100
AcDbEntity
  8
TEXT
 62
     2
100
AcDbCircle
 10
195.4800929016676
 20
206.878664395872
 30
0.0
 40
1.873481366226997
100
AcDbArc
 50
359.0306871800672
 51
91.56083384564263
  0
ARC
  5
F03
330
20
100
AcDbEntity
  8
TEXT
 62
     2
100
AcDbCircle
 10
185.459297026915
 20
210.6242368856852
 30
0.0
 40
1.873481366226997
100
AcDbArc
 50
179.0306871800672
 51
271.5608338456491
  0
ARC
  5
F04
330
20
100
AcDbEntity
  8
TEXT
 62
     2
100
AcDbCircle
 10
181.7128704881131
 20
210.6242368856852
 30
0.0
 40
1.873481366226997
100
AcDbArc
 50
268.4391661543623
 51
0.9693128199328132
  0
LINE
  5
F05
330
20
100
AcDbEntity
  8
TEXT
 62
     2
100
AcDbLine
 10
41.06585097888585
 20
198.0746373950595
 30
0.0
 11
27.35261183833326
 21
198.0746373950595
 31
0.0
  0
TEXT
  5
F06
330
20
100
AcDbEntity
  8
TEXT
 62
     1
100
AcDbText
 10
27.35261183833326
 20
199.9990434414327
 30
0.0
 40
3.5
  1
Gravur: EN 1123 LORO 110KA/DN100 TG Nest.Nr. WC Jahreszahl
 41
0.8
  7
GREEKS
100
AcDbText
  0
LINE
  5
F07
330
20
100
AcDbEntity
  8
TEXT
 62
     2
100
AcDbLine
 10
27.35261183833326
 20
198.0746373950595
 30
0.0
 11
61.2677171287962
 21
156.6986396175381
 31
0.0
  0
DIMENSION
  5
F10
102
{ACAD_XDICTIONARY
360
F1D
102
}
102
{ACAD_REACTORS
330
F27
102
}
330
20
100
AcDbEntity
  8
BEM
100
AcDbDimension
  2
*D0
 10
172.9016917250118
 20
167.5183390002514
 30
0.0
 11
119.6516917250117
 21
170.7683390002514
 31
0.0
 70
    32
 71
     5
 42
106.5
  3
Standard
100
AcDbAlignedDimension
 13
66.40169172501177
 23
154.1986396175381
 33
0.0
 14
172.9016917250118
 24
154.1986396175381
 34
0.0
100
AcDbRotatedDimension
1001
ACAD
1000
DSTYLE
1002
{
1070
    41
1040
3.5
1070
    42
1040
1.0
1070
    43
1040
7.0
1070
    44
1040
1.0
1070
    47
1040
0.6
1070
    48
1040
0.6
1070
    73
1070
     0
1070
    74
1070
     0
1070
    77
1070
     1
1070
    78
1070
     8
1070
    79
1070
     2
1070
   140
1040
3.5
1070
   141
1040
1.5
1070
   146
1040
0.5142857142857144
1070
   147
1040
1.5
1070
   172
1070
     1
1070
   178
1070
     1
1070
   179
1070
     2
1070
   271
1070
     2
1070
   272
1070
     2
1070
   284
1070
     8
1070
   285
1070
     8
1070
   286
1070
     8
1002
}
  0
DIMENSION
  5
F28
102
{ACAD_XDICTIONARY
360
F35
102
}
102
{ACAD_REACTORS
330
F3F
102
}
330
20
100
AcDbEntity
  8
BEM
100
AcDbDimension
  2
*D1
 10
178.9016917250117
 20
175.1281056413432
 30
0.0
 11
119.6516917250117
 21
178.3781056413432
 31
0.0
 70
    32
 71
     5
 42
118.5
  3
Standard
100
AcDbAlignedDimension
 13
60.40169172501177
 23
154.1986396175381
 33
0.0
 14
178.9016917250117
 24
154.1986396175381
 34
0.0
100
AcDbRotatedDimension
1001
ACAD
1000
DSTYLE
1002
{
1070
    41
1040
3.5
1070
    42
1040
1.0
1070
    43
1040
7.0
1070
    44
1040
1.0
1070
    47
1040
0.6
1070
    48
1040
0.6
1070
    73
1070
     0
1070
    74
1070
     0
1070
    77
1070
     1
1070
    78
1070
     8
1070
    79
1070
     2
1070
   140
1040
3.5
1070
   141
1040
1.5
1070
   146
1040
0.5142857142857144
1070
   147
1040
1.5
1070
   172
1070
     1
1070
   178
1070
     1
1070
   179
1070
     2
1070
   271
1070
     2
1070
   272
1070
     2
1070
   284
1070
     8
1070
   285
1070
     8
1070
   286
1070
     8
1002
}
  0
DIMENSION
  5
F40
102
{ACAD_XDICTIONARY
360
F4D
102
}
102
{ACAD_REACTORS
330
F57
102
}
330
20
100
AcDbEntity
  8
BEM
100
AcDbDimension
  2
*D2
 10
175.9016917250117
 20
123.1914495907426
 30
0.0
 11
119.6516917250117
 21
126.4414495907426
 31
0.0
 70
    32
 71
     5
 42
112.5
  3
Standard
100
AcDbAlignedDimension
 13
63.40169172501177
 23
144.1986396175381
 33
0.0
 14
175.9016917250117
 24
144.1986396175381
 34
0.0
100
AcDbRotatedDimension
1001
ACAD
1000
DSTYLE
1002
{
1070
    41
1040
3.5
1070
    42
1040
1.0
1070
    43
1040
7.0
1070
    44
1040
1.0
1070
    47
1040
0.6
1070
    48
1040
0.6
1070
    73
1070
     0
1070
    74
1070
     0
1070
    77
1070
     1
1070
    78
1070
     8
1070
    79
1070
     2
1070
   140
1040
3.5
1070
   141
1040
1.5
1070
   146
1040
0.5142857142857144
1070
   147
1040
1.5
1070
   172
1070
     1
1070
   178
1070
     1
1070
   179
1070
     2
1070
   271
1070
     2
1070
   272
1070
     2
1070
   284
1070
     8
1070
   285
1070
     8
1070
   286
1070
     8
1002
}
  0
DIMENSION
  5
F58
102
{ACAD_XDICTIONARY
360
F65
102
}
102
{ACAD_REACTORS
330
F6F
102
}
330
20
100
AcDbEntity
  8
BEM
100
AcDbDimension
  2
*D3
 10
181.4016917250117
 20
114.8207063553965
 30
0.0
 11
119.6516917250117
 21
118.0707063553965
 31
0.0
 70
    32
 71
     5
 42
123.5
  3
Standard
100
AcDbAlignedDimension
 13
57.90169172501177
 23
139.1986396175381
 33
0.0
 14
181.4016917250117
 24
139.1986396175381
 34
0.0
100
AcDbRotatedDimension
1001
ACAD
1000
DSTYLE
1002
{
1070
    41
1040
3.5
1070
    42
1040
1.0
1070
    43
1040
7.0
1070
    44
1040
1.0
1070
    47
1040
0.6
1070
    48
1040
0.6
1070
    73
1070
     0
1070
    74
1070
     0
1070
    77
1070
     1
1070
    78
1070
     8
1070
    79
1070
     2
1070
   140
1040
3.5
1070
   141
1040
1.5
1070
   146
1040
0.5142857142857144
1070
   147
1040
1.5
1070
   172
1070
     1
1070
   178
1070
     1
1070
   179
1070
     2
1070
   271
1070
     2
1070
   272
1070
     2
1070
   284
1070
     8
1070
   285
1070
     8
1070
   286
1070
     8
1002
}
  0
DIMENSION
  5
F70
102
{ACAD_XDICTIONARY
360
F7F
102
}
102
{ACAD_REACTORS
330
F8B
102
}
330
20
100
AcDbEntity
  8
BEM
100
AcDbDimension
  2
*D4
 10
52.63190486368149
 20
142.1986396175381
 30
0.0
 11
49.38190486368146
 21
139.1986396175381
 31
0.0
 70
    32
 71
     5
 42
6.0
  3
Standard
100
AcDbAlignedDimension
 13
60.90169172501177
 23
136.1986396175381
 33
0.0
 14
60.90169172501177
 24
142.1986396175381
 34
0.0
 50
90.0
100
AcDbRotatedDimension
1001
ACAD
1000
DSTYLE
1002
{
1070
    41
1040
3.5
1070
    42
1040
1.0
1070
    43
1040
7.0
1070
    44
1040
1.0
1070
    47
1040
0.6
1070
    48
1040
0.6
1070
    73
1070
     0
1070
    74
1070
     0
1070
    77
1070
     1
1070
    78
1070
     8
1070
    79
1070
     2
1070
   140
1040
3.5
1070
   141
1040
1.5
1070
   146
1040
0.5142857142857144
1070
   147
1040
1.5
1070
   172
1070
     1
1070
   178
1070
     1
1070
   179
1070
     2
1070
   271
1070
     2
1070
   272
1070
     2
1070
   284
1070
     8
1070
   285
1070
     8
1070
   286
1070
     8
1002
}
  0
DIMENSION
  5
F8C
102
{ACAD_XDICTIONARY
360
F99
102
}
102
{ACAD_REACTORS
330
FA3
102
}
330
20
100
AcDbEntity
  8
BEM
100
AcDbDimension
  2
*D5
 10
45.20790297619282
 20
154.1986396175381
 30
0.0
 11
41.9579029761928
 21
145.1986396175381
 31
0.0
 70
    32
 71
     5
 42
18.0
  3
Standard
100
AcDbAlignedDimension
 13
60.90169172501177
 23
136.1986396175381
 33
0.0
 14
60.40169172501177
 24
154.1986396175381
 34
0.0
 50
90.0
100
AcDbRotatedDimension
1001
ACAD
1000
DSTYLE
1002
{
1070
    41
1040
3.5
1070
    42
1040
1.0
1070
    43
1040
7.0
1070
    44
1040
1.0
1070
    47
1040
0.6
1070
    48
1040
0.6
1070
    73
1070
     0
1070
    74
1070
     0
1070
    77
1070
     1
1070
    78
1070
     8
1070
    79
1070
     2
1070
   140
1040
3.5
1070
   141
1040
1.5
1070
   146
1040
0.5142857142857144
1070
   147
1040
1.5
1070
   172
1070
     1
1070
   178
1070
     1
1070
   179
1070
     2
1070
   271
1070
     2
1070
   272
1070
     2
1070
   284
1070
     8
1070
   285
1070
     8
1070
   286
1070
     8
1002
}
  0
DIMENSION
  5
FA4
102
{ACAD_XDICTIONARY
360
FB1
102
}
102
{ACAD_REACTORS
330
FBB
102
}
330
20
100
AcDbEntity
  8
BEM
100
AcDbDimension
  2
*D6
 10
38.20790297619283
 20
159.1986396175381
 30
0.0
 11
34.9579029761928
 21
147.6986396175381
 31
0.0
 70
    32
 71
     5
 42
22.99999999999997
  3
Standard
100
AcDbAlignedDimension
 13
60.90169172501177
 23
136.1986396175381
 33
0.0
 14
63.86579334014952
 24
159.1986396175381
 34
0.0
 50
90.0
100
AcDbRotatedDimension
1001
ACAD
1000
DSTYLE
1002
{
1070
    41
1040
3.5
1070
    42
1040
1.0
1070
    43
1040
7.0
1070
    44
1040
1.0
1070
    47
1040
0.6
1070
    48
1040
0.6
1070
    73
1070
     0
1070
    74
1070
     0
1070
    77
1070
     1
1070
    78
1070
     8
1070
    79
1070
     2
1070
   140
1040
3.5
1070
   141
1040
1.5
1070
   146
1040
0.5142857142857144
1070
   147
1040
1.5
1070
   172
1070
     1
1070
   178
1070
     1
1070
   179
1070
     2
1070
   271
1070
     2
1070
   272
1070
     2
1070
   284
1070
     8
1070
   285
1070
     8
1070
   286
1070
     8
1002
}
  0
TEXT
  5
FBC
330
20
100
AcDbEntity
  8
TEXT
100
AcDbText
 10
112.5648195562657
 20
30.82005971521079
 30
0.0
 40
2.5
  1
LORO-Rohr DN100
 41
0.8
  7
GREEKS
100
AcDbText
  0
ENDSEC
  0
SECTION
  2
OBJECTS
  0
DICTIONARY
  5
C
330
0
100
AcDbDictionary
281
     1
  3
ACAD_COLOR
350
1B
  3
ACAD_GROUP
350
D
  3
ACAD_LAYOUT
350
19
  3
ACAD_MATERIAL
350
1A
  3
ACAD_MLINESTYLE
350
16
  3
ACAD_PLOTSETTINGS
350
18
  3
ACAD_PLOTSTYLENAME
350
E
  3
AcDbVariableDictionary
350
25E
  0
DICTIONARY
  5
F1D
330
F10
100
AcDbDictionary
280
     1
281
     1
  3
ACAD_DIMASSOC
360
F27
  0
DICTIONARY
  5
F35
330
F28
100
AcDbDictionary
280
     1
281
     1
  3
ACAD_DIMASSOC
360
F3F
  0
DICTIONARY
  5
F4D
330
F40
100
AcDbDictionary
280
     1
281
     1
  3
ACAD_DIMASSOC
360
F57
  0
DICTIONARY
  5
F65
330
F58
100
AcDbDictionary
280
     1
281
     1
  3
ACAD_DIMASSOC
360
F6F
  0
DICTIONARY
  5
F7F
330
F70
100
AcDbDictionary
280
     1
281
     1
  3
ACAD_DIMASSOC
360
F8B
  0
DICTIONARY
  5
F99
330
F8C
100
AcDbDictionary
280
     1
281
     1
  3
ACAD_DIMASSOC
360
FA3
  0
DICTIONARY
  5
FB1
330
FA4
100
AcDbDictionary
280
     1
281
     1
  3
ACAD_DIMASSOC
360
FBB
  0
DICTIONARY
  5
1B
102
{ACAD_REACTORS
330
C
102
}
330
C
100
AcDbDictionary
281
     1
  0
DICTIONARY
  5
D
102
{ACAD_REACTORS
330
C
102
}
330
C
100
AcDbDictionary
281
     1
  0
DICTIONARY
  5
19
102
{ACAD_REACTORS
330
C
102
}
330
C
100
AcDbDictionary
281
     1
  3
Layout1
350
1F
  3
Model
350
23
  0
DICTIONARY
  5
1A
102
{ACAD_REACTORS
330
C
102
}
330
C
100
AcDbDictionary
281
     1
  0
DICTIONARY
  5
16
102
{ACAD_REACTORS
330
C
102
}
330
C
100
AcDbDictionary
281
     1
  3
Standard
350
17
  0
DICTIONARY
  5
18
102
{ACAD_REACTORS
330
C
102
}
330
C
100
AcDbDictionary
281
     1
  0
ACDBDICTIONARYWDFLT
  5
E
102
{ACAD_REACTORS
330
C
102
}
330
C
100
AcDbDictionary
281
     1
  3
Normal
350
F
100
AcDbDictionaryWithDefault
340
F
  0
DICTIONARY
  5
25E
102
{ACAD_REACTORS
330
C
102
}
330
C
100
AcDbDictionary
281
     1
  3
DIMASSOC
350
260
  3
HIDETEXT
350
25F
  3
PROJECTNAME
350
261
  0
DIMASSOC
  5
F27
102
{ACAD_REACTORS
330
F1D
102
}
330
F1D
100
AcDbDimAssoc
330
F10
 90
        3
 70
     0
 71
     0
  1
AcDbOsnapPointRef
 72
     1
331
EDD
 73
     2
 91
        0
 40
1.0
 10
0.0
 20
0.0
 30
2.000000000000000E+50
 75
     0
  1
AcDbOsnapPointRef
 72
    13
331
EDD
 73
     2
 91
        0
 40
0.0
 10
0.0
 20
0.0
 30
2.000000000000000E+50
 75
     0
  0
DIMASSOC
  5
F3F
102
{ACAD_REACTORS
330
F35
102
}
330
F35
100
AcDbDimAssoc
330
F28
 90
        3
 70
     0
 71
     0
  1
AcDbOsnapPointRef
 72
    13
331
ECF
 73
     2
 91
        0
 40
0.0
 10
0.0
 20
0.0
 30
2.000000000000000E+50
 75
     0
  1
AcDbOsnapPointRef
 72
     1
331
EBD
 73
     2
 91
        0
 40
1.0
 10
0.0
 20
0.0
 30
2.000000000000000E+50
 75
     0
  0
DIMASSOC
  5
F57
102
{ACAD_REACTORS
330
F4D
102
}
330
F4D
100
AcDbDimAssoc
330
F40
 90
        3
 70
     0
 71
     0
  1
AcDbOsnapPointRef
 72
    13
331
ED4
 73
     2
 91
        0
 40
0.0
 10
0.0
 20
0.0
 30
2.000000000000000E+50
 75
     0
  1
AcDbOsnapPointRef
 72
    13
331
EC6
 73
     2
 91
        0
 40
3.141592653589793
 10
0.0
 20
0.0
 30
2.000000000000000E+50
 75
     0
  0
DIMASSOC
  5
F6F
102
{ACAD_REACTORS
330
F65
102
}
330
F65
100
AcDbDimAssoc
330
F58
 90
        3
 70
     0
 71
     0
  1
AcDbOsnapPointRef
 72
     5
331
ED7
 73
     2
 91
        0
 40
3.141592653589793
 10
0.0
 20
0.0
 30
0.0
 75
     0
  1
AcDbOsnapPointRef
 72
     5
331
EC8
 73
     2
 91
        0
 40
6.283185307179586
 10
0.0
 20
0.0
 30
0.0
 75
     0
  0
DIMASSOC
  5
F8B
102
{ACAD_REACTORS
330
F7F
102
}
330
F7F
100
AcDbDimAssoc
330
F70
 90
        3
 70
     0
 71
     0
  1
AcDbOsnapPointRef
 72
     1
331
ED9
 73
     2
 91
        0
 40
1.0
 10
0.0
 20
0.0
 30
2.000000000000000E+50
 75
     0
  1
AcDbOsnapPointRef
 72
     5
331
ED7
 73
     2
 91
        0
 40
1.570796326794896
 10
0.0
 20
0.0
 30
0.0
 75
     0
  0
DIMASSOC
  5
FA3
102
{ACAD_REACTORS
330
F99
102
}
330
F99
100
AcDbDimAssoc
330
F8C
 90
        3
 70
     0
 71
     0
  1
AcDbOsnapPointRef
 72
     1
331
ED9
 73
     2
 91
        0
 40
1.0
 10
0.0
 20
0.0
 30
2.000000000000000E+50
 75
     0
  1
AcDbOsnapPointRef
 72
    13
331
ECF
 73
     2
 91
        0
 40
0.0
 10
0.0
 20
0.0
 30
2.000000000000000E+50
 75
     0
  0
DIMASSOC
  5
FBB
102
{ACAD_REACTORS
330
FB1
102
}
330
FB1
100
AcDbDimAssoc
330
FA4
 90
        3
 70
     0
 71
     0
  1
AcDbOsnapPointRef
 72
     1
331
ED9
 73
     2
 91
        0
 40
1.0
 10
0.0
 20
0.0
 30
2.000000000000000E+50
 75
     0
  1
AcDbOsnapPointRef
 72
     1
331
EDA
 73
     2
 91
        0
 40
1.0
 10
0.0
 20
0.0
 30
2.000000000000000E+50
 75
     0
  0
LAYOUT
  5
1F
102
{ACAD_REACTORS
330
19
102
}
330
19
100
AcDbPlotSettings
  1

  2
RICOH Aficio 2027 PCL 6
  4

  6

 40
0.0
 41
0.0
 42
0.0
 43
0.0
 44
0.0
 45
0.0
 46
0.0
 47
0.0
 48
0.0
 49
0.0
140
0.0
141
0.0
142
1.0
143
1.0
 70
   688
 72
     0
 73
     0
 74
     5
  7
monochrome1.ctb
 75
    16
147
1.0
 76
     0
 77
     2
 78
   300
148
0.0
149
0.0
100
AcDbLayout
  1
Layout1
 70
     0
 71
     1
 10
0.0
 20
0.0
 11
12.0
 21
9.0
 12
94.77699787264981
 22
50.00000000000001
 32
160.541677480246
 14
1.000000000000000E+20
 24
1.000000000000000E+20
 34
1.000000000000000E+20
 15
-1.000000000000000E+20
 25
-1.000000000000000E+20
 35
-1.000000000000000E+20
146
0.0
 13
0.0
 23
0.0
 33
0.0
 16
1.0
 26
0.0
 36
0.0
 17
0.0
 27
1.0
 37
0.0
 76
     0
330
1C
  0
LAYOUT
  5
23
102
{ACAD_REACTORS
330
19
102
}
330
19
100
AcDbPlotSettings
  1

  2
RICOH Aficio 2027 PCL 6
  4
A4
  6

 40
5.027083396911621
 41
5.027085304260253
 42
5.027084350585937
 43
5.027069091796875
 44
209.9733276367187
 45
296.9259948730469
 46
0.0
 47
0.0
 48
0.0
 49
0.0
140
0.0
141
0.0
142
1.0
143
1.0
 70
 11952
 72
     0
 73
     1
 74
     0
  7
monochrome1.ctb
 75
     0
147
1.0
 76
     0
 77
     2
 78
   300
148
1149.94759482167
149
45.04758967657628
100
AcDbLayout
  1
Model
 70
     1
 71
     0
 10
0.0
 20
0.0
 11
12.0
 21
9.0
 12
0.0
 22
0.0
 32
0.0
 14
0.0
 24
0.0
 34
0.0
 15
0.0
 25
0.0
 35
0.0
146
0.0
 13
0.0
 23
0.0
 33
0.0
 16
1.0
 26
0.0
 36
0.0
 17
0.0
 27
1.0
 37
0.0
 76
     0
330
20
  0
MLINESTYLE
  5
17
102
{ACAD_REACTORS
330
16
102
}
330
16
100
AcDbMlineStyle
  2
STANDARD
 70
     0
  3

 62
   256
 51
90.0
 52
90.0
 71
     2
 49
0.5
 62
   256
  6
BYLAYER
 49
-0.5
 62
   256
  6
BYLAYER
  0
ACDBPLACEHOLDER
  5
F
102
{ACAD_REACTORS
330
E
102
}
330
E
  0
DICTIONARYVAR
  5
260
102
{ACAD_REACTORS
330
25E
102
}
330
25E
100
DictionaryVariables
280
     0
  1
2
  0
DICTIONARYVAR
  5
25F
102
{ACAD_REACTORS
330
25E
102
}
330
25E
100
DictionaryVariables
280
     0
  1
1
  0
DICTIONARYVAR
  5
261
102
{ACAD_REACTORS
330
25E
102
}
330
25E
100
DictionaryVariables
280
     0
  1

  0
ENDSEC
  0
EOF
