  0
SECTION
  2
HEADER
  9
$ACADVER
  1
AC1018
  9
$ACADMAINTVER
 70
     2
  9
$DWGCODEPAGE
  3
ANSI_1252
  9
$INSBASE
 10
0.0
 20
0.0
 30
0.0
  9
$EXTMIN
 10
-0.0160192835438124
 20
-0.0226558438693019
 30
-0.000000000000013
  9
$EXTMAX
 10
210.0000009780082
 20
297.000001383183
 30
0.0000000000000023
  9
$LIMMIN
 10
0.0
 20
0.0
  9
$LIMMAX
 10
210.0
 20
297.0
  9
$ORTHOMODE
 70
     0
  9
$REGENMODE
 70
     1
  9
$FILLMODE
 70
     1
  9
$QTEXTMODE
 70
     0
  9
$MIRRTEXT
 70
     1
  9
$LTSCALE
 40
10.0
  9
$ATTMODE
 70
     1
  9
$TEXTSIZE
 40
3.5
  9
$TRACEWID
 40
0.5
  9
$TEXTSTYLE
  7
STANDARD
  9
$CLAYER
  8
SCHRAFF
  9
$CELTYPE
  6
ByLayer
  9
$CECOLOR
 62
   256
  9
$CELTSCALE
 40
1.0
  9
$DISPSILH
 70
     0
  9
$DIMSCALE
 40
1.0
  9
$DIMASZ
 40
3.5
  9
$DIMEXO
 40
1.0
  9
$DIMDLI
 40
7.0
  9
$DIMRND
 40
0.0
  9
$DIMDLE
 40
0.0
  9
$DIMEXE
 40
1.0
  9
$DIMTP
 40
0.6
  9
$DIMTM
 40
0.6
  9
$DIMTXT
 40
3.5
  9
$DIMCEN
 40
1.5
  9
$DIMTSZ
 40
0.0
  9
$DIMTOL
 70
     0
  9
$DIMLIM
 70
     0
  9
$DIMTIH
 70
     0
  9
$DIMTOH
 70
     0
  9
$DIMSE1
 70
     0
  9
$DIMSE2
 70
     0
  9
$DIMTAD
 70
     1
  9
$DIMZIN
 70
     8
  9
$DIMBLK
  1

  9
$DIMASO
 70
     1
  9
$DIMSHO
 70
     0
  9
$DIMPOST
  1

  9
$DIMAPOST
  1

  9
$DIMALT
 70
     0
  9
$DIMALTD
 70
     2
  9
$DIMALTF
 40
25.4
  9
$DIMLFAC
 40
1.0
  9
$DIMTOFL
 70
     1
  9
$DIMTVP
 40
0.0
  9
$DIMTIX
 70
     0
  9
$DIMSOXD
 70
     0
  9
$DIMSAH
 70
     0
  9
$DIMBLK1
  1

  9
$DIMBLK2
  1

  9
$DIMSTYLE
  2
Standard
  9
$DIMCLRD
 70
     0
  9
$DIMCLRE
 70
     0
  9
$DIMCLRT
 70
     1
  9
$DIMTFAC
 40
0.5142857142857144
  9
$DIMGAP
 40
1.5
  9
$DIMJUST
 70
     0
  9
$DIMSD1
 70
     0
  9
$DIMSD2
 70
     0
  9
$DIMTOLJ
 70
     1
  9
$DIMTZIN
 70
     8
  9
$DIMALTZ
 70
     8
  9
$DIMALTTZ
 70
     8
  9
$DIMUPT
 70
     0
  9
$DIMDEC
 70
     2
  9
$DIMTDEC
 70
     2
  9
$DIMALTU
 70
     2
  9
$DIMALTTD
 70
     2
  9
$DIMTXSTY
  7
STANDARD
  9
$DIMAUNIT
 70
     0
  9
$DIMADEC
 70
     2
  9
$DIMALTRND
 40
0.0
  9
$DIMAZIN
 70
     2
  9
$DIMDSEP
 70
    46
  9
$DIMATFIT
 70
     3
  9
$DIMFRAC
 70
     0
  9
$DIMLDRBLK
  1

  9
$DIMLUNIT
 70
     2
  9
$DIMLWD
 70
    -2
  9
$DIMLWE
 70
    -2
  9
$DIMTMOVE
 70
     0
  9
$LUNITS
 70
     2
  9
$LUPREC
 70
     2
  9
$SKETCHINC
 40
1.0
  9
$FILLETRAD
 40
0.0
  9
$AUNITS
 70
     0
  9
$AUPREC
 70
     0
  9
$MENU
  1
ACAD
  9
$ELEVATION
 40
0.0
  9
$PELEVATION
 40
0.0
  9
$THICKNESS
 40
0.0
  9
$LIMCHECK
 70
     0
  9
$CHAMFERA
 40
0.0
  9
$CHAMFERB
 40
0.0
  9
$CHAMFERC
 40
0.0
  9
$CHAMFERD
 40
0.0
  9
$SKPOLY
 70
     0
  9
$TDCREATE
 40
2451729.335056250
  9
$TDUCREATE
 40
2451729.251722917
  9
$TDUPDATE
 40
2455450.560874109
  9
$TDUUPDATE
 40
2455450.477540776
  9
$TDINDWG
 40
0.0954901505
  9
$TDUSRTIMER
 40
0.0954901505
  9
$USRTIMER
 70
     1
  9
$ANGBASE
 50
0.0
  9
$ANGDIR
 70
     0
  9
$PDMODE
 70
     0
  9
$PDSIZE
 40
0.0
  9
$PLINEWID
 40
0.0
  9
$SPLFRAME
 70
     0
  9
$SPLINETYPE
 70
     6
  9
$SPLINESEGS
 70
     8
  9
$HANDSEED
  5
C49
  9
$SURFTAB1
 70
     6
  9
$SURFTAB2
 70
     6
  9
$SURFTYPE
 70
     6
  9
$SURFU
 70
     6
  9
$SURFV
 70
     6
  9
$UCSBASE
  2

  9
$UCSNAME
  2

  9
$UCSORG
 10
0.0
 20
0.0
 30
0.0
  9
$UCSXDIR
 10
1.0
 20
0.0
 30
0.0
  9
$UCSYDIR
 10
0.0
 20
1.0
 30
0.0
  9
$UCSORTHOREF
  2

  9
$UCSORTHOVIEW
 70
     0
  9
$UCSORGTOP
 10
0.0
 20
0.0
 30
0.0
  9
$UCSORGBOTTOM
 10
0.0
 20
0.0
 30
0.0
  9
$UCSORGLEFT
 10
0.0
 20
0.0
 30
0.0
  9
$UCSORGRIGHT
 10
0.0
 20
0.0
 30
0.0
  9
$UCSORGFRONT
 10
0.0
 20
0.0
 30
0.0
  9
$UCSORGBACK
 10
0.0
 20
0.0
 30
0.0
  9
$PUCSBASE
  2

  9
$PUCSNAME
  2

  9
$PUCSORG
 10
0.0
 20
0.0
 30
0.0
  9
$PUCSXDIR
 10
1.0
 20
0.0
 30
0.0
  9
$PUCSYDIR
 10
0.0
 20
1.0
 30
0.0
  9
$PUCSORTHOREF
  2

  9
$PUCSORTHOVIEW
 70
     0
  9
$PUCSORGTOP
 10
0.0
 20
0.0
 30
0.0
  9
$PUCSORGBOTTOM
 10
0.0
 20
0.0
 30
0.0
  9
$PUCSORGLEFT
 10
0.0
 20
0.0
 30
0.0
  9
$PUCSORGRIGHT
 10
0.0
 20
0.0
 30
0.0
  9
$PUCSORGFRONT
 10
0.0
 20
0.0
 30
0.0
  9
$PUCSORGBACK
 10
0.0
 20
0.0
 30
0.0
  9
$USERI1
 70
     0
  9
$USERI2
 70
     0
  9
$USERI3
 70
     0
  9
$USERI4
 70
     0
  9
$USERI5
 70
     0
  9
$USERR1
 40
0.0
  9
$USERR2
 40
0.0
  9
$USERR3
 40
0.0
  9
$USERR4
 40
0.0
  9
$USERR5
 40
0.0
  9
$WORLDVIEW
 70
     1
  9
$SHADEDGE
 70
     3
  9
$SHADEDIF
 70
    70
  9
$TILEMODE
 70
     1
  9
$MAXACTVP
 70
    16
  9
$PINSBASE
 10
94.77699787264981
 20
50.00000000000001
 30
160.541677480246
  9
$PLIMCHECK
 70
     0
  9
$PEXTMIN
 10
1.000000000000000E+20
 20
1.000000000000000E+20
 30
1.000000000000000E+20
  9
$PEXTMAX
 10
-1.000000000000000E+20
 20
-1.000000000000000E+20
 30
-1.000000000000000E+20
  9
$PLIMMIN
 10
0.0
 20
0.0
  9
$PLIMMAX
 10
12.0
 20
9.0
  9
$UNITMODE
 70
     0
  9
$VISRETAIN
 70
     0
  9
$PLINEGEN
 70
     0
  9
$PSLTSCALE
 70
     0
  9
$TREEDEPTH
 70
  3020
  9
$CMLSTYLE
  2
Standard
  9
$CMLJUST
 70
     0
  9
$CMLSCALE
 40
1.0
  9
$PROXYGRAPHICS
 70
     1
  9
$MEASUREMENT
 70
     0
  9
$CELWEIGHT
370
    -1
  9
$ENDCAPS
280
     0
  9
$JOINSTYLE
280
     0
  9
$LWDISPLAY
290
     0
  9
$INSUNITS
 70
     0
  9
$HYPERLINKBASE
  1

  9
$STYLESHEET
  1
monochrome 1.ctb
  9
$XEDIT
290
     1
  9
$CEPSNTYPE
380
     0
  9
$PSTYLEMODE
290
     1
  9
$FINGERPRINTGUID
  2
{5FB5DE59-4758-4550-9D6E-98D0683C8784}
  9
$VERSIONGUID
  2
{1E2BEC16-DF70-4AB9-ACC0-D3C870F98FBE}
  9
$EXTNAMES
290
     1
  9
$PSVPSCALE
 40
0.0
  9
$OLESTARTUP
290
     0
  9
$SORTENTS
280
   127
  9
$INDEXCTL
280
     0
  9
$HIDETEXT
280
     1
  9
$XCLIPFRAME
290
     0
  9
$HALOGAP
280
     0
  9
$OBSCOLOR
 70
   257
  9
$OBSLTYPE
280
     0
  9
$INTERSECTIONDISPLAY
280
     0
  9
$INTERSECTIONCOLOR
 70
   257
  9
$DIMASSOC
280
     2
  9
$PROJECTNAME
  1

  0
ENDSEC
  0
SECTION
  2
CLASSES
  0
CLASS
  1
ACDBDICTIONARYWDFLT
  2
AcDbDictionaryWithDefault
  3
ObjectDBX Classes
 90
        0
 91
        1
280
     0
281
     0
  0
CLASS
  1
DICTIONARYVAR
  2
AcDbDictionaryVar
  3
ObjectDBX Classes
 90
        0
 91
        3
280
     0
281
     0
  0
CLASS
  1
DIMASSOC
  2
AcDbDimAssoc
  3
"AcDbDimAssoc|Product Desc:     AcDim ARX App For Dimension|Company:          Autodesk, Inc.|WEB Address:      www.autodesk.com"
 90
        0
 91
        7
280
     0
281
     0
  0
ENDSEC
  0
SECTION
  2
TABLES
  0
TABLE
  2
VPORT
  5
8
330
0
100
AcDbSymbolTable
 70
     2
  0
VPORT
  5
C48
330
8
100
AcDbSymbolTableRecord
100
AcDbViewportTableRecord
  2
*Active
 70
     0
 10
0.0
 20
0.0
 11
1.0
 21
1.0
 12
126.1800909767986
 22
148.5000027661759
 13
0.0
 23
0.0
 14
1.0
 24
1.0
 15
10.0
 25
10.0
 16
0.0
 26
0.0
 36
1.0
 17
0.0
 27
0.0
 37
0.0
 40
300.1916835862077
 41
1.336927223719676
 42
50.0
 43
0.0
 44
0.0
 50
0.0
 51
0.0
 71
     0
 72
  1500
 73
     1
 74
     0
 75
     0
 76
     0
 77
     0
 78
     0
281
     0
 65
     1
110
0.0
120
0.0
130
0.0
111
1.0
121
0.0
131
0.0
112
0.0
122
1.0
132
0.0
 79
     0
146
0.0
  0
ENDTAB
  0
TABLE
  2
LTYPE
  5
5
330
0
100
AcDbSymbolTable
 70
     2
  0
LTYPE
  5
13
330
5
100
AcDbSymbolTableRecord
100
AcDbLinetypeTableRecord
  2
ByBlock
 70
     0
  3

 72
    65
 73
     0
 40
0.0
  0
LTYPE
  5
14
330
5
100
AcDbSymbolTableRecord
100
AcDbLinetypeTableRecord
  2
ByLayer
 70
     0
  3

 72
    65
 73
     0
 40
0.0
  0
LTYPE
  5
15
330
5
100
AcDbSymbolTableRecord
100
AcDbLinetypeTableRecord
  2
Continuous
 70
     0
  3
Solid line
 72
    65
 73
     0
 40
0.0
  0
LTYPE
  5
38
330
5
100
AcDbSymbolTableRecord
100
AcDbLinetypeTableRecord
  2
STRICHPUNKT
 70
     0
  3
__ . __ . __ . __ . __ . __ . __ . __ . __ . __
 72
    65
 73
     4
 40
1.0
 49
0.5
 74
     0
 49
-0.25
 74
     0
 49
0.0
 74
     0
 49
-0.25
 74
     0
  0
ENDTAB
  0
TABLE
  2
LAYER
  5
2
330
0
100
AcDbSymbolTable
 70
     9
  0
LAYER
  5
10
330
2
100
AcDbSymbolTableRecord
100
AcDbLayerTableRecord
  2
0
 70
     0
 62
     7
  6
Continuous
370
    -3
390
F
  0
LAYER
  5
3B
330
2
100
AcDbSymbolTableRecord
100
AcDbLayerTableRecord
  2
VOLL
 70
     0
 62
     1
  6
Continuous
370
    -3
390
F
  0
LAYER
  5
3C
330
2
100
AcDbSymbolTableRecord
100
AcDbLayerTableRecord
  2
HILF
 70
     0
 62
     2
  6
Continuous
370
    -3
390
F
  0
LAYER
  5
3D
330
2
100
AcDbSymbolTableRecord
100
AcDbLayerTableRecord
  2
MITTEL
 70
     0
 62
     2
  6
STRICHPUNKT
370
    -3
390
F
  0
LAYER
  5
3E
330
2
100
AcDbSymbolTableRecord
100
AcDbLayerTableRecord
  2
BEM
 70
     0
 62
     7
  6
Continuous
370
    -3
390
F
  0
LAYER
  5
3F
330
2
100
AcDbSymbolTableRecord
100
AcDbLayerTableRecord
  2
SCHRAFF
 70
     0
 62
     7
  6
Continuous
370
    -3
390
F
  0
LAYER
  5
40
330
2
100
AcDbSymbolTableRecord
100
AcDbLayerTableRecord
  2
STEMPEL
 70
     0
 62
     3
  6
Continuous
370
    -3
390
F
  0
LAYER
  5
41
330
2
100
AcDbSymbolTableRecord
100
AcDbLayerTableRecord
  2
DEFPOINTS
 70
     0
 62
     7
  6
Continuous
290
     0
370
    -3
390
F
  0
LAYER
  5
42
330
2
100
AcDbSymbolTableRecord
100
AcDbLayerTableRecord
  2
TEXT
 70
     0
 62
     7
  6
Continuous
370
    -3
390
F
  0
ENDTAB
  0
TABLE
  2
STYLE
  5
3
330
0
100
AcDbSymbolTable
 70
     2
  0
STYLE
  5
11
330
3
100
AcDbSymbolTableRecord
100
AcDbTextStyleTableRecord
  2
STANDARD
 70
     0
 40
0.0
 41
0.8
 50
0.0
 71
     0
 42
3.5
  3
simplex.shx
  4

  0
STYLE
  5
37
330
3
100
AcDbSymbolTableRecord
100
AcDbTextStyleTableRecord
  2
GREEKS
 70
     0
 40
0.0
 41
0.8
 50
0.0
 71
     0
 42
3.5
  3
SIMPLEX.shx
  4

  0
ENDTAB
  0
TABLE
  2
VIEW
  5
6
330
0
100
AcDbSymbolTable
 70
     0
  0
ENDTAB
  0
TABLE
  2
UCS
  5
7
330
0
100
AcDbSymbolTable
 70
     0
  0
ENDTAB
  0
TABLE
  2
APPID
  5
9
330
0
100
AcDbSymbolTable
 70
     1
  0
APPID
  5
12
330
9
100
AcDbSymbolTableRecord
100
AcDbRegAppTableRecord
  2
ACAD
 70
     0
  0
ENDTAB
  0
TABLE
  2
DIMSTYLE
  5
A
330
0
100
AcDbSymbolTable
 70
     1
100
AcDbDimStyleTable
 71
     1
340
20F
  0
DIMSTYLE
105
20F
102
{ACAD_REACTORS
330
B0C
330
B24
330
B3C
330
B54
330
B6C
330
B84
330
B9C
102
}
330
A
100
AcDbSymbolTableRecord
100
AcDbDimStyleTableRecord
  2
Standard
 70
     0
340
11
  0
ENDTAB
  0
TABLE
  2
BLOCK_RECORD
  5
1
330
0
100
AcDbSymbolTable
 70
     7
  0
BLOCK_RECORD
  5
20
330
1
100
AcDbSymbolTableRecord
100
AcDbBlockTableRecord
  2
*Model_Space
340
23
  0
BLOCK_RECORD
  5
1C
330
1
100
AcDbSymbolTableRecord
100
AcDbBlockTableRecord
  2
*Paper_Space
340
1F
  0
BLOCK_RECORD
  5
B0D
330
1
100
AcDbSymbolTableRecord
100
AcDbBlockTableRecord
  2
*D0
340
0
  0
BLOCK_RECORD
  5
B25
330
1
100
AcDbSymbolTableRecord
100
AcDbBlockTableRecord
  2
*D1
340
0
  0
BLOCK_RECORD
  5
B3D
330
1
100
AcDbSymbolTableRecord
100
AcDbBlockTableRecord
  2
*D2
340
0
  0
BLOCK_RECORD
  5
B55
330
1
100
AcDbSymbolTableRecord
100
AcDbBlockTableRecord
  2
*D3
340
0
  0
BLOCK_RECORD
  5
B6D
330
1
100
AcDbSymbolTableRecord
100
AcDbBlockTableRecord
  2
*D4
340
0
  0
BLOCK_RECORD
  5
B85
330
1
100
AcDbSymbolTableRecord
100
AcDbBlockTableRecord
  2
*D5
340
0
  0
BLOCK_RECORD
  5
B9D
330
1
100
AcDbSymbolTableRecord
100
AcDbBlockTableRecord
  2
*D6
340
0
  0
ENDTAB
  0
ENDSEC
  0
SECTION
  2
BLOCKS
  0
BLOCK
  5
46
330
20
100
AcDbEntity
  8
0
100
AcDbBlockBegin
  2
*Model_Space
 70
     0
 10
0.0
 20
0.0
 30
0.0
  3
*Model_Space
  1

  0
ENDBLK
  5
47
330
20
100
AcDbEntity
  8
0
100
AcDbBlockEnd
  0
BLOCK
  5
44
330
1C
100
AcDbEntity
 67
     1
  8
0
100
AcDbBlockBegin
  2
*Paper_Space
 70
     0
 10
0.0
 20
0.0
 30
0.0
  3
*Paper_Space
  1

  0
ENDBLK
  5
45
330
1C
100
AcDbEntity
 67
     1
  8
0
100
AcDbBlockEnd
  0
BLOCK
  5
B17
330
B0D
100
AcDbEntity
  8
0
100
AcDbBlockBegin
  2
*D0
 70
     1
 10
0.0
 20
0.0
 30
0.0
  3
*D0
  1

  0
LINE
  5
BF9
330
B0D
100
AcDbEntity
  8
BEM
 62
     0
370
    -2
100
AcDbLine
 10
78.81159247220637
 20
167.946864503872
 30
0.0
 11
78.81159247220637
 21
182.0835438911325
 31
0.0
  0
LINE
  5
BFA
330
B0D
100
AcDbEntity
  8
BEM
 62
     0
370
    -2
100
AcDbLine
 10
152.8115924722063
 20
167.946864503872
 30
0.0
 11
152.8115924722063
 21
182.0835438911325
 31
0.0
  0
LINE
  5
BFB
330
B0D
100
AcDbEntity
  8
BEM
 62
     0
370
    -2
100
AcDbLine
 10
82.31159247220636
 20
181.0835438911325
 30
0.0
 11
149.3115924722063
 21
181.0835438911325
 31
0.0
  0
SOLID
  5
BFC
330
B0D
100
AcDbEntity
  8
BEM
 62
     0
100
AcDbTrace
 10
82.31159247220636
 20
181.6668772244659
 30
0.0
 11
82.31159247220636
 21
180.5002105577992
 31
0.0
 12
78.81159247220637
 22
181.0835438911325
 32
0.0
 13
78.81159247220637
 23
181.0835438911325
 33
0.0
  0
SOLID
  5
BFD
330
B0D
100
AcDbEntity
  8
BEM
 62
     0
100
AcDbTrace
 10
149.3115924722063
 20
181.6668772244659
 30
0.0
 11
149.3115924722063
 21
180.5002105577992
 31
0.0
 12
152.8115924722063
 22
181.0835438911325
 32
0.0
 13
152.8115924722063
 23
181.0835438911325
 33
0.0
  0
MTEXT
  5
BFE
330
B0D
100
AcDbEntity
  8
BEM
 62
     1
100
AcDbMText
 10
115.8115924722064
 20
184.3335438911325
 30
0.0
 40
3.5
 41
0.0
 71
     5
 72
     1
  1
\A1;%%c74
 73
     1
 44
1.0
  0
POINT
  5
BFF
330
B0D
100
AcDbEntity
  8
DEFPOINTS
 62
     0
100
AcDbPoint
 10
78.81159247220637
 20
166.946864503872
 30
0.0
  0
POINT
  5
C00
330
B0D
100
AcDbEntity
  8
DEFPOINTS
 62
     0
100
AcDbPoint
 10
152.8115924722063
 20
166.946864503872
 30
0.0
  0
POINT
  5
C01
330
B0D
100
AcDbEntity
  8
DEFPOINTS
 62
     0
100
AcDbPoint
 10
152.8115924722063
 20
181.0835438911325
 30
0.0
  0
ENDBLK
  5
B18
330
B0D
100
AcDbEntity
  8
0
100
AcDbBlockEnd
  0
BLOCK
  5
B2F
330
B25
100
AcDbEntity
  8
0
100
AcDbBlockBegin
  2
*D1
 70
     1
 10
0.0
 20
0.0
 30
0.0
  3
*D1
  1

  0
LINE
  5
BF0
330
B25
100
AcDbEntity
  8
BEM
 62
     0
370
    -2
100
AcDbLine
 10
73.51159247220635
 20
172.446864503872
 30
0.0
 11
73.51159247220635
 21
189.1615585584654
 31
0.0
  0
LINE
  5
BF1
330
B25
100
AcDbEntity
  8
BEM
 62
     0
370
    -2
100
AcDbLine
 10
158.1115924722063
 20
172.446864503872
 30
0.0
 11
158.1115924722063
 21
189.1615585584654
 31
0.0
  0
LINE
  5
BF2
330
B25
100
AcDbEntity
  8
BEM
 62
     0
370
    -2
100
AcDbLine
 10
77.01159247220636
 20
188.1615585584654
 30
0.0
 11
154.6115924722063
 21
188.1615585584654
 31
0.0
  0
SOLID
  5
BF3
330
B25
100
AcDbEntity
  8
BEM
 62
     0
100
AcDbTrace
 10
77.01159247220636
 20
188.7448918917988
 30
0.0
 11
77.01159247220636
 21
187.5782252251321
 31
0.0
 12
73.51159247220635
 22
188.1615585584654
 32
0.0
 13
73.51159247220635
 23
188.1615585584654
 33
0.0
  0
SOLID
  5
BF4
330
B25
100
AcDbEntity
  8
BEM
 62
     0
100
AcDbTrace
 10
154.6115924722063
 20
188.7448918917988
 30
0.0
 11
154.6115924722063
 21
187.5782252251321
 31
0.0
 12
158.1115924722063
 22
188.1615585584654
 32
0.0
 13
158.1115924722063
 23
188.1615585584654
 33
0.0
  0
MTEXT
  5
BF5
330
B25
100
AcDbEntity
  8
BEM
 62
     1
100
AcDbMText
 10
115.8115924722063
 20
191.4115585584654
 30
0.0
 40
3.5
 41
0.0
 71
     5
 72
     1
  1
\A1;%%c84.6
 73
     1
 44
1.0
  0
POINT
  5
BF6
330
B25
100
AcDbEntity
  8
DEFPOINTS
 62
     0
100
AcDbPoint
 10
73.51159247220635
 20
171.446864503872
 30
0.0
  0
POINT
  5
BF7
330
B25
100
AcDbEntity
  8
DEFPOINTS
 62
     0
100
AcDbPoint
 10
158.1115924722063
 20
171.446864503872
 30
0.0
  0
POINT
  5
BF8
330
B25
100
AcDbEntity
  8
DEFPOINTS
 62
     0
100
AcDbPoint
 10
158.1115924722063
 20
188.1615585584654
 30
0.0
  0
ENDBLK
  5
B30
330
B25
100
AcDbEntity
  8
0
100
AcDbBlockEnd
  0
BLOCK
  5
B47
330
B3D
100
AcDbEntity
  8
0
100
AcDbBlockBegin
  2
*D2
 70
     1
 10
0.0
 20
0.0
 30
0.0
  3
*D2
  1

  0
LINE
  5
C02
330
B3D
100
AcDbEntity
  8
BEM
 62
     0
370
    -2
100
AcDbLine
 10
77.31159247220637
 20
122.9468645038721
 30
0.0
 11
77.31159247220637
 21
104.2160710103595
 31
0.0
  0
LINE
  5
C03
330
B3D
100
AcDbEntity
  8
BEM
 62
     0
370
    -2
100
AcDbLine
 10
154.3115924722064
 20
122.9468645038721
 30
0.0
 11
154.3115924722064
 21
104.2160710103595
 31
0.0
  0
LINE
  5
C04
330
B3D
100
AcDbEntity
  8
BEM
 62
     0
370
    -2
100
AcDbLine
 10
80.81159247220638
 20
105.2160710103595
 30
0.0
 11
150.8115924722063
 21
105.2160710103595
 31
0.0
  0
SOLID
  5
C05
330
B3D
100
AcDbEntity
  8
BEM
 62
     0
100
AcDbTrace
 10
80.81159247220638
 20
105.7994043436929
 30
0.0
 11
80.81159247220638
 21
104.6327376770262
 31
0.0
 12
77.31159247220637
 22
105.2160710103595
 32
0.0
 13
77.31159247220637
 23
105.2160710103595
 33
0.0
  0
SOLID
  5
C06
330
B3D
100
AcDbEntity
  8
BEM
 62
     0
100
AcDbTrace
 10
150.8115924722063
 20
105.7994043436929
 30
0.0
 11
150.8115924722063
 21
104.6327376770262
 31
0.0
 12
154.3115924722064
 22
105.2160710103595
 32
0.0
 13
154.3115924722064
 23
105.2160710103595
 33
0.0
  0
MTEXT
  5
C07
330
B3D
100
AcDbEntity
  8
BEM
 62
     1
100
AcDbMText
 10
115.8115924722064
 20
108.4660710103595
 30
0.0
 40
3.5
 41
0.0
 71
     5
 72
     1
  1
\A1;%%c77
 73
     1
 44
1.0
  0
POINT
  5
C08
330
B3D
100
AcDbEntity
  8
DEFPOINTS
 62
     0
100
AcDbPoint
 10
77.31159247220637
 20
123.9468645038721
 30
0.0
  0
POINT
  5
C09
330
B3D
100
AcDbEntity
  8
DEFPOINTS
 62
     0
100
AcDbPoint
 10
154.3115924722064
 20
123.9468645038721
 30
0.0
  0
POINT
  5
C0A
330
B3D
100
AcDbEntity
  8
DEFPOINTS
 62
     0
100
AcDbPoint
 10
154.3115924722064
 20
105.2160710103595
 30
0.0
  0
ENDBLK
  5
B48
330
B3D
100
AcDbEntity
  8
0
100
AcDbBlockEnd
  0
BLOCK
  5
B5F
330
B55
100
AcDbEntity
  8
0
100
AcDbBlockBegin
  2
*D3
 70
     1
 10
0.0
 20
0.0
 30
0.0
  3
*D3
  1

  0
LINE
  5
C0B
330
B55
100
AcDbEntity
  8
BEM
 62
     0
370
    -2
100
AcDbLine
 10
73.91159247220634
 20
157.946864503872
 30
0.0
 11
73.91159247220634
 21
95.81092837460529
 31
0.0
  0
LINE
  5
C0C
330
B55
100
AcDbEntity
  8
BEM
 62
     0
370
    -2
100
AcDbLine
 10
157.7115924722063
 20
157.946864503872
 30
0.0
 11
157.7115924722063
 21
95.81092837460529
 31
0.0
  0
LINE
  5
C0D
330
B55
100
AcDbEntity
  8
BEM
 62
     0
370
    -2
100
AcDbLine
 10
77.41159247220633
 20
96.81092837460528
 30
0.0
 11
154.2115924722063
 21
96.81092837460528
 31
0.0
  0
SOLID
  5
C0E
330
B55
100
AcDbEntity
  8
BEM
 62
     0
100
AcDbTrace
 10
77.41159247220633
 20
97.39426170793862
 30
0.0
 11
77.41159247220633
 21
96.22759504127195
 31
0.0
 12
73.91159247220634
 22
96.81092837460528
 32
0.0
 13
73.91159247220634
 23
96.81092837460528
 33
0.0
  0
SOLID
  5
C0F
330
B55
100
AcDbEntity
  8
BEM
 62
     0
100
AcDbTrace
 10
154.2115924722063
 20
97.39426170793862
 30
0.0
 11
154.2115924722063
 21
96.22759504127195
 31
0.0
 12
157.7115924722063
 22
96.81092837460528
 32
0.0
 13
157.7115924722063
 23
96.81092837460528
 33
0.0
  0
MTEXT
  5
C10
330
B55
100
AcDbEntity
  8
BEM
 62
     1
100
AcDbMText
 10
115.8115924722063
 20
100.0609283746052
 30
0.0
 40
3.5
 41
0.0
 71
     5
 72
     1
  1
\A1;%%c83.8
 73
     1
 44
1.0
  0
POINT
  5
C11
330
B55
100
AcDbEntity
  8
DEFPOINTS
 62
     0
100
AcDbPoint
 10
73.91159247220634
 20
158.9468645038721
 30
0.0
  0
POINT
  5
C12
330
B55
100
AcDbEntity
  8
DEFPOINTS
 62
     0
100
AcDbPoint
 10
157.7115924722063
 20
158.9468645038721
 30
0.0
  0
POINT
  5
C13
330
B55
100
AcDbEntity
  8
DEFPOINTS
 62
     0
100
AcDbPoint
 10
157.7115924722063
 20
96.81092837460528
 30
0.0
  0
ENDBLK
  5
B60
330
B55
100
AcDbEntity
  8
0
100
AcDbBlockEnd
  0
BLOCK
  5
B77
330
B6D
100
AcDbEntity
  8
0
100
AcDbBlockBegin
  2
*D4
 70
     1
 10
0.0
 20
0.0
 30
0.0
  3
*D4
  1

  0
LINE
  5
B7A
330
B6D
100
AcDbEntity
  8
BEM
 62
     0
370
    -2
100
AcDbLine
 10
76.72093560457608
 20
117.9468645038721
 30
0.0
 11
65.57530148877003
 21
117.9468645038721
 31
0.0
  0
LINE
  5
B7B
330
B6D
100
AcDbEntity
  8
BEM
 62
     0
370
    -2
100
AcDbLine
 10
72.01159247220636
 20
152.946864503872
 30
0.0
 11
65.57530148877003
 21
152.946864503872
 31
0.0
  0
LINE
  5
B7C
330
B6D
100
AcDbEntity
  8
BEM
 62
     0
370
    -2
100
AcDbLine
 10
66.57530148877004
 20
121.4468645038721
 30
0.0
 11
66.57530148877004
 21
149.446864503872
 31
0.0
  0
SOLID
  5
B7D
330
B6D
100
AcDbEntity
  8
BEM
 62
     0
100
AcDbTrace
 10
65.9919681554367
 20
121.4468645038721
 30
0.0
 11
67.15863482210337
 21
121.4468645038721
 31
0.0
 12
66.57530148877004
 22
117.9468645038721
 32
0.0
 13
66.57530148877004
 23
117.9468645038721
 33
0.0
  0
SOLID
  5
B7E
330
B6D
100
AcDbEntity
  8
BEM
 62
     0
100
AcDbTrace
 10
65.9919681554367
 20
149.446864503872
 30
0.0
 11
67.15863482210337
 21
149.446864503872
 31
0.0
 12
66.57530148877004
 22
152.946864503872
 32
0.0
 13
66.57530148877004
 23
152.946864503872
 33
0.0
  0
MTEXT
  5
B7F
330
B6D
100
AcDbEntity
  8
BEM
 62
     1
100
AcDbMText
 10
63.32530148877001
 20
135.4468645038721
 30
0.0
 40
3.5
 41
0.0
 71
     5
 72
     1
  1
\A1;35
 11
0.0000000000000001
 21
1.0
 31
0.0
 73
     1
 44
1.0
  0
POINT
  5
B80
330
B6D
100
AcDbEntity
  8
DEFPOINTS
 62
     0
100
AcDbPoint
 10
77.72093560457609
 20
117.9468645038721
 30
0.0
  0
POINT
  5
B81
330
B6D
100
AcDbEntity
  8
DEFPOINTS
 62
     0
100
AcDbPoint
 10
73.01159247220636
 20
152.946864503872
 30
0.0
  0
POINT
  5
B82
330
B6D
100
AcDbEntity
  8
DEFPOINTS
 62
     0
100
AcDbPoint
 10
66.57530148877004
 20
152.946864503872
 30
0.0
  0
ENDBLK
  5
B78
330
B6D
100
AcDbEntity
  8
0
100
AcDbBlockEnd
  0
BLOCK
  5
B8F
330
B85
100
AcDbEntity
  8
0
100
AcDbBlockBegin
  2
*D5
 70
     1
 10
0.0
 20
0.0
 30
0.0
  3
*D5
  1

  0
LINE
  5
B92
330
B85
100
AcDbEntity
  8
BEM
 62
     0
370
    -2
100
AcDbLine
 10
76.72093560457608
 20
117.9468645038721
 30
0.0
 11
58.57530148877003
 21
117.9468645038721
 31
0.0
  0
LINE
  5
B93
330
B85
100
AcDbEntity
  8
BEM
 62
     0
370
    -2
100
AcDbLine
 10
72.51159247220636
 20
167.946864503872
 30
0.0
 11
58.57530148877003
 21
167.9468645038721
 31
0.0
  0
LINE
  5
B94
330
B85
100
AcDbEntity
  8
BEM
 62
     0
370
    -2
100
AcDbLine
 10
59.57530148877003
 20
121.4468645038721
 30
0.0
 11
59.57530148877004
 21
164.4468645038721
 31
0.0
  0
SOLID
  5
B95
330
B85
100
AcDbEntity
  8
BEM
 62
     0
100
AcDbTrace
 10
58.99196815543669
 20
121.4468645038721
 30
0.0
 11
60.15863482210336
 21
121.4468645038721
 31
0.0
 12
59.57530148877003
 22
117.9468645038721
 32
0.0
 13
59.57530148877003
 23
117.9468645038721
 33
0.0
  0
SOLID
  5
B96
330
B85
100
AcDbEntity
  8
BEM
 62
     0
100
AcDbTrace
 10
58.9919681554367
 20
164.4468645038721
 30
0.0
 11
60.15863482210337
 21
164.4468645038721
 31
0.0
 12
59.57530148877004
 22
167.9468645038721
 32
0.0
 13
59.57530148877004
 23
167.9468645038721
 33
0.0
  0
MTEXT
  5
B97
330
B85
100
AcDbEntity
  8
BEM
 62
     1
100
AcDbMText
 10
56.32530148877001
 20
142.9468645038721
 30
0.0
 40
3.5
 41
0.0
 71
     5
 72
     1
  1
\A1;50
 11
0.0000000000000001
 21
1.0
 31
0.0
 73
     1
 44
1.0
  0
POINT
  5
B98
330
B85
100
AcDbEntity
  8
DEFPOINTS
 62
     0
100
AcDbPoint
 10
77.72093560457609
 20
117.9468645038721
 30
0.0
  0
POINT
  5
B99
330
B85
100
AcDbEntity
  8
DEFPOINTS
 62
     0
100
AcDbPoint
 10
73.51159247220635
 20
167.946864503872
 30
0.0
  0
POINT
  5
B9A
330
B85
100
AcDbEntity
  8
DEFPOINTS
 62
     0
100
AcDbPoint
 10
59.57530148877004
 20
167.9468645038721
 30
0.0
  0
ENDBLK
  5
B90
330
B85
100
AcDbEntity
  8
0
100
AcDbBlockEnd
  0
BLOCK
  5
BA7
330
B9D
100
AcDbEntity
  8
0
100
AcDbBlockBegin
  2
*D6
 70
     1
 10
0.0
 20
0.0
 30
0.0
  3
*D6
  1

  0
LINE
  5
BAA
330
B9D
100
AcDbEntity
  8
BEM
 62
     0
370
    -2
100
AcDbLine
 10
76.72093560457608
 20
117.9468645038721
 30
0.0
 11
51.57530148877003
 21
117.9468645038721
 31
0.0
  0
LINE
  5
BAB
330
B9D
100
AcDbEntity
  8
BEM
 62
     0
370
    -2
100
AcDbLine
 10
74.01159247220636
 20
172.946864503872
 30
0.0
 11
51.57530148877004
 21
172.946864503872
 31
0.0
  0
LINE
  5
BAC
330
B9D
100
AcDbEntity
  8
BEM
 62
     0
370
    -2
100
AcDbLine
 10
52.57530148877003
 20
121.4468645038721
 30
0.0
 11
52.57530148877004
 21
169.446864503872
 31
0.0
  0
SOLID
  5
BAD
330
B9D
100
AcDbEntity
  8
BEM
 62
     0
100
AcDbTrace
 10
51.99196815543669
 20
121.4468645038721
 30
0.0
 11
53.15863482210336
 21
121.4468645038721
 31
0.0
 12
52.57530148877003
 22
117.9468645038721
 32
0.0
 13
52.57530148877003
 23
117.9468645038721
 33
0.0
  0
SOLID
  5
BAE
330
B9D
100
AcDbEntity
  8
BEM
 62
     0
100
AcDbTrace
 10
51.9919681554367
 20
169.446864503872
 30
0.0
 11
53.15863482210337
 21
169.446864503872
 31
0.0
 12
52.57530148877004
 22
172.946864503872
 32
0.0
 13
52.57530148877004
 23
172.946864503872
 33
0.0
  0
MTEXT
  5
BAF
330
B9D
100
AcDbEntity
  8
BEM
 62
     1
100
AcDbMText
 10
49.32530148877001
 20
145.4468645038721
 30
0.0
 40
3.5
 41
0.0
 71
     5
 72
     1
  1
\A1;55
 11
0.0000000000000001
 21
1.0
 31
0.0
 73
     1
 44
1.0
  0
POINT
  5
BB0
330
B9D
100
AcDbEntity
  8
DEFPOINTS
 62
     0
100
AcDbPoint
 10
77.72093560457609
 20
117.9468645038721
 30
0.0
  0
POINT
  5
BB1
330
B9D
100
AcDbEntity
  8
DEFPOINTS
 62
     0
100
AcDbPoint
 10
75.01159247220636
 20
172.946864503872
 30
0.0
  0
POINT
  5
BB2
330
B9D
100
AcDbEntity
  8
DEFPOINTS
 62
     0
100
AcDbPoint
 10
52.57530148877004
 20
172.946864503872
 30
0.0
  0
ENDBLK
  5
BA8
330
B9D
100
AcDbEntity
  8
0
100
AcDbBlockEnd
  0
ENDSEC
  0
SECTION
  2
ENTITIES
  0
LINE
  5
144
330
20
100
AcDbEntity
  8
HILF
100
AcDbLine
 10
210.0
 20
0.0
 30
0.0
 11
0.0
 21
0.0
 31
0.0
  0
LINE
  5
145
330
20
100
AcDbEntity
  8
HILF
100
AcDbLine
 10
210.0
 20
297.0000000000001
 30
0.0
 11
0.0
 21
297.0
 31
0.0
  0
LINE
  5
146
330
20
100
AcDbEntity
  8
STEMPEL
100
AcDbLine
 10
205.0
 20
292.0
 30
0.0
 11
19.99999999999994
 21
292.0
 31
0.0
  0
LINE
  5
147
330
20
100
AcDbEntity
  8
STEMPEL
100
AcDbLine
 10
205.0
 20
5.0
 30
0.0
 11
19.99999999999994
 21
5.0
 31
0.0
  0
LINE
  5
148
330
20
100
AcDbEntity
  8
STEMPEL
100
AcDbLine
 10
24.99999999999995
 20
5.0
 30
0.0
 11
205.0
 21
5.0
 31
0.0
  0
LINE
  5
149
330
20
100
AcDbEntity
  8
HILF
100
AcDbLine
 10
111.7454849644942
 20
7.446991290141568
 30
0.0
 11
202.4294419663364
 21
7.446991290141568
 31
0.0
  0
LINE
  5
14A
330
20
100
AcDbEntity
  8
HILF
100
AcDbLine
 10
112.3868400548474
 20
24.99999999999999
 30
0.0
 11
162.4176958278155
 21
24.99999999999999
 31
0.0
  0
LINE
  5
14B
330
20
100
AcDbEntity
  8
HILF
100
AcDbLine
 10
112.3868400548474
 20
29.99999999999999
 30
0.0
 11
162.4176958278155
 21
29.99999999999999
 31
0.0
  0
LINE
  5
14C
330
20
100
AcDbEntity
  8
HILF
100
AcDbLine
 10
112.3868400548474
 20
34.99999999999997
 30
0.0
 11
162.4176958278155
 21
34.99999999999997
 31
0.0
  0
LINE
  5
14D
330
20
100
AcDbEntity
  8
HILF
100
AcDbLine
 10
112.3868400548474
 20
42.01879123782069
 30
0.0
 11
162.4176958278155
 21
42.01879123782069
 31
0.0
  0
LINE
  5
14E
330
20
100
AcDbEntity
  8
STEMPEL
100
AcDbLine
 10
205.0
 20
40.0
 30
0.0
 11
68.00000000000006
 21
39.99999999999997
 31
0.0
  0
LINE
  5
14F
330
20
100
AcDbEntity
  8
STEMPEL
100
AcDbLine
 10
205.0
 20
20.0
 30
0.0
 11
68.00000000000006
 21
19.99999999999998
 31
0.0
  0
LINE
  5
150
330
20
100
AcDbEntity
  8
STEMPEL
100
AcDbLine
 10
205.0
 20
55.00000000000003
 30
0.0
 11
19.99999999999998
 21
55.0
 31
0.0
  0
LINE
  5
154
330
20
100
AcDbEntity
  8
HILF
100
AcDbLine
 10
0.0
 20
0.0
 30
0.0
 11
-0.0000000000000568
 21
297.0
 31
0.0
  0
LINE
  5
155
330
20
100
AcDbEntity
  8
STEMPEL
100
AcDbLine
 10
20.0
 20
5.0
 30
0.0
 11
19.99999999999994
 21
292.0
 31
0.0
  0
TEXT
  5
15C
330
20
100
AcDbEntity
  8
TEXT
100
AcDbText
 10
21.16299821803051
 20
55.83599999999997
 30
0.0
 40
2.5
  1
Erstellt mit AUTOCAD 2004
 41
0.8
  7
GREEKS
100
AcDbText
  0
LINE
  5
15D
330
20
100
AcDbEntity
  8
HILF
100
AcDbLine
 10
20.00000000000004
 20
19.99999999999998
 30
0.0
 11
68.00000000000006
 21
19.99999999999998
 31
0.0
  0
LINE
  5
15E
330
20
100
AcDbEntity
  8
HILF
100
AcDbLine
 10
20.00000000000004
 20
24.99999999999999
 30
0.0
 11
68.00000000000006
 21
24.99999999999999
 31
0.0
  0
LINE
  5
15F
330
20
100
AcDbEntity
  8
HILF
100
AcDbLine
 10
20.00000000000004
 20
29.99999999999999
 30
0.0
 11
68.00000000000006
 21
29.99999999999999
 31
0.0
  0
LINE
  5
160
330
20
100
AcDbEntity
  8
HILF
100
AcDbLine
 10
20.00000000000004
 20
34.99999999999997
 30
0.0
 11
68.00000000000006
 21
34.99999999999997
 31
0.0
  0
LINE
  5
161
330
20
100
AcDbEntity
  8
HILF
100
AcDbLine
 10
20.00000000000004
 20
39.99999999999997
 30
0.0
 11
68.00000000000006
 21
39.99999999999997
 31
0.0
  0
LINE
  5
162
330
20
100
AcDbEntity
  8
HILF
100
AcDbLine
 10
20.00000000000004
 20
45.00000000000002
 30
0.0
 11
68.00000000000006
 21
45.00000000000002
 31
0.0
  0
LINE
  5
163
330
20
100
AcDbEntity
  8
HILF
100
AcDbLine
 10
20.00000000000004
 20
50.00000000000003
 30
0.0
 11
68.00000000000006
 21
50.00000000000003
 31
0.0
  0
LINE
  5
164
330
20
100
AcDbEntity
  8
STEMPEL
100
AcDbLine
 10
67.99999999999994
 20
14.99999999999998
 30
0.0
 11
19.99999999999998
 21
14.99999999999998
 31
0.0
  0
TEXT
  5
165
330
20
100
AcDbEntity
  8
TEXT
100
AcDbText
 10
49.79273626936724
 20
9.33578134669905
 30
0.0
 40
2.0
  1
Tag
 41
0.8
  7
GREEKS
 72
     1
 11
51.65940293603391
 21
9.33578134669905
 31
0.0
100
AcDbText
  0
TEXT
  5
166
330
20
100
AcDbEntity
  8
TEXT
100
AcDbText
 10
31.1234419470788
 20
9.336909474920659
 30
0.0
 40
2.0
  1
Änderung
 41
0.8
  7
GREEKS
 72
     1
 11
36.49487051850737
 21
9.336909474920659
 31
0.0
100
AcDbText
  0
TEXT
  5
167
330
20
100
AcDbEntity
  8
TEXT
100
AcDbText
 10
24.13320553522878
 20
6.827329230135958
 30
0.0
 40
1.8
  1
Index
 50
90.0
 41
0.8
  7
GREEKS
100
AcDbText
  0
LINE
  5
168
330
20
100
AcDbEntity
  8
VOLL
100
AcDbLine
 10
57.00000000000006
 20
54.99999999999997
 30
0.0
 11
57.0
 21
4.999999999999985
 31
0.0
  0
LINE
  5
169
330
20
100
AcDbEntity
  8
VOLL
100
AcDbLine
 10
47.00000000000005
 20
54.99999999999997
 30
0.0
 11
47.0
 21
4.999999999999985
 31
0.0
  0
LINE
  5
16A
330
20
100
AcDbEntity
  8
VOLL
100
AcDbLine
 10
27.00000000000005
 20
55.00000000000003
 30
0.0
 11
26.99999999999999
 21
4.999999999999985
 31
0.0
  0
LINE
  5
16E
330
20
100
AcDbEntity
  8
HILF
100
AcDbLine
 10
15.54383567856928
 20
148.5
 30
0.0
 11
0.0000000000000568
 21
148.5
 31
0.0
  0
TEXT
  5
17F
330
20
100
AcDbEntity
  8
TEXT
100
AcDbText
 10
92.14294773670257
 20
51.20920842174095
 30
0.0
 40
2.5
  1
Zul. Abw.
 41
0.8
  7
GREEKS
100
AcDbText
  0
LINE
  5
180
330
20
100
AcDbEntity
  8
HILF
100
AcDbLine
 10
68.00000000000006
 20
24.99999999999999
 30
0.0
 11
110.0
 21
24.99999999999999
 31
0.0
  0
LINE
  5
181
330
20
100
AcDbEntity
  8
HILF
100
AcDbLine
 10
68.00000000000006
 20
29.99999999999999
 30
0.0
 11
110.0
 21
29.99999999999999
 31
0.0
  0
LINE
  5
182
330
20
100
AcDbEntity
  8
HILF
100
AcDbLine
 10
68.00000000000006
 20
34.99999999999997
 30
0.0
 11
110.0
 21
34.99999999999997
 31
0.0
  0
ARC
  5
183
330
20
100
AcDbEntity
  8
TEXT
 62
     3
100
AcDbCircle
 10
82.09750516967082
 20
13.23892712376011
 30
0.0
 40
4.5
100
AcDbArc
 50
270.0
 51
231.0575587310159
  0
ARC
  5
184
330
20
100
AcDbEntity
  8
TEXT
 62
     3
100
AcDbCircle
 10
102.0975051696708
 20
13.23892712376014
 30
0.0
 40
4.5
100
AcDbArc
 50
270.0
 51
231.0575587310182
  0
LINE
  5
185
330
20
100
AcDbEntity
  8
TEXT
 62
     3
100
AcDbLine
 10
88.09750516967083
 20
17.73892712376014
 30
0.0
 11
88.09750516967085
 21
8.738927123760138
 31
0.0
  0
ARC
  5
186
330
20
100
AcDbEntity
  8
TEXT
 62
     3
100
AcDbCircle
 10
75.09750516967085
 20
10.73892712376028
 30
0.0
 40
2.0
100
AcDbArc
 50
179.9999999999992
 51
270.0
  0
LINE
  5
187
330
20
100
AcDbEntity
  8
TEXT
 62
     3
100
AcDbLine
 10
89.09750516967084
 20
12.73892712376014
 30
0.0
 11
89.09750516967084
 21
8.738927123760166
 31
0.0
  0
LINE
  5
188
330
20
100
AcDbEntity
  8
TEXT
 62
     3
100
AcDbLine
 10
93.09750516967085
 20
12.73892712376014
 30
0.0
 11
94.16930193939533
 21
8.738927123760138
 31
0.0
  0
LINE
  5
189
330
20
100
AcDbEntity
  8
STEMPEL
100
AcDbLine
 10
68.00000000000006
 20
54.99999999999997
 30
0.0
 11
68.0
 21
4.999999999999985
 31
0.0
  0
LINE
  5
18A
330
20
100
AcDbEntity
  8
TEXT
 62
     3
100
AcDbLine
 10
82.09750516967085
 20
8.738927123760166
 30
0.0
 11
75.09750516967085
 21
8.738927123760138
 31
0.0
  0
LINE
  5
18B
330
20
100
AcDbEntity
  8
TEXT
 62
     3
100
AcDbLine
 10
102.0975051696708
 20
8.738927123760138
 30
0.0
 11
94.1693019393953
 21
8.738927123760166
 31
0.0
  0
LINE
  5
18C
330
20
100
AcDbEntity
  8
TEXT
 62
     3
100
AcDbLine
 10
89.09750516967084
 20
8.738927123760166
 30
0.0
 11
88.09750516967085
 21
8.738927123760166
 31
0.0
  0
CIRCLE
  5
18D
330
20
100
AcDbEntity
  8
TEXT
 62
     3
100
AcDbCircle
 10
82.09750516967082
 20
13.23892712376011
 30
0.0
 40
3.5
  0
TEXT
  5
18E
330
20
100
AcDbEntity
  8
TEXT
100
AcDbText
 10
80.16366688624525
 20
31.6381230352273
 30
0.0
 40
2.0
  1
24.06.
 41
0.8
  7
GREEKS
 72
     1
 11
83.66842879100715
 21
31.6381230352273
 31
0.0
100
AcDbText
  0
TEXT
  5
18F
330
20
100
AcDbEntity
  8
TEXT
100
AcDbText
 10
81.16558365768254
 20
36.65940250614963
 30
0.0
 40
1.8
  1
Tag
 41
0.8
  7
GREEKS
100
AcDbText
  0
TEXT
  5
190
330
20
100
AcDbEntity
  8
TEXT
100
AcDbText
 10
71.75817860751886
 20
51.23104475435443
 30
0.0
 40
2.5
  1
Maßstab
 41
0.8
  7
GREEKS
100
AcDbText
  0
TEXT
  5
191
330
20
100
AcDbEntity
  8
TEXT
100
AcDbText
 10
68.79180635838077
 20
31.81495184808982
 30
0.0
 40
1.8
  1
Gez.
 41
0.8
  7
GREEKS
100
AcDbText
  0
LINE
  5
192
330
20
100
AcDbEntity
  8
VOLL
100
AcDbLine
 10
77.00000000000006
 20
39.99999999999997
 30
0.0
 11
77.00000000000006
 21
19.99999999999998
 31
0.0
  0
TEXT
  5
193
330
20
100
AcDbEntity
  8
TEXT
100
AcDbText
 10
68.80033886936519
 20
21.76473194824904
 30
0.0
 40
1.8
  1
Norm.
 41
0.8
  7
GREEKS
100
AcDbText
  0
TEXT
  5
194
330
20
100
AcDbEntity
  8
TEXT
100
AcDbText
 10
68.77575432858361
 20
26.84463145714189
 30
0.0
 40
1.8
  1
Gepr.
 41
0.8
  7
GREEKS
100
AcDbText
  0
TEXT
  5
195
330
20
100
AcDbEntity
  8
TEXT
100
AcDbText
 10
59.44494414379217
 20
9.29662108483204
 30
0.0
 40
2.0
  1
Name
 41
0.8
  7
GREEKS
 72
     1
 11
62.60684890569694
 21
9.29662108483204
 31
0.0
100
AcDbText
  0
LINE
  5
197
330
20
100
AcDbEntity
  8
TEXT
 62
     3
100
AcDbLine
 10
79.26907804492447
 20
9.738927123760252
 30
0.0
 11
75.09750516967085
 21
9.73892712376028
 31
0.0
  0
LINE
  5
198
330
20
100
AcDbEntity
  8
TEXT
 62
     3
100
AcDbLine
 10
74.09750516967083
 20
17.73892712376008
 30
0.0
 11
74.09750516967085
 21
10.73892712376028
 31
0.0
  0
LINE
  5
199
330
20
100
AcDbEntity
  8
TEXT
 62
     3
100
AcDbLine
 10
73.09750516967082
 20
17.73892712376008
 30
0.0
 11
73.09750516967085
 21
10.73892712376028
 31
0.0
  0
ARC
  5
19A
330
20
100
AcDbEntity
  8
TEXT
 62
     3
100
AcDbCircle
 10
75.09750516967085
 20
10.73892712376028
 30
0.0
 40
1.0
100
AcDbArc
 50
180.0
 51
270.0
  0
LINE
  5
19B
330
20
100
AcDbEntity
  8
TEXT
 62
     3
100
AcDbLine
 10
74.09750516967083
 20
17.73892712376014
 30
0.0
 11
73.09750516967082
 21
17.73892712376014
 31
0.0
  0
TEXT
  5
19C
330
20
100
AcDbEntity
  8
TEXT
100
AcDbText
 10
69.31105491105199
 20
36.57012735575833
 30
0.0
 40
1.8
  1
2008
 41
0.8
  7
GREEKS
100
AcDbText
  0
TEXT
  5
19E
330
20
100
AcDbEntity
  8
TEXT
 62
     1
100
AcDbText
 10
75.62939046306187
 20
43.47879250756998
 30
0.0
 40
3.5
  1
1:1
 41
0.8
  7
GREEKS
100
AcDbText
  0
TEXT
  5
19F
330
20
100
AcDbEntity
  8
TEXT
100
AcDbText
 10
97.42845740347638
 20
31.54481959861755
 30
0.0
 40
2.0
  1
Koeh
 41
0.8
  7
GREEKS
 72
     1
 11
100.0570288320478
 21
31.54481959861755
 31
0.0
100
AcDbText
  0
LINE
  5
1A0
330
20
100
AcDbEntity
  8
VOLL
100
AcDbLine
 10
90.00000000000005
 20
54.99999999999992
 30
0.0
 11
90.0
 21
19.99999999999998
 31
0.0
  0
LINE
  5
1A1
330
20
100
AcDbEntity
  8
TEXT
 62
     3
100
AcDbLine
 10
99.26907804492465
 20
9.738927123760138
 30
0.0
 11
94.93662892737432
 21
9.738927123760166
 31
0.0
  0
LINE
  5
1A2
330
20
100
AcDbEntity
  8
TEXT
 62
     3
100
AcDbLine
 10
93.09750516967085
 20
12.73892712376014
 30
0.0
 11
89.09750516967083
 21
12.73892712376014
 31
0.0
  0
LINE
  5
1A3
330
20
100
AcDbEntity
  8
TEXT
 62
     3
100
AcDbLine
 10
93.09750516967085
 20
13.73892712376014
 30
0.0
 11
89.09750516967084
 21
13.73892712376014
 31
0.0
  0
LINE
  5
1A4
330
20
100
AcDbEntity
  8
TEXT
 62
     3
100
AcDbLine
 10
93.09750516967085
 20
16.73892712376014
 30
0.0
 11
89.09750516967084
 21
16.73892712376014
 31
0.0
  0
LINE
  5
1A5
330
20
100
AcDbEntity
  8
TEXT
 62
     3
100
AcDbLine
 10
93.09750516967085
 20
17.73892712376014
 30
0.0
 11
88.09750516967085
 21
17.73892712376014
 31
0.0
  0
LINE
  5
1A6
330
20
100
AcDbEntity
  8
TEXT
 62
     3
100
AcDbLine
 10
89.09750516967084
 20
16.73892712376014
 30
0.0
 11
89.09750516967084
 21
13.73892712376014
 31
0.0
  0
ARC
  5
1A7
330
20
100
AcDbEntity
  8
TEXT
 62
     3
100
AcDbCircle
 10
93.09750516967085
 20
15.23892712376014
 30
0.0
 40
2.5
100
AcDbArc
 50
293.1161887722295
 51
90.0
  0
ARC
  5
1A8
330
20
100
AcDbEntity
  8
TEXT
 62
     3
100
AcDbCircle
 10
93.09750516967085
 20
15.23892712376014
 30
0.0
 40
1.5
100
AcDbArc
 50
270.0
 51
90.0
  0
ARC
  5
1A9
330
20
100
AcDbEntity
  8
TEXT
 62
     3
100
AcDbCircle
 10
93.09750516967085
 20
15.23892712376014
 30
0.0
 40
2.5
100
AcDbArc
 50
270.0
 51
270.0000000000007
  0
LINE
  5
1AA
330
20
100
AcDbEntity
  8
TEXT
 62
     3
100
AcDbLine
 10
94.06343099595991
 20
12.99774616886265
 30
0.0
 11
94.93662892737431
 21
9.738927123760166
 31
0.0
  0
CIRCLE
  5
1AB
330
20
100
AcDbEntity
  8
TEXT
 62
     3
100
AcDbCircle
 10
102.0975051696708
 20
13.23892712376014
 30
0.0
 40
3.5
  0
TEXT
  5
1AC
330
20
100
AcDbEntity
  8
TEXT
100
AcDbText
 10
91.3473965120978
 20
44.64562352614806
 30
0.0
 40
2.0
  1
DIN EN1123-2
 41
0.8
  7
GREEKS
 72
     1
 11
99.8426346073359
 21
44.64562352614806
 31
0.0
100
AcDbText
  0
TEXT
  5
1AD
330
20
100
AcDbEntity
  8
TEXT
100
AcDbText
 10
96.23132921131475
 20
36.65480545957612
 30
0.0
 40
1.8
  1
Name
 41
0.8
  7
GREEKS
100
AcDbText
  0
LINE
  5
1AE
330
20
100
AcDbEntity
  8
STEMPEL
100
AcDbLine
 10
110.0
 20
55.00000000000003
 30
0.0
 11
110.0
 21
4.999999999999985
 31
0.0
  0
TEXT
  5
1AF
330
20
100
AcDbEntity
  8
TEXT
100
AcDbText
 10
112.5648195562657
 20
25.82005971521079
 30
0.0
 40
2.5
  1
EDV-Art.Nr. 00918.070X
 41
0.8
  7
GREEKS
100
AcDbText
  0
TEXT
  5
1B0
330
20
100
AcDbEntity
  8
TEXT
100
AcDbText
 10
112.371119195568
 20
15.42280285096528
 30
0.0
 40
2.5
  1
Bauvorhaben
 41
0.8
  7
GREEKS
100
AcDbText
  0
TEXT
  5
1B1
330
20
100
AcDbEntity
  8
TEXT
 62
     1
100
AcDbText
 10
113.4467865528701
 20
43.70874394626889
 30
0.0
 40
3.5
  1
Dichtelement DN70
 41
0.8
  7
GREEKS
100
AcDbText
  0
TEXT
  5
1B2
330
20
100
AcDbEntity
  8
TEXT
100
AcDbText
 10
112.4918750788913
 20
21.31487076511316
 30
0.0
 40
1.8
  1
00918070W.DWG
 41
0.8
  7
GREEKS
100
AcDbText
  0
TEXT
  5
1B3
330
20
100
AcDbEntity
  8
TEXT
100
AcDbText
 10
112.4389701904505
 20
51.27446640058898
 30
0.0
 40
2.5
  1
Benennung
 41
0.8
  7
GREEKS
100
AcDbText
  0
LINE
  5
1EF
330
20
100
AcDbEntity
  8
HILF
100
AcDbLine
 10
210.0
 20
-0.0000000000000568
 30
0.0
 11
210.0
 21
297.0
 31
0.0
  0
LINE
  5
1F0
330
20
100
AcDbEntity
  8
STEMPEL
100
AcDbLine
 10
205.0
 20
55.00000000000003
 30
0.0
 11
205.0
 21
292.0
 31
0.0
  0
LINE
  5
1F1
330
20
100
AcDbEntity
  8
STEMPEL
100
AcDbLine
 10
205.0
 20
55.00000000000003
 30
0.0
 11
205.0
 21
5.0
 31
0.0
  0
TEXT
  5
1F2
330
20
100
AcDbEntity
  8
TEXT
 62
     1
100
AcDbText
 10
173.7505192313636
 20
44.07450714456979
 30
0.0
 40
3.5
  1
00918070W
 41
0.8
  7
GREEKS
 72
     1
 11
185.483852564697
 21
44.07450714456979
 31
0.0
100
AcDbText
  0
TEXT
  5
1F4
330
20
100
AcDbEntity
  8
TEXT
100
AcDbText
 10
168.6200430748503
 20
26.03708088939301
 30
0.0
 40
2.5
  1
ersetzt durch:
 41
0.8
  7
GREEKS
100
AcDbText
  0
TEXT
  5
1F5
330
20
100
AcDbEntity
  8
TEXT
100
AcDbText
 10
168.3619308148496
 20
36.59059118549985
 30
0.0
 40
2.5
  1
Ersatz für:
 41
0.8
  7
GREEKS
100
AcDbText
  0
TEXT
  5
1F6
330
20
100
AcDbEntity
  8
TEXT
100
AcDbText
 10
168.089377478817
 20
51.15660172685682
 30
0.0
 40
2.5
  1
Zeichnungs Nr.
 41
0.8
  7
GREEKS
100
AcDbText
  0
LINE
  5
1F7
330
20
100
AcDbEntity
  8
HILF
100
AcDbLine
 10
168.3619308148496
 20
41.88991818477913
 30
0.0
 11
202.4294419663364
 21
41.88991818477913
 31
0.0
  0
LINE
  5
1F8
330
20
100
AcDbEntity
  8
VOLL
100
AcDbLine
 10
166.0
 20
30.0
 30
0.0
 11
205.0
 21
30.0
 31
0.0
  0
LINE
  5
1F9
330
20
100
AcDbEntity
  8
STEMPEL
100
AcDbLine
 10
166.0
 20
54.99999999999989
 30
0.0
 11
166.0
 21
20.0
 31
0.0
  0
TEXT
  5
208
330
20
100
AcDbEntity
  8
TEXT
100
AcDbText
 10
99.8426346073359
 20
42.01939489256613
 30
0.0
 40
2.0
  1

 41
0.8
  7
GREEKS
 72
     1
 11
99.8426346073359
 21
42.01939489256613
 31
0.0
100
AcDbText
  0
TEXT
  5
249
330
20
100
AcDbEntity
  8
BEM
100
AcDbText
 10
208.2905770718719
 20
6.074024076691515
 30
0.0
 40
2.0
  1
Diese Zeichnung ist urheberrechtlich geschützt und bleibt unser Eigentum. Sie darf weder ganz noch teilweise vervielfältigt und nicht an Dritte weitergegeben werden.
 50
90.0
 41
0.8
  7
GREEKS
100
AcDbText
  0
TEXT
  5
6C8
330
20
100
AcDbEntity
  8
TEXT
 62
     1
100
AcDbText
 10
33.62922931407434
 20
214.9296284619235
 30
0.0
 40
3.5
  1
Gravur: EN 1123 LORO DN70 VAC TG Nest.Nr. WC Jahreszahl
 41
0.8
  7
GREEKS
100
AcDbText
  0
LINE
  5
6C9
330
20
100
AcDbEntity
  8
TEXT
 62
     2
100
AcDbLine
 10
47.34246845462692
 20
213.0052224155502
 30
0.0
 11
33.62922931407434
 21
213.0052224155502
 31
0.0
  0
ARC
  5
6CA
330
20
100
AcDbEntity
  8
TEXT
 62
     2
100
AcDbCircle
 10
181.9979087851111
 20
225.5548219061759
 30
0.0
 40
1.873481366226997
100
AcDbArc
 50
268.4391661543623
 51
0.9693128199328235
  0
ARC
  5
6CB
330
20
100
AcDbEntity
  8
TEXT
 62
     2
100
AcDbCircle
 10
185.744335323913
 20
225.5548219061759
 30
0.0
 40
1.873481366226997
100
AcDbArc
 50
179.0306871800672
 51
271.5608338456491
  0
ARC
  5
6CC
330
20
100
AcDbEntity
  8
TEXT
 62
     2
100
AcDbCircle
 10
195.7651311986657
 20
221.8092494163628
 30
0.0
 40
1.873481366226997
100
AcDbArc
 50
359.0306871800672
 51
91.56083384564263
  0
ARC
  5
6CD
330
20
100
AcDbEntity
  8
TEXT
 62
     2
100
AcDbCircle
 10
171.80000606058
 20
221.8092494163628
 30
0.0
 40
1.873481366226997
100
AcDbArc
 50
88.43916615436063
 51
180.9693128199328
  0
LINE
  5
6CE
330
20
100
AcDbEntity
  8
TEXT
 62
     2
100
AcDbLine
 10
185.7953658096696
 20
223.6820356612694
 30
0.0
 11
195.7141007129092
 21
223.6820356612694
 31
0.0
  0
LINE
  5
6CF
330
20
100
AcDbEntity
  8
TEXT
 62
     2
100
AcDbLine
 10
171.8510365463363
 20
223.6820356612693
 30
0.0
 11
181.9468782993549
 21
223.6820356612694
 31
0.0
  0
TEXT
  5
6D0
330
20
100
AcDbEntity
  8
TEXT
 62
     2
100
AcDbText
 10
169.3052304074449
 20
227.6972652306544
 30
0.0
 40
2.0
  1
Raster für weitere Jahre
 41
0.8
  7
GREEKS
100
AcDbText
  0
LINE
  5
6D1
330
20
100
AcDbEntity
  8
TEXT
 62
     1
100
AcDbLine
 10
169.7726077710651
 20
216.7004590418786
 30
0.0
 11
197.7726077710653
 21
216.7004590418786
 31
0.0
  0
LINE
  5
6D2
330
20
100
AcDbEntity
  8
TEXT
 62
     1
100
AcDbLine
 10
197.7726077710653
 20
218.7846594818912
 30
0.0
 11
197.7726077710653
 21
214.6162586018659
 31
0.0
  0
LINE
  5
6D3
330
20
100
AcDbEntity
  8
TEXT
 62
     1
100
AcDbLine
 10
193.7726077710653
 20
218.7846594818912
 30
0.0
 11
193.7726077710653
 21
214.6162586018659
 31
0.0
  0
LINE
  5
6D4
330
20
100
AcDbEntity
  8
TEXT
 62
     1
100
AcDbLine
 10
189.7726077710651
 20
218.7846594818912
 30
0.0
 11
189.7726077710651
 21
214.6162586018659
 31
0.0
  0
LINE
  5
6D5
330
20
100
AcDbEntity
  8
TEXT
 62
     1
100
AcDbLine
 10
185.7726077710651
 20
218.7846594818912
 30
0.0
 11
185.7726077710651
 21
214.6162586018659
 31
0.0
  0
LINE
  5
6D6
330
20
100
AcDbEntity
  8
TEXT
 62
     1
100
AcDbLine
 10
181.7726077710651
 20
218.7846594818912
 30
0.0
 11
181.7726077710651
 21
214.6162586018659
 31
0.0
  0
LINE
  5
6D7
330
20
100
AcDbEntity
  8
TEXT
 62
     1
100
AcDbLine
 10
177.7726077710651
 20
218.7846594818912
 30
0.0
 11
177.7726077710651
 21
214.6162586018659
 31
0.0
  0
LINE
  5
6D8
330
20
100
AcDbEntity
  8
TEXT
 62
     1
100
AcDbLine
 10
173.7726077710652
 20
218.7846594818912
 30
0.0
 11
173.7726077710652
 21
214.6162586018659
 31
0.0
  0
LINE
  5
6D9
330
20
100
AcDbEntity
  8
TEXT
 62
     1
100
AcDbLine
 10
169.7726077710651
 20
218.7846594818912
 30
0.0
 11
169.7726077710651
 21
214.6162586018659
 31
0.0
  0
LINE
  5
6DA
330
20
100
AcDbEntity
  8
TEXT
 62
     2
100
AcDbLine
 10
73.51159247220635
 20
169.696864503872
 30
0.0
 11
33.62922931407434
 21
213.0052224155502
 31
0.0
  0
TEXT
  5
6E1
330
20
100
AcDbEntity
  8
TEXT
 62
     1
100
AcDbText
 10
61.52946099999957
 20
63.88889191869274
 30
0.0
 40
3.5
  1
Farbe: schwarz
 41
0.8
  7
GREEKS
100
AcDbText
  0
TEXT
  5
6E2
330
20
100
AcDbEntity
  8
TEXT
 62
     1
100
AcDbText
 10
53.73208176830274
 20
70.18630682328264
 30
0.0
 40
3.5
  1
Werkstoff: Äthylen-Propylen-Dien-Kautschuk (EPDM) 50%%p5 IRHD
 41
0.8
  7
GREEKS
100
AcDbText
  0
TEXT
  5
6E3
330
20
100
AcDbEntity
  8
TEXT
100
AcDbText
 10
112.5648195562657
 20
35.82005971521077
 30
0.0
 40
2.5
  1
für LORO-X-VAC
 41
0.8
  7
GREEKS
100
AcDbText
  0
LINE
  5
AC6
330
20
100
AcDbEntity
  8
HILF
100
AcDbLine
 10
80.49522376112633
 20
151.0987882925189
 30
0.0
 11
151.1279611832864
 21
151.0987882925189
 31
0.0
  0
LINE
  5
AC7
330
20
100
AcDbEntity
  8
HILF
100
AcDbLine
 10
81.31159247220637
 20
152.9468645038721
 30
0.0
 11
150.3115924722064
 21
152.9468645038721
 31
0.0
  0
LINE
  5
AC8
330
20
100
AcDbEntity
  8
HILF
100
AcDbLine
 10
80.23045364212213
 20
155.0762215987301
 30
0.0
 11
151.3927313022906
 21
155.0762215987301
 31
0.0
  0
LINE
  5
ACA
330
20
100
AcDbEntity
  8
STEMPEL
100
AcDbLine
 10
152.8115924722063
 20
150.3487882925189
 30
0.0
 11
152.8115924722063
 21
121.1051768990498
 31
0.0
  0
LINE
  5
ACB
102
{ACAD_REACTORS
330
BEF
102
}
330
20
100
AcDbEntity
  8
STEMPEL
100
AcDbLine
 10
152.8115924722063
 20
150.3487882925189
 30
0.0
 11
152.8115924722063
 21
121.1051768990498
 31
0.0
  0
ARC
  5
ACC
102
{ACAD_REACTORS
330
BEF
102
}
330
20
100
AcDbEntity
  8
STEMPEL
100
AcDbCircle
 10
149.8115924722063
 20
156.3009664701217
 30
0.0
 40
3.0
100
AcDbArc
 50
311.8103148957796
 51
0.0
  0
ARC
  5
ACD
102
{ACAD_REACTORS
330
BEF
102
}
330
20
100
AcDbEntity
  8
STEMPEL
100
AcDbCircle
 10
152.8115924722063
 20
152.9468645038721
 30
0.0
 40
1.5
100
AcDbArc
 50
131.8103148957796
 51
239.9999999999985
  0
ARC
  5
ACE
102
{ACAD_REACTORS
330
BEF
102
}
330
20
100
AcDbEntity
  8
STEMPEL
100
AcDbCircle
 10
151.3115924722064
 20
150.3487882925189
 30
0.0
 40
1.5
100
AcDbArc
 50
0.0
 51
59.99999999999846
  0
LINE
  5
ACF
330
20
100
AcDbEntity
  8
STEMPEL
100
AcDbLine
 10
152.8115924722063
 20
166.946864503872
 30
0.0
 11
152.8115924722063
 21
156.3009664701217
 31
0.0
  0
LINE
  5
AD0
102
{ACAD_REACTORS
330
BEF
102
}
330
20
100
AcDbEntity
  8
STEMPEL
100
AcDbLine
 10
158.1115924722063
 20
167.946864503872
 30
0.0
 11
158.1115924722063
 21
171.446864503872
 31
0.0
  0
ARC
  5
AD1
102
{ACAD_REACTORS
330
B3B
330
BEF
102
}
330
20
100
AcDbEntity
  8
STEMPEL
100
AcDbCircle
 10
156.6115924722063
 20
171.446864503872
 30
0.0
 40
1.5
100
AcDbArc
 50
0.0
 51
90.0
  0
ARC
  5
AD2
102
{ACAD_REACTORS
330
BEF
102
}
330
20
100
AcDbEntity
  8
STEMPEL
100
AcDbCircle
 10
81.81159247220637
 20
156.3009664701217
 30
0.0
 40
3.0
100
AcDbArc
 50
180.0
 51
228.1896851042203
  0
ARC
  5
AD3
102
{ACAD_REACTORS
330
BEF
102
}
330
20
100
AcDbEntity
  8
STEMPEL
100
AcDbCircle
 10
80.31159247220637
 20
150.3487882925189
 30
0.0
 40
1.5
100
AcDbArc
 50
120.0000000000015
 51
180.0
  0
LINE
  5
AD4
102
{ACAD_REACTORS
330
BEF
102
}
330
20
100
AcDbEntity
  8
STEMPEL
100
AcDbLine
 10
78.81159247220637
 20
150.3487882925189
 30
0.0
 11
78.81159247220637
 21
121.1051768990498
 31
0.0
  0
ARC
  5
AD5
102
{ACAD_REACTORS
330
BEF
102
}
330
20
100
AcDbEntity
  8
STEMPEL
100
AcDbCircle
 10
78.81159247220637
 20
152.9468645038721
 30
0.0
 40
1.5
100
AcDbArc
 50
300.0000000000015
 51
48.18968510422037
  0
ARC
  5
AD6
102
{ACAD_REACTORS
330
BEF
102
}
330
20
100
AcDbEntity
  8
STEMPEL
100
AcDbCircle
 10
75.01159247220636
 20
171.446864503872
 30
0.0
 40
1.5
100
AcDbArc
 50
90.0
 51
180.0
  0
LINE
  5
AD7
102
{ACAD_REACTORS
330
B3B
330
BEF
102
}
330
20
100
AcDbEntity
  8
STEMPEL
100
AcDbLine
 10
73.51159247220635
 20
167.946864503872
 30
0.0
 11
73.51159247220635
 21
171.446864503872
 31
0.0
  0
LINE
  5
AD8
102
{ACAD_REACTORS
330
BEF
102
}
330
20
100
AcDbEntity
  8
STEMPEL
100
AcDbLine
 10
77.31159247220637
 20
123.9468645038721
 30
0.0
 11
77.72093560457609
 21
117.9468645038721
 31
0.0
  0
LINE
  5
AD9
102
{ACAD_REACTORS
330
BEF
102
}
330
20
100
AcDbEntity
  8
STEMPEL
100
AcDbLine
 10
153.8115924722063
 20
117.9468645038721
 30
0.0
 11
154.3115924722064
 21
123.9468645038721
 31
0.0
  0
LINE
  5
ADA
102
{ACAD_REACTORS
330
BEF
102
}
330
20
100
AcDbEntity
  8
STEMPEL
100
AcDbLine
 10
154.3115924722064
 20
152.9468645038721
 30
0.0
 11
158.6115924722063
 21
152.946864503872
 31
0.0
  0
LINE
  5
ADB
102
{ACAD_REACTORS
330
BEF
102
}
330
20
100
AcDbEntity
  8
STEMPEL
100
AcDbLine
 10
156.8115924722063
 20
152.946864503872
 30
0.0
 11
155.9843558403705
 21
154.4796824897201
 31
0.0
  0
ARC
  5
ADC
102
{ACAD_REACTORS
330
BEF
102
}
330
20
100
AcDbEntity
  8
STEMPEL
100
AcDbCircle
 10
155.2013499010222
 20
154.0571070750562
 30
0.0
 40
0.8897574288158832
100
AcDbArc
 50
28.35500602840834
 51
180.0
  0
LINE
  5
ADD
102
{ACAD_REACTORS
330
B53
330
BEF
102
}
330
20
100
AcDbEntity
  8
STEMPEL
100
AcDbLine
 10
154.3115924722064
 20
154.0571070750562
 30
0.0
 11
154.3115924722064
 21
123.9468645038721
 31
0.0
  0
ARC
  5
ADE
102
{ACAD_REACTORS
330
BEF
102
}
330
20
100
AcDbEntity
  8
STEMPEL
100
AcDbCircle
 10
151.3115924722064
 20
121.1051768990498
 30
0.0
 40
1.5
100
AcDbArc
 50
326.4426902380793
 51
0.0
  0
ARC
  5
ADF
102
{ACAD_REACTORS
330
BEF
102
}
330
20
100
AcDbEntity
  8
STEMPEL
100
AcDbCircle
 10
153.8115924722063
 20
119.4468645038721
 30
0.0
 40
1.5
100
AcDbArc
 50
146.44269023808
 51
270.0
  0
ARC
  5
AE0
102
{ACAD_REACTORS
330
BEF
102
}
330
20
100
AcDbEntity
  8
STEMPEL
100
AcDbCircle
 10
76.4218350433905
 20
154.0571070750562
 30
0.0
 40
0.8897574288158832
100
AcDbArc
 50
0.0
 51
151.6449939715916
  0
POINT
  5
AE1
330
20
100
AcDbEntity
  8
DEFPOINTS
  6
ByBlock
 62
     0
100
AcDbPoint
 10
74.81159247220637
 20
152.946864503872
 30
0.0
  0
POINT
  5
AE2
330
20
100
AcDbEntity
  8
DEFPOINTS
  6
ByBlock
 62
     0
100
AcDbPoint
 10
158.6115924722063
 20
152.946864503872
 30
0.0
  0
POINT
  5
AE3
330
20
100
AcDbEntity
  8
DEFPOINTS
  6
ByBlock
 62
     0
100
AcDbPoint
 10
73.01159247220636
 20
152.946864503872
 30
0.0
  0
LINE
  5
AE4
102
{ACAD_REACTORS
330
B23
102
}
330
20
100
AcDbEntity
  8
STEMPEL
100
AcDbLine
 10
152.8115924722063
 20
166.946864503872
 30
0.0
 11
78.81159247220637
 21
166.946864503872
 31
0.0
  0
POINT
  5
AE5
330
20
100
AcDbEntity
  8
DEFPOINTS
  6
ByBlock
 62
     0
100
AcDbPoint
 10
78.81159247220637
 20
166.946864503872
 30
0.0
  0
POINT
  5
AE6
330
20
100
AcDbEntity
  8
DEFPOINTS
  6
ByBlock
 62
     0
100
AcDbPoint
 10
152.8115924722063
 20
166.946864503872
 30
0.0
  0
POINT
  5
AE7
330
20
100
AcDbEntity
  8
DEFPOINTS
  6
ByBlock
 62
     0
100
AcDbPoint
 10
156.3115924722064
 20
162.4519096649629
 30
0.0
  0
POINT
  5
AE8
330
20
100
AcDbEntity
  8
DEFPOINTS
  6
ByBlock
 62
     0
100
AcDbPoint
 10
75.31159247220637
 20
162.4519096649629
 30
0.0
  0
POINT
  5
AE9
330
20
100
AcDbEntity
  8
DEFPOINTS
  6
ByBlock
 62
     0
100
AcDbPoint
 10
158.1115924722063
 20
167.946864503872
 30
0.0
  0
POINT
  5
AEA
330
20
100
AcDbEntity
  8
DEFPOINTS
  6
ByBlock
 62
     0
100
AcDbPoint
 10
73.51159247220635
 20
167.946864503872
 30
0.0
  0
ARC
  5
AEB
102
{ACAD_REACTORS
330
BEF
102
}
330
20
100
AcDbEntity
  8
STEMPEL
100
AcDbCircle
 10
154.7086539876344
 20
171.946864503872
 30
0.0
 40
1.0
100
AcDbArc
 50
90.0
 51
169.9999999999997
  0
ARC
  5
AEC
102
{ACAD_REACTORS
330
BEF
102
}
330
20
100
AcDbEntity
  8
STEMPEL
100
AcDbCircle
 10
155.0256664755774
 20
167.4468645038721
 30
0.0
 40
0.5
100
AcDbArc
 50
90.0
 51
199.9999999999993
  0
LINE
  5
AED
102
{ACAD_REACTORS
330
BEF
102
}
330
20
100
AcDbEntity
  8
STEMPEL
100
AcDbLine
 10
158.1115924722063
 20
167.946864503872
 30
0.0
 11
155.0256664755774
 21
167.9468645038721
 31
0.0
  0
LINE
  5
AEE
102
{ACAD_REACTORS
330
BEF
102
}
330
20
100
AcDbEntity
  8
STEMPEL
100
AcDbLine
 10
152.8115924722063
 20
166.946864503872
 30
0.0
 11
153.7238462346222
 21
172.120512681539
 31
0.0
  0
LINE
  5
AEF
102
{ACAD_REACTORS
330
BEF
102
}
330
20
100
AcDbEntity
  8
STEMPEL
100
AcDbLine
 10
156.3115924722064
 20
162.4519096649629
 30
0.0
 11
156.3115924722064
 21
161.3468645038721
 31
0.0
  0
LINE
  5
AF0
102
{ACAD_REACTORS
330
BEF
102
}
330
20
100
AcDbEntity
  8
STEMPEL
100
AcDbLine
 10
156.3115924722064
 20
157.5468645038721
 30
0.0
 11
156.3115924722064
 21
156.946864503872
 31
0.0
  0
LINE
  5
AF1
102
{ACAD_REACTORS
330
BEF
102
}
330
20
100
AcDbEntity
  8
STEMPEL
100
AcDbLine
 10
157.7115924722063
 20
159.946864503872
 30
0.0
 11
157.7115924722063
 21
158.9468645038721
 31
0.0
  0
LINE
  5
AF2
102
{ACAD_REACTORS
330
BEF
102
}
330
20
100
AcDbEntity
  8
STEMPEL
100
AcDbLine
 10
157.7115924722063
 20
159.946864503872
 30
0.0
 11
156.3115924722064
 21
161.3468645038721
 31
0.0
  0
LINE
  5
AF3
102
{ACAD_REACTORS
330
B6B
330
BEF
102
}
330
20
100
AcDbEntity
  8
STEMPEL
100
AcDbLine
 10
157.7115924722063
 20
158.9468645038721
 30
0.0
 11
156.3115924722064
 21
157.5468645038721
 31
0.0
  0
LINE
  5
AF4
102
{ACAD_REACTORS
330
BEF
102
}
330
20
100
AcDbEntity
  8
STEMPEL
100
AcDbLine
 10
158.6115924722063
 20
152.946864503872
 30
0.0
 11
156.3115924722064
 21
156.946864503872
 31
0.0
  0
LINE
  5
AF5
102
{ACAD_REACTORS
330
BEF
102
}
330
20
100
AcDbEntity
  8
STEMPEL
100
AcDbLine
 10
154.5558201651844
 20
167.2758544322092
 30
0.0
 11
156.3115924722064
 21
162.4519096649629
 31
0.0
  0
LINE
  5
AF6
102
{ACAD_REACTORS
330
BEF
102
}
330
20
100
AcDbEntity
  8
STEMPEL
100
AcDbLine
 10
152.8115924722063
 20
166.946864503872
 30
0.0
 11
152.8115924722063
 21
156.3009664701217
 31
0.0
  0
LINE
  5
AF7
102
{ACAD_REACTORS
330
BEF
102
}
330
20
100
AcDbEntity
  8
STEMPEL
100
AcDbLine
 10
77.06736477922828
 20
167.2758544322092
 30
0.0
 11
75.31159247220637
 21
162.4519096649629
 31
0.0
  0
LINE
  5
AF8
102
{ACAD_REACTORS
330
B83
330
BEF
102
}
330
20
100
AcDbEntity
  8
STEMPEL
100
AcDbLine
 10
77.31159247220637
 20
152.9468645038721
 30
0.0
 11
73.01159247220636
 21
152.946864503872
 31
0.0
  0
LINE
  5
AF9
102
{ACAD_REACTORS
330
B9B
330
BEF
102
}
330
20
100
AcDbEntity
  8
STEMPEL
100
AcDbLine
 10
73.51159247220635
 20
167.946864503872
 30
0.0
 11
76.59751846883529
 21
167.9468645038721
 31
0.0
  0
LINE
  5
AFA
102
{ACAD_REACTORS
330
BEF
102
}
330
20
100
AcDbEntity
  8
STEMPEL
100
AcDbLine
 10
78.81159247220637
 20
166.946864503872
 30
0.0
 11
77.89933870979052
 21
172.120512681539
 31
0.0
  0
ARC
  5
AFB
102
{ACAD_REACTORS
330
BEF
102
}
330
20
100
AcDbEntity
  8
STEMPEL
100
AcDbCircle
 10
76.91453095677832
 20
171.946864503872
 30
0.0
 40
1.0
100
AcDbArc
 50
10.00000000000021
 51
90.0
  0
ARC
  5
AFC
102
{ACAD_REACTORS
330
BEF
102
}
330
20
100
AcDbEntity
  8
STEMPEL
100
AcDbCircle
 10
76.59751846883529
 20
167.4468645038721
 30
0.0
 40
0.5
100
AcDbArc
 50
340.0000000000007
 51
90.0
  0
LINE
  5
AFD
102
{ACAD_REACTORS
330
BEF
102
}
330
20
100
AcDbEntity
  8
STEMPEL
100
AcDbLine
 10
73.91159247220634
 20
158.9468645038721
 30
0.0
 11
75.31159247220632
 21
157.5468645038721
 31
0.0
  0
LINE
  5
AFE
102
{ACAD_REACTORS
330
BEF
102
}
330
20
100
AcDbEntity
  8
STEMPEL
100
AcDbLine
 10
75.31159247220632
 20
157.5468645038721
 30
0.0
 11
75.31159247220632
 21
156.946864503872
 31
0.0
  0
LINE
  5
AFF
102
{ACAD_REACTORS
330
BEF
102
}
330
20
100
AcDbEntity
  8
STEMPEL
100
AcDbLine
 10
75.31159247220637
 20
162.4519096649629
 30
0.0
 11
75.31159247220637
 21
161.3468645038721
 31
0.0
  0
LINE
  5
B00
102
{ACAD_REACTORS
330
BEF
102
}
330
20
100
AcDbEntity
  8
STEMPEL
100
AcDbLine
 10
73.91159247220634
 20
159.946864503872
 30
0.0
 11
75.31159247220637
 21
161.3468645038721
 31
0.0
  0
LINE
  5
B01
102
{ACAD_REACTORS
330
B6B
330
BEF
102
}
330
20
100
AcDbEntity
  8
STEMPEL
100
AcDbLine
 10
73.91159247220634
 20
159.946864503872
 30
0.0
 11
73.91159247220634
 21
158.9468645038721
 31
0.0
  0
LINE
  5
B02
102
{ACAD_REACTORS
330
BEF
102
}
330
20
100
AcDbEntity
  8
STEMPEL
100
AcDbLine
 10
74.81159247220637
 20
152.946864503872
 30
0.0
 11
75.63882910404214
 21
154.4796824897201
 31
0.0
  0
LINE
  5
B03
102
{ACAD_REACTORS
330
B83
330
BEF
102
}
330
20
100
AcDbEntity
  8
STEMPEL
100
AcDbLine
 10
73.01159247220636
 20
152.946864503872
 30
0.0
 11
75.31159247220632
 21
156.946864503872
 31
0.0
  0
ARC
  5
B04
102
{ACAD_REACTORS
330
BEF
102
}
330
20
100
AcDbEntity
  8
STEMPEL
100
AcDbCircle
 10
80.31159247220637
 20
121.1051768990498
 30
0.0
 40
1.5
100
AcDbArc
 50
180.0
 51
213.5573097619207
  0
ARC
  5
B05
102
{ACAD_REACTORS
330
BEF
102
}
330
20
100
AcDbEntity
  8
STEMPEL
100
AcDbCircle
 10
77.81159247220637
 20
119.4468645038721
 30
0.0
 40
1.5
100
AcDbArc
 50
270.0
 51
33.55730976192
  0
LINE
  5
B06
102
{ACAD_REACTORS
330
B53
330
BEF
102
}
330
20
100
AcDbEntity
  8
STEMPEL
100
AcDbLine
 10
77.31159247220637
 20
154.0571070750562
 30
0.0
 11
77.31159247220637
 21
123.9468645038721
 31
0.0
  0
LINE
  5
B07
102
{ACAD_REACTORS
330
BEF
102
}
330
20
100
AcDbEntity
  8
STEMPEL
100
AcDbLine
 10
78.81159247220637
 20
166.946864503872
 30
0.0
 11
78.81159247220637
 21
156.3009664701217
 31
0.0
  0
LINE
  5
B08
330
20
100
AcDbEntity
  8
HILF
100
AcDbLine
 10
79.9907300680535
 20
120.6721641971576
 30
0.0
 11
151.6324548763584
 21
120.6721641971576
 31
0.0
  0
LINE
  5
B09
102
{ACAD_REACTORS
330
B83
330
B9B
330
BB3
102
}
330
20
100
AcDbEntity
  8
STEMPEL
100
AcDbLine
 10
77.72093560457609
 20
117.9468645038721
 30
0.0
 11
153.8115924722063
 21
117.9468645038721
 31
0.0
  0
LINE
  5
B0A
102
{ACAD_REACTORS
330
BB3
330
BEF
102
}
330
20
100
AcDbEntity
  8
STEMPEL
100
AcDbLine
 10
156.6115924722063
 20
172.946864503872
 30
0.0
 11
75.01159247220636
 21
172.946864503872
 31
0.0
  0
LINE
  5
B0B
330
20
100
AcDbEntity
  8
MITTEL
100
AcDbLine
 10
115.8115924722064
 20
177.946864503872
 30
0.0
 11
115.8115924722064
 21
112.9468645038721
 31
0.0
  0
DIMENSION
  5
B0C
102
{ACAD_XDICTIONARY
360
B19
102
}
102
{ACAD_REACTORS
330
B23
102
}
330
20
100
AcDbEntity
  8
BEM
100
AcDbDimension
  2
*D0
 10
152.8115924722063
 20
181.0835438911325
 30
0.0
 11
115.8115924722064
 21
184.3335438911325
 31
0.0
 70
    32
  1
%%c<>
 71
     5
 42
74.0
  3
Standard
100
AcDbAlignedDimension
 13
78.81159247220637
 23
166.946864503872
 33
0.0
 14
152.8115924722063
 24
166.946864503872
 34
0.0
100
AcDbRotatedDimension
1001
ACAD
1000
DSTYLE
1002
{
1070
    41
1040
3.5
1070
    42
1040
1.0
1070
    43
1040
7.0
1070
    44
1040
1.0
1070
    47
1040
0.6
1070
    48
1040
0.6
1070
    73
1070
     0
1070
    74
1070
     0
1070
    77
1070
     1
1070
    78
1070
     8
1070
    79
1070
     2
1070
   140
1040
3.5
1070
   141
1040
1.5
1070
   146
1040
0.5142857142857144
1070
   147
1040
1.5
1070
   172
1070
     1
1070
   178
1070
     1
1070
   179
1070
     2
1070
   271
1070
     2
1070
   272
1070
     2
1070
   284
1070
     8
1070
   285
1070
     8
1070
   286
1070
     8
1002
}
  0
DIMENSION
  5
B24
102
{ACAD_XDICTIONARY
360
B31
102
}
102
{ACAD_REACTORS
330
B3B
102
}
330
20
100
AcDbEntity
  8
BEM
100
AcDbDimension
  2
*D1
 10
158.1115924722063
 20
188.1615585584654
 30
0.0
 11
115.8115924722063
 21
191.4115585584654
 31
0.0
 70
    32
  1
%%c<>
 71
     5
 42
84.59999999999997
  3
Standard
100
AcDbAlignedDimension
 13
73.51159247220635
 23
171.446864503872
 33
0.0
 14
158.1115924722063
 24
171.446864503872
 34
0.0
100
AcDbRotatedDimension
1001
ACAD
1000
DSTYLE
1002
{
1070
    41
1040
3.5
1070
    42
1040
1.0
1070
    43
1040
7.0
1070
    44
1040
1.0
1070
    47
1040
0.6
1070
    48
1040
0.6
1070
    73
1070
     0
1070
    74
1070
     0
1070
    77
1070
     1
1070
    78
1070
     8
1070
    79
1070
     2
1070
   140
1040
3.5
1070
   141
1040
1.5
1070
   146
1040
0.5142857142857144
1070
   147
1040
1.5
1070
   172
1070
     1
1070
   178
1070
     1
1070
   179
1070
     2
1070
   271
1070
     2
1070
   272
1070
     2
1070
   284
1070
     8
1070
   285
1070
     8
1070
   286
1070
     8
1002
}
  0
DIMENSION
  5
B3C
102
{ACAD_XDICTIONARY
360
B49
102
}
102
{ACAD_REACTORS
330
B53
102
}
330
20
100
AcDbEntity
  8
BEM
100
AcDbDimension
  2
*D2
 10
154.3115924722064
 20
105.2160710103595
 30
0.0
 11
115.8115924722064
 21
108.4660710103595
 31
0.0
 70
    32
  1
%%c<>
 71
     5
 42
77.0
  3
Standard
100
AcDbAlignedDimension
 13
77.31159247220637
 23
123.9468645038721
 33
0.0
 14
154.3115924722064
 24
123.9468645038721
 34
0.0
100
AcDbRotatedDimension
1001
ACAD
1000
DSTYLE
1002
{
1070
    41
1040
3.5
1070
    42
1040
1.0
1070
    43
1040
7.0
1070
    44
1040
1.0
1070
    47
1040
0.6
1070
    48
1040
0.6
1070
    73
1070
     0
1070
    74
1070
     0
1070
    77
1070
     1
1070
    78
1070
     8
1070
    79
1070
     2
1070
   140
1040
3.5
1070
   141
1040
1.5
1070
   146
1040
0.5142857142857144
1070
   147
1040
1.5
1070
   172
1070
     1
1070
   178
1070
     1
1070
   179
1070
     2
1070
   271
1070
     2
1070
   272
1070
     2
1070
   284
1070
     8
1070
   285
1070
     8
1070
   286
1070
     8
1002
}
  0
DIMENSION
  5
B54
102
{ACAD_XDICTIONARY
360
B61
102
}
102
{ACAD_REACTORS
330
B6B
102
}
330
20
100
AcDbEntity
  8
BEM
100
AcDbDimension
  2
*D3
 10
157.7115924722063
 20
96.81092837460528
 30
0.0
 11
115.8115924722063
 21
100.0609283746052
 31
0.0
 70
    32
  1
%%c<>
 71
     5
 42
83.8
  3
Standard
100
AcDbAlignedDimension
 13
73.91159247220634
 23
158.9468645038721
 33
0.0
 14
157.7115924722063
 24
158.9468645038721
 34
0.0
100
AcDbRotatedDimension
1001
ACAD
1000
DSTYLE
1002
{
1070
    41
1040
3.5
1070
    42
1040
1.0
1070
    43
1040
7.0
1070
    44
1040
1.0
1070
    47
1040
0.6
1070
    48
1040
0.6
1070
    73
1070
     0
1070
    74
1070
     0
1070
    77
1070
     1
1070
    78
1070
     8
1070
    79
1070
     2
1070
   140
1040
3.5
1070
   141
1040
1.5
1070
   146
1040
0.5142857142857144
1070
   147
1040
1.5
1070
   172
1070
     1
1070
   178
1070
     1
1070
   179
1070
     2
1070
   271
1070
     2
1070
   272
1070
     2
1070
   284
1070
     8
1070
   285
1070
     8
1070
   286
1070
     8
1002
}
  0
DIMENSION
  5
B6C
102
{ACAD_XDICTIONARY
360
B79
102
}
102
{ACAD_REACTORS
330
B83
102
}
330
20
100
AcDbEntity
  8
BEM
100
AcDbDimension
  2
*D4
 10
66.57530148877004
 20
152.946864503872
 30
0.0
 11
63.32530148877001
 21
135.4468645038721
 31
0.0
 70
    32
 71
     5
 42
34.99999999999996
  3
Standard
100
AcDbAlignedDimension
 13
77.72093560457609
 23
117.9468645038721
 33
0.0
 14
73.01159247220636
 24
152.946864503872
 34
0.0
 50
90.0
100
AcDbRotatedDimension
1001
ACAD
1000
DSTYLE
1002
{
1070
    41
1040
3.5
1070
    42
1040
1.0
1070
    43
1040
7.0
1070
    44
1040
1.0
1070
    47
1040
0.6
1070
    48
1040
0.6
1070
    73
1070
     0
1070
    74
1070
     0
1070
    77
1070
     1
1070
    78
1070
     8
1070
    79
1070
     2
1070
   140
1040
3.5
1070
   141
1040
1.5
1070
   146
1040
0.5142857142857144
1070
   147
1040
1.5
1070
   172
1070
     1
1070
   178
1070
     1
1070
   179
1070
     2
1070
   271
1070
     2
1070
   272
1070
     2
1070
   284
1070
     8
1070
   285
1070
     8
1070
   286
1070
     8
1002
}
  0
DIMENSION
  5
B84
102
{ACAD_XDICTIONARY
360
B91
102
}
102
{ACAD_REACTORS
330
B9B
102
}
330
20
100
AcDbEntity
  8
BEM
100
AcDbDimension
  2
*D5
 10
59.57530148877004
 20
167.9468645038721
 30
0.0
 11
56.32530148877001
 21
142.9468645038721
 31
0.0
 70
    32
 71
     5
 42
49.99999999999996
  3
Standard
100
AcDbAlignedDimension
 13
77.72093560457609
 23
117.9468645038721
 33
0.0
 14
73.51159247220635
 24
167.946864503872
 34
0.0
 50
90.0
100
AcDbRotatedDimension
1001
ACAD
1000
DSTYLE
1002
{
1070
    41
1040
3.5
1070
    42
1040
1.0
1070
    43
1040
7.0
1070
    44
1040
1.0
1070
    47
1040
0.6
1070
    48
1040
0.6
1070
    73
1070
     0
1070
    74
1070
     0
1070
    77
1070
     1
1070
    78
1070
     8
1070
    79
1070
     2
1070
   140
1040
3.5
1070
   141
1040
1.5
1070
   146
1040
0.5142857142857144
1070
   147
1040
1.5
1070
   172
1070
     1
1070
   178
1070
     1
1070
   179
1070
     2
1070
   271
1070
     2
1070
   272
1070
     2
1070
   284
1070
     8
1070
   285
1070
     8
1070
   286
1070
     8
1002
}
  0
DIMENSION
  5
B9C
102
{ACAD_XDICTIONARY
360
BA9
102
}
102
{ACAD_REACTORS
330
BB3
102
}
330
20
100
AcDbEntity
  8
BEM
100
AcDbDimension
  2
*D6
 10
52.57530148877004
 20
172.946864503872
 30
0.0
 11
49.32530148877001
 21
145.4468645038721
 31
0.0
 70
    32
 71
     5
 42
54.99999999999992
  3
Standard
100
AcDbAlignedDimension
 13
77.72093560457609
 23
117.9468645038721
 33
0.0
 14
75.01159247220636
 24
172.946864503872
 34
0.0
 50
90.0
100
AcDbRotatedDimension
1001
ACAD
1000
DSTYLE
1002
{
1070
    41
1040
3.5
1070
    42
1040
1.0
1070
    43
1040
7.0
1070
    44
1040
1.0
1070
    47
1040
0.6
1070
    48
1040
0.6
1070
    73
1070
     0
1070
    74
1070
     0
1070
    77
1070
     1
1070
    78
1070
     8
1070
    79
1070
     2
1070
   140
1040
3.5
1070
   141
1040
1.5
1070
   146
1040
0.5142857142857144
1070
   147
1040
1.5
1070
   172
1070
     1
1070
   178
1070
     1
1070
   179
1070
     2
1070
   271
1070
     2
1070
   272
1070
     2
1070
   284
1070
     8
1070
   285
1070
     8
1070
   286
1070
     8
1002
}
  0
HATCH
  5
BEF
330
20
100
AcDbEntity
  8
SCHRAFF
100
AcDbHatch
 10
0.0
 20
0.0
 30
0.0
210
0.0
220
0.0
230
1.0
  2
NET
 70
     0
 71
     1
 91
        2
 92
        7
 72
     1
 73
     1
 93
       26
 10
156.3115924722064
 20
162.4519096649629
 42
0.0
 10
154.5558201651844
 20
167.2758544322092
 42
-0.5205670505517866
 10
155.0256664755774
 20
167.9468645038721
 42
0.0
 10
158.1115924722063
 20
167.946864503872
 42
0.0
 10
158.1115924722063
 20
171.446864503872
 42
0.4142135623731007
 10
156.6115924722063
 20
172.946864503872
 42
0.0
 10
154.7086539876344
 20
172.946864503872
 42
0.3639702342661945
 10
153.7238462346222
 20
172.120512681539
 42
0.0
 10
152.8115924722063
 20
166.9468645038721
 42
0.0
 10
152.8115924722063
 20
156.3009664701217
 42
-0.2134217652833837
 10
151.8115924722064
 20
154.0648984926219
 42
0.5105684202252892
 10
152.0615924722064
 20
151.6478263981955
 42
-0.2679491924311155
 10
152.8115924722063
 20
150.3487882925188
 42
0.0
 10
152.8115924722063
 20
121.1051768990498
 42
-0.1474768247823546
 10
152.5615924722063
 20
120.2760207014609
 42
0.5982346904416384
 10
153.8115924722063
 20
117.9468645038721
 42
0.0
 10
154.3115924722064
 20
123.9468645038718
 42
0.0
 10
154.3115924722064
 20
154.0571070750562
 42
-0.778794109302036
 10
155.9843558403705
 20
154.4796824897201
 42
0.0
 10
156.8115924722063
 20
152.9468645038721
 42
0.0
 10
158.6115924722063
 20
152.946864503872
 42
0.0
 10
156.3115924722064
 20
156.9468645038721
 42
0.0
 10
156.3115924722064
 20
157.5468645038721
 42
0.0
 10
157.7115924722063
 20
158.9468645038721
 42
0.0
 10
157.7115924722063
 20
159.946864503872
 42
0.0
 10
156.3115924722064
 20
161.3468645038721
 42
0.0
 97
       26
330
AF5
330
AEC
330
AED
330
AD0
330
AD1
330
B0A
330
AEB
330
AEE
330
AF6
330
ACC
330
ACD
330
ACE
330
ACB
330
ADE
330
ADF
330
AD9
330
ADD
330
ADC
330
ADB
330
ADA
330
AF4
330
AF0
330
AF3
330
AF1
330
AF2
330
AEF
 92
        7
 72
     1
 73
     1
 93
       26
 10
78.81159247220637
 20
166.9468645038721
 42
0.0
 10
77.89933870979052
 20
172.120512681539
 42
0.3639702342661877
 10
76.91453095677832
 20
172.946864503872
 42
0.0
 10
75.01159247220636
 20
172.946864503872
 42
0.4142135623730951
 10
73.51159247220635
 20
171.446864503872
 42
0.0
 10
73.51159247220635
 20
167.946864503872
 42
0.0
 10
76.59751846883529
 20
167.9468645038721
 42
-0.5205670505517956
 10
77.06736477922828
 20
167.2758544322092
 42
0.0
 10
75.31159247220639
 20
162.4519096649629
 42
0.0
 10
75.31159247220639
 20
161.3468645038721
 42
0.0
 10
73.91159247220634
 20
159.946864503872
 42
0.0
 10
73.91159247220632
 20
158.9468645038721
 42
0.0
 10
75.3115924722063
 20
157.5468645038721
 42
0.0
 10
75.31159247220632
 20
156.946864503872
 42
0.0
 10
73.01159247220636
 20
152.946864503872
 42
0.0
 10
74.81159247220637
 20
152.9468645038721
 42
0.0
 10
75.63882910404214
 20
154.4796824897201
 42
-0.7787941093020992
 10
77.31159247220637
 20
154.0571070750563
 42
0.0
 10
77.31159247220637
 20
123.9468645038718
 42
0.0
 10
77.72074775372989
 20
117.9496179519893
 42
0.6189964810357857
 10
79.06159247220637
 20
120.2760207014609
 42
-0.1474768247823547
 10
78.81159247220637
 20
121.1051768990498
 42
0.0
 10
78.81159247220637
 20
150.3487882925189
 42
-0.2679491924311155
 10
79.56159247220634
 20
151.6478263981955
 42
0.5105684202252885
 10
79.81159247220631
 20
154.064898492622
 42
-0.2134217652833782
 10
78.81159247220637
 20
156.3009664701217
 42
0.0
 97
       26
330
AFA
330
AFB
330
B0A
330
AD6
330
AD7
330
AF9
330
AFC
330
AF7
330
AFF
330
B00
330
B01
330
AFD
330
AFE
330
B03
330
AF8
330
B02
330
AE0
330
B06
330
AD8
330
B05
330
B04
330
AD4
330
AD3
330
AD5
330
AD2
330
B07
 75
     0
 76
     1
 52
45.0
 41
15.0
 77
     0
 78
     2
 53
45.0
 43
0.0
 44
0.0
 45
-1.325825214724776
 46
1.325825214724776
 79
     0
 53
135.0
 43
0.0
 44
0.0
 45
-1.325825214724776
 46
-1.325825214724776
 79
     0
 47
0.2211879663694371
 98
        2
 10
153.7759764955976
 20
162.061378206556
 10
77.86269837471832
 20
160.9554386985705
  0
ENDSEC
  0
SECTION
  2
OBJECTS
  0
DICTIONARY
  5
C
330
0
100
AcDbDictionary
281
     1
  3
ACAD_COLOR
350
1B
  3
ACAD_GROUP
350
D
  3
ACAD_LAYOUT
350
19
  3
ACAD_MATERIAL
350
1A
  3
ACAD_MLINESTYLE
350
16
  3
ACAD_PLOTSETTINGS
350
18
  3
ACAD_PLOTSTYLENAME
350
E
  3
AcDbVariableDictionary
350
25E
  0
DICTIONARY
  5
B19
330
B0C
100
AcDbDictionary
280
     1
281
     1
  3
ACAD_DIMASSOC
360
B23
  0
DICTIONARY
  5
B31
330
B24
100
AcDbDictionary
280
     1
281
     1
  3
ACAD_DIMASSOC
360
B3B
  0
DICTIONARY
  5
B49
330
B3C
100
AcDbDictionary
280
     1
281
     1
  3
ACAD_DIMASSOC
360
B53
  0
DICTIONARY
  5
B61
330
B54
100
AcDbDictionary
280
     1
281
     1
  3
ACAD_DIMASSOC
360
B6B
  0
DICTIONARY
  5
B79
330
B6C
100
AcDbDictionary
280
     1
281
     1
  3
ACAD_DIMASSOC
360
B83
  0
DICTIONARY
  5
B91
330
B84
100
AcDbDictionary
280
     1
281
     1
  3
ACAD_DIMASSOC
360
B9B
  0
DICTIONARY
  5
BA9
330
B9C
100
AcDbDictionary
280
     1
281
     1
  3
ACAD_DIMASSOC
360
BB3
  0
DICTIONARY
  5
1B
102
{ACAD_REACTORS
330
C
102
}
330
C
100
AcDbDictionary
281
     1
  0
DICTIONARY
  5
D
102
{ACAD_REACTORS
330
C
102
}
330
C
100
AcDbDictionary
281
     1
  0
DICTIONARY
  5
19
102
{ACAD_REACTORS
330
C
102
}
330
C
100
AcDbDictionary
281
     1
  3
Layout1
350
1F
  3
Model
350
23
  0
DICTIONARY
  5
1A
102
{ACAD_REACTORS
330
C
102
}
330
C
100
AcDbDictionary
281
     1
  0
DICTIONARY
  5
16
102
{ACAD_REACTORS
330
C
102
}
330
C
100
AcDbDictionary
281
     1
  3
Standard
350
17
  0
DICTIONARY
  5
18
102
{ACAD_REACTORS
330
C
102
}
330
C
100
AcDbDictionary
281
     1
  0
ACDBDICTIONARYWDFLT
  5
E
102
{ACAD_REACTORS
330
C
102
}
330
C
100
AcDbDictionary
281
     1
  3
Normal
350
F
100
AcDbDictionaryWithDefault
340
F
  0
DICTIONARY
  5
25E
102
{ACAD_REACTORS
330
C
102
}
330
C
100
AcDbDictionary
281
     1
  3
DIMASSOC
350
260
  3
HIDETEXT
350
25F
  3
PROJECTNAME
350
261
  0
DIMASSOC
  5
B23
102
{ACAD_REACTORS
330
B19
102
}
330
B19
100
AcDbDimAssoc
330
B0C
 90
        3
 70
     0
 71
     0
  1
AcDbOsnapPointRef
 72
     1
331
AE4
 73
     2
 91
        0
 40
1.0
 10
0.0
 20
0.0
 30
2.000000000000000E+50
 75
     0
  1
AcDbOsnapPointRef
 72
    13
331
AE4
 73
     2
 91
        0
 40
0.0
 10
0.0
 20
0.0
 30
2.000000000000000E+50
 75
     0
  0
DIMASSOC
  5
B3B
102
{ACAD_REACTORS
330
B31
102
}
330
B31
100
AcDbDimAssoc
330
B24
 90
        3
 70
     0
 71
     0
  1
AcDbOsnapPointRef
 72
     1
331
AD7
 73
     2
 91
        0
 40
1.0
 10
0.0
 20
0.0
 30
2.000000000000000E+50
 75
     0
  1
AcDbOsnapPointRef
 72
    13
331
AD1
 73
     2
 91
        0
 40
0.0
 10
0.0
 20
0.0
 30
2.000000000000000E+50
 75
     0
  0
DIMASSOC
  5
B53
102
{ACAD_REACTORS
330
B49
102
}
330
B49
100
AcDbDimAssoc
330
B3C
 90
        3
 70
     0
 71
     0
  1
AcDbOsnapPointRef
 72
     1
331
B06
 73
     2
 91
        0
 40
1.0
 10
0.0
 20
0.0
 30
2.000000000000000E+50
 75
     0
  1
AcDbOsnapPointRef
 72
     1
331
ADD
 73
     2
 91
        0
 40
1.0
 10
0.0
 20
0.0
 30
2.000000000000000E+50
 75
     0
  0
DIMASSOC
  5
B6B
102
{ACAD_REACTORS
330
B61
102
}
330
B61
100
AcDbDimAssoc
330
B54
 90
        3
 70
     0
 71
     0
  1
AcDbOsnapPointRef
 72
     1
331
B01
 73
     2
 91
        0
 40
1.0
 10
0.0
 20
0.0
 30
2.000000000000000E+50
 75
     0
  1
AcDbOsnapPointRef
 72
    13
331
AF3
 73
     2
 91
        0
 40
0.0
 10
0.0
 20
0.0
 30
2.000000000000000E+50
 75
     0
  0
DIMASSOC
  5
B83
102
{ACAD_REACTORS
330
B79
102
}
330
B79
100
AcDbDimAssoc
330
B6C
 90
        3
 70
     0
 71
     0
  1
AcDbOsnapPointRef
 72
    13
331
B09
 73
     2
 91
        0
 40
0.0
 10
0.0
 20
0.0
 30
2.000000000000000E+50
 75
     0
  1
AcDbOsnapPointRef
 72
     6
331
B03
 73
     2
 91
        0
 40
0.0
 10
0.0
 20
0.0
 30
0.0
332
AF8
 74
     2
 92
        0
 75
     0
  0
DIMASSOC
  5
B9B
102
{ACAD_REACTORS
330
B91
102
}
330
B91
100
AcDbDimAssoc
330
B84
 90
        3
 70
     0
 71
     0
  1
AcDbOsnapPointRef
 72
    13
331
B09
 73
     2
 91
        0
 40
0.0
 10
0.0
 20
0.0
 30
2.000000000000000E+50
 75
     0
  1
AcDbOsnapPointRef
 72
    13
331
AF9
 73
     2
 91
        0
 40
0.0
 10
0.0
 20
0.0
 30
2.000000000000000E+50
 75
     0
  0
DIMASSOC
  5
BB3
102
{ACAD_REACTORS
330
BA9
102
}
330
BA9
100
AcDbDimAssoc
330
B9C
 90
        3
 70
     0
 71
     0
  1
AcDbOsnapPointRef
 72
    13
331
B09
 73
     2
 91
        0
 40
0.0
 10
0.0
 20
0.0
 30
2.000000000000000E+50
 75
     0
  1
AcDbOsnapPointRef
 72
     1
331
B0A
 73
     2
 91
        0
 40
1.0
 10
0.0
 20
0.0
 30
2.000000000000000E+50
 75
     0
  0
LAYOUT
  5
1F
102
{ACAD_REACTORS
330
19
102
}
330
19
100
AcDbPlotSettings
  1

  2
RICOH Aficio 2027 PCL 6
  4

  6

 40
0.0
 41
0.0
 42
0.0
 43
0.0
 44
0.0
 45
0.0
 46
0.0
 47
0.0
 48
0.0
 49
0.0
140
0.0
141
0.0
142
1.0
143
1.0
 70
   688
 72
     0
 73
     0
 74
     5
  7
monochrome1.ctb
 75
    16
147
1.0
 76
     0
 77
     2
 78
   300
148
0.0
149
0.0
100
AcDbLayout
  1
Layout1
 70
     0
 71
     1
 10
0.0
 20
0.0
 11
12.0
 21
9.0
 12
94.77699787264981
 22
50.00000000000001
 32
160.541677480246
 14
1.000000000000000E+20
 24
1.000000000000000E+20
 34
1.000000000000000E+20
 15
-1.000000000000000E+20
 25
-1.000000000000000E+20
 35
-1.000000000000000E+20
146
0.0
 13
0.0
 23
0.0
 33
0.0
 16
1.0
 26
0.0
 36
0.0
 17
0.0
 27
1.0
 37
0.0
 76
     0
330
1C
  0
LAYOUT
  5
23
102
{ACAD_REACTORS
330
19
102
}
330
19
100
AcDbPlotSettings
  1

  2
RICOH Aficio 2027 PCL 6
  4
A4
  6

 40
5.027083396911621
 41
5.027085304260253
 42
5.027084350585937
 43
5.027069091796875
 44
209.9733276367187
 45
296.9259948730469
 46
0.0
 47
0.0
 48
0.0
 49
0.0
140
0.0
141
0.0
142
1.0
143
1.0
 70
 11952
 72
     0
 73
     1
 74
     0
  7
monochrome1.ctb
 75
     0
147
1.0
 76
     0
 77
     2
 78
   300
148
1149.94759482167
149
45.04758967657628
100
AcDbLayout
  1
Model
 70
     1
 71
     0
 10
0.0
 20
0.0
 11
12.0
 21
9.0
 12
0.0
 22
0.0
 32
0.0
 14
0.0
 24
0.0
 34
0.0
 15
0.0
 25
0.0
 35
0.0
146
0.0
 13
0.0
 23
0.0
 33
0.0
 16
1.0
 26
0.0
 36
0.0
 17
0.0
 27
1.0
 37
0.0
 76
     0
330
20
  0
MLINESTYLE
  5
17
102
{ACAD_REACTORS
330
16
102
}
330
16
100
AcDbMlineStyle
  2
STANDARD
 70
     0
  3

 62
   256
 51
90.0
 52
90.0
 71
     2
 49
0.5
 62
   256
  6
BYLAYER
 49
-0.5
 62
   256
  6
BYLAYER
  0
ACDBPLACEHOLDER
  5
F
102
{ACAD_REACTORS
330
E
102
}
330
E
  0
DICTIONARYVAR
  5
260
102
{ACAD_REACTORS
330
25E
102
}
330
25E
100
DictionaryVariables
280
     0
  1
2
  0
DICTIONARYVAR
  5
25F
102
{ACAD_REACTORS
330
25E
102
}
330
25E
100
DictionaryVariables
280
     0
  1
1
  0
DICTIONARYVAR
  5
261
102
{ACAD_REACTORS
330
25E
102
}
330
25E
100
DictionaryVariables
280
     0
  1

  0
ENDSEC
  0
EOF
