  0
SECTION
  2
HEADER
  9
$ACADVER
  1
AC1018
  9
$ACADMAINTVER
 70
     2
  9
$DWGCODEPAGE
  3
ANSI_1252
  9
$INSBASE
 10
0.0
 20
0.0
 30
0.0
  9
$EXTMIN
 10
-0.0064083980321925
 20
-0.0090633057883451
 30
-0.0000000349181948
  9
$EXTMAX
 10
105.0064093759507
 20
148.5090646888447
 30
0.0000000814935746
  9
$LIMMIN
 10
0.0
 20
0.0
  9
$LIMMAX
 10
105.0
 20
148.5
  9
$ORTHOMODE
 70
     0
  9
$REGENMODE
 70
     1
  9
$FILLMODE
 70
     1
  9
$QTEXTMODE
 70
     0
  9
$MIRRTEXT
 70
     1
  9
$LTSCALE
 40
5.0
  9
$ATTMODE
 70
     1
  9
$TEXTSIZE
 40
3.5
  9
$TRACEWID
 40
0.5
  9
$TEXTSTYLE
  7
GREEKS
  9
$CLAYER
  8
SCHRAFF
  9
$CELTYPE
  6
ByLayer
  9
$CECOLOR
 62
   256
  9
$CELTSCALE
 40
1.0
  9
$DISPSILH
 70
     0
  9
$DIMSCALE
 40
0.5
  9
$DIMASZ
 40
3.5
  9
$DIMEXO
 40
0.5
  9
$DIMDLI
 40
7.0
  9
$DIMRND
 40
0.0
  9
$DIMDLE
 40
0.0
  9
$DIMEXE
 40
0.5
  9
$DIMTP
 40
0.1
  9
$DIMTM
 40
0.1
  9
$DIMTXT
 40
3.5
  9
$DIMCEN
 40
1.5
  9
$DIMTSZ
 40
0.0
  9
$DIMTOL
 70
     0
  9
$DIMLIM
 70
     0
  9
$DIMTIH
 70
     0
  9
$DIMTOH
 70
     0
  9
$DIMSE1
 70
     0
  9
$DIMSE2
 70
     0
  9
$DIMTAD
 70
     1
  9
$DIMZIN
 70
     8
  9
$DIMBLK
  1

  9
$DIMASO
 70
     1
  9
$DIMSHO
 70
     0
  9
$DIMPOST
  1

  9
$DIMAPOST
  1

  9
$DIMALT
 70
     0
  9
$DIMALTD
 70
     2
  9
$DIMALTF
 40
25.4
  9
$DIMLFAC
 40
1.0
  9
$DIMTOFL
 70
     1
  9
$DIMTVP
 40
0.0
  9
$DIMTIX
 70
     0
  9
$DIMSOXD
 70
     0
  9
$DIMSAH
 70
     0
  9
$DIMBLK1
  1

  9
$DIMBLK2
  1

  9
$DIMSTYLE
  2
Standard
  9
$DIMCLRD
 70
     0
  9
$DIMCLRE
 70
     0
  9
$DIMCLRT
 70
     1
  9
$DIMTFAC
 40
0.5142857142857144
  9
$DIMGAP
 40
1.5
  9
$DIMJUST
 70
     0
  9
$DIMSD1
 70
     0
  9
$DIMSD2
 70
     0
  9
$DIMTOLJ
 70
     1
  9
$DIMTZIN
 70
     8
  9
$DIMALTZ
 70
     8
  9
$DIMALTTZ
 70
     8
  9
$DIMUPT
 70
     0
  9
$DIMDEC
 70
     2
  9
$DIMTDEC
 70
     2
  9
$DIMALTU
 70
     2
  9
$DIMALTTD
 70
     2
  9
$DIMTXSTY
  7
GREEKS
  9
$DIMAUNIT
 70
     0
  9
$DIMADEC
 70
     2
  9
$DIMALTRND
 40
0.0
  9
$DIMAZIN
 70
     2
  9
$DIMDSEP
 70
    46
  9
$DIMATFIT
 70
     3
  9
$DIMFRAC
 70
     0
  9
$DIMLDRBLK
  1

  9
$DIMLUNIT
 70
     2
  9
$DIMLWD
 70
    -2
  9
$DIMLWE
 70
    -2
  9
$DIMTMOVE
 70
     0
  9
$LUNITS
 70
     2
  9
$LUPREC
 70
     2
  9
$SKETCHINC
 40
1.0
  9
$FILLETRAD
 40
0.0
  9
$AUNITS
 70
     0
  9
$AUPREC
 70
     0
  9
$MENU
  1
ACAD
  9
$ELEVATION
 40
0.0
  9
$PELEVATION
 40
0.0
  9
$THICKNESS
 40
0.0
  9
$LIMCHECK
 70
     0
  9
$CHAMFERA
 40
0.0
  9
$CHAMFERB
 40
0.0
  9
$CHAMFERC
 40
0.0
  9
$CHAMFERD
 40
0.0
  9
$SKPOLY
 70
     0
  9
$TDCREATE
 40
2452345.455591667
  9
$TDUCREATE
 40
2452345.372258334
  9
$TDUPDATE
 40
2455450.554920243
  9
$TDUUPDATE
 40
2455450.471586910
  9
$TDINDWG
 40
0.0246921528
  9
$TDUSRTIMER
 40
0.0246921528
  9
$USRTIMER
 70
     1
  9
$ANGBASE
 50
0.0
  9
$ANGDIR
 70
     0
  9
$PDMODE
 70
     0
  9
$PDSIZE
 40
0.0
  9
$PLINEWID
 40
0.0
  9
$SPLFRAME
 70
     0
  9
$SPLINETYPE
 70
     6
  9
$SPLINESEGS
 70
     8
  9
$HANDSEED
  5
4DC
  9
$SURFTAB1
 70
     6
  9
$SURFTAB2
 70
     6
  9
$SURFTYPE
 70
     6
  9
$SURFU
 70
     6
  9
$SURFV
 70
     6
  9
$UCSBASE
  2

  9
$UCSNAME
  2

  9
$UCSORG
 10
0.0
 20
0.0
 30
0.0
  9
$UCSXDIR
 10
1.0
 20
0.0
 30
0.0
  9
$UCSYDIR
 10
0.0
 20
1.0
 30
0.0
  9
$UCSORTHOREF
  2

  9
$UCSORTHOVIEW
 70
     0
  9
$UCSORGTOP
 10
0.0
 20
0.0
 30
0.0
  9
$UCSORGBOTTOM
 10
0.0
 20
0.0
 30
0.0
  9
$UCSORGLEFT
 10
0.0
 20
0.0
 30
0.0
  9
$UCSORGRIGHT
 10
0.0
 20
0.0
 30
0.0
  9
$UCSORGFRONT
 10
0.0
 20
0.0
 30
0.0
  9
$UCSORGBACK
 10
0.0
 20
0.0
 30
0.0
  9
$PUCSBASE
  2

  9
$PUCSNAME
  2

  9
$PUCSORG
 10
0.0
 20
0.0
 30
0.0
  9
$PUCSXDIR
 10
1.0
 20
0.0
 30
0.0
  9
$PUCSYDIR
 10
0.0
 20
1.0
 30
0.0
  9
$PUCSORTHOREF
  2

  9
$PUCSORTHOVIEW
 70
     0
  9
$PUCSORGTOP
 10
0.0
 20
0.0
 30
0.0
  9
$PUCSORGBOTTOM
 10
0.0
 20
0.0
 30
0.0
  9
$PUCSORGLEFT
 10
0.0
 20
0.0
 30
0.0
  9
$PUCSORGRIGHT
 10
0.0
 20
0.0
 30
0.0
  9
$PUCSORGFRONT
 10
0.0
 20
0.0
 30
0.0
  9
$PUCSORGBACK
 10
0.0
 20
0.0
 30
0.0
  9
$USERI1
 70
     0
  9
$USERI2
 70
     0
  9
$USERI3
 70
     0
  9
$USERI4
 70
     0
  9
$USERI5
 70
     0
  9
$USERR1
 40
0.0
  9
$USERR2
 40
0.0
  9
$USERR3
 40
0.0
  9
$USERR4
 40
0.0
  9
$USERR5
 40
0.0
  9
$WORLDVIEW
 70
     1
  9
$SHADEDGE
 70
     3
  9
$SHADEDIF
 70
    70
  9
$TILEMODE
 70
     1
  9
$MAXACTVP
 70
    16
  9
$PINSBASE
 10
0.0
 20
0.0
 30
0.0
  9
$PLIMCHECK
 70
     0
  9
$PEXTMIN
 10
1.000000000000000E+20
 20
1.000000000000000E+20
 30
1.000000000000000E+20
  9
$PEXTMAX
 10
-1.000000000000000E+20
 20
-1.000000000000000E+20
 30
-1.000000000000000E+20
  9
$PLIMMIN
 10
0.0
 20
0.0
  9
$PLIMMAX
 10
12.0
 20
9.0
  9
$UNITMODE
 70
     0
  9
$VISRETAIN
 70
     0
  9
$PLINEGEN
 70
     0
  9
$PSLTSCALE
 70
     0
  9
$TREEDEPTH
 70
  3020
  9
$CMLSTYLE
  2
Standard
  9
$CMLJUST
 70
     0
  9
$CMLSCALE
 40
1.0
  9
$PROXYGRAPHICS
 70
     1
  9
$MEASUREMENT
 70
     0
  9
$CELWEIGHT
370
    -1
  9
$ENDCAPS
280
     0
  9
$JOINSTYLE
280
     0
  9
$LWDISPLAY
290
     0
  9
$INSUNITS
 70
     0
  9
$HYPERLINKBASE
  1

  9
$STYLESHEET
  1
monochrome 1.ctb
  9
$XEDIT
290
     1
  9
$CEPSNTYPE
380
     0
  9
$PSTYLEMODE
290
     1
  9
$FINGERPRINTGUID
  2
{21AEF783-76EE-4D2A-82D4-C258BF3EF960}
  9
$VERSIONGUID
  2
{BE7D596F-0407-4DDB-BC4C-E6034FDC8C3F}
  9
$EXTNAMES
290
     1
  9
$PSVPSCALE
 40
0.0
  9
$OLESTARTUP
290
     0
  9
$SORTENTS
280
   127
  9
$INDEXCTL
280
     0
  9
$HIDETEXT
280
     1
  9
$XCLIPFRAME
290
     0
  9
$HALOGAP
280
     0
  9
$OBSCOLOR
 70
   257
  9
$OBSLTYPE
280
     0
  9
$INTERSECTIONDISPLAY
280
     0
  9
$INTERSECTIONCOLOR
 70
   257
  9
$DIMASSOC
280
     2
  9
$PROJECTNAME
  1

  0
ENDSEC
  0
SECTION
  2
CLASSES
  0
CLASS
  1
ACDBDICTIONARYWDFLT
  2
AcDbDictionaryWithDefault
  3
ObjectDBX Classes
 90
        0
 91
        1
280
     0
281
     0
  0
CLASS
  1
DICTIONARYVAR
  2
AcDbDictionaryVar
  3
ObjectDBX Classes
 90
        0
 91
        3
280
     0
281
     0
  0
CLASS
  1
DIMASSOC
  2
AcDbDimAssoc
  3
"AcDbDimAssoc|Product Desc:     AcDim ARX App For Dimension|Company:          Autodesk, Inc.|WEB Address:      www.autodesk.com"
 90
        0
 91
        1
280
     0
281
     0
  0
ENDSEC
  0
SECTION
  2
TABLES
  0
TABLE
  2
VPORT
  5
8
330
0
100
AcDbSymbolTable
 70
     2
  0
VPORT
  5
4DB
330
8
100
AcDbSymbolTableRecord
100
AcDbViewportTableRecord
  2
*Active
 70
     0
 10
0.0
 20
0.0
 11
1.0
 21
1.0
 12
52.50000048895927
 22
74.2500006915282
 13
0.0
 23
0.0
 14
1.0
 24
1.0
 15
10.0
 25
10.0
 16
0.0
 26
0.0
 36
1.0
 17
0.0
 27
0.0
 37
0.0
 40
149.7174668478872
 41
1.336927223719676
 42
50.0
 43
0.0
 44
0.0
 50
0.0
 51
0.0
 71
     0
 72
  1500
 73
     1
 74
     0
 75
     0
 76
     0
 77
     0
 78
     0
281
     0
 65
     1
110
0.0
120
0.0
130
0.0
111
1.0
121
0.0
131
0.0
112
0.0
122
1.0
132
0.0
 79
     0
146
0.0
  0
ENDTAB
  0
TABLE
  2
LTYPE
  5
5
330
0
100
AcDbSymbolTable
 70
     2
  0
LTYPE
  5
13
330
5
100
AcDbSymbolTableRecord
100
AcDbLinetypeTableRecord
  2
ByBlock
 70
     0
  3

 72
    65
 73
     0
 40
0.0
  0
LTYPE
  5
14
330
5
100
AcDbSymbolTableRecord
100
AcDbLinetypeTableRecord
  2
ByLayer
 70
     0
  3

 72
    65
 73
     0
 40
0.0
  0
LTYPE
  5
15
330
5
100
AcDbSymbolTableRecord
100
AcDbLinetypeTableRecord
  2
Continuous
 70
     0
  3
Solid line
 72
    65
 73
     0
 40
0.0
  0
LTYPE
  5
37
330
5
100
AcDbSymbolTableRecord
100
AcDbLinetypeTableRecord
  2
STRICHPUNKT
 70
     0
  3
__ . __ . __ . __ . __ . __ . __ . __ . __ . __
 72
    65
 73
     4
 40
1.0
 49
0.5
 74
     0
 49
-0.25
 74
     0
 49
0.0
 74
     0
 49
-0.25
 74
     0
  0
ENDTAB
  0
TABLE
  2
LAYER
  5
2
330
0
100
AcDbSymbolTable
 70
     9
  0
LAYER
  5
10
330
2
100
AcDbSymbolTableRecord
100
AcDbLayerTableRecord
  2
0
 70
     0
 62
     7
  6
Continuous
370
    -3
390
F
  0
LAYER
  5
3A
330
2
100
AcDbSymbolTableRecord
100
AcDbLayerTableRecord
  2
VOLL
 70
     0
 62
     1
  6
Continuous
370
    -3
390
F
  0
LAYER
  5
3B
330
2
100
AcDbSymbolTableRecord
100
AcDbLayerTableRecord
  2
HILF
 70
     0
 62
     2
  6
Continuous
370
    -3
390
F
  0
LAYER
  5
3C
330
2
100
AcDbSymbolTableRecord
100
AcDbLayerTableRecord
  2
MITTEL
 70
     0
 62
     2
  6
STRICHPUNKT
370
    -3
390
F
  0
LAYER
  5
3D
330
2
100
AcDbSymbolTableRecord
100
AcDbLayerTableRecord
  2
BEM
 70
     0
 62
     7
  6
Continuous
370
    -3
390
F
  0
LAYER
  5
3E
330
2
100
AcDbSymbolTableRecord
100
AcDbLayerTableRecord
  2
SCHRAFF
 70
     0
 62
     7
  6
Continuous
370
    -3
390
F
  0
LAYER
  5
3F
330
2
100
AcDbSymbolTableRecord
100
AcDbLayerTableRecord
  2
STEMPEL
 70
     0
 62
     3
  6
Continuous
370
    -3
390
F
  0
LAYER
  5
40
330
2
100
AcDbSymbolTableRecord
100
AcDbLayerTableRecord
  2
DEFPOINTS
 70
     0
 62
     7
  6
Continuous
290
     0
370
    -3
390
F
  0
LAYER
  5
41
330
2
100
AcDbSymbolTableRecord
100
AcDbLayerTableRecord
  2
TEXT
 70
     0
 62
     7
  6
Continuous
370
    -3
390
F
  0
ENDTAB
  0
TABLE
  2
STYLE
  5
3
330
0
100
AcDbSymbolTable
 70
     2
  0
STYLE
  5
11
330
3
100
AcDbSymbolTableRecord
100
AcDbTextStyleTableRecord
  2
STANDARD
 70
     0
 40
0.0
 41
1.0
 50
0.0
 71
     0
 42
3.5
  3
txt
  4

  0
STYLE
  5
36
330
3
100
AcDbSymbolTableRecord
100
AcDbTextStyleTableRecord
  2
GREEKS
 70
     0
 40
0.0
 41
0.8
 50
0.0
 71
     0
 42
3.5
  3
SIMPLEX.shx
  4

  0
ENDTAB
  0
TABLE
  2
VIEW
  5
6
330
0
100
AcDbSymbolTable
 70
     0
  0
ENDTAB
  0
TABLE
  2
UCS
  5
7
330
0
100
AcDbSymbolTable
 70
     0
  0
ENDTAB
  0
TABLE
  2
APPID
  5
9
330
0
100
AcDbSymbolTable
 70
     1
  0
APPID
  5
12
330
9
100
AcDbSymbolTableRecord
100
AcDbRegAppTableRecord
  2
ACAD
 70
     0
  0
ENDTAB
  0
TABLE
  2
DIMSTYLE
  5
A
330
0
100
AcDbSymbolTable
 70
     1
100
AcDbDimStyleTable
 71
     1
340
225
  0
DIMSTYLE
105
225
102
{ACAD_REACTORS
330
1E1
330
1DF
330
1DB
330
1DA
330
192
330
468
102
}
330
A
100
AcDbSymbolTableRecord
100
AcDbDimStyleTableRecord
  2
Standard
 70
     0
340
11
  0
ENDTAB
  0
TABLE
  2
BLOCK_RECORD
  5
1
330
0
100
AcDbSymbolTable
 70
     7
  0
BLOCK_RECORD
  5
20
330
1
100
AcDbSymbolTableRecord
100
AcDbBlockTableRecord
  2
*Model_Space
340
23
  0
BLOCK_RECORD
  5
1C
330
1
100
AcDbSymbolTableRecord
100
AcDbBlockTableRecord
  2
*Paper_Space
340
1F
  0
BLOCK_RECORD
  5
24
330
1
100
AcDbSymbolTableRecord
100
AcDbBlockTableRecord
  2
LOGO
340
0
102
{BLKREFS
331
1BE
102
}
  0
BLOCK_RECORD
  5
26E
330
1
100
AcDbSymbolTableRecord
100
AcDbBlockTableRecord
  2
*D1
340
0
  0
BLOCK_RECORD
  5
27A
330
1
100
AcDbSymbolTableRecord
100
AcDbBlockTableRecord
  2
*D2
340
0
  0
BLOCK_RECORD
  5
286
330
1
100
AcDbSymbolTableRecord
100
AcDbBlockTableRecord
  2
*D3
340
0
  0
BLOCK_RECORD
  5
292
330
1
100
AcDbSymbolTableRecord
100
AcDbBlockTableRecord
  2
*D4
340
0
  0
BLOCK_RECORD
  5
2DE
330
1
100
AcDbSymbolTableRecord
100
AcDbBlockTableRecord
  2
*D5
340
0
  0
BLOCK_RECORD
  5
469
330
1
100
AcDbSymbolTableRecord
100
AcDbBlockTableRecord
  2
*D6
340
0
  0
ENDTAB
  0
ENDSEC
  0
SECTION
  2
BLOCKS
  0
BLOCK
  5
45
330
20
100
AcDbEntity
  8
0
100
AcDbBlockBegin
  2
*Model_Space
 70
     0
 10
0.0
 20
0.0
 30
0.0
  3
*Model_Space
  1

  0
ENDBLK
  5
46
330
20
100
AcDbEntity
  8
0
100
AcDbBlockEnd
  0
BLOCK
  5
43
330
1C
100
AcDbEntity
 67
     1
  8
0
100
AcDbBlockBegin
  2
*Paper_Space
 70
     0
 10
0.0
 20
0.0
 30
0.0
  3
*Paper_Space
  1

  0
ENDBLK
  5
44
330
1C
100
AcDbEntity
 67
     1
  8
0
100
AcDbBlockEnd
  0
BLOCK
  5
47
330
24
100
AcDbEntity
  8
0
100
AcDbBlockBegin
  2
LOGO
 70
     0
 10
0.0
 20
0.0
 30
0.0
  3
LOGO
  1

  0
ARC
  5
48
330
24
100
AcDbEntity
  8
0
100
AcDbCircle
 10
11.59973089678112
 20
-9.271599258481501
 30
0.0
 40
4.5
100
AcDbArc
 50
270.0
 51
231.0575587310159
  0
LINE
  5
49
330
24
100
AcDbEntity
  8
0
100
AcDbLine
 10
3.599730896781125
 20
-4.771599258481529
 30
0.0
 11
3.599730896781153
 21
-11.77159925848133
 31
0.0
  0
LINE
  5
4A
330
24
100
AcDbEntity
  8
0
100
AcDbLine
 10
2.599730896781125
 20
-4.771599258481529
 30
0.0
 11
2.599730896781153
 21
-11.77159925848133
 31
0.0
  0
CIRCLE
  5
4B
330
24
100
AcDbEntity
  8
0
100
AcDbCircle
 10
11.59973089678112
 20
-9.271599258481501
 30
0.0
 40
3.5
  0
ARC
  5
4C
330
24
100
AcDbEntity
  8
0
100
AcDbCircle
 10
31.59973089678115
 20
-9.271599258481472
 30
0.0
 40
4.5
100
AcDbArc
 50
270.0
 51
231.0575587310182
  0
LINE
  5
4D
330
24
100
AcDbEntity
  8
0
100
AcDbLine
 10
17.59973089678112
 20
-4.771599258481472
 30
0.0
 11
17.59973089678115
 21
-13.77159925848147
 31
0.0
  0
ARC
  5
4E
330
24
100
AcDbEntity
  8
0
100
AcDbCircle
 10
22.59973089678116
 20
-7.271599258481472
 30
0.0
 40
2.5
100
AcDbArc
 50
293.1161887722295
 51
90.0
  0
CIRCLE
  5
4F
330
24
100
AcDbEntity
  8
0
100
AcDbCircle
 10
31.59973089678115
 20
-9.271599258481472
 30
0.0
 40
3.5
  0
ARC
  5
50
330
24
100
AcDbEntity
  8
0
100
AcDbCircle
 10
4.599730896781153
 20
-11.77159925848133
 30
0.0
 40
1.0
100
AcDbArc
 50
180.0
 51
270.0
  0
ARC
  5
51
330
24
100
AcDbEntity
  8
0
100
AcDbCircle
 10
4.599730896781153
 20
-11.77159925848133
 30
0.0
 40
2.0
100
AcDbArc
 50
179.9999999999992
 51
270.0
  0
LINE
  5
52
330
24
100
AcDbEntity
  8
0
100
AcDbLine
 10
11.59973089678115
 20
-13.77159925848144
 30
0.0
 11
4.599730896781153
 21
-13.77159925848147
 31
0.0
  0
LINE
  5
53
330
24
100
AcDbEntity
  8
0
100
AcDbLine
 10
8.771303772034769
 20
-12.77159925848136
 30
0.0
 11
4.599730896781153
 21
-12.77159925848133
 31
0.0
  0
LINE
  5
54
330
24
100
AcDbEntity
  8
0
100
AcDbLine
 10
31.59973089678115
 20
-13.77159925848147
 30
0.0
 11
23.6715276665056
 21
-13.77159925848144
 31
0.0
  0
LINE
  5
55
330
24
100
AcDbEntity
  8
0
100
AcDbLine
 10
23.56565672307022
 20
-9.51278021337896
 30
0.0
 11
24.4388546544846
 21
-12.77159925848144
 31
0.0
  0
LINE
  5
56
330
24
100
AcDbEntity
  8
0
100
AcDbLine
 10
22.59973089678116
 20
-9.771599258481472
 30
0.0
 11
18.59973089678112
 21
-9.771599258481472
 31
0.0
  0
LINE
  5
57
330
24
100
AcDbEntity
  8
0
100
AcDbLine
 10
18.59973089678115
 20
-13.77159925848144
 30
0.0
 11
17.59973089678115
 21
-13.77159925848144
 31
0.0
  0
LINE
  5
58
330
24
100
AcDbEntity
  8
0
100
AcDbLine
 10
18.59973089678115
 20
-9.771599258481472
 30
0.0
 11
18.59973089678115
 21
-13.77159925848144
 31
0.0
  0
LINE
  5
59
330
24
100
AcDbEntity
  8
0
100
AcDbLine
 10
22.59973089678116
 20
-9.771599258481472
 30
0.0
 11
23.67152766650562
 21
-13.77159925848147
 31
0.0
  0
ARC
  5
5A
330
24
100
AcDbEntity
  8
0
100
AcDbCircle
 10
22.59973089678116
 20
-7.271599258481472
 30
0.0
 40
2.5
100
AcDbArc
 50
270.0
 51
270.0000000000007
  0
LINE
  5
5B
330
24
100
AcDbEntity
  8
0
100
AcDbLine
 10
28.77130377203494
 20
-12.77159925848147
 30
0.0
 11
24.43885465448463
 21
-12.77159925848144
 31
0.0
  0
LINE
  5
5C
330
24
100
AcDbEntity
  8
0
100
AcDbLine
 10
3.599730896781125
 20
-4.771599258481472
 30
0.0
 11
2.599730896781125
 21
-4.771599258481472
 31
0.0
  0
LINE
  5
5D
330
24
100
AcDbEntity
  8
0
100
AcDbLine
 10
22.59973089678116
 20
-8.771599258481472
 30
0.0
 11
18.59973089678115
 21
-8.771599258481472
 31
0.0
  0
LINE
  5
5E
330
24
100
AcDbEntity
  8
0
100
AcDbLine
 10
22.59973089678116
 20
-5.771599258481472
 30
0.0
 11
18.59973089678115
 21
-5.771599258481472
 31
0.0
  0
LINE
  5
5F
330
24
100
AcDbEntity
  8
0
100
AcDbLine
 10
22.59973089678116
 20
-4.771599258481472
 30
0.0
 11
17.59973089678115
 21
-4.771599258481472
 31
0.0
  0
LINE
  5
60
330
24
100
AcDbEntity
  8
0
100
AcDbLine
 10
18.59973089678115
 20
-5.771599258481472
 30
0.0
 11
18.59973089678115
 21
-8.771599258481472
 31
0.0
  0
ARC
  5
61
330
24
100
AcDbEntity
  8
0
100
AcDbCircle
 10
22.59973089678116
 20
-7.271599258481472
 30
0.0
 40
1.5
100
AcDbArc
 50
270.0
 51
90.0
  0
ENDBLK
  5
62
330
24
100
AcDbEntity
  8
0
100
AcDbBlockEnd
  0
BLOCK
  5
278
330
26E
100
AcDbEntity
  8
0
100
AcDbBlockBegin
  2
*D1
 70
     1
 10
0.0
 20
0.0
 30
0.0
  3
*D1
  1

  0
LINE
  5
4A3
330
26E
100
AcDbEntity
  8
BEM
 62
     0
370
    -2
100
AcDbLine
 10
38.13827171668457
 20
85.77899021996953
 30
0.0
 11
38.13827171668457
 21
94.41768216474519
 31
0.0
  0
LINE
  5
4A4
330
26E
100
AcDbEntity
  8
BEM
 62
     0
370
    -2
100
AcDbLine
 10
76.63827171668455
 20
85.77899021996953
 30
0.0
 11
76.63827171668455
 21
94.41768216474519
 31
0.0
  0
LINE
  5
4A5
330
26E
100
AcDbEntity
  8
BEM
 62
     0
370
    -2
100
AcDbLine
 10
39.88827171668457
 20
94.16768216474521
 30
0.0
 11
74.88827171668456
 21
94.16768216474521
 31
0.0
  0
SOLID
  5
4A6
330
26E
100
AcDbEntity
  8
BEM
 62
     0
100
AcDbTrace
 10
39.88827171668457
 20
94.45934883141188
 30
0.0
 11
39.88827171668457
 21
93.87601549807852
 31
0.0
 12
38.13827171668457
 22
94.16768216474521
 32
0.0
 13
38.13827171668457
 23
94.16768216474521
 33
0.0
  0
SOLID
  5
4A7
330
26E
100
AcDbEntity
  8
BEM
 62
     0
100
AcDbTrace
 10
74.88827171668456
 20
94.45934883141188
 30
0.0
 11
74.88827171668456
 21
93.87601549807852
 31
0.0
 12
76.63827171668455
 22
94.16768216474521
 32
0.0
 13
76.63827171668455
 23
94.16768216474521
 33
0.0
  0
MTEXT
  5
4A8
330
26E
100
AcDbEntity
  8
BEM
 62
     1
100
AcDbMText
 10
57.38827171668456
 20
95.7926821647452
 30
0.0
 40
1.75
 41
0.0
 71
     5
 72
     1
  1
\A1;%%C38.5
  7
GREEKS
 73
     1
 44
1.0
  0
POINT
  5
4A9
330
26E
100
AcDbEntity
  8
DEFPOINTS
 62
     0
100
AcDbPoint
 10
38.13827171668457
 20
85.52899021996955
 30
0.0
  0
POINT
  5
4AA
330
26E
100
AcDbEntity
  8
DEFPOINTS
 62
     0
100
AcDbPoint
 10
76.63827171668455
 20
85.52899021996955
 30
0.0
  0
POINT
  5
4AB
330
26E
100
AcDbEntity
  8
DEFPOINTS
 62
     0
100
AcDbPoint
 10
76.63827171668455
 20
94.16768216474521
 30
0.0
  0
ENDBLK
  5
279
330
26E
100
AcDbEntity
  8
0
100
AcDbBlockEnd
  0
BLOCK
  5
284
330
27A
100
AcDbEntity
  8
0
100
AcDbBlockBegin
  2
*D2
 70
     1
 10
0.0
 20
0.0
 30
0.0
  3
*D2
  1

  0
LINE
  5
4AC
330
27A
100
AcDbEntity
  8
BEM
 62
     0
370
    -2
100
AcDbLine
 10
82.38827171668456
 20
83.27899021996953
 30
0.0
 11
82.38827171668456
 21
98.47631424155226
 31
0.0
  0
LINE
  5
4AD
330
27A
100
AcDbEntity
  8
BEM
 62
     0
370
    -2
100
AcDbLine
 10
32.38827171668457
 20
83.27899021996953
 30
0.0
 11
32.38827171668457
 21
98.47631424155226
 31
0.0
  0
LINE
  5
4AE
330
27A
100
AcDbEntity
  8
BEM
 62
     0
370
    -2
100
AcDbLine
 10
80.63827171668455
 20
98.22631424155225
 30
0.0
 11
34.13827171668457
 21
98.22631424155225
 31
0.0
  0
SOLID
  5
4AF
330
27A
100
AcDbEntity
  8
BEM
 62
     0
100
AcDbTrace
 10
80.63827171668455
 20
98.51798090821894
 30
0.0
 11
80.63827171668455
 21
97.93464757488559
 31
0.0
 12
82.38827171668456
 22
98.22631424155225
 32
0.0
 13
82.38827171668456
 23
98.22631424155225
 33
0.0
  0
SOLID
  5
4B0
330
27A
100
AcDbEntity
  8
BEM
 62
     0
100
AcDbTrace
 10
34.13827171668457
 20
98.51798090821894
 30
0.0
 11
34.13827171668457
 21
97.93464757488559
 31
0.0
 12
32.38827171668457
 22
98.22631424155225
 32
0.0
 13
32.38827171668457
 23
98.22631424155225
 33
0.0
  0
MTEXT
  5
4B1
330
27A
100
AcDbEntity
  8
BEM
 62
     1
100
AcDbMText
 10
57.38827171668456
 20
99.85131424155227
 30
0.0
 40
1.75
 41
0.0
 71
     5
 72
     1
  1
\A1;%%C50
  7
GREEKS
 73
     1
 44
1.0
  0
POINT
  5
4B2
330
27A
100
AcDbEntity
  8
DEFPOINTS
 62
     0
100
AcDbPoint
 10
82.38827171668456
 20
83.02899021996955
 30
0.0
  0
POINT
  5
4B3
330
27A
100
AcDbEntity
  8
DEFPOINTS
 62
     0
100
AcDbPoint
 10
32.38827171668457
 20
83.02899021996955
 30
0.0
  0
POINT
  5
4B4
330
27A
100
AcDbEntity
  8
DEFPOINTS
 62
     0
100
AcDbPoint
 10
32.38827171668457
 20
98.22631424155225
 30
0.0
  0
ENDBLK
  5
285
330
27A
100
AcDbEntity
  8
0
100
AcDbBlockEnd
  0
BLOCK
  5
290
330
286
100
AcDbEntity
  8
0
100
AcDbBlockBegin
  2
*D3
 70
     1
 10
0.0
 20
0.0
 30
0.0
  3
*D3
  1

  0
LINE
  5
4B5
330
286
100
AcDbEntity
  8
BEM
 62
     0
370
    -2
100
AcDbLine
 10
32.13827171668457
 20
83.02899021996955
 30
0.0
 11
27.51502643331726
 21
83.02899021996955
 31
0.0
  0
LINE
  5
4B6
330
286
100
AcDbEntity
  8
BEM
 62
     0
370
    -2
100
AcDbLine
 10
32.13827171668457
 20
73.02899021996954
 30
0.0
 11
27.51502643331726
 21
73.02899021996956
 31
0.0
  0
LINE
  5
4B7
330
286
100
AcDbEntity
  8
BEM
 62
     0
370
    -2
100
AcDbLine
 10
27.76502643331726
 20
81.27899021996956
 30
0.0
 11
27.76502643331726
 21
74.77899021996956
 31
0.0
  0
SOLID
  5
4B8
330
286
100
AcDbEntity
  8
BEM
 62
     0
100
AcDbTrace
 10
27.4733597666506
 20
81.27899021996956
 30
0.0
 11
28.05669309998393
 21
81.27899021996956
 31
0.0
 12
27.76502643331726
 22
83.02899021996955
 32
0.0
 13
27.76502643331726
 23
83.02899021996955
 33
0.0
  0
SOLID
  5
4B9
330
286
100
AcDbEntity
  8
BEM
 62
     0
100
AcDbTrace
 10
27.4733597666506
 20
74.77899021996956
 30
0.0
 11
28.05669309998393
 21
74.77899021996956
 31
0.0
 12
27.76502643331726
 22
73.02899021996956
 32
0.0
 13
27.76502643331726
 23
73.02899021996956
 33
0.0
  0
MTEXT
  5
4BA
330
286
100
AcDbEntity
  8
BEM
 62
     1
100
AcDbMText
 10
26.14002643331725
 20
78.02899021996956
 30
0.0
 40
1.75
 41
0.0
 71
     5
 72
     1
  1
\A1;10
  7
GREEKS
 11
0.0000000000000001
 21
1.0
 31
0.0
 73
     1
 44
1.0
  0
POINT
  5
4BB
330
286
100
AcDbEntity
  8
DEFPOINTS
 62
     0
100
AcDbPoint
 10
32.38827171668457
 20
83.02899021996955
 30
0.0
  0
POINT
  5
4BC
330
286
100
AcDbEntity
  8
DEFPOINTS
 62
     0
100
AcDbPoint
 10
32.38827171668457
 20
73.02899021996954
 30
0.0
  0
POINT
  5
4BD
330
286
100
AcDbEntity
  8
DEFPOINTS
 62
     0
100
AcDbPoint
 10
27.76502643331726
 20
73.02899021996956
 30
0.0
  0
ENDBLK
  5
291
330
286
100
AcDbEntity
  8
0
100
AcDbBlockEnd
  0
BLOCK
  5
29C
330
292
100
AcDbEntity
  8
0
100
AcDbBlockBegin
  2
*D4
 70
     1
 10
0.0
 20
0.0
 30
0.0
  3
*D4
  1

  0
LINE
  5
4BE
330
292
100
AcDbEntity
  8
BEM
 62
     0
370
    -2
100
AcDbLine
 10
36.13827171668457
 20
87.02899021996953
 30
0.0
 11
22.79729866328962
 21
87.02899021996955
 31
0.0
  0
LINE
  5
4BF
330
292
100
AcDbEntity
  8
BEM
 62
     0
370
    -2
100
AcDbLine
 10
32.13827171668457
 20
73.02899021996954
 30
0.0
 11
22.79729866328962
 21
73.02899021996956
 31
0.0
  0
LINE
  5
4C0
330
292
100
AcDbEntity
  8
BEM
 62
     0
370
    -2
100
AcDbLine
 10
23.04729866328962
 20
85.27899021996956
 30
0.0
 11
23.04729866328962
 21
74.77899021996956
 31
0.0
  0
SOLID
  5
4C1
330
292
100
AcDbEntity
  8
BEM
 62
     0
100
AcDbTrace
 10
22.75563199662296
 20
85.27899021996956
 30
0.0
 11
23.33896532995629
 21
85.27899021996956
 31
0.0
 12
23.04729866328962
 22
87.02899021996955
 32
0.0
 13
23.04729866328962
 23
87.02899021996955
 33
0.0
  0
SOLID
  5
4C2
330
292
100
AcDbEntity
  8
BEM
 62
     0
100
AcDbTrace
 10
22.75563199662296
 20
74.77899021996956
 30
0.0
 11
23.33896532995629
 21
74.77899021996956
 31
0.0
 12
23.04729866328962
 22
73.02899021996956
 32
0.0
 13
23.04729866328962
 23
73.02899021996956
 33
0.0
  0
MTEXT
  5
4C3
330
292
100
AcDbEntity
  8
BEM
 62
     1
100
AcDbMText
 10
21.42229866328961
 20
80.02899021996956
 30
0.0
 40
1.75
 41
0.0
 71
     5
 72
     1
  1
\A1;14
  7
GREEKS
 11
0.0000000000000001
 21
1.0
 31
0.0
 73
     1
 44
1.0
  0
POINT
  5
4C4
330
292
100
AcDbEntity
  8
DEFPOINTS
 62
     0
100
AcDbPoint
 10
36.38827171668457
 20
87.02899021996953
 30
0.0
  0
POINT
  5
4C5
330
292
100
AcDbEntity
  8
DEFPOINTS
 62
     0
100
AcDbPoint
 10
32.38827171668457
 20
73.02899021996954
 30
0.0
  0
POINT
  5
4C6
330
292
100
AcDbEntity
  8
DEFPOINTS
 62
     0
100
AcDbPoint
 10
23.04729866328962
 20
73.02899021996956
 30
0.0
  0
ENDBLK
  5
29D
330
292
100
AcDbEntity
  8
0
100
AcDbBlockEnd
  0
BLOCK
  5
2E8
330
2DE
100
AcDbEntity
  8
0
100
AcDbBlockBegin
  2
*D5
 70
     1
 10
0.0
 20
0.0
 30
0.0
  3
*D5
  1

  0
LINE
  5
4C7
330
2DE
100
AcDbEntity
  8
BEM
 62
     0
370
    -2
100
AcDbLine
 10
32.38827171668457
 20
72.77899021996955
 30
0.0
 11
32.38827171668457
 21
59.23755861126377
 31
0.0
  0
LINE
  5
4C8
330
2DE
100
AcDbEntity
  8
BEM
 62
     0
370
    -2
100
AcDbLine
 10
82.38827171668456
 20
72.77899021996955
 30
0.0
 11
82.38827171668456
 21
59.23755861126377
 31
0.0
  0
LINE
  5
4C9
330
2DE
100
AcDbEntity
  8
BEM
 62
     0
370
    -2
100
AcDbLine
 10
34.13827171668457
 20
59.48755861126376
 30
0.0
 11
80.63827171668455
 21
59.48755861126376
 31
0.0
  0
SOLID
  5
4CA
330
2DE
100
AcDbEntity
  8
BEM
 62
     0
100
AcDbTrace
 10
34.13827171668457
 20
59.77922527793043
 30
0.0
 11
34.13827171668457
 21
59.1958919445971
 31
0.0
 12
32.38827171668457
 22
59.48755861126376
 32
0.0
 13
32.38827171668457
 23
59.48755861126376
 33
0.0
  0
SOLID
  5
4CB
330
2DE
100
AcDbEntity
  8
BEM
 62
     0
100
AcDbTrace
 10
80.63827171668455
 20
59.77922527793043
 30
0.0
 11
80.63827171668455
 21
59.1958919445971
 31
0.0
 12
82.38827171668456
 22
59.48755861126376
 32
0.0
 13
82.38827171668456
 23
59.48755861126376
 33
0.0
  0
MTEXT
  5
4CC
330
2DE
100
AcDbEntity
  8
BEM
 62
     1
100
AcDbMText
 10
57.38827171668456
 20
61.11255861126377
 30
0.0
 40
1.75
 41
0.0
 71
     5
 72
     1
  1
\A1;%%C50
  7
GREEKS
 73
     1
 44
1.0
  0
POINT
  5
4CD
330
2DE
100
AcDbEntity
  8
DEFPOINTS
 62
     0
100
AcDbPoint
 10
32.38827171668457
 20
73.02899021996954
 30
0.0
  0
POINT
  5
4CE
330
2DE
100
AcDbEntity
  8
DEFPOINTS
 62
     0
100
AcDbPoint
 10
82.38827171668456
 20
73.02899021996954
 30
0.0
  0
POINT
  5
4CF
330
2DE
100
AcDbEntity
  8
DEFPOINTS
 62
     0
100
AcDbPoint
 10
82.38827171668456
 20
59.48755861126376
 30
0.0
  0
ENDBLK
  5
2E9
330
2DE
100
AcDbEntity
  8
0
100
AcDbBlockEnd
  0
BLOCK
  5
473
330
469
100
AcDbEntity
  8
0
100
AcDbBlockBegin
  2
*D6
 70
     1
 10
0.0
 20
0.0
 30
0.0
  3
*D6
  1

  0
LINE
  5
49A
330
469
100
AcDbEntity
  8
SCHRAFF
 62
     0
370
    -2
100
AcDbLine
 10
40.88827171668457
 20
72.77899021996955
 30
0.0
 11
40.88827171668457
 21
63.54712118688223
 31
0.0
  0
LINE
  5
49B
330
469
100
AcDbEntity
  8
SCHRAFF
 62
     0
370
    -2
100
AcDbLine
 10
73.88827171668456
 20
72.77899021996955
 30
0.0
 11
73.88827171668456
 21
63.54712118688223
 31
0.0
  0
LINE
  5
49C
330
469
100
AcDbEntity
  8
SCHRAFF
 62
     0
370
    -2
100
AcDbLine
 10
42.63827171668457
 20
63.79712118688224
 30
0.0
 11
72.13827171668455
 21
63.79712118688224
 31
0.0
  0
SOLID
  5
49D
330
469
100
AcDbEntity
  8
SCHRAFF
 62
     0
100
AcDbTrace
 10
42.63827171668457
 20
64.0887878535489
 30
0.0
 11
42.63827171668457
 21
63.50545452021557
 31
0.0
 12
40.88827171668457
 22
63.79712118688224
 32
0.0
 13
40.88827171668457
 23
63.79712118688224
 33
0.0
  0
SOLID
  5
49E
330
469
100
AcDbEntity
  8
SCHRAFF
 62
     0
100
AcDbTrace
 10
72.13827171668455
 20
64.0887878535489
 30
0.0
 11
72.13827171668455
 21
63.50545452021557
 31
0.0
 12
73.88827171668456
 22
63.79712118688224
 32
0.0
 13
73.88827171668456
 23
63.79712118688224
 33
0.0
  0
MTEXT
  5
49F
330
469
100
AcDbEntity
  8
SCHRAFF
 62
     1
100
AcDbMText
 10
57.38827171668456
 20
65.42212118688223
 30
0.0
 40
1.75
 41
0.0
 71
     5
 72
     1
  1
\A1;%%c33
  7
GREEKS
 73
     1
 44
1.0
  0
POINT
  5
4A0
330
469
100
AcDbEntity
  8
DEFPOINTS
 62
     0
100
AcDbPoint
 10
40.88827171668457
 20
73.02899021996954
 30
0.0
  0
POINT
  5
4A1
330
469
100
AcDbEntity
  8
DEFPOINTS
 62
     0
100
AcDbPoint
 10
73.88827171668456
 20
73.02899021996954
 30
0.0
  0
POINT
  5
4A2
330
469
100
AcDbEntity
  8
DEFPOINTS
 62
     0
100
AcDbPoint
 10
73.88827171668456
 20
63.79712118688224
 30
0.0
  0
ENDBLK
  5
474
330
469
100
AcDbEntity
  8
0
100
AcDbBlockEnd
  0
ENDSEC
  0
SECTION
  2
ENTITIES
  0
TEXT
  5
179
330
20
100
AcDbEntity
  8
TEXT
 62
     1
100
AcDbText
 10
86.68703133767341
 20
22.0372535722849
 30
0.0
 40
1.75
  1
00914040W
 41
0.8
  7
GREEKS
 72
     1
 11
92.55369800434008
 21
22.0372535722849
 31
0.0
100
AcDbText
  0
TEXT
  5
17A
330
20
100
AcDbEntity
  8
TEXT
100
AcDbText
 10
84.04468873940851
 20
25.57830086342841
 30
0.0
 40
1.25
  1
Zeichnungs Nr.
 41
0.8
  7
GREEKS
100
AcDbText
  0
TEXT
  5
17B
330
20
100
AcDbEntity
  8
TEXT
100
AcDbText
 10
84.18096540742482
 20
18.29529559274992
 30
0.0
 40
1.25
  1
Ersatz für:
 41
0.8
  7
GREEKS
100
AcDbText
  0
TEXT
  5
17C
330
20
100
AcDbEntity
  8
TEXT
100
AcDbText
 10
84.31002153742515
 20
13.0185404446965
 30
0.0
 40
1.25
  1
ersetzt durch:
 41
0.8
  7
GREEKS
100
AcDbText
  0
LINE
  5
17F
330
20
100
AcDbEntity
  8
HILF
100
AcDbLine
 10
84.18096540742482
 20
20.94495909238957
 30
0.0
 11
101.2147209831682
 21
20.94495909238957
 31
0.0
  0
LINE
  5
180
330
20
100
AcDbEntity
  8
VOLL
100
AcDbLine
 10
83.0
 20
15.0
 30
0.0
 11
102.5
 21
15.0
 31
0.0
  0
LINE
  5
181
330
20
100
AcDbEntity
  8
HILF
100
AcDbLine
 10
105.0
 20
0.0
 30
0.0
 11
0.0
 21
0.0
 31
0.0
  0
LINE
  5
182
330
20
100
AcDbEntity
  8
HILF
100
AcDbLine
 10
105.0
 20
148.5
 30
0.0
 11
-0.0000000000000284
 21
148.5
 31
0.0
  0
LINE
  5
183
330
20
100
AcDbEntity
  8
STEMPEL
100
AcDbLine
 10
102.5
 20
146.0
 30
0.0
 11
9.999999999999968
 21
145.9999999999999
 31
0.0
  0
LINE
  5
184
330
20
100
AcDbEntity
  8
STEMPEL
100
AcDbLine
 10
102.5
 20
2.5
 30
0.0
 11
10.0
 21
2.5
 31
0.0
  0
LINE
  5
185
330
20
100
AcDbEntity
  8
STEMPEL
100
AcDbLine
 10
12.49999999999997
 20
2.5
 30
0.0
 11
102.5
 21
2.5
 31
0.0
  0
LINE
  5
186
330
20
100
AcDbEntity
  8
HILF
100
AcDbLine
 10
55.87274248224712
 20
3.723495645070784
 30
0.0
 11
101.2147209831682
 21
3.723495645070784
 31
0.0
  0
LINE
  5
187
330
20
100
AcDbEntity
  8
STEMPEL
100
AcDbLine
 10
102.5
 20
20.0
 30
0.0
 11
34.00000000000003
 21
19.99999999999998
 31
0.0
  0
LINE
  5
188
330
20
100
AcDbEntity
  8
STEMPEL
100
AcDbLine
 10
102.5
 20
10.0
 30
0.0
 11
34.00000000000003
 21
9.999999999999992
 31
0.0
  0
LINE
  5
189
330
20
100
AcDbEntity
  8
STEMPEL
100
AcDbLine
 10
102.5
 20
27.50000000000002
 30
0.0
 11
9.999999999999994
 21
27.5
 31
0.0
  0
LINE
  5
190
330
20
100
AcDbEntity
  8
STEMPEL
100
AcDbLine
 10
10.0
 20
2.499999999999971
 30
0.0
 11
9.999999999999968
 21
145.9999999999999
 31
0.0
  0
LINE
  5
191
330
20
100
AcDbEntity
  8
HILF
100
AcDbLine
 10
0.0
 20
0.0
 30
0.0
 11
-0.0000000000000284
 21
148.5
 31
0.0
  0
DIMENSION
  5
192
330
20
100
AcDbEntity
  8
BEM
100
AcDbDimension
  2
*D5
 10
82.38827171668456
 20
59.48755861126376
 30
0.0
 11
57.38827171668456
 21
61.11255861126377
 31
0.0
 70
    32
  1
%%C<>
 71
     5
 42
49.99999999999999
  3
Standard
100
AcDbAlignedDimension
 13
32.38827171668457
 23
73.02899021996954
 33
0.0
 14
82.38827171668456
 24
73.02899021996954
 34
0.0
100
AcDbRotatedDimension
1001
ACAD
1000
DSTYLE
1002
{
1070
    40
1040
0.5
1070
    41
1040
3.5
1070
    42
1040
0.5
1070
    43
1040
7.0
1070
    44
1040
0.5
1070
    47
1040
0.1
1070
    48
1040
0.1
1070
    73
1070
     0
1070
    74
1070
     0
1070
    77
1070
     1
1070
    78
1070
     8
1070
    79
1070
     2
1070
   140
1040
3.5
1070
   141
1040
1.5
1070
   146
1040
0.5142857142857144
1070
   147
1040
1.5
1070
   172
1070
     1
1070
   178
1070
     1
1070
   179
1070
     2
1070
   271
1070
     2
1070
   272
1070
     2
1070
   279
1070
     2
1070
   284
1070
     8
1070
   285
1070
     8
1070
   286
1070
     8
1070
   340
1005
36
1002
}
  0
TEXT
  5
195
330
20
100
AcDbEntity
  8
TEXT
 62
     1
100
AcDbText
 10
33.39118392439074
 20
37.25973309590207
 30
0.0
 40
1.75
  1
Werkstoff: Styrol-Butadien-Kautschuk (SBR) 50%%p 5
 41
0.8
  7
GREEKS
100
AcDbText
  0
TEXT
  5
198
330
20
100
AcDbEntity
  8
TEXT
100
AcDbText
 10
10.62566647230115
 20
28.24944248551687
 30
0.0
 40
1.25
  1
Erstellt mit AUTOCAD 2004
 41
0.8
  7
GREEKS
100
AcDbText
  0
TEXT
  5
199
330
20
100
AcDbEntity
  8
TEXT
100
AcDbText
 10
34.4001694346826
 20
10.88236597412452
 30
0.0
 40
0.9
  1
Norm.
 41
0.8
  7
GREEKS
100
AcDbText
  0
TEXT
  5
19A
330
20
100
AcDbEntity
  8
TEXT
100
AcDbText
 10
34.38787716429181
 20
13.42231572857094
 30
0.0
 40
0.9
  1
Gepr.
 41
0.8
  7
GREEKS
100
AcDbText
  0
TEXT
  5
19B
330
20
100
AcDbEntity
  8
TEXT
100
AcDbText
 10
34.39590317919039
 20
15.90747592404491
 30
0.0
 40
0.9
  1
Gez.
 41
0.8
  7
GREEKS
100
AcDbText
  0
TEXT
  5
19C
330
20
100
AcDbEntity
  8
TEXT
100
AcDbText
 10
34.76447736702818
 20
18.28506367787916
 30
0.0
 40
1.0
  1
2008
 41
0.8
  7
GREEKS
 72
     1
 11
36.17400117655199
 21
18.28506367787916
 31
0.0
100
AcDbText
  0
LINE
  5
19D
330
20
100
AcDbEntity
  8
HILF
100
AcDbLine
 10
34.00000000000003
 20
12.49999999999999
 30
0.0
 11
55.0
 21
12.49999999999999
 31
0.0
  0
LINE
  5
19E
330
20
100
AcDbEntity
  8
HILF
100
AcDbLine
 10
34.00000000000003
 20
14.99999999999999
 30
0.0
 11
55.0
 21
14.99999999999999
 31
0.0
  0
LINE
  5
19F
330
20
100
AcDbEntity
  8
HILF
100
AcDbLine
 10
34.00000000000003
 20
17.49999999999998
 30
0.0
 11
55.0
 21
17.49999999999998
 31
0.0
  0
TEXT
  5
1A0
330
20
100
AcDbEntity
  8
TEXT
100
AcDbText
 10
12.06660276761439
 20
3.413664615067979
 30
0.0
 40
0.9
  1
Index
 50
90.0
 41
0.8
  7
GREEKS
100
AcDbText
  0
TEXT
  5
1A1
330
20
100
AcDbEntity
  8
TEXT
100
AcDbText
 10
15.58969532944572
 20
4.668454737460329
 30
0.0
 40
1.0
  1
Änderung
 41
0.8
  7
GREEKS
 72
     1
 11
18.27540961516001
 21
4.668454737460329
 31
0.0
100
AcDbText
  0
TEXT
  5
1A2
330
20
100
AcDbEntity
  8
TEXT
100
AcDbText
 10
24.94707106332981
 20
4.667890673349525
 30
0.0
 40
1.0
  1
Tag
 41
0.8
  7
GREEKS
 72
     1
 11
25.88040439666315
 21
4.667890673349525
 31
0.0
100
AcDbText
  0
LINE
  5
1A3
330
20
100
AcDbEntity
  8
STEMPEL
100
AcDbLine
 10
34.00000000000003
 20
27.49999999999999
 30
0.0
 11
34.0
 21
2.499999999999992
 31
0.0
  0
LINE
  5
1A4
330
20
100
AcDbEntity
  8
VOLL
100
AcDbLine
 10
28.50000000000003
 20
27.49999999999999
 30
0.0
 11
28.5
 21
2.499999999999992
 31
0.0
  0
LINE
  5
1A5
330
20
100
AcDbEntity
  8
VOLL
100
AcDbLine
 10
23.50000000000003
 20
27.49999999999999
 30
0.0
 11
23.5
 21
2.499999999999992
 31
0.0
  0
LINE
  5
1A6
330
20
100
AcDbEntity
  8
VOLL
100
AcDbLine
 10
13.50000000000002
 20
27.50000000000002
 30
0.0
 11
13.49999999999999
 21
2.499999999999992
 31
0.0
  0
LINE
  5
1A8
330
20
100
AcDbEntity
  8
HILF
100
AcDbLine
 10
10.00000000000002
 20
9.999999999999992
 30
0.0
 11
34.00000000000003
 21
9.999999999999992
 31
0.0
  0
LINE
  5
1A9
330
20
100
AcDbEntity
  8
HILF
100
AcDbLine
 10
10.00000000000002
 20
12.49999999999999
 30
0.0
 11
34.00000000000003
 21
12.49999999999999
 31
0.0
  0
LINE
  5
1AA
330
20
100
AcDbEntity
  8
HILF
100
AcDbLine
 10
10.00000000000002
 20
14.99999999999999
 30
0.0
 11
34.00000000000003
 21
14.99999999999999
 31
0.0
  0
LINE
  5
1AB
330
20
100
AcDbEntity
  8
HILF
100
AcDbLine
 10
10.00000000000002
 20
17.49999999999998
 30
0.0
 11
34.00000000000003
 21
17.49999999999998
 31
0.0
  0
LINE
  5
1AC
330
20
100
AcDbEntity
  8
HILF
100
AcDbLine
 10
10.00000000000002
 20
19.99999999999998
 30
0.0
 11
34.00000000000003
 21
19.99999999999998
 31
0.0
  0
LINE
  5
1AD
330
20
100
AcDbEntity
  8
HILF
100
AcDbLine
 10
10.00000000000002
 20
22.50000000000001
 30
0.0
 11
34.00000000000003
 21
22.50000000000001
 31
0.0
  0
LINE
  5
1AE
330
20
100
AcDbEntity
  8
HILF
100
AcDbLine
 10
10.00000000000002
 20
25.00000000000002
 30
0.0
 11
34.00000000000003
 21
25.00000000000002
 31
0.0
  0
LINE
  5
1AF
330
20
100
AcDbEntity
  8
STEMPEL
100
AcDbLine
 10
33.99999999999997
 20
7.499999999999992
 30
0.0
 11
9.999999999999992
 21
7.499999999999992
 31
0.0
  0
TEXT
  5
1B3
330
20
100
AcDbEntity
  8
TEXT
100
AcDbText
 10
29.49255895801563
 20
4.64831054241602
 30
0.0
 40
1.0
  1
Name
 41
0.8
  7
GREEKS
 72
     1
 11
31.07351133896802
 21
4.64831054241602
 31
0.0
100
AcDbText
  0
TEXT
  5
1B4
330
20
100
AcDbEntity
  8
TEXT
 62
     1
100
AcDbText
 10
56.72339327643505
 20
21.85437197313445
 30
0.0
 40
1.75
  1
Dichtelement DN40
 41
0.8
  7
GREEKS
100
AcDbText
  0
TEXT
  5
1B5
330
20
100
AcDbEntity
  8
TEXT
100
AcDbText
 10
56.18555959778399
 20
7.711401425482641
 30
0.0
 40
1.25
  1
Bauvorhaben
 41
0.8
  7
GREEKS
100
AcDbText
  0
TEXT
  5
1B6
330
20
100
AcDbEntity
  8
TEXT
100
AcDbText
 10
56.24593753944567
 20
10.65743538255658
 30
0.0
 40
1.0
  1
00914040W.DWG
 41
0.8
  7
GREEKS
100
AcDbText
  0
TEXT
  5
1B7
330
20
100
AcDbEntity
  8
TEXT
100
AcDbText
 10
56.21948509522525
 20
25.63723320029449
 30
0.0
 40
1.25
  1
Benennung
 41
0.8
  7
GREEKS
100
AcDbText
  0
TEXT
  5
1B8
330
20
100
AcDbEntity
  8
TEXT
100
AcDbText
 10
56.28240977813288
 20
17.91002985760538
 30
0.0
 40
1.25
  1
für Ms-Rohr %%C38
 41
0.8
  7
GREEKS
100
AcDbText
  0
TEXT
  5
1B9
330
20
100
AcDbEntity
  8
TEXT
100
AcDbText
 10
56.28240977813288
 20
12.91002985760539
 30
0.0
 40
1.25
  1
EDV-Art.Nr. 00914.040X
 41
0.8
  7
GREEKS
100
AcDbText
  0
LINE
  5
1BA
330
20
100
AcDbEntity
  8
HILF
100
AcDbLine
 10
56.19342002742368
 20
12.49999999999999
 30
0.0
 11
81.20884791390775
 21
12.49999999999999
 31
0.0
  0
LINE
  5
1BB
330
20
100
AcDbEntity
  8
HILF
100
AcDbLine
 10
56.19342002742368
 20
14.99999999999999
 30
0.0
 11
81.20884791390775
 21
14.99999999999999
 31
0.0
  0
LINE
  5
1BC
330
20
100
AcDbEntity
  8
HILF
100
AcDbLine
 10
56.19342002742368
 20
17.49999999999998
 30
0.0
 11
81.20884791390775
 21
17.49999999999998
 31
0.0
  0
LINE
  5
1BD
330
20
100
AcDbEntity
  8
HILF
100
AcDbLine
 10
56.19342002742368
 20
21.00939561891035
 30
0.0
 11
81.20884791390777
 21
21.00939561891035
 31
0.0
  0
INSERT
  5
1BE
330
20
100
AcDbEntity
  8
STEMPEL
100
AcDbBlockReference
  2
LOGO
 10
35.24888713644485
 20
11.2552631911208
 30
0.0
 41
0.5
 42
0.5
 43
0.5
  0
LINE
  5
1BF
330
20
100
AcDbEntity
  8
STEMPEL
100
AcDbLine
 10
55.0
 20
27.50000000000002
 30
0.0
 11
55.0
 21
2.499999999999992
 31
0.0
  0
TEXT
  5
1C0
330
20
100
AcDbEntity
  8
TEXT
100
AcDbText
 10
46.07147386835128
 20
25.60460421087048
 30
0.0
 40
1.25
  1
Zul. Abw.
 41
0.8
  7
GREEKS
100
AcDbText
  0
TEXT
  5
1C1
330
20
100
AcDbEntity
  8
TEXT
100
AcDbText
 10
45.69123489958891
 20
22.75006851404661
 30
0.0
 40
1.0
  1
DIN EN1123-2
 41
0.8
  7
GREEKS
 72
     1
 11
49.93885394720796
 21
22.75006851404661
 31
0.0
100
AcDbText
  0
TEXT
  5
1C2
330
20
100
AcDbEntity
  8
TEXT
100
AcDbText
 10
48.11566460565737
 20
18.32740272978806
 30
0.0
 40
0.9
  1
Name
 41
0.8
  7
GREEKS
100
AcDbText
  0
TEXT
  5
1C3
330
20
100
AcDbEntity
  8
TEXT
100
AcDbText
 10
48.49367241576169
 20
15.77240979930877
 30
0.0
 40
1.0
  1
Koeh
 41
0.8
  7
GREEKS
 72
     1
 11
49.80795813004741
 21
15.77240979930877
 31
0.0
100
AcDbText
  0
TEXT
  5
1C4
330
20
100
AcDbEntity
  8
TEXT
100
AcDbText
 10
39.87871675947964
 20
15.77691260206433
 30
0.0
 40
1.0
  1
24.06.
 41
0.8
  7
GREEKS
 72
     1
 11
41.6310977118606
 21
15.77691260206433
 31
0.0
100
AcDbText
  0
LINE
  5
1C5
330
20
100
AcDbEntity
  8
VOLL
100
AcDbLine
 10
45.00000000000002
 20
27.49999999999996
 30
0.0
 11
45.0
 21
9.999999999999992
 31
0.0
  0
LINE
  5
1C6
330
20
100
AcDbEntity
  8
VOLL
100
AcDbLine
 10
38.50000000000003
 20
19.99999999999998
 30
0.0
 11
38.50000000000003
 21
9.999999999999992
 31
0.0
  0
TEXT
  5
1C7
330
20
100
AcDbEntity
  8
TEXT
100
AcDbText
 10
40.58279182884127
 20
18.32970125307481
 30
0.0
 40
0.9
  1
Tag
 41
0.8
  7
GREEKS
100
AcDbText
  0
TEXT
  5
1C8
330
20
100
AcDbEntity
  8
TEXT
100
AcDbText
 10
35.87908930375943
 20
25.61552237717722
 30
0.0
 40
1.25
  1
Maßstab
 41
0.8
  7
GREEKS
100
AcDbText
  0
TEXT
  5
1C9
330
20
100
AcDbEntity
  8
TEXT
 62
     1
100
AcDbText
 10
37.84064641809614
 20
22.15414213722941
 30
0.0
 40
1.75
  1
2:1
 41
0.8
  7
GREEKS
100
AcDbText
  0
LINE
  5
1CA
330
20
100
AcDbEntity
  8
STEMPEL
100
AcDbLine
 10
83.0
 20
27.49999999999995
 30
0.0
 11
83.0
 21
10.0
 31
0.0
  0
LINE
  5
1D4
330
20
100
AcDbEntity
  8
TEXT
 62
     2
100
AcDbLine
 10
15.41824958578522
 20
117.8415339139388
 30
0.0
 11
34.06569766068711
 21
86.28562187774226
 31
0.0
  0
DIMENSION
  5
1DA
330
20
100
AcDbEntity
  8
BEM
100
AcDbDimension
  2
*D4
 10
23.04729866328962
 20
73.02899021996956
 30
0.0
 11
21.42229866328961
 21
80.02899021996956
 31
0.0
 70
    32
 71
     5
 42
14.0
  3
Standard
100
AcDbAlignedDimension
 13
36.38827171668457
 23
87.02899021996953
 33
0.0
 14
32.38827171668457
 24
73.02899021996954
 34
0.0
 50
270.0
100
AcDbRotatedDimension
1001
ACAD
1000
DSTYLE
1002
{
1070
    40
1040
0.5
1070
    41
1040
3.5
1070
    42
1040
0.5
1070
    43
1040
7.0
1070
    44
1040
0.5
1070
    47
1040
0.1
1070
    48
1040
0.1
1070
    73
1070
     0
1070
    74
1070
     0
1070
    77
1070
     1
1070
    78
1070
     8
1070
    79
1070
     2
1070
   140
1040
3.5
1070
   141
1040
1.5
1070
   146
1040
0.5142857142857144
1070
   147
1040
1.5
1070
   172
1070
     1
1070
   178
1070
     1
1070
   179
1070
     2
1070
   271
1070
     2
1070
   272
1070
     2
1070
   279
1070
     2
1070
   284
1070
     8
1070
   285
1070
     8
1070
   286
1070
     8
1070
   340
1005
36
1002
}
  0
DIMENSION
  5
1DB
330
20
100
AcDbEntity
  8
BEM
100
AcDbDimension
  2
*D3
 10
27.76502643331726
 20
73.02899021996956
 30
0.0
 11
26.14002643331725
 21
78.02899021996956
 31
0.0
 70
    32
 71
     5
 42
10.0
  3
Standard
100
AcDbAlignedDimension
 13
32.38827171668457
 23
83.02899021996955
 33
0.0
 14
32.38827171668457
 24
73.02899021996954
 34
0.0
 50
270.0
100
AcDbRotatedDimension
1001
ACAD
1000
DSTYLE
1002
{
1070
    40
1040
0.5
1070
    41
1040
3.5
1070
    42
1040
0.5
1070
    43
1040
7.0
1070
    44
1040
0.5
1070
    47
1040
0.1
1070
    48
1040
0.1
1070
    73
1070
     0
1070
    74
1070
     0
1070
    77
1070
     1
1070
    78
1070
     8
1070
    79
1070
     2
1070
   140
1040
3.5
1070
   141
1040
1.5
1070
   146
1040
0.5142857142857144
1070
   147
1040
1.5
1070
   172
1070
     1
1070
   178
1070
     1
1070
   179
1070
     2
1070
   271
1070
     2
1070
   272
1070
     2
1070
   279
1070
     2
1070
   284
1070
     8
1070
   285
1070
     8
1070
   286
1070
     8
1070
   340
1005
36
1002
}
  0
DIMENSION
  5
1DF
330
20
100
AcDbEntity
  8
BEM
100
AcDbDimension
  2
*D2
 10
32.38827171668457
 20
98.22631424155225
 30
0.0
 11
57.38827171668456
 21
99.85131424155227
 31
0.0
 70
    32
  1
%%C<>
 71
     5
 42
49.99999999999999
  3
Standard
100
AcDbAlignedDimension
 13
82.38827171668456
 23
83.02899021996955
 33
0.0
 14
32.38827171668457
 24
83.02899021996955
 34
0.0
100
AcDbRotatedDimension
1001
ACAD
1000
DSTYLE
1002
{
1070
    40
1040
0.5
1070
    41
1040
3.5
1070
    42
1040
0.5
1070
    43
1040
7.0
1070
    44
1040
0.5
1070
    47
1040
0.1
1070
    48
1040
0.1
1070
    73
1070
     0
1070
    74
1070
     0
1070
    77
1070
     1
1070
    78
1070
     8
1070
    79
1070
     2
1070
   140
1040
3.5
1070
   141
1040
1.5
1070
   146
1040
0.5142857142857144
1070
   147
1040
1.5
1070
   172
1070
     1
1070
   178
1070
     1
1070
   179
1070
     2
1070
   271
1070
     2
1070
   272
1070
     2
1070
   279
1070
     2
1070
   284
1070
     8
1070
   285
1070
     8
1070
   286
1070
     8
1070
   340
1005
36
1002
}
  0
DIMENSION
  5
1E1
330
20
100
AcDbEntity
  8
BEM
100
AcDbDimension
  2
*D1
 10
76.63827171668455
 20
94.16768216474521
 30
0.0
 11
57.38827171668456
 21
95.7926821647452
 31
0.0
 70
    32
  1
%%C<>
 71
     5
 42
38.49999999999999
  3
Standard
100
AcDbAlignedDimension
 13
38.13827171668457
 23
85.52899021996955
 33
0.0
 14
76.63827171668455
 24
85.52899021996955
 34
0.0
100
AcDbRotatedDimension
1001
ACAD
1000
DSTYLE
1002
{
1070
    40
1040
0.5
1070
    41
1040
3.5
1070
    42
1040
0.5
1070
    43
1040
7.0
1070
    44
1040
0.5
1070
    47
1040
0.1
1070
    48
1040
0.1
1070
    73
1070
     0
1070
    74
1070
     0
1070
    77
1070
     1
1070
    78
1070
     8
1070
    79
1070
     2
1070
   140
1040
3.5
1070
   141
1040
1.5
1070
   146
1040
0.5142857142857144
1070
   147
1040
1.5
1070
   172
1070
     1
1070
   178
1070
     1
1070
   179
1070
     2
1070
   271
1070
     2
1070
   272
1070
     2
1070
   279
1070
     2
1070
   284
1070
     8
1070
   285
1070
     8
1070
   286
1070
     8
1070
   340
1005
36
1002
}
  0
LINE
  5
1E2
102
{ACAD_REACTORS
330
41B
102
}
330
20
100
AcDbEntity
  8
STEMPEL
100
AcDbLine
 10
78.38827171668455
 20
87.02899021996953
 30
0.0
 11
36.38827171668457
 21
87.02899021996953
 31
0.0
  0
LINE
  5
1E3
102
{ACAD_REACTORS
330
41B
102
}
330
20
100
AcDbEntity
  8
STEMPEL
100
AcDbLine
 10
82.38827171668456
 20
73.02899021996954
 30
0.0
 11
32.38827171668457
 21
73.02899021996954
 31
0.0
  0
ARC
  5
1E4
102
{ACAD_REACTORS
330
41B
102
}
330
20
100
AcDbEntity
  8
STEMPEL
100
AcDbCircle
 10
36.63827171668457
 20
85.52899021996955
 30
0.0
 40
1.5
100
AcDbArc
 50
0.0
 51
90.0
  0
ARC
  5
1E5
102
{ACAD_REACTORS
330
41B
102
}
330
20
100
AcDbEntity
  8
STEMPEL
100
AcDbCircle
 10
36.38827171668457
 20
83.02899021996955
 30
0.0
 40
4.0
100
AcDbArc
 50
90.0
 51
179.9999999999999
  0
LINE
  5
1E8
102
{ACAD_REACTORS
330
41B
330
47F
102
}
330
20
100
AcDbEntity
  8
STEMPEL
100
AcDbLine
 10
40.88827171668457
 20
73.02899021996954
 30
0.0
 11
39.21006848640907
 21
75.93572348023292
 31
0.0
  0
LINE
  5
1E9
102
{ACAD_REACTORS
330
41B
102
}
330
20
100
AcDbEntity
  8
STEMPEL
100
AcDbLine
 10
39.88827171668457
 20
73.02899021996954
 30
0.0
 11
37.18116493549802
 21
75.7360970011561
 31
0.0
  0
LINE
  5
1EB
102
{ACAD_REACTORS
330
41B
102
}
330
20
100
AcDbEntity
  8
STEMPEL
100
AcDbLine
 10
32.38827171668457
 20
73.02899021996954
 30
0.0
 11
33.38827171668457
 21
74.76104102753843
 31
0.0
  0
LINE
  5
1EC
102
{ACAD_REACTORS
330
41B
102
}
330
20
100
AcDbEntity
  8
STEMPEL
100
AcDbLine
 10
35.76695137312491
 20
75.7360970011561
 30
0.0
 11
33.05984459193837
 21
73.02899021996954
 31
0.0
  0
POINT
  5
1ED
330
20
100
AcDbEntity
  8
DEFPOINTS
  6
ByBlock
 62
     0
100
AcDbPoint
 10
33.05984459193837
 20
73.02899021996954
 30
0.0
  0
LINE
  5
1EF
102
{ACAD_REACTORS
330
41B
102
}
330
20
100
AcDbEntity
  8
STEMPEL
100
AcDbLine
 10
33.38827171668457
 20
78.52899021996954
 30
0.0
 11
34.66216753661628
 21
82.02899021996953
 31
0.0
  0
LINE
  5
1F0
102
{ACAD_REACTORS
330
41B
102
}
330
20
100
AcDbEntity
  8
STEMPEL
100
AcDbLine
 10
34.88827171668457
 20
83.02899021996955
 30
0.0
 11
32.38827171668457
 21
83.02899021996955
 31
0.0
  0
LINE
  5
1F1
102
{ACAD_REACTORS
330
41B
102
}
330
20
100
AcDbEntity
  8
STEMPEL
100
AcDbLine
 10
33.38827171668457
 20
78.52899021996954
 30
0.0
 11
33.38827171668457
 21
74.76104102753843
 31
0.0
  0
POINT
  5
1F2
330
20
100
AcDbEntity
  8
DEFPOINTS
  6
ByBlock
 62
     0
100
AcDbPoint
 10
32.38827171668457
 20
83.02899021996955
 30
0.0
  0
LINE
  5
1F3
102
{ACAD_REACTORS
330
41B
102
}
330
20
100
AcDbEntity
  8
STEMPEL
100
AcDbLine
 10
38.13827171668457
 20
85.52899021996955
 30
0.0
 11
38.13827171668459
 21
79.93572348023292
 31
0.0
  0
ARC
  5
1F4
102
{ACAD_REACTORS
330
41B
102
}
330
20
100
AcDbEntity
  8
STEMPEL
100
AcDbCircle
 10
46.13827171668458
 20
79.93572348023292
 30
0.0
 40
8.0
100
AcDbArc
 50
180.0
 51
210.0
  0
ARC
  5
1F5
102
{ACAD_REACTORS
330
41B
102
}
330
20
100
AcDbEntity
  8
STEMPEL
100
AcDbCircle
 10
36.47405815431147
 20
75.02899021996954
 30
0.0
 40
1.0
100
AcDbArc
 50
45.0
 51
135.0000000000003
  0
LINE
  5
1F6
102
{ACAD_REACTORS
330
41B
102
}
330
20
100
AcDbEntity
  8
STEMPEL
100
AcDbLine
 10
34.88827171668457
 20
83.02899021996955
 30
0.0
 11
34.88827171668459
 21
82.02899021996953
 31
0.0
  0
POINT
  5
1F7
330
20
100
AcDbEntity
  8
DEFPOINTS
  6
ByBlock
 62
     0
100
AcDbPoint
 10
34.88827171668457
 20
83.02899021996955
 30
0.0
  0
POINT
  5
1F8
330
20
100
AcDbEntity
  8
DEFPOINTS
  6
ByBlock
 62
     0
100
AcDbPoint
 10
34.66216753661628
 20
82.02899021996953
 30
0.0
  0
LINE
  5
1F9
102
{ACAD_REACTORS
330
41B
102
}
330
20
100
AcDbEntity
  8
STEMPEL
100
AcDbLine
 10
34.88827171668459
 20
82.02899021996953
 30
0.0
 11
34.66216753661628
 21
82.02899021996953
 31
0.0
  0
ARC
  5
203
102
{ACAD_REACTORS
330
41B
102
}
330
20
100
AcDbEntity
  8
STEMPEL
100
AcDbCircle
 10
78.13827171668456
 20
85.52899021996955
 30
0.0
 40
1.5
100
AcDbArc
 50
90.0
 51
180.0
  0
ARC
  5
204
102
{ACAD_REACTORS
330
41B
102
}
330
20
100
AcDbEntity
  8
STEMPEL
100
AcDbCircle
 10
78.38827171668455
 20
83.02899021996955
 30
0.0
 40
4.0
100
AcDbArc
 50
0.0000000000001018
 51
90.0
  0
LINE
  5
207
330
20
100
AcDbEntity
  8
MITTEL
100
AcDbLine
 10
57.38827171668457
 20
92.02899021996953
 30
0.0
 11
57.38827171668456
 21
68.02899021996953
 31
0.0
  0
LINE
  5
208
102
{ACAD_REACTORS
330
41B
102
}
330
20
100
AcDbEntity
  8
STEMPEL
100
AcDbLine
 10
82.38827171668456
 20
73.02899021996954
 30
0.0
 11
81.38827171668456
 21
74.76104102753843
 31
0.0
  0
LINE
  5
209
102
{ACAD_REACTORS
330
41B
330
47F
102
}
330
20
100
AcDbEntity
  8
STEMPEL
100
AcDbLine
 10
73.88827171668456
 20
73.02899021996954
 30
0.0
 11
75.56647494696005
 21
75.93572348023292
 31
0.0
  0
LINE
  5
20A
102
{ACAD_REACTORS
330
41B
102
}
330
20
100
AcDbEntity
  8
STEMPEL
100
AcDbLine
 10
74.88827171668456
 20
73.02899021996954
 30
0.0
 11
77.59537849787111
 21
75.7360970011561
 31
0.0
  0
LINE
  5
20B
102
{ACAD_REACTORS
330
41B
102
}
330
20
100
AcDbEntity
  8
STEMPEL
100
AcDbLine
 10
79.00959206024421
 20
75.7360970011561
 30
0.0
 11
81.71669884143076
 21
73.02899021996954
 31
0.0
  0
POINT
  5
20D
330
20
100
AcDbEntity
  8
DEFPOINTS
  6
ByBlock
 62
     0
100
AcDbPoint
 10
81.71669884143076
 20
73.02899021996954
 30
0.0
  0
ARC
  5
20E
102
{ACAD_REACTORS
330
41B
102
}
330
20
100
AcDbEntity
  8
STEMPEL
100
AcDbCircle
 10
78.30248527905766
 20
75.02899021996954
 30
0.0
 40
1.0
100
AcDbArc
 50
44.99999999999974
 51
135.0
  0
LINE
  5
20F
102
{ACAD_REACTORS
330
41B
102
}
330
20
100
AcDbEntity
  8
STEMPEL
100
AcDbLine
 10
76.63827171668455
 20
85.52899021996955
 30
0.0
 11
76.63827171668455
 21
79.93572348023292
 31
0.0
  0
ARC
  5
210
102
{ACAD_REACTORS
330
41B
102
}
330
20
100
AcDbEntity
  8
STEMPEL
100
AcDbCircle
 10
68.63827171668456
 20
79.93572348023292
 30
0.0
 40
8.0
100
AcDbArc
 50
330.0
 51
0.0
  0
LINE
  5
211
102
{ACAD_REACTORS
330
41B
102
}
330
20
100
AcDbEntity
  8
STEMPEL
100
AcDbLine
 10
81.38827171668456
 20
78.52899021996954
 30
0.0
 11
80.11437589675285
 21
82.02899021996953
 31
0.0
  0
LINE
  5
212
102
{ACAD_REACTORS
330
41B
102
}
330
20
100
AcDbEntity
  8
STEMPEL
100
AcDbLine
 10
81.38827171668456
 20
78.52899021996954
 30
0.0
 11
81.38827171668456
 21
74.76104102753843
 31
0.0
  0
LINE
  5
213
102
{ACAD_REACTORS
330
41B
102
}
330
20
100
AcDbEntity
  8
STEMPEL
100
AcDbLine
 10
79.88827171668456
 20
83.02899021996955
 30
0.0
 11
82.38827171668456
 21
83.02899021996955
 31
0.0
  0
LINE
  5
214
102
{ACAD_REACTORS
330
41B
102
}
330
20
100
AcDbEntity
  8
STEMPEL
100
AcDbLine
 10
79.88827171668456
 20
83.02899021996955
 30
0.0
 11
79.88827171668456
 21
82.02899021996953
 31
0.0
  0
POINT
  5
215
330
20
100
AcDbEntity
  8
DEFPOINTS
  6
ByBlock
 62
     0
100
AcDbPoint
 10
79.88827171668456
 20
83.02899021996955
 30
0.0
  0
LINE
  5
216
102
{ACAD_REACTORS
330
41B
102
}
330
20
100
AcDbEntity
  8
STEMPEL
100
AcDbLine
 10
79.88827171668456
 20
82.02899021996953
 30
0.0
 11
80.11437589675285
 21
82.02899021996953
 31
0.0
  0
POINT
  5
218
330
20
100
AcDbEntity
  8
DEFPOINTS
  6
ByBlock
 62
     0
100
AcDbPoint
 10
81.87361360132186
 20
84.99174133694616
 30
0.0
  0
LINE
  5
21F
330
20
100
AcDbEntity
  8
HILF
100
AcDbLine
 10
105.0
 20
-0.0000000000000284
 30
0.0
 11
105.0
 21
148.5
 31
0.0
  0
LINE
  5
220
330
20
100
AcDbEntity
  8
STEMPEL
100
AcDbLine
 10
102.5
 20
27.50000000000002
 30
0.0
 11
102.5
 21
146.0
 31
0.0
  0
LINE
  5
221
330
20
100
AcDbEntity
  8
STEMPEL
100
AcDbLine
 10
102.5
 20
27.50000000000002
 30
0.0
 11
102.5
 21
2.5
 31
0.0
  0
TEXT
  5
223
330
20
100
AcDbEntity
  8
TEXT
 62
     1
100
AcDbText
 10
37.33059249107522
 20
34.07317155469184
 30
0.0
 40
1.75
  1
Farbe: schwarz
 41
0.8
  7
GREEKS
100
AcDbText
  0
LINE
  5
23D
330
20
100
AcDbEntity
  8
TEXT
 62
     1
100
AcDbLine
 10
85.34434842769792
 20
120.7312524471093
 30
0.0
 11
85.34434842769792
 21
118.6470520070966
 31
0.0
  0
LINE
  5
23E
330
20
100
AcDbEntity
  8
TEXT
 62
     1
100
AcDbLine
 10
87.34434842769791
 20
120.7312524471093
 30
0.0
 11
87.34434842769791
 21
118.6470520070966
 31
0.0
  0
LINE
  5
23F
330
20
100
AcDbEntity
  8
TEXT
 62
     1
100
AcDbLine
 10
89.34434842769793
 20
120.7312524471093
 30
0.0
 11
89.34434842769793
 21
118.6470520070966
 31
0.0
  0
LINE
  5
240
330
20
100
AcDbEntity
  8
TEXT
 62
     1
100
AcDbLine
 10
91.34434842769792
 20
120.7312524471093
 30
0.0
 11
91.34434842769792
 21
118.6470520070966
 31
0.0
  0
LINE
  5
241
330
20
100
AcDbEntity
  8
TEXT
 62
     1
100
AcDbLine
 10
93.34434842769793
 20
120.7312524471093
 30
0.0
 11
93.34434842769793
 21
118.6470520070966
 31
0.0
  0
LINE
  5
242
330
20
100
AcDbEntity
  8
TEXT
 62
     1
100
AcDbLine
 10
95.34434842769792
 20
120.7312524471093
 30
0.0
 11
95.34434842769792
 21
118.6470520070966
 31
0.0
  0
LINE
  5
243
330
20
100
AcDbEntity
  8
TEXT
 62
     1
100
AcDbLine
 10
97.34434842769793
 20
120.7312524471093
 30
0.0
 11
97.34434842769793
 21
118.6470520070966
 31
0.0
  0
LINE
  5
244
330
20
100
AcDbEntity
  8
TEXT
 62
     1
100
AcDbLine
 10
99.34434842769793
 20
120.7312524471093
 30
0.0
 11
99.34434842769793
 21
118.6470520070966
 31
0.0
  0
LINE
  5
245
330
20
100
AcDbEntity
  8
TEXT
 62
     1
100
AcDbLine
 10
85.34434842769792
 20
119.6891522271029
 30
0.0
 11
99.34434842769793
 21
119.6891522271029
 31
0.0
  0
TEXT
  5
246
330
20
100
AcDbEntity
  8
TEXT
 62
     2
100
AcDbText
 10
85.11065974588779
 20
125.1875553214909
 30
0.0
 40
1.0
  1
Raster für weitere Jahre
 41
0.8
  7
GREEKS
100
AcDbText
  0
LINE
  5
247
330
20
100
AcDbEntity
  8
TEXT
 62
     2
100
AcDbLine
 10
86.38356281540476
 20
123.1799405367983
 30
0.0
 11
91.43148369177167
 21
123.1799405367983
 31
0.0
  0
LINE
  5
248
330
20
100
AcDbEntity
  8
TEXT
 62
     2
100
AcDbLine
 10
93.3557274470715
 20
123.1799405367983
 30
0.0
 11
98.31509489854784
 21
123.1799405367983
 31
0.0
  0
ARC
  5
249
330
20
100
AcDbEntity
  8
TEXT
 62
     2
100
AcDbCircle
 10
86.35804757245535
 20
122.243547414345
 30
0.0
 40
0.9367406831134985
100
AcDbArc
 50
88.4391661500013
 51
180.9693128199328
  0
ARC
  5
24A
330
20
100
AcDbEntity
  8
TEXT
 62
     2
100
AcDbCircle
 10
98.34061014149813
 20
122.243547414345
 30
0.0
 40
0.9367406831134985
100
AcDbArc
 50
359.0306871800672
 51
91.56083385005002
  0
ARC
  5
24B
330
20
100
AcDbEntity
  8
TEXT
 62
     2
100
AcDbCircle
 10
93.33021220412183
 20
124.1163336592516
 30
0.0
 40
0.9367406831134985
100
AcDbArc
 50
179.0306871800672
 51
271.5608338500125
  0
ARC
  5
24C
330
20
100
AcDbEntity
  8
TEXT
 62
     2
100
AcDbCircle
 10
91.45699893472089
 20
124.1163336592516
 30
0.0
 40
0.9367406831134985
100
AcDbArc
 50
268.4391661500143
 51
0.9693128199328098
  0
LINE
  5
24D
330
20
100
AcDbEntity
  8
TEXT
 62
     2
100
AcDbLine
 10
22.27486915606151
 20
117.8415339139388
 30
0.0
 11
15.41824958578522
 21
117.8415339139388
 31
0.0
  0
TEXT
  5
24E
330
20
100
AcDbEntity
  8
TEXT
 62
     1
100
AcDbText
 10
15.41824958578522
 20
118.8037369371254
 30
0.0
 40
1.75
  1
Gravur: EN 1123 LORO DN40/38 Ms TG Nest.Nr. WC Jahreszahl
 41
0.8
  7
GREEKS
100
AcDbText
  0
LINE
  5
37B
330
20
100
AcDbEntity
  8
HILF
100
AcDbLine
 10
-0.0000000000000142
 20
74.25
 30
0.0
 11
7.499999999999983
 21
74.25
 31
0.0
  0
TEXT
  5
380
330
20
100
AcDbEntity
  8
TEXT
100
AcDbText
 10
104.3255730964291
 20
2.541975269997137
 30
0.0
 40
1.0
  1
Diese Zeichnung ist urheberrechtlich geschützt und bleibt unser Eigentum. Sie darf weder ganz noch teilweise verfielfältigt und nicht an Dritte weitergegeben werden.
 50
90.0
 41
0.8
  7
GREEKS
100
AcDbText
  0
HATCH
  5
41B
330
20
100
AcDbEntity
  8
SCHRAFF
100
AcDbHatch
 10
0.0
 20
0.0
 30
0.0
210
0.0
220
0.0
230
1.0
  2
NET
 70
     0
 71
     1
 91
        2
 92
        7
 72
     1
 73
     1
 93
       17
 10
75.56647494696005
 20
75.93572348023292
 42
0.0
 10
73.88827171668454
 20
73.02899021996953
 42
0.0
 10
74.88827171668453
 20
73.02899021996951
 42
0.0
 10
77.59537849787111
 20
75.7360970011561
 42
-0.4142135623730964
 10
79.00959206024421
 20
75.7360970011561
 42
0.0
 10
81.71669884143076
 20
73.02899021996953
 42
0.0
 10
82.38827171668456
 20
73.02899021996954
 42
0.0
 10
81.38827171668456
 20
74.76104102753843
 42
0.0
 10
81.38827171668458
 20
78.52899021996953
 42
0.0
 10
80.11437589675285
 20
82.02899021996953
 42
0.0
 10
79.88827171668457
 20
82.02899021996953
 42
0.0
 10
79.88827171668456
 20
83.02899021996955
 42
0.0
 10
82.38827171668456
 20
83.02899021996955
 42
0.4142135623730957
 10
78.38827171668455
 20
87.02899021996953
 42
0.0
 10
78.13827171668456
 20
87.02899021996953
 42
0.4142135623730951
 10
76.63827171668455
 20
85.52899021996955
 42
0.0
 10
76.63827171668455
 20
79.93572348023292
 42
-0.1316524975873959
 97
       16
330
216
330
214
330
213
330
204
330
1E2
330
203
330
20F
330
210
330
209
330
1E3
330
20A
330
20E
330
20B
330
208
330
212
330
211
 92
        7
 72
     1
 73
     1
 93
       17
 10
38.13827171668457
 20
85.52899021996955
 42
0.4142135623730951
 10
36.63827171668457
 20
87.02899021996953
 42
0.0
 10
36.38827171668457
 20
87.02899021996953
 42
0.4142135623730958
 10
32.38827171668457
 20
83.02899021996955
 42
0.0
 10
34.88827171668457
 20
83.02899021996955
 42
0.0
 10
34.88827171668459
 20
82.02899021996953
 42
0.0
 10
34.66216753661628
 20
82.02899021996953
 42
0.0
 10
33.38827171668458
 20
78.52899021996954
 42
0.0
 10
33.38827171668457
 20
74.76104102753843
 42
0.0
 10
32.38827171668457
 20
73.02899021996954
 42
0.0
 10
33.05984459193837
 20
73.02899021996953
 42
0.0
 10
35.76695137312491
 20
75.7360970011561
 42
-0.4142135623730995
 10
37.18116493549802
 20
75.7360970011561
 42
0.0
 10
39.88827171668456
 20
73.02899021996953
 42
0.0
 10
40.88827171668458
 20
73.02899021996954
 42
0.0
 10
39.21006848640907
 20
75.93572348023292
 42
-0.1316524975873959
 10
38.13827171668459
 20
79.93572348023292
 42
0.0
 97
       16
330
1E4
330
1E2
330
1E5
330
1F0
330
1F6
330
1F9
330
1EF
330
1F1
330
1EB
330
1E3
330
1EC
330
1F5
330
1E9
330
1E8
330
1F4
330
1F3
 75
     0
 76
     1
 52
45.0
 41
15.0
 77
     0
 78
     2
 53
45.0
 43
-7.365672838053001
 44
-4.315203220731973
 45
-1.325825214724776
 46
1.325825214724776
 79
     0
 53
135.0
 43
-7.365672838053001
 44
-4.315203220731973
 45
-1.325825214724776
 46
-1.325825214724776
 79
     0
 47
0.1048304482779645
 98
        2
 10
76.99617607445237
 20
78.92299679988417
 10
36.60636158549937
 20
80.8099448309194
  0
DIMENSION
  5
468
102
{ACAD_XDICTIONARY
360
475
102
}
102
{ACAD_REACTORS
330
47F
102
}
330
20
100
AcDbEntity
  8
SCHRAFF
100
AcDbDimension
  2
*D6
 10
73.88827171668456
 20
63.79712118688224
 30
0.0
 11
57.38827171668456
 21
65.42212118688223
 31
0.0
 70
    32
  1
%%c<>
 71
     5
 42
32.99999999999999
  3
Standard
100
AcDbAlignedDimension
 13
40.88827171668457
 23
73.02899021996954
 33
0.0
 14
73.88827171668456
 24
73.02899021996954
 34
0.0
100
AcDbRotatedDimension
1001
ACAD
1000
DSTYLE
1002
{
1070
    40
1040
0.5
1070
    41
1040
3.5
1070
    42
1040
0.5
1070
    43
1040
7.0
1070
    44
1040
0.5
1070
    47
1040
0.1
1070
    48
1040
0.1
1070
    73
1070
     0
1070
    74
1070
     0
1070
    77
1070
     1
1070
    78
1070
     8
1070
    79
1070
     2
1070
   140
1040
3.5
1070
   141
1040
1.5
1070
   146
1040
0.5142857142857144
1070
   147
1040
1.5
1070
   172
1070
     1
1070
   178
1070
     1
1070
   179
1070
     2
1070
   271
1070
     2
1070
   272
1070
     2
1070
   284
1070
     8
1070
   285
1070
     8
1070
   286
1070
     8
1070
   340
1005
36
1002
}
  0
ENDSEC
  0
SECTION
  2
OBJECTS
  0
DICTIONARY
  5
C
330
0
100
AcDbDictionary
281
     1
  3
ACAD_COLOR
350
1B
  3
ACAD_GROUP
350
D
  3
ACAD_LAYOUT
350
19
  3
ACAD_MATERIAL
350
1A
  3
ACAD_MLINESTYLE
350
16
  3
ACAD_PLOTSETTINGS
350
18
  3
ACAD_PLOTSTYLENAME
350
E
  3
AcDbVariableDictionary
350
430
  0
DICTIONARY
  5
475
330
468
100
AcDbDictionary
280
     1
281
     1
  3
ACAD_DIMASSOC
360
47F
  0
DICTIONARY
  5
1B
102
{ACAD_REACTORS
330
C
102
}
330
C
100
AcDbDictionary
281
     1
  0
DICTIONARY
  5
D
102
{ACAD_REACTORS
330
C
102
}
330
C
100
AcDbDictionary
281
     1
  0
DICTIONARY
  5
19
102
{ACAD_REACTORS
330
C
102
}
330
C
100
AcDbDictionary
281
     1
  3
Layout1
350
1F
  3
Model
350
23
  0
DICTIONARY
  5
1A
102
{ACAD_REACTORS
330
C
102
}
330
C
100
AcDbDictionary
281
     1
  0
DICTIONARY
  5
16
102
{ACAD_REACTORS
330
C
102
}
330
C
100
AcDbDictionary
281
     1
  3
Standard
350
17
  0
DICTIONARY
  5
18
102
{ACAD_REACTORS
330
C
102
}
330
C
100
AcDbDictionary
281
     1
  0
ACDBDICTIONARYWDFLT
  5
E
102
{ACAD_REACTORS
330
C
102
}
330
C
100
AcDbDictionary
281
     1
  3
Normal
350
F
100
AcDbDictionaryWithDefault
340
F
  0
DICTIONARY
  5
430
102
{ACAD_REACTORS
330
C
102
}
330
C
100
AcDbDictionary
281
     1
  3
DIMASSOC
350
432
  3
HIDETEXT
350
431
  3
PROJECTNAME
350
433
  0
DIMASSOC
  5
47F
102
{ACAD_REACTORS
330
475
102
}
330
475
100
AcDbDimAssoc
330
468
 90
        3
 70
     0
 71
     0
  1
AcDbOsnapPointRef
 72
    13
331
1E8
 73
     2
 91
        0
 40
0.0
 10
0.0
 20
0.0
 30
2.000000000000000E+50
 75
     0
  1
AcDbOsnapPointRef
 72
    13
331
209
 73
     2
 91
        0
 40
0.0
 10
0.0
 20
0.0
 30
2.000000000000000E+50
 75
     0
  0
LAYOUT
  5
1F
102
{ACAD_REACTORS
330
19
102
}
330
19
100
AcDbPlotSettings
  1

  2
RICOH Aficio 2027 PCL 6
  4

  6

 40
0.0
 41
0.0
 42
0.0
 43
0.0
 44
0.0
 45
0.0
 46
0.0
 47
0.0
 48
0.0
 49
0.0
140
0.0
141
0.0
142
1.0
143
1.0
 70
   688
 72
     0
 73
     0
 74
     5
  7
monochrome1.ctb
 75
    16
147
1.0
 76
     0
 77
     2
 78
   300
148
0.0
149
0.0
100
AcDbLayout
  1
Layout1
 70
     0
 71
     1
 10
0.0
 20
0.0
 11
12.0
 21
9.0
 12
0.0
 22
0.0
 32
0.0
 14
1.000000000000000E+20
 24
1.000000000000000E+20
 34
1.000000000000000E+20
 15
-1.000000000000000E+20
 25
-1.000000000000000E+20
 35
-1.000000000000000E+20
146
0.0
 13
0.0
 23
0.0
 33
0.0
 16
1.0
 26
0.0
 36
0.0
 17
0.0
 27
1.0
 37
0.0
 76
     0
330
1C
  0
LAYOUT
  5
23
102
{ACAD_REACTORS
330
19
102
}
330
19
100
AcDbPlotSettings
  1

  2
RICOH Aficio 2027 PCL 6
  4
A4
  6

 40
5.027083396911621
 41
5.027085304260253
 42
5.027084350585937
 43
5.027069091796875
 44
209.9733276367187
 45
296.9259948730469
 46
0.0
 47
0.0
 48
0.0
 49
0.0
140
0.0
141
0.0
142
1.0
143
1.0
 70
 11952
 72
     0
 73
     1
 74
     0
  7
monochrome1.ctb
 75
     0
147
1.0
 76
     0
 77
     2
 78
   300
148
574.9737974108353
149
22.52379483828814
100
AcDbLayout
  1
Model
 70
     1
 71
     0
 10
0.0
 20
0.0
 11
12.0
 21
9.0
 12
0.0
 22
0.0
 32
0.0
 14
0.0
 24
0.0
 34
0.0
 15
0.0
 25
0.0
 35
0.0
146
0.0
 13
0.0
 23
0.0
 33
0.0
 16
1.0
 26
0.0
 36
0.0
 17
0.0
 27
1.0
 37
0.0
 76
     0
330
20
  0
MLINESTYLE
  5
17
102
{ACAD_REACTORS
330
16
102
}
330
16
100
AcDbMlineStyle
  2
STANDARD
 70
     0
  3

 62
   256
 51
90.0
 52
90.0
 71
     2
 49
0.5
 62
   256
  6
BYLAYER
 49
-0.5
 62
   256
  6
BYLAYER
  0
ACDBPLACEHOLDER
  5
F
102
{ACAD_REACTORS
330
E
102
}
330
E
  0
DICTIONARYVAR
  5
432
102
{ACAD_REACTORS
330
430
102
}
330
430
100
DictionaryVariables
280
     0
  1
2
  0
DICTIONARYVAR
  5
431
102
{ACAD_REACTORS
330
430
102
}
330
430
100
DictionaryVariables
280
     0
  1
1
  0
DICTIONARYVAR
  5
433
102
{ACAD_REACTORS
330
430
102
}
330
430
100
DictionaryVariables
280
     0
  1

  0
ENDSEC
  0
EOF
