  0
SECTION
  2
HEADER
  9
$ACADVER
  1
AC1018
  9
$ACADMAINTVER
 70
     2
  9
$DWGCODEPAGE
  3
ANSI_1252
  9
$INSBASE
 10
0.0
 20
0.0
 30
0.0
  9
$EXTMIN
 10
-0.0064083980321925
 20
-0.0090633057883451
 30
-0.0000000349181948
  9
$EXTMAX
 10
105.0064093759507
 20
148.5090646888447
 30
0.0000000814935746
  9
$LIMMIN
 10
0.0
 20
0.0
  9
$LIMMAX
 10
105.0
 20
148.5
  9
$ORTHOMODE
 70
     1
  9
$REGENMODE
 70
     1
  9
$FILLMODE
 70
     1
  9
$QTEXTMODE
 70
     0
  9
$MIRRTEXT
 70
     1
  9
$LTSCALE
 40
5.0
  9
$ATTMODE
 70
     1
  9
$TEXTSIZE
 40
3.5
  9
$TRACEWID
 40
0.5
  9
$TEXTSTYLE
  7
GREEKS
  9
$CLAYER
  8
BEM
  9
$CELTYPE
  6
ByLayer
  9
$CECOLOR
 62
   256
  9
$CELTSCALE
 40
1.0
  9
$DISPSILH
 70
     0
  9
$DIMSCALE
 40
0.5
  9
$DIMASZ
 40
3.5
  9
$DIMEXO
 40
1.0
  9
$DIMDLI
 40
7.0
  9
$DIMRND
 40
0.0
  9
$DIMDLE
 40
0.0
  9
$DIMEXE
 40
1.0
  9
$DIMTP
 40
0.2
  9
$DIMTM
 40
0.2
  9
$DIMTXT
 40
3.5
  9
$DIMCEN
 40
1.5
  9
$DIMTSZ
 40
0.0
  9
$DIMTOL
 70
     0
  9
$DIMLIM
 70
     0
  9
$DIMTIH
 70
     0
  9
$DIMTOH
 70
     0
  9
$DIMSE1
 70
     0
  9
$DIMSE2
 70
     0
  9
$DIMTAD
 70
     1
  9
$DIMZIN
 70
     8
  9
$DIMBLK
  1

  9
$DIMASO
 70
     1
  9
$DIMSHO
 70
     0
  9
$DIMPOST
  1

  9
$DIMAPOST
  1

  9
$DIMALT
 70
     0
  9
$DIMALTD
 70
     2
  9
$DIMALTF
 40
25.4
  9
$DIMLFAC
 40
1.0
  9
$DIMTOFL
 70
     1
  9
$DIMTVP
 40
0.0
  9
$DIMTIX
 70
     0
  9
$DIMSOXD
 70
     0
  9
$DIMSAH
 70
     0
  9
$DIMBLK1
  1

  9
$DIMBLK2
  1

  9
$DIMSTYLE
  2
Standard
  9
$DIMCLRD
 70
     0
  9
$DIMCLRE
 70
     0
  9
$DIMCLRT
 70
     1
  9
$DIMTFAC
 40
0.5
  9
$DIMGAP
 40
1.5
  9
$DIMJUST
 70
     0
  9
$DIMSD1
 70
     0
  9
$DIMSD2
 70
     0
  9
$DIMTOLJ
 70
     1
  9
$DIMTZIN
 70
     8
  9
$DIMALTZ
 70
     8
  9
$DIMALTTZ
 70
     8
  9
$DIMUPT
 70
     0
  9
$DIMDEC
 70
     2
  9
$DIMTDEC
 70
     2
  9
$DIMALTU
 70
     2
  9
$DIMALTTD
 70
     2
  9
$DIMTXSTY
  7
GREEKS
  9
$DIMAUNIT
 70
     0
  9
$DIMADEC
 70
     2
  9
$DIMALTRND
 40
0.0
  9
$DIMAZIN
 70
     2
  9
$DIMDSEP
 70
    46
  9
$DIMATFIT
 70
     3
  9
$DIMFRAC
 70
     0
  9
$DIMLDRBLK
  1

  9
$DIMLUNIT
 70
     2
  9
$DIMLWD
 70
    -2
  9
$DIMLWE
 70
    -2
  9
$DIMTMOVE
 70
     0
  9
$LUNITS
 70
     2
  9
$LUPREC
 70
     2
  9
$SKETCHINC
 40
1.0
  9
$FILLETRAD
 40
0.0
  9
$AUNITS
 70
     0
  9
$AUPREC
 70
     0
  9
$MENU
  1
ACAD
  9
$ELEVATION
 40
0.0
  9
$PELEVATION
 40
0.0
  9
$THICKNESS
 40
0.0
  9
$LIMCHECK
 70
     0
  9
$CHAMFERA
 40
0.0
  9
$CHAMFERB
 40
0.0
  9
$CHAMFERC
 40
0.0
  9
$CHAMFERD
 40
0.0
  9
$SKPOLY
 70
     0
  9
$TDCREATE
 40
2452306.610951505
  9
$TDUCREATE
 40
2452306.527618171
  9
$TDUPDATE
 40
2455450.552747847
  9
$TDUUPDATE
 40
2455450.469414514
  9
$TDINDWG
 40
0.0316732523
  9
$TDUSRTIMER
 40
0.0316732523
  9
$USRTIMER
 70
     1
  9
$ANGBASE
 50
0.0
  9
$ANGDIR
 70
     0
  9
$PDMODE
 70
     0
  9
$PDSIZE
 40
0.0
  9
$PLINEWID
 40
0.0
  9
$SPLFRAME
 70
     0
  9
$SPLINETYPE
 70
     6
  9
$SPLINESEGS
 70
     8
  9
$HANDSEED
  5
7DD
  9
$SURFTAB1
 70
     6
  9
$SURFTAB2
 70
     6
  9
$SURFTYPE
 70
     6
  9
$SURFU
 70
     6
  9
$SURFV
 70
     6
  9
$UCSBASE
  2

  9
$UCSNAME
  2

  9
$UCSORG
 10
0.0
 20
0.0
 30
0.0
  9
$UCSXDIR
 10
1.0
 20
0.0
 30
0.0
  9
$UCSYDIR
 10
0.0
 20
1.0
 30
0.0
  9
$UCSORTHOREF
  2

  9
$UCSORTHOVIEW
 70
     0
  9
$UCSORGTOP
 10
0.0
 20
0.0
 30
0.0
  9
$UCSORGBOTTOM
 10
0.0
 20
0.0
 30
0.0
  9
$UCSORGLEFT
 10
0.0
 20
0.0
 30
0.0
  9
$UCSORGRIGHT
 10
0.0
 20
0.0
 30
0.0
  9
$UCSORGFRONT
 10
0.0
 20
0.0
 30
0.0
  9
$UCSORGBACK
 10
0.0
 20
0.0
 30
0.0
  9
$PUCSBASE
  2

  9
$PUCSNAME
  2

  9
$PUCSORG
 10
0.0
 20
0.0
 30
0.0
  9
$PUCSXDIR
 10
1.0
 20
0.0
 30
0.0
  9
$PUCSYDIR
 10
0.0
 20
1.0
 30
0.0
  9
$PUCSORTHOREF
  2

  9
$PUCSORTHOVIEW
 70
     0
  9
$PUCSORGTOP
 10
0.0
 20
0.0
 30
0.0
  9
$PUCSORGBOTTOM
 10
0.0
 20
0.0
 30
0.0
  9
$PUCSORGLEFT
 10
0.0
 20
0.0
 30
0.0
  9
$PUCSORGRIGHT
 10
0.0
 20
0.0
 30
0.0
  9
$PUCSORGFRONT
 10
0.0
 20
0.0
 30
0.0
  9
$PUCSORGBACK
 10
0.0
 20
0.0
 30
0.0
  9
$USERI1
 70
     0
  9
$USERI2
 70
     0
  9
$USERI3
 70
     0
  9
$USERI4
 70
     0
  9
$USERI5
 70
     0
  9
$USERR1
 40
0.0
  9
$USERR2
 40
0.0
  9
$USERR3
 40
0.0
  9
$USERR4
 40
0.0
  9
$USERR5
 40
0.0
  9
$WORLDVIEW
 70
     1
  9
$SHADEDGE
 70
     3
  9
$SHADEDIF
 70
    70
  9
$TILEMODE
 70
     1
  9
$MAXACTVP
 70
    16
  9
$PINSBASE
 10
0.0
 20
0.0
 30
0.0
  9
$PLIMCHECK
 70
     0
  9
$PEXTMIN
 10
1.000000000000000E+20
 20
1.000000000000000E+20
 30
1.000000000000000E+20
  9
$PEXTMAX
 10
-1.000000000000000E+20
 20
-1.000000000000000E+20
 30
-1.000000000000000E+20
  9
$PLIMMIN
 10
0.0
 20
0.0
  9
$PLIMMAX
 10
12.0
 20
9.0
  9
$UNITMODE
 70
     0
  9
$VISRETAIN
 70
     0
  9
$PLINEGEN
 70
     0
  9
$PSLTSCALE
 70
     0
  9
$TREEDEPTH
 70
  3020
  9
$CMLSTYLE
  2
Standard
  9
$CMLJUST
 70
     0
  9
$CMLSCALE
 40
1.0
  9
$PROXYGRAPHICS
 70
     1
  9
$MEASUREMENT
 70
     0
  9
$CELWEIGHT
370
    -1
  9
$ENDCAPS
280
     0
  9
$JOINSTYLE
280
     0
  9
$LWDISPLAY
290
     0
  9
$INSUNITS
 70
     0
  9
$HYPERLINKBASE
  1

  9
$STYLESHEET
  1
monochrome 1.ctb
  9
$XEDIT
290
     1
  9
$CEPSNTYPE
380
     0
  9
$PSTYLEMODE
290
     1
  9
$FINGERPRINTGUID
  2
{7F1251AC-FBE8-4B19-8F70-B8859406C1D7}
  9
$VERSIONGUID
  2
{6FC94063-C44A-46A9-9C0B-22E289F7FAE7}
  9
$EXTNAMES
290
     1
  9
$PSVPSCALE
 40
0.0
  9
$OLESTARTUP
290
     0
  9
$SORTENTS
280
   127
  9
$INDEXCTL
280
     0
  9
$HIDETEXT
280
     1
  9
$XCLIPFRAME
290
     0
  9
$HALOGAP
280
     0
  9
$OBSCOLOR
 70
   257
  9
$OBSLTYPE
280
     0
  9
$INTERSECTIONDISPLAY
280
     0
  9
$INTERSECTIONCOLOR
 70
   257
  9
$DIMASSOC
280
     2
  9
$PROJECTNAME
  1

  0
ENDSEC
  0
SECTION
  2
CLASSES
  0
CLASS
  1
ACDBDICTIONARYWDFLT
  2
AcDbDictionaryWithDefault
  3
ObjectDBX Classes
 90
        0
 91
        1
280
     0
281
     0
  0
CLASS
  1
DICTIONARYVAR
  2
AcDbDictionaryVar
  3
ObjectDBX Classes
 90
        0
 91
        3
280
     0
281
     0
  0
CLASS
  1
DIMASSOC
  2
AcDbDimAssoc
  3
"AcDbDimAssoc|Product Desc:     AcDim ARX App For Dimension|Company:          Autodesk, Inc.|WEB Address:      www.autodesk.com"
 90
        0
 91
        3
280
     0
281
     0
  0
ENDSEC
  0
SECTION
  2
TABLES
  0
TABLE
  2
VPORT
  5
8
330
0
100
AcDbSymbolTable
 70
     2
  0
VPORT
  5
7DC
330
8
100
AcDbSymbolTableRecord
100
AcDbViewportTableRecord
  2
*Active
 70
     0
 10
0.0
 20
0.0
 11
1.0
 21
1.0
 12
52.50000048895927
 22
74.2500006915282
 13
0.0
 23
0.0
 14
1.0
 24
1.0
 15
10.0
 25
10.0
 16
0.0
 26
0.0
 36
1.0
 17
0.0
 27
0.0
 37
0.0
 40
149.7174668478872
 41
1.336927223719676
 42
50.0
 43
0.0
 44
0.0
 50
0.0
 51
0.0
 71
     0
 72
  1500
 73
     1
 74
     0
 75
     0
 76
     0
 77
     0
 78
     0
281
     0
 65
     1
110
0.0
120
0.0
130
0.0
111
1.0
121
0.0
131
0.0
112
0.0
122
1.0
132
0.0
 79
     0
146
0.0
  0
ENDTAB
  0
TABLE
  2
LTYPE
  5
5
330
0
100
AcDbSymbolTable
 70
     2
  0
LTYPE
  5
13
330
5
100
AcDbSymbolTableRecord
100
AcDbLinetypeTableRecord
  2
ByBlock
 70
     0
  3

 72
    65
 73
     0
 40
0.0
  0
LTYPE
  5
14
330
5
100
AcDbSymbolTableRecord
100
AcDbLinetypeTableRecord
  2
ByLayer
 70
     0
  3

 72
    65
 73
     0
 40
0.0
  0
LTYPE
  5
15
330
5
100
AcDbSymbolTableRecord
100
AcDbLinetypeTableRecord
  2
Continuous
 70
     0
  3
Solid line
 72
    65
 73
     0
 40
0.0
  0
LTYPE
  5
3B
330
5
100
AcDbSymbolTableRecord
100
AcDbLinetypeTableRecord
  2
STRICHPUNKT
 70
     0
  3
__ . __ . __ . __ . __ . __ . __ . __ . __ . __
 72
    65
 73
     4
 40
1.0
 49
0.5
 74
     0
 49
-0.25
 74
     0
 49
0.0
 74
     0
 49
-0.25
 74
     0
  0
ENDTAB
  0
TABLE
  2
LAYER
  5
2
330
0
100
AcDbSymbolTable
 70
     9
  0
LAYER
  5
10
330
2
100
AcDbSymbolTableRecord
100
AcDbLayerTableRecord
  2
0
 70
     0
 62
     7
  6
Continuous
370
    -3
390
F
  0
LAYER
  5
3E
330
2
100
AcDbSymbolTableRecord
100
AcDbLayerTableRecord
  2
VOLL
 70
     0
 62
     1
  6
Continuous
370
    -3
390
F
  0
LAYER
  5
3F
330
2
100
AcDbSymbolTableRecord
100
AcDbLayerTableRecord
  2
HILF
 70
     0
 62
     2
  6
Continuous
370
    -3
390
F
  0
LAYER
  5
40
330
2
100
AcDbSymbolTableRecord
100
AcDbLayerTableRecord
  2
MITTEL
 70
     0
 62
     2
  6
STRICHPUNKT
370
    -3
390
F
  0
LAYER
  5
41
330
2
100
AcDbSymbolTableRecord
100
AcDbLayerTableRecord
  2
BEM
 70
     0
 62
     7
  6
Continuous
370
    -3
390
F
  0
LAYER
  5
42
330
2
100
AcDbSymbolTableRecord
100
AcDbLayerTableRecord
  2
SCHRAFF
 70
     0
 62
     7
  6
Continuous
370
    -3
390
F
  0
LAYER
  5
43
330
2
100
AcDbSymbolTableRecord
100
AcDbLayerTableRecord
  2
STEMPEL
 70
     0
 62
     3
  6
Continuous
370
    -3
390
F
  0
LAYER
  5
44
330
2
100
AcDbSymbolTableRecord
100
AcDbLayerTableRecord
  2
DEFPOINTS
 70
     0
 62
     7
  6
Continuous
290
     0
370
    -3
390
F
  0
LAYER
  5
45
330
2
100
AcDbSymbolTableRecord
100
AcDbLayerTableRecord
  2
TEXT
 70
     0
 62
     7
  6
Continuous
370
    -3
390
F
  0
ENDTAB
  0
TABLE
  2
STYLE
  5
3
330
0
100
AcDbSymbolTable
 70
     2
  0
STYLE
  5
11
330
3
100
AcDbSymbolTableRecord
100
AcDbTextStyleTableRecord
  2
STANDARD
 70
     0
 40
0.0
 41
1.0
 50
0.0
 71
     0
 42
3.5
  3
txt
  4

  0
STYLE
  5
3A
330
3
100
AcDbSymbolTableRecord
100
AcDbTextStyleTableRecord
  2
GREEKS
 70
     0
 40
0.0
 41
0.8
 50
0.0
 71
     0
 42
3.5
  3
SIMPLEX.shx
  4

  0
ENDTAB
  0
TABLE
  2
VIEW
  5
6
330
0
100
AcDbSymbolTable
 70
     0
  0
ENDTAB
  0
TABLE
  2
UCS
  5
7
330
0
100
AcDbSymbolTable
 70
     0
  0
ENDTAB
  0
TABLE
  2
APPID
  5
9
330
0
100
AcDbSymbolTable
 70
     1
  0
APPID
  5
12
330
9
100
AcDbSymbolTableRecord
100
AcDbRegAppTableRecord
  2
ACAD
 70
     0
  0
ENDTAB
  0
TABLE
  2
DIMSTYLE
  5
A
330
0
100
AcDbSymbolTable
 70
     1
100
AcDbDimStyleTable
 71
     1
340
27E
  0
DIMSTYLE
105
27E
102
{ACAD_REACTORS
330
710
330
731
330
752
330
21D
330
21C
102
}
330
A
100
AcDbSymbolTableRecord
100
AcDbDimStyleTableRecord
  2
Standard
 70
     0
340
11
  0
ENDTAB
  0
TABLE
  2
BLOCK_RECORD
  5
1
330
0
100
AcDbSymbolTable
 70
     7
  0
BLOCK_RECORD
  5
20
330
1
100
AcDbSymbolTableRecord
100
AcDbBlockTableRecord
  2
*Model_Space
340
23
  0
BLOCK_RECORD
  5
1C
330
1
100
AcDbSymbolTableRecord
100
AcDbBlockTableRecord
  2
*Paper_Space
340
1F
  0
BLOCK_RECORD
  5
24
330
1
100
AcDbSymbolTableRecord
100
AcDbBlockTableRecord
  2
LOGO
340
0
102
{BLKREFS
331
1D1
102
}
  0
BLOCK_RECORD
  5
2F
330
1
100
AcDbSymbolTableRecord
100
AcDbBlockTableRecord
  2
*D1
340
0
  0
BLOCK_RECORD
  5
711
330
1
100
AcDbSymbolTableRecord
100
AcDbBlockTableRecord
  2
*D2
340
0
  0
BLOCK_RECORD
  5
732
330
1
100
AcDbSymbolTableRecord
100
AcDbBlockTableRecord
  2
*D3
340
0
  0
BLOCK_RECORD
  5
753
330
1
100
AcDbSymbolTableRecord
100
AcDbBlockTableRecord
  2
*D4
340
0
  0
BLOCK_RECORD
  5
773
330
1
100
AcDbSymbolTableRecord
100
AcDbBlockTableRecord
  2
*D5
340
0
  0
BLOCK_RECORD
  5
77F
330
1
100
AcDbSymbolTableRecord
100
AcDbBlockTableRecord
  2
*D6
340
0
  0
ENDTAB
  0
ENDSEC
  0
SECTION
  2
BLOCKS
  0
BLOCK
  5
49
330
20
100
AcDbEntity
  8
0
100
AcDbBlockBegin
  2
*Model_Space
 70
     0
 10
0.0
 20
0.0
 30
0.0
  3
*Model_Space
  1

  0
ENDBLK
  5
4A
330
20
100
AcDbEntity
  8
0
100
AcDbBlockEnd
  0
BLOCK
  5
47
330
1C
100
AcDbEntity
 67
     1
  8
0
100
AcDbBlockBegin
  2
*Paper_Space
 70
     0
 10
0.0
 20
0.0
 30
0.0
  3
*Paper_Space
  1

  0
ENDBLK
  5
48
330
1C
100
AcDbEntity
 67
     1
  8
0
100
AcDbBlockEnd
  0
BLOCK
  5
4B
330
24
100
AcDbEntity
  8
0
100
AcDbBlockBegin
  2
LOGO
 70
     0
 10
0.0
 20
0.0
 30
0.0
  3
LOGO
  1

  0
ARC
  5
4C
330
24
100
AcDbEntity
  8
0
100
AcDbCircle
 10
11.59973089678112
 20
-9.271599258481501
 30
0.0
 40
4.5
100
AcDbArc
 50
270.0
 51
231.0575587310159
  0
LINE
  5
4D
330
24
100
AcDbEntity
  8
0
100
AcDbLine
 10
3.599730896781125
 20
-4.771599258481529
 30
0.0
 11
3.599730896781153
 21
-11.77159925848133
 31
0.0
  0
LINE
  5
4E
330
24
100
AcDbEntity
  8
0
100
AcDbLine
 10
2.599730896781125
 20
-4.771599258481529
 30
0.0
 11
2.599730896781153
 21
-11.77159925848133
 31
0.0
  0
CIRCLE
  5
4F
330
24
100
AcDbEntity
  8
0
100
AcDbCircle
 10
11.59973089678112
 20
-9.271599258481501
 30
0.0
 40
3.5
  0
ARC
  5
50
330
24
100
AcDbEntity
  8
0
100
AcDbCircle
 10
31.59973089678115
 20
-9.271599258481472
 30
0.0
 40
4.5
100
AcDbArc
 50
270.0
 51
231.0575587310182
  0
LINE
  5
51
330
24
100
AcDbEntity
  8
0
100
AcDbLine
 10
17.59973089678112
 20
-4.771599258481472
 30
0.0
 11
17.59973089678115
 21
-13.77159925848147
 31
0.0
  0
ARC
  5
52
330
24
100
AcDbEntity
  8
0
100
AcDbCircle
 10
22.59973089678116
 20
-7.271599258481472
 30
0.0
 40
2.5
100
AcDbArc
 50
293.1161887722295
 51
90.0
  0
CIRCLE
  5
53
330
24
100
AcDbEntity
  8
0
100
AcDbCircle
 10
31.59973089678115
 20
-9.271599258481472
 30
0.0
 40
3.5
  0
ARC
  5
54
330
24
100
AcDbEntity
  8
0
100
AcDbCircle
 10
4.599730896781153
 20
-11.77159925848133
 30
0.0
 40
1.0
100
AcDbArc
 50
180.0
 51
270.0
  0
ARC
  5
55
330
24
100
AcDbEntity
  8
0
100
AcDbCircle
 10
4.599730896781153
 20
-11.77159925848133
 30
0.0
 40
2.0
100
AcDbArc
 50
179.9999999999992
 51
270.0
  0
LINE
  5
56
330
24
100
AcDbEntity
  8
0
100
AcDbLine
 10
11.59973089678115
 20
-13.77159925848144
 30
0.0
 11
4.599730896781153
 21
-13.77159925848147
 31
0.0
  0
LINE
  5
57
330
24
100
AcDbEntity
  8
0
100
AcDbLine
 10
8.771303772034769
 20
-12.77159925848136
 30
0.0
 11
4.599730896781153
 21
-12.77159925848133
 31
0.0
  0
LINE
  5
58
330
24
100
AcDbEntity
  8
0
100
AcDbLine
 10
31.59973089678115
 20
-13.77159925848147
 30
0.0
 11
23.6715276665056
 21
-13.77159925848144
 31
0.0
  0
LINE
  5
59
330
24
100
AcDbEntity
  8
0
100
AcDbLine
 10
23.56565672307022
 20
-9.51278021337896
 30
0.0
 11
24.4388546544846
 21
-12.77159925848144
 31
0.0
  0
LINE
  5
5A
330
24
100
AcDbEntity
  8
0
100
AcDbLine
 10
22.59973089678116
 20
-9.771599258481472
 30
0.0
 11
18.59973089678112
 21
-9.771599258481472
 31
0.0
  0
LINE
  5
5B
330
24
100
AcDbEntity
  8
0
100
AcDbLine
 10
18.59973089678115
 20
-13.77159925848144
 30
0.0
 11
17.59973089678115
 21
-13.77159925848144
 31
0.0
  0
LINE
  5
5C
330
24
100
AcDbEntity
  8
0
100
AcDbLine
 10
18.59973089678115
 20
-9.771599258481472
 30
0.0
 11
18.59973089678115
 21
-13.77159925848144
 31
0.0
  0
LINE
  5
5D
330
24
100
AcDbEntity
  8
0
100
AcDbLine
 10
22.59973089678116
 20
-9.771599258481472
 30
0.0
 11
23.67152766650562
 21
-13.77159925848147
 31
0.0
  0
ARC
  5
5E
330
24
100
AcDbEntity
  8
0
100
AcDbCircle
 10
22.59973089678116
 20
-7.271599258481472
 30
0.0
 40
2.5
100
AcDbArc
 50
270.0
 51
270.0000000000007
  0
LINE
  5
5F
330
24
100
AcDbEntity
  8
0
100
AcDbLine
 10
28.77130377203494
 20
-12.77159925848147
 30
0.0
 11
24.43885465448463
 21
-12.77159925848144
 31
0.0
  0
LINE
  5
60
330
24
100
AcDbEntity
  8
0
100
AcDbLine
 10
3.599730896781125
 20
-4.771599258481472
 30
0.0
 11
2.599730896781125
 21
-4.771599258481472
 31
0.0
  0
LINE
  5
61
330
24
100
AcDbEntity
  8
0
100
AcDbLine
 10
22.59973089678116
 20
-8.771599258481472
 30
0.0
 11
18.59973089678115
 21
-8.771599258481472
 31
0.0
  0
LINE
  5
62
330
24
100
AcDbEntity
  8
0
100
AcDbLine
 10
22.59973089678116
 20
-5.771599258481472
 30
0.0
 11
18.59973089678115
 21
-5.771599258481472
 31
0.0
  0
LINE
  5
63
330
24
100
AcDbEntity
  8
0
100
AcDbLine
 10
22.59973089678116
 20
-4.771599258481472
 30
0.0
 11
17.59973089678115
 21
-4.771599258481472
 31
0.0
  0
LINE
  5
64
330
24
100
AcDbEntity
  8
0
100
AcDbLine
 10
18.59973089678115
 20
-5.771599258481472
 30
0.0
 11
18.59973089678115
 21
-8.771599258481472
 31
0.0
  0
ARC
  5
65
330
24
100
AcDbEntity
  8
0
100
AcDbCircle
 10
22.59973089678116
 20
-7.271599258481472
 30
0.0
 40
1.5
100
AcDbArc
 50
270.0
 51
90.0
  0
ENDBLK
  5
66
330
24
100
AcDbEntity
  8
0
100
AcDbBlockEnd
  0
BLOCK
  5
116
330
2F
100
AcDbEntity
  8
0
100
AcDbBlockBegin
  2
*D1
 70
     1
 10
0.0
 20
0.0
 30
0.0
  3
*D1
  1

  0
LINE
  5
117
330
2F
100
AcDbEntity
  8
0
  6
ByBlock
 62
     0
100
AcDbLine
 10
44.27825070053577
 20
79.45329374083454
 30
0.0
 11
44.27825070053577
 21
91.07560876193522
 31
0.0
  0
LINE
  5
118
330
2F
100
AcDbEntity
  8
0
  6
ByBlock
 62
     0
100
AcDbLine
 10
74.27825070053578
 20
79.45329374083454
 30
0.0
 11
74.27825070053578
 21
91.07560876193522
 31
0.0
  0
LINE
  5
119
330
2F
100
AcDbEntity
  8
0
  6
ByBlock
 62
     0
100
AcDbLine
 10
46.02825070053577
 20
90.57560876193523
 30
0.0
 11
72.52825070053578
 21
90.57560876193523
 31
0.0
  0
SOLID
  5
11A
330
2F
100
AcDbEntity
  8
0
  6
ByBlock
 62
     0
100
AcDbTrace
 10
46.02825070053577
 20
90.8672754286019
 30
0.0
 11
46.02825070053577
 21
90.28394209526856
 31
0.0
 12
44.27825070053577
 22
90.57560876193523
 32
0.0
 13
44.27825070053577
 23
90.57560876193523
 33
0.0
  0
SOLID
  5
11B
330
2F
100
AcDbEntity
  8
0
  6
ByBlock
 62
     0
100
AcDbTrace
 10
72.52825070053578
 20
90.8672754286019
 30
0.0
 11
72.52825070053578
 21
90.28394209526856
 31
0.0
 12
74.27825070053578
 22
90.57560876193523
 32
0.0
 13
74.27825070053578
 23
90.57560876193523
 33
0.0
  0
TEXT
  5
11C
330
2F
100
AcDbEntity
  8
0
  6
ByBlock
 62
     1
100
AcDbText
 10
57.51158403386911
 20
91.45060876193523
 30
0.0
 40
1.75
  1
%%C
 41
0.8
  7
GREEKS
 72
     1
 11
57.94491736720244
 21
92.32560876193522
 31
0.0
100
AcDbText
 73
     2
  0
TEXT
  5
11D
330
2F
100
AcDbEntity
  8
0
  6
ByBlock
 62
     1
100
AcDbText
 10
58.77825070053578
 20
91.45060876193523
 30
0.0
 40
1.75
  1
30
 41
0.8
  7
GREEKS
 72
     1
 11
59.91158403386911
 21
92.32560876193522
 31
0.0
100
AcDbText
 73
     2
  0
POINT
  5
11E
330
2F
100
AcDbEntity
  8
DEFPOINTS
  6
ByBlock
 62
     0
100
AcDbPoint
 10
44.27825070053577
 20
78.95329374083454
 30
0.0
  0
POINT
  5
11F
330
2F
100
AcDbEntity
  8
DEFPOINTS
  6
ByBlock
 62
     0
100
AcDbPoint
 10
74.27825070053578
 20
78.95329374083454
 30
0.0
  0
POINT
  5
120
330
2F
100
AcDbEntity
  8
DEFPOINTS
  6
ByBlock
 62
     0
100
AcDbPoint
 10
74.27825070053578
 20
90.57560876193523
 30
0.0
  0
ENDBLK
  5
121
330
2F
100
AcDbEntity
  8
0
100
AcDbBlockEnd
  0
BLOCK
  5
71B
330
711
100
AcDbEntity
  8
0
100
AcDbBlockBegin
  2
*D2
 70
     1
 10
0.0
 20
0.0
 30
0.0
  3
*D2
  1

  0
LINE
  5
728
330
711
100
AcDbEntity
  8
BEM
 62
     0
370
    -2
100
AcDbLine
 10
27.27825070053577
 20
80.45329374083454
 30
0.0
 11
27.27825070053577
 21
94.9430442669597
 31
0.0
  0
LINE
  5
729
330
711
100
AcDbEntity
  8
BEM
 62
     0
370
    -2
100
AcDbLine
 10
91.27825070053578
 20
80.45329374083454
 30
0.0
 11
91.27825070053578
 21
94.9430442669597
 31
0.0
  0
LINE
  5
72A
330
711
100
AcDbEntity
  8
BEM
 62
     0
370
    -2
100
AcDbLine
 10
29.02825070053577
 20
94.44304426695969
 30
0.0
 11
89.52825070053577
 21
94.44304426695969
 31
0.0
  0
SOLID
  5
72B
330
711
100
AcDbEntity
  8
BEM
 62
     0
100
AcDbTrace
 10
29.02825070053577
 20
94.73471093362638
 30
0.0
 11
29.02825070053577
 21
94.15137760029303
 31
0.0
 12
27.27825070053577
 22
94.44304426695969
 32
0.0
 13
27.27825070053577
 23
94.44304426695969
 33
0.0
  0
SOLID
  5
72C
330
711
100
AcDbEntity
  8
BEM
 62
     0
100
AcDbTrace
 10
89.52825070053577
 20
94.73471093362638
 30
0.0
 11
89.52825070053577
 21
94.15137760029303
 31
0.0
 12
91.27825070053578
 22
94.44304426695969
 32
0.0
 13
91.27825070053578
 23
94.44304426695969
 33
0.0
  0
MTEXT
  5
72D
330
711
100
AcDbEntity
  8
BEM
 62
     1
100
AcDbMText
 10
59.27825070053578
 20
96.06804426695971
 30
0.0
 40
1.75
 41
0.0
 71
     5
 72
     1
  1
\A1;%%c64
  7
GREEKS
 73
     1
 44
1.0
  0
POINT
  5
72E
330
711
100
AcDbEntity
  8
DEFPOINTS
 62
     0
100
AcDbPoint
 10
27.27825070053577
 20
79.95329374083453
 30
0.0
  0
POINT
  5
72F
330
711
100
AcDbEntity
  8
DEFPOINTS
 62
     0
100
AcDbPoint
 10
91.27825070053578
 20
79.95329374083453
 30
0.0
  0
POINT
  5
730
330
711
100
AcDbEntity
  8
DEFPOINTS
 62
     0
100
AcDbPoint
 10
91.27825070053578
 20
94.44304426695969
 30
0.0
  0
ENDBLK
  5
71C
330
711
100
AcDbEntity
  8
0
100
AcDbBlockEnd
  0
BLOCK
  5
73C
330
732
100
AcDbEntity
  8
0
100
AcDbBlockBegin
  2
*D3
 70
     1
 10
0.0
 20
0.0
 30
0.0
  3
*D3
  1

  0
LINE
  5
749
330
732
100
AcDbEntity
  8
BEM
 62
     0
370
    -2
100
AcDbLine
 10
46.27825070053577
 20
66.45329374083454
 30
0.0
 11
46.27825070053577
 21
57.61545533616135
 31
0.0
  0
LINE
  5
74A
330
732
100
AcDbEntity
  8
BEM
 62
     0
370
    -2
100
AcDbLine
 10
72.27825070053578
 20
66.45329374083454
 30
0.0
 11
72.27825070053578
 21
57.61545533616135
 31
0.0
  0
LINE
  5
74B
330
732
100
AcDbEntity
  8
BEM
 62
     0
370
    -2
100
AcDbLine
 10
48.02825070053577
 20
58.11545533616135
 30
0.0
 11
70.52825070053578
 21
58.11545533616135
 31
0.0
  0
SOLID
  5
74C
330
732
100
AcDbEntity
  8
BEM
 62
     0
100
AcDbTrace
 10
48.02825070053577
 20
58.40712200282801
 30
0.0
 11
48.02825070053577
 21
57.82378866949468
 31
0.0
 12
46.27825070053577
 22
58.11545533616135
 32
0.0
 13
46.27825070053577
 23
58.11545533616135
 33
0.0
  0
SOLID
  5
74D
330
732
100
AcDbEntity
  8
BEM
 62
     0
100
AcDbTrace
 10
70.52825070053578
 20
58.40712200282801
 30
0.0
 11
70.52825070053578
 21
57.82378866949468
 31
0.0
 12
72.27825070053578
 22
58.11545533616135
 32
0.0
 13
72.27825070053578
 23
58.11545533616135
 33
0.0
  0
MTEXT
  5
74E
330
732
100
AcDbEntity
  8
BEM
 62
     1
100
AcDbMText
 10
59.27825070053578
 20
59.74045533616134
 30
0.0
 40
1.75
 41
0.0
 71
     5
 72
     1
  1
\A1;%%c26
  7
GREEKS
 73
     1
 44
1.0
  0
POINT
  5
74F
330
732
100
AcDbEntity
  8
DEFPOINTS
 62
     0
100
AcDbPoint
 10
46.27825070053577
 20
66.95329374083454
 30
0.0
  0
POINT
  5
750
330
732
100
AcDbEntity
  8
DEFPOINTS
 62
     0
100
AcDbPoint
 10
72.27825070053578
 20
66.95329374083454
 30
0.0
  0
POINT
  5
751
330
732
100
AcDbEntity
  8
DEFPOINTS
 62
     0
100
AcDbPoint
 10
72.27825070053578
 20
58.11545533616135
 30
0.0
  0
ENDBLK
  5
73D
330
732
100
AcDbEntity
  8
0
100
AcDbBlockEnd
  0
BLOCK
  5
75D
330
753
100
AcDbEntity
  8
0
100
AcDbBlockBegin
  2
*D4
 70
     1
 10
0.0
 20
0.0
 30
0.0
  3
*D4
  1

  0
LINE
  5
76A
330
753
100
AcDbEntity
  8
BEM
 62
     0
370
    -2
100
AcDbLine
 10
27.27825070053577
 20
67.45329374083453
 30
0.0
 11
27.27825070053577
 21
53.50251649774378
 31
0.0
  0
LINE
  5
76B
330
753
100
AcDbEntity
  8
BEM
 62
     0
370
    -2
100
AcDbLine
 10
91.27825070053578
 20
67.45329374083453
 30
0.0
 11
91.27825070053578
 21
53.50251649774378
 31
0.0
  0
LINE
  5
76C
330
753
100
AcDbEntity
  8
BEM
 62
     0
370
    -2
100
AcDbLine
 10
29.02825070053577
 20
54.00251649774379
 30
0.0
 11
89.52825070053577
 21
54.00251649774379
 31
0.0
  0
SOLID
  5
76D
330
753
100
AcDbEntity
  8
BEM
 62
     0
100
AcDbTrace
 10
29.02825070053577
 20
54.29418316441045
 30
0.0
 11
29.02825070053577
 21
53.71084983107712
 31
0.0
 12
27.27825070053577
 22
54.00251649774379
 32
0.0
 13
27.27825070053577
 23
54.00251649774379
 33
0.0
  0
SOLID
  5
76E
330
753
100
AcDbEntity
  8
BEM
 62
     0
100
AcDbTrace
 10
89.52825070053577
 20
54.29418316441045
 30
0.0
 11
89.52825070053577
 21
53.71084983107712
 31
0.0
 12
91.27825070053578
 22
54.00251649774379
 32
0.0
 13
91.27825070053578
 23
54.00251649774379
 33
0.0
  0
MTEXT
  5
76F
330
753
100
AcDbEntity
  8
BEM
 62
     1
100
AcDbMText
 10
59.27825070053578
 20
55.62751649774378
 30
0.0
 40
1.75
 41
0.0
 71
     5
 72
     1
  1
\A1;%%c64
  7
GREEKS
 73
     1
 44
1.0
  0
POINT
  5
770
330
753
100
AcDbEntity
  8
DEFPOINTS
 62
     0
100
AcDbPoint
 10
27.27825070053577
 20
67.95329374083454
 30
0.0
  0
POINT
  5
771
330
753
100
AcDbEntity
  8
DEFPOINTS
 62
     0
100
AcDbPoint
 10
91.27825070053578
 20
67.95329374083454
 30
0.0
  0
POINT
  5
772
330
753
100
AcDbEntity
  8
DEFPOINTS
 62
     0
100
AcDbPoint
 10
91.27825070053578
 20
54.00251649774379
 30
0.0
  0
ENDBLK
  5
75E
330
753
100
AcDbEntity
  8
0
100
AcDbBlockEnd
  0
BLOCK
  5
77D
330
773
100
AcDbEntity
  8
0
100
AcDbBlockBegin
  2
*D5
 70
     1
 10
0.0
 20
0.0
 30
0.0
  3
*D5
  1

  0
LINE
  5
78B
330
773
100
AcDbEntity
  8
BEM
 62
     0
370
    -2
100
AcDbLine
 10
43.77825070053576
 20
66.95329374083454
 30
0.0
 11
18.49035748451282
 21
66.95329374083455
 31
0.0
  0
LINE
  5
78C
330
773
100
AcDbEntity
  8
BEM
 62
     0
370
    -2
100
AcDbLine
 10
30.53102745026834
 20
84.95329374083452
 30
0.0
 11
18.49035748451283
 21
84.95329374083452
 31
0.0
  0
LINE
  5
78D
330
773
100
AcDbEntity
  8
BEM
 62
     0
370
    -2
100
AcDbLine
 10
18.99035748451282
 20
68.70329374083455
 30
0.0
 11
18.99035748451282
 21
83.20329374083453
 31
0.0
  0
SOLID
  5
78E
330
773
100
AcDbEntity
  8
BEM
 62
     0
100
AcDbTrace
 10
18.69869081784615
 20
68.70329374083455
 30
0.0
 11
19.28202415117949
 21
68.70329374083455
 31
0.0
 12
18.99035748451282
 22
66.95329374083455
 32
0.0
 13
18.99035748451282
 23
66.95329374083455
 33
0.0
  0
SOLID
  5
78F
330
773
100
AcDbEntity
  8
BEM
 62
     0
100
AcDbTrace
 10
18.69869081784616
 20
83.20329374083453
 30
0.0
 11
19.28202415117949
 21
83.20329374083453
 31
0.0
 12
18.99035748451282
 22
84.95329374083452
 32
0.0
 13
18.99035748451282
 23
84.95329374083452
 33
0.0
  0
MTEXT
  5
790
330
773
100
AcDbEntity
  8
BEM
 62
     1
100
AcDbMText
 10
17.36535748451281
 20
75.95329374083454
 30
0.0
 40
1.75
 41
0.0
 71
     5
 72
     1
  1
\A1;18
  7
GREEKS
 11
0.0000000000000001
 21
1.0
 31
0.0
 73
     1
 44
1.0
  0
POINT
  5
791
330
773
100
AcDbEntity
  8
DEFPOINTS
 62
     0
100
AcDbPoint
 10
44.27825070053576
 20
66.95329374083454
 30
0.0
  0
POINT
  5
792
330
773
100
AcDbEntity
  8
DEFPOINTS
 62
     0
100
AcDbPoint
 10
31.03102745026834
 20
84.95329374083452
 30
0.0
  0
POINT
  5
793
330
773
100
AcDbEntity
  8
DEFPOINTS
 62
     0
100
AcDbPoint
 10
18.99035748451282
 20
84.95329374083452
 30
0.0
  0
ENDBLK
  5
77E
330
773
100
AcDbEntity
  8
0
100
AcDbBlockEnd
  0
BLOCK
  5
789
330
77F
100
AcDbEntity
  8
0
100
AcDbBlockBegin
  2
*D6
 70
     1
 10
0.0
 20
0.0
 30
0.0
  3
*D6
  1

  0
LINE
  5
794
330
77F
100
AcDbEntity
  8
BEM
 62
     0
370
    -2
100
AcDbLine
 10
43.77825070053576
 20
66.95329374083454
 30
0.0
 11
23.05102443075725
 21
66.95329374083455
 31
0.0
  0
LINE
  5
795
330
77F
100
AcDbEntity
  8
BEM
 62
     0
370
    -2
100
AcDbLine
 10
26.77825070053577
 20
79.95329374083453
 30
0.0
 11
23.05102443075725
 21
79.95329374083453
 31
0.0
  0
LINE
  5
796
330
77F
100
AcDbEntity
  8
BEM
 62
     0
370
    -2
100
AcDbLine
 10
23.55102443075725
 20
68.70329374083455
 30
0.0
 11
23.55102443075725
 21
78.20329374083454
 31
0.0
  0
SOLID
  5
797
330
77F
100
AcDbEntity
  8
BEM
 62
     0
100
AcDbTrace
 10
23.25935776409058
 20
68.70329374083455
 30
0.0
 11
23.84269109742392
 21
68.70329374083455
 31
0.0
 12
23.55102443075725
 22
66.95329374083455
 32
0.0
 13
23.55102443075725
 23
66.95329374083455
 33
0.0
  0
SOLID
  5
798
330
77F
100
AcDbEntity
  8
BEM
 62
     0
100
AcDbTrace
 10
23.25935776409059
 20
78.20329374083454
 30
0.0
 11
23.84269109742392
 21
78.20329374083454
 31
0.0
 12
23.55102443075725
 22
79.95329374083453
 32
0.0
 13
23.55102443075725
 23
79.95329374083453
 33
0.0
  0
MTEXT
  5
799
330
77F
100
AcDbEntity
  8
BEM
 62
     1
100
AcDbMText
 10
21.92602443075724
 20
73.45329374083454
 30
0.0
 40
1.75
 41
0.0
 71
     5
 72
     1
  1
\A1;13
  7
GREEKS
 11
0.0000000000000001
 21
1.0
 31
0.0
 73
     1
 44
1.0
  0
POINT
  5
79A
330
77F
100
AcDbEntity
  8
DEFPOINTS
 62
     0
100
AcDbPoint
 10
44.27825070053576
 20
66.95329374083454
 30
0.0
  0
POINT
  5
79B
330
77F
100
AcDbEntity
  8
DEFPOINTS
 62
     0
100
AcDbPoint
 10
27.27825070053576
 20
79.95329374083453
 30
0.0
  0
POINT
  5
79C
330
77F
100
AcDbEntity
  8
DEFPOINTS
 62
     0
100
AcDbPoint
 10
23.55102443075725
 20
79.95329374083453
 30
0.0
  0
ENDBLK
  5
78A
330
77F
100
AcDbEntity
  8
0
100
AcDbBlockEnd
  0
ENDSEC
  0
SECTION
  2
ENTITIES
  0
LINE
  5
19B
330
20
100
AcDbEntity
  8
STEMPEL
100
AcDbLine
 10
42.27825070053576
 20
73.88149697111003
 30
0.0
 11
76.27825070053578
 21
73.88149697111003
 31
0.0
  0
DIMENSION
  5
1A0
330
20
100
AcDbEntity
  8
BEM
100
AcDbDimension
  2
*D1
 10
74.27825070053578
 20
90.57560876193523
 30
0.0
 11
59.27825070053578
 21
92.32560876193522
 31
0.0
  1
%%C<>
 71
     5
 42
-1.0
100
AcDbAlignedDimension
 13
44.27825070053577
 23
78.95329374083454
 33
0.0
 14
74.27825070053578
 24
78.95329374083454
 34
0.0
100
AcDbRotatedDimension
  0
TEXT
  5
1A8
330
20
100
AcDbEntity
  8
TEXT
 62
     1
100
AcDbText
 10
32.14822666521421
 20
34.30747411709897
 30
0.0
 40
1.75
  1
Werkstoff: Styrol-Butadien-Kautschuk (SBR) 50%%p5 IRHD
 41
0.8
  7
GREEKS
100
AcDbText
  0
LINE
  5
1AC
330
20
100
AcDbEntity
  8
STEMPEL
100
AcDbLine
 10
44.27825070053577
 20
78.95329374083454
 30
0.0
 11
74.27825070053578
 21
78.95329374083454
 31
0.0
  0
LINE
  5
1AD
330
20
100
AcDbEntity
  8
STEMPEL
100
AcDbLine
 10
44.27825070053577
 20
76.95329374083454
 30
0.0
 11
74.27825070053578
 21
76.95329374083454
 31
0.0
  0
LINE
  5
1AE
102
{ACAD_REACTORS
330
748
330
7D0
102
}
330
20
100
AcDbEntity
  8
STEMPEL
100
AcDbLine
 10
44.27825070053577
 20
66.95329374083454
 30
0.0
 11
74.27825070053578
 21
66.95329374083454
 31
0.0
  0
LINE
  5
1AF
330
20
100
AcDbEntity
  8
HILF
100
AcDbLine
 10
105.0
 20
0.0
 30
0.0
 11
0.0
 21
0.0
 31
0.0
  0
LINE
  5
1B0
330
20
100
AcDbEntity
  8
HILF
100
AcDbLine
 10
105.0
 20
148.5
 30
0.0
 11
-0.0000000000000284
 21
148.5
 31
0.0
  0
LINE
  5
1B1
330
20
100
AcDbEntity
  8
STEMPEL
100
AcDbLine
 10
102.5
 20
146.0
 30
0.0
 11
9.999999999999968
 21
145.9999999999999
 31
0.0
  0
LINE
  5
1B2
330
20
100
AcDbEntity
  8
STEMPEL
100
AcDbLine
 10
102.5
 20
2.5
 30
0.0
 11
10.0
 21
2.5
 31
0.0
  0
LINE
  5
1B3
330
20
100
AcDbEntity
  8
STEMPEL
100
AcDbLine
 10
12.49999999999997
 20
2.5
 30
0.0
 11
102.5
 21
2.5
 31
0.0
  0
LINE
  5
1B4
330
20
100
AcDbEntity
  8
STEMPEL
100
AcDbLine
 10
102.5
 20
20.0
 30
0.0
 11
34.00000000000003
 21
19.99999999999998
 31
0.0
  0
LINE
  5
1B5
330
20
100
AcDbEntity
  8
STEMPEL
100
AcDbLine
 10
102.5
 20
10.0
 30
0.0
 11
34.00000000000003
 21
9.999999999999992
 31
0.0
  0
LINE
  5
1B6
330
20
100
AcDbEntity
  8
STEMPEL
100
AcDbLine
 10
102.5
 20
27.50000000000002
 30
0.0
 11
9.999999999999994
 21
27.5
 31
0.0
  0
LINE
  5
1BB
102
{ACAD_REACTORS
330
7D0
102
}
330
20
100
AcDbEntity
  8
STEMPEL
100
AcDbLine
 10
30.43402300755767
 20
79.28228366917169
 30
0.0
 11
29.02825070053577
 21
75.41995599873439
 31
0.0
  0
LINE
  5
1BC
102
{ACAD_REACTORS
330
7D0
102
}
330
20
100
AcDbEntity
  8
STEMPEL
100
AcDbLine
 10
44.27825070053577
 20
78.95329374083454
 30
0.0
 11
44.27825070053577
 21
76.95329374083451
 31
0.0
  0
LINE
  5
1BD
330
20
100
AcDbEntity
  8
HILF
100
AcDbLine
 10
0.0
 20
0.0
 30
0.0
 11
-0.0000000000000284
 21
148.5
 31
0.0
  0
LINE
  5
1BE
330
20
100
AcDbEntity
  8
STEMPEL
100
AcDbLine
 10
10.0
 20
2.5
 30
0.0
 11
9.999999999999968
 21
145.9999999999999
 31
0.0
  0
TEXT
  5
1C1
330
20
100
AcDbEntity
  8
TEXT
100
AcDbText
 10
10.62566647230115
 20
28.24944248551687
 30
0.0
 40
1.25
  1
Erstellt mit AUTOCAD 2004
 41
0.8
  7
GREEKS
100
AcDbText
  0
TEXT
  5
1C2
330
20
100
AcDbEntity
  8
TEXT
100
AcDbText
 10
15.60368203425167
 20
4.668454737460329
 30
0.0
 40
1.0
  1
Änderung
 41
0.8
  7
GREEKS
 72
     1
 11
18.28939631996596
 21
4.668454737460329
 31
0.0
100
AcDbText
  0
LINE
  5
1C4
330
20
100
AcDbEntity
  8
HILF
100
AcDbLine
 10
10.00000000000002
 20
9.999999999999992
 30
0.0
 11
34.00000000000003
 21
9.999999999999992
 31
0.0
  0
LINE
  5
1C5
330
20
100
AcDbEntity
  8
HILF
100
AcDbLine
 10
10.00000000000002
 20
12.49999999999999
 30
0.0
 11
34.00000000000003
 21
12.49999999999999
 31
0.0
  0
LINE
  5
1C6
330
20
100
AcDbEntity
  8
HILF
100
AcDbLine
 10
10.00000000000002
 20
14.99999999999999
 30
0.0
 11
34.00000000000003
 21
14.99999999999999
 31
0.0
  0
LINE
  5
1C7
330
20
100
AcDbEntity
  8
HILF
100
AcDbLine
 10
10.00000000000002
 20
17.49999999999998
 30
0.0
 11
34.00000000000003
 21
17.49999999999998
 31
0.0
  0
LINE
  5
1C8
330
20
100
AcDbEntity
  8
HILF
100
AcDbLine
 10
10.00000000000002
 20
19.99999999999998
 30
0.0
 11
34.00000000000003
 21
19.99999999999998
 31
0.0
  0
LINE
  5
1C9
330
20
100
AcDbEntity
  8
HILF
100
AcDbLine
 10
10.00000000000002
 20
22.50000000000001
 30
0.0
 11
34.00000000000003
 21
22.50000000000001
 31
0.0
  0
LINE
  5
1CA
330
20
100
AcDbEntity
  8
HILF
100
AcDbLine
 10
10.00000000000002
 20
25.00000000000002
 30
0.0
 11
34.00000000000003
 21
25.00000000000002
 31
0.0
  0
LINE
  5
1CB
330
20
100
AcDbEntity
  8
STEMPEL
100
AcDbLine
 10
33.99999999999997
 20
7.499999999999992
 30
0.0
 11
9.999999999999992
 21
7.499999999999992
 31
0.0
  0
TEXT
  5
1CC
330
20
100
AcDbEntity
  8
TEXT
100
AcDbText
 10
12.06660276761439
 20
3.413664615067979
 30
0.0
 40
0.9
  1
Index
 50
90.0
 41
0.8
  7
GREEKS
100
AcDbText
  0
LINE
  5
1CD
330
20
100
AcDbEntity
  8
VOLL
100
AcDbLine
 10
13.50000000000002
 20
27.50000000000002
 30
0.0
 11
13.49999999999999
 21
2.499999999999992
 31
0.0
  0
TEXT
  5
1CF
330
20
100
AcDbEntity
  8
TEXT
100
AcDbText
 10
34.4001694346826
 20
10.88236597412452
 30
0.0
 40
0.9
  1
Norm.
 41
0.8
  7
GREEKS
100
AcDbText
  0
TEXT
  5
1D0
330
20
100
AcDbEntity
  8
TEXT
100
AcDbText
 10
35.87908930375943
 20
25.61552237717722
 30
0.0
 40
1.25
  1
Maßstab
 41
0.8
  7
GREEKS
100
AcDbText
  0
INSERT
  5
1D1
330
20
100
AcDbEntity
  8
STEMPEL
100
AcDbBlockReference
  2
LOGO
 10
35.24888713644485
 20
11.2552631911208
 30
0.0
 41
0.5
 42
0.5
 43
0.5
  0
LINE
  5
1D2
330
20
100
AcDbEntity
  8
HILF
100
AcDbLine
 10
34.00000000000003
 20
12.49999999999999
 30
0.0
 11
55.0
 21
12.49999999999999
 31
0.0
  0
LINE
  5
1D3
330
20
100
AcDbEntity
  8
HILF
100
AcDbLine
 10
34.00000000000003
 20
14.99999999999999
 30
0.0
 11
55.0
 21
14.99999999999999
 31
0.0
  0
LINE
  5
1D4
330
20
100
AcDbEntity
  8
HILF
100
AcDbLine
 10
34.00000000000003
 20
17.49999999999998
 30
0.0
 11
55.0
 21
17.49999999999998
 31
0.0
  0
TEXT
  5
1D5
330
20
100
AcDbEntity
  8
TEXT
100
AcDbText
 10
29.58245550931686
 20
4.64831054241602
 30
0.0
 40
1.0
  1
Name
 41
0.8
  7
GREEKS
 72
     1
 11
31.16340789026924
 21
4.64831054241602
 31
0.0
100
AcDbText
  0
TEXT
  5
1D6
330
20
100
AcDbEntity
  8
TEXT
100
AcDbText
 10
24.9505676212445
 20
4.667890673349525
 30
0.0
 40
1.0
  1
Tag
 41
0.8
  7
GREEKS
 72
     1
 11
25.88390095457783
 21
4.667890673349525
 31
0.0
100
AcDbText
  0
LINE
  5
1D7
330
20
100
AcDbEntity
  8
VOLL
100
AcDbLine
 10
28.50000000000003
 20
27.49999999999999
 30
0.0
 11
28.5
 21
2.499999999999992
 31
0.0
  0
LINE
  5
1D8
330
20
100
AcDbEntity
  8
VOLL
100
AcDbLine
 10
23.50000000000003
 20
27.49999999999999
 30
0.0
 11
23.5
 21
2.499999999999992
 31
0.0
  0
LINE
  5
1D9
330
20
100
AcDbEntity
  8
STEMPEL
100
AcDbLine
 10
34.00000000000003
 20
27.49999999999999
 30
0.0
 11
34.0
 21
2.499999999999992
 31
0.0
  0
TEXT
  5
1DC
330
20
100
AcDbEntity
  8
TEXT
100
AcDbText
 10
34.38787716429181
 20
13.42231572857094
 30
0.0
 40
0.9
  1
Gepr.
 41
0.8
  7
GREEKS
100
AcDbText
  0
TEXT
  5
1DD
330
20
100
AcDbEntity
  8
TEXT
100
AcDbText
 10
34.39590317919039
 20
15.90747592404491
 30
0.0
 40
0.9
  1
Gez.
 41
0.8
  7
GREEKS
100
AcDbText
  0
TEXT
  5
1DE
330
20
100
AcDbEntity
  8
TEXT
100
AcDbText
 10
34.655527455526
 20
18.28506367787916
 30
0.0
 40
0.9
  1
2008
 41
0.8
  7
GREEKS
100
AcDbText
  0
LINE
  5
1DF
330
20
100
AcDbEntity
  8
STEMPEL
100
AcDbLine
 10
55.0
 20
27.50000000000002
 30
0.0
 11
55.0
 21
2.499999999999992
 31
0.0
  0
TEXT
  5
1E0
330
20
100
AcDbEntity
  8
TEXT
100
AcDbText
 10
46.07147386835128
 20
25.60460421087048
 30
0.0
 40
1.25
  1
Zul. Abw.
 41
0.8
  7
GREEKS
100
AcDbText
  0
TEXT
  5
1E1
330
20
100
AcDbEntity
  8
TEXT
100
AcDbText
 10
45.40581357395245
 20
21.8068954769561
 30
0.0
 40
1.0
  1
DIN EN1123-2
 41
0.8
  7
GREEKS
 72
     1
 11
49.6534326215715
 21
21.8068954769561
 31
0.0
100
AcDbText
  0
LINE
  5
1E2
330
20
100
AcDbEntity
  8
VOLL
100
AcDbLine
 10
45.00000000000002
 20
27.49999999999996
 30
0.0
 11
45.0
 21
9.999999999999992
 31
0.0
  0
LINE
  5
1E3
330
20
100
AcDbEntity
  8
VOLL
100
AcDbLine
 10
38.50000000000003
 20
19.99999999999998
 30
0.0
 11
38.50000000000003
 21
9.999999999999992
 31
0.0
  0
TEXT
  5
1E4
330
20
100
AcDbEntity
  8
TEXT
100
AcDbText
 10
39.60646576839446
 20
15.77691260206433
 30
0.0
 40
1.0
  1
24.06.
 41
0.8
  7
GREEKS
100
AcDbText
  0
TEXT
  5
1E5
330
20
100
AcDbEntity
  8
TEXT
100
AcDbText
 10
40.58279182884127
 20
18.32970125307481
 30
0.0
 40
0.9
  1
Tag
 41
0.8
  7
GREEKS
100
AcDbText
  0
TEXT
  5
1E6
330
20
100
AcDbEntity
  8
TEXT
 62
     1
100
AcDbText
 10
37.84064641809614
 20
22.15414213722941
 30
0.0
 40
1.75
  1
2:1
  7
GREEKS
100
AcDbText
  0
TEXT
  5
1E7
330
20
100
AcDbEntity
  8
TEXT
100
AcDbText
 10
48.170481434512
 20
15.77240979930877
 30
0.0
 40
1.0
  1
Koeh
 41
0.8
  7
GREEKS
100
AcDbText
  0
TEXT
  5
1E8
330
20
100
AcDbEntity
  8
TEXT
100
AcDbText
 10
48.11566460565737
 20
18.32740272978806
 30
0.0
 40
0.9
  1
Name
 41
0.8
  7
GREEKS
100
AcDbText
  0
LINE
  5
1EB
102
{ACAD_REACTORS
330
7D0
102
}
330
20
100
AcDbEntity
  8
STEMPEL
100
AcDbLine
 10
31.27825070053577
 20
69.95329374083453
 30
0.0
 11
41.27825070053577
 21
69.95329374083453
 31
0.0
  0
LINE
  5
1EC
102
{ACAD_REACTORS
330
7D0
102
}
330
20
100
AcDbEntity
  8
STEMPEL
100
AcDbLine
 10
27.27825070053577
 20
67.95329374083454
 30
0.0
 11
43.27825070053576
 21
67.95329374083454
 31
0.0
  0
LINE
  5
1EF
102
{ACAD_REACTORS
330
769
330
7D0
102
}
330
20
100
AcDbEntity
  8
STEMPEL
100
AcDbLine
 10
27.27825070053577
 20
67.95329374083454
 30
0.0
 11
29.02825070053577
 21
71.70618085172626
 31
0.0
  0
POINT
  5
1F0
330
20
100
AcDbEntity
  8
DEFPOINTS
  6
ByBlock
 62
     0
100
AcDbPoint
 10
27.27825070053577
 20
67.95329374083454
 30
0.0
  0
LINE
  5
1F1
102
{ACAD_REACTORS
330
7D0
102
}
330
20
100
AcDbEntity
  8
STEMPEL
100
AcDbLine
 10
28.42825070053577
 20
73.95329374083454
 30
0.0
 11
29.02825070053577
 21
74.55329374083453
 31
0.0
  0
LINE
  5
1F2
102
{ACAD_REACTORS
330
7D0
102
}
330
20
100
AcDbEntity
  8
STEMPEL
100
AcDbLine
 10
29.02825070053577
 20
72.35329374083453
 30
0.0
 11
29.02825070053577
 21
71.70618085172626
 31
0.0
  0
LINE
  5
1F3
102
{ACAD_REACTORS
330
7D0
102
}
330
20
100
AcDbEntity
  8
STEMPEL
100
AcDbLine
 10
28.42825070053577
 20
72.95329374083452
 30
0.0
 11
29.02825070053577
 21
72.35329374083453
 31
0.0
  0
LINE
  5
1F4
102
{ACAD_REACTORS
330
7D0
102
}
330
20
100
AcDbEntity
  8
STEMPEL
100
AcDbLine
 10
28.42825070053577
 20
73.95329374083454
 30
0.0
 11
28.42825070053577
 21
72.95329374083452
 31
0.0
  0
POINT
  5
1F5
330
20
100
AcDbEntity
  8
DEFPOINTS
  6
ByBlock
 62
     0
100
AcDbPoint
 10
29.02825070053577
 20
75.41995599873439
 30
0.0
  0
LINE
  5
1F6
102
{ACAD_REACTORS
330
7D0
102
}
330
20
100
AcDbEntity
  8
STEMPEL
100
AcDbLine
 10
29.02825070053577
 20
75.41995599873439
 30
0.0
 11
29.02825070053577
 21
74.55329374083453
 31
0.0
  0
LINE
  5
1F7
102
{ACAD_REACTORS
330
7D0
102
}
330
20
100
AcDbEntity
  8
STEMPEL
100
AcDbLine
 10
29.27825070053577
 20
67.95329374083454
 30
0.0
 11
31.27825070053577
 21
69.95329374083453
 31
0.0
  0
LINE
  5
1FB
102
{ACAD_REACTORS
330
7D0
102
}
330
20
100
AcDbEntity
  8
STEMPEL
100
AcDbLine
 10
44.27825070053577
 20
66.95329374083454
 30
0.0
 11
41.27825070053577
 21
69.95329374083453
 31
0.0
  0
ARC
  5
1FC
102
{ACAD_REACTORS
330
7D0
102
}
330
20
100
AcDbEntity
  8
STEMPEL
100
AcDbCircle
 10
44.27825070053577
 20
74.95329374083453
 30
0.0
 40
2.0
100
AcDbArc
 50
90.0
 51
180.0
  0
LINE
  5
1FD
102
{ACAD_REACTORS
330
748
330
7D0
102
}
330
20
100
AcDbEntity
  8
STEMPEL
100
AcDbLine
 10
46.27825070053577
 20
66.95329374083454
 30
0.0
 11
42.27825070053576
 21
73.88149697111003
 31
0.0
  0
POINT
  5
1FE
330
20
100
AcDbEntity
  8
DEFPOINTS
  6
ByBlock
 62
     0
100
AcDbPoint
 10
46.27825070053577
 20
66.95329374083454
 30
0.0
  0
LINE
  5
200
102
{ACAD_REACTORS
330
7D0
102
}
330
20
100
AcDbEntity
  8
STEMPEL
100
AcDbLine
 10
42.27825070053577
 20
74.95329374083453
 30
0.0
 11
42.27825070053576
 21
73.88149697111003
 31
0.0
  0
LINE
  5
202
330
20
100
AcDbEntity
  8
TEXT
 62
     2
100
AcDbLine
 10
14.32849894918201
 20
102.7402286732411
 30
0.0
 11
28.23331841389506
 21
81.68685335161105
 31
0.0
  0
LINE
  5
209
102
{ACAD_REACTORS
330
7D0
102
}
330
20
100
AcDbEntity
  8
STEMPEL
100
AcDbLine
 10
27.27825070053577
 20
79.95329374083453
 30
0.0
 11
29.73198934459168
 21
84.20329374083454
 31
0.0
  0
LINE
  5
20A
102
{ACAD_REACTORS
330
727
330
7D0
102
}
330
20
100
AcDbEntity
  8
STEMPEL
100
AcDbLine
 10
27.27825070053577
 20
79.95329374083453
 30
0.0
 11
29.96417669716472
 21
79.95329374083451
 31
0.0
  0
POINT
  5
20D
330
20
100
AcDbEntity
  8
DEFPOINTS
  6
ByBlock
 62
     0
100
AcDbPoint
 10
27.27825070053577
 20
79.95329374083453
 30
0.0
  0
LINE
  5
20E
330
20
100
AcDbEntity
  8
HILF
100
AcDbLine
 10
28.23331841389506
 20
81.68685335161105
 30
0.0
 11
28.24523716342397
 21
81.62816342478821
 31
0.0
  0
ARC
  5
211
102
{ACAD_REACTORS
330
7D0
102
}
330
20
100
AcDbEntity
  8
STEMPEL
100
AcDbCircle
 10
29.96417669716472
 20
79.45329374083453
 30
0.0
 40
0.5
100
AcDbArc
 50
340.0
 51
89.99999999999976
  0
ARC
  5
215
102
{ACAD_REACTORS
330
7D0
102
}
330
20
100
AcDbEntity
  8
STEMPEL
100
AcDbCircle
 10
31.03102745026834
 20
83.45329374083453
 30
0.0
 40
1.5
100
AcDbArc
 50
90.0
 51
150.0
  0
POINT
  5
216
330
20
100
AcDbEntity
  8
DEFPOINTS
  6
ByBlock
 62
     0
100
AcDbPoint
 10
30.23879493152624
 20
84.72701570274287
 30
0.0
  0
LINE
  5
21A
102
{ACAD_REACTORS
330
7D0
102
}
330
20
100
AcDbEntity
  8
STEMPEL
100
AcDbLine
 10
38.27825070053577
 20
84.95329374083453
 30
0.0
 11
44.27825070053577
 21
78.95329374083454
 31
0.0
  0
DIMENSION
  5
21C
330
20
100
AcDbEntity
  8
BEM
100
AcDbDimension
  2
*D6
 10
23.55102443075725
 20
79.95329374083453
 30
0.0
 11
21.92602443075724
 21
73.45329374083454
 31
0.0
 70
    32
 71
     5
 42
12.99999999999998
  3
Standard
100
AcDbAlignedDimension
 13
44.27825070053576
 23
66.95329374083454
 33
0.0
 14
27.27825070053576
 24
79.95329374083453
 34
0.0
 50
90.0
100
AcDbRotatedDimension
1001
ACAD
1000
DSTYLE
1002
{
1070
    40
1040
0.5
1070
    41
1040
3.5
1070
    42
1040
1.0
1070
    43
1040
7.0
1070
    44
1040
1.0
1070
    47
1040
0.2
1070
    48
1040
0.2
1070
    73
1070
     0
1070
    74
1070
     0
1070
    77
1070
     1
1070
    78
1070
     8
1070
    79
1070
     2
1070
   140
1040
3.5
1070
   141
1040
1.5
1070
   146
1040
0.5
1070
   147
1040
1.5
1070
   172
1070
     1
1070
   178
1070
     1
1070
   179
1070
     2
1070
   271
1070
     2
1070
   272
1070
     2
1070
   284
1070
     8
1070
   285
1070
     8
1070
   286
1070
     8
1070
   340
1005
3A
1002
}
  0
DIMENSION
  5
21D
330
20
100
AcDbEntity
  8
BEM
100
AcDbDimension
  2
*D5
 10
18.99035748451282
 20
84.95329374083452
 30
0.0
 11
17.36535748451281
 21
75.95329374083454
 31
0.0
 70
    32
 71
     5
 42
17.99999999999997
  3
Standard
100
AcDbAlignedDimension
 13
44.27825070053576
 23
66.95329374083454
 33
0.0
 14
31.03102745026834
 24
84.95329374083452
 34
0.0
 50
90.0
100
AcDbRotatedDimension
1001
ACAD
1000
DSTYLE
1002
{
1070
    40
1040
0.5
1070
    41
1040
3.5
1070
    42
1040
1.0
1070
    43
1040
7.0
1070
    44
1040
1.0
1070
    47
1040
0.2
1070
    48
1040
0.2
1070
    73
1070
     0
1070
    74
1070
     0
1070
    77
1070
     1
1070
    78
1070
     8
1070
    79
1070
     2
1070
   140
1040
3.5
1070
   141
1040
1.5
1070
   146
1040
0.5
1070
   147
1040
1.5
1070
   172
1070
     1
1070
   178
1070
     1
1070
   179
1070
     2
1070
   271
1070
     2
1070
   272
1070
     2
1070
   284
1070
     8
1070
   285
1070
     8
1070
   286
1070
     8
1070
   340
1005
3A
1002
}
  0
LINE
  5
21F
102
{ACAD_REACTORS
330
7D0
102
}
330
20
100
AcDbEntity
  8
STEMPEL
100
AcDbLine
 10
88.12247839351385
 20
79.28228366917167
 30
0.0
 11
89.52825070053577
 21
75.41995599873439
 31
0.0
  0
LINE
  5
220
102
{ACAD_REACTORS
330
7D0
102
}
330
20
100
AcDbEntity
  8
STEMPEL
100
AcDbLine
 10
74.27825070053578
 20
78.95329374083454
 30
0.0
 11
74.27825070053578
 21
76.95329374083451
 31
0.0
  0
LINE
  5
221
330
20
100
AcDbEntity
  8
MITTEL
100
AcDbLine
 10
59.27825070053577
 20
89.95329374083452
 30
0.0
 11
59.27825070053577
 21
61.95329374083454
 31
0.0
  0
LINE
  5
223
330
20
100
AcDbEntity
  8
HILF
100
AcDbLine
 10
105.0
 20
-0.0000000000000284
 30
0.0
 11
105.0
 21
148.5
 31
0.0
  0
LINE
  5
224
330
20
100
AcDbEntity
  8
STEMPEL
100
AcDbLine
 10
102.5
 20
27.50000000000002
 30
0.0
 11
102.5
 21
146.0
 31
0.0
  0
TEXT
  5
226
330
20
100
AcDbEntity
  8
TEXT
100
AcDbText
 10
84.04468873940851
 20
25.57830086342841
 30
0.0
 40
1.25
  1
Zeichnungs Nr.
 41
0.8
  7
GREEKS
100
AcDbText
  0
TEXT
  5
227
330
20
100
AcDbEntity
  8
TEXT
100
AcDbText
 10
84.18096540742482
 20
18.29529559274992
 30
0.0
 40
1.25
  1
Ersatz für:
 41
0.8
  7
GREEKS
100
AcDbText
  0
TEXT
  5
228
330
20
100
AcDbEntity
  8
TEXT
100
AcDbText
 10
84.31002153742515
 20
13.0185404446965
 30
0.0
 40
1.25
  1
ersetzt durch:
 41
0.8
  7
GREEKS
100
AcDbText
  0
TEXT
  5
229
330
20
100
AcDbEntity
  8
TEXT
 62
     1
100
AcDbText
 10
86.55630835482137
 20
22.0372535722849
 30
0.0
 40
1.75
  1
00913050W
 41
0.8
  7
GREEKS
 72
     1
 11
92.42297502148804
 21
22.0372535722849
 31
0.0
100
AcDbText
  0
LINE
  5
22B
102
{ACAD_REACTORS
330
7D0
102
}
330
20
100
AcDbEntity
  8
STEMPEL
100
AcDbLine
 10
91.27825070053578
 20
67.95329374083454
 30
0.0
 11
75.27825070053578
 21
67.95329374083454
 31
0.0
  0
LINE
  5
22C
330
20
100
AcDbEntity
  8
HILF
100
AcDbLine
 10
55.87274248224712
 20
3.723495645070784
 30
0.0
 11
101.2147209831682
 21
3.723495645070784
 31
0.0
  0
LINE
  5
22D
330
20
100
AcDbEntity
  8
HILF
100
AcDbLine
 10
84.18096540742482
 20
20.94495909238957
 30
0.0
 11
101.2147209831682
 21
20.94495909238957
 31
0.0
  0
LINE
  5
22E
330
20
100
AcDbEntity
  8
VOLL
100
AcDbLine
 10
83.0
 20
15.0
 30
0.0
 11
102.5
 21
15.0
 31
0.0
  0
TEXT
  5
22F
330
20
100
AcDbEntity
  8
TEXT
100
AcDbText
 10
56.28240977813288
 20
12.91002985760539
 30
0.0
 40
1.25
  1
EDV-Art.Nr. 00913.050X
 41
0.8
  7
GREEKS
100
AcDbText
  0
TEXT
  5
230
330
20
100
AcDbEntity
  8
TEXT
 62
     1
100
AcDbText
 10
56.72339327643505
 20
21.85437197313445
 30
0.0
 40
1.75
  1
Dichtelement DN 50
 41
0.8
  7
GREEKS
100
AcDbText
  0
LINE
  5
231
330
20
100
AcDbEntity
  8
HILF
100
AcDbLine
 10
56.19342002742368
 20
12.49999999999999
 30
0.0
 11
81.20884791390775
 21
12.49999999999999
 31
0.0
  0
LINE
  5
232
330
20
100
AcDbEntity
  8
HILF
100
AcDbLine
 10
56.19342002742368
 20
14.99999999999999
 30
0.0
 11
81.20884791390775
 21
14.99999999999999
 31
0.0
  0
LINE
  5
233
330
20
100
AcDbEntity
  8
HILF
100
AcDbLine
 10
56.19342002742368
 20
17.49999999999998
 30
0.0
 11
81.20884791390775
 21
17.49999999999998
 31
0.0
  0
LINE
  5
234
330
20
100
AcDbEntity
  8
HILF
100
AcDbLine
 10
56.19342002742368
 20
21.00939561891035
 30
0.0
 11
81.20884791390777
 21
21.00939561891035
 31
0.0
  0
TEXT
  5
235
330
20
100
AcDbEntity
  8
TEXT
100
AcDbText
 10
56.18555959778399
 20
7.711401425482641
 30
0.0
 40
1.25
  1
Bauvorhaben
 41
0.8
  7
GREEKS
100
AcDbText
  0
TEXT
  5
236
330
20
100
AcDbEntity
  8
TEXT
100
AcDbText
 10
56.24593753944567
 20
10.65743538255658
 30
0.0
 40
0.9
  1
00913050W.DWG
 41
0.8
  7
GREEKS
100
AcDbText
  0
TEXT
  5
237
330
20
100
AcDbEntity
  8
TEXT
100
AcDbText
 10
56.28240977813288
 20
17.91002985760538
 30
0.0
 40
1.25
  1
für Ms-Rohr %%C32
 41
0.8
  7
GREEKS
100
AcDbText
  0
TEXT
  5
238
330
20
100
AcDbEntity
  8
TEXT
100
AcDbText
 10
56.21948509522525
 20
25.63723320029449
 30
0.0
 40
1.25
  1
Benennung
 41
0.8
  7
GREEKS
100
AcDbText
  0
LINE
  5
239
330
20
100
AcDbEntity
  8
STEMPEL
100
AcDbLine
 10
83.0
 20
27.49999999999995
 30
0.0
 11
83.0
 21
10.0
 31
0.0
  0
LINE
  5
246
102
{ACAD_REACTORS
330
7D0
102
}
330
20
100
AcDbEntity
  8
STEMPEL
100
AcDbLine
 10
87.27825070053578
 20
69.95329374083453
 30
0.0
 11
77.27825070053576
 21
69.95329374083453
 31
0.0
  0
ARC
  5
249
102
{ACAD_REACTORS
330
7D0
102
}
330
20
100
AcDbEntity
  8
STEMPEL
100
AcDbCircle
 10
74.27825070053578
 20
74.95329374083453
 30
0.0
 40
2.0
100
AcDbArc
 50
0.0000000000000254
 51
90.0
  0
LINE
  5
24A
102
{ACAD_REACTORS
330
7D0
102
}
330
20
100
AcDbEntity
  8
STEMPEL
100
AcDbLine
 10
74.27825070053578
 20
66.95329374083454
 30
0.0
 11
77.27825070053576
 21
69.95329374083453
 31
0.0
  0
LINE
  5
24B
102
{ACAD_REACTORS
330
748
330
7D0
102
}
330
20
100
AcDbEntity
  8
STEMPEL
100
AcDbLine
 10
72.27825070053578
 20
66.95329374083454
 30
0.0
 11
76.27825070053578
 21
73.88149697111003
 31
0.0
  0
POINT
  5
24C
330
20
100
AcDbEntity
  8
DEFPOINTS
  6
ByBlock
 62
     0
100
AcDbPoint
 10
72.27825070053578
 20
66.95329374083454
 30
0.0
  0
LINE
  5
24D
102
{ACAD_REACTORS
330
7D0
102
}
330
20
100
AcDbEntity
  8
STEMPEL
100
AcDbLine
 10
76.27825070053578
 20
74.95329374083453
 30
0.0
 11
76.27825070053578
 21
73.88149697111003
 31
0.0
  0
LINE
  5
24E
102
{ACAD_REACTORS
330
7D0
102
}
330
20
100
AcDbEntity
  8
STEMPEL
100
AcDbLine
 10
89.27825070053577
 20
67.95329374083454
 30
0.0
 11
87.27825070053578
 21
69.95329374083453
 31
0.0
  0
LINE
  5
24F
330
20
100
AcDbEntity
  8
STEMPEL
100
AcDbLine
 10
102.5
 20
27.50000000000002
 30
0.0
 11
102.5
 21
2.5
 31
0.0
  0
LINE
  5
253
102
{ACAD_REACTORS
330
769
330
7D0
102
}
330
20
100
AcDbEntity
  8
STEMPEL
100
AcDbLine
 10
91.27825070053578
 20
67.95329374083454
 30
0.0
 11
89.52825070053577
 21
71.70618085172626
 31
0.0
  0
POINT
  5
254
330
20
100
AcDbEntity
  8
DEFPOINTS
  6
ByBlock
 62
     0
100
AcDbPoint
 10
91.27825070053578
 20
67.95329374083454
 30
0.0
  0
LINE
  5
255
102
{ACAD_REACTORS
330
7D0
102
}
330
20
100
AcDbEntity
  8
STEMPEL
100
AcDbLine
 10
90.12825070053578
 20
73.95329374083454
 30
0.0
 11
89.52825070053577
 21
74.55329374083453
 31
0.0
  0
LINE
  5
256
102
{ACAD_REACTORS
330
7D0
102
}
330
20
100
AcDbEntity
  8
STEMPEL
100
AcDbLine
 10
89.52825070053577
 20
72.35329374083453
 30
0.0
 11
89.52825070053577
 21
71.70618085172626
 31
0.0
  0
LINE
  5
257
102
{ACAD_REACTORS
330
7D0
102
}
330
20
100
AcDbEntity
  8
STEMPEL
100
AcDbLine
 10
90.12825070053578
 20
73.95329374083454
 30
0.0
 11
90.12825070053578
 21
72.95329374083452
 31
0.0
  0
LINE
  5
258
102
{ACAD_REACTORS
330
7D0
102
}
330
20
100
AcDbEntity
  8
STEMPEL
100
AcDbLine
 10
90.12825070053578
 20
72.95329374083452
 30
0.0
 11
89.52825070053577
 21
72.35329374083453
 31
0.0
  0
POINT
  5
259
330
20
100
AcDbEntity
  8
DEFPOINTS
  6
ByBlock
 62
     0
100
AcDbPoint
 10
89.52825070053577
 20
75.41995599873439
 30
0.0
  0
LINE
  5
25A
102
{ACAD_REACTORS
330
7D0
102
}
330
20
100
AcDbEntity
  8
STEMPEL
100
AcDbLine
 10
89.52825070053577
 20
75.41995599873439
 30
0.0
 11
89.52825070053577
 21
74.55329374083453
 31
0.0
  0
LINE
  5
25E
102
{ACAD_REACTORS
330
7D0
102
}
330
20
100
AcDbEntity
  8
STEMPEL
100
AcDbLine
 10
91.27825070053578
 20
79.95329374083453
 30
0.0
 11
88.59232470390683
 21
79.95329374083453
 31
0.0
  0
LINE
  5
25F
102
{ACAD_REACTORS
330
727
330
7D0
102
}
330
20
100
AcDbEntity
  8
STEMPEL
100
AcDbLine
 10
91.27825070053578
 20
79.95329374083453
 30
0.0
 11
88.82451205647987
 21
84.20329374083452
 31
0.0
  0
LINE
  5
260
102
{ACAD_REACTORS
330
7D0
102
}
330
20
100
AcDbEntity
  8
STEMPEL
100
AcDbLine
 10
31.03102745026834
 20
84.95329374083455
 30
0.0
 11
87.5254739508032
 21
84.95329374083452
 31
0.0
  0
LINE
  5
267
102
{ACAD_REACTORS
330
7D0
102
}
330
20
100
AcDbEntity
  8
STEMPEL
100
AcDbLine
 10
80.27825070053578
 20
84.95329374083453
 30
0.0
 11
74.27825070053578
 21
78.95329374083454
 31
0.0
  0
ARC
  5
26A
102
{ACAD_REACTORS
330
7D0
102
}
330
20
100
AcDbEntity
  8
STEMPEL
100
AcDbCircle
 10
88.59232470390683
 20
79.45329374083453
 30
0.0
 40
0.5
100
AcDbArc
 50
90.00000000000021
 51
200.0
  0
ARC
  5
26D
102
{ACAD_REACTORS
330
7D0
102
}
330
20
100
AcDbEntity
  8
STEMPEL
100
AcDbCircle
 10
87.5254739508032
 20
83.45329374083453
 30
0.0
 40
1.5
100
AcDbArc
 50
30.00000000000012
 51
90.0
  0
POINT
  5
275
330
20
100
AcDbEntity
  8
DEFPOINTS
  6
ByBlock
 62
     0
100
AcDbPoint
 10
91.27825070053578
 20
79.95329374083453
 30
0.0
  0
TEXT
  5
27C
330
20
100
AcDbEntity
  8
TEXT
 62
     1
100
AcDbText
 10
36.09431417797767
 20
30.90613498936558
 30
0.0
 40
1.75
  1
Farbe: schwarz
 41
0.8
  7
GREEKS
100
AcDbText
  0
TEXT
  5
280
330
20
100
AcDbEntity
  8
BEM
100
AcDbText
 10
104.1452885359359
 20
3.037012038345757
 30
0.0
 40
1.0
  1
Diese Zeichnung ist urheberrechtlich geschützt und bleibt unser Eigentum. Sie darf weder ganz noch teilweise vervielfältigt und nicht an Dritte weitergegeben werden.
 50
90.0
 41
0.8
  7
GREEKS
100
AcDbText
  0
LINE
  5
594
330
20
100
AcDbEntity
  8
TEXT
 62
     1
100
AcDbLine
 10
84.67058911153635
 20
105.6299472064116
 30
0.0
 11
84.67058911153635
 21
103.545746766399
 31
0.0
  0
LINE
  5
595
330
20
100
AcDbEntity
  8
TEXT
 62
     1
100
AcDbLine
 10
86.67058911153636
 20
105.6299472064116
 30
0.0
 11
86.67058911153636
 21
103.545746766399
 31
0.0
  0
LINE
  5
596
330
20
100
AcDbEntity
  8
TEXT
 62
     1
100
AcDbLine
 10
88.67058911153636
 20
105.6299472064116
 30
0.0
 11
88.67058911153636
 21
103.545746766399
 31
0.0
  0
LINE
  5
597
330
20
100
AcDbEntity
  8
TEXT
 62
     1
100
AcDbLine
 10
90.67058911153635
 20
105.6299472064116
 30
0.0
 11
90.67058911153635
 21
103.545746766399
 31
0.0
  0
LINE
  5
598
330
20
100
AcDbEntity
  8
TEXT
 62
     1
100
AcDbLine
 10
92.67058911153636
 20
105.6299472064116
 30
0.0
 11
92.67058911153636
 21
103.545746766399
 31
0.0
  0
LINE
  5
599
330
20
100
AcDbEntity
  8
TEXT
 62
     1
100
AcDbLine
 10
94.67058911153635
 20
105.6299472064116
 30
0.0
 11
94.67058911153635
 21
103.545746766399
 31
0.0
  0
LINE
  5
59A
330
20
100
AcDbEntity
  8
TEXT
 62
     1
100
AcDbLine
 10
96.67058911153638
 20
105.6299472064116
 30
0.0
 11
96.67058911153638
 21
103.545746766399
 31
0.0
  0
LINE
  5
59B
330
20
100
AcDbEntity
  8
TEXT
 62
     1
100
AcDbLine
 10
98.67058911153639
 20
105.6299472064116
 30
0.0
 11
98.67058911153639
 21
103.545746766399
 31
0.0
  0
LINE
  5
59C
330
20
100
AcDbEntity
  8
TEXT
 62
     1
100
AcDbLine
 10
84.67058911153635
 20
104.5878469864053
 30
0.0
 11
98.67058911153639
 21
104.5878469864053
 31
0.0
  0
TEXT
  5
59D
330
20
100
AcDbEntity
  8
TEXT
 62
     2
100
AcDbText
 10
84.43690042972624
 20
110.0862500807932
 30
0.0
 40
1.0
  1
Raster für weitere Jahre
 41
0.8
  7
GREEKS
100
AcDbText
  0
LINE
  5
59E
330
20
100
AcDbEntity
  8
TEXT
 62
     2
100
AcDbLine
 10
85.70980349917194
 20
108.0786352961007
 30
0.0
 11
90.75772437568124
 21
108.0786352961007
 31
0.0
  0
LINE
  5
59F
330
20
100
AcDbEntity
  8
TEXT
 62
     2
100
AcDbLine
 10
92.68196813083857
 20
108.0786352961007
 30
0.0
 11
97.64133558245841
 21
108.0786352961007
 31
0.0
  0
ARC
  5
5A0
330
20
100
AcDbEntity
  8
TEXT
 62
     2
100
AcDbCircle
 10
85.68428825629379
 20
107.1422421736474
 30
0.0
 40
0.9367406831134985
100
AcDbArc
 50
88.43916615436064
 51
180.9693128199328
  0
ARC
  5
5A1
330
20
100
AcDbEntity
  8
TEXT
 62
     2
100
AcDbCircle
 10
97.6668508253366
 20
107.1422421736474
 30
0.0
 40
0.9367406831134985
100
AcDbArc
 50
359.0306871800672
 51
91.56083384564261
  0
ARC
  5
5A2
330
20
100
AcDbEntity
  8
TEXT
 62
     2
100
AcDbCircle
 10
92.65645288796028
 20
109.015028418554
 30
0.0
 40
0.9367406831134985
100
AcDbArc
 50
179.0306871800672
 51
271.5608338456491
  0
ARC
  5
5A3
330
20
100
AcDbEntity
  8
TEXT
 62
     2
100
AcDbCircle
 10
90.78323961855934
 20
109.015028418554
 30
0.0
 40
0.9367406831134985
100
AcDbArc
 50
268.4391661543622
 51
0.9693128199328235
  0
TEXT
  5
5A4
330
20
100
AcDbEntity
  8
TEXT
 62
     1
100
AcDbText
 10
14.32849894918201
 20
103.7024316964278
 30
0.0
 40
1.75
  1
Gravur: EN 1123 LORO DN50/32 Ms TG Nest.Nr. WC Jahreszahl
 41
0.8
  7
GREEKS
100
AcDbText
  0
LINE
  5
5A5
330
20
100
AcDbEntity
  8
TEXT
 62
     2
100
AcDbLine
 10
21.1851185194583
 20
102.7402286732411
 30
0.0
 11
14.32849894918201
 21
102.7402286732411
 31
0.0
  0
DIMENSION
  5
710
102
{ACAD_XDICTIONARY
360
71D
102
}
102
{ACAD_REACTORS
330
727
102
}
330
20
100
AcDbEntity
  8
BEM
100
AcDbDimension
  2
*D2
 10
91.27825070053578
 20
94.44304426695969
 30
0.0
 11
59.27825070053578
 21
96.06804426695971
 31
0.0
 70
    32
  1
%%c<>
 71
     5
 42
64.0
  3
Standard
100
AcDbAlignedDimension
 13
27.27825070053577
 23
79.95329374083453
 33
0.0
 14
91.27825070053578
 24
79.95329374083453
 34
0.0
100
AcDbRotatedDimension
1001
ACAD
1000
DSTYLE
1002
{
1070
    40
1040
0.5
1070
    41
1040
3.5
1070
    42
1040
1.0
1070
    43
1040
7.0
1070
    44
1040
1.0
1070
    47
1040
0.2
1070
    48
1040
0.2
1070
    73
1070
     0
1070
    74
1070
     0
1070
    77
1070
     1
1070
    78
1070
     8
1070
    79
1070
     2
1070
   140
1040
3.5
1070
   141
1040
1.5
1070
   146
1040
0.5
1070
   147
1040
1.5
1070
   172
1070
     1
1070
   178
1070
     1
1070
   179
1070
     2
1070
   271
1070
     2
1070
   272
1070
     2
1070
   284
1070
     8
1070
   285
1070
     8
1070
   286
1070
     8
1070
   340
1005
3A
1002
}
  0
DIMENSION
  5
731
102
{ACAD_XDICTIONARY
360
73E
102
}
102
{ACAD_REACTORS
330
748
102
}
330
20
100
AcDbEntity
  8
BEM
100
AcDbDimension
  2
*D3
 10
72.27825070053578
 20
58.11545533616135
 30
0.0
 11
59.27825070053578
 21
59.74045533616134
 31
0.0
 70
    32
  1
%%c<>
 71
     5
 42
26.00000000000001
  3
Standard
100
AcDbAlignedDimension
 13
46.27825070053577
 23
66.95329374083454
 33
0.0
 14
72.27825070053578
 24
66.95329374083454
 34
0.0
100
AcDbRotatedDimension
1001
ACAD
1000
DSTYLE
1002
{
1070
    40
1040
0.5
1070
    41
1040
3.5
1070
    42
1040
1.0
1070
    43
1040
7.0
1070
    44
1040
1.0
1070
    47
1040
0.2
1070
    48
1040
0.2
1070
    73
1070
     0
1070
    74
1070
     0
1070
    77
1070
     1
1070
    78
1070
     8
1070
    79
1070
     2
1070
   140
1040
3.5
1070
   141
1040
1.5
1070
   146
1040
0.5
1070
   147
1040
1.5
1070
   172
1070
     1
1070
   178
1070
     1
1070
   179
1070
     2
1070
   271
1070
     2
1070
   272
1070
     2
1070
   284
1070
     8
1070
   285
1070
     8
1070
   286
1070
     8
1070
   340
1005
3A
1002
}
  0
DIMENSION
  5
752
102
{ACAD_XDICTIONARY
360
75F
102
}
102
{ACAD_REACTORS
330
769
102
}
330
20
100
AcDbEntity
  8
BEM
100
AcDbDimension
  2
*D4
 10
91.27825070053578
 20
54.00251649774379
 30
0.0
 11
59.27825070053578
 21
55.62751649774378
 31
0.0
 70
    32
  1
%%c<>
 71
     5
 42
64.0
  3
Standard
100
AcDbAlignedDimension
 13
27.27825070053577
 23
67.95329374083454
 33
0.0
 14
91.27825070053578
 24
67.95329374083454
 34
0.0
100
AcDbRotatedDimension
1001
ACAD
1000
DSTYLE
1002
{
1070
    40
1040
0.5
1070
    41
1040
3.5
1070
    42
1040
1.0
1070
    43
1040
7.0
1070
    44
1040
1.0
1070
    47
1040
0.2
1070
    48
1040
0.2
1070
    73
1070
     0
1070
    74
1070
     0
1070
    77
1070
     1
1070
    78
1070
     8
1070
    79
1070
     2
1070
   140
1040
3.5
1070
   141
1040
1.5
1070
   146
1040
0.5
1070
   147
1040
1.5
1070
   172
1070
     1
1070
   178
1070
     1
1070
   179
1070
     2
1070
   271
1070
     2
1070
   272
1070
     2
1070
   284
1070
     8
1070
   285
1070
     8
1070
   286
1070
     8
1070
   340
1005
3A
1002
}
  0
HATCH
  5
7D0
330
20
100
AcDbEntity
  8
SCHRAFF
100
AcDbHatch
 10
0.0
 20
0.0
 30
0.0
210
0.0
220
0.0
230
1.0
  2
NET
 70
     0
 71
     1
 91
        2
 92
        7
 72
     1
 73
     1
 93
       22
 10
74.27825070053576
 20
78.95329374083456
 42
0.0
 10
74.27825070053578
 20
76.95329374083451
 42
-0.4142135623730951
 10
76.27825070053578
 20
74.95329374083451
 42
0.0
 10
76.27825070053578
 20
73.88149697111003
 42
0.0
 10
72.27825070053578
 20
66.95329374083454
 42
0.0
 10
74.27825070053578
 20
66.95329374083454
 42
0.0
 10
77.27825070053575
 20
69.95329374083453
 42
0.0
 10
87.27825070053578
 20
69.95329374083453
 42
0.0
 10
89.27825070053577
 20
67.95329374083454
 42
0.0
 10
91.27825070053578
 20
67.95329374083454
 42
0.0
 10
89.52825070053579
 20
71.70618085172627
 42
0.0
 10
89.52825070053576
 20
72.35329374083452
 42
0.0
 10
90.12825070053578
 20
72.95329374083452
 42
0.0
 10
90.12825070053576
 20
73.95329374083451
 42
0.0
 10
89.52825070053577
 20
74.55329374083458
 42
0.0
 10
89.52825070053579
 20
75.41995599873437
 42
0.0
 10
88.12247839351385
 20
79.28228366917167
 42
-0.5205670505517669
 10
88.59232470390683
 20
79.95329374083453
 42
0.0
 10
91.27825070053575
 20
79.95329374083453
 42
0.0
 10
88.82451205647987
 20
84.20329374083452
 42
0.2679491924311221
 10
87.5254739508032
 20
84.95329374083452
 42
0.0
 10
80.27825070053578
 20
84.95329374083455
 42
0.0
 97
       22
330
26A
330
25E
330
25F
330
26D
330
260
330
267
330
220
330
249
330
24D
330
24B
330
1AE
330
24A
330
246
330
24E
330
22B
330
253
330
256
330
258
330
257
330
255
330
25A
330
21F
 92
        7
 72
     1
 73
     1
 93
       22
 10
38.27825070053574
 20
84.95329374083455
 42
0.0
 10
31.03102745026834
 20
84.95329374083455
 42
0.267949192431124
 10
29.73198934459168
 20
84.20329374083454
 42
0.0
 10
27.27825070053577
 20
79.95329374083453
 42
0.0
 10
29.96417669716472
 20
79.95329374083451
 42
-0.5205670505517449
 10
30.43402300755767
 20
79.28228366917167
 42
0.0
 10
29.02825070053577
 20
75.41995599873438
 42
0.0
 10
29.02825070053577
 20
74.55329374083453
 42
0.0
 10
28.42825070053577
 20
73.95329374083454
 42
0.0
 10
28.42825070053577
 20
72.95329374083452
 42
0.0
 10
29.02825070053577
 20
72.35329374083455
 42
0.0
 10
29.02825070053577
 20
71.70618085172626
 42
0.0
 10
27.27825070053577
 20
67.95329374083454
 42
0.0
 10
29.27825070053577
 20
67.95329374083454
 42
0.0
 10
31.27825070053577
 20
69.95329374083453
 42
0.0
 10
41.27825070053577
 20
69.95329374083455
 42
0.0
 10
44.27825070053574
 20
66.95329374083453
 42
0.0
 10
46.27825070053578
 20
66.95329374083453
 42
0.0
 10
42.27825070053576
 20
73.88149697111003
 42
0.0
 10
42.27825070053577
 20
74.95329374083453
 42
-0.4142135623730907
 10
44.27825070053577
 20
76.95329374083451
 42
0.0
 10
44.27825070053577
 20
78.95329374083451
 42
0.0
 97
       22
330
21A
330
260
330
215
330
209
330
20A
330
211
330
1BB
330
1F6
330
1F1
330
1F4
330
1F3
330
1F2
330
1EF
330
1EC
330
1F7
330
1EB
330
1FB
330
1AE
330
1FD
330
200
330
1FC
330
1BC
 75
     0
 76
     1
 52
45.0
 41
15.0
 77
     0
 78
     2
 53
45.0
 43
0.0
 44
0.0
 45
-1.325825214724776
 46
1.325825214724776
 79
     0
 53
135.0
 43
0.0
 44
0.0
 45
-1.325825214724776
 46
-1.325825214724776
 79
     0
 47
0.1468906742423126
 98
        2
 10
77.70719931064753
 20
78.97393109612067
 10
38.16975190676851
 20
78.82704048506173
  0
ENDSEC
  0
SECTION
  2
OBJECTS
  0
DICTIONARY
  5
C
330
0
100
AcDbDictionary
281
     1
  3
ACAD_COLOR
350
1B
  3
ACAD_GROUP
350
D
  3
ACAD_LAYOUT
350
19
  3
ACAD_MATERIAL
350
1A
  3
ACAD_MLINESTYLE
350
16
  3
ACAD_PLOTSETTINGS
350
18
  3
ACAD_PLOTSTYLENAME
350
E
  3
AcDbVariableDictionary
350
2DD
  0
DICTIONARY
  5
71D
330
710
100
AcDbDictionary
280
     1
281
     1
  3
ACAD_DIMASSOC
360
727
  0
DICTIONARY
  5
73E
330
731
100
AcDbDictionary
280
     1
281
     1
  3
ACAD_DIMASSOC
360
748
  0
DICTIONARY
  5
75F
330
752
100
AcDbDictionary
280
     1
281
     1
  3
ACAD_DIMASSOC
360
769
  0
DICTIONARY
  5
1B
102
{ACAD_REACTORS
330
C
102
}
330
C
100
AcDbDictionary
281
     1
  0
DICTIONARY
  5
D
102
{ACAD_REACTORS
330
C
102
}
330
C
100
AcDbDictionary
281
     1
  0
DICTIONARY
  5
19
102
{ACAD_REACTORS
330
C
102
}
330
C
100
AcDbDictionary
281
     1
  3
Layout1
350
1F
  3
Model
350
23
  0
DICTIONARY
  5
1A
102
{ACAD_REACTORS
330
C
102
}
330
C
100
AcDbDictionary
281
     1
  0
DICTIONARY
  5
16
102
{ACAD_REACTORS
330
C
102
}
330
C
100
AcDbDictionary
281
     1
  3
Standard
350
17
  0
DICTIONARY
  5
18
102
{ACAD_REACTORS
330
C
102
}
330
C
100
AcDbDictionary
281
     1
  0
ACDBDICTIONARYWDFLT
  5
E
102
{ACAD_REACTORS
330
C
102
}
330
C
100
AcDbDictionary
281
     1
  3
Normal
350
F
100
AcDbDictionaryWithDefault
340
F
  0
DICTIONARY
  5
2DD
102
{ACAD_REACTORS
330
C
102
}
330
C
100
AcDbDictionary
281
     1
  3
DIMASSOC
350
2DF
  3
HIDETEXT
350
2DE
  3
PROJECTNAME
350
2E0
  0
DIMASSOC
  5
727
102
{ACAD_REACTORS
330
71D
102
}
330
71D
100
AcDbDimAssoc
330
710
 90
        3
 70
     0
 71
     0
  1
AcDbOsnapPointRef
 72
    13
331
20A
 73
     2
 91
        0
 40
0.0
 10
0.0
 20
0.0
 30
2.000000000000000E+50
 75
     0
  1
AcDbOsnapPointRef
 72
    13
331
25F
 73
     2
 91
        0
 40
0.0
 10
0.0
 20
0.0
 30
2.000000000000000E+50
 75
     0
  0
DIMASSOC
  5
748
102
{ACAD_REACTORS
330
73E
102
}
330
73E
100
AcDbDimAssoc
330
731
 90
        3
 70
     0
 71
     0
  1
AcDbOsnapPointRef
 72
     6
331
1FD
 73
     2
 91
        0
 40
0.0
 10
0.0
 20
0.0
 30
0.0
332
1AE
 74
     2
 92
        0
 75
     0
  1
AcDbOsnapPointRef
 72
     6
331
24B
 73
     2
 91
        0
 40
0.0
 10
0.0
 20
0.0
 30
0.0
332
1AE
 74
     2
 92
        0
 75
     0
  0
DIMASSOC
  5
769
102
{ACAD_REACTORS
330
75F
102
}
330
75F
100
AcDbDimAssoc
330
752
 90
        3
 70
     0
 71
     0
  1
AcDbOsnapPointRef
 72
    13
331
1EF
 73
     2
 91
        0
 40
0.0
 10
0.0
 20
0.0
 30
2.000000000000000E+50
 75
     0
  1
AcDbOsnapPointRef
 72
    13
331
253
 73
     2
 91
        0
 40
0.0
 10
0.0
 20
0.0
 30
2.000000000000000E+50
 75
     0
  0
LAYOUT
  5
1F
102
{ACAD_REACTORS
330
19
102
}
330
19
100
AcDbPlotSettings
  1

  2
RICOH Aficio 2027 PCL 6
  4

  6

 40
0.0
 41
0.0
 42
0.0
 43
0.0
 44
0.0
 45
0.0
 46
0.0
 47
0.0
 48
0.0
 49
0.0
140
0.0
141
0.0
142
1.0
143
1.0
 70
   688
 72
     0
 73
     0
 74
     5
  7
monochrome1.ctb
 75
    16
147
1.0
 76
     0
 77
     2
 78
   300
148
0.0
149
0.0
100
AcDbLayout
  1
Layout1
 70
     0
 71
     1
 10
0.0
 20
0.0
 11
12.0
 21
9.0
 12
0.0
 22
0.0
 32
0.0
 14
1.000000000000000E+20
 24
1.000000000000000E+20
 34
1.000000000000000E+20
 15
-1.000000000000000E+20
 25
-1.000000000000000E+20
 35
-1.000000000000000E+20
146
0.0
 13
0.0
 23
0.0
 33
0.0
 16
1.0
 26
0.0
 36
0.0
 17
0.0
 27
1.0
 37
0.0
 76
     0
330
1C
  0
LAYOUT
  5
23
102
{ACAD_REACTORS
330
19
102
}
330
19
100
AcDbPlotSettings
  1

  2
none_device
  4
Letter_(8.50_x_11.00_Inches)
  6

 40
6.349999904632568
 41
6.349999904632568
 42
6.350006103515625
 43
6.350006103515625
 44
215.8999938964844
 45
279.3999938964844
 46
0.0
 47
0.0
 48
0.0
 49
0.0
140
0.0
141
0.0
142
1.0
143
1.0
 70
 11952
 72
     0
 73
     1
 74
     0
  7
monochrome1.ctb
 75
     0
147
1.0
 76
     0
 77
     2
 78
   300
148
567.9118165486016
149
15.46181140335091
100
AcDbLayout
  1
Model
 70
     1
 71
     0
 10
0.0
 20
0.0
 11
12.0
 21
9.0
 12
0.0
 22
0.0
 32
0.0
 14
0.0
 24
0.0
 34
0.0
 15
0.0
 25
0.0
 35
0.0
146
0.0
 13
0.0
 23
0.0
 33
0.0
 16
1.0
 26
0.0
 36
0.0
 17
0.0
 27
1.0
 37
0.0
 76
     0
330
20
  0
MLINESTYLE
  5
17
102
{ACAD_REACTORS
330
16
102
}
330
16
100
AcDbMlineStyle
  2
STANDARD
 70
     0
  3

 62
   256
 51
90.0
 52
90.0
 71
     2
 49
0.5
 62
   256
  6
BYLAYER
 49
-0.5
 62
   256
  6
BYLAYER
  0
ACDBPLACEHOLDER
  5
F
102
{ACAD_REACTORS
330
E
102
}
330
E
  0
DICTIONARYVAR
  5
2DF
102
{ACAD_REACTORS
330
2DD
102
}
330
2DD
100
DictionaryVariables
280
     0
  1
2
  0
DICTIONARYVAR
  5
2DE
102
{ACAD_REACTORS
330
2DD
102
}
330
2DD
100
DictionaryVariables
280
     0
  1
1
  0
DICTIONARYVAR
  5
2E0
102
{ACAD_REACTORS
330
2DD
102
}
330
2DD
100
DictionaryVariables
280
     0
  1

  0
ENDSEC
  0
EOF
