  0
SECTION
  2
HEADER
  9
$ACADVER
  1
AC1018
  9
$ACADMAINTVER
 70
     2
  9
$DWGCODEPAGE
  3
ANSI_1252
  9
$INSBASE
 10
0.0
 20
0.0
 30
0.0
  9
$EXTMIN
 10
-0.0064083980321925
 20
-0.0090633057883451
 30
-0.0000000349181948
  9
$EXTMAX
 10
105.0064093759507
 20
148.5090646888447
 30
0.0000000814935746
  9
$LIMMIN
 10
0.0
 20
0.0
  9
$LIMMAX
 10
105.0
 20
148.5
  9
$ORTHOMODE
 70
     1
  9
$REGENMODE
 70
     1
  9
$FILLMODE
 70
     1
  9
$QTEXTMODE
 70
     0
  9
$MIRRTEXT
 70
     1
  9
$LTSCALE
 40
5.0
  9
$ATTMODE
 70
     1
  9
$TEXTSIZE
 40
3.5
  9
$TRACEWID
 40
0.5
  9
$TEXTSTYLE
  7
GREEKS
  9
$CLAYER
  8
SCHRAFF
  9
$CELTYPE
  6
ByLayer
  9
$CECOLOR
 62
   256
  9
$CELTSCALE
 40
1.0
  9
$DISPSILH
 70
     0
  9
$DIMSCALE
 40
0.5
  9
$DIMASZ
 40
3.5
  9
$DIMEXO
 40
0.5
  9
$DIMDLI
 40
7.0
  9
$DIMRND
 40
0.0
  9
$DIMDLE
 40
0.0
  9
$DIMEXE
 40
0.5
  9
$DIMTP
 40
0.1
  9
$DIMTM
 40
0.1
  9
$DIMTXT
 40
3.5
  9
$DIMCEN
 40
1.5
  9
$DIMTSZ
 40
0.0
  9
$DIMTOL
 70
     0
  9
$DIMLIM
 70
     0
  9
$DIMTIH
 70
     0
  9
$DIMTOH
 70
     0
  9
$DIMSE1
 70
     0
  9
$DIMSE2
 70
     0
  9
$DIMTAD
 70
     1
  9
$DIMZIN
 70
     8
  9
$DIMBLK
  1

  9
$DIMASO
 70
     1
  9
$DIMSHO
 70
     0
  9
$DIMPOST
  1

  9
$DIMAPOST
  1

  9
$DIMALT
 70
     0
  9
$DIMALTD
 70
     2
  9
$DIMALTF
 40
25.4
  9
$DIMLFAC
 40
1.0
  9
$DIMTOFL
 70
     1
  9
$DIMTVP
 40
0.0
  9
$DIMTIX
 70
     0
  9
$DIMSOXD
 70
     0
  9
$DIMSAH
 70
     0
  9
$DIMBLK1
  1

  9
$DIMBLK2
  1

  9
$DIMSTYLE
  2
Standard
  9
$DIMCLRD
 70
     0
  9
$DIMCLRE
 70
     0
  9
$DIMCLRT
 70
     1
  9
$DIMTFAC
 40
0.5
  9
$DIMGAP
 40
1.5
  9
$DIMJUST
 70
     0
  9
$DIMSD1
 70
     0
  9
$DIMSD2
 70
     0
  9
$DIMTOLJ
 70
     1
  9
$DIMTZIN
 70
     8
  9
$DIMALTZ
 70
     8
  9
$DIMALTTZ
 70
     8
  9
$DIMUPT
 70
     0
  9
$DIMDEC
 70
     2
  9
$DIMTDEC
 70
     2
  9
$DIMALTU
 70
     2
  9
$DIMALTTD
 70
     2
  9
$DIMTXSTY
  7
GREEKS
  9
$DIMAUNIT
 70
     0
  9
$DIMADEC
 70
     2
  9
$DIMALTRND
 40
0.0
  9
$DIMAZIN
 70
     2
  9
$DIMDSEP
 70
    46
  9
$DIMATFIT
 70
     3
  9
$DIMFRAC
 70
     0
  9
$DIMLDRBLK
  1

  9
$DIMLUNIT
 70
     2
  9
$DIMLWD
 70
    -2
  9
$DIMLWE
 70
    -2
  9
$DIMTMOVE
 70
     0
  9
$LUNITS
 70
     2
  9
$LUPREC
 70
     2
  9
$SKETCHINC
 40
1.0
  9
$FILLETRAD
 40
8.0
  9
$AUNITS
 70
     0
  9
$AUPREC
 70
     0
  9
$MENU
  1
ACAD
  9
$ELEVATION
 40
0.0
  9
$PELEVATION
 40
0.0
  9
$THICKNESS
 40
0.0
  9
$LIMCHECK
 70
     0
  9
$CHAMFERA
 40
0.0
  9
$CHAMFERB
 40
0.0
  9
$CHAMFERC
 40
0.0
  9
$CHAMFERD
 40
0.0
  9
$SKPOLY
 70
     0
  9
$TDCREATE
 40
2452306.575684607
  9
$TDUCREATE
 40
2452306.492351273
  9
$TDUPDATE
 40
2455450.553082453
  9
$TDUUPDATE
 40
2455450.469749120
  9
$TDINDWG
 40
0.0485948611
  9
$TDUSRTIMER
 40
0.0485948611
  9
$USRTIMER
 70
     1
  9
$ANGBASE
 50
0.0
  9
$ANGDIR
 70
     0
  9
$PDMODE
 70
     0
  9
$PDSIZE
 40
0.0
  9
$PLINEWID
 40
0.0
  9
$SPLFRAME
 70
     0
  9
$SPLINETYPE
 70
     6
  9
$SPLINESEGS
 70
     8
  9
$HANDSEED
  5
4CD
  9
$SURFTAB1
 70
     6
  9
$SURFTAB2
 70
     6
  9
$SURFTYPE
 70
     6
  9
$SURFU
 70
     6
  9
$SURFV
 70
     6
  9
$UCSBASE
  2

  9
$UCSNAME
  2

  9
$UCSORG
 10
0.0
 20
0.0
 30
0.0
  9
$UCSXDIR
 10
1.0
 20
0.0
 30
0.0
  9
$UCSYDIR
 10
0.0
 20
1.0
 30
0.0
  9
$UCSORTHOREF
  2

  9
$UCSORTHOVIEW
 70
     0
  9
$UCSORGTOP
 10
0.0
 20
0.0
 30
0.0
  9
$UCSORGBOTTOM
 10
0.0
 20
0.0
 30
0.0
  9
$UCSORGLEFT
 10
0.0
 20
0.0
 30
0.0
  9
$UCSORGRIGHT
 10
0.0
 20
0.0
 30
0.0
  9
$UCSORGFRONT
 10
0.0
 20
0.0
 30
0.0
  9
$UCSORGBACK
 10
0.0
 20
0.0
 30
0.0
  9
$PUCSBASE
  2

  9
$PUCSNAME
  2

  9
$PUCSORG
 10
0.0
 20
0.0
 30
0.0
  9
$PUCSXDIR
 10
1.0
 20
0.0
 30
0.0
  9
$PUCSYDIR
 10
0.0
 20
1.0
 30
0.0
  9
$PUCSORTHOREF
  2

  9
$PUCSORTHOVIEW
 70
     0
  9
$PUCSORGTOP
 10
0.0
 20
0.0
 30
0.0
  9
$PUCSORGBOTTOM
 10
0.0
 20
0.0
 30
0.0
  9
$PUCSORGLEFT
 10
0.0
 20
0.0
 30
0.0
  9
$PUCSORGRIGHT
 10
0.0
 20
0.0
 30
0.0
  9
$PUCSORGFRONT
 10
0.0
 20
0.0
 30
0.0
  9
$PUCSORGBACK
 10
0.0
 20
0.0
 30
0.0
  9
$USERI1
 70
     0
  9
$USERI2
 70
     0
  9
$USERI3
 70
     0
  9
$USERI4
 70
     0
  9
$USERI5
 70
     0
  9
$USERR1
 40
0.0
  9
$USERR2
 40
0.0
  9
$USERR3
 40
0.0
  9
$USERR4
 40
0.0
  9
$USERR5
 40
0.0
  9
$WORLDVIEW
 70
     1
  9
$SHADEDGE
 70
     3
  9
$SHADEDIF
 70
    70
  9
$TILEMODE
 70
     1
  9
$MAXACTVP
 70
    16
  9
$PINSBASE
 10
0.0
 20
0.0
 30
0.0
  9
$PLIMCHECK
 70
     0
  9
$PEXTMIN
 10
1.000000000000000E+20
 20
1.000000000000000E+20
 30
1.000000000000000E+20
  9
$PEXTMAX
 10
-1.000000000000000E+20
 20
-1.000000000000000E+20
 30
-1.000000000000000E+20
  9
$PLIMMIN
 10
0.0
 20
0.0
  9
$PLIMMAX
 10
12.0
 20
9.0
  9
$UNITMODE
 70
     0
  9
$VISRETAIN
 70
     0
  9
$PLINEGEN
 70
     0
  9
$PSLTSCALE
 70
     0
  9
$TREEDEPTH
 70
  3020
  9
$CMLSTYLE
  2
Standard
  9
$CMLJUST
 70
     0
  9
$CMLSCALE
 40
1.0
  9
$PROXYGRAPHICS
 70
     1
  9
$MEASUREMENT
 70
     0
  9
$CELWEIGHT
370
    -1
  9
$ENDCAPS
280
     0
  9
$JOINSTYLE
280
     0
  9
$LWDISPLAY
290
     0
  9
$INSUNITS
 70
     0
  9
$HYPERLINKBASE
  1

  9
$STYLESHEET
  1
monochrome 1.ctb
  9
$XEDIT
290
     1
  9
$CEPSNTYPE
380
     0
  9
$PSTYLEMODE
290
     1
  9
$FINGERPRINTGUID
  2
{EED01125-F0F2-48EA-A708-1E75281954E7}
  9
$VERSIONGUID
  2
{E1A6EB65-751D-4FC9-A0B8-F77E46FB6328}
  9
$EXTNAMES
290
     1
  9
$PSVPSCALE
 40
0.0
  9
$OLESTARTUP
290
     0
  9
$SORTENTS
280
   127
  9
$INDEXCTL
280
     0
  9
$HIDETEXT
280
     1
  9
$XCLIPFRAME
290
     0
  9
$HALOGAP
280
     0
  9
$OBSCOLOR
 70
   257
  9
$OBSLTYPE
280
     0
  9
$INTERSECTIONDISPLAY
280
     0
  9
$INTERSECTIONCOLOR
 70
   257
  9
$DIMASSOC
280
     2
  9
$PROJECTNAME
  1

  0
ENDSEC
  0
SECTION
  2
CLASSES
  0
CLASS
  1
ACDBDICTIONARYWDFLT
  2
AcDbDictionaryWithDefault
  3
ObjectDBX Classes
 90
        0
 91
        1
280
     0
281
     0
  0
CLASS
  1
DICTIONARYVAR
  2
AcDbDictionaryVar
  3
ObjectDBX Classes
 90
        0
 91
        3
280
     0
281
     0
  0
CLASS
  1
DIMASSOC
  2
AcDbDimAssoc
  3
"AcDbDimAssoc|Product Desc:     AcDim ARX App For Dimension|Company:          Autodesk, Inc.|WEB Address:      www.autodesk.com"
 90
        0
 91
        1
280
     0
281
     0
  0
ENDSEC
  0
SECTION
  2
TABLES
  0
TABLE
  2
VPORT
  5
8
330
0
100
AcDbSymbolTable
 70
     2
  0
VPORT
  5
4CC
330
8
100
AcDbSymbolTableRecord
100
AcDbViewportTableRecord
  2
*Active
 70
     0
 10
0.0
 20
0.0
 11
1.0
 21
1.0
 12
52.50000048895927
 22
74.2500006915282
 13
0.0
 23
0.0
 14
1.0
 24
1.0
 15
10.0
 25
10.0
 16
0.0
 26
0.0
 36
1.0
 17
0.0
 27
0.0
 37
0.0
 40
149.7174668478872
 41
1.336927223719676
 42
50.0
 43
0.0
 44
0.0
 50
0.0
 51
0.0
 71
     0
 72
  1500
 73
     1
 74
     0
 75
     0
 76
     0
 77
     0
 78
     0
281
     0
 65
     1
110
0.0
120
0.0
130
0.0
111
1.0
121
0.0
131
0.0
112
0.0
122
1.0
132
0.0
 79
     0
146
0.0
  0
ENDTAB
  0
TABLE
  2
LTYPE
  5
5
330
0
100
AcDbSymbolTable
 70
     2
  0
LTYPE
  5
13
330
5
100
AcDbSymbolTableRecord
100
AcDbLinetypeTableRecord
  2
ByBlock
 70
     0
  3

 72
    65
 73
     0
 40
0.0
  0
LTYPE
  5
14
330
5
100
AcDbSymbolTableRecord
100
AcDbLinetypeTableRecord
  2
ByLayer
 70
     0
  3

 72
    65
 73
     0
 40
0.0
  0
LTYPE
  5
15
330
5
100
AcDbSymbolTableRecord
100
AcDbLinetypeTableRecord
  2
Continuous
 70
     0
  3
Solid line
 72
    65
 73
     0
 40
0.0
  0
LTYPE
  5
3A
330
5
100
AcDbSymbolTableRecord
100
AcDbLinetypeTableRecord
  2
STRICHPUNKT
 70
     0
  3
__ . __ . __ . __ . __ . __ . __ . __ . __ . __
 72
    65
 73
     4
 40
1.0
 49
0.5
 74
     0
 49
-0.25
 74
     0
 49
0.0
 74
     0
 49
-0.25
 74
     0
  0
ENDTAB
  0
TABLE
  2
LAYER
  5
2
330
0
100
AcDbSymbolTable
 70
     9
  0
LAYER
  5
10
330
2
100
AcDbSymbolTableRecord
100
AcDbLayerTableRecord
  2
0
 70
     0
 62
     7
  6
Continuous
370
    -3
390
F
  0
LAYER
  5
3D
330
2
100
AcDbSymbolTableRecord
100
AcDbLayerTableRecord
  2
VOLL
 70
     0
 62
     1
  6
Continuous
370
    -3
390
F
  0
LAYER
  5
3E
330
2
100
AcDbSymbolTableRecord
100
AcDbLayerTableRecord
  2
HILF
 70
     0
 62
     2
  6
Continuous
370
    -3
390
F
  0
LAYER
  5
3F
330
2
100
AcDbSymbolTableRecord
100
AcDbLayerTableRecord
  2
MITTEL
 70
     0
 62
     2
  6
STRICHPUNKT
370
    -3
390
F
  0
LAYER
  5
40
330
2
100
AcDbSymbolTableRecord
100
AcDbLayerTableRecord
  2
BEM
 70
     0
 62
     7
  6
Continuous
370
    -3
390
F
  0
LAYER
  5
41
330
2
100
AcDbSymbolTableRecord
100
AcDbLayerTableRecord
  2
STEMPEL
 70
     0
 62
     3
  6
Continuous
370
    -3
390
F
  0
LAYER
  5
42
330
2
100
AcDbSymbolTableRecord
100
AcDbLayerTableRecord
  2
DEFPOINTS
 70
     0
 62
     7
  6
Continuous
290
     0
370
    -3
390
F
  0
LAYER
  5
43
330
2
100
AcDbSymbolTableRecord
100
AcDbLayerTableRecord
  2
TEXT
 70
     0
 62
     7
  6
Continuous
370
    -3
390
F
  0
LAYER
  5
3CC
330
2
100
AcDbSymbolTableRecord
100
AcDbLayerTableRecord
  2
SCHRAFF
 70
     0
 62
     7
  6
Continuous
370
    -3
390
F
  0
ENDTAB
  0
TABLE
  2
STYLE
  5
3
330
0
100
AcDbSymbolTable
 70
     2
  0
STYLE
  5
11
330
3
100
AcDbSymbolTableRecord
100
AcDbTextStyleTableRecord
  2
STANDARD
 70
     0
 40
0.0
 41
1.0
 50
0.0
 71
     0
 42
3.5
  3
txt
  4

  0
STYLE
  5
39
330
3
100
AcDbSymbolTableRecord
100
AcDbTextStyleTableRecord
  2
GREEKS
 70
     0
 40
0.0
 41
0.8
 50
0.0
 71
     0
 42
3.5
  3
SIMPLEX.shx
  4

  0
ENDTAB
  0
TABLE
  2
VIEW
  5
6
330
0
100
AcDbSymbolTable
 70
     0
  0
ENDTAB
  0
TABLE
  2
UCS
  5
7
330
0
100
AcDbSymbolTable
 70
     0
  0
ENDTAB
  0
TABLE
  2
APPID
  5
9
330
0
100
AcDbSymbolTable
 70
     1
  0
APPID
  5
12
330
9
100
AcDbSymbolTableRecord
100
AcDbRegAppTableRecord
  2
ACAD
 70
     0
  0
ENDTAB
  0
TABLE
  2
DIMSTYLE
  5
A
330
0
100
AcDbSymbolTable
 70
     1
100
AcDbDimStyleTable
 71
     1
340
239
  0
DIMSTYLE
105
239
102
{ACAD_REACTORS
330
1A9
330
1A7
330
1AC
330
1AA
330
1E8
330
496
102
}
330
A
100
AcDbSymbolTableRecord
100
AcDbDimStyleTableRecord
  2
Standard
 70
     0
340
11
  0
ENDTAB
  0
TABLE
  2
BLOCK_RECORD
  5
1
330
0
100
AcDbSymbolTable
 70
     7
  0
BLOCK_RECORD
  5
20
330
1
100
AcDbSymbolTableRecord
100
AcDbBlockTableRecord
  2
*Model_Space
340
23
  0
BLOCK_RECORD
  5
1C
330
1
100
AcDbSymbolTableRecord
100
AcDbBlockTableRecord
  2
*Paper_Space
340
1F
  0
BLOCK_RECORD
  5
24
330
1
100
AcDbSymbolTableRecord
100
AcDbBlockTableRecord
  2
LOGO
340
0
102
{BLKREFS
331
1CB
102
}
  0
BLOCK_RECORD
  5
386
330
1
100
AcDbSymbolTableRecord
100
AcDbBlockTableRecord
  2
*D1
340
0
  0
BLOCK_RECORD
  5
392
330
1
100
AcDbSymbolTableRecord
100
AcDbBlockTableRecord
  2
*D2
340
0
  0
BLOCK_RECORD
  5
413
330
1
100
AcDbSymbolTableRecord
100
AcDbBlockTableRecord
  2
*D3
340
0
  0
BLOCK_RECORD
  5
420
330
1
100
AcDbSymbolTableRecord
100
AcDbBlockTableRecord
  2
*D4
340
0
  0
BLOCK_RECORD
  5
47C
330
1
100
AcDbSymbolTableRecord
100
AcDbBlockTableRecord
  2
*D5
340
0
  0
BLOCK_RECORD
  5
497
330
1
100
AcDbSymbolTableRecord
100
AcDbBlockTableRecord
  2
*D6
340
0
  0
ENDTAB
  0
ENDSEC
  0
SECTION
  2
BLOCKS
  0
BLOCK
  5
47
330
20
100
AcDbEntity
  8
0
100
AcDbBlockBegin
  2
*Model_Space
 70
     0
 10
0.0
 20
0.0
 30
0.0
  3
*Model_Space
  1

  0
ENDBLK
  5
48
330
20
100
AcDbEntity
  8
0
100
AcDbBlockEnd
  0
BLOCK
  5
45
330
1C
100
AcDbEntity
 67
     1
  8
0
100
AcDbBlockBegin
  2
*Paper_Space
 70
     0
 10
0.0
 20
0.0
 30
0.0
  3
*Paper_Space
  1

  0
ENDBLK
  5
46
330
1C
100
AcDbEntity
 67
     1
  8
0
100
AcDbBlockEnd
  0
BLOCK
  5
49
330
24
100
AcDbEntity
  8
0
100
AcDbBlockBegin
  2
LOGO
 70
     0
 10
0.0
 20
0.0
 30
0.0
  3
LOGO
  1

  0
ARC
  5
4A
330
24
100
AcDbEntity
  8
0
100
AcDbCircle
 10
11.59973089678112
 20
-9.271599258481501
 30
0.0
 40
4.5
100
AcDbArc
 50
270.0
 51
231.0575587310159
  0
LINE
  5
4B
330
24
100
AcDbEntity
  8
0
100
AcDbLine
 10
3.599730896781125
 20
-4.771599258481529
 30
0.0
 11
3.599730896781153
 21
-11.77159925848133
 31
0.0
  0
LINE
  5
4C
330
24
100
AcDbEntity
  8
0
100
AcDbLine
 10
2.599730896781125
 20
-4.771599258481529
 30
0.0
 11
2.599730896781153
 21
-11.77159925848133
 31
0.0
  0
CIRCLE
  5
4D
330
24
100
AcDbEntity
  8
0
100
AcDbCircle
 10
11.59973089678112
 20
-9.271599258481501
 30
0.0
 40
3.5
  0
ARC
  5
4E
330
24
100
AcDbEntity
  8
0
100
AcDbCircle
 10
31.59973089678115
 20
-9.271599258481472
 30
0.0
 40
4.5
100
AcDbArc
 50
270.0
 51
231.0575587310182
  0
LINE
  5
4F
330
24
100
AcDbEntity
  8
0
100
AcDbLine
 10
17.59973089678112
 20
-4.771599258481472
 30
0.0
 11
17.59973089678115
 21
-13.77159925848147
 31
0.0
  0
ARC
  5
50
330
24
100
AcDbEntity
  8
0
100
AcDbCircle
 10
22.59973089678116
 20
-7.271599258481472
 30
0.0
 40
2.5
100
AcDbArc
 50
293.1161887722295
 51
90.0
  0
CIRCLE
  5
51
330
24
100
AcDbEntity
  8
0
100
AcDbCircle
 10
31.59973089678115
 20
-9.271599258481472
 30
0.0
 40
3.5
  0
ARC
  5
52
330
24
100
AcDbEntity
  8
0
100
AcDbCircle
 10
4.599730896781153
 20
-11.77159925848133
 30
0.0
 40
1.0
100
AcDbArc
 50
180.0
 51
270.0
  0
ARC
  5
53
330
24
100
AcDbEntity
  8
0
100
AcDbCircle
 10
4.599730896781153
 20
-11.77159925848133
 30
0.0
 40
2.0
100
AcDbArc
 50
179.9999999999992
 51
270.0
  0
LINE
  5
54
330
24
100
AcDbEntity
  8
0
100
AcDbLine
 10
11.59973089678115
 20
-13.77159925848144
 30
0.0
 11
4.599730896781153
 21
-13.77159925848147
 31
0.0
  0
LINE
  5
55
330
24
100
AcDbEntity
  8
0
100
AcDbLine
 10
8.771303772034769
 20
-12.77159925848136
 30
0.0
 11
4.599730896781153
 21
-12.77159925848133
 31
0.0
  0
LINE
  5
56
330
24
100
AcDbEntity
  8
0
100
AcDbLine
 10
31.59973089678115
 20
-13.77159925848147
 30
0.0
 11
23.6715276665056
 21
-13.77159925848144
 31
0.0
  0
LINE
  5
57
330
24
100
AcDbEntity
  8
0
100
AcDbLine
 10
23.56565672307022
 20
-9.51278021337896
 30
0.0
 11
24.4388546544846
 21
-12.77159925848144
 31
0.0
  0
LINE
  5
58
330
24
100
AcDbEntity
  8
0
100
AcDbLine
 10
22.59973089678116
 20
-9.771599258481472
 30
0.0
 11
18.59973089678112
 21
-9.771599258481472
 31
0.0
  0
LINE
  5
59
330
24
100
AcDbEntity
  8
0
100
AcDbLine
 10
18.59973089678115
 20
-13.77159925848144
 30
0.0
 11
17.59973089678115
 21
-13.77159925848144
 31
0.0
  0
LINE
  5
5A
330
24
100
AcDbEntity
  8
0
100
AcDbLine
 10
18.59973089678115
 20
-9.771599258481472
 30
0.0
 11
18.59973089678115
 21
-13.77159925848144
 31
0.0
  0
LINE
  5
5B
330
24
100
AcDbEntity
  8
0
100
AcDbLine
 10
22.59973089678116
 20
-9.771599258481472
 30
0.0
 11
23.67152766650562
 21
-13.77159925848147
 31
0.0
  0
ARC
  5
5C
330
24
100
AcDbEntity
  8
0
100
AcDbCircle
 10
22.59973089678116
 20
-7.271599258481472
 30
0.0
 40
2.5
100
AcDbArc
 50
270.0
 51
270.0000000000007
  0
LINE
  5
5D
330
24
100
AcDbEntity
  8
0
100
AcDbLine
 10
28.77130377203494
 20
-12.77159925848147
 30
0.0
 11
24.43885465448463
 21
-12.77159925848144
 31
0.0
  0
LINE
  5
5E
330
24
100
AcDbEntity
  8
0
100
AcDbLine
 10
3.599730896781125
 20
-4.771599258481472
 30
0.0
 11
2.599730896781125
 21
-4.771599258481472
 31
0.0
  0
LINE
  5
5F
330
24
100
AcDbEntity
  8
0
100
AcDbLine
 10
22.59973089678116
 20
-8.771599258481472
 30
0.0
 11
18.59973089678115
 21
-8.771599258481472
 31
0.0
  0
LINE
  5
60
330
24
100
AcDbEntity
  8
0
100
AcDbLine
 10
22.59973089678116
 20
-5.771599258481472
 30
0.0
 11
18.59973089678115
 21
-5.771599258481472
 31
0.0
  0
LINE
  5
61
330
24
100
AcDbEntity
  8
0
100
AcDbLine
 10
22.59973089678116
 20
-4.771599258481472
 30
0.0
 11
17.59973089678115
 21
-4.771599258481472
 31
0.0
  0
LINE
  5
62
330
24
100
AcDbEntity
  8
0
100
AcDbLine
 10
18.59973089678115
 20
-5.771599258481472
 30
0.0
 11
18.59973089678115
 21
-8.771599258481472
 31
0.0
  0
ARC
  5
63
330
24
100
AcDbEntity
  8
0
100
AcDbCircle
 10
22.59973089678116
 20
-7.271599258481472
 30
0.0
 40
1.5
100
AcDbArc
 50
270.0
 51
90.0
  0
ENDBLK
  5
64
330
24
100
AcDbEntity
  8
0
100
AcDbBlockEnd
  0
BLOCK
  5
390
330
386
100
AcDbEntity
  8
0
100
AcDbBlockBegin
  2
*D1
 70
     1
 10
0.0
 20
0.0
 30
0.0
  3
*D1
  1

  0
LINE
  5
465
330
386
100
AcDbEntity
  8
BEM
 62
     0
370
    -2
100
AcDbLine
 10
35.14177167698746
 20
81.40532935343866
 30
0.0
 11
35.14177167698746
 21
68.11610020520986
 31
0.0
  0
LINE
  5
466
330
386
100
AcDbEntity
  8
BEM
 62
     0
370
    -2
100
AcDbLine
 10
83.74177167698746
 20
81.40532935343866
 30
0.0
 11
83.74177167698746
 21
68.11610020520986
 31
0.0
  0
LINE
  5
467
330
386
100
AcDbEntity
  8
BEM
 62
     0
370
    -2
100
AcDbLine
 10
36.89177167698746
 20
68.36610020520986
 30
0.0
 11
81.99177167698747
 21
68.36610020520986
 31
0.0
  0
SOLID
  5
468
330
386
100
AcDbEntity
  8
BEM
 62
     0
100
AcDbTrace
 10
36.89177167698746
 20
68.65776687187653
 30
0.0
 11
36.89177167698746
 21
68.07443353854319
 31
0.0
 12
35.14177167698746
 22
68.36610020520986
 32
0.0
 13
35.14177167698746
 23
68.36610020520986
 33
0.0
  0
SOLID
  5
469
330
386
100
AcDbEntity
  8
BEM
 62
     0
100
AcDbTrace
 10
81.99177167698747
 20
68.65776687187653
 30
0.0
 11
81.99177167698747
 21
68.07443353854319
 31
0.0
 12
83.74177167698746
 22
68.36610020520986
 32
0.0
 13
83.74177167698746
 23
68.36610020520986
 33
0.0
  0
MTEXT
  5
46A
330
386
100
AcDbEntity
  8
BEM
 62
     1
100
AcDbMText
 10
59.44177167698747
 20
69.99110020520986
 30
0.0
 40
1.75
 41
0.0
 71
     5
 72
     1
  1
\A1;%%C48.6
  7
GREEKS
 73
     1
 44
1.0
  0
POINT
  5
46B
330
386
100
AcDbEntity
  8
DEFPOINTS
 62
     0
100
AcDbPoint
 10
35.14177167698746
 20
81.65532935343867
 30
0.0
  0
POINT
  5
46C
330
386
100
AcDbEntity
  8
DEFPOINTS
 62
     0
100
AcDbPoint
 10
83.74177167698746
 20
81.65532935343867
 30
0.0
  0
POINT
  5
46D
330
386
100
AcDbEntity
  8
DEFPOINTS
 62
     0
100
AcDbPoint
 10
83.74177167698746
 20
68.36610020520986
 30
0.0
  0
ENDBLK
  5
391
330
386
100
AcDbEntity
  8
0
100
AcDbBlockEnd
  0
BLOCK
  5
39C
330
392
100
AcDbEntity
  8
0
100
AcDbBlockBegin
  2
*D2
 70
     1
 10
0.0
 20
0.0
 30
0.0
  3
*D2
  1

  0
LINE
  5
45C
330
392
100
AcDbEntity
  8
BEM
 62
     0
370
    -2
100
AcDbLine
 10
45.79177167698746
 20
81.40532935343868
 30
0.0
 11
45.79177167698746
 21
71.78587487928457
 31
0.0
  0
LINE
  5
45D
330
392
100
AcDbEntity
  8
BEM
 62
     0
370
    -2
100
AcDbLine
 10
73.09177167698746
 20
81.40532935343868
 30
0.0
 11
73.09177167698746
 21
71.78587487928457
 31
0.0
  0
LINE
  5
45E
330
392
100
AcDbEntity
  8
BEM
 62
     0
370
    -2
100
AcDbLine
 10
47.54177167698746
 20
72.03587487928458
 30
0.0
 11
71.34177167698746
 21
72.03587487928458
 31
0.0
  0
SOLID
  5
45F
330
392
100
AcDbEntity
  8
BEM
 62
     0
100
AcDbTrace
 10
47.54177167698746
 20
72.32754154595125
 30
0.0
 11
47.54177167698746
 21
71.7442082126179
 31
0.0
 12
45.79177167698746
 22
72.03587487928458
 32
0.0
 13
45.79177167698746
 23
72.03587487928458
 33
0.0
  0
SOLID
  5
460
330
392
100
AcDbEntity
  8
BEM
 62
     0
100
AcDbTrace
 10
71.34177167698746
 20
72.32754154595125
 30
0.0
 11
71.34177167698746
 21
71.7442082126179
 31
0.0
 12
73.09177167698746
 22
72.03587487928458
 32
0.0
 13
73.09177167698746
 23
72.03587487928458
 33
0.0
  0
MTEXT
  5
461
330
392
100
AcDbEntity
  8
BEM
 62
     1
100
AcDbMText
 10
59.44177167698747
 20
73.66087487928457
 30
0.0
 40
1.75
 41
0.0
 71
     5
 72
     1
  1
\A1;%%C27.3
  7
GREEKS
 73
     1
 44
1.0
  0
POINT
  5
462
330
392
100
AcDbEntity
  8
DEFPOINTS
 62
     0
100
AcDbPoint
 10
45.79177167698746
 20
81.65532935343868
 30
0.0
  0
POINT
  5
463
330
392
100
AcDbEntity
  8
DEFPOINTS
 62
     0
100
AcDbPoint
 10
73.09177167698746
 20
81.65532935343868
 30
0.0
  0
POINT
  5
464
330
392
100
AcDbEntity
  8
DEFPOINTS
 62
     0
100
AcDbPoint
 10
73.09177167698746
 20
72.03587487928458
 30
0.0
  0
ENDBLK
  5
39D
330
392
100
AcDbEntity
  8
0
100
AcDbBlockEnd
  0
BLOCK
  5
41D
330
413
100
AcDbEntity
  8
0
100
AcDbBlockBegin
  2
*D3
 70
     1
 10
0.0
 20
0.0
 30
0.0
  3
*D3
  1

  0
LINE
  5
436
330
413
100
AcDbEntity
  8
BEM
 62
     0
370
    -2
100
AcDbLine
 10
34.69177167698746
 20
91.90532935343869
 30
0.0
 11
34.69177167698746
 21
108.1842947739134
 31
0.0
  0
LINE
  5
437
330
413
100
AcDbEntity
  8
BEM
 62
     0
370
    -2
100
AcDbLine
 10
84.19177167698746
 20
91.90532935343865
 30
0.0
 11
84.19177167698746
 21
108.1842947739134
 31
0.0
  0
LINE
  5
438
330
413
100
AcDbEntity
  8
BEM
 62
     0
370
    -2
100
AcDbLine
 10
36.44177167698746
 20
107.9342947739134
 30
0.0
 11
82.44177167698746
 21
107.9342947739134
 31
0.0
  0
SOLID
  5
439
330
413
100
AcDbEntity
  8
BEM
 62
     0
100
AcDbTrace
 10
36.44177167698746
 20
108.2259614405801
 30
0.0
 11
36.44177167698746
 21
107.6426281072468
 31
0.0
 12
34.69177167698746
 22
107.9342947739134
 32
0.0
 13
34.69177167698746
 23
107.9342947739134
 33
0.0
  0
SOLID
  5
43A
330
413
100
AcDbEntity
  8
BEM
 62
     0
100
AcDbTrace
 10
82.44177167698746
 20
108.2259614405801
 30
0.0
 11
82.44177167698746
 21
107.6426281072468
 31
0.0
 12
84.19177167698746
 22
107.9342947739134
 32
0.0
 13
84.19177167698746
 23
107.9342947739134
 33
0.0
  0
MTEXT
  5
43B
330
413
100
AcDbEntity
  8
BEM
 62
     1
100
AcDbMText
 10
59.44177167698746
 20
109.5592947739134
 30
0.0
 40
1.75
 41
0.0
 71
     5
 72
     1
  1
\A1;%%C49.5
  7
GREEKS
 73
     1
 44
1.0
  0
POINT
  5
43C
330
413
100
AcDbEntity
  8
DEFPOINTS
 62
     0
100
AcDbPoint
 10
34.69177167698746
 20
91.65532935343868
 30
0.0
  0
POINT
  5
43D
330
413
100
AcDbEntity
  8
DEFPOINTS
 62
     0
100
AcDbPoint
 10
84.19177167698746
 20
91.65532935343867
 30
0.0
  0
POINT
  5
43E
330
413
100
AcDbEntity
  8
DEFPOINTS
 62
     0
100
AcDbPoint
 10
84.19177167698746
 20
107.9342947739134
 30
0.0
  0
ENDBLK
  5
41E
330
413
100
AcDbEntity
  8
0
100
AcDbBlockEnd
  0
BLOCK
  5
42A
330
420
100
AcDbEntity
  8
0
100
AcDbBlockBegin
  2
*D4
 70
     1
 10
0.0
 20
0.0
 30
0.0
  3
*D4
  1

  0
LINE
  5
421
330
420
100
AcDbEntity
  8
BEM
 62
     0
370
    -2
100
AcDbLine
 10
42.64177167698746
 20
95.90532935343869
 30
0.0
 11
42.64177167698746
 21
104.1430227857667
 31
0.0
  0
LINE
  5
422
330
420
100
AcDbEntity
  8
BEM
 62
     0
370
    -2
100
AcDbLine
 10
76.24177167698746
 20
95.90532935343869
 30
0.0
 11
76.24177167698746
 21
104.1430227857667
 31
0.0
  0
LINE
  5
423
330
420
100
AcDbEntity
  8
BEM
 62
     0
370
    -2
100
AcDbLine
 10
44.39177167698746
 20
103.8930227857667
 30
0.0
 11
74.49177167698747
 21
103.8930227857667
 31
0.0
  0
SOLID
  5
424
330
420
100
AcDbEntity
  8
BEM
 62
     0
100
AcDbTrace
 10
44.39177167698746
 20
104.1846894524334
 30
0.0
 11
44.39177167698746
 21
103.6013561191001
 31
0.0
 12
42.64177167698746
 22
103.8930227857667
 32
0.0
 13
42.64177167698746
 23
103.8930227857667
 33
0.0
  0
SOLID
  5
425
330
420
100
AcDbEntity
  8
BEM
 62
     0
100
AcDbTrace
 10
74.49177167698747
 20
104.1846894524334
 30
0.0
 11
74.49177167698747
 21
103.6013561191001
 31
0.0
 12
76.24177167698746
 22
103.8930227857667
 32
0.0
 13
76.24177167698746
 23
103.8930227857667
 33
0.0
  0
MTEXT
  5
426
330
420
100
AcDbEntity
  8
BEM
 62
     1
100
AcDbMText
 10
59.44177167698747
 20
105.5180227857667
 30
0.0
 40
1.75
 41
0.0
 71
     5
 72
     1
  1
\A1;%%C33.6
  7
GREEKS
 73
     1
 44
1.0
  0
POINT
  5
427
330
420
100
AcDbEntity
  8
DEFPOINTS
 62
     0
100
AcDbPoint
 10
42.64177167698746
 20
95.65532935343869
 30
0.0
  0
POINT
  5
428
330
420
100
AcDbEntity
  8
DEFPOINTS
 62
     0
100
AcDbPoint
 10
76.24177167698746
 20
95.65532935343869
 30
0.0
  0
POINT
  5
429
330
420
100
AcDbEntity
  8
DEFPOINTS
 62
     0
100
AcDbPoint
 10
76.24177167698746
 20
103.8930227857667
 30
0.0
  0
ENDBLK
  5
42B
330
420
100
AcDbEntity
  8
0
100
AcDbBlockEnd
  0
BLOCK
  5
486
330
47C
100
AcDbEntity
  8
0
100
AcDbBlockBegin
  2
*D5
 70
     1
 10
0.0
 20
0.0
 30
0.0
  3
*D5
  1

  0
LINE
  5
47D
330
47C
100
AcDbEntity
  8
BEM
 62
     0
370
    -2
100
AcDbLine
 10
34.89177167698746
 20
81.65532935343867
 30
0.0
 11
26.12272681004244
 21
81.65532935343867
 31
0.0
  0
LINE
  5
47E
330
47C
100
AcDbEntity
  8
BEM
 62
     0
370
    -2
100
AcDbLine
 10
39.44177167698746
 20
96.65532935343867
 30
0.0
 11
26.12272681004244
 21
96.65532935343868
 31
0.0
  0
LINE
  5
47F
330
47C
100
AcDbEntity
  8
BEM
 62
     0
370
    -2
100
AcDbLine
 10
26.37272681004244
 20
83.40532935343867
 30
0.0
 11
26.37272681004244
 21
94.90532935343868
 31
0.0
  0
SOLID
  5
480
330
47C
100
AcDbEntity
  8
BEM
 62
     0
100
AcDbTrace
 10
26.08106014337578
 20
83.40532935343867
 30
0.0
 11
26.66439347670911
 21
83.40532935343867
 31
0.0
 12
26.37272681004244
 22
81.65532935343867
 32
0.0
 13
26.37272681004244
 23
81.65532935343867
 33
0.0
  0
SOLID
  5
481
330
47C
100
AcDbEntity
  8
BEM
 62
     0
100
AcDbTrace
 10
26.08106014337578
 20
94.90532935343868
 30
0.0
 11
26.66439347670911
 21
94.90532935343868
 31
0.0
 12
26.37272681004244
 22
96.65532935343868
 32
0.0
 13
26.37272681004244
 23
96.65532935343868
 33
0.0
  0
MTEXT
  5
482
330
47C
100
AcDbEntity
  8
BEM
 62
     1
100
AcDbMText
 10
24.74772681004243
 20
89.15532935343867
 30
0.0
 40
1.75
 41
0.0
 71
     5
 72
     1
  1
\A1;15
  7
GREEKS
 11
0.0000000000000001
 21
1.0
 31
0.0
 73
     1
 44
1.0
  0
POINT
  5
483
330
47C
100
AcDbEntity
  8
DEFPOINTS
 62
     0
100
AcDbPoint
 10
35.14177167698746
 20
81.65532935343867
 30
0.0
  0
POINT
  5
484
330
47C
100
AcDbEntity
  8
DEFPOINTS
 62
     0
100
AcDbPoint
 10
39.69177167698746
 20
96.65532935343867
 30
0.0
  0
POINT
  5
485
330
47C
100
AcDbEntity
  8
DEFPOINTS
 62
     0
100
AcDbPoint
 10
26.37272681004244
 20
96.65532935343868
 30
0.0
  0
ENDBLK
  5
487
330
47C
100
AcDbEntity
  8
0
100
AcDbBlockEnd
  0
BLOCK
  5
4A1
330
497
100
AcDbEntity
  8
0
100
AcDbBlockBegin
  2
*D6
 70
     1
 10
0.0
 20
0.0
 30
0.0
  3
*D6
  1

  0
LINE
  5
4A4
330
497
100
AcDbEntity
  8
SCHRAFF
 62
     0
370
    -2
100
AcDbLine
 10
34.89177167698746
 20
81.65532935343867
 30
0.0
 11
30.94858469518272
 21
81.65532935343867
 31
0.0
  0
LINE
  5
4A5
330
497
100
AcDbEntity
  8
SCHRAFF
 62
     0
370
    -2
100
AcDbLine
 10
34.44177167698746
 20
91.65532935343867
 30
0.0
 11
30.94858469518272
 21
91.65532935343867
 31
0.0
  0
LINE
  5
4A6
330
497
100
AcDbEntity
  8
SCHRAFF
 62
     0
370
    -2
100
AcDbLine
 10
31.19858469518272
 20
83.40532935343867
 30
0.0
 11
31.19858469518272
 21
89.90532935343868
 31
0.0
  0
SOLID
  5
4A7
330
497
100
AcDbEntity
  8
SCHRAFF
 62
     0
100
AcDbTrace
 10
30.90691802851605
 20
83.40532935343867
 30
0.0
 11
31.49025136184938
 21
83.40532935343867
 31
0.0
 12
31.19858469518272
 22
81.65532935343867
 32
0.0
 13
31.19858469518272
 23
81.65532935343867
 33
0.0
  0
SOLID
  5
4A8
330
497
100
AcDbEntity
  8
SCHRAFF
 62
     0
100
AcDbTrace
 10
30.90691802851605
 20
89.90532935343868
 30
0.0
 11
31.49025136184939
 21
89.90532935343868
 31
0.0
 12
31.19858469518272
 22
91.65532935343867
 32
0.0
 13
31.19858469518272
 23
91.65532935343867
 33
0.0
  0
MTEXT
  5
4A9
330
497
100
AcDbEntity
  8
SCHRAFF
 62
     1
100
AcDbMText
 10
29.5735846951827
 20
86.65532935343867
 30
0.0
 40
1.75
 41
0.0
 71
     5
 72
     1
  1
\A1;10
  7
GREEKS
 11
0.0000000000000001
 21
1.0
 31
0.0
 73
     1
 44
1.0
  0
POINT
  5
4AA
330
497
100
AcDbEntity
  8
DEFPOINTS
 62
     0
100
AcDbPoint
 10
35.14177167698746
 20
81.65532935343867
 30
0.0
  0
POINT
  5
4AB
330
497
100
AcDbEntity
  8
DEFPOINTS
 62
     0
100
AcDbPoint
 10
34.69177167698746
 20
91.65532935343867
 30
0.0
  0
POINT
  5
4AC
330
497
100
AcDbEntity
  8
DEFPOINTS
 62
     0
100
AcDbPoint
 10
31.19858469518272
 20
91.65532935343867
 30
0.0
  0
ENDBLK
  5
4A2
330
497
100
AcDbEntity
  8
0
100
AcDbBlockEnd
  0
ENDSEC
  0
SECTION
  2
ENTITIES
  0
DIMENSION
  5
1A7
330
20
100
AcDbEntity
  8
BEM
100
AcDbDimension
  2
*D3
 10
84.19177167698746
 20
107.9342947739134
 30
0.0
 11
59.44177167698746
 21
109.5592947739134
 31
0.0
 70
    32
  1
%%C<>
 71
     5
 42
49.5
  3
Standard
100
AcDbAlignedDimension
 13
34.69177167698746
 23
91.65532935343868
 33
0.0
 14
84.19177167698746
 24
91.65532935343867
 34
0.0
100
AcDbRotatedDimension
1001
ACAD
1000
DSTYLE
1002
{
1070
    40
1040
0.5
1070
    41
1040
3.5
1070
    42
1040
0.5
1070
    43
1040
7.0
1070
    44
1040
0.5
1070
    47
1040
0.1
1070
    48
1040
0.1
1070
    73
1070
     0
1070
    74
1070
     0
1070
    77
1070
     1
1070
    78
1070
     8
1070
    79
1070
     2
1070
   140
1040
3.5
1070
   141
1040
1.5
1070
   146
1040
0.5
1070
   147
1040
1.5
1070
   172
1070
     1
1070
   178
1070
     1
1070
   179
1070
     2
1070
   271
1070
     2
1070
   272
1070
     2
1070
   284
1070
     8
1070
   285
1070
     8
1070
   286
1070
     8
1070
   340
1005
39
1002
}
  0
DIMENSION
  5
1A9
330
20
100
AcDbEntity
  8
BEM
100
AcDbDimension
  2
*D4
 10
76.24177167698746
 20
103.8930227857667
 30
0.0
 11
59.44177167698747
 21
105.5180227857667
 31
0.0
 70
    32
  1
%%C<>
 71
     5
 42
33.60000000000001
  3
Standard
100
AcDbAlignedDimension
 13
42.64177167698746
 23
95.65532935343869
 33
0.0
 14
76.24177167698746
 24
95.65532935343869
 34
0.0
100
AcDbRotatedDimension
  0
DIMENSION
  5
1AA
330
20
100
AcDbEntity
  8
BEM
100
AcDbDimension
  2
*D1
 10
83.74177167698746
 20
68.36610020520986
 30
0.0
 11
59.44177167698747
 21
69.99110020520986
 31
0.0
 70
    32
  1
%%C<>
 71
     5
 42
48.60000000000001
  3
Standard
100
AcDbAlignedDimension
 13
35.14177167698746
 23
81.65532935343867
 33
0.0
 14
83.74177167698746
 24
81.65532935343867
 34
0.0
100
AcDbRotatedDimension
1001
ACAD
1000
DSTYLE
1002
{
1070
    40
1040
0.5
1070
    41
1040
3.5
1070
    42
1040
0.5
1070
    43
1040
7.0
1070
    44
1040
0.5
1070
    47
1040
0.1
1070
    48
1040
0.1
1070
    73
1070
     0
1070
    74
1070
     0
1070
    77
1070
     1
1070
    78
1070
     8
1070
    79
1070
     2
1070
   140
1040
3.5
1070
   141
1040
1.5
1070
   146
1040
0.5
1070
   147
1040
1.5
1070
   172
1070
     1
1070
   178
1070
     1
1070
   179
1070
     2
1070
   271
1070
     2
1070
   272
1070
     2
1070
   284
1070
     8
1070
   285
1070
     8
1070
   286
1070
     8
1070
   340
1005
39
1002
}
  0
DIMENSION
  5
1AC
330
20
100
AcDbEntity
  8
BEM
100
AcDbDimension
  2
*D2
 10
73.09177167698746
 20
72.03587487928458
 30
0.0
 11
59.44177167698747
 21
73.66087487928457
 31
0.0
 70
    32
  1
%%C<>
 71
     5
 42
27.3
  3
Standard
100
AcDbAlignedDimension
 13
45.79177167698746
 23
81.65532935343868
 33
0.0
 14
73.09177167698746
 24
81.65532935343868
 34
0.0
100
AcDbRotatedDimension
1001
ACAD
1000
DSTYLE
1002
{
1070
    40
1040
0.5
1070
    41
1040
3.5
1070
    42
1040
0.5
1070
    43
1040
7.0
1070
    44
1040
0.5
1070
    47
1040
0.1
1070
    48
1040
0.1
1070
    73
1070
     0
1070
    74
1070
     0
1070
    77
1070
     1
1070
    78
1070
     8
1070
    79
1070
     2
1070
   140
1040
3.5
1070
   141
1040
1.5
1070
   146
1040
0.5
1070
   147
1040
1.5
1070
   172
1070
     1
1070
   178
1070
     1
1070
   179
1070
     2
1070
   271
1070
     2
1070
   272
1070
     2
1070
   284
1070
     8
1070
   285
1070
     8
1070
   286
1070
     8
1070
   340
1005
39
1002
}
  0
LINE
  5
1AD
330
20
100
AcDbEntity
  8
STEMPEL
100
AcDbLine
 10
42.64177167698746
 20
95.65532935343872
 30
0.0
 11
76.24177167698746
 21
95.65532935343869
 31
0.0
  0
LINE
  5
1AE
102
{ACAD_REACTORS
330
3FF
330
4AD
102
}
330
20
100
AcDbEntity
  8
STEMPEL
100
AcDbLine
 10
35.14177167698746
 20
81.65532935343867
 30
0.0
 11
83.74177167698746
 21
81.65532935343867
 31
0.0
  0
LINE
  5
1AF
102
{ACAD_REACTORS
330
3FF
102
}
330
20
100
AcDbEntity
  8
STEMPEL
100
AcDbLine
 10
39.69177167698746
 20
96.65532935343867
 30
0.0
 11
79.19177167698745
 21
96.65532935343867
 31
0.0
  0
TEXT
  5
1B0
330
20
100
AcDbEntity
  8
TEXT
 62
     1
100
AcDbText
 10
32.14822666521421
 20
36.07151299294117
 30
0.0
 40
1.75
  1
Werkstoff: Styrol-Butadien-Kautschuk (SBR) 50%%p5 IRHD
 41
0.8
  7
GREEKS
100
AcDbText
  0
LINE
  5
1B1
330
20
100
AcDbEntity
  8
HILF
100
AcDbLine
 10
105.0
 20
0.0
 30
0.0
 11
0.0
 21
0.0
 31
0.0
  0
LINE
  5
1B2
330
20
100
AcDbEntity
  8
HILF
100
AcDbLine
 10
105.0
 20
148.5
 30
0.0
 11
-0.0000000000000284
 21
148.5
 31
0.0
  0
LINE
  5
1B3
330
20
100
AcDbEntity
  8
STEMPEL
100
AcDbLine
 10
102.5
 20
146.0
 30
0.0
 11
9.999999999999968
 21
145.9999999999999
 31
0.0
  0
LINE
  5
1B4
330
20
100
AcDbEntity
  8
STEMPEL
100
AcDbLine
 10
102.5
 20
2.5
 30
0.0
 11
10.0
 21
2.5
 31
0.0
  0
LINE
  5
1B5
330
20
100
AcDbEntity
  8
STEMPEL
100
AcDbLine
 10
12.49999999999997
 20
2.5
 30
0.0
 11
102.5
 21
2.5
 31
0.0
  0
LINE
  5
1B6
330
20
100
AcDbEntity
  8
STEMPEL
100
AcDbLine
 10
102.5
 20
20.0
 30
0.0
 11
34.00000000000003
 21
19.99999999999998
 31
0.0
  0
LINE
  5
1B7
330
20
100
AcDbEntity
  8
STEMPEL
100
AcDbLine
 10
102.5
 20
10.0
 30
0.0
 11
34.00000000000003
 21
9.999999999999992
 31
0.0
  0
LINE
  5
1B8
330
20
100
AcDbEntity
  8
STEMPEL
100
AcDbLine
 10
102.5
 20
27.50000000000002
 30
0.0
 11
9.999999999999994
 21
27.5
 31
0.0
  0
LINE
  5
1BB
330
20
100
AcDbEntity
  8
HILF
100
AcDbLine
 10
0.0
 20
0.0
 30
0.0
 11
-0.0000000000000284
 21
148.5
 31
0.0
  0
LINE
  5
1BC
330
20
100
AcDbEntity
  8
STEMPEL
100
AcDbLine
 10
10.0
 20
2.5
 30
0.0
 11
9.999999999999968
 21
145.9999999999999
 31
0.0
  0
TEXT
  5
1BE
330
20
100
AcDbEntity
  8
TEXT
100
AcDbText
 10
10.62566647230115
 20
28.24944248551687
 30
0.0
 40
1.25
  1
Erstellt mit AUTOCAD 2004
 41
0.8
  7
GREEKS
100
AcDbText
  0
TEXT
  5
1BF
330
20
100
AcDbEntity
  8
TEXT
100
AcDbText
 10
15.36939845955146
 20
4.668454737460329
 30
0.0
 40
1.0
  1
Änderung
 41
0.8
  7
GREEKS
 72
     1
 11
18.05511274526575
 21
4.668454737460329
 31
0.0
100
AcDbText
  0
LINE
  5
1C0
330
20
100
AcDbEntity
  8
HILF
100
AcDbLine
 10
10.00000000000002
 20
9.999999999999992
 30
0.0
 11
34.00000000000003
 21
9.999999999999992
 31
0.0
  0
LINE
  5
1C1
330
20
100
AcDbEntity
  8
HILF
100
AcDbLine
 10
10.00000000000002
 20
12.49999999999999
 30
0.0
 11
34.00000000000003
 21
12.49999999999999
 31
0.0
  0
LINE
  5
1C2
330
20
100
AcDbEntity
  8
HILF
100
AcDbLine
 10
10.00000000000002
 20
14.99999999999999
 30
0.0
 11
34.00000000000003
 21
14.99999999999999
 31
0.0
  0
LINE
  5
1C3
330
20
100
AcDbEntity
  8
HILF
100
AcDbLine
 10
10.00000000000002
 20
17.49999999999998
 30
0.0
 11
34.00000000000003
 21
17.49999999999998
 31
0.0
  0
LINE
  5
1C4
330
20
100
AcDbEntity
  8
HILF
100
AcDbLine
 10
10.00000000000002
 20
19.99999999999998
 30
0.0
 11
34.00000000000003
 21
19.99999999999998
 31
0.0
  0
LINE
  5
1C5
330
20
100
AcDbEntity
  8
HILF
100
AcDbLine
 10
10.00000000000002
 20
22.50000000000001
 30
0.0
 11
34.00000000000003
 21
22.50000000000001
 31
0.0
  0
LINE
  5
1C6
330
20
100
AcDbEntity
  8
HILF
100
AcDbLine
 10
10.00000000000002
 20
25.00000000000002
 30
0.0
 11
34.00000000000003
 21
25.00000000000002
 31
0.0
  0
LINE
  5
1C7
330
20
100
AcDbEntity
  8
STEMPEL
100
AcDbLine
 10
33.99999999999997
 20
7.499999999999992
 30
0.0
 11
9.999999999999992
 21
7.499999999999992
 31
0.0
  0
TEXT
  5
1C8
330
20
100
AcDbEntity
  8
TEXT
100
AcDbText
 10
12.06660276761439
 20
3.413664615067979
 30
0.0
 40
0.9
  1
Index
 50
90.0
 41
0.8
  7
GREEKS
100
AcDbText
  0
LINE
  5
1C9
330
20
100
AcDbEntity
  8
VOLL
100
AcDbLine
 10
13.50000000000002
 20
27.50000000000002
 30
0.0
 11
13.49999999999999
 21
2.499999999999992
 31
0.0
  0
INSERT
  5
1CB
330
20
100
AcDbEntity
  8
STEMPEL
100
AcDbBlockReference
  2
LOGO
 10
35.24888713644485
 20
11.2552631911208
 30
0.0
 41
0.5
 42
0.5
 43
0.5
  0
TEXT
  5
1CC
330
20
100
AcDbEntity
  8
TEXT
100
AcDbText
 10
34.4001694346826
 20
10.88236597412452
 30
0.0
 40
0.9
  1
Norm.
 41
0.8
  7
GREEKS
100
AcDbText
  0
TEXT
  5
1CD
330
20
100
AcDbEntity
  8
TEXT
100
AcDbText
 10
35.87908930375943
 20
25.61552237717722
 30
0.0
 40
1.25
  1
Maßstab
 41
0.8
  7
GREEKS
100
AcDbText
  0
LINE
  5
1CE
330
20
100
AcDbEntity
  8
HILF
100
AcDbLine
 10
34.00000000000003
 20
12.49999999999999
 30
0.0
 11
55.0
 21
12.49999999999999
 31
0.0
  0
LINE
  5
1CF
330
20
100
AcDbEntity
  8
HILF
100
AcDbLine
 10
34.00000000000003
 20
14.99999999999999
 30
0.0
 11
55.0
 21
14.99999999999999
 31
0.0
  0
LINE
  5
1D0
330
20
100
AcDbEntity
  8
HILF
100
AcDbLine
 10
34.00000000000003
 20
17.49999999999998
 30
0.0
 11
55.0
 21
17.49999999999998
 31
0.0
  0
TEXT
  5
1D1
330
20
100
AcDbEntity
  8
TEXT
100
AcDbText
 10
29.50567175991652
 20
4.64831054241602
 30
0.0
 40
1.0
  1
Name
 41
0.8
  7
GREEKS
 72
     1
 11
31.0866241408689
 21
4.64831054241602
 31
0.0
100
AcDbText
  0
TEXT
  5
1D2
330
20
100
AcDbEntity
  8
TEXT
100
AcDbText
 10
25.04090136057186
 20
4.667890673349525
 30
0.0
 40
1.0
  1
Tag
 41
0.8
  7
GREEKS
 72
     1
 11
25.97423469390519
 21
4.667890673349525
 31
0.0
100
AcDbText
  0
LINE
  5
1D3
330
20
100
AcDbEntity
  8
VOLL
100
AcDbLine
 10
28.50000000000003
 20
27.49999999999999
 30
0.0
 11
28.5
 21
2.499999999999992
 31
0.0
  0
LINE
  5
1D4
330
20
100
AcDbEntity
  8
VOLL
100
AcDbLine
 10
23.50000000000003
 20
27.49999999999999
 30
0.0
 11
23.5
 21
2.499999999999992
 31
0.0
  0
LINE
  5
1D5
330
20
100
AcDbEntity
  8
STEMPEL
100
AcDbLine
 10
34.00000000000003
 20
27.49999999999999
 30
0.0
 11
34.0
 21
2.499999999999992
 31
0.0
  0
TEXT
  5
1D8
330
20
100
AcDbEntity
  8
TEXT
100
AcDbText
 10
34.38787716429181
 20
13.42231572857094
 30
0.0
 40
0.9
  1
Gepr.
 41
0.8
  7
GREEKS
100
AcDbText
  0
TEXT
  5
1D9
330
20
100
AcDbEntity
  8
TEXT
100
AcDbText
 10
34.39590317919039
 20
15.90747592404491
 30
0.0
 40
0.9
  1
Gez.
 41
0.8
  7
GREEKS
100
AcDbText
  0
TEXT
  5
1DA
330
20
100
AcDbEntity
  8
TEXT
100
AcDbText
 10
34.655527455526
 20
18.28506367787916
 30
0.0
 40
0.9
  1
2008
 41
0.8
  7
GREEKS
100
AcDbText
  0
LINE
  5
1DB
330
20
100
AcDbEntity
  8
STEMPEL
100
AcDbLine
 10
55.0
 20
27.50000000000002
 30
0.0
 11
55.0
 21
2.499999999999992
 31
0.0
  0
TEXT
  5
1DC
330
20
100
AcDbEntity
  8
TEXT
100
AcDbText
 10
45.79898329529081
 20
22.62297652853822
 30
0.0
 40
1.0
  1
DIN EN1123-2
 41
0.8
  7
GREEKS
 72
     1
 11
50.04660234290986
 21
22.62297652853822
 31
0.0
100
AcDbText
  0
TEXT
  5
1DD
330
20
100
AcDbEntity
  8
TEXT
100
AcDbText
 10
46.07147386835128
 20
25.60460421087048
 30
0.0
 40
1.25
  1
Zul. Abw.
 41
0.8
  7
GREEKS
100
AcDbText
  0
LINE
  5
1DE
330
20
100
AcDbEntity
  8
VOLL
100
AcDbLine
 10
45.00000000000002
 20
27.49999999999996
 30
0.0
 11
45.0
 21
9.999999999999992
 31
0.0
  0
LINE
  5
1DF
330
20
100
AcDbEntity
  8
VOLL
100
AcDbLine
 10
38.50000000000003
 20
19.99999999999998
 30
0.0
 11
38.50000000000003
 21
9.999999999999992
 31
0.0
  0
TEXT
  5
1E0
330
20
100
AcDbEntity
  8
TEXT
100
AcDbText
 10
39.93573009394597
 20
15.77691260206433
 30
0.0
 40
1.0
  1
24.06.
 41
0.8
  7
GREEKS
 72
     1
 11
41.68811104632692
 21
15.77691260206433
 31
0.0
100
AcDbText
  0
TEXT
  5
1E1
330
20
100
AcDbEntity
  8
TEXT
100
AcDbText
 10
40.68899417656368
 20
18.32970125307481
 30
0.0
 40
0.9
  1
Tag
 41
0.8
  7
GREEKS
 72
     1
 11
41.52899417656368
 21
18.32970125307481
 31
0.0
100
AcDbText
  0
TEXT
  5
1E2
330
20
100
AcDbEntity
  8
TEXT
 62
     1
100
AcDbText
 10
37.84064641809614
 20
22.15414213722941
 30
0.0
 40
1.75
  1
2:1
 41
0.8
  7
GREEKS
100
AcDbText
  0
TEXT
  5
1E3
330
20
100
AcDbEntity
  8
TEXT
100
AcDbText
 10
48.96945094846055
 20
15.77240979930877
 30
0.0
 40
1.0
  1
Koeh
 41
0.8
  7
GREEKS
 72
     1
 11
50.28373666274626
 21
15.77240979930877
 31
0.0
100
AcDbText
  0
TEXT
  5
1E5
330
20
100
AcDbEntity
  8
TEXT
100
AcDbText
 10
48.64829254064611
 20
18.32740272978806
 30
0.0
 40
0.9
  1
Name
 41
0.8
  7
GREEKS
 72
     1
 11
50.07114968350325
 21
18.32740272978806
 31
0.0
100
AcDbText
  0
DIMENSION
  5
1E8
330
20
100
AcDbEntity
  8
BEM
100
AcDbDimension
  2
*D5
 10
26.37272681004244
 20
96.65532935343868
 30
0.0
 11
24.74772681004243
 21
89.15532935343867
 31
0.0
 70
    32
 71
     5
 42
15.0
  3
Standard
100
AcDbAlignedDimension
 13
35.14177167698746
 23
81.65532935343867
 33
0.0
 14
39.69177167698746
 24
96.65532935343867
 34
0.0
 50
90.0
100
AcDbRotatedDimension
  0
LINE
  5
1E9
330
20
100
AcDbEntity
  8
TEXT
 62
     2
100
AcDbLine
 10
14.15984991725936
 20
126.1875118588731
 30
0.0
 11
36.15623777105472
 21
95.1908632593714
 31
0.0
  0
ARC
  5
1EB
102
{ACAD_REACTORS
330
3FF
330
4AD
102
}
330
20
100
AcDbEntity
  8
STEMPEL
100
AcDbCircle
 10
39.69177167698746
 20
91.65532935343867
 30
0.0
 40
5.0
100
AcDbArc
 50
90.0
 51
180.0
  0
ARC
  5
1EC
102
{ACAD_REACTORS
330
3FF
102
}
330
20
100
AcDbEntity
  8
STEMPEL
100
AcDbCircle
 10
38.09561925428081
 20
84.65532935343869
 30
0.0
 40
1.0
100
AcDbArc
 50
59.99999999999994
 51
156.3729979735373
  0
ARC
  5
1ED
102
{ACAD_REACTORS
330
3FF
102
}
330
20
100
AcDbEntity
  8
STEMPEL
100
AcDbCircle
 10
44.14177167698746
 20
85.9984751039463
 30
0.0
 40
9.0
100
AcDbArc
 50
141.0575587310187
 51
180.0
  0
LINE
  5
1EE
102
{ACAD_REACTORS
330
3FF
102
}
330
20
100
AcDbEntity
  8
STEMPEL
100
AcDbLine
 10
35.69177167698746
 20
81.65532935343868
 30
0.0
 11
37.17944530067005
 21
85.05611019969418
 31
0.0
  0
LINE
  5
1EF
102
{ACAD_REACTORS
330
3FF
102
}
330
20
100
AcDbEntity
  8
STEMPEL
100
AcDbLine
 10
35.14177167698746
 20
85.9984751039463
 30
0.0
 11
35.14177167698746
 21
81.65532935343867
 31
0.0
  0
LINE
  5
1F2
102
{ACAD_REACTORS
330
3FF
102
}
330
20
100
AcDbEntity
  8
STEMPEL
100
AcDbLine
 10
34.69177167698746
 20
91.65532935343868
 30
0.0
 11
37.14177167698746
 21
91.65532935343867
 31
0.0
  0
LINE
  5
1F5
102
{ACAD_REACTORS
330
3FF
102
}
330
20
100
AcDbEntity
  8
STEMPEL
100
AcDbLine
 10
42.64177167698746
 20
95.65532935343869
 30
0.0
 11
42.64177167698746
 21
89.25488293672966
 31
0.0
  0
LINE
  5
1F6
102
{ACAD_REACTORS
330
3FF
102
}
330
20
100
AcDbEntity
  8
STEMPEL
100
AcDbLine
 10
45.29177167698747
 20
81.65532935343868
 30
0.0
 11
38.59561925428081
 21
85.52135475722314
 31
0.0
  0
LINE
  5
1F7
102
{ACAD_REACTORS
330
3FF
102
}
330
20
100
AcDbEntity
  8
STEMPEL
100
AcDbLine
 10
45.79177167698746
 20
81.65532935343868
 30
0.0
 11
43.71356844671195
 21
85.25488293672966
 31
0.0
  0
ARC
  5
1F8
102
{ACAD_REACTORS
330
3FF
102
}
330
20
100
AcDbEntity
  8
STEMPEL
100
AcDbCircle
 10
50.64177167698746
 20
89.25488293672966
 30
0.0
 40
8.0
100
AcDbArc
 50
180.0
 51
210.0
  0
LINE
  5
1F9
102
{ACAD_REACTORS
330
3FF
102
}
330
20
100
AcDbEntity
  8
STEMPEL
100
AcDbLine
 10
42.64177167698746
 20
95.65532935343869
 30
0.0
 11
41.64177167698746
 21
96.65532935343868
 31
0.0
  0
LINE
  5
1FD
330
20
100
AcDbEntity
  8
HILF
100
AcDbLine
 10
105.0
 20
-0.0000000000000284
 30
0.0
 11
105.0
 21
148.5
 31
0.0
  0
LINE
  5
1FE
330
20
100
AcDbEntity
  8
STEMPEL
100
AcDbLine
 10
102.5
 20
27.50000000000002
 30
0.0
 11
102.5
 21
146.0
 31
0.0
  0
TEXT
  5
200
330
20
100
AcDbEntity
  8
TEXT
 62
     1
100
AcDbText
 10
86.66741202868664
 20
22.0372535722849
 30
0.0
 40
1.75
  1
00913040W
 41
0.8
  7
GREEKS
 72
     1
 11
92.53407869535331
 21
22.0372535722849
 31
0.0
100
AcDbText
  0
TEXT
  5
201
330
20
100
AcDbEntity
  8
TEXT
100
AcDbText
 10
84.31002153742515
 20
13.0185404446965
 30
0.0
 40
1.25
  1
ersetzt durch:
  7
GREEKS
100
AcDbText
  0
TEXT
  5
202
330
20
100
AcDbEntity
  8
TEXT
100
AcDbText
 10
84.18096540742482
 20
18.29529559274992
 30
0.0
 40
1.25
  1
Ersatz für:
 41
0.8
  7
GREEKS
100
AcDbText
  0
TEXT
  5
203
330
20
100
AcDbEntity
  8
TEXT
100
AcDbText
 10
84.04468873940851
 20
25.57830086342841
 30
0.0
 40
1.25
  1
Zeichnungs Nr.
 41
0.8
  7
GREEKS
100
AcDbText
  0
LINE
  5
204
330
20
100
AcDbEntity
  8
HILF
100
AcDbLine
 10
55.87274248224712
 20
3.723495645070784
 30
0.0
 11
101.2147209831682
 21
3.723495645070784
 31
0.0
  0
LINE
  5
205
330
20
100
AcDbEntity
  8
HILF
100
AcDbLine
 10
84.18096540742482
 20
20.94495909238957
 30
0.0
 11
101.2147209831682
 21
20.94495909238957
 31
0.0
  0
LINE
  5
206
330
20
100
AcDbEntity
  8
VOLL
100
AcDbLine
 10
83.0
 20
15.0
 30
0.0
 11
102.5
 21
15.0
 31
0.0
  0
TEXT
  5
207
330
20
100
AcDbEntity
  8
TEXT
100
AcDbText
 10
56.28240977813288
 20
12.91002985760539
 30
0.0
 40
1.25
  1
EDV-Art.Nr. 00913.040X
 41
0.8
  7
GREEKS
100
AcDbText
  0
TEXT
  5
208
330
20
100
AcDbEntity
  8
TEXT
 62
     1
100
AcDbText
 10
56.72339327643505
 20
21.85437197313445
 30
0.0
 40
1.75
  1
Dichtelement DN40
 41
0.8
  7
GREEKS
100
AcDbText
  0
LINE
  5
209
330
20
100
AcDbEntity
  8
HILF
100
AcDbLine
 10
56.19342002742368
 20
12.49999999999999
 30
0.0
 11
81.20884791390775
 21
12.49999999999999
 31
0.0
  0
LINE
  5
20A
330
20
100
AcDbEntity
  8
HILF
100
AcDbLine
 10
56.19342002742368
 20
14.99999999999999
 30
0.0
 11
81.20884791390775
 21
14.99999999999999
 31
0.0
  0
LINE
  5
20B
330
20
100
AcDbEntity
  8
HILF
100
AcDbLine
 10
56.19342002742368
 20
17.49999999999998
 30
0.0
 11
81.20884791390775
 21
17.49999999999998
 31
0.0
  0
LINE
  5
20C
330
20
100
AcDbEntity
  8
HILF
100
AcDbLine
 10
56.19342002742368
 20
21.00939561891035
 30
0.0
 11
81.20884791390777
 21
21.00939561891035
 31
0.0
  0
TEXT
  5
20D
330
20
100
AcDbEntity
  8
TEXT
100
AcDbText
 10
56.28240977813288
 20
17.91002985760538
 30
0.0
 40
1.25
  1
für Ms-Rohr %%C32
 41
0.8
  7
GREEKS
100
AcDbText
  0
TEXT
  5
20E
330
20
100
AcDbEntity
  8
TEXT
100
AcDbText
 10
56.24593753944567
 20
10.65743538255658
 30
0.0
 40
0.9
  1
00913040W.DWG
 41
0.8
  7
GREEKS
100
AcDbText
  0
TEXT
  5
20F
330
20
100
AcDbEntity
  8
TEXT
100
AcDbText
 10
56.18555959778399
 20
7.711401425482641
 30
0.0
 40
1.25
  1
Bauvorhaben
 41
0.8
  7
GREEKS
100
AcDbText
  0
TEXT
  5
210
330
20
100
AcDbEntity
  8
TEXT
100
AcDbText
 10
56.21948509522525
 20
25.63723320029449
 30
0.0
 40
1.25
  1
Benennung
 41
0.8
  7
GREEKS
100
AcDbText
  0
LINE
  5
211
330
20
100
AcDbEntity
  8
STEMPEL
100
AcDbLine
 10
83.0
 20
27.49999999999995
 30
0.0
 11
83.0
 21
10.0
 31
0.0
  0
LINE
  5
216
330
20
100
AcDbEntity
  8
STEMPEL
100
AcDbLine
 10
102.5
 20
27.50000000000002
 30
0.0
 11
102.5
 21
2.5
 31
0.0
  0
LINE
  5
219
330
20
100
AcDbEntity
  8
MITTEL
100
AcDbLine
 10
59.44177167698748
 20
101.6553293534386
 30
0.0
 11
59.44177167698745
 21
76.65532935343866
 31
0.0
  0
ARC
  5
21B
102
{ACAD_REACTORS
330
3FF
102
}
330
20
100
AcDbEntity
  8
STEMPEL
100
AcDbCircle
 10
79.19177167698745
 20
91.65532935343867
 30
0.0
 40
5.0
100
AcDbArc
 50
360.0
 51
89.99999999999998
  0
ARC
  5
21C
102
{ACAD_REACTORS
330
3FF
102
}
330
20
100
AcDbEntity
  8
STEMPEL
100
AcDbCircle
 10
80.78792409969413
 20
84.65532935343869
 30
0.0
 40
1.0
100
AcDbArc
 50
23.62700202646171
 51
120.0
  0
LINE
  5
21D
102
{ACAD_REACTORS
330
3FF
102
}
330
20
100
AcDbEntity
  8
STEMPEL
100
AcDbLine
 10
76.24177167698746
 20
95.65532935343869
 30
0.0
 11
76.24177167698746
 21
89.25488293672964
 31
0.0
  0
ARC
  5
21E
102
{ACAD_REACTORS
330
3FF
102
}
330
20
100
AcDbEntity
  8
STEMPEL
100
AcDbCircle
 10
68.24177167698747
 20
89.25488293672964
 30
0.0
 40
8.0
100
AcDbArc
 50
330.0
 51
0.0
  0
LINE
  5
21F
102
{ACAD_REACTORS
330
3FF
102
}
330
20
100
AcDbEntity
  8
STEMPEL
100
AcDbLine
 10
73.59177167698746
 20
81.65532935343868
 30
0.0
 11
80.28792409969412
 21
85.52135475722314
 31
0.0
  0
LINE
  5
220
102
{ACAD_REACTORS
330
3FF
102
}
330
20
100
AcDbEntity
  8
STEMPEL
100
AcDbLine
 10
73.09177167698746
 20
81.65532935343868
 30
0.0
 11
75.16997490726298
 21
85.25488293672964
 31
0.0
  0
LINE
  5
222
102
{ACAD_REACTORS
330
3FF
102
}
330
20
100
AcDbEntity
  8
STEMPEL
100
AcDbLine
 10
76.24177167698746
 20
95.65532935343869
 30
0.0
 11
77.24177167698747
 21
96.65532935343868
 31
0.0
  0
ARC
  5
224
102
{ACAD_REACTORS
330
3FF
102
}
330
20
100
AcDbEntity
  8
STEMPEL
100
AcDbCircle
 10
74.74177167698747
 20
85.9984751039463
 30
0.0
 40
9.0
100
AcDbArc
 50
360.0
 51
38.94244126898124
  0
LINE
  5
226
102
{ACAD_REACTORS
330
3FF
102
}
330
20
100
AcDbEntity
  8
STEMPEL
100
AcDbLine
 10
83.74177167698746
 20
85.9984751039463
 30
0.0
 11
83.74177167698746
 21
81.65532935343867
 31
0.0
  0
LINE
  5
227
102
{ACAD_REACTORS
330
3FF
102
}
330
20
100
AcDbEntity
  8
STEMPEL
100
AcDbLine
 10
83.19177167698745
 20
81.65532935343868
 30
0.0
 11
81.70409805330487
 21
85.05611019969418
 31
0.0
  0
POINT
  5
229
330
20
100
AcDbEntity
  8
DEFPOINTS
  6
ByBlock
 62
     0
100
AcDbPoint
 10
83.55650232691479
 20
87.81520941837751
 30
0.0
  0
LINE
  5
22F
102
{ACAD_REACTORS
330
3FF
102
}
330
20
100
AcDbEntity
  8
STEMPEL
100
AcDbLine
 10
84.19177167698746
 20
91.65532935343868
 30
0.0
 11
81.74177167698747
 21
91.65532935343867
 31
0.0
  0
POINT
  5
230
330
20
100
AcDbEntity
  8
DEFPOINTS
  6
ByBlock
 62
     0
100
AcDbPoint
 10
84.15861831355774
 20
92.23016366764655
 30
0.0
  0
POINT
  5
231
330
20
100
AcDbEntity
  8
DEFPOINTS
  6
ByBlock
 62
     0
100
AcDbPoint
 10
83.27627731395486
 20
94.53921799580713
 30
0.0
  0
TEXT
  5
235
330
20
100
AcDbEntity
  8
TEXT
 62
     1
100
AcDbText
 10
14.15984991725935
 20
127.1497148820597
 30
0.0
 40
1.75
  1
Gravur: EN 1123 LORO DN40/32 Ms TG Nest.Nr. WC Jahreszahl
 41
0.8
  7
GREEKS
100
AcDbText
  0
LINE
  5
236
330
20
100
AcDbEntity
  8
TEXT
 62
     2
100
AcDbLine
 10
21.01646948753565
 20
126.1875118588731
 30
0.0
 11
14.15984991725935
 21
126.1875118588731
 31
0.0
  0
TEXT
  5
237
330
20
100
AcDbEntity
  8
TEXT
 62
     1
100
AcDbText
 10
36.08675943640477
 20
32.70380241178787
 30
0.0
 40
1.75
  1
Farbe: schwarz
 41
0.8
  7
GREEKS
100
AcDbText
  0
TEXT
  5
23B
330
20
100
AcDbEntity
  8
BEM
100
AcDbText
 10
104.1452885359359
 20
3.037012038345757
 30
0.0
 40
1.0
  1
Diese Zeichnung ist urheberrechtlich geschützt und bleibt unser Eigentum. Sie darf weder ganz noch teilweise vervielfältigt und nicht an Dritte weitergegeben werden.
 50
90.0
 41
0.8
  7
GREEKS
100
AcDbText
  0
ARC
  5
274
330
20
100
AcDbEntity
  8
TEXT
 62
     2
100
AcDbCircle
 10
90.63813677313971
 20
132.3444517940103
 30
0.0
 40
0.9367406831134985
100
AcDbArc
 50
268.4391661543623
 51
0.9693128199328132
  0
ARC
  5
275
330
20
100
AcDbEntity
  8
TEXT
 62
     2
100
AcDbCircle
 10
92.51135004254065
 20
132.3444517940103
 30
0.0
 40
0.9367406831134985
100
AcDbArc
 50
179.0306871800672
 51
271.5608338456491
  0
ARC
  5
276
330
20
100
AcDbEntity
  8
TEXT
 62
     2
100
AcDbCircle
 10
97.52174797991694
 20
130.4716655491037
 30
0.0
 40
0.9367406831134985
100
AcDbArc
 50
359.0306871800672
 51
91.56083384564263
  0
ARC
  5
277
330
20
100
AcDbEntity
  8
TEXT
 62
     2
100
AcDbCircle
 10
85.53918541087416
 20
130.4716655491037
 30
0.0
 40
0.9367406831134985
100
AcDbArc
 50
88.43916615436063
 51
180.9693128199328
  0
LINE
  5
278
330
20
100
AcDbEntity
  8
TEXT
 62
     2
100
AcDbLine
 10
92.53686528541891
 20
131.408058671557
 30
0.0
 11
97.49623273703873
 21
131.408058671557
 31
0.0
  0
LINE
  5
279
330
20
100
AcDbEntity
  8
TEXT
 62
     2
100
AcDbLine
 10
85.56470065375226
 20
131.408058671557
 30
0.0
 11
90.61262153026154
 21
131.408058671557
 31
0.0
  0
TEXT
  5
27A
330
20
100
AcDbEntity
  8
TEXT
 62
     2
100
AcDbText
 10
84.29179758430661
 20
133.4156734562495
 30
0.0
 40
1.0
  1
Raster für weitere Jahre
 41
0.8
  7
GREEKS
100
AcDbText
  0
LINE
  5
27B
330
20
100
AcDbEntity
  8
TEXT
 62
     1
100
AcDbLine
 10
84.52548626611672
 20
127.9172703618616
 30
0.0
 11
98.52548626611673
 21
127.9172703618616
 31
0.0
  0
LINE
  5
27C
330
20
100
AcDbEntity
  8
TEXT
 62
     1
100
AcDbLine
 10
98.52548626611673
 20
128.9593705818679
 30
0.0
 11
98.52548626611673
 21
126.8751701418552
 31
0.0
  0
LINE
  5
27D
330
20
100
AcDbEntity
  8
TEXT
 62
     1
100
AcDbLine
 10
96.52548626611674
 20
128.9593705818679
 30
0.0
 11
96.52548626611674
 21
126.8751701418552
 31
0.0
  0
LINE
  5
27E
330
20
100
AcDbEntity
  8
TEXT
 62
     1
100
AcDbLine
 10
94.52548626611672
 20
128.9593705818679
 30
0.0
 11
94.52548626611672
 21
126.8751701418552
 31
0.0
  0
LINE
  5
27F
330
20
100
AcDbEntity
  8
TEXT
 62
     1
100
AcDbLine
 10
92.52548626611673
 20
128.9593705818679
 30
0.0
 11
92.52548626611673
 21
126.8751701418552
 31
0.0
  0
LINE
  5
280
330
20
100
AcDbEntity
  8
TEXT
 62
     1
100
AcDbLine
 10
90.52548626611672
 20
128.9593705818679
 30
0.0
 11
90.52548626611672
 21
126.8751701418552
 31
0.0
  0
LINE
  5
281
330
20
100
AcDbEntity
  8
TEXT
 62
     1
100
AcDbLine
 10
88.52548626611673
 20
128.9593705818679
 30
0.0
 11
88.52548626611673
 21
126.8751701418552
 31
0.0
  0
LINE
  5
282
330
20
100
AcDbEntity
  8
TEXT
 62
     1
100
AcDbLine
 10
86.52548626611674
 20
128.9593705818679
 30
0.0
 11
86.52548626611674
 21
126.8751701418552
 31
0.0
  0
LINE
  5
283
330
20
100
AcDbEntity
  8
TEXT
 62
     1
100
AcDbLine
 10
84.52548626611672
 20
128.9593705818679
 30
0.0
 11
84.52548626611672
 21
126.8751701418552
 31
0.0
  0
HATCH
  5
3FF
330
20
100
AcDbEntity
  8
SCHRAFF
100
AcDbHatch
 10
0.0
 20
0.0
 30
0.0
210
0.0
220
0.0
230
1.0
  2
NET
 70
     0
 71
     1
 91
        2
 92
        7
 72
     1
 73
     1
 93
       14
 10
76.24177167698746
 20
89.25488293672964
 42
-0.1316524975873957
 10
75.16997490726298
 20
85.25488293672964
 42
0.0
 10
73.09177167698745
 20
81.65532935343867
 42
0.0
 10
73.59177167698742
 20
81.65532935343867
 42
0.0
 10
80.28792409969412
 20
85.52135475722314
 42
-0.4471802309708762
 10
81.70409805330487
 20
85.05611019969418
 42
0.0
 10
83.19177167698747
 20
81.65532935343867
 42
0.0
 10
83.74177167698746
 20
81.65532935343867
 42
0.0
 10
83.74177167698746
 20
85.9984751039463
 42
0.1715728752538091
 10
81.74177167698747
 20
91.65532935343867
 42
0.0
 10
84.19177167698746
 20
91.65532935343868
 42
0.4142135623730934
 10
79.19177167698745
 20
96.65532935343867
 42
0.0
 10
77.24177167698744
 20
96.65532935343867
 42
0.0
 10
76.24177167698748
 20
95.6553293534387
 42
0.0
 97
       13
330
1AF
330
222
330
21D
330
21E
330
220
330
1AE
330
21F
330
21C
330
227
330
226
330
224
330
22F
330
21B
 92
        7
 72
     1
 73
     1
 93
       14
 10
42.64177167698746
 20
95.6553293534387
 42
0.0
 10
41.64177167698747
 20
96.65532935343867
 42
0.0
 10
39.69177167698746
 20
96.65532935343867
 42
0.4142135623730934
 10
34.69177167698746
 20
91.65532935343868
 42
0.0
 10
37.14177167698746
 20
91.65532935343867
 42
0.1715728752538099
 10
35.14177167698746
 20
85.99847510394628
 42
0.0
 10
35.14177167698746
 20
81.65532935343867
 42
0.0
 10
35.69177167698744
 20
81.65532935343867
 42
0.0
 10
37.17944530067005
 20
85.05611019969418
 42
-0.4471802309708766
 10
38.59561925428081
 20
85.52135475722314
 42
0.0
 10
45.29177167698753
 20
81.65532935343867
 42
0.0
 10
45.79177167698749
 20
81.65532935343867
 42
0.0
 10
43.71356844671195
 20
85.25488293672966
 42
-0.1316524975873959
 10
42.64177167698746
 20
89.25488293672966
 42
0.0
 97
       13
330
1F9
330
1AF
330
1EB
330
1F2
330
1ED
330
1EF
330
1AE
330
1EE
330
1EC
330
1F6
330
1F7
330
1F8
330
1F5
 75
     0
 76
     1
 52
45.0
 41
10.0
 77
     0
 78
     2
 53
45.0
 43
0.0
 44
0.0
 45
-0.8838834764831842
 46
0.8838834764831844
 79
     0
 53
135.0
 43
0.0
 44
0.0
 45
-0.8838834764831844
 46
-0.8838834764831842
 79
     0
 47
0.1043234402659748
 98
        2
 10
78.34823019314263
 20
92.17074659641026
 10
40.97214953426544
 20
91.02318846750433
  0
DIMENSION
  5
496
102
{ACAD_XDICTIONARY
360
4A3
102
}
102
{ACAD_REACTORS
330
4AD
102
}
330
20
100
AcDbEntity
  8
SCHRAFF
100
AcDbDimension
  2
*D6
 10
31.19858469518272
 20
91.65532935343867
 30
0.0
 11
29.5735846951827
 21
86.65532935343867
 31
0.0
 70
    32
 71
     5
 42
10.0
  3
Standard
100
AcDbAlignedDimension
 13
35.14177167698746
 23
81.65532935343867
 33
0.0
 14
34.69177167698746
 24
91.65532935343867
 34
0.0
 50
90.0
100
AcDbRotatedDimension
1001
ACAD
1000
DSTYLE
1002
{
1070
    40
1040
0.5
1070
    41
1040
3.5
1070
    42
1040
0.5
1070
    43
1040
7.0
1070
    44
1040
0.5
1070
    47
1040
0.1
1070
    48
1040
0.1
1070
    73
1070
     0
1070
    74
1070
     0
1070
    77
1070
     1
1070
    78
1070
     8
1070
    79
1070
     2
1070
   140
1040
3.5
1070
   141
1040
1.5
1070
   146
1040
0.5
1070
   147
1040
1.5
1070
   172
1070
     1
1070
   178
1070
     1
1070
   179
1070
     2
1070
   271
1070
     2
1070
   272
1070
     2
1070
   284
1070
     8
1070
   285
1070
     8
1070
   286
1070
     8
1070
   340
1005
39
1002
}
  0
ENDSEC
  0
SECTION
  2
OBJECTS
  0
DICTIONARY
  5
C
330
0
100
AcDbDictionary
281
     1
  3
ACAD_COLOR
350
1B
  3
ACAD_GROUP
350
D
  3
ACAD_LAYOUT
350
19
  3
ACAD_MATERIAL
350
1A
  3
ACAD_MLINESTYLE
350
16
  3
ACAD_PLOTSETTINGS
350
18
  3
ACAD_PLOTSTYLENAME
350
E
  3
AcDbVariableDictionary
350
245
  0
DICTIONARY
  5
4A3
330
496
100
AcDbDictionary
280
     1
281
     1
  3
ACAD_DIMASSOC
360
4AD
  0
DICTIONARY
  5
1B
102
{ACAD_REACTORS
330
C
102
}
330
C
100
AcDbDictionary
281
     1
  0
DICTIONARY
  5
D
102
{ACAD_REACTORS
330
C
102
}
330
C
100
AcDbDictionary
281
     1
  0
DICTIONARY
  5
19
102
{ACAD_REACTORS
330
C
102
}
330
C
100
AcDbDictionary
281
     1
  3
Layout1
350
1F
  3
Model
350
23
  0
DICTIONARY
  5
1A
102
{ACAD_REACTORS
330
C
102
}
330
C
100
AcDbDictionary
281
     1
  0
DICTIONARY
  5
16
102
{ACAD_REACTORS
330
C
102
}
330
C
100
AcDbDictionary
281
     1
  3
Standard
350
17
  0
DICTIONARY
  5
18
102
{ACAD_REACTORS
330
C
102
}
330
C
100
AcDbDictionary
281
     1
  0
ACDBDICTIONARYWDFLT
  5
E
102
{ACAD_REACTORS
330
C
102
}
330
C
100
AcDbDictionary
281
     1
  3
Normal
350
F
100
AcDbDictionaryWithDefault
340
F
  0
DICTIONARY
  5
245
102
{ACAD_REACTORS
330
C
102
}
330
C
100
AcDbDictionary
281
     1
  3
DIMASSOC
350
247
  3
HIDETEXT
350
246
  3
PROJECTNAME
350
248
  0
DIMASSOC
  5
4AD
102
{ACAD_REACTORS
330
4A3
102
}
330
4A3
100
AcDbDimAssoc
330
496
 90
        3
 70
     0
 71
     0
  1
AcDbOsnapPointRef
 72
    13
331
1AE
 73
     2
 91
        0
 40
0.0
 10
0.0
 20
0.0
 30
2.000000000000000E+50
 75
     0
  1
AcDbOsnapPointRef
 72
     1
331
1EB
 73
     2
 91
        0
 40
3.141592653589793
 10
0.0
 20
0.0
 30
2.000000000000000E+50
 75
     0
  0
LAYOUT
  5
1F
102
{ACAD_REACTORS
330
19
102
}
330
19
100
AcDbPlotSettings
  1

  2
RICOH Aficio 2027 PCL 6
  4

  6

 40
0.0
 41
0.0
 42
0.0
 43
0.0
 44
0.0
 45
0.0
 46
0.0
 47
0.0
 48
0.0
 49
0.0
140
0.0
141
0.0
142
1.0
143
1.0
 70
   688
 72
     0
 73
     0
 74
     5
  7
monochrome1.ctb
 75
    16
147
1.0
 76
     0
 77
     2
 78
   300
148
0.0
149
0.0
100
AcDbLayout
  1
Layout1
 70
     0
 71
     1
 10
0.0
 20
0.0
 11
12.0
 21
9.0
 12
0.0
 22
0.0
 32
0.0
 14
1.000000000000000E+20
 24
1.000000000000000E+20
 34
1.000000000000000E+20
 15
-1.000000000000000E+20
 25
-1.000000000000000E+20
 35
-1.000000000000000E+20
146
0.0
 13
0.0
 23
0.0
 33
0.0
 16
1.0
 26
0.0
 36
0.0
 17
0.0
 27
1.0
 37
0.0
 76
     0
330
1C
  0
LAYOUT
  5
23
102
{ACAD_REACTORS
330
19
102
}
330
19
100
AcDbPlotSettings
  1

  2
RICOH Aficio 2027 PCL 6
  4
A4
  6

 40
5.027083396911621
 41
5.027085304260253
 42
5.027084350585937
 43
5.027069091796875
 44
209.9733276367187
 45
296.9259948730469
 46
0.0
 47
0.0
 48
0.0
 49
0.0
140
0.0
141
0.0
142
1.0
143
1.0
 70
 11952
 72
     0
 73
     1
 74
     0
  7
monochrome1.ctb
 75
     0
147
1.0
 76
     0
 77
     2
 78
   300
148
576.4443508764173
149
24.04023174851503
100
AcDbLayout
  1
Model
 70
     1
 71
     0
 10
0.0
 20
0.0
 11
12.0
 21
9.0
 12
0.0
 22
0.0
 32
0.0
 14
0.0
 24
0.0
 34
0.0
 15
0.0
 25
0.0
 35
0.0
146
0.0
 13
0.0
 23
0.0
 33
0.0
 16
1.0
 26
0.0
 36
0.0
 17
0.0
 27
1.0
 37
0.0
 76
     0
330
20
  0
MLINESTYLE
  5
17
102
{ACAD_REACTORS
330
16
102
}
330
16
100
AcDbMlineStyle
  2
STANDARD
 70
     0
  3

 62
   256
 51
90.0
 52
90.0
 71
     2
 49
0.5
 62
   256
  6
BYLAYER
 49
-0.5
 62
   256
  6
BYLAYER
  0
ACDBPLACEHOLDER
  5
F
102
{ACAD_REACTORS
330
E
102
}
330
E
  0
DICTIONARYVAR
  5
247
102
{ACAD_REACTORS
330
245
102
}
330
245
100
DictionaryVariables
280
     0
  1
2
  0
DICTIONARYVAR
  5
246
102
{ACAD_REACTORS
330
245
102
}
330
245
100
DictionaryVariables
280
     0
  1
1
  0
DICTIONARYVAR
  5
248
102
{ACAD_REACTORS
330
245
102
}
330
245
100
DictionaryVariables
280
     0
  1

  0
ENDSEC
  0
EOF
