  0
SECTION
  2
HEADER
  9
$ACADVER
  1
AC1018
  9
$ACADMAINTVER
 70
     2
  9
$DWGCODEPAGE
  3
ANSI_1252
  9
$INSBASE
 10
0.0
 20
0.0
 30
0.0
  9
$EXTMIN
 10
-0.0128083857498496
 20
-0.0090573584946014
 30
-0.0000000000112498
  9
$EXTMAX
 10
840.0128201211309
 20
594.0090656570857
 30
0.0000000000002956
  9
$LIMMIN
 10
0.0
 20
0.0
  9
$LIMMAX
 10
839.9999999999998
 20
594.0000000000002
  9
$ORTHOMODE
 70
     1
  9
$REGENMODE
 70
     1
  9
$FILLMODE
 70
     1
  9
$QTEXTMODE
 70
     0
  9
$MIRRTEXT
 70
     1
  9
$LTSCALE
 40
20.0
  9
$ATTMODE
 70
     1
  9
$TEXTSIZE
 40
2.5
  9
$TRACEWID
 40
0.5
  9
$TEXTSTYLE
  7
GREEKS
  9
$CLAYER
  8
SCHRAFF
  9
$CELTYPE
  6
ByLayer
  9
$CECOLOR
 62
   256
  9
$CELTSCALE
 40
1.0
  9
$DISPSILH
 70
     0
  9
$DIMSCALE
 40
2.0
  9
$DIMASZ
 40
3.5
  9
$DIMEXO
 40
1.0
  9
$DIMDLI
 40
7.0
  9
$DIMRND
 40
0.0
  9
$DIMDLE
 40
0.0
  9
$DIMEXE
 40
1.0
  9
$DIMTP
 40
0.0
  9
$DIMTM
 40
0.0
  9
$DIMTXT
 40
3.5
  9
$DIMCEN
 40
1.5
  9
$DIMTSZ
 40
0.0
  9
$DIMTOL
 70
     0
  9
$DIMLIM
 70
     0
  9
$DIMTIH
 70
     0
  9
$DIMTOH
 70
     0
  9
$DIMSE1
 70
     0
  9
$DIMSE2
 70
     0
  9
$DIMTAD
 70
     1
  9
$DIMZIN
 70
     8
  9
$DIMBLK
  1

  9
$DIMASO
 70
     1
  9
$DIMSHO
 70
     0
  9
$DIMPOST
  1

  9
$DIMAPOST
  1

  9
$DIMALT
 70
     0
  9
$DIMALTD
 70
     2
  9
$DIMALTF
 40
25.4
  9
$DIMLFAC
 40
1.0
  9
$DIMTOFL
 70
     1
  9
$DIMTVP
 40
0.0
  9
$DIMTIX
 70
     0
  9
$DIMSOXD
 70
     0
  9
$DIMSAH
 70
     0
  9
$DIMBLK1
  1

  9
$DIMBLK2
  1

  9
$DIMSTYLE
  2
Standard
  9
$DIMCLRD
 70
     0
  9
$DIMCLRE
 70
     0
  9
$DIMCLRT
 70
     1
  9
$DIMTFAC
 40
0.5142857142857144
  9
$DIMGAP
 40
1.5
  9
$DIMJUST
 70
     0
  9
$DIMSD1
 70
     0
  9
$DIMSD2
 70
     0
  9
$DIMTOLJ
 70
     1
  9
$DIMTZIN
 70
     8
  9
$DIMALTZ
 70
     8
  9
$DIMALTTZ
 70
     8
  9
$DIMUPT
 70
     0
  9
$DIMDEC
 70
     2
  9
$DIMTDEC
 70
     2
  9
$DIMALTU
 70
     2
  9
$DIMALTTD
 70
     2
  9
$DIMTXSTY
  7
GREEKS
  9
$DIMAUNIT
 70
     0
  9
$DIMADEC
 70
     2
  9
$DIMALTRND
 40
0.0
  9
$DIMAZIN
 70
     2
  9
$DIMDSEP
 70
    46
  9
$DIMATFIT
 70
     3
  9
$DIMFRAC
 70
     0
  9
$DIMLDRBLK
  1

  9
$DIMLUNIT
 70
     2
  9
$DIMLWD
 70
    -2
  9
$DIMLWE
 70
    -2
  9
$DIMTMOVE
 70
     2
  9
$LUNITS
 70
     2
  9
$LUPREC
 70
     2
  9
$SKETCHINC
 40
1.0
  9
$FILLETRAD
 40
0.0
  9
$AUNITS
 70
     0
  9
$AUPREC
 70
     0
  9
$MENU
  1
ACAD
  9
$ELEVATION
 40
0.0
  9
$PELEVATION
 40
0.0
  9
$THICKNESS
 40
0.0
  9
$LIMCHECK
 70
     0
  9
$CHAMFERA
 40
0.0
  9
$CHAMFERB
 40
0.0
  9
$CHAMFERC
 40
0.0
  9
$CHAMFERD
 40
0.0
  9
$SKPOLY
 70
     0
  9
$TDCREATE
 40
2451337.601764699
  9
$TDUCREATE
 40
2451337.518431366
  9
$TDUPDATE
 40
2455449.569484363
  9
$TDUUPDATE
 40
2455449.486151030
  9
$TDINDWG
 40
0.3913232407
  9
$TDUSRTIMER
 40
0.3913232407
  9
$USRTIMER
 70
     1
  9
$ANGBASE
 50
0.0
  9
$ANGDIR
 70
     0
  9
$PDMODE
 70
     0
  9
$PDSIZE
 40
0.0
  9
$PLINEWID
 40
0.0
  9
$SPLFRAME
 70
     0
  9
$SPLINETYPE
 70
     6
  9
$SPLINESEGS
 70
     8
  9
$HANDSEED
  5
5F3
  9
$SURFTAB1
 70
     6
  9
$SURFTAB2
 70
     6
  9
$SURFTYPE
 70
     6
  9
$SURFU
 70
     6
  9
$SURFV
 70
     6
  9
$UCSBASE
  2

  9
$UCSNAME
  2

  9
$UCSORG
 10
0.0
 20
0.0
 30
0.0
  9
$UCSXDIR
 10
1.0
 20
0.0
 30
0.0
  9
$UCSYDIR
 10
0.0
 20
1.0
 30
0.0
  9
$UCSORTHOREF
  2

  9
$UCSORTHOVIEW
 70
     0
  9
$UCSORGTOP
 10
0.0
 20
0.0
 30
0.0
  9
$UCSORGBOTTOM
 10
0.0
 20
0.0
 30
0.0
  9
$UCSORGLEFT
 10
0.0
 20
0.0
 30
0.0
  9
$UCSORGRIGHT
 10
0.0
 20
0.0
 30
0.0
  9
$UCSORGFRONT
 10
0.0
 20
0.0
 30
0.0
  9
$UCSORGBACK
 10
0.0
 20
0.0
 30
0.0
  9
$PUCSBASE
  2

  9
$PUCSNAME
  2

  9
$PUCSORG
 10
0.0
 20
0.0
 30
0.0
  9
$PUCSXDIR
 10
1.0
 20
0.0
 30
0.0
  9
$PUCSYDIR
 10
0.0
 20
1.0
 30
0.0
  9
$PUCSORTHOREF
  2

  9
$PUCSORTHOVIEW
 70
     0
  9
$PUCSORGTOP
 10
0.0
 20
0.0
 30
0.0
  9
$PUCSORGBOTTOM
 10
0.0
 20
0.0
 30
0.0
  9
$PUCSORGLEFT
 10
0.0
 20
0.0
 30
0.0
  9
$PUCSORGRIGHT
 10
0.0
 20
0.0
 30
0.0
  9
$PUCSORGFRONT
 10
0.0
 20
0.0
 30
0.0
  9
$PUCSORGBACK
 10
0.0
 20
0.0
 30
0.0
  9
$USERI1
 70
     0
  9
$USERI2
 70
     0
  9
$USERI3
 70
     0
  9
$USERI4
 70
     0
  9
$USERI5
 70
     0
  9
$USERR1
 40
0.0
  9
$USERR2
 40
0.0
  9
$USERR3
 40
0.0
  9
$USERR4
 40
0.0
  9
$USERR5
 40
0.0
  9
$WORLDVIEW
 70
     1
  9
$SHADEDGE
 70
     3
  9
$SHADEDIF
 70
    70
  9
$TILEMODE
 70
     1
  9
$MAXACTVP
 70
    16
  9
$PINSBASE
 10
0.0
 20
0.0
 30
0.0
  9
$PLIMCHECK
 70
     0
  9
$PEXTMIN
 10
1.000000000000000E+20
 20
1.000000000000000E+20
 30
1.000000000000000E+20
  9
$PEXTMAX
 10
-1.000000000000000E+20
 20
-1.000000000000000E+20
 30
-1.000000000000000E+20
  9
$PLIMMIN
 10
0.0
 20
0.0
  9
$PLIMMAX
 10
12.0
 20
9.0
  9
$UNITMODE
 70
     0
  9
$VISRETAIN
 70
     0
  9
$PLINEGEN
 70
     0
  9
$PSLTSCALE
 70
     0
  9
$TREEDEPTH
 70
  3020
  9
$CMLSTYLE
  2
Standard
  9
$CMLJUST
 70
     0
  9
$CMLSCALE
 40
1.0
  9
$PROXYGRAPHICS
 70
     1
  9
$MEASUREMENT
 70
     0
  9
$CELWEIGHT
370
    -1
  9
$ENDCAPS
280
     0
  9
$JOINSTYLE
280
     0
  9
$LWDISPLAY
290
     0
  9
$INSUNITS
 70
     0
  9
$HYPERLINKBASE
  1

  9
$STYLESHEET
  1
monochrome 1.ctb
  9
$XEDIT
290
     1
  9
$CEPSNTYPE
380
     0
  9
$PSTYLEMODE
290
     1
  9
$FINGERPRINTGUID
  2
{31C6FD4E-1CE0-481F-8A5D-CCEF44C0DF4C}
  9
$VERSIONGUID
  2
{A18D42B6-BB4F-4CEC-850F-598193F91909}
  9
$EXTNAMES
290
     1
  9
$PSVPSCALE
 40
0.0
  9
$OLESTARTUP
290
     0
  9
$SORTENTS
280
   127
  9
$INDEXCTL
280
     0
  9
$HIDETEXT
280
     1
  9
$XCLIPFRAME
290
     0
  9
$HALOGAP
280
     0
  9
$OBSCOLOR
 70
   257
  9
$OBSLTYPE
280
     0
  9
$INTERSECTIONDISPLAY
280
     0
  9
$INTERSECTIONCOLOR
 70
   257
  9
$DIMASSOC
280
     2
  9
$PROJECTNAME
  1

  0
ENDSEC
  0
SECTION
  2
CLASSES
  0
CLASS
  1
ACDBDICTIONARYWDFLT
  2
AcDbDictionaryWithDefault
  3
ObjectDBX Classes
 90
        0
 91
        1
280
     0
281
     0
  0
CLASS
  1
DICTIONARYVAR
  2
AcDbDictionaryVar
  3
ObjectDBX Classes
 90
        0
 91
        3
280
     0
281
     0
  0
CLASS
  1
DIMASSOC
  2
AcDbDimAssoc
  3
"AcDbDimAssoc|Product Desc:     AcDim ARX App For Dimension|Company:          Autodesk, Inc.|WEB Address:      www.autodesk.com"
 90
        0
 91
        4
280
     0
281
     0
  0
ENDSEC
  0
SECTION
  2
TABLES
  0
TABLE
  2
VPORT
  5
8
330
0
100
AcDbSymbolTable
 70
     2
  0
VPORT
  5
5F2
330
8
100
AcDbSymbolTableRecord
100
AcDbViewportTableRecord
  2
*Active
 70
     0
 10
0.0
 20
0.0
 11
1.0
 21
1.0
 12
420.0000058676905
 22
297.0000041492955
 13
0.0
 23
0.0
 14
1.0
 24
1.0
 15
10.0
 25
10.0
 16
0.0
 26
0.0
 36
1.0
 17
0.0
 27
0.0
 37
0.0
 40
632.1208630222709
 41
1.336927223719676
 42
50.0
 43
0.0
 44
0.0
 50
0.0
 51
0.0
 71
     0
 72
  1500
 73
     1
 74
     0
 75
     0
 76
     0
 77
     0
 78
     0
281
     0
 65
     1
110
0.0
120
0.0
130
0.0
111
1.0
121
0.0
131
0.0
112
0.0
122
1.0
132
0.0
 79
     0
146
0.0
  0
ENDTAB
  0
TABLE
  2
LTYPE
  5
5
330
0
100
AcDbSymbolTable
 70
     3
  0
LTYPE
  5
13
330
5
100
AcDbSymbolTableRecord
100
AcDbLinetypeTableRecord
  2
ByBlock
 70
     0
  3

 72
    65
 73
     0
 40
0.0
  0
LTYPE
  5
14
330
5
100
AcDbSymbolTableRecord
100
AcDbLinetypeTableRecord
  2
ByLayer
 70
     0
  3

 72
    65
 73
     0
 40
0.0
  0
LTYPE
  5
15
330
5
100
AcDbSymbolTableRecord
100
AcDbLinetypeTableRecord
  2
Continuous
 70
     0
  3
Solid line
 72
    65
 73
     0
 40
0.0
  0
LTYPE
  5
7E
330
5
100
AcDbSymbolTableRecord
100
AcDbLinetypeTableRecord
  2
STRICHPUNKT
 70
     0
  3
__ . __ . __ . __ . __ . __ . __ . __ . __ . __
 72
    65
 73
     4
 40
1.0
 49
0.5
 74
     0
 49
-0.25
 74
     0
 49
0.0
 74
     0
 49
-0.25
 74
     0
  0
LTYPE
  5
7F
330
5
100
AcDbSymbolTableRecord
100
AcDbLinetypeTableRecord
  2
VERDECKT
 70
     0
  3
_ _ _ _ _ _ _ _ _ _ _ _ _ _ _ _ _ _ _ _ _ _ _
 72
    65
 73
     2
 40
0.375
 49
0.25
 74
     0
 49
-0.125
 74
     0
  0
ENDTAB
  0
TABLE
  2
LAYER
  5
2
330
0
100
AcDbSymbolTable
 70
    10
  0
LAYER
  5
10
330
2
100
AcDbSymbolTableRecord
100
AcDbLayerTableRecord
  2
0
 70
     0
 62
     7
  6
Continuous
370
    -3
390
F
  0
LAYER
  5
83
330
2
100
AcDbSymbolTableRecord
100
AcDbLayerTableRecord
  2
VOLL
 70
     0
 62
     1
  6
Continuous
370
    -3
390
F
  0
LAYER
  5
84
330
2
100
AcDbSymbolTableRecord
100
AcDbLayerTableRecord
  2
HILF
 70
     0
 62
     2
  6
Continuous
370
    -3
390
F
  0
LAYER
  5
85
330
2
100
AcDbSymbolTableRecord
100
AcDbLayerTableRecord
  2
MITTEL
 70
     0
 62
     2
  6
STRICHPUNKT
370
    -3
390
F
  0
LAYER
  5
86
330
2
100
AcDbSymbolTableRecord
100
AcDbLayerTableRecord
  2
VERDECKT
 70
     0
 62
     6
  6
VERDECKT
370
    -3
390
F
  0
LAYER
  5
87
330
2
100
AcDbSymbolTableRecord
100
AcDbLayerTableRecord
  2
BEM
 70
     0
 62
     7
  6
Continuous
370
    -3
390
F
  0
LAYER
  5
88
330
2
100
AcDbSymbolTableRecord
100
AcDbLayerTableRecord
  2
STEMPEL
 70
     0
 62
     3
  6
Continuous
370
    -3
390
F
  0
LAYER
  5
89
330
2
100
AcDbSymbolTableRecord
100
AcDbLayerTableRecord
  2
TEXT
 70
     0
 62
     7
  6
Continuous
370
    -3
390
F
  0
LAYER
  5
8A
330
2
100
AcDbSymbolTableRecord
100
AcDbLayerTableRecord
  2
SCHRAFF
 70
     0
 62
     7
  6
Continuous
370
    -3
390
F
  0
LAYER
  5
8B
330
2
100
AcDbSymbolTableRecord
100
AcDbLayerTableRecord
  2
DEFPOINTS
 70
     0
 62
     7
  6
Continuous
290
     0
370
    -3
390
F
  0
ENDTAB
  0
TABLE
  2
STYLE
  5
3
330
0
100
AcDbSymbolTable
 70
     2
  0
STYLE
  5
11
330
3
100
AcDbSymbolTableRecord
100
AcDbTextStyleTableRecord
  2
STANDARD
 70
     0
 40
0.0
 41
1.0
 50
0.0
 71
     0
 42
3.5
  3
txt
  4

  0
STYLE
  5
7D
330
3
100
AcDbSymbolTableRecord
100
AcDbTextStyleTableRecord
  2
GREEKS
 70
     0
 40
0.0
 41
0.8
 50
0.0
 71
     0
 42
2.5
  3
SIMPLEX.shx
  4

  0
ENDTAB
  0
TABLE
  2
VIEW
  5
6
330
0
100
AcDbSymbolTable
 70
     0
  0
ENDTAB
  0
TABLE
  2
UCS
  5
7
330
0
100
AcDbSymbolTable
 70
     0
  0
ENDTAB
  0
TABLE
  2
APPID
  5
9
330
0
100
AcDbSymbolTable
 70
     1
  0
APPID
  5
12
330
9
100
AcDbSymbolTableRecord
100
AcDbRegAppTableRecord
  2
ACAD
 70
     0
  0
ENDTAB
  0
TABLE
  2
DIMSTYLE
  5
A
330
0
100
AcDbSymbolTable
 70
     1
100
AcDbDimStyleTable
 71
     1
340
50F
  0
DIMSTYLE
105
50F
102
{ACAD_REACTORS
330
543
330
566
330
57E
330
4E0
330
5BE
102
}
330
A
100
AcDbSymbolTableRecord
100
AcDbDimStyleTableRecord
  2
Standard
 70
     0
340
11
  0
ENDTAB
  0
TABLE
  2
BLOCK_RECORD
  5
1
330
0
100
AcDbSymbolTable
 70
     9
  0
BLOCK_RECORD
  5
20
330
1
100
AcDbSymbolTableRecord
100
AcDbBlockTableRecord
  2
*Model_Space
340
23
  0
BLOCK_RECORD
  5
1C
330
1
100
AcDbSymbolTableRecord
100
AcDbBlockTableRecord
  2
*Paper_Space
340
1F
  0
BLOCK_RECORD
  5
24
330
1
100
AcDbSymbolTableRecord
100
AcDbBlockTableRecord
  2
LOGO
340
0
102
{BLKREFS
331
38D
102
}
  0
BLOCK_RECORD
  5
4F
330
1
100
AcDbSymbolTableRecord
100
AcDbBlockTableRecord
  2
*X1
340
0
102
{BLKREFS
331
406
102
}
  0
BLOCK_RECORD
  5
5E
330
1
100
AcDbSymbolTableRecord
100
AcDbBlockTableRecord
  2
*D2
340
0
  0
BLOCK_RECORD
  5
5F
330
1
100
AcDbSymbolTableRecord
100
AcDbBlockTableRecord
  2
*D3
340
0
  0
BLOCK_RECORD
  5
544
330
1
100
AcDbSymbolTableRecord
100
AcDbBlockTableRecord
  2
*D4
340
0
  0
BLOCK_RECORD
  5
567
330
1
100
AcDbSymbolTableRecord
100
AcDbBlockTableRecord
  2
*D5
340
0
  0
BLOCK_RECORD
  5
57F
330
1
100
AcDbSymbolTableRecord
100
AcDbBlockTableRecord
  2
*D6
340
0
  0
BLOCK_RECORD
  5
59A
330
1
100
AcDbSymbolTableRecord
100
AcDbBlockTableRecord
  2
*D7
340
0
  0
BLOCK_RECORD
  5
5BF
330
1
100
AcDbSymbolTableRecord
100
AcDbBlockTableRecord
  2
*D8
340
0
  0
ENDTAB
  0
ENDSEC
  0
SECTION
  2
BLOCKS
  0
BLOCK
  5
8F
330
20
100
AcDbEntity
  8
0
100
AcDbBlockBegin
  2
*Model_Space
 70
     0
 10
0.0
 20
0.0
 30
0.0
  3
*Model_Space
  1

  0
ENDBLK
  5
90
330
20
100
AcDbEntity
  8
0
100
AcDbBlockEnd
  0
BLOCK
  5
8D
330
1C
100
AcDbEntity
 67
     1
  8
0
100
AcDbBlockBegin
  2
*Paper_Space
 70
     0
 10
0.0
 20
0.0
 30
0.0
  3
*Paper_Space
  1

  0
ENDBLK
  5
8E
330
1C
100
AcDbEntity
 67
     1
  8
0
100
AcDbBlockEnd
  0
BLOCK
  5
91
330
24
100
AcDbEntity
  8
0
100
AcDbBlockBegin
  2
LOGO
 70
     0
 10
0.0
 20
0.0
 30
0.0
  3
LOGO
  1

  0
ARC
  5
92
330
24
100
AcDbEntity
  8
0
100
AcDbCircle
 10
11.59973089678112
 20
-9.271599258481501
 30
0.0
 40
4.5
100
AcDbArc
 50
270.0
 51
231.0575587310159
  0
LINE
  5
93
330
24
100
AcDbEntity
  8
0
100
AcDbLine
 10
3.599730896781125
 20
-4.771599258481529
 30
0.0
 11
3.599730896781153
 21
-11.77159925848133
 31
0.0
  0
LINE
  5
94
330
24
100
AcDbEntity
  8
0
100
AcDbLine
 10
2.599730896781125
 20
-4.771599258481529
 30
0.0
 11
2.599730896781153
 21
-11.77159925848133
 31
0.0
  0
CIRCLE
  5
95
330
24
100
AcDbEntity
  8
0
100
AcDbCircle
 10
11.59973089678112
 20
-9.271599258481501
 30
0.0
 40
3.5
  0
ARC
  5
96
330
24
100
AcDbEntity
  8
0
100
AcDbCircle
 10
31.59973089678115
 20
-9.271599258481472
 30
0.0
 40
4.5
100
AcDbArc
 50
270.0
 51
231.0575587310182
  0
LINE
  5
97
330
24
100
AcDbEntity
  8
0
100
AcDbLine
 10
17.59973089678112
 20
-4.771599258481472
 30
0.0
 11
17.59973089678115
 21
-13.77159925848147
 31
0.0
  0
ARC
  5
98
330
24
100
AcDbEntity
  8
0
100
AcDbCircle
 10
22.59973089678116
 20
-7.271599258481472
 30
0.0
 40
2.5
100
AcDbArc
 50
293.1161887722295
 51
90.0
  0
CIRCLE
  5
99
330
24
100
AcDbEntity
  8
0
100
AcDbCircle
 10
31.59973089678115
 20
-9.271599258481472
 30
0.0
 40
3.5
  0
ARC
  5
9A
330
24
100
AcDbEntity
  8
0
100
AcDbCircle
 10
4.599730896781153
 20
-11.77159925848133
 30
0.0
 40
1.0
100
AcDbArc
 50
180.0
 51
270.0
  0
ARC
  5
9B
330
24
100
AcDbEntity
  8
0
100
AcDbCircle
 10
4.599730896781153
 20
-11.77159925848133
 30
0.0
 40
2.0
100
AcDbArc
 50
179.9999999999992
 51
270.0
  0
LINE
  5
9C
330
24
100
AcDbEntity
  8
0
100
AcDbLine
 10
11.59973089678115
 20
-13.77159925848144
 30
0.0
 11
4.599730896781153
 21
-13.77159925848147
 31
0.0
  0
LINE
  5
9D
330
24
100
AcDbEntity
  8
0
100
AcDbLine
 10
8.771303772034769
 20
-12.77159925848136
 30
0.0
 11
4.599730896781153
 21
-12.77159925848133
 31
0.0
  0
LINE
  5
9E
330
24
100
AcDbEntity
  8
0
100
AcDbLine
 10
31.59973089678115
 20
-13.77159925848147
 30
0.0
 11
23.6715276665056
 21
-13.77159925848144
 31
0.0
  0
LINE
  5
9F
330
24
100
AcDbEntity
  8
0
100
AcDbLine
 10
23.56565672307022
 20
-9.51278021337896
 30
0.0
 11
24.4388546544846
 21
-12.77159925848144
 31
0.0
  0
LINE
  5
A0
330
24
100
AcDbEntity
  8
0
100
AcDbLine
 10
22.59973089678116
 20
-9.771599258481472
 30
0.0
 11
18.59973089678112
 21
-9.771599258481472
 31
0.0
  0
LINE
  5
A1
330
24
100
AcDbEntity
  8
0
100
AcDbLine
 10
18.59973089678115
 20
-13.77159925848144
 30
0.0
 11
17.59973089678115
 21
-13.77159925848144
 31
0.0
  0
LINE
  5
A2
330
24
100
AcDbEntity
  8
0
100
AcDbLine
 10
18.59973089678115
 20
-9.771599258481472
 30
0.0
 11
18.59973089678115
 21
-13.77159925848144
 31
0.0
  0
LINE
  5
A3
330
24
100
AcDbEntity
  8
0
100
AcDbLine
 10
22.59973089678116
 20
-9.771599258481472
 30
0.0
 11
23.67152766650562
 21
-13.77159925848147
 31
0.0
  0
ARC
  5
A4
330
24
100
AcDbEntity
  8
0
100
AcDbCircle
 10
22.59973089678116
 20
-7.271599258481472
 30
0.0
 40
2.5
100
AcDbArc
 50
270.0
 51
270.0000000000007
  0
LINE
  5
A5
330
24
100
AcDbEntity
  8
0
100
AcDbLine
 10
28.77130377203494
 20
-12.77159925848147
 30
0.0
 11
24.43885465448463
 21
-12.77159925848144
 31
0.0
  0
LINE
  5
A6
330
24
100
AcDbEntity
  8
0
100
AcDbLine
 10
3.599730896781125
 20
-4.771599258481472
 30
0.0
 11
2.599730896781125
 21
-4.771599258481472
 31
0.0
  0
LINE
  5
A7
330
24
100
AcDbEntity
  8
0
100
AcDbLine
 10
22.59973089678116
 20
-8.771599258481472
 30
0.0
 11
18.59973089678115
 21
-8.771599258481472
 31
0.0
  0
LINE
  5
A8
330
24
100
AcDbEntity
  8
0
100
AcDbLine
 10
22.59973089678116
 20
-5.771599258481472
 30
0.0
 11
18.59973089678115
 21
-5.771599258481472
 31
0.0
  0
LINE
  5
A9
330
24
100
AcDbEntity
  8
0
100
AcDbLine
 10
22.59973089678116
 20
-4.771599258481472
 30
0.0
 11
17.59973089678115
 21
-4.771599258481472
 31
0.0
  0
LINE
  5
AA
330
24
100
AcDbEntity
  8
0
100
AcDbLine
 10
18.59973089678115
 20
-5.771599258481472
 30
0.0
 11
18.59973089678115
 21
-8.771599258481472
 31
0.0
  0
ARC
  5
AB
330
24
100
AcDbEntity
  8
0
100
AcDbCircle
 10
22.59973089678116
 20
-7.271599258481472
 30
0.0
 40
1.5
100
AcDbArc
 50
270.0
 51
90.0
  0
ENDBLK
  5
AC
330
24
100
AcDbEntity
  8
0
100
AcDbBlockEnd
  0
BLOCK
  5
127
330
4F
100
AcDbEntity
  8
0
100
AcDbBlockBegin
  2
*X1
 70
     1
 10
0.0
 20
0.0
 30
0.0
  3
*X1
  1

  0
LINE
  5
128
330
4F
100
AcDbEntity
  8
0
 62
     0
100
AcDbLine
 10
794.0907516273827
 20
74.04896744062914
 30
0.0
 11
796.452920807452
 21
74.68190876481442
 31
0.0
  0
LINE
  5
129
330
4F
100
AcDbEntity
  8
0
 62
     0
100
AcDbLine
 10
791.6412618845996
 20
75.46318100300223
 30
0.0
 11
797.8671343698252
 21
77.13139850759759
 31
0.0
  0
LINE
  5
12A
330
4F
100
AcDbEntity
  8
0
 62
     0
100
AcDbLine
 10
789.1917721418162
 20
76.87739456537532
 30
0.0
 11
796.0218991607384
 21
78.70752158429751
 31
0.0
  0
LINE
  5
12B
330
4F
100
AcDbEntity
  8
0
 62
     0
100
AcDbLine
 10
786.2576311607914
 20
78.16174621985081
 30
0.0
 11
793.5724094179553
 21
80.12173514667061
 31
0.0
  0
LINE
  5
12C
330
4F
100
AcDbEntity
  8
0
 62
     0
100
AcDbLine
 10
786.9392190273101
 20
80.41492949907555
 30
0.0
 11
791.1229196751722
 21
81.5359487090437
 31
0.0
  0
LINE
  5
12D
330
4F
100
AcDbEntity
  8
0
 62
     0
100
AcDbLine
 10
787.7142804377811
 20
82.69315893891592
 30
0.0
 11
788.21009035112
 21
82.82601080479443
 31
0.0
  0
LINE
  5
12E
330
4F
100
AcDbEntity
  8
0
 62
     0
100
AcDbLine
 10
807.2365595619615
 20
71.35971897809368
 30
0.0
 11
808.2693478746543
 21
71.63645377243203
 31
0.0
  0
LINE
  5
12F
330
4F
100
AcDbEntity
  8
0
 62
     0
100
AcDbLine
 10
805.8223459995883
 20
68.91022923531051
 30
0.0
 11
810.7188376174375
 21
70.22224021005893
 31
0.0
  0
LINE
  5
130
330
4F
100
AcDbEntity
  8
0
 62
     0
100
AcDbLine
 10
806.3382003412986
 20
66.97789962876365
 30
0.0
 11
813.1683273602206
 21
68.80802664768584
 31
0.0
  0
LINE
  5
131
330
4F
100
AcDbEntity
  8
0
 62
     0
100
AcDbLine
 10
808.7876900840818
 20
65.56368606639056
 30
0.0
 11
815.6178171030038
 21
67.39381308531275
 31
0.0
  0
LINE
  5
132
330
4F
100
AcDbEntity
  8
0
 62
     0
100
AcDbLine
 10
811.2371798268648
 20
64.14947250401747
 30
0.0
 11
818.0673068457871
 21
65.97959952293964
 31
0.0
  0
LINE
  5
133
330
4F
100
AcDbEntity
  8
0
 62
     0
100
AcDbLine
 10
813.6866695696481
 20
62.73525894164437
 30
0.0
 11
819.9728601049704
 21
64.41963861905215
 31
0.0
  0
LINE
  5
134
330
4F
100
AcDbEntity
  8
0
 62
     0
100
AcDbLine
 10
816.1361593124313
 20
61.32104537927128
 30
0.0
 11
818.5586465425974
 21
61.97014887626899
 31
0.0
  0
ENDBLK
  5
135
330
4F
100
AcDbEntity
  8
0
100
AcDbBlockEnd
  0
BLOCK
  5
1CA
330
5E
100
AcDbEntity
  8
0
100
AcDbBlockBegin
  2
*D2
 70
     1
 10
0.0
 20
0.0
 30
0.0
  3
*D2
  1

  0
LINE
  5
1CB
330
5E
100
AcDbEntity
  8
0
  6
ByBlock
 62
     0
100
AcDbLine
 10
317.7782847227522
 20
136.3547707113952
 30
0.0
 11
317.7782847227522
 21
120.2937957691399
 31
0.0
  0
LINE
  5
1CC
330
5E
100
AcDbEntity
  8
0
  6
ByBlock
 62
     0
100
AcDbLine
 10
322.7782847227522
 20
136.3547707113952
 30
0.0
 11
322.7782847227522
 21
120.2937957691399
 31
0.0
  0
LINE
  5
1CD
330
5E
100
AcDbEntity
  8
0
  6
ByBlock
 62
     0
100
AcDbLine
 10
310.7782847227522
 20
122.2937957691399
 30
0.0
 11
303.7782847227522
 21
122.2937957691399
 31
0.0
  0
LINE
  5
1CE
330
5E
100
AcDbEntity
  8
0
  6
ByBlock
 62
     0
100
AcDbLine
 10
329.7782847227523
 20
122.2937957691399
 30
0.0
 11
336.7782847227522
 21
122.2937957691399
 31
0.0
  0
LINE
  5
1CF
330
5E
100
AcDbEntity
  8
0
  6
ByBlock
 62
     0
100
AcDbLine
 10
336.7782847227522
 20
122.2937957691399
 30
0.0
 11
340.6916180560856
 21
122.2937957691399
 31
0.0
  0
SOLID
  5
1D0
330
5E
100
AcDbEntity
  8
0
  6
ByBlock
 62
     0
100
AcDbTrace
 10
310.7782847227522
 20
123.4604624358066
 30
0.0
 11
310.7782847227522
 21
121.1271291024732
 31
0.0
 12
317.7782847227522
 22
122.2937957691399
 32
0.0
 13
317.7782847227522
 23
122.2937957691399
 33
0.0
  0
SOLID
  5
1D1
330
5E
100
AcDbEntity
  8
0
  6
ByBlock
 62
     0
100
AcDbTrace
 10
329.7782847227523
 20
123.4604624358066
 30
0.0
 11
329.7782847227523
 21
121.1271291024732
 31
0.0
 12
322.7782847227522
 22
122.2937957691399
 32
0.0
 13
322.7782847227522
 23
122.2937957691399
 33
0.0
  0
LINE
  5
1D2
330
5E
100
AcDbEntity
  8
0
  6
ByBlock
 62
     0
100
AcDbLine
 10
317.7782847227522
 20
122.2937957691399
 30
0.0
 11
322.7782847227522
 21
122.2937957691399
 31
0.0
  0
TEXT
  5
1D3
330
5E
100
AcDbEntity
  8
0
  6
ByBlock
 62
     1
100
AcDbText
 10
336.9582847227523
 20
125.7937957691399
 30
0.0
 40
7.0
  1
5
 41
0.8
  7
GREEKS
 72
     1
 11
338.8249513894189
 21
129.2937957691399
 31
0.0
100
AcDbText
 73
     2
  0
POINT
  5
1D4
330
5E
100
AcDbEntity
  8
DEFPOINTS
  6
ByBlock
 62
     0
100
AcDbPoint
 10
317.7782847227522
 20
138.3547707113952
 30
0.0
  0
POINT
  5
1D5
330
5E
100
AcDbEntity
  8
DEFPOINTS
  6
ByBlock
 62
     0
100
AcDbPoint
 10
322.7782847227522
 20
138.3547707113952
 30
0.0
  0
POINT
  5
1D6
330
5E
100
AcDbEntity
  8
DEFPOINTS
  6
ByBlock
 62
     0
100
AcDbPoint
 10
322.7782847227522
 20
122.2937957691399
 30
0.0
  0
ENDBLK
  5
1D7
330
5E
100
AcDbEntity
  8
0
100
AcDbBlockEnd
  0
BLOCK
  5
1D8
330
5F
100
AcDbEntity
  8
0
100
AcDbBlockBegin
  2
*D3
 70
     1
 10
0.0
 20
0.0
 30
0.0
  3
*D3
  1

  0
ARC
  5
1D9
330
5F
100
AcDbEntity
  8
0
  6
ByBlock
 62
     0
100
AcDbCircle
 10
320.2782847227515
 20
287.2547707113952
 30
0.0
 40
63.27482128719569
100
AcDbArc
 50
216.3417842081289
 51
323.658215791871
  0
SOLID
  5
1DA
330
5F
100
AcDbEntity
  8
0
  6
ByBlock
 62
     0
100
AcDbTrace
 10
268.3340989893859
 20
249.1197356569422
 30
0.0
 11
270.2871978836489
 21
250.3963911130747
 31
0.0
 12
265.4806820681196
 22
255.6173600677974
 32
0.0
 13
265.4806820681196
 23
255.6173600677974
 33
0.0
  0
SOLID
  5
1DB
330
5F
100
AcDbEntity
  8
0
  6
ByBlock
 62
     0
100
AcDbTrace
 10
370.269371561854
 20
250.3963911130747
 30
0.0
 11
372.222470456117
 21
249.1197356569421
 31
0.0
 12
375.0758873773833
 22
255.6173600677974
 32
0.0
 13
375.0758873773833
 23
255.6173600677974
 33
0.0
  0
TEXT
  5
1DC
330
5F
100
AcDbEntity
  8
0
  6
ByBlock
 62
     1
100
AcDbText
 10
312.5182309278625
 20
228.066547811285
 30
0.0
 40
7.0
  1
120%%d
 41
0.8
  7
GREEKS
 72
     1
 11
320.5182309278626
 21
231.566547811285
 31
0.0
100
AcDbText
 73
     2
  0
POINT
  5
1DD
330
5F
100
AcDbEntity
  8
DEFPOINTS
  6
ByBlock
 62
     0
100
AcDbPoint
 10
352.1977953601908
 20
232.6210096328007
 30
0.0
  0
POINT
  5
1DE
330
5F
100
AcDbEntity
  8
DEFPOINTS
  6
ByBlock
 62
     0
100
AcDbPoint
 10
320.2782847227514
 20
287.2547707113952
 30
0.0
  0
POINT
  5
1DF
330
5F
100
AcDbEntity
  8
DEFPOINTS
  6
ByBlock
 62
     0
100
AcDbPoint
 10
320.2782847227514
 20
287.2547707113952
 30
0.0
  0
POINT
  5
1E0
330
5F
100
AcDbEntity
  8
DEFPOINTS
  6
ByBlock
 62
     0
100
AcDbPoint
 10
462.2018191498596
 20
205.3151799055612
 30
0.0
  0
POINT
  5
1E1
330
5F
100
AcDbEntity
  8
DEFPOINTS
  6
ByBlock
 62
     0
100
AcDbPoint
 10
178.3547502956432
 20
205.3151799055613
 30
0.0
  0
ENDBLK
  5
1E2
330
5F
100
AcDbEntity
  8
0
100
AcDbBlockEnd
  0
BLOCK
  5
54E
330
544
100
AcDbEntity
  8
0
100
AcDbBlockBegin
  2
*D4
 70
     1
 10
0.0
 20
0.0
 30
0.0
  3
*D4
  1

  0
LINE
  5
55B
330
544
100
AcDbEntity
  8
SCHRAFF
 62
     0
370
    -2
100
AcDbLine
 10
647.270801199966
 20
368.8536314391131
 30
0.0
 11
628.7656232691583
 21
368.8536314391131
 31
0.0
  0
LINE
  5
55C
330
544
100
AcDbEntity
  8
SCHRAFF
 62
     0
370
    -2
100
AcDbLine
 10
647.2708011999659
 20
388.853631439113
 30
0.0
 11
628.7656232691583
 21
388.8536314391131
 31
0.0
  0
LINE
  5
55D
330
544
100
AcDbEntity
  8
SCHRAFF
 62
     0
370
    -2
100
AcDbLine
 10
630.7656232691583
 20
361.8536314391131
 30
0.0
 11
630.7656232691583
 21
354.8536314391132
 31
0.0
  0
LINE
  5
55E
330
544
100
AcDbEntity
  8
SCHRAFF
 62
     0
370
    -2
100
AcDbLine
 10
630.7656232691583
 20
395.8536314391131
 30
0.0
 11
630.7656232691583
 21
402.853631439113
 31
0.0
  0
LINE
  5
55F
330
544
100
AcDbEntity
  8
SCHRAFF
 62
     0
370
    -2
100
AcDbLine
 10
630.7656232691583
 20
368.8536314391131
 30
0.0
 11
630.7656232691583
 21
388.8536314391131
 31
0.0
  0
SOLID
  5
560
330
544
100
AcDbEntity
  8
SCHRAFF
 62
     0
100
AcDbTrace
 10
629.5989566024917
 20
361.8536314391131
 30
0.0
 11
631.9322899358249
 21
361.8536314391131
 31
0.0
 12
630.7656232691583
 22
368.8536314391131
 32
0.0
 13
630.7656232691583
 23
368.8536314391131
 33
0.0
  0
SOLID
  5
561
330
544
100
AcDbEntity
  8
SCHRAFF
 62
     0
100
AcDbTrace
 10
629.5989566024917
 20
395.8536314391131
 30
0.0
 11
631.9322899358249
 21
395.8536314391131
 31
0.0
 12
630.7656232691583
 22
388.8536314391131
 32
0.0
 13
630.7656232691583
 23
388.8536314391131
 33
0.0
  0
MTEXT
  5
562
330
544
100
AcDbEntity
  8
SCHRAFF
 62
     1
100
AcDbMText
 10
624.2656232691582
 20
378.8536314391131
 30
0.0
 40
7.0
 41
0.0
 71
     5
 72
     1
  1
\A1;20
  7
GREEKS
 11
0.0000000000000001
 21
1.0
 31
0.0
 73
     1
 44
1.0
  0
POINT
  5
563
330
544
100
AcDbEntity
  8
DEFPOINTS
 62
     0
100
AcDbPoint
 10
649.270801199966
 20
368.8536314391131
 30
0.0
  0
POINT
  5
564
330
544
100
AcDbEntity
  8
DEFPOINTS
 62
     0
100
AcDbPoint
 10
649.2708011999659
 20
388.853631439113
 30
0.0
  0
POINT
  5
565
330
544
100
AcDbEntity
  8
DEFPOINTS
 62
     0
100
AcDbPoint
 10
630.7656232691583
 20
388.8536314391131
 30
0.0
  0
ENDBLK
  5
54F
330
544
100
AcDbEntity
  8
0
100
AcDbBlockEnd
  0
BLOCK
  5
571
330
567
100
AcDbEntity
  8
0
100
AcDbBlockBegin
  2
*D5
 70
     1
 10
0.0
 20
0.0
 30
0.0
  3
*D5
  1

  0
LINE
  5
574
330
567
100
AcDbEntity
  8
SCHRAFF
 62
     0
370
    -2
100
AcDbLine
 10
647.2708011999659
 20
388.853631439113
 30
0.0
 11
628.7656232691583
 21
388.8536314391131
 31
0.0
  0
LINE
  5
575
330
567
100
AcDbEntity
  8
SCHRAFF
 62
     0
370
    -2
100
AcDbLine
 10
645.2708011999658
 20
470.8536314391131
 30
0.0
 11
628.7656232691583
 21
470.8536314391132
 31
0.0
  0
LINE
  5
576
330
567
100
AcDbEntity
  8
SCHRAFF
 62
     0
370
    -2
100
AcDbLine
 10
630.7656232691583
 20
395.8536314391131
 30
0.0
 11
630.7656232691583
 21
463.8536314391132
 31
0.0
  0
SOLID
  5
577
330
567
100
AcDbEntity
  8
SCHRAFF
 62
     0
100
AcDbTrace
 10
629.5989566024917
 20
395.8536314391131
 30
0.0
 11
631.9322899358249
 21
395.8536314391131
 31
0.0
 12
630.7656232691583
 22
388.8536314391131
 32
0.0
 13
630.7656232691583
 23
388.8536314391131
 33
0.0
  0
SOLID
  5
578
330
567
100
AcDbEntity
  8
SCHRAFF
 62
     0
100
AcDbTrace
 10
629.5989566024917
 20
463.8536314391132
 30
0.0
 11
631.9322899358249
 21
463.8536314391132
 31
0.0
 12
630.7656232691583
 22
470.8536314391132
 32
0.0
 13
630.7656232691583
 23
470.8536314391132
 33
0.0
  0
MTEXT
  5
579
330
567
100
AcDbEntity
  8
SCHRAFF
 62
     1
100
AcDbMText
 10
624.2656232691582
 20
429.8536314391132
 30
0.0
 40
7.0
 41
0.0
 71
     5
 72
     1
  1
\A1;82
  7
GREEKS
 11
0.0000000000000001
 21
1.0
 31
0.0
 73
     1
 44
1.0
  0
POINT
  5
57A
330
567
100
AcDbEntity
  8
DEFPOINTS
 62
     0
100
AcDbPoint
 10
649.2708011999659
 20
388.853631439113
 30
0.0
  0
POINT
  5
57B
330
567
100
AcDbEntity
  8
DEFPOINTS
 62
     0
100
AcDbPoint
 10
647.2708011999658
 20
470.8536314391131
 30
0.0
  0
POINT
  5
57C
330
567
100
AcDbEntity
  8
DEFPOINTS
 62
     0
100
AcDbPoint
 10
630.7656232691583
 20
470.8536314391132
 30
0.0
  0
ENDBLK
  5
572
330
567
100
AcDbEntity
  8
0
100
AcDbBlockEnd
  0
BLOCK
  5
58B
330
57F
100
AcDbEntity
  8
0
100
AcDbBlockBegin
  2
*D6
 70
     1
 10
0.0
 20
0.0
 30
0.0
  3
*D6
  1

  0
LINE
  5
58E
330
57F
100
AcDbEntity
  8
SCHRAFF
 62
     0
370
    -2
100
AcDbLine
 10
645.2708011999658
 20
470.8536314391131
 30
0.0
 11
628.7656232691583
 21
470.8536314391132
 31
0.0
  0
LINE
  5
58F
330
57F
100
AcDbEntity
  8
SCHRAFF
 62
     0
370
    -2
100
AcDbLine
 10
645.2708011999659
 20
490.8536314391131
 30
0.0
 11
628.7656232691583
 21
490.8536314391132
 31
0.0
  0
LINE
  5
590
330
57F
100
AcDbEntity
  8
SCHRAFF
 62
     0
370
    -2
100
AcDbLine
 10
630.7656232691583
 20
463.8536314391132
 30
0.0
 11
630.7656232691583
 21
456.8536314391131
 31
0.0
  0
LINE
  5
591
330
57F
100
AcDbEntity
  8
SCHRAFF
 62
     0
370
    -2
100
AcDbLine
 10
630.7656232691583
 20
497.8536314391131
 30
0.0
 11
630.7656232691583
 21
504.8536314391132
 31
0.0
  0
LINE
  5
592
330
57F
100
AcDbEntity
  8
SCHRAFF
 62
     0
370
    -2
100
AcDbLine
 10
630.7656232691583
 20
470.8536314391132
 30
0.0
 11
630.7656232691583
 21
490.8536314391132
 31
0.0
  0
SOLID
  5
593
330
57F
100
AcDbEntity
  8
SCHRAFF
 62
     0
100
AcDbTrace
 10
629.5989566024917
 20
463.8536314391132
 30
0.0
 11
631.9322899358249
 21
463.8536314391132
 31
0.0
 12
630.7656232691583
 22
470.8536314391132
 32
0.0
 13
630.7656232691583
 23
470.8536314391132
 33
0.0
  0
SOLID
  5
594
330
57F
100
AcDbEntity
  8
SCHRAFF
 62
     0
100
AcDbTrace
 10
629.5989566024917
 20
497.8536314391131
 30
0.0
 11
631.9322899358249
 21
497.8536314391131
 31
0.0
 12
630.7656232691583
 22
490.8536314391132
 32
0.0
 13
630.7656232691583
 23
490.8536314391132
 33
0.0
  0
MTEXT
  5
595
330
57F
100
AcDbEntity
  8
SCHRAFF
 62
     1
100
AcDbMText
 10
624.2656232691582
 20
480.8536314391132
 30
0.0
 40
7.0
 41
0.0
 71
     5
 72
     1
  1
\A1;20
  7
GREEKS
 11
0.0000000000000001
 21
1.0
 31
0.0
 73
     1
 44
1.0
  0
POINT
  5
596
330
57F
100
AcDbEntity
  8
DEFPOINTS
 62
     0
100
AcDbPoint
 10
647.2708011999658
 20
470.8536314391131
 30
0.0
  0
POINT
  5
597
330
57F
100
AcDbEntity
  8
DEFPOINTS
 62
     0
100
AcDbPoint
 10
647.2708011999659
 20
490.8536314391131
 30
0.0
  0
POINT
  5
598
330
57F
100
AcDbEntity
  8
DEFPOINTS
 62
     0
100
AcDbPoint
 10
630.7656232691583
 20
490.8536314391132
 30
0.0
  0
ENDBLK
  5
58C
330
57F
100
AcDbEntity
  8
0
100
AcDbBlockEnd
  0
BLOCK
  5
5A4
330
59A
100
AcDbEntity
  8
0
100
AcDbBlockBegin
  2
*D7
 70
     1
 10
0.0
 20
0.0
 30
0.0
  3
*D7
  1

  0
LINE
  5
59B
330
59A
100
AcDbEntity
  8
BEM
 62
     0
370
    -2
100
AcDbLine
 10
715.0240605095559
 20
490.8536314391131
 30
0.0
 11
754.3538221216626
 21
490.8536314391131
 31
0.0
  0
LINE
  5
59C
330
59A
100
AcDbEntity
  8
BEM
 62
     0
370
    -2
100
AcDbLine
 10
717.011819444883
 20
368.8536314391131
 30
0.0
 11
754.3538221216626
 21
368.8536314391131
 31
0.0
  0
LINE
  5
59D
330
59A
100
AcDbEntity
  8
BEM
 62
     0
370
    -2
100
AcDbLine
 10
752.3538221216625
 20
483.8536314391131
 30
0.0
 11
752.3538221216625
 21
375.8536314391131
 31
0.0
  0
SOLID
  5
59E
330
59A
100
AcDbEntity
  8
BEM
 62
     0
100
AcDbTrace
 10
751.1871554549959
 20
483.8536314391131
 30
0.0
 11
753.5204887883292
 21
483.8536314391131
 31
0.0
 12
752.3538221216625
 22
490.8536314391131
 32
0.0
 13
752.3538221216625
 23
490.8536314391131
 33
0.0
  0
SOLID
  5
59F
330
59A
100
AcDbEntity
  8
BEM
 62
     0
100
AcDbTrace
 10
751.1871554549959
 20
375.8536314391131
 30
0.0
 11
753.5204887883292
 21
375.8536314391131
 31
0.0
 12
752.3538221216625
 22
368.8536314391131
 32
0.0
 13
752.3538221216625
 23
368.8536314391131
 33
0.0
  0
MTEXT
  5
5A0
330
59A
100
AcDbEntity
  8
BEM
 62
     1
100
AcDbMText
 10
745.8538221216624
 20
429.8536314391133
 30
0.0
 40
7.0
 41
0.0
 71
     5
 72
     1
  1
\A1;122
  7
GREEKS
 11
0.0000000000000001
 21
1.0
 31
0.0
 73
     1
 44
1.0
  0
POINT
  5
5A1
330
59A
100
AcDbEntity
  8
DEFPOINTS
 62
     0
100
AcDbPoint
 10
713.024060509556
 20
490.8536314391131
 30
0.0
  0
POINT
  5
5A2
330
59A
100
AcDbEntity
  8
DEFPOINTS
 62
     0
100
AcDbPoint
 10
715.011819444883
 20
368.8536314391131
 30
0.0
  0
POINT
  5
5A3
330
59A
100
AcDbEntity
  8
DEFPOINTS
 62
     0
100
AcDbPoint
 10
752.3538221216625
 20
368.8536314391131
 30
0.0
  0
ENDBLK
  5
5A5
330
59A
100
AcDbEntity
  8
0
100
AcDbBlockEnd
  0
BLOCK
  5
5C9
330
5BF
100
AcDbEntity
  8
0
100
AcDbBlockBegin
  2
*D8
 70
     1
 10
0.0
 20
0.0
 30
0.0
  3
*D8
  1

  0
LINE
  5
5D6
330
5BF
100
AcDbEntity
  8
SCHRAFF
 62
     0
370
    -2
100
AcDbLine
 10
581.9748039335803
 20
361.853631439113
 30
0.0
 11
581.9748039335803
 21
330.8971567414144
 31
0.0
  0
LINE
  5
5D7
330
5BF
100
AcDbEntity
  8
SCHRAFF
 62
     0
370
    -2
100
AcDbLine
 10
730.8748039335807
 20
412.8536314391131
 30
0.0
 11
730.8748039335807
 21
330.8971567414144
 31
0.0
  0
LINE
  5
5D8
330
5BF
100
AcDbEntity
  8
SCHRAFF
 62
     0
370
    -2
100
AcDbLine
 10
588.9748039335803
 20
332.8971567414144
 30
0.0
 11
723.8748039335807
 21
332.8971567414144
 31
0.0
  0
SOLID
  5
5D9
330
5BF
100
AcDbEntity
  8
SCHRAFF
 62
     0
100
AcDbTrace
 10
588.9748039335803
 20
334.0638234080811
 30
0.0
 11
588.9748039335803
 21
331.7304900747477
 31
0.0
 12
581.9748039335803
 22
332.8971567414144
 32
0.0
 13
581.9748039335803
 23
332.8971567414144
 33
0.0
  0
SOLID
  5
5DA
330
5BF
100
AcDbEntity
  8
SCHRAFF
 62
     0
100
AcDbTrace
 10
723.8748039335807
 20
334.0638234080811
 30
0.0
 11
723.8748039335807
 21
331.7304900747477
 31
0.0
 12
730.8748039335807
 22
332.8971567414144
 32
0.0
 13
730.8748039335807
 23
332.8971567414144
 33
0.0
  0
MTEXT
  5
5DB
330
5BF
100
AcDbEntity
  8
SCHRAFF
 62
     1
100
AcDbMText
 10
656.4248039335804
 20
339.3971567414144
 30
0.0
 40
7.0
 41
0.0
 71
     5
 72
     1
  1
\A1;149
  7
GREEKS
 73
     1
 44
1.0
  0
POINT
  5
5DC
330
5BF
100
AcDbEntity
  8
DEFPOINTS
 62
     0
100
AcDbPoint
 10
581.9748039335803
 20
363.853631439113
 30
0.0
  0
POINT
  5
5DD
330
5BF
100
AcDbEntity
  8
DEFPOINTS
 62
     0
100
AcDbPoint
 10
730.8748039335807
 20
414.8536314391131
 30
0.0
  0
POINT
  5
5DE
330
5BF
100
AcDbEntity
  8
DEFPOINTS
 62
     0
100
AcDbPoint
 10
730.8748039335807
 20
332.8971567414144
 30
0.0
  0
ENDBLK
  5
5CA
330
5BF
100
AcDbEntity
  8
0
100
AcDbBlockEnd
  0
ENDSEC
  0
SECTION
  2
ENTITIES
  0
LINE
  5
34B
330
20
100
AcDbEntity
  8
STEMPEL
100
AcDbLine
 10
830.0
 20
110.0
 30
0.0
 11
470.0
 21
110.0
 31
0.0
  0
LINE
  5
34C
330
20
100
AcDbEntity
  8
STEMPEL
100
AcDbLine
 10
566.0000000000001
 20
109.9999999999999
 30
0.0
 11
566.0
 21
9.999999999999971
 31
0.0
  0
LINE
  5
34D
330
20
100
AcDbEntity
  8
STEMPEL
100
AcDbLine
 10
650.0
 20
110.0
 30
0.0
 11
650.0
 21
9.999999999999971
 31
0.0
  0
LINE
  5
34E
330
20
100
AcDbEntity
  8
STEMPEL
100
AcDbLine
 10
752.0
 20
109.9999999999997
 30
0.0
 11
752.0
 21
40.0
 31
0.0
  0
LINE
  5
34F
330
20
100
AcDbEntity
  8
STEMPEL
100
AcDbLine
 10
565.9999999999999
 20
29.99999999999997
 30
0.0
 11
470.0
 21
29.99999999999997
 31
0.0
  0
LINE
  5
350
330
20
100
AcDbEntity
  8
STEMPEL
100
AcDbLine
 10
830.0
 20
40.0
 30
0.0
 11
566.0000000000001
 21
39.99999999999997
 31
0.0
  0
LINE
  5
351
330
20
100
AcDbEntity
  8
STEMPEL
100
AcDbLine
 10
830.0
 20
80.0
 30
0.0
 11
566.0000000000001
 21
79.99999999999994
 31
0.0
  0
LINE
  5
352
330
20
100
AcDbEntity
  8
VOLL
100
AcDbLine
 10
484.0000000000001
 20
110.0
 30
0.0
 11
484.0
 21
9.999999999999971
 31
0.0
  0
LINE
  5
353
330
20
100
AcDbEntity
  8
VOLL
100
AcDbLine
 10
524.0000000000001
 20
109.9999999999999
 30
0.0
 11
524.0
 21
9.999999999999971
 31
0.0
  0
LINE
  5
354
330
20
100
AcDbEntity
  8
VOLL
100
AcDbLine
 10
544.0000000000001
 20
109.9999999999999
 30
0.0
 11
544.0
 21
9.999999999999971
 31
0.0
  0
LINE
  5
355
330
20
100
AcDbEntity
  8
VOLL
100
AcDbLine
 10
584.0000000000001
 20
79.99999999999994
 30
0.0
 11
584.0000000000001
 21
39.99999999999997
 31
0.0
  0
LINE
  5
356
330
20
100
AcDbEntity
  8
VOLL
100
AcDbLine
 10
610.0000000000001
 20
109.9999999999998
 30
0.0
 11
610.0
 21
39.99999999999997
 31
0.0
  0
LINE
  5
357
330
20
100
AcDbEntity
  8
HILF
100
AcDbLine
 10
470.0000000000001
 20
100.0
 30
0.0
 11
566.0000000000001
 21
100.0
 31
0.0
  0
LINE
  5
358
330
20
100
AcDbEntity
  8
HILF
100
AcDbLine
 10
470.0000000000001
 20
90.00000000000005
 30
0.0
 11
566.0000000000001
 21
90.00000000000005
 31
0.0
  0
LINE
  5
359
330
20
100
AcDbEntity
  8
HILF
100
AcDbLine
 10
470.0000000000001
 20
79.99999999999994
 30
0.0
 11
566.0000000000001
 21
79.99999999999994
 31
0.0
  0
LINE
  5
35A
330
20
100
AcDbEntity
  8
HILF
100
AcDbLine
 10
470.0000000000001
 20
69.99999999999994
 30
0.0
 11
566.0000000000001
 21
69.99999999999994
 31
0.0
  0
LINE
  5
35B
330
20
100
AcDbEntity
  8
HILF
100
AcDbLine
 10
470.0000000000001
 20
59.99999999999997
 30
0.0
 11
566.0000000000001
 21
59.99999999999997
 31
0.0
  0
LINE
  5
35C
330
20
100
AcDbEntity
  8
HILF
100
AcDbLine
 10
470.0000000000001
 20
49.99999999999997
 30
0.0
 11
566.0000000000001
 21
49.99999999999997
 31
0.0
  0
LINE
  5
35D
330
20
100
AcDbEntity
  8
HILF
100
AcDbLine
 10
470.0000000000001
 20
39.99999999999997
 30
0.0
 11
566.0000000000001
 21
39.99999999999997
 31
0.0
  0
LINE
  5
35E
330
20
100
AcDbEntity
  8
HILF
100
AcDbLine
 10
566.0000000000001
 20
69.99999999999994
 30
0.0
 11
650.0
 21
69.99999999999994
 31
0.0
  0
LINE
  5
35F
330
20
100
AcDbEntity
  8
HILF
100
AcDbLine
 10
566.0000000000001
 20
59.99999999999997
 30
0.0
 11
650.0
 21
59.99999999999997
 31
0.0
  0
LINE
  5
360
330
20
100
AcDbEntity
  8
HILF
100
AcDbLine
 10
566.0000000000001
 20
49.99999999999997
 30
0.0
 11
650.0
 21
49.99999999999997
 31
0.0
  0
LINE
  5
361
330
20
100
AcDbEntity
  8
HILF
100
AcDbLine
 10
654.7736801096947
 20
84.03758247564139
 30
0.0
 11
744.835391655631
 21
84.03758247564139
 31
0.0
  0
LINE
  5
362
330
20
100
AcDbEntity
  8
HILF
100
AcDbLine
 10
654.7736801096947
 20
69.99999999999994
 30
0.0
 11
744.8353916556309
 21
69.99999999999994
 31
0.0
  0
LINE
  5
363
330
20
100
AcDbEntity
  8
HILF
100
AcDbLine
 10
654.7736801096947
 20
59.99999999999997
 30
0.0
 11
744.8353916556309
 21
59.99999999999997
 31
0.0
  0
LINE
  5
364
330
20
100
AcDbEntity
  8
HILF
100
AcDbLine
 10
654.7736801096947
 20
49.99999999999997
 30
0.0
 11
744.8353916556309
 21
49.99999999999997
 31
0.0
  0
LINE
  5
365
330
20
100
AcDbEntity
  8
VOLL
100
AcDbLine
 10
752.0
 20
60.0
 30
0.0
 11
830.0
 21
60.0
 31
0.0
  0
LINE
  5
366
330
20
100
AcDbEntity
  8
HILF
100
AcDbLine
 10
756.7238616296992
 20
83.77983636955827
 30
0.0
 11
824.8588839326728
 21
83.77983636955827
 31
0.0
  0
LINE
  5
367
330
20
100
AcDbEntity
  8
HILF
100
AcDbLine
 10
653.4909699289885
 20
14.89398258028314
 30
0.0
 11
824.8588839326728
 21
14.89398258028314
 31
0.0
  0
TEXT
  5
368
330
20
100
AcDbEntity
  8
TEXT
100
AcDbText
 10
492.2688706221387
 20
18.67381894984132
 30
0.0
 40
4.0
  1
Änderung
 41
0.8
  7
GREEKS
 72
     1
 11
503.0117277649959
 21
18.67381894984132
 31
0.0
100
AcDbText
  0
TEXT
  5
369
330
20
100
AcDbEntity
  8
TEXT
100
AcDbText
 10
573.5163572150376
 20
102.4620895087088
 30
0.0
 40
5.0
  1
Maßstab
 41
0.8
  7
GREEKS
100
AcDbText
  0
TEXT
  5
36A
330
20
100
AcDbEntity
  8
TEXT
100
AcDbText
 10
614.2858954734052
 20
102.4184168434819
 30
0.0
 40
5.0
  1
Zul. Abw.
 41
0.8
  7
GREEKS
100
AcDbText
  0
TEXT
  5
36B
330
20
100
AcDbEntity
  8
TEXT
100
AcDbText
 10
654.8779403809009
 20
102.5489328011779
 30
0.0
 40
5.0
  1
Benennung
 41
0.8
  7
GREEKS
100
AcDbText
  0
TEXT
  5
36C
330
20
100
AcDbEntity
  8
TEXT
100
AcDbText
 10
756.178754957634
 20
102.3132034537136
 30
0.0
 40
5.0
  1
Zeichnungs Nr.
 41
0.8
  7
GREEKS
100
AcDbText
  0
TEXT
  5
36D
330
20
100
AcDbEntity
  8
TEXT
100
AcDbText
 10
654.7422383911359
 20
30.84560570193057
 30
0.0
 40
5.0
  1
Bauvorhaben
 41
0.8
  7
GREEKS
100
AcDbText
  0
TEXT
  5
36E
330
20
100
AcDbEntity
  8
TEXT
100
AcDbText
 10
756.7238616296992
 20
73.1811823709997
 30
0.0
 40
5.0
  1
Ersatz für:
 41
0.8
  7
GREEKS
100
AcDbText
  0
TEXT
  5
36F
330
20
100
AcDbEntity
  8
TEXT
100
AcDbText
 10
478.2664110704575
 20
13.65465846027192
 30
0.0
 40
4.0
  1
Index
 50
90.0
 41
0.8
  7
GREEKS
100
AcDbText
  0
TEXT
  5
370
330
20
100
AcDbEntity
  8
TEXT
100
AcDbText
 10
530.105902110002
 20
18.6715626933981
 30
0.0
 40
4.0
  1
Tag
 41
0.8
  7
GREEKS
 72
     1
 11
533.8392354433353
 21
18.6715626933981
 31
0.0
100
AcDbText
  0
TEXT
  5
371
330
20
100
AcDbEntity
  8
TEXT
100
AcDbText
 10
549.538384573513
 20
18.59324216966408
 30
0.0
 40
4.0
  1
Name
 41
0.8
  7
GREEKS
 72
     1
 11
555.8621940973224
 21
18.59324216966408
 31
0.0
100
AcDbText
  0
TEXT
  5
372
330
20
100
AcDbEntity
  8
TEXT
100
AcDbText
 10
592.3311673153651
 20
73.31880501229926
 30
0.0
 40
4.0
  1
Tag
 41
0.8
  7
GREEKS
100
AcDbText
  0
TEXT
  5
373
330
20
100
AcDbEntity
  8
TEXT
100
AcDbText
 10
622.4626584226294
 20
73.30961091915225
 30
0.0
 40
4.0
  1
Name
 41
0.8
  7
GREEKS
100
AcDbText
  0
TEXT
  5
374
330
20
100
AcDbEntity
  8
TEXT
100
AcDbText
 10
567.5836127167615
 20
63.62990369617964
 30
0.0
 40
4.0
  1
Gez.
 41
0.8
  7
GREEKS
100
AcDbText
  0
TEXT
  5
375
330
20
100
AcDbEntity
  8
TEXT
100
AcDbText
 10
567.5515086571672
 20
53.68926291428377
 30
0.0
 40
4.0
  1
Gepr.
 41
0.8
  7
GREEKS
100
AcDbText
  0
TEXT
  5
376
330
20
100
AcDbEntity
  8
TEXT
100
AcDbText
 10
567.6006777387303
 20
43.52946389649807
 30
0.0
 40
4.0
  1
Norm.
 41
0.8
  7
GREEKS
100
AcDbText
  0
LINE
  5
377
330
20
100
AcDbEntity
  8
STEMPEL
100
AcDbLine
 10
479.9999999999998
 20
10.0
 30
0.0
 11
830.0
 21
10.0
 31
0.0
  0
TEXT
  5
378
330
20
100
AcDbEntity
  8
TEXT
100
AcDbText
 10
757.2400861497006
 20
52.07416177878602
 30
0.0
 40
5.0
  1
ersetzt durch:
 41
0.8
  7
GREEKS
100
AcDbText
  0
LINE
  5
379
330
20
100
AcDbEntity
  8
STEMPEL
100
AcDbLine
 10
830.0
 20
10.0
 30
0.0
 11
40.0
 21
10.0
 31
0.0
  0
LINE
  5
37A
330
20
100
AcDbEntity
  8
STEMPEL
100
AcDbLine
 10
830.0
 20
10.0
 30
0.0
 11
830.0
 21
584.0
 31
0.0
  0
LINE
  5
37B
330
20
100
AcDbEntity
  8
STEMPEL
100
AcDbLine
 10
470.0
 20
10.0
 30
0.0
 11
470.0
 21
110.0
 31
0.0
  0
LINE
  5
37C
330
20
100
AcDbEntity
  8
STEMPEL
100
AcDbLine
 10
830.0
 20
584.0
 30
0.0
 11
39.99999999999989
 21
584.0
 31
0.0
  0
LINE
  5
37D
330
20
100
AcDbEntity
  8
HILF
100
AcDbLine
 10
839.9999999999998
 20
594.0000000000002
 30
0.0
 11
-0.0000000000001705
 21
593.9999999999997
 31
0.0
  0
LINE
  5
37E
330
20
100
AcDbEntity
  8
HILF
100
AcDbLine
 10
840.0
 20
0.0
 30
0.0
 11
0.0
 21
0.0
 31
0.0
  0
LINE
  5
37F
330
20
100
AcDbEntity
  8
HILF
100
AcDbLine
 10
31.08767135713851
 20
296.9999999999999
 30
0.0
 11
0.0000000000000568
 21
296.9999999999999
 31
0.0
  0
TEXT
  5
380
330
20
100
AcDbEntity
  8
TEXT
100
AcDbText
 10
568.6221098221039
 20
73.14025471151666
 30
0.0
 40
4.0
  1
2007
 41
0.8
  7
GREEKS
100
AcDbText
  0
LINE
  5
381
330
20
100
AcDbEntity
  8
HILF
100
AcDbLine
 10
840.0
 20
-0.0000000000001137
 30
0.0
 11
839.9999999999998
 21
594.0
 31
0.0
  0
TEXT
  5
382
330
20
100
AcDbEntity
  8
VOLL
100
AcDbText
 10
78.07675471698113
 20
31.02594776470585
 30
0.0
 40
1.8
  1

  7
GREEKS
100
AcDbText
  0
TEXT
  5
383
330
20
100
AcDbEntity
  8
TEXT
100
AcDbText
 10
471.8550995097768
 20
111.6719999999999
 30
0.0
 40
5.0
  1
Erstellt mit AUTO-CAD 12.0
 41
0.8
  7
GREEKS
100
AcDbText
  0
TEXT
  5
384
330
20
100
AcDbEntity
  8
TEXT
100
AcDbText
 10
624.4216048581257
 20
63.0896391972351
 30
0.0
 40
4.0
  1
Koeh
 41
0.8
  7
GREEKS
 72
     1
 11
629.6787477152686
 21
63.0896391972351
 31
0.0
100
AcDbText
  0
TEXT
  5
385
330
20
100
AcDbEntity
  8
TEXT
 62
     1
100
AcDbText
 10
766.7919800302099
 20
88.14901428913959
 30
0.0
 40
7.0
  1
00808200W
 41
0.8
  7
GREEKS
 72
     1
 11
790.7919800302099
 21
88.14901428913959
 31
0.0
100
AcDbText
  0
TEXT
  5
386
330
20
100
AcDbEntity
  8
TEXT
 62
     1
100
AcDbText
 10
580.5006306481886
 20
88.14901428913959
 30
0.0
 40
7.0
  1
1:2
 41
0.8
  7
GREEKS
100
AcDbText
  0
TEXT
  5
387
330
20
100
AcDbEntity
  8
TEXT
100
AcDbText
 10
590.3989971082361
 20
63.10765040825732
 30
0.0
 40
4.0
  1
04.09.
 41
0.8
  7
GREEKS
 72
     1
 11
597.4085209177599
 21
63.10765040825732
 31
0.0
100
AcDbText
  0
TEXT
  5
388
330
20
100
AcDbEntity
  8
TEXT
 62
     1
100
AcDbText
 10
654.6381329290896
 20
87.41748789253779
 30
0.0
 40
7.0
  1
Sicherungsbügel DN200
 41
0.75
  7
GREEKS
100
AcDbText
  0
TEXT
  5
389
330
20
100
AcDbEntity
  8
TEXT
100
AcDbText
 10
655.1296391125315
 20
71.50334417585288
 30
0.0
 40
5.0
  1
mit CV-Kralle
 41
0.8
  7
GREEKS
100
AcDbText
  0
TEXT
  5
38A
330
20
100
AcDbEntity
  8
TEXT
100
AcDbText
 10
655.1296391125315
 20
51.64011943042158
 30
0.0
 40
5.0
  1
EDV-Art.Nr. 00808.200X
 41
0.8
  7
GREEKS
100
AcDbText
  0
TEXT
  5
38B
330
20
100
AcDbEntity
  8
TEXT
100
AcDbText
 10
654.9837501577826
 20
42.62974153022632
 30
0.0
 40
4.0
  1
00808200W.DWG
 41
0.8
  7
GREEKS
100
AcDbText
  0
TEXT
  5
38C
330
20
100
AcDbEntity
  8
TEXT
100
AcDbText
 10
612.6261322080839
 20
90.76363841023022
 30
0.0
 40
4.0
  1
DIN EN1123-2
 41
0.8
  7
GREEKS
 72
     1
 11
629.6166083985601
 21
90.76363841023022
 31
0.0
100
AcDbText
  0
INSERT
  5
38D
330
20
100
AcDbEntity
  8
STEMPEL
100
AcDbBlockReference
  2
LOGO
 10
570.9955485457794
 20
45.02105276448322
 30
0.0
 41
2.0
 42
2.0
 43
2.0
  0
LINE
  5
38F
330
20
100
AcDbEntity
  8
HILF
100
AcDbLine
 10
0.0
 20
0.0
 30
0.0
 11
-0.0000000000001705
 21
593.9999999999997
 31
0.0
  0
LINE
  5
390
330
20
100
AcDbEntity
  8
STEMPEL
100
AcDbLine
 10
40.0
 20
10.0
 30
0.0
 11
39.99999999999989
 21
584.0
 31
0.0
  0
LINE
  5
391
330
20
100
AcDbEntity
  8
HILF
 62
     7
100
AcDbLine
 10
460.0
 20
-0.0000000000002824
 30
0.0
 11
460.0
 21
10.0
 31
0.0
  0
LINE
  5
392
330
20
100
AcDbEntity
  8
HILF
 62
     7
100
AcDbLine
 10
459.9999999999998
 20
584.0
 30
0.0
 11
459.9999999999998
 21
593.9999999999998
 31
0.0
  0
LINE
  5
393
330
20
100
AcDbEntity
  8
MITTEL
100
AcDbLine
 10
320.2782847227514
 20
287.2547707113952
 30
0.0
 11
462.2018191498596
 21
205.3151799055612
 31
0.0
  0
LINE
  5
394
330
20
100
AcDbEntity
  8
MITTEL
100
AcDbLine
 10
320.2782847227514
 20
287.2547707113952
 30
0.0
 11
178.3547502956432
 21
205.3151799055613
 31
0.0
  0
LINE
  5
395
330
20
100
AcDbEntity
  8
STEMPEL
100
AcDbLine
 10
322.778284722752
 20
138.3547707113952
 30
0.0
 11
317.778284722752
 21
138.3547707113952
 31
0.0
  0
LINE
  5
396
102
{ACAD_REACTORS
330
542
102
}
330
20
100
AcDbEntity
  8
STEMPEL
100
AcDbLine
 10
317.778284722752
 20
167.3547707113952
 30
0.0
 11
317.778284722752
 21
138.3547707113952
 31
0.0
  0
LINE
  5
397
102
{ACAD_REACTORS
330
542
102
}
330
20
100
AcDbEntity
  8
STEMPEL
100
AcDbLine
 10
322.778284722752
 20
167.3547707113951
 30
0.0
 11
322.778284722752
 21
138.3547707113952
 31
0.0
  0
LINE
  5
398
330
20
100
AcDbEntity
  8
STEMPEL
100
AcDbLine
 10
317.778284722752
 20
167.3547707113952
 30
0.0
 11
322.778284722752
 21
167.3547707113951
 31
0.0
  0
LINE
  5
399
330
20
100
AcDbEntity
  8
MITTEL
100
AcDbLine
 10
320.2782847227516
 20
363.853631439113
 30
0.0
 11
320.2782847227516
 21
495.8536314391131
 31
0.0
  0
LINE
  5
39A
330
20
100
AcDbEntity
  8
STEMPEL
100
AcDbLine
 10
185.1848773145654
 20
368.853631439113
 30
0.0
 11
455.3716921309375
 21
368.853631439113
 31
0.0
  0
LINE
  5
39B
330
20
100
AcDbEntity
  8
STEMPEL
100
AcDbLine
 10
185.1848773145654
 20
388.8536314391131
 30
0.0
 11
317.7782847227518
 21
388.8536314391132
 31
0.0
  0
LINE
  5
39C
330
20
100
AcDbEntity
  8
STEMPEL
100
AcDbLine
 10
317.7782847227518
 20
368.853631439113
 30
0.0
 11
317.7782847227515
 21
490.8536314391131
 31
0.0
  0
LINE
  5
39D
330
20
100
AcDbEntity
  8
STEMPEL
100
AcDbLine
 10
322.7782847227518
 20
368.853631439113
 30
0.0
 11
322.7782847227516
 21
490.8536314391131
 31
0.0
  0
LINE
  5
39E
330
20
100
AcDbEntity
  8
VERDECKT
100
AcDbLine
 10
317.7782847227515
 20
470.853631439113
 30
0.0
 11
322.7782847227516
 21
470.853631439113
 31
0.0
  0
LINE
  5
39F
330
20
100
AcDbEntity
  8
STEMPEL
100
AcDbLine
 10
322.7782847227516
 20
388.8536314391132
 30
0.0
 11
455.3716921309377
 21
388.853631439113
 31
0.0
  0
LINE
  5
3A0
330
20
100
AcDbEntity
  8
VERDECKT
100
AcDbLine
 10
317.7782847227518
 20
388.8536314391132
 30
0.0
 11
322.7782847227516
 21
388.8536314391132
 31
0.0
  0
DIMENSION
  5
3A1
330
20
100
AcDbEntity
  8
BEM
100
AcDbDimension
  2
*D2
 10
322.7782847227522
 20
122.2937957691399
 30
0.0
 11
338.8249513894189
 21
129.2937957691399
 31
0.0
 71
     5
 42
-1.0
100
AcDbAlignedDimension
 13
317.7782847227522
 23
138.3547707113952
 33
0.0
 14
322.7782847227522
 24
138.3547707113952
 34
0.0
100
AcDbRotatedDimension
  0
ARC
  5
3A2
330
20
100
AcDbEntity
  8
SCHRAFF
100
AcDbCircle
 10
316.2782847227518
 20
388.6828961341269
 30
0.0
 40
1.915360502180973
100
AcDbArc
 50
218.4508030898924
 51
321.5491969101066
  0
ARC
  5
3A3
330
20
100
AcDbEntity
  8
SCHRAFF
100
AcDbCircle
 10
316.2782847227518
 20
383.6828961341268
 30
0.0
 40
1.915360502180973
100
AcDbArc
 50
218.4508030898924
 51
321.5491969101066
  0
ARC
  5
3A4
330
20
100
AcDbEntity
  8
SCHRAFF
100
AcDbCircle
 10
316.2782847227518
 20
378.6828961341269
 30
0.0
 40
1.915360502180973
100
AcDbArc
 50
218.4508030898924
 51
321.5491969101066
  0
ARC
  5
3A5
330
20
100
AcDbEntity
  8
SCHRAFF
100
AcDbCircle
 10
316.2782847227518
 20
373.6828961341268
 30
0.0
 40
1.915360502180973
100
AcDbArc
 50
218.4508030898924
 51
321.5491969101066
  0
ARC
  5
3A6
330
20
100
AcDbEntity
  8
SCHRAFF
100
AcDbCircle
 10
324.2782847227514
 20
378.6828961341269
 30
0.0
 40
1.915360502180973
100
AcDbArc
 50
218.4508030898934
 51
321.5491969101076
  0
ARC
  5
3A7
330
20
100
AcDbEntity
  8
SCHRAFF
100
AcDbCircle
 10
324.2782847227514
 20
373.6828961341268
 30
0.0
 40
1.915360502180973
100
AcDbArc
 50
218.4508030898934
 51
321.5491969101076
  0
ARC
  5
3A8
330
20
100
AcDbEntity
  8
SCHRAFF
100
AcDbCircle
 10
324.2782847227514
 20
383.6828961341268
 30
0.0
 40
1.915360502180973
100
AcDbArc
 50
218.4508030898934
 51
321.5491969101076
  0
ARC
  5
3A9
330
20
100
AcDbEntity
  8
SCHRAFF
100
AcDbCircle
 10
324.2782847227514
 20
388.6828961341269
 30
0.0
 40
1.915360502180973
100
AcDbArc
 50
218.4508030898934
 51
321.5491969101076
  0
ARC
  5
3AA
330
20
100
AcDbEntity
  8
SCHRAFF
100
AcDbCircle
 10
316.2782847227516
 20
480.6828961341268
 30
0.0
 40
1.915360502180973
100
AcDbArc
 50
218.4508030898924
 51
321.5491969101066
  0
ARC
  5
3AB
330
20
100
AcDbEntity
  8
SCHRAFF
100
AcDbCircle
 10
324.2782847227513
 20
480.6828961341268
 30
0.0
 40
1.915360502180973
100
AcDbArc
 50
218.4508030898934
 51
321.5491969101076
  0
ARC
  5
3AC
330
20
100
AcDbEntity
  8
SCHRAFF
100
AcDbCircle
 10
316.2782847227516
 20
475.6828961341268
 30
0.0
 40
1.915360502180973
100
AcDbArc
 50
218.4508030898924
 51
321.5491969101066
  0
ARC
  5
3AD
330
20
100
AcDbEntity
  8
SCHRAFF
100
AcDbCircle
 10
324.2782847227513
 20
475.6828961341268
 30
0.0
 40
1.915360502180973
100
AcDbArc
 50
218.4508030898934
 51
321.5491969101076
  0
ARC
  5
3AE
330
20
100
AcDbEntity
  8
SCHRAFF
100
AcDbCircle
 10
316.2782847227516
 20
490.6828961341267
 30
0.0
 40
1.915360502180973
100
AcDbArc
 50
218.4508030898924
 51
321.5491969101066
  0
ARC
  5
3AF
330
20
100
AcDbEntity
  8
SCHRAFF
100
AcDbCircle
 10
316.2782847227516
 20
485.6828961341268
 30
0.0
 40
1.915360502180973
100
AcDbArc
 50
218.4508030898924
 51
321.5491969101066
  0
ARC
  5
3B0
330
20
100
AcDbEntity
  8
SCHRAFF
100
AcDbCircle
 10
324.2782847227513
 20
485.6828961341268
 30
0.0
 40
1.915360502180973
100
AcDbArc
 50
218.4508030898934
 51
321.5491969101076
  0
ARC
  5
3B1
330
20
100
AcDbEntity
  8
SCHRAFF
100
AcDbCircle
 10
324.2782847227513
 20
490.6828961341267
 30
0.0
 40
1.915360502180973
100
AcDbArc
 50
218.4508030898934
 51
321.5491969101076
  0
LINE
  5
3B2
330
20
100
AcDbEntity
  8
MITTEL
100
AcDbLine
 10
320.2782847227516
 20
287.2547707113952
 30
0.0
 11
320.2782847227516
 21
237.6186913244766
 31
0.0
  0
ARC
  5
3B8
330
20
100
AcDbEntity
  8
STEMPEL
100
AcDbCircle
 10
320.2782847227516
 20
287.2547707113952
 30
0.0
 40
114.9
100
AcDbArc
 50
213.7663264854209
 51
326.2336735145791
  0
ARC
  5
3B9
102
{ACAD_REACTORS
330
542
102
}
330
20
100
AcDbEntity
  8
STEMPEL
100
AcDbCircle
 10
320.2782847227516
 20
287.2547707113952
 30
0.0
 40
119.9
100
AcDbArc
 50
217.3011772018605
 51
322.6988227981394
  0
LINE
  5
3BA
330
20
100
AcDbEntity
  8
STEMPEL
100
AcDbLine
 10
425.9268284022668
 20
220.4850528866389
 30
0.0
 11
455.3716921309375
 21
203.485052886639
 31
0.0
  0
LINE
  5
3BB
330
20
100
AcDbEntity
  8
STEMPEL
100
AcDbLine
 10
423.4268284022667
 20
216.1549258677167
 30
0.0
 11
452.8716921309376
 21
199.1549258677167
 31
0.0
  0
ARC
  5
3BC
330
20
100
AcDbEntity
  8
STEMPEL
100
AcDbCircle
 10
420.4268284022667
 20
210.95877344501
 30
0.0
 40
6.0
100
AcDbArc
 50
60.00000000000021
 51
142.698822798139
  0
ARC
  5
3BD
330
20
100
AcDbEntity
  8
STEMPEL
100
AcDbCircle
 10
420.4268284022667
 20
210.95877344501
 30
0.0
 40
11.0
100
AcDbArc
 50
60.00000000000021
 51
142.698822798139
  0
LINE
  5
3BE
330
20
100
AcDbEntity
  8
STEMPEL
100
AcDbLine
 10
214.6297410432363
 20
220.4850528866389
 30
0.0
 11
185.1848773145654
 21
203.4850528866388
 31
0.0
  0
LINE
  5
3BF
330
20
100
AcDbEntity
  8
STEMPEL
100
AcDbLine
 10
217.1297410432363
 20
216.1549258677167
 30
0.0
 11
187.6848773145655
 21
199.1549258677166
 31
0.0
  0
ARC
  5
3C0
330
20
100
AcDbEntity
  8
STEMPEL
100
AcDbCircle
 10
220.1297410432363
 20
210.95877344501
 30
0.0
 40
11.0
100
AcDbArc
 50
37.30117720186098
 51
119.9999999999998
  0
ARC
  5
3C1
330
20
100
AcDbEntity
  8
STEMPEL
100
AcDbCircle
 10
220.1297410432363
 20
210.95877344501
 30
0.0
 40
6.0
100
AcDbArc
 50
37.30117720186098
 51
119.9999999999998
  0
LINE
  5
3C2
330
20
100
AcDbEntity
  8
MITTEL
100
AcDbLine
 10
448.0511840552488
 20
230.805560962328
 30
0.0
 11
433.0511840552487
 21
204.8247988487946
 31
0.0
  0
LINE
  5
3C3
330
20
100
AcDbEntity
  8
STEMPEL
100
AcDbLine
 10
433.2880443344343
 20
216.2350528866389
 30
0.0
 11
430.7880443344344
 21
211.9049258677167
 31
0.0
  0
LINE
  5
3C4
330
20
100
AcDbEntity
  8
STEMPEL
100
AcDbLine
 10
442.8143237760631
 20
210.7350528866389
 30
0.0
 11
440.3143237760631
 21
206.4049258677167
 31
0.0
  0
LINE
  5
3C5
330
20
100
AcDbEntity
  8
MITTEL
100
AcDbLine
 10
192.5053853902542
 20
230.8055609623279
 30
0.0
 11
207.5053853902543
 21
204.8247988487946
 31
0.0
  0
LINE
  5
3C6
330
20
100
AcDbEntity
  8
STEMPEL
100
AcDbLine
 10
197.7422456694399
 20
210.7350528866389
 30
0.0
 11
200.24224566944
 21
206.4049258677167
 31
0.0
  0
LINE
  5
3C7
330
20
100
AcDbEntity
  8
STEMPEL
100
AcDbLine
 10
207.2685251110687
 20
216.2350528866389
 30
0.0
 11
209.7685251110687
 21
211.9049258677167
 31
0.0
  0
ARC
  5
3C8
330
20
100
AcDbEntity
  8
MITTEL
100
AcDbCircle
 10
320.2782847227514
 20
287.2547707113954
 30
0.0
 40
114.9
100
AcDbArc
 50
180.0000000000001
 51
206.2336735145607
  0
ARC
  5
3C9
330
20
100
AcDbEntity
  8
MITTEL
100
AcDbCircle
 10
320.2782847227514
 20
287.2547707113954
 30
0.0
 40
119.9
100
AcDbArc
 50
180.0000000000001
 51
202.698822798139
  0
ARC
  5
3CA
330
20
100
AcDbEntity
  8
MITTEL
100
AcDbCircle
 10
204.1297410432362
 20
238.6715863661124
 30
0.0
 40
11.0
100
AcDbArc
 50
300.0000000000002
 51
22.69882279813858
  0
ARC
  5
3CB
330
20
100
AcDbEntity
  8
MITTEL
100
AcDbCircle
 10
204.1297410432362
 20
238.6715863661124
 30
0.0
 40
6.0
100
AcDbArc
 50
300.0000000000002
 51
22.69882279813858
  0
LINE
  5
3CC
330
20
100
AcDbEntity
  8
MITTEL
100
AcDbLine
 10
207.1297410432362
 20
233.4754339434057
 30
0.0
 11
177.6848773145653
 21
216.4754339434058
 31
0.0
  0
LINE
  5
3CD
330
20
100
AcDbEntity
  8
MITTEL
100
AcDbLine
 10
209.6297410432362
 20
229.1453069244835
 30
0.0
 11
180.1848773145654
 21
212.1453069244835
 31
0.0
  0
LINE
  5
3CE
330
20
100
AcDbEntity
  8
MITTEL
100
AcDbLine
 10
202.2685251110686
 20
224.8953069244835
 30
0.0
 11
199.7685251110686
 21
229.2254339434057
 31
0.0
  0
LINE
  5
3CF
330
20
100
AcDbEntity
  8
MITTEL
100
AcDbLine
 10
192.7422456694398
 20
219.3953069244837
 30
0.0
 11
190.2422456694397
 21
223.7254339434059
 31
0.0
  0
ARC
  5
3D0
330
20
100
AcDbEntity
  8
MITTEL
100
AcDbCircle
 10
320.2782847227518
 20
287.2547707113954
 30
0.0
 40
114.9
100
AcDbArc
 50
333.7663264854392
 51
359.9999999999999
  0
ARC
  5
3D1
330
20
100
AcDbEntity
  8
MITTEL
100
AcDbCircle
 10
320.2782847227518
 20
287.2547707113954
 30
0.0
 40
119.9
100
AcDbArc
 50
337.3011772018613
 51
359.9999999999999
  0
ARC
  5
3D2
330
20
100
AcDbEntity
  8
MITTEL
100
AcDbCircle
 10
436.426828402267
 20
238.6715863661124
 30
0.0
 40
11.0
100
AcDbArc
 50
157.3011772018618
 51
239.9999999999998
  0
ARC
  5
3D3
330
20
100
AcDbEntity
  8
MITTEL
100
AcDbCircle
 10
436.426828402267
 20
238.6715863661124
 30
0.0
 40
6.0
100
AcDbArc
 50
157.3011772018618
 51
239.9999999999998
  0
LINE
  5
3D4
330
20
100
AcDbEntity
  8
MITTEL
100
AcDbLine
 10
430.926828402267
 20
229.1453069244835
 30
0.0
 11
460.3716921309379
 21
212.1453069244836
 31
0.0
  0
LINE
  5
3D5
330
20
100
AcDbEntity
  8
MITTEL
100
AcDbLine
 10
433.426828402267
 20
233.4754339434057
 30
0.0
 11
462.8716921309378
 21
216.4754339434058
 31
0.0
  0
LINE
  5
3D6
330
20
100
AcDbEntity
  8
MITTEL
100
AcDbLine
 10
438.2880443344346
 20
224.8953069244835
 30
0.0
 11
440.7880443344346
 21
229.2254339434057
 31
0.0
  0
LINE
  5
3D7
330
20
100
AcDbEntity
  8
MITTEL
100
AcDbLine
 10
447.8143237760633
 20
219.3953069244837
 30
0.0
 11
450.3143237760634
 21
223.7254339434059
 31
0.0
  0
ARC
  5
3D8
330
20
100
AcDbEntity
  8
STEMPEL
100
AcDbCircle
 10
320.2782847227516
 20
287.2547707113952
 30
0.0
 40
109.5
100
AcDbArc
 50
220.3070826492496
 51
266.0755463017031
  0
LINE
  5
3D9
330
20
100
AcDbEntity
  8
STEMPEL
100
AcDbLine
 10
224.7606199955445
 20
223.3925304980977
 30
0.0
 11
227.0051604199438
 21
224.8932097720394
 31
0.0
  0
LWPOLYLINE
  5
3DA
330
20
100
AcDbEntity
  8
HILF
100
AcDbPolyline
 90
       14
 70
     0
 43
0.0
 10
423.0638085324293
 20
221.6380213489182
 10
422.8667990542273
 20
221.3430278381253
 10
422.6054184677763
 20
220.8524520726061
 10
422.4360124034749
 20
220.428693002112
 10
422.3326393294348
 20
220.0612006276113
 10
422.2693577137678
 20
219.7394249500726
 10
422.2202260245852
 20
219.452815970464
 10
422.1593027299989
 20
219.190823689754
 10
422.0669351543357
 20
218.9396744901914
 10
421.9486260467841
 20
218.6727002791471
 10
421.816167012748
 20
218.3600093452724
 10
421.6813496576312
 20
217.9717099772186
 10
421.5559655868373
 20
217.4779104636371
 10
421.4553237142764
 20
216.8699659975474
  0
LINE
  5
3EA
330
20
100
AcDbEntity
  8
MITTEL
100
AcDbLine
 10
217.2131299918483
 20
236.4651666541182
 30
0.0
 11
222.0569231645799
 21
238.8521454348778
 31
0.0
  0
ARC
  5
3EB
330
20
100
AcDbEntity
  8
MITTEL
100
AcDbCircle
 10
320.2782847227516
 20
287.2547707113952
 30
0.0
 40
109.5
100
AcDbArc
 50
180.0
 51
206.2336735145697
  0
LINE
  5
3EC
330
20
100
AcDbEntity
  8
STEMPEL
100
AcDbLine
 10
415.7959494499586
 20
223.3925304980977
 30
0.0
 11
413.5514090255594
 21
224.8932097720394
 31
0.0
  0
LINE
  5
3ED
330
20
100
AcDbEntity
  8
MITTEL
100
AcDbLine
 10
423.3434394536549
 20
236.4651666541181
 30
0.0
 11
418.4996462809232
 21
238.8521454348778
 31
0.0
  0
ARC
  5
3EE
330
20
100
AcDbEntity
  8
MITTEL
100
AcDbCircle
 10
320.2782847227516
 20
287.2547707113952
 30
0.0
 40
109.5
100
AcDbArc
 50
333.7663264854394
 51
0.0
  0
ARC
  5
3EF
330
20
100
AcDbEntity
  8
MITTEL
100
AcDbCircle
 10
320.2782847227516
 20
287.2547707113952
 30
0.0
 40
112.2
100
AcDbArc
 50
211.2121927824938
 51
328.7878072175062
  0
LINE
  5
3F0
330
20
100
AcDbEntity
  8
STEMPEL
100
AcDbLine
 10
317.7797506780503
 20
177.840372273699
 30
0.0
 11
320.2782847227516
 21
175.0547707113951
 31
0.0
  0
LINE
  5
3F1
330
20
100
AcDbEntity
  8
STEMPEL
100
AcDbLine
 10
320.2782847227516
 20
175.0547707113951
 30
0.0
 11
322.7768187674527
 21
177.8403722737014
 31
0.0
  0
ARC
  5
3F2
330
20
100
AcDbEntity
  8
STEMPEL
100
AcDbCircle
 10
320.2782847227516
 20
287.2547707113952
 30
0.0
 40
109.5
100
AcDbArc
 50
273.924453698297
 51
319.6929173507508
  0
LINE
  5
3F3
330
20
100
AcDbEntity
  8
STEMPEL
100
AcDbLine
 10
185.1848773145654
 20
203.4850528866388
 30
0.0
 11
187.6848773145655
 21
199.1549258677166
 31
0.0
  0
LINE
  5
3F4
330
20
100
AcDbEntity
  8
MITTEL
100
AcDbLine
 10
180.1848773145654
 20
212.1453069244835
 30
0.0
 11
177.6848773145653
 21
216.4754339434058
 31
0.0
  0
LINE
  5
3F5
330
20
100
AcDbEntity
  8
MITTEL
100
AcDbLine
 10
460.3716921309378
 20
212.1453069244835
 30
0.0
 11
462.8716921309377
 21
216.4754339434058
 31
0.0
  0
LINE
  5
3F6
330
20
100
AcDbEntity
  8
STEMPEL
100
AcDbLine
 10
455.3716921309375
 20
203.4850528866388
 30
0.0
 11
452.8716921309376
 21
199.1549258677167
 31
0.0
  0
LINE
  5
3F7
330
20
100
AcDbEntity
  8
STEMPEL
100
AcDbLine
 10
322.7781218246773
 20
177.7833095241805
 30
0.0
 11
325.3999033771034
 21
175.1717255066926
 31
0.0
  0
LINE
  5
3F8
330
20
100
AcDbEntity
  8
STEMPEL
100
AcDbLine
 10
325.3999033771034
 20
175.1717255066926
 30
0.0
 11
327.772584478858
 21
178.0115307779072
 31
0.0
  0
LINE
  5
3F9
330
20
100
AcDbEntity
  8
STEMPEL
100
AcDbLine
 10
315.1566660683998
 20
175.1717255066926
 30
0.0
 11
312.7839849666452
 21
178.0115307779072
 31
0.0
  0
LINE
  5
3FA
330
20
100
AcDbEntity
  8
STEMPEL
100
AcDbLine
 10
317.7784476208259
 20
177.7833095241805
 30
0.0
 11
315.1566660683998
 21
175.1717255066926
 31
0.0
  0
LINE
  5
3FB
330
20
100
AcDbEntity
  8
STEMPEL
100
AcDbLine
 10
227.0051604199438
 20
224.8932097720394
 30
0.0
 11
230.6628527873247
 21
224.3316083701161
 31
0.0
  0
LINE
  5
3FC
330
20
100
AcDbEntity
  8
STEMPEL
100
AcDbLine
 10
230.6628527873247
 20
224.3316083701161
 30
0.0
 11
229.9490184679038
 21
220.7005547828695
 31
0.0
  0
LINE
  5
3FD
330
20
100
AcDbEntity
  8
STEMPEL
100
AcDbLine
 10
229.9490184679038
 20
220.7005547828695
 30
0.0
 11
233.6285336833626
 21
220.3065022885903
 31
0.0
  0
LINE
  5
3FE
330
20
100
AcDbEntity
  8
STEMPEL
100
AcDbLine
 10
410.6075509775993
 20
220.7005547828695
 30
0.0
 11
406.9280357621404
 21
220.3065022885903
 31
0.0
  0
LINE
  5
3FF
330
20
100
AcDbEntity
  8
STEMPEL
100
AcDbLine
 10
409.8937166581784
 20
224.3316083701161
 30
0.0
 11
410.6075509775993
 21
220.7005547828695
 31
0.0
  0
LINE
  5
400
330
20
100
AcDbEntity
  8
STEMPEL
100
AcDbLine
 10
413.5514090255593
 20
224.8932097720394
 30
0.0
 11
409.8937166581784
 21
224.3316083701161
 31
0.0
  0
LINE
  5
401
330
20
100
AcDbEntity
  8
STEMPEL
100
AcDbLine
 10
415.7959494499586
 20
223.3925304980977
 30
0.0
 11
413.5514090255593
 21
224.8932097720394
 31
0.0
  0
LINE
  5
402
330
20
100
AcDbEntity
  8
STEMPEL
100
AcDbLine
 10
407.4753784760885
 20
216.6466490753414
 30
0.0
 11
406.9280357621404
 21
220.3065022885904
 31
0.0
  0
LINE
  5
403
330
20
100
AcDbEntity
  8
STEMPEL
100
AcDbLine
 10
403.7817113029054
 20
216.4209669918932
 30
0.0
 11
407.4753784760885
 21
216.6466490753414
 31
0.0
  0
LINE
  5
404
330
20
100
AcDbEntity
  8
STEMPEL
100
AcDbLine
 10
233.0811909694146
 20
216.6466490753413
 30
0.0
 11
233.6285336833626
 21
220.3065022885903
 31
0.0
  0
LINE
  5
405
330
20
100
AcDbEntity
  8
STEMPEL
100
AcDbLine
 10
236.7748581425976
 20
216.4209669918932
 30
0.0
 11
233.0811909694146
 21
216.6466490753413
 31
0.0
  0
INSERT
  5
406
330
20
100
AcDbEntity
  8
SCHRAFF
100
AcDbBlockReference
  2
*X1
 10
-364.8002625450756
 20
138.7205723550297
 30
0.0
1001
ACAD
1000
HATCH
1002
{
1070
    16
1000
_U,I
1040
2.0
1040
0.2617993877991493
1070
     0
1002
}
  0
LINE
  5
407
330
20
100
AcDbEntity
  8
STEMPEL
100
AcDbLine
 10
185.1848773145656
 20
368.853631439113
 30
0.0
 11
185.1848773145654
 21
388.8536314391131
 31
0.0
  0
LINE
  5
408
330
20
100
AcDbEntity
  8
STEMPEL
100
AcDbLine
 10
187.6848773145655
 20
368.853631439113
 30
0.0
 11
187.6848773145655
 21
388.8536314391131
 31
0.0
  0
LINE
  5
409
330
20
100
AcDbEntity
  8
MITTEL
100
AcDbLine
 10
195.2422456694399
 20
378.8536314391131
 30
0.0
 11
214.7685251110687
 21
378.8536314391131
 31
0.0
  0
LWPOLYLINE
  5
40A
330
20
100
AcDbEntity
  8
STEMPEL
100
AcDbPolyline
 90
       16
 70
     1
 43
0.0
 10
205.0053853902543
 20
384.3536314391131
 42
0.1119976344768148
 10
203.217691022997
 20
383.9481097088019
 42
0.1030981112244748
 10
201.6373369939275
 20
382.7427187356391
 42
0.0925889459849713
 10
200.6143659542628
 20
380.9930704011153
 42
0.0863188075832555
 10
200.24224566944
 20
378.8536314391131
 42
0.0863188075832657
 10
200.6143659542629
 20
376.7141924771104
 42
0.0925889459849457
 10
201.6373369939275
 20
374.9645441425871
 42
0.1030981112244866
 10
203.2176910229971
 20
373.7591531694243
 42
0.1119976344768141
 10
205.0053853902543
 20
373.3536314391131
 42
0.1119976344768148
 10
206.7930797575117
 20
373.7591531694243
 42
0.1030981112244751
 10
208.3734337865811
 20
374.9645441425871
 42
0.0925889459849603
 10
209.3964048262459
 20
376.7141924771108
 42
0.0863188075832522
 10
209.7685251110687
 20
378.8536314391131
 42
0.086318807583277
 10
209.3964048262458
 20
380.9930704011155
 42
0.0925889459849812
 10
208.3734337865811
 20
382.7427187356391
 42
0.1030981112244865
 10
206.7930797575117
 20
383.9481097088017
 42
0.1119976344768301
  0
LWPOLYLINE
  5
41C
330
20
100
AcDbEntity
  8
STEMPEL
100
AcDbPolyline
 90
        9
 70
     0
 43
0.0
 10
203.7553853902543
 20
373.5466923899523
 42
0.034928066828188
 10
204.2930797575117
 20
373.7591531694243
 42
0.1030981112244751
 10
205.8734337865811
 20
374.9645441425871
 42
0.0925889459849603
 10
206.8964048262459
 20
376.7141924771108
 42
0.0863188075832522
 10
207.2685251110687
 20
378.8536314391131
 42
0.086318807583277
 10
206.8964048262458
 20
380.9930704011155
 42
0.0925889459849812
 10
205.8734337865811
 20
382.7427187356391
 42
0.1030981112244865
 10
204.2930797575117
 20
383.9481097088017
 42
0.0349280668281939
 10
203.7553853902543
 20
384.1605704882739
 42
0.1119976344768148
  0
LINE
  5
427
330
20
100
AcDbEntity
  8
HILF
100
AcDbLine
 10
221.3104915139525
 20
368.853631439113
 30
0.0
 11
221.3104915139525
 21
388.8536314391131
 31
0.0
  0
LINE
  5
428
330
20
100
AcDbEntity
  8
MITTEL
100
AcDbLine
 10
205.0053853902544
 20
368.853631439113
 30
0.0
 11
205.0053853902543
 21
388.8536314391131
 31
0.0
  0
LINE
  5
429
330
20
100
AcDbEntity
  8
MITTEL
100
AcDbLine
 10
435.5511840552487
 20
368.853631439113
 30
0.0
 11
435.5511840552488
 21
388.8536314391131
 31
0.0
  0
LINE
  5
42A
330
20
100
AcDbEntity
  8
HILF
100
AcDbLine
 10
419.2460779315507
 20
368.853631439113
 30
0.0
 11
419.2460779315507
 21
388.8536314391131
 31
0.0
  0
LINE
  5
42B
330
20
100
AcDbEntity
  8
STEMPEL
100
AcDbLine
 10
452.8716921309377
 20
368.853631439113
 30
0.0
 11
452.8716921309377
 21
388.8536314391131
 31
0.0
  0
LINE
  5
42C
330
20
100
AcDbEntity
  8
STEMPEL
100
AcDbLine
 10
455.3716921309375
 20
368.853631439113
 30
0.0
 11
455.3716921309377
 21
388.8536314391131
 31
0.0
  0
LWPOLYLINE
  5
42D
330
20
100
AcDbEntity
  8
STEMPEL
100
AcDbPolyline
 90
       16
 70
     1
 43
0.0
 10
435.5511840552488
 20
384.3536314391131
 42
-0.1119976344768148
 10
437.3388784225062
 20
383.9481097088019
 42
-0.1030981112244748
 10
438.9192324515756
 20
382.7427187356391
 42
-0.0925889459849713
 10
439.9422034912404
 20
380.9930704011153
 42
-0.0863188075832555
 10
440.3143237760632
 20
378.8536314391131
 42
-0.0863188075832657
 10
439.9422034912403
 20
376.7141924771104
 42
-0.0925889459849457
 10
438.9192324515756
 20
374.9645441425871
 42
-0.1030981112244866
 10
437.3388784225061
 20
373.7591531694243
 42
-0.1119976344768141
 10
435.5511840552488
 20
373.3536314391131
 42
-0.1119976344768148
 10
433.7634896879915
 20
373.7591531694243
 42
-0.1030981112244751
 10
432.183135658922
 20
374.9645441425871
 42
-0.0925889459849603
 10
431.1601646192573
 20
376.7141924771108
 42
-0.0863188075832522
 10
430.7880443344345
 20
378.8536314391131
 42
-0.086318807583277
 10
431.1601646192574
 20
380.9930704011155
 42
-0.0925889459849812
 10
432.183135658922
 20
382.7427187356391
 42
-0.1030981112244865
 10
433.7634896879915
 20
383.9481097088017
 42
-0.1119976344768301
  0
LWPOLYLINE
  5
43F
330
20
100
AcDbEntity
  8
STEMPEL
100
AcDbPolyline
 90
        9
 70
     0
 43
0.0
 10
436.8011840552489
 20
373.5466923899523
 42
-0.034928066828188
 10
436.2634896879915
 20
373.7591531694243
 42
-0.1030981112244751
 10
434.6831356589221
 20
374.9645441425871
 42
-0.0925889459849603
 10
433.6601646192573
 20
376.7141924771108
 42
-0.0863188075832522
 10
433.2880443344345
 20
378.8536314391131
 42
-0.086318807583277
 10
433.6601646192574
 20
380.9930704011155
 42
-0.0925889459849812
 10
434.6831356589221
 20
382.7427187356391
 42
-0.1030981112244865
 10
436.2634896879915
 20
383.9481097088017
 42
-0.0349280668281939
 10
436.8011840552489
 20
384.1605704882739
 42
-0.1119976344768148
  0
LINE
  5
44A
330
20
100
AcDbEntity
  8
MITTEL
100
AcDbLine
 10
425.7880443344345
 20
378.8536314391131
 30
0.0
 11
445.3143237760631
 21
378.8536314391131
 31
0.0
  0
LINE
  5
44B
330
20
100
AcDbEntity
  8
STEMPEL
100
AcDbLine
 10
185.1848773145654
 20
490.8536314391131
 30
0.0
 11
455.3716921309375
 21
490.8536314391131
 31
0.0
  0
LINE
  5
44C
330
20
100
AcDbEntity
  8
STEMPEL
100
AcDbLine
 10
322.7782847227516
 20
470.853631439113
 30
0.0
 11
455.3716921309377
 21
470.8536314391131
 31
0.0
  0
LINE
  5
44D
330
20
100
AcDbEntity
  8
STEMPEL
100
AcDbLine
 10
455.3716921309375
 20
490.8536314391131
 30
0.0
 11
455.3716921309377
 21
470.853631439113
 31
0.0
  0
LINE
  5
44E
330
20
100
AcDbEntity
  8
STEMPEL
100
AcDbLine
 10
452.8716921309377
 20
490.8536314391131
 30
0.0
 11
452.8716921309377
 21
470.853631439113
 31
0.0
  0
LINE
  5
44F
330
20
100
AcDbEntity
  8
HILF
100
AcDbLine
 10
419.2460779315507
 20
490.8536314391131
 30
0.0
 11
419.2460779315507
 21
470.853631439113
 31
0.0
  0
LINE
  5
450
330
20
100
AcDbEntity
  8
MITTEL
100
AcDbLine
 10
435.5511840552487
 20
490.8536314391131
 30
0.0
 11
435.5511840552488
 21
470.853631439113
 31
0.0
  0
LWPOLYLINE
  5
451
330
20
100
AcDbEntity
  8
STEMPEL
100
AcDbPolyline
 90
        9
 70
     0
 43
0.0
 10
436.8011840552489
 20
486.1605704882738
 42
0.034928066828188
 10
436.2634896879915
 20
485.9481097088018
 42
0.1030981112244751
 10
434.6831356589221
 20
484.7427187356391
 42
0.0925889459849603
 10
433.6601646192573
 20
482.9930704011154
 42
0.0863188075832522
 10
433.2880443344345
 20
480.853631439113
 42
0.086318807583277
 10
433.6601646192574
 20
478.7141924771107
 42
0.0925889459849812
 10
434.6831356589221
 20
476.964544142587
 42
0.1030981112244865
 10
436.2634896879915
 20
475.7591531694244
 42
0.0349280668281939
 10
436.8011840552489
 20
475.5466923899523
 42
0.1119976344768148
  0
LWPOLYLINE
  5
45C
330
20
100
AcDbEntity
  8
STEMPEL
100
AcDbPolyline
 90
       16
 70
     1
 43
0.0
 10
435.5511840552488
 20
475.353631439113
 42
0.1119976344768148
 10
437.3388784225062
 20
475.7591531694243
 42
0.1030981112244748
 10
438.9192324515756
 20
476.964544142587
 42
0.0925889459849713
 10
439.9422034912404
 20
478.7141924771107
 42
0.0863188075832555
 10
440.3143237760632
 20
480.853631439113
 42
0.0863188075832657
 10
439.9422034912403
 20
482.9930704011157
 42
0.0925889459849457
 10
438.9192324515756
 20
484.7427187356391
 42
0.1030981112244866
 10
437.3388784225061
 20
485.9481097088018
 42
0.1119976344768141
 10
435.5511840552488
 20
486.353631439113
 42
0.1119976344768148
 10
433.7634896879915
 20
485.9481097088018
 42
0.1030981112244751
 10
432.183135658922
 20
484.7427187356391
 42
0.0925889459849603
 10
431.1601646192573
 20
482.9930704011154
 42
0.0863188075832522
 10
430.7880443344345
 20
480.853631439113
 42
0.086318807583277
 10
431.1601646192574
 20
478.7141924771107
 42
0.0925889459849812
 10
432.183135658922
 20
476.964544142587
 42
0.1030981112244865
 10
433.7634896879915
 20
475.7591531694244
 42
0.1119976344768301
  0
LINE
  5
46E
330
20
100
AcDbEntity
  8
MITTEL
100
AcDbLine
 10
425.7880443344345
 20
480.853631439113
 30
0.0
 11
445.3143237760631
 21
480.853631439113
 31
0.0
  0
LINE
  5
46F
330
20
100
AcDbEntity
  8
STEMPEL
100
AcDbLine
 10
185.1848773145654
 20
470.853631439113
 30
0.0
 11
317.7782847227518
 21
470.853631439113
 31
0.0
  0
LINE
  5
470
330
20
100
AcDbEntity
  8
MITTEL
100
AcDbLine
 10
205.0053853902544
 20
490.8536314391131
 30
0.0
 11
205.0053853902543
 21
470.853631439113
 31
0.0
  0
LINE
  5
471
330
20
100
AcDbEntity
  8
HILF
100
AcDbLine
 10
221.3104915139525
 20
490.8536314391131
 30
0.0
 11
221.3104915139525
 21
470.853631439113
 31
0.0
  0
LINE
  5
472
330
20
100
AcDbEntity
  8
STEMPEL
100
AcDbLine
 10
187.6848773145655
 20
490.8536314391131
 30
0.0
 11
187.6848773145655
 21
470.853631439113
 31
0.0
  0
LINE
  5
473
330
20
100
AcDbEntity
  8
STEMPEL
100
AcDbLine
 10
185.1848773145656
 20
490.8536314391131
 30
0.0
 11
185.1848773145654
 21
470.853631439113
 31
0.0
  0
LWPOLYLINE
  5
474
330
20
100
AcDbEntity
  8
STEMPEL
100
AcDbPolyline
 90
       16
 70
     1
 43
0.0
 10
205.0053853902543
 20
475.353631439113
 42
-0.1119976344768148
 10
203.217691022997
 20
475.7591531694243
 42
-0.1030981112244748
 10
201.6373369939275
 20
476.964544142587
 42
-0.0925889459849713
 10
200.6143659542628
 20
478.7141924771107
 42
-0.0863188075832555
 10
200.24224566944
 20
480.853631439113
 42
-0.0863188075832657
 10
200.6143659542629
 20
482.9930704011157
 42
-0.0925889459849457
 10
201.6373369939275
 20
484.7427187356391
 42
-0.1030981112244866
 10
203.2176910229971
 20
485.9481097088018
 42
-0.1119976344768141
 10
205.0053853902543
 20
486.353631439113
 42
-0.1119976344768148
 10
206.7930797575117
 20
485.9481097088018
 42
-0.1030981112244751
 10
208.3734337865811
 20
484.7427187356391
 42
-0.0925889459849603
 10
209.3964048262459
 20
482.9930704011154
 42
-0.0863188075832522
 10
209.7685251110687
 20
480.853631439113
 42
-0.086318807583277
 10
209.3964048262458
 20
478.7141924771107
 42
-0.0925889459849812
 10
208.3734337865811
 20
476.964544142587
 42
-0.1030981112244865
 10
206.7930797575117
 20
475.7591531694244
 42
-0.1119976344768301
  0
LWPOLYLINE
  5
486
330
20
100
AcDbEntity
  8
STEMPEL
100
AcDbPolyline
 90
        9
 70
     0
 43
0.0
 10
203.7553853902543
 20
486.1605704882738
 42
-0.034928066828188
 10
204.2930797575117
 20
485.9481097088018
 42
-0.1030981112244751
 10
205.8734337865811
 20
484.7427187356391
 42
-0.0925889459849603
 10
206.8964048262459
 20
482.9930704011154
 42
-0.0863188075832522
 10
207.2685251110687
 20
480.853631439113
 42
-0.086318807583277
 10
206.8964048262458
 20
478.7141924771107
 42
-0.0925889459849812
 10
205.8734337865811
 20
476.964544142587
 42
-0.1030981112244865
 10
204.2930797575117
 20
475.7591531694244
 42
-0.0349280668281939
 10
203.7553853902543
 20
475.5466923899523
 42
-0.1119976344768148
  0
LINE
  5
491
330
20
100
AcDbEntity
  8
MITTEL
100
AcDbLine
 10
195.2422456694399
 20
480.8536314391131
 30
0.0
 11
214.7685251110687
 21
480.8536314391131
 31
0.0
  0
LINE
  5
492
102
{ACAD_REACTORS
330
55A
330
57D
102
}
330
20
100
AcDbEntity
  8
STEMPEL
100
AcDbLine
 10
649.270801199966
 20
368.8536314391131
 30
0.0
 11
649.2708011999659
 21
388.853631439113
 31
0.0
  0
LINE
  5
493
330
20
100
AcDbEntity
  8
STEMPEL
100
AcDbLine
 10
647.2708011999659
 20
490.8536314391131
 30
0.0
 11
713.024060509556
 21
490.8536314391132
 31
0.0
  0
LINE
  5
494
330
20
100
AcDbEntity
  8
STEMPEL
100
AcDbLine
 10
647.2708011999659
 20
470.8536314391131
 30
0.0
 11
701.8748039335807
 21
470.8536314391131
 31
0.0
  0
LINE
  5
495
102
{ACAD_REACTORS
330
55A
330
57D
102
}
330
20
100
AcDbEntity
  8
STEMPEL
100
AcDbLine
 10
649.2708011999659
 20
388.853631439113
 30
0.0
 11
703.8748039335809
 21
388.853631439113
 31
0.0
  0
LINE
  5
496
102
{ACAD_REACTORS
330
55A
102
}
330
20
100
AcDbEntity
  8
STEMPEL
100
AcDbLine
 10
649.2708011999659
 20
368.8536314391131
 30
0.0
 11
715.011819444883
 21
368.853631439113
 31
0.0
  0
LINE
  5
497
102
{ACAD_REACTORS
330
57D
330
599
102
}
330
20
100
AcDbEntity
  8
STEMPEL
100
AcDbLine
 10
647.2708011999658
 20
470.8536314391131
 30
0.0
 11
647.2708011999659
 21
490.8536314391131
 31
0.0
  0
LINE
  5
498
330
20
100
AcDbEntity
  8
STEMPEL
100
AcDbLine
 10
667.7445217583371
 20
368.8536314391131
 30
0.0
 11
667.7445217583372
 21
388.853631439113
 31
0.0
  0
LINE
  5
499
330
20
100
AcDbEntity
  8
STEMPEL
100
AcDbLine
 10
672.0746487772592
 20
368.8536314391131
 30
0.0
 11
672.0746487772592
 21
388.853631439113
 31
0.0
  0
LINE
  5
49A
330
20
100
AcDbEntity
  8
STEMPEL
100
AcDbLine
 10
670.0746487772591
 20
470.8536314391131
 30
0.0
 11
670.074648777259
 21
490.8536314391131
 31
0.0
  0
LINE
  5
49B
330
20
100
AcDbEntity
  8
STEMPEL
100
AcDbLine
 10
665.744521758337
 20
470.8536314391131
 30
0.0
 11
665.744521758337
 21
490.8536314391131
 31
0.0
  0
LINE
  5
49C
330
20
100
AcDbEntity
  8
STEMPEL
100
AcDbLine
 10
703.8748039335807
 20
368.8536314391131
 30
0.0
 11
703.8748039335809
 21
388.853631439113
 31
0.0
  0
LINE
  5
49D
330
20
100
AcDbEntity
  8
STEMPEL
100
AcDbLine
 10
701.8748039335807
 20
470.8536314391131
 30
0.0
 11
701.8748039335807
 21
490.8536314391131
 31
0.0
  0
LINE
  5
49E
330
20
100
AcDbEntity
  8
MITTEL
100
AcDbLine
 10
657.7445217583369
 20
368.3536314391131
 30
0.0
 11
657.7445217583369
 21
389.3536314391131
 31
0.0
  0
LINE
  5
49F
330
20
100
AcDbEntity
  8
MITTEL
100
AcDbLine
 10
649.994521758337
 20
378.8536314391131
 30
0.0
 11
665.4945217583369
 21
378.8536314391131
 31
0.0
  0
LWPOLYLINE
  5
4A0
330
20
100
AcDbEntity
  8
STEMPEL
100
AcDbPolyline
 90
       16
 70
     1
 43
0.0
 10
657.7445217583369
 20
384.3536314391131
 42
0.1747045211890255
 10
656.8129398738212
 20
384.0178806296312
 42
0.1042029417664471
 10
655.799978110074
 20
382.7427187356391
 42
0.0649481016503217
 10
655.2224443269104
 20
381.078000812375
 42
0.0510992989620879
 10
654.994521758337
 20
378.8536314391131
 42
0.0510992989621003
 10
655.2224443269105
 20
376.6292620658506
 42
0.0649481016502993
 10
655.799978110074
 20
374.9645441425871
 42
0.1042029417664359
 10
656.8129398738212
 20
373.6893822485951
 42
0.1747045211890472
 10
657.7445217583369
 20
373.3536314391131
 42
0.1747045211890333
 10
658.6761036428527
 20
373.6893822485951
 42
0.10420294176643
 10
659.6890654065999
 20
374.9645441425871
 42
0.0649481016502783
 10
660.2665991897636
 20
376.629262065851
 42
0.0510992989620593
 10
660.4945217583369
 20
378.8536314391131
 42
0.0510992989620489
 10
660.2665991897636
 20
381.0780008123757
 42
0.0649481016502356
 10
659.6890654065999
 20
382.7427187356391
 42
0.1042029417664524
 10
658.6761036428526
 20
384.0178806296312
 42
0.1747045211890394
  0
LWPOLYLINE
  5
4B2
330
20
100
AcDbEntity
  8
STEMPEL
100
AcDbPolyline
 90
        5
 70
     0
 43
0.0
 10
659.909585267798
 20
382.2545844076757
 42
0.0452225375444366
 10
659.5525713458327
 20
381.078000812375
 42
0.0510992989620879
 10
659.3246487772591
 20
378.8536314391131
 42
0.0510992989621003
 10
659.5525713458328
 20
376.6292620658506
 42
0.0452225375444134
 10
659.909585267798
 20
375.4526784705505
 42
0.1042029417664359
  0
LINE
  5
4B9
330
20
100
AcDbEntity
  8
MITTEL
100
AcDbLine
 10
655.7445217583367
 20
470.3536314391131
 30
0.0
 11
655.7445217583366
 21
491.3536314391131
 31
0.0
  0
LWPOLYLINE
  5
4BA
330
20
100
AcDbEntity
  8
STEMPEL
100
AcDbPolyline
 90
       16
 70
     1
 43
0.0
 10
655.7445217583367
 20
486.3536314391131
 42
0.1747045211890255
 10
654.812939873821
 20
486.0178806296311
 42
0.1042029417664471
 10
653.7999781100737
 20
484.7427187356391
 42
0.0649481016503217
 10
653.2224443269102
 20
483.0780008123751
 42
0.0510992989620879
 10
652.9945217583367
 20
480.8536314391131
 42
0.0510992989621003
 10
653.2224443269103
 20
478.6292620658506
 42
0.0649481016502993
 10
653.7999781100737
 20
476.9645441425871
 42
0.1042029417664359
 10
654.8129398738209
 20
475.6893822485951
 42
0.1747045211890472
 10
655.7445217583367
 20
475.3536314391131
 42
0.1747045211890333
 10
656.6761036428525
 20
475.6893822485951
 42
0.10420294176643
 10
657.6890654065997
 20
476.9645441425871
 42
0.0649481016502783
 10
658.2665991897633
 20
478.629262065851
 42
0.0510992989620593
 10
658.4945217583367
 20
480.8536314391131
 42
0.0510992989620489
 10
658.2665991897633
 20
483.0780008123757
 42
0.0649481016502356
 10
657.6890654065997
 20
484.7427187356391
 42
0.1042029417664524
 10
656.6761036428524
 20
486.0178806296311
 42
0.1747045211890394
  0
LINE
  5
4CC
330
20
100
AcDbEntity
  8
MITTEL
100
AcDbLine
 10
647.9945217583368
 20
480.8536314391131
 30
0.0
 11
663.4945217583367
 21
480.8536314391131
 31
0.0
  0
LWPOLYLINE
  5
4CD
330
20
100
AcDbEntity
  8
STEMPEL
100
AcDbPolyline
 90
        5
 70
     0
 43
0.0
 10
657.9095852677978
 20
484.2545844076757
 42
0.0452225375444366
 10
657.5525713458325
 20
483.0780008123751
 42
0.0510992989620879
 10
657.3246487772589
 20
480.8536314391131
 42
0.0510992989621003
 10
657.5525713458326
 20
478.6292620658506
 42
0.0452225375444134
 10
657.9095852677978
 20
477.4526784705505
 42
0.1042029417664359
  0
LINE
  5
4D4
102
{ACAD_REACTORS
330
5D5
102
}
330
20
100
AcDbEntity
  8
STEMPEL
100
AcDbLine
 10
730.8748039335807
 20
414.8536314391131
 30
0.0
 11
730.8748039335807
 21
437.8536314391131
 31
0.0
  0
LINE
  5
4D6
330
20
100
AcDbEntity
  8
STEMPEL
100
AcDbLine
 10
703.8748039335809
 20
388.853631439113
 30
0.0
 11
710.8748039335807
 21
417.8536314391131
 31
0.0
  0
LINE
  5
4D7
330
20
100
AcDbEntity
  8
STEMPEL
100
AcDbLine
 10
710.8748039335807
 20
417.8536314391131
 30
0.0
 11
710.8748039335808
 21
440.8536314391131
 31
0.0
  0
LINE
  5
4D9
330
20
100
AcDbEntity
  8
STEMPEL
100
AcDbLine
 10
701.8748039335807
 20
470.8536314391131
 30
0.0
 11
710.8748039335808
 21
440.8536314391131
 31
0.0
  0
ARC
  5
4DC
330
20
100
AcDbEntity
  8
STEMPEL
100
AcDbCircle
 10
713.024060509556
 20
485.8536314391131
 30
0.0
 40
5.0
100
AcDbArc
 50
14.79676224505732
 51
90.0
  0
ARC
  5
4DD
330
20
100
AcDbEntity
  8
STEMPEL
100
AcDbCircle
 10
715.011819444883
 20
373.8536314391131
 30
0.0
 40
5.0
100
AcDbArc
 50
270.0
 51
345.3791260113682
  0
DIMENSION
  5
4E0
330
20
100
AcDbEntity
  8
BEM
100
AcDbDimension
  2
*D7
 10
752.3538221216625
 20
368.8536314391131
 30
0.0
 11
745.8538221216624
 21
429.8536314391133
 31
0.0
 70
    32
 71
     5
 42
122.0
  3
Standard
100
AcDbAlignedDimension
 13
713.024060509556
 23
490.8536314391131
 33
0.0
 14
715.011819444883
 24
368.8536314391131
 34
0.0
 50
90.0
100
AcDbRotatedDimension
  0
LINE
  5
4E1
330
20
100
AcDbEntity
  8
MITTEL
100
AcDbLine
 10
195.3782847227514
 20
287.2547707113952
 30
0.0
 11
445.1782847227518
 21
287.2547707113952
 31
0.0
  0
DIMENSION
  5
4E5
330
20
100
AcDbEntity
  8
BEM
100
AcDbDimension
  2
*D3
 10
178.3547502956432
 20
205.3151799055613
 30
0.0
 11
320.5182309278626
 21
231.566547811285
 31
0.0
 70
   130
 71
     5
 42
-1.0
100
AcDb2LineAngularDimension
 13
320.2782847227514
 23
287.2547707113952
 33
0.0
 14
462.2018191498596
 24
205.3151799055612
 34
0.0
 15
320.2782847227514
 25
287.2547707113952
 35
0.0
 16
352.1977953601908
 26
232.6210096328007
 36
0.0
  0
LINE
  5
4E6
330
20
100
AcDbEntity
  8
MITTEL
100
AcDbLine
 10
320.2782847227516
 20
221.8461883211186
 30
0.0
 11
320.2782847227516
 21
133.3547707113952
 31
0.0
  0
POINT
  5
4EE
330
20
100
AcDbEntity
  8
BEM
100
AcDbPoint
 10
423.4268284022667
 20
216.1549258677166
 30
0.0
  0
POINT
  5
4EF
330
20
100
AcDbEntity
  8
BEM
100
AcDbPoint
 10
452.8716921309376
 20
199.1549258677167
 30
0.0
  0
POINT
  5
4F6
330
20
100
AcDbEntity
  8
BEM
100
AcDbPoint
 10
433.0511840552487
 20
204.8247988487945
 30
0.0
  0
POINT
  5
4F7
330
20
100
AcDbEntity
  8
BEM
100
AcDbPoint
 10
452.8716921309376
 20
199.1549258677167
 30
0.0
  0
LINE
  5
502
330
20
100
AcDbEntity
  8
STEMPEL
100
AcDbLine
 10
717.8582496203996
 20
487.1305870532983
 30
0.0
 11
730.8748039335807
 21
437.8536314391131
 31
0.0
  0
LINE
  5
505
330
20
100
AcDbEntity
  8
STEMPEL
100
AcDbLine
 10
719.8499058068672
 20
372.5915219533781
 30
0.0
 11
730.8748039335807
 21
414.8536314391131
 31
0.0
  0
LINE
  5
506
102
{ACAD_REACTORS
330
5D5
102
}
330
20
100
AcDbEntity
  8
MITTEL
100
AcDbLine
 10
581.9748039335803
 20
363.853631439113
 30
0.0
 11
581.9748039335808
 21
495.8536314391132
 31
0.0
  0
ARC
  5
507
330
20
100
AcDbEntity
  8
SCHRAFF
100
AcDbCircle
 10
702.8983729107221
 20
480.6828961341268
 30
0.0
 40
1.915360502180973
100
AcDbArc
 50
218.4508030898934
 51
321.5491969101076
  0
ARC
  5
508
330
20
100
AcDbEntity
  8
SCHRAFF
100
AcDbCircle
 10
702.8983729107221
 20
475.6828961341268
 30
0.0
 40
1.915360502180973
100
AcDbArc
 50
218.4508030898934
 51
321.5491969101076
  0
ARC
  5
509
330
20
100
AcDbEntity
  8
SCHRAFF
100
AcDbCircle
 10
702.8983729107221
 20
485.6828961341268
 30
0.0
 40
1.915360502180973
100
AcDbArc
 50
218.4508030898934
 51
321.5491969101076
  0
ARC
  5
50A
330
20
100
AcDbEntity
  8
SCHRAFF
100
AcDbCircle
 10
702.8983729107221
 20
490.6828961341267
 30
0.0
 40
1.915360502180973
100
AcDbArc
 50
218.4508030898934
 51
321.5491969101076
  0
ARC
  5
50B
330
20
100
AcDbEntity
  8
SCHRAFF
100
AcDbCircle
 10
704.6988150609645
 20
378.6828961341269
 30
0.0
 40
1.915360502180973
100
AcDbArc
 50
218.4508030898934
 51
321.5491969101076
  0
ARC
  5
50C
330
20
100
AcDbEntity
  8
SCHRAFF
100
AcDbCircle
 10
704.6988150609645
 20
373.6828961341268
 30
0.0
 40
1.915360502180973
100
AcDbArc
 50
218.4508030898934
 51
321.5491969101076
  0
ARC
  5
50D
330
20
100
AcDbEntity
  8
SCHRAFF
100
AcDbCircle
 10
704.6988150609645
 20
388.6828961341269
 30
0.0
 40
1.915360502180973
100
AcDbArc
 50
218.4508030898934
 51
321.5491969101076
  0
ARC
  5
50E
330
20
100
AcDbEntity
  8
SCHRAFF
100
AcDbCircle
 10
704.6988150609645
 20
383.6828961341268
 30
0.0
 40
1.915360502180973
100
AcDbArc
 50
218.4508030898934
 51
321.5491969101076
  0
TEXT
  5
511
330
20
100
AcDbEntity
  8
BEM
100
AcDbText
 10
836.5811541437437
 20
12.14804815338303
 30
0.0
 40
4.0
  1
Diese Zeichnung ist urheberrechtlich geschtzt und bleibt unser Eigentum. Sie darf weder ganz noch teilweise vervielfltigt und nicht an Dritte weitergegeben werden.
 50
90.0
 41
0.8
  7
GREEKS
100
AcDbText
  0
TEXT
  5
512
330
20
100
AcDbEntity
  8
TEXT
 62
     1
100
AcDbText
 10
654.6381329290896
 20
148.1220419868566
 30
0.0
 40
7.0
  1
Werkstoff: St37 feuerverzinkt
 41
0.75
  7
GREEKS
100
AcDbText
  0
ARC
  5
53A
102
{ACAD_REACTORS
330
542
102
}
330
20
100
AcDbEntity
  8
SCHRAFF
100
AcDbCircle
 10
322.778284722752
 20
167.3547707113951
 30
0.0
 40
4.0
100
AcDbArc
 50
270.0
 51
2.523371471976977
  0
ARC
  5
53B
102
{ACAD_REACTORS
330
542
102
}
330
20
100
AcDbEntity
  8
SCHRAFF
100
AcDbCircle
 10
317.778284722752
 20
167.3547707113952
 30
0.0
 40
4.0
100
AcDbArc
 50
177.4766285280254
 51
270.0
  0
HATCH
  5
542
330
20
100
AcDbEntity
  8
SCHRAFF
100
AcDbHatch
 10
0.0
 20
0.0
 30
0.0
210
0.0
220
0.0
230
1.0
  2
_USER
 70
     0
 71
     1
 91
        2
 92
        7
 72
     1
 73
     1
 93
        3
 10
326.7744061056318
 20
167.5308783298872
 42
-0.0083386472749491
 10
322.778284722752
 20
167.3808369309439
 42
0.0
 10
322.778284722752
 20
163.3547707113951
 42
0.4271725382440771
 97
        3
330
3B9
330
397
330
53A
 92
        7
 72
     1
 73
     1
 93
        3
 10
317.778284722752
 20
167.3808369309439
 42
-0.0083386472749491
 10
313.7821633398722
 20
167.5308783298872
 42
0.4271725382440645
 10
317.778284722752
 20
163.3547707113952
 42
0.0
 97
        3
330
3B9
330
53B
330
396
 75
     0
 76
     0
 52
0.0
 41
0.1
 77
     0
 78
     1
 53
0.0
 43
0.0
 44
0.0
 45
0.0
 46
0.1
 79
     0
 47
0.0588158862066255
 98
        2
 10
324.1788025357155
 20
165.1129443354325
 10
316.5869937049665
 20
165.9363669669665
  0
DIMENSION
  5
543
102
{ACAD_XDICTIONARY
360
550
102
}
102
{ACAD_REACTORS
330
55A
102
}
330
20
100
AcDbEntity
  8
SCHRAFF
100
AcDbDimension
  2
*D4
 10
630.7656232691583
 20
388.8536314391131
 30
0.0
 11
624.2656232691582
 21
378.8536314391131
 31
0.0
 70
    32
 71
     5
 42
19.99999999999994
  3
Standard
100
AcDbAlignedDimension
 13
649.270801199966
 23
368.8536314391131
 33
0.0
 14
649.2708011999659
 24
388.853631439113
 34
0.0
 50
90.0
100
AcDbRotatedDimension
1001
ACAD
1000
DSTYLE
1002
{
1070
    40
1040
2.0
1070
    41
1040
3.5
1070
    42
1040
1.0
1070
    43
1040
7.0
1070
    44
1040
1.0
1070
    73
1070
     0
1070
    74
1070
     0
1070
    77
1070
     1
1070
    78
1070
     8
1070
    79
1070
     2
1070
   140
1040
3.5
1070
   141
1040
1.5
1070
   146
1040
0.5142857142857144
1070
   147
1040
1.5
1070
   172
1070
     1
1070
   178
1070
     1
1070
   179
1070
     2
1070
   271
1070
     2
1070
   272
1070
     2
1070
   279
1070
     2
1070
   284
1070
     8
1070
   285
1070
     8
1070
   286
1070
     8
1070
   340
1005
7D
1002
}
  0
DIMENSION
  5
566
102
{ACAD_XDICTIONARY
360
573
102
}
102
{ACAD_REACTORS
330
57D
102
}
330
20
100
AcDbEntity
  8
SCHRAFF
100
AcDbDimension
  2
*D5
 10
630.7656232691583
 20
470.8536314391132
 30
0.0
 11
624.2656232691582
 21
429.8536314391132
 31
0.0
 70
    32
 71
     5
 42
82.00000000000011
  3
Standard
100
AcDbAlignedDimension
 13
649.2708011999659
 23
388.853631439113
 33
0.0
 14
647.2708011999658
 24
470.8536314391131
 34
0.0
 50
90.0
100
AcDbRotatedDimension
1001
ACAD
1000
DSTYLE
1002
{
1070
    40
1040
2.0
1070
    41
1040
3.5
1070
    42
1040
1.0
1070
    43
1040
7.0
1070
    44
1040
1.0
1070
    73
1070
     0
1070
    74
1070
     0
1070
    77
1070
     1
1070
    78
1070
     8
1070
    79
1070
     2
1070
   140
1040
3.5
1070
   141
1040
1.5
1070
   146
1040
0.5142857142857144
1070
   147
1040
1.5
1070
   172
1070
     1
1070
   178
1070
     1
1070
   179
1070
     2
1070
   271
1070
     2
1070
   272
1070
     2
1070
   279
1070
     2
1070
   284
1070
     8
1070
   285
1070
     8
1070
   286
1070
     8
1070
   340
1005
7D
1002
}
  0
DIMENSION
  5
57E
102
{ACAD_XDICTIONARY
360
58D
102
}
102
{ACAD_REACTORS
330
599
102
}
330
20
100
AcDbEntity
  8
SCHRAFF
100
AcDbDimension
  2
*D6
 10
630.7656232691583
 20
490.8536314391132
 30
0.0
 11
624.2656232691582
 21
480.8536314391132
 31
0.0
 70
    32
 71
     5
 42
20.0
  3
Standard
100
AcDbAlignedDimension
 13
647.2708011999658
 23
470.8536314391131
 33
0.0
 14
647.2708011999659
 24
490.8536314391131
 34
0.0
 50
90.0
100
AcDbRotatedDimension
1001
ACAD
1000
DSTYLE
1002
{
1070
    40
1040
2.0
1070
    41
1040
3.5
1070
    42
1040
1.0
1070
    43
1040
7.0
1070
    44
1040
1.0
1070
    73
1070
     0
1070
    74
1070
     0
1070
    77
1070
     1
1070
    78
1070
     8
1070
    79
1070
     2
1070
   140
1040
3.5
1070
   141
1040
1.5
1070
   146
1040
0.5142857142857144
1070
   147
1040
1.5
1070
   172
1070
     1
1070
   178
1070
     1
1070
   179
1070
     2
1070
   271
1070
     2
1070
   272
1070
     2
1070
   279
1070
     2
1070
   284
1070
     8
1070
   285
1070
     8
1070
   286
1070
     8
1070
   340
1005
7D
1002
}
  0
DIMENSION
  5
5BE
102
{ACAD_XDICTIONARY
360
5CB
102
}
102
{ACAD_REACTORS
330
5D5
102
}
330
20
100
AcDbEntity
  8
SCHRAFF
100
AcDbDimension
  2
*D8
 10
730.8748039335807
 20
332.8971567414144
 30
0.0
 11
656.4248039335804
 21
339.3971567414144
 31
0.0
 70
    32
  1
149
 71
     5
 42
148.9000000000004
  3
Standard
100
AcDbAlignedDimension
 13
581.9748039335803
 23
363.853631439113
 33
0.0
 14
730.8748039335807
 24
414.8536314391131
 34
0.0
100
AcDbRotatedDimension
1001
ACAD
1000
DSTYLE
1002
{
1070
    40
1040
2.0
1070
    41
1040
3.5
1070
    42
1040
1.0
1070
    43
1040
7.0
1070
    44
1040
1.0
1070
    73
1070
     0
1070
    74
1070
     0
1070
    77
1070
     1
1070
    78
1070
     8
1070
    79
1070
     2
1070
   140
1040
3.5
1070
   141
1040
1.5
1070
   146
1040
0.5142857142857144
1070
   147
1040
1.5
1070
   172
1070
     1
1070
   178
1070
     1
1070
   179
1070
     2
1070
   271
1070
     2
1070
   272
1070
     2
1070
   279
1070
     2
1070
   284
1070
     8
1070
   285
1070
     8
1070
   286
1070
     8
1070
   340
1005
7D
1002
}
  0
ENDSEC
  0
SECTION
  2
OBJECTS
  0
DICTIONARY
  5
C
330
0
100
AcDbDictionary
281
     1
  3
ACAD_COLOR
350
1B
  3
ACAD_GROUP
350
D
  3
ACAD_LAYOUT
350
19
  3
ACAD_MATERIAL
350
1A
  3
ACAD_MLINESTYLE
350
16
  3
ACAD_PLOTSETTINGS
350
18
  3
ACAD_PLOTSTYLENAME
350
E
  3
AcDbVariableDictionary
350
533
  0
DICTIONARY
  5
550
330
543
100
AcDbDictionary
280
     1
281
     1
  3
ACAD_DIMASSOC
360
55A
  0
DICTIONARY
  5
573
330
566
100
AcDbDictionary
280
     1
281
     1
  3
ACAD_DIMASSOC
360
57D
  0
DICTIONARY
  5
58D
330
57E
100
AcDbDictionary
280
     1
281
     1
  3
ACAD_DIMASSOC
360
599
  0
DICTIONARY
  5
5CB
330
5BE
100
AcDbDictionary
280
     1
281
     1
  3
ACAD_DIMASSOC
360
5D5
  0
DICTIONARY
  5
1B
102
{ACAD_REACTORS
330
C
102
}
330
C
100
AcDbDictionary
281
     1
  0
DICTIONARY
  5
D
102
{ACAD_REACTORS
330
C
102
}
330
C
100
AcDbDictionary
281
     1
  0
DICTIONARY
  5
19
102
{ACAD_REACTORS
330
C
102
}
330
C
100
AcDbDictionary
281
     1
  3
Layout1
350
1F
  3
Model
350
23
  0
DICTIONARY
  5
1A
102
{ACAD_REACTORS
330
C
102
}
330
C
100
AcDbDictionary
281
     1
  0
DICTIONARY
  5
16
102
{ACAD_REACTORS
330
C
102
}
330
C
100
AcDbDictionary
281
     1
  3
Standard
350
17
  0
DICTIONARY
  5
18
102
{ACAD_REACTORS
330
C
102
}
330
C
100
AcDbDictionary
281
     1
  0
ACDBDICTIONARYWDFLT
  5
E
102
{ACAD_REACTORS
330
C
102
}
330
C
100
AcDbDictionary
281
     1
  3
Normal
350
F
100
AcDbDictionaryWithDefault
340
F
  0
DICTIONARY
  5
533
102
{ACAD_REACTORS
330
C
102
}
330
C
100
AcDbDictionary
281
     1
  3
DIMASSOC
350
535
  3
HIDETEXT
350
534
  3
PROJECTNAME
350
536
  0
DIMASSOC
  5
55A
102
{ACAD_REACTORS
330
550
102
}
330
550
100
AcDbDimAssoc
330
543
 90
        3
 70
     0
 71
     0
  1
AcDbOsnapPointRef
 72
     6
331
496
 73
     2
 91
        0
 40
0.0000000000000017
 10
0.0
 20
0.0
 30
0.0
332
492
 74
     2
 92
        0
 75
     0
  1
AcDbOsnapPointRef
 72
     6
331
495
 73
     2
 91
        0
 40
0.0
 10
0.0
 20
0.0
 30
0.0
332
492
 74
     2
 92
        0
 75
     0
  0
DIMASSOC
  5
57D
102
{ACAD_REACTORS
330
573
102
}
330
573
100
AcDbDimAssoc
330
566
 90
        3
 70
     0
 71
     0
  1
AcDbOsnapPointRef
 72
     6
331
495
 73
     2
 91
        0
 40
0.0
 10
0.0
 20
0.0
 30
0.0
332
492
 74
     2
 92
        0
 75
     0
  1
AcDbOsnapPointRef
 72
    13
331
497
 73
     2
 91
        0
 40
0.0
 10
0.0
 20
0.0
 30
2.000000000000000E+50
 75
     0
  0
DIMASSOC
  5
599
102
{ACAD_REACTORS
330
58D
102
}
330
58D
100
AcDbDimAssoc
330
57E
 90
        3
 70
     0
 71
     0
  1
AcDbOsnapPointRef
 72
    13
331
497
 73
     2
 91
        0
 40
0.0
 10
0.0
 20
0.0
 30
2.000000000000000E+50
 75
     0
  1
AcDbOsnapPointRef
 72
     1
331
497
 73
     2
 91
        0
 40
1.0
 10
0.0
 20
0.0
 30
2.000000000000000E+50
 75
     0
  0
DIMASSOC
  5
5D5
102
{ACAD_REACTORS
330
5CB
102
}
330
5CB
100
AcDbDimAssoc
330
5BE
 90
        3
 70
     0
 71
     0
  1
AcDbOsnapPointRef
 72
    13
331
506
 73
     2
 91
        0
 40
0.0
 10
0.0
 20
0.0
 30
2.000000000000000E+50
 75
     0
  1
AcDbOsnapPointRef
 72
    13
331
4D4
 73
     2
 91
        0
 40
0.0
 10
0.0
 20
0.0
 30
2.000000000000000E+50
 75
     0
  0
LAYOUT
  5
1F
102
{ACAD_REACTORS
330
19
102
}
330
19
100
AcDbPlotSettings
  1

  2
RICOH Aficio 2027 PCL 6
  4

  6

 40
0.0
 41
0.0
 42
0.0
 43
0.0
 44
0.0
 45
0.0
 46
0.0
 47
0.0
 48
0.0
 49
0.0
140
0.0
141
0.0
142
1.0
143
1.0
 70
   688
 72
     0
 73
     0
 74
     5
  7
monochrome1.ctb
 75
    16
147
1.0
 76
     0
 77
     2
 78
   300
148
0.0
149
0.0
100
AcDbLayout
  1
Layout1
 70
     0
 71
     1
 10
0.0
 20
0.0
 11
12.0
 21
9.0
 12
0.0
 22
0.0
 32
0.0
 14
1.000000000000000E+20
 24
1.000000000000000E+20
 34
1.000000000000000E+20
 15
-1.000000000000000E+20
 25
-1.000000000000000E+20
 35
-1.000000000000000E+20
146
0.0
 13
0.0
 23
0.0
 33
0.0
 16
1.0
 26
0.0
 36
0.0
 17
0.0
 27
1.0
 37
0.0
 76
     0
330
1C
  0
LAYOUT
  5
23
102
{ACAD_REACTORS
330
19
102
}
330
19
100
AcDbPlotSettings
  1

  2
RICOH Aficio 2027 PCL 6
  4
A4
  6

 40
5.027083396911621
 41
5.027085304260253
 42
5.027084350585937
 43
5.027069091796875
 44
209.9733276367187
 45
296.9259948730469
 46
0.0
 47
0.0
 48
0.0
 49
0.0
140
0.0
141
0.0
142
1.0
143
1.0
 70
 11952
 72
     0
 73
     1
 74
     0
  7
monochrome1.ctb
 75
     0
147
1.0
 76
     0
 77
     2
 78
   300
148
-3034.104835195027
149
90.09517935315834
100
AcDbLayout
  1
Model
 70
     1
 71
     0
 10
0.0
 20
0.0
 11
12.0
 21
9.0
 12
0.0
 22
0.0
 32
0.0
 14
0.0
 24
0.0
 34
0.0
 15
0.0
 25
0.0
 35
0.0
146
0.0
 13
0.0
 23
0.0
 33
0.0
 16
1.0
 26
0.0
 36
0.0
 17
0.0
 27
1.0
 37
0.0
 76
     0
330
20
  0
MLINESTYLE
  5
17
102
{ACAD_REACTORS
330
16
102
}
330
16
100
AcDbMlineStyle
  2
STANDARD
 70
     0
  3

 62
   256
 51
90.0
 52
90.0
 71
     2
 49
0.5
 62
   256
  6
BYLAYER
 49
-0.5
 62
   256
  6
BYLAYER
  0
ACDBPLACEHOLDER
  5
F
102
{ACAD_REACTORS
330
E
102
}
330
E
  0
DICTIONARYVAR
  5
535
102
{ACAD_REACTORS
330
533
102
}
330
533
100
DictionaryVariables
280
     0
  1
2
  0
DICTIONARYVAR
  5
534
102
{ACAD_REACTORS
330
533
102
}
330
533
100
DictionaryVariables
280
     0
  1
1
  0
DICTIONARYVAR
  5
536
102
{ACAD_REACTORS
330
533
102
}
330
533
100
DictionaryVariables
280
     0
  1

  0
ENDSEC
  0
EOF
