  0
SECTION
  2
HEADER
  9
$ACADVER
  1
AC1018
  9
$ACADMAINTVER
 70
     2
  9
$DWGCODEPAGE
  3
ANSI_1252
  9
$INSBASE
 10
0.0
 20
0.0
 30
0.0
  9
$EXTMIN
 10
-0.0031989180865821
 20
-0.0076614589351038
 30
-0.0000000000000053
  9
$EXTMAX
 10
210.0032064972539
 20
297.0118678280868
 30
0.0000000000000099
  9
$LIMMIN
 10
0.0
 20
0.0
  9
$LIMMAX
 10
210.0
 20
297.0
  9
$ORTHOMODE
 70
     0
  9
$REGENMODE
 70
     1
  9
$FILLMODE
 70
     1
  9
$QTEXTMODE
 70
     0
  9
$MIRRTEXT
 70
     1
  9
$LTSCALE
 40
10.0
  9
$ATTMODE
 70
     1
  9
$TEXTSIZE
 40
3.5
  9
$TRACEWID
 40
0.5
  9
$TEXTSTYLE
  7
STANDARD
  9
$CLAYER
  8
BEM
  9
$CELTYPE
  6
BYLAYER
  9
$CECOLOR
 62
   256
  9
$CELTSCALE
 40
1.0
  9
$DISPSILH
 70
     0
  9
$DIMSCALE
 40
1.0
  9
$DIMASZ
 40
3.5
  9
$DIMEXO
 40
1.0
  9
$DIMDLI
 40
8.0
  9
$DIMRND
 40
0.0
  9
$DIMDLE
 40
0.0
  9
$DIMEXE
 40
1.5
  9
$DIMTP
 40
2.0
  9
$DIMTM
 40
2.0
  9
$DIMTXT
 40
3.5
  9
$DIMCEN
 40
1.5
  9
$DIMTSZ
 40
0.0
  9
$DIMTOL
 70
     0
  9
$DIMLIM
 70
     0
  9
$DIMTIH
 70
     0
  9
$DIMTOH
 70
     0
  9
$DIMSE1
 70
     0
  9
$DIMSE2
 70
     0
  9
$DIMTAD
 70
     1
  9
$DIMZIN
 70
     8
  9
$DIMBLK
  1

  9
$DIMASO
 70
     1
  9
$DIMSHO
 70
     0
  9
$DIMPOST
  1

  9
$DIMAPOST
  1

  9
$DIMALT
 70
     0
  9
$DIMALTD
 70
     2
  9
$DIMALTF
 40
25.4
  9
$DIMLFAC
 40
1.0
  9
$DIMTOFL
 70
     1
  9
$DIMTVP
 40
0.0
  9
$DIMTIX
 70
     0
  9
$DIMSOXD
 70
     0
  9
$DIMSAH
 70
     0
  9
$DIMBLK1
  1

  9
$DIMBLK2
  1

  9
$DIMSTYLE
  2
STANDARD
  9
$DIMCLRD
 70
     0
  9
$DIMCLRE
 70
     0
  9
$DIMCLRT
 70
     1
  9
$DIMTFAC
 40
1.0
  9
$DIMGAP
 40
1.0
  9
$DIMJUST
 70
     0
  9
$DIMSD1
 70
     0
  9
$DIMSD2
 70
     0
  9
$DIMTOLJ
 70
     1
  9
$DIMTZIN
 70
     8
  9
$DIMALTZ
 70
     8
  9
$DIMALTTZ
 70
     8
  9
$DIMUPT
 70
     0
  9
$DIMDEC
 70
     2
  9
$DIMTDEC
 70
     2
  9
$DIMALTU
 70
     2
  9
$DIMALTTD
 70
     2
  9
$DIMTXSTY
  7
STANDARD
  9
$DIMAUNIT
 70
     0
  9
$DIMADEC
 70
     0
  9
$DIMALTRND
 40
0.0
  9
$DIMAZIN
 70
     0
  9
$DIMDSEP
 70
    46
  9
$DIMATFIT
 70
     3
  9
$DIMFRAC
 70
     0
  9
$DIMLDRBLK
  1

  9
$DIMLUNIT
 70
     2
  9
$DIMLWD
 70
    -2
  9
$DIMLWE
 70
    -2
  9
$DIMTMOVE
 70
     0
  9
$LUNITS
 70
     2
  9
$LUPREC
 70
     2
  9
$SKETCHINC
 40
1.0
  9
$FILLETRAD
 40
2.0
  9
$AUNITS
 70
     0
  9
$AUPREC
 70
     0
  9
$MENU
  1
ACAD
  9
$ELEVATION
 40
0.0
  9
$PELEVATION
 40
0.0
  9
$THICKNESS
 40
0.0
  9
$LIMCHECK
 70
     0
  9
$CHAMFERA
 40
0.0
  9
$CHAMFERB
 40
0.0
  9
$CHAMFERC
 40
0.0
  9
$CHAMFERD
 40
0.0
  9
$SKPOLY
 70
     0
  9
$TDCREATE
 40
2455397.864709028
  9
$TDUCREATE
 40
2455397.781375695
  9
$TDUPDATE
 40
2455653.428178611
  9
$TDUUPDATE
 40
2455653.344845278
  9
$TDINDWG
 40
0.2117616667
  9
$TDUSRTIMER
 40
0.2117616667
  9
$USRTIMER
 70
     1
  9
$ANGBASE
 50
0.0
  9
$ANGDIR
 70
     0
  9
$PDMODE
 70
     0
  9
$PDSIZE
 40
0.0
  9
$PLINEWID
 40
0.0
  9
$SPLFRAME
 70
     0
  9
$SPLINETYPE
 70
     6
  9
$SPLINESEGS
 70
     8
  9
$HANDSEED
  5
1151
  9
$SURFTAB1
 70
     6
  9
$SURFTAB2
 70
     6
  9
$SURFTYPE
 70
     6
  9
$SURFU
 70
     6
  9
$SURFV
 70
     6
  9
$UCSBASE
  2

  9
$UCSNAME
  2

  9
$UCSORG
 10
0.0
 20
0.0
 30
0.0
  9
$UCSXDIR
 10
1.0
 20
0.0
 30
0.0
  9
$UCSYDIR
 10
0.0
 20
1.0
 30
0.0
  9
$UCSORTHOREF
  2

  9
$UCSORTHOVIEW
 70
     0
  9
$UCSORGTOP
 10
0.0
 20
0.0
 30
0.0
  9
$UCSORGBOTTOM
 10
0.0
 20
0.0
 30
0.0
  9
$UCSORGLEFT
 10
0.0
 20
0.0
 30
0.0
  9
$UCSORGRIGHT
 10
0.0
 20
0.0
 30
0.0
  9
$UCSORGFRONT
 10
0.0
 20
0.0
 30
0.0
  9
$UCSORGBACK
 10
0.0
 20
0.0
 30
0.0
  9
$PUCSBASE
  2

  9
$PUCSNAME
  2

  9
$PUCSORG
 10
0.0
 20
0.0
 30
0.0
  9
$PUCSXDIR
 10
1.0
 20
0.0
 30
0.0
  9
$PUCSYDIR
 10
0.0
 20
1.0
 30
0.0
  9
$PUCSORTHOREF
  2

  9
$PUCSORTHOVIEW
 70
     0
  9
$PUCSORGTOP
 10
0.0
 20
0.0
 30
0.0
  9
$PUCSORGBOTTOM
 10
0.0
 20
0.0
 30
0.0
  9
$PUCSORGLEFT
 10
0.0
 20
0.0
 30
0.0
  9
$PUCSORGRIGHT
 10
0.0
 20
0.0
 30
0.0
  9
$PUCSORGFRONT
 10
0.0
 20
0.0
 30
0.0
  9
$PUCSORGBACK
 10
0.0
 20
0.0
 30
0.0
  9
$USERI1
 70
     0
  9
$USERI2
 70
     0
  9
$USERI3
 70
     0
  9
$USERI4
 70
     0
  9
$USERI5
 70
     0
  9
$USERR1
 40
0.0
  9
$USERR2
 40
0.0
  9
$USERR3
 40
0.0
  9
$USERR4
 40
0.0
  9
$USERR5
 40
0.0
  9
$WORLDVIEW
 70
     1
  9
$SHADEDGE
 70
     3
  9
$SHADEDIF
 70
    70
  9
$TILEMODE
 70
     1
  9
$MAXACTVP
 70
    16
  9
$PINSBASE
 10
0.0
 20
0.0
 30
0.0
  9
$PLIMCHECK
 70
     0
  9
$PEXTMIN
 10
1.000000000000000E+20
 20
1.000000000000000E+20
 30
1.000000000000000E+20
  9
$PEXTMAX
 10
-1.000000000000000E+20
 20
-1.000000000000000E+20
 30
-1.000000000000000E+20
  9
$PLIMMIN
 10
0.0
 20
0.0
  9
$PLIMMAX
 10
12.0
 20
9.0
  9
$UNITMODE
 70
     0
  9
$VISRETAIN
 70
     0
  9
$PLINEGEN
 70
     0
  9
$PSLTSCALE
 70
     0
  9
$TREEDEPTH
 70
  3020
  9
$CMLSTYLE
  2
STANDARD
  9
$CMLJUST
 70
     0
  9
$CMLSCALE
 40
1.0
  9
$PROXYGRAPHICS
 70
     1
  9
$MEASUREMENT
 70
     0
  9
$CELWEIGHT
370
    -1
  9
$ENDCAPS
280
     0
  9
$JOINSTYLE
280
     0
  9
$LWDISPLAY
290
     0
  9
$INSUNITS
 70
     0
  9
$HYPERLINKBASE
  1

  9
$STYLESHEET
  1
monochrome 1.ctb
  9
$XEDIT
290
     1
  9
$CEPSNTYPE
380
     0
  9
$PSTYLEMODE
290
     1
  9
$FINGERPRINTGUID
  2
{A24037B6-A1E1-4B12-869E-16428E1CCB11}
  9
$VERSIONGUID
  2
{7D1ACA24-A327-435D-99F9-78D53007C398}
  9
$EXTNAMES
290
     1
  9
$PSVPSCALE
 40
0.0
  9
$OLESTARTUP
290
     0
  9
$SORTENTS
280
   127
  9
$INDEXCTL
280
     0
  9
$HIDETEXT
280
     0
  9
$XCLIPFRAME
290
     0
  9
$HALOGAP
280
     0
  9
$OBSCOLOR
 70
   257
  9
$OBSLTYPE
280
     0
  9
$INTERSECTIONDISPLAY
280
     0
  9
$INTERSECTIONCOLOR
 70
   257
  9
$DIMASSOC
280
     1
  9
$PROJECTNAME
  1

  0
ENDSEC
  0
SECTION
  2
CLASSES
  0
CLASS
  1
DICTIONARYVAR
  2
AcDbDictionaryVar
  3
ObjectDBX Classes
 90
        0
 91
        3
280
     0
281
     0
  0
CLASS
  1
ACDBDICTIONARYWDFLT
  2
AcDbDictionaryWithDefault
  3
ObjectDBX Classes
 90
        0
 91
        1
280
     0
281
     0
  0
ENDSEC
  0
SECTION
  2
TABLES
  0
TABLE
  2
VPORT
  5
8
330
0
100
AcDbSymbolTable
 70
     3
  0
VPORT
  5
1150
330
8
100
AcDbSymbolTableRecord
100
AcDbViewportTableRecord
  2
*Active
 70
     0
 10
0.0
 20
0.0
 11
1.0
 21
1.0
 12
105.0
 22
148.5
 13
0.0
 23
0.0
 14
1.0
 24
1.0
 15
10.0
 25
10.0
 16
0.0
 26
0.0
 36
1.0
 17
0.0
 27
0.0
 37
0.0
 40
297.0
 41
1.334231805929919
 42
50.0
 43
0.0
 44
0.0
 50
0.0
 51
0.0
 71
     0
 72
  1500
 73
     1
 74
     0
 75
     0
 76
     0
 77
     0
 78
     0
281
     0
 65
     1
110
0.0
120
0.0
130
0.0
111
1.0
121
0.0
131
0.0
112
0.0
122
1.0
132
0.0
 79
     0
146
0.0
  0
ENDTAB
  0
TABLE
  2
LTYPE
  5
5
330
0
100
AcDbSymbolTable
 70
     3
  0
LTYPE
  5
11
330
5
100
AcDbSymbolTableRecord
100
AcDbLinetypeTableRecord
  2
BYBLOCK
 70
     0
  3

 72
    65
 73
     0
 40
0.0
  0
LTYPE
  5
12
330
5
100
AcDbSymbolTableRecord
100
AcDbLinetypeTableRecord
  2
BYLAYER
 70
     0
  3

 72
    65
 73
     0
 40
0.0
  0
LTYPE
  5
13
330
5
100
AcDbSymbolTableRecord
100
AcDbLinetypeTableRecord
  2
AUSGEZOGEN
 70
     0
  3
Ausgezogene Linie
 72
    65
 73
     0
 40
0.0
  0
LTYPE
  5
1F
330
5
100
AcDbSymbolTableRecord
100
AcDbLinetypeTableRecord
  2
STRICHPUNKT
 70
     0
  3
__ . __ . __ . __ . __ . __ . __ . __ . __ . __
 72
    65
 73
     4
 40
1.0
 49
0.5
 74
     0
 49
-0.25
 74
     0
 49
0.0
 74
     0
 49
-0.25
 74
     0
  0
LTYPE
  5
2D
330
5
100
AcDbSymbolTableRecord
100
AcDbLinetypeTableRecord
  2
CONTINUOUS
 70
     0
  3
Solid line
 72
    65
 73
     0
 40
0.0
  0
ENDTAB
  0
TABLE
  2
LAYER
  5
2
330
0
100
AcDbSymbolTable
 70
    10
  0
LAYER
  5
E
330
2
100
AcDbSymbolTableRecord
100
AcDbLayerTableRecord
  2
0
 70
     0
 62
     7
  6
AUSGEZOGEN
370
    -3
390
B6C
1001
RAK
1000
{LAYER_STATE1
1070
     0
1070
     7
1000
AUSGEZOGEN
1000
LAYER_STATE1}
  0
LAYER
  5
24
330
2
100
AcDbSymbolTableRecord
100
AcDbLayerTableRecord
  2
VOLL
 70
     0
 62
     1
  6
AUSGEZOGEN
370
    -3
390
B6C
1001
RAK
1000
{LAYER_STATE1
1070
     0
1070
     1
1000
AUSGEZOGEN
1000
LAYER_STATE1}
  0
LAYER
  5
25
330
2
100
AcDbSymbolTableRecord
100
AcDbLayerTableRecord
  2
HILF
 70
     0
 62
     2
  6
AUSGEZOGEN
370
    -3
390
B6C
1001
RAK
1000
{LAYER_STATE1
1070
     0
1070
     2
1000
AUSGEZOGEN
1000
LAYER_STATE1}
  0
LAYER
  5
29
330
2
100
AcDbSymbolTableRecord
100
AcDbLayerTableRecord
  2
BEM
 70
     0
 62
     7
  6
AUSGEZOGEN
370
    -3
390
B6C
1001
RAK
1000
{LAYER_STATE1
1070
     0
1070
     7
1000
AUSGEZOGEN
1000
LAYER_STATE1}
  0
LAYER
  5
2A
330
2
100
AcDbSymbolTableRecord
100
AcDbLayerTableRecord
  2
STEMPEL
 70
     0
 62
     3
  6
AUSGEZOGEN
370
    -3
390
B6C
1001
RAK
1000
{LAYER_STATE1
1070
     0
1070
     3
1000
AUSGEZOGEN
1070
     1
1000
LAYER_STATE1}
  0
LAYER
  5
A0
330
2
100
AcDbSymbolTableRecord
100
AcDbLayerTableRecord
  2
TEXT
 70
     0
 62
     7
  6
AUSGEZOGEN
370
    -3
390
B6C
1001
RAK
1000
{LAYER_STATE1
1070
     0
1070
     7
1000
AUSGEZOGEN
1000
LAYER_STATE1}
  0
LAYER
  5
A1
330
2
100
AcDbSymbolTableRecord
100
AcDbLayerTableRecord
  2
TEXT35
 70
     0
 62
     1
  6
AUSGEZOGEN
370
    -3
390
B6C
1001
RAK
1000
{LAYER_STATE1
1070
     0
1070
     1
1000
AUSGEZOGEN
1000
LAYER_STATE1}
  0
LAYER
  5
BA4
330
2
100
AcDbSymbolTableRecord
100
AcDbLayerTableRecord
  2
MITTEL
 70
     0
 62
     2
  6
STRICHPUNKT
370
    -3
390
B6C
  0
LAYER
  5
BDF
330
2
100
AcDbSymbolTableRecord
100
AcDbLayerTableRecord
  2
Defpoints
 70
     0
 62
     7
  6
AUSGEZOGEN
290
     0
370
    -3
390
B6C
  0
LAYER
  5
CED
330
2
100
AcDbSymbolTableRecord
100
AcDbLayerTableRecord
  2
SCHRAFF
 70
     0
 62
     7
  6
AUSGEZOGEN
370
    -3
390
B6C
  0
ENDTAB
  0
TABLE
  2
STYLE
  5
3
330
0
100
AcDbSymbolTable
 70
     2
  0
STYLE
  5
F
330
3
100
AcDbSymbolTableRecord
100
AcDbTextStyleTableRecord
  2
STANDARD
 70
     0
 40
0.0
 41
0.8
 50
0.0
 71
     0
 42
3.5
  3
SIMPLEX.shx
  4

  0
STYLE
  5
1E
330
3
100
AcDbSymbolTableRecord
100
AcDbTextStyleTableRecord
  2
GREEKS
 70
     0
 40
0.0
 41
0.8
 50
0.0
 71
     0
 42
2.5
  3
SIMPLEX.shx
  4

  0
ENDTAB
  0
TABLE
  2
VIEW
  5
6
330
0
100
AcDbSymbolTable
 70
     0
  0
ENDTAB
  0
TABLE
  2
UCS
  5
7
330
0
100
AcDbSymbolTable
 70
     0
  0
ENDTAB
  0
TABLE
  2
APPID
  5
9
330
0
100
AcDbSymbolTable
 70
     2
  0
APPID
  5
10
330
9
100
AcDbSymbolTableRecord
100
AcDbRegAppTableRecord
  2
ACAD
 70
     0
  0
APPID
  5
9F
330
9
100
AcDbSymbolTableRecord
100
AcDbRegAppTableRecord
  2
RAK
 70
     0
  0
ENDTAB
  0
TABLE
  2
DIMSTYLE
  5
A
330
0
100
AcDbSymbolTable
 70
     1
100
AcDbDimStyleTable
 71
     1
340
9C
  0
DIMSTYLE
105
9C
102
{ACAD_REACTORS
330
E25
330
E18
330
DD0
330
D69
102
}
330
A
100
AcDbSymbolTableRecord
100
AcDbDimStyleTableRecord
  2
STANDARD
 70
     0
 41
3.5
 42
1.0
 43
8.0
 44
1.5
 73
     0
 74
     0
 77
     1
 78
     8
140
3.5
141
1.5
147
1.0
172
     1
178
     1
271
     2
272
     2
279
     2
284
     8
285
     8
286
     8
340
F
  0
ENDTAB
  0
TABLE
  2
BLOCK_RECORD
  5
1
330
0
100
AcDbSymbolTable
 70
    10
  0
BLOCK_RECORD
  5
17
330
1
100
AcDbSymbolTableRecord
100
AcDbBlockTableRecord
  2
*MODEL_SPACE
340
B71
  0
BLOCK_RECORD
  5
14
330
1
100
AcDbSymbolTableRecord
100
AcDbBlockTableRecord
  2
*PAPER_SPACE
340
B72
  0
BLOCK_RECORD
  5
1C
330
1
100
AcDbSymbolTableRecord
100
AcDbBlockTableRecord
  2
LOGO
340
0
102
{BLKREFS
331
90
102
}
  0
BLOCK_RECORD
  5
D6A
330
1
100
AcDbSymbolTableRecord
100
AcDbBlockTableRecord
  2
*D2
340
0
  0
BLOCK_RECORD
  5
DD1
330
1
100
AcDbSymbolTableRecord
100
AcDbBlockTableRecord
  2
*D4
340
0
  0
BLOCK_RECORD
  5
E19
330
1
100
AcDbSymbolTableRecord
100
AcDbBlockTableRecord
  2
*D6
340
0
  0
BLOCK_RECORD
  5
E26
330
1
100
AcDbSymbolTableRecord
100
AcDbBlockTableRecord
  2
*D7
340
0
  0
ENDTAB
  0
ENDSEC
  0
SECTION
  2
BLOCKS
  0
BLOCK
  5
30
330
17
100
AcDbEntity
  8
0
100
AcDbBlockBegin
  2
*MODEL_SPACE
 70
     0
 10
0.0
 20
0.0
 30
0.0
  3
*MODEL_SPACE
  1

  0
ENDBLK
  5
31
330
17
100
AcDbEntity
  8
0
100
AcDbBlockEnd
  0
BLOCK
  5
2E
330
14
100
AcDbEntity
 67
     1
  8
0
100
AcDbBlockBegin
  2
*PAPER_SPACE
 70
     0
 10
0.0
 20
0.0
 30
0.0
  3
*PAPER_SPACE
  1

  0
ENDBLK
  5
2F
330
14
100
AcDbEntity
 67
     1
  8
0
100
AcDbBlockEnd
  0
BLOCK
  5
34
330
1C
100
AcDbEntity
  8
0
100
AcDbBlockBegin
  2
LOGO
 70
     0
 10
0.0
 20
0.0
 30
0.0
  3
LOGO
  1

  0
ARC
  5
35
330
1C
100
AcDbEntity
  8
0
100
AcDbCircle
 10
11.59973089678112
 20
-9.271599258481501
 30
0.0
 40
4.5
100
AcDbArc
 50
270.0
 51
231.0575587310159
  0
LINE
  5
36
330
1C
100
AcDbEntity
  8
0
100
AcDbLine
 10
3.599730896781125
 20
-4.771599258481529
 30
0.0
 11
3.599730896781153
 21
-11.77159925848133
 31
0.0
  0
LINE
  5
37
330
1C
100
AcDbEntity
  8
0
100
AcDbLine
 10
2.599730896781125
 20
-4.771599258481529
 30
0.0
 11
2.599730896781153
 21
-11.77159925848133
 31
0.0
  0
CIRCLE
  5
38
330
1C
100
AcDbEntity
  8
0
100
AcDbCircle
 10
11.59973089678112
 20
-9.271599258481501
 30
0.0
 40
3.5
  0
ARC
  5
39
330
1C
100
AcDbEntity
  8
0
100
AcDbCircle
 10
31.59973089678115
 20
-9.271599258481472
 30
0.0
 40
4.5
100
AcDbArc
 50
270.0
 51
231.0575587310182
  0
LINE
  5
3A
330
1C
100
AcDbEntity
  8
0
100
AcDbLine
 10
17.59973089678112
 20
-4.771599258481472
 30
0.0
 11
17.59973089678115
 21
-13.77159925848147
 31
0.0
  0
ARC
  5
3B
330
1C
100
AcDbEntity
  8
0
100
AcDbCircle
 10
22.59973089678116
 20
-7.271599258481472
 30
0.0
 40
2.5
100
AcDbArc
 50
293.1161887722295
 51
90.0
  0
CIRCLE
  5
3C
330
1C
100
AcDbEntity
  8
0
100
AcDbCircle
 10
31.59973089678115
 20
-9.271599258481472
 30
0.0
 40
3.5
  0
ARC
  5
3D
330
1C
100
AcDbEntity
  8
0
100
AcDbCircle
 10
4.599730896781153
 20
-11.77159925848133
 30
0.0
 40
1.0
100
AcDbArc
 50
180.0
 51
270.0
  0
ARC
  5
3E
330
1C
100
AcDbEntity
  8
0
100
AcDbCircle
 10
4.599730896781153
 20
-11.77159925848133
 30
0.0
 40
2.0
100
AcDbArc
 50
179.9999999999992
 51
270.0
  0
LINE
  5
3F
330
1C
100
AcDbEntity
  8
0
100
AcDbLine
 10
11.59973089678115
 20
-13.77159925848144
 30
0.0
 11
4.599730896781153
 21
-13.77159925848147
 31
0.0
  0
LINE
  5
40
330
1C
100
AcDbEntity
  8
0
100
AcDbLine
 10
8.771303772034769
 20
-12.77159925848136
 30
0.0
 11
4.599730896781153
 21
-12.77159925848133
 31
0.0
  0
LINE
  5
41
330
1C
100
AcDbEntity
  8
0
100
AcDbLine
 10
31.59973089678115
 20
-13.77159925848147
 30
0.0
 11
23.6715276665056
 21
-13.77159925848144
 31
0.0
  0
LINE
  5
42
330
1C
100
AcDbEntity
  8
0
100
AcDbLine
 10
23.56565672307022
 20
-9.51278021337896
 30
0.0
 11
24.4388546544846
 21
-12.77159925848144
 31
0.0
  0
LINE
  5
43
330
1C
100
AcDbEntity
  8
0
100
AcDbLine
 10
22.59973089678116
 20
-9.771599258481472
 30
0.0
 11
18.59973089678112
 21
-9.771599258481472
 31
0.0
  0
LINE
  5
44
330
1C
100
AcDbEntity
  8
0
100
AcDbLine
 10
18.59973089678115
 20
-13.77159925848144
 30
0.0
 11
17.59973089678115
 21
-13.77159925848144
 31
0.0
  0
LINE
  5
45
330
1C
100
AcDbEntity
  8
0
100
AcDbLine
 10
18.59973089678115
 20
-9.771599258481472
 30
0.0
 11
18.59973089678115
 21
-13.77159925848144
 31
0.0
  0
LINE
  5
46
330
1C
100
AcDbEntity
  8
0
100
AcDbLine
 10
22.59973089678116
 20
-9.771599258481472
 30
0.0
 11
23.67152766650562
 21
-13.77159925848147
 31
0.0
  0
ARC
  5
47
330
1C
100
AcDbEntity
  8
0
100
AcDbCircle
 10
22.59973089678116
 20
-7.271599258481472
 30
0.0
 40
2.5
100
AcDbArc
 50
270.0
 51
270.0000000000007
  0
LINE
  5
48
330
1C
100
AcDbEntity
  8
0
100
AcDbLine
 10
28.77130377203494
 20
-12.77159925848147
 30
0.0
 11
24.43885465448463
 21
-12.77159925848144
 31
0.0
  0
LINE
  5
49
330
1C
100
AcDbEntity
  8
0
100
AcDbLine
 10
3.599730896781125
 20
-4.771599258481472
 30
0.0
 11
2.599730896781125
 21
-4.771599258481472
 31
0.0
  0
LINE
  5
4A
330
1C
100
AcDbEntity
  8
0
100
AcDbLine
 10
22.59973089678116
 20
-8.771599258481472
 30
0.0
 11
18.59973089678115
 21
-8.771599258481472
 31
0.0
  0
LINE
  5
4B
330
1C
100
AcDbEntity
  8
0
100
AcDbLine
 10
22.59973089678116
 20
-5.771599258481472
 30
0.0
 11
18.59973089678115
 21
-5.771599258481472
 31
0.0
  0
LINE
  5
4C
330
1C
100
AcDbEntity
  8
0
100
AcDbLine
 10
22.59973089678116
 20
-4.771599258481472
 30
0.0
 11
17.59973089678115
 21
-4.771599258481472
 31
0.0
  0
LINE
  5
4D
330
1C
100
AcDbEntity
  8
0
100
AcDbLine
 10
18.59973089678115
 20
-5.771599258481472
 30
0.0
 11
18.59973089678115
 21
-8.771599258481472
 31
0.0
  0
ARC
  5
4E
330
1C
100
AcDbEntity
  8
0
100
AcDbCircle
 10
22.59973089678116
 20
-7.271599258481472
 30
0.0
 40
1.5
100
AcDbArc
 50
270.0
 51
90.0
  0
ENDBLK
  5
4F
330
1C
100
AcDbEntity
  8
0
100
AcDbBlockEnd
  0
BLOCK
  5
D74
330
D6A
100
AcDbEntity
  8
0
100
AcDbBlockBegin
  2
*D2
 70
     1
 10
0.0
 20
0.0
 30
0.0
  3
*D2
  1

  0
LINE
  5
113C
330
D6A
100
AcDbEntity
  8
BEM
 62
     0
370
    -2
100
AcDbLine
 10
85.99925197703749
 20
109.0172703439737
 30
0.0
 11
85.99925197703749
 21
91.75279525163182
 31
0.0
  0
LINE
  5
113D
330
D6A
100
AcDbEntity
  8
BEM
 62
     0
370
    -2
100
AcDbLine
 10
138.9999999999999
 20
109.0172703439737
 30
0.0
 11
138.9999999999999
 21
91.75279525163182
 31
0.0
  0
LINE
  5
113E
330
D6A
100
AcDbEntity
  8
BEM
 62
     0
370
    -2
100
AcDbLine
 10
89.49925197703748
 20
93.25279525163182
 30
0.0
 11
135.4999999999999
 21
93.25279525163182
 31
0.0
  0
SOLID
  5
113F
330
D6A
100
AcDbEntity
  8
BEM
 62
     0
100
AcDbTrace
 10
89.49925197703748
 20
93.83612858496515
 30
0.0
 11
89.49925197703748
 21
92.6694619182985
 31
0.0
 12
85.99925197703749
 22
93.25279525163182
 32
0.0
 13
85.99925197703749
 23
93.25279525163182
 33
0.0
  0
SOLID
  5
1140
330
D6A
100
AcDbEntity
  8
BEM
 62
     0
100
AcDbTrace
 10
135.4999999999999
 20
93.83612858496515
 30
0.0
 11
135.4999999999999
 21
92.6694619182985
 31
0.0
 12
138.9999999999999
 22
93.25279525163182
 32
0.0
 13
138.9999999999999
 23
93.25279525163182
 33
0.0
  0
MTEXT
  5
1141
330
D6A
100
AcDbEntity
  8
BEM
 62
     1
100
AcDbMText
 10
112.4996259885187
 20
96.00279525163182
 30
0.0
 40
3.5
 41
0.0
 71
     5
 72
     1
  1
\A1;%%c53
 73
     1
 44
1.0
  0
POINT
  5
1142
330
D6A
100
AcDbEntity
  8
Defpoints
 62
     0
100
AcDbPoint
 10
85.99925197703749
 20
110.0172703439737
 30
0.0
  0
POINT
  5
1143
330
D6A
100
AcDbEntity
  8
Defpoints
 62
     0
100
AcDbPoint
 10
138.9999999999999
 20
110.0172703439737
 30
0.0
  0
POINT
  5
1144
330
D6A
100
AcDbEntity
  8
Defpoints
 62
     0
100
AcDbPoint
 10
138.9999999999999
 20
93.25279525163182
 30
0.0
  0
ENDBLK
  5
D75
330
D6A
100
AcDbEntity
  8
0
100
AcDbBlockEnd
  0
BLOCK
  5
DDB
330
DD1
100
AcDbEntity
  8
0
100
AcDbBlockBegin
  2
*D4
 70
     1
 10
0.0
 20
0.0
 30
0.0
  3
*D4
  1

  0
LINE
  5
1145
330
DD1
100
AcDbEntity
  8
BEM
 62
     0
370
    -2
100
AcDbLine
 10
74.49999999999995
 20
211.64797703077
 30
0.0
 11
74.49999999999995
 21
235.5734850389878
 31
0.0
  0
LINE
  5
1146
330
DD1
100
AcDbEntity
  8
BEM
 62
     0
370
    -2
100
AcDbLine
 10
150.4999999999999
 20
212.5172703439737
 30
0.0
 11
150.4999999999999
 21
235.5734850389878
 31
0.0
  0
LINE
  5
1147
330
DD1
100
AcDbEntity
  8
BEM
 62
     0
370
    -2
100
AcDbLine
 10
77.99999999999996
 20
234.0734850389878
 30
0.0
 11
146.9999999999999
 21
234.0734850389878
 31
0.0
  0
SOLID
  5
1148
330
DD1
100
AcDbEntity
  8
BEM
 62
     0
100
AcDbTrace
 10
77.99999999999996
 20
234.6568183723211
 30
0.0
 11
77.99999999999996
 21
233.4901517056544
 31
0.0
 12
74.49999999999995
 22
234.0734850389878
 32
0.0
 13
74.49999999999995
 23
234.0734850389878
 33
0.0
  0
SOLID
  5
1149
330
DD1
100
AcDbEntity
  8
BEM
 62
     0
100
AcDbTrace
 10
146.9999999999999
 20
234.6568183723211
 30
0.0
 11
146.9999999999999
 21
233.4901517056544
 31
0.0
 12
150.4999999999999
 22
234.0734850389878
 32
0.0
 13
150.4999999999999
 23
234.0734850389878
 33
0.0
  0
MTEXT
  5
114A
330
DD1
100
AcDbEntity
  8
BEM
 62
     1
100
AcDbMText
 10
112.5
 20
236.8234850389878
 30
0.0
 40
3.5
 41
0.0
 71
     5
 72
     1
  1
\A1;%%c76
 73
     1
 44
1.0
  0
POINT
  5
114B
330
DD1
100
AcDbEntity
  8
Defpoints
 62
     0
100
AcDbPoint
 10
74.49999999999995
 20
210.64797703077
 30
0.0
  0
POINT
  5
114C
330
DD1
100
AcDbEntity
  8
Defpoints
 62
     0
100
AcDbPoint
 10
150.4999999999999
 20
211.5172703439737
 30
0.0
  0
POINT
  5
114D
330
DD1
100
AcDbEntity
  8
Defpoints
 62
     0
100
AcDbPoint
 10
150.4999999999999
 20
234.0734850389878
 30
0.0
  0
ENDBLK
  5
DDC
330
DD1
100
AcDbEntity
  8
0
100
AcDbBlockEnd
  0
BLOCK
  5
E23
330
E19
100
AcDbEntity
  8
0
100
AcDbBlockBegin
  2
*D6
 70
     1
 10
0.0
 20
0.0
 30
0.0
  3
*D6
  1

  0
LINE
  5
112A
330
E19
100
AcDbEntity
  8
BEM
 62
     0
370
    -2
100
AcDbLine
 10
73.49999999999998
 20
196.0172703439737
 30
0.0
 11
61.41190278098585
 21
196.0172703439737
 31
0.0
  0
LINE
  5
112B
330
E19
100
AcDbEntity
  8
BEM
 62
     0
370
    -2
100
AcDbLine
 10
87.0
 20
225.0172703439737
 30
0.0
 11
61.41190278098586
 21
225.0172703439738
 31
0.0
  0
LINE
  5
112C
330
E19
100
AcDbEntity
  8
BEM
 62
     0
370
    -2
100
AcDbLine
 10
62.91190278098586
 20
199.5172703439737
 30
0.0
 11
62.91190278098586
 21
221.5172703439737
 31
0.0
  0
SOLID
  5
112D
330
E19
100
AcDbEntity
  8
BEM
 62
     0
100
AcDbTrace
 10
62.32856944765252
 20
199.5172703439737
 30
0.0
 11
63.49523611431919
 21
199.5172703439737
 31
0.0
 12
62.91190278098586
 22
196.0172703439737
 32
0.0
 13
62.91190278098586
 23
196.0172703439737
 33
0.0
  0
SOLID
  5
112E
330
E19
100
AcDbEntity
  8
BEM
 62
     0
100
AcDbTrace
 10
62.32856944765252
 20
221.5172703439737
 30
0.0
 11
63.49523611431919
 21
221.5172703439737
 31
0.0
 12
62.91190278098586
 22
225.0172703439738
 32
0.0
 13
62.91190278098586
 23
225.0172703439738
 33
0.0
  0
MTEXT
  5
112F
330
E19
100
AcDbEntity
  8
BEM
 62
     1
100
AcDbMText
 10
60.16190278098583
 20
210.5172703439738
 30
0.0
 40
3.5
 41
0.0
 71
     5
 72
     1
  1
\A1;29
 11
0.0000000000000001
 21
1.0
 31
0.0
 73
     1
 44
1.0
  0
POINT
  5
1130
330
E19
100
AcDbEntity
  8
Defpoints
 62
     0
100
AcDbPoint
 10
74.49999999999999
 20
196.0172703439737
 30
0.0
  0
POINT
  5
1131
330
E19
100
AcDbEntity
  8
Defpoints
 62
     0
100
AcDbPoint
 10
88.0
 20
225.0172703439737
 30
0.0
  0
POINT
  5
1132
330
E19
100
AcDbEntity
  8
Defpoints
 62
     0
100
AcDbPoint
 10
62.91190278098586
 20
225.0172703439738
 30
0.0
  0
ENDBLK
  5
E24
330
E19
100
AcDbEntity
  8
0
100
AcDbBlockEnd
  0
BLOCK
  5
E30
330
E26
100
AcDbEntity
  8
0
100
AcDbBlockBegin
  2
*D7
 70
     1
 10
0.0
 20
0.0
 30
0.0
  3
*D7
  1

  0
LINE
  5
1121
330
E26
100
AcDbEntity
  8
BEM
 62
     0
370
    -2
100
AcDbLine
 10
85.43594441437845
 20
105.0172703439737
 30
0.0
 11
54.36647323492636
 21
105.0172703439737
 31
0.0
  0
LINE
  5
1122
330
E26
100
AcDbEntity
  8
BEM
 62
     0
370
    -2
100
AcDbLine
 10
111.4999999999999
 20
225.0172703439737
 30
0.0
 11
54.36647323492639
 21
225.0172703439738
 31
0.0
  0
LINE
  5
1123
330
E26
100
AcDbEntity
  8
BEM
 62
     0
370
    -2
100
AcDbLine
 10
55.86647323492636
 20
108.5172703439736
 30
0.0
 11
55.86647323492639
 21
221.5172703439737
 31
0.0
  0
SOLID
  5
1124
330
E26
100
AcDbEntity
  8
BEM
 62
     0
100
AcDbTrace
 10
55.28313990159302
 20
108.5172703439736
 30
0.0
 11
56.44980656825969
 21
108.5172703439736
 31
0.0
 12
55.86647323492636
 22
105.0172703439737
 32
0.0
 13
55.86647323492636
 23
105.0172703439737
 33
0.0
  0
SOLID
  5
1125
330
E26
100
AcDbEntity
  8
BEM
 62
     0
100
AcDbTrace
 10
55.28313990159305
 20
221.5172703439737
 30
0.0
 11
56.44980656825972
 21
221.5172703439737
 31
0.0
 12
55.86647323492639
 22
225.0172703439738
 32
0.0
 13
55.86647323492639
 23
225.0172703439738
 33
0.0
  0
MTEXT
  5
1126
330
E26
100
AcDbEntity
  8
BEM
 62
     1
100
AcDbMText
 10
53.11647323492635
 20
165.0172703439737
 30
0.0
 40
3.5
 41
0.0
 71
     5
 72
     1
  1
\A1;120
 11
0.0000000000000001
 21
1.0
 31
0.0
 73
     1
 44
1.0
  0
POINT
  5
1127
330
E26
100
AcDbEntity
  8
Defpoints
 62
     0
100
AcDbPoint
 10
86.43594441437844
 20
105.0172703439737
 30
0.0
  0
POINT
  5
1128
330
E26
100
AcDbEntity
  8
Defpoints
 62
     0
100
AcDbPoint
 10
112.4999999999999
 20
225.0172703439737
 30
0.0
  0
POINT
  5
1129
330
E26
100
AcDbEntity
  8
Defpoints
 62
     0
100
AcDbPoint
 10
55.86647323492639
 20
225.0172703439738
 30
0.0
  0
ENDBLK
  5
E31
330
E26
100
AcDbEntity
  8
0
100
AcDbBlockEnd
  0
ENDSEC
  0
SECTION
  2
ENTITIES
  0
LINE
  5
54
330
17
100
AcDbEntity
  8
STEMPEL
100
AcDbLine
 10
205.0
 20
55.00000000000003
 30
0.0
 11
19.99999999999998
 21
55.0
 31
0.0
  0
LINE
  5
55
330
17
100
AcDbEntity
  8
STEMPEL
100
AcDbLine
 10
68.00000000000006
 20
54.99999999999997
 30
0.0
 11
68.0
 21
4.999999999999985
 31
0.0
  0
LINE
  5
56
330
17
100
AcDbEntity
  8
STEMPEL
100
AcDbLine
 10
110.0
 20
55.00000000000003
 30
0.0
 11
110.0
 21
4.999999999999985
 31
0.0
  0
LINE
  5
57
330
17
100
AcDbEntity
  8
STEMPEL
100
AcDbLine
 10
166.0
 20
54.99999999999989
 30
0.0
 11
166.0
 21
20.0
 31
0.0
  0
LINE
  5
58
330
17
100
AcDbEntity
  8
STEMPEL
100
AcDbLine
 10
67.99999999999994
 20
14.99999999999998
 30
0.0
 11
19.99999999999998
 21
14.99999999999998
 31
0.0
  0
LINE
  5
59
330
17
100
AcDbEntity
  8
STEMPEL
100
AcDbLine
 10
205.0
 20
20.0
 30
0.0
 11
68.00000000000006
 21
19.99999999999998
 31
0.0
  0
LINE
  5
5A
330
17
100
AcDbEntity
  8
STEMPEL
100
AcDbLine
 10
205.0
 20
40.0
 30
0.0
 11
68.00000000000006
 21
39.99999999999997
 31
0.0
  0
LINE
  5
5B
330
17
100
AcDbEntity
  8
VOLL
100
AcDbLine
 10
27.00000000000005
 20
55.00000000000003
 30
0.0
 11
26.99999999999999
 21
4.999999999999985
 31
0.0
  0
LINE
  5
5C
330
17
100
AcDbEntity
  8
VOLL
100
AcDbLine
 10
47.00000000000005
 20
54.99999999999997
 30
0.0
 11
47.0
 21
4.999999999999985
 31
0.0
  0
LINE
  5
5D
330
17
100
AcDbEntity
  8
VOLL
100
AcDbLine
 10
57.00000000000006
 20
54.99999999999997
 30
0.0
 11
57.0
 21
4.999999999999985
 31
0.0
  0
LINE
  5
5E
330
17
100
AcDbEntity
  8
VOLL
100
AcDbLine
 10
77.00000000000006
 20
39.99999999999997
 30
0.0
 11
77.00000000000006
 21
19.99999999999998
 31
0.0
  0
LINE
  5
5F
330
17
100
AcDbEntity
  8
VOLL
100
AcDbLine
 10
90.00000000000005
 20
54.99999999999992
 30
0.0
 11
90.0
 21
19.99999999999998
 31
0.0
  0
LINE
  5
60
330
17
100
AcDbEntity
  8
HILF
100
AcDbLine
 10
20.00000000000004
 20
50.00000000000003
 30
0.0
 11
68.00000000000006
 21
50.00000000000003
 31
0.0
  0
LINE
  5
61
330
17
100
AcDbEntity
  8
HILF
100
AcDbLine
 10
20.00000000000004
 20
45.00000000000002
 30
0.0
 11
68.00000000000006
 21
45.00000000000002
 31
0.0
  0
LINE
  5
62
330
17
100
AcDbEntity
  8
HILF
100
AcDbLine
 10
20.00000000000004
 20
39.99999999999997
 30
0.0
 11
68.00000000000006
 21
39.99999999999997
 31
0.0
  0
LINE
  5
63
330
17
100
AcDbEntity
  8
HILF
100
AcDbLine
 10
20.00000000000004
 20
34.99999999999997
 30
0.0
 11
68.00000000000006
 21
34.99999999999997
 31
0.0
  0
LINE
  5
64
330
17
100
AcDbEntity
  8
HILF
100
AcDbLine
 10
20.00000000000004
 20
29.99999999999999
 30
0.0
 11
68.00000000000006
 21
29.99999999999999
 31
0.0
  0
LINE
  5
65
330
17
100
AcDbEntity
  8
HILF
100
AcDbLine
 10
20.00000000000004
 20
24.99999999999999
 30
0.0
 11
68.00000000000006
 21
24.99999999999999
 31
0.0
  0
LINE
  5
66
330
17
100
AcDbEntity
  8
HILF
100
AcDbLine
 10
20.00000000000004
 20
19.99999999999998
 30
0.0
 11
68.00000000000006
 21
19.99999999999998
 31
0.0
  0
LINE
  5
67
330
17
100
AcDbEntity
  8
HILF
100
AcDbLine
 10
68.00000000000006
 20
34.99999999999997
 30
0.0
 11
110.0
 21
34.99999999999997
 31
0.0
  0
LINE
  5
68
330
17
100
AcDbEntity
  8
HILF
100
AcDbLine
 10
68.00000000000006
 20
29.99999999999999
 30
0.0
 11
110.0
 21
29.99999999999999
 31
0.0
  0
LINE
  5
69
330
17
100
AcDbEntity
  8
HILF
100
AcDbLine
 10
68.00000000000006
 20
24.99999999999999
 30
0.0
 11
110.0
 21
24.99999999999999
 31
0.0
  0
LINE
  5
6A
330
17
100
AcDbEntity
  8
HILF
100
AcDbLine
 10
112.3868400548474
 20
42.01879123782069
 30
0.0
 11
162.4176958278155
 21
42.01879123782069
 31
0.0
  0
LINE
  5
6B
330
17
100
AcDbEntity
  8
HILF
100
AcDbLine
 10
112.3868400548474
 20
34.99999999999997
 30
0.0
 11
162.4176958278155
 21
34.99999999999997
 31
0.0
  0
LINE
  5
6C
330
17
100
AcDbEntity
  8
HILF
100
AcDbLine
 10
112.3868400548474
 20
29.99999999999999
 30
0.0
 11
162.4176958278155
 21
29.99999999999999
 31
0.0
  0
LINE
  5
6D
330
17
100
AcDbEntity
  8
HILF
100
AcDbLine
 10
112.3868400548474
 20
24.99999999999999
 30
0.0
 11
162.4176958278155
 21
24.99999999999999
 31
0.0
  0
LINE
  5
6E
330
17
100
AcDbEntity
  8
VOLL
100
AcDbLine
 10
166.0
 20
30.0
 30
0.0
 11
205.0
 21
30.0
 31
0.0
  0
LINE
  5
6F
330
17
100
AcDbEntity
  8
HILF
100
AcDbLine
 10
168.3619308148496
 20
41.88991818477913
 30
0.0
 11
202.4294419663364
 21
41.88991818477913
 31
0.0
  0
LINE
  5
70
330
17
100
AcDbEntity
  8
HILF
100
AcDbLine
 10
111.7454849644942
 20
7.446991290141568
 30
0.0
 11
202.4294419663364
 21
7.446991290141568
 31
0.0
  0
TEXT
  5
71
330
17
100
AcDbEntity
  8
TEXT
100
AcDbText
 10
31.62857142857143
 20
9.142857142857135
 30
0.0
 40
2.0
  1
Änderung
 41
0.8
 72
     4
 11
37.0
 21
9.999999999999992
 31
0.0
100
AcDbText
  0
TEXT
  5
72
330
17
100
AcDbEntity
  8
TEXT
100
AcDbText
 10
112.4389701904505
 20
51.27446640058898
 30
0.0
 40
2.5
  1
Benennung
 41
0.8
100
AcDbText
  0
TEXT
  5
73
330
17
100
AcDbEntity
  8
TEXT
100
AcDbText
 10
168.089377478817
 20
51.15660172685682
 30
0.0
 40
2.5
  1
Zeichnungs Nr.
 41
0.8
100
AcDbText
  0
TEXT
  5
74
330
17
100
AcDbEntity
  8
TEXT
100
AcDbText
 10
112.371119195568
 20
15.42280285096528
 30
0.0
 40
2.5
  1
Bauvorhaben
 41
0.8
100
AcDbText
  0
TEXT
  5
75
330
17
100
AcDbEntity
  8
TEXT
100
AcDbText
 10
168.3619308148496
 20
36.59059118549985
 30
0.0
 40
2.5
  1
Ersatz für:
 41
0.8
100
AcDbText
  0
TEXT
  5
76
330
17
100
AcDbEntity
  8
TEXT
100
AcDbText
 10
24.13320553522878
 20
6.827329230135958
 30
0.0
 40
2.0
  1
Index
 50
90.0
 41
0.8
100
AcDbText
  0
TEXT
  5
77
330
17
100
AcDbEntity
  8
TEXT
100
AcDbText
 10
50.13333333333334
 20
9.333333333333326
 30
0.0
 40
2.0
  1
Tag
 41
0.8
 72
     4
 11
52.00000000000001
 21
9.999999999999992
 31
0.0
100
AcDbText
  0
TEXT
  5
78
330
17
100
AcDbEntity
  8
TEXT
100
AcDbText
 10
59.33809523809524
 20
8.999999999999992
 30
0.0
 40
2.0
  1
Name
 41
0.8
 72
     4
 11
62.5
 21
9.999999999999992
 31
0.0
100
AcDbText
  0
TEXT
  5
79
330
17
100
AcDbEntity
  8
TEXT
100
AcDbText
 10
68.79180635838077
 20
31.81495184808982
 30
0.0
 40
2.0
  1
Gez.
 41
0.8
100
AcDbText
  0
TEXT
  5
7A
330
17
100
AcDbEntity
  8
TEXT
100
AcDbText
 10
68.77575432858361
 20
26.84463145714189
 30
0.0
 40
2.0
  1
Gepr.
 41
0.8
100
AcDbText
  0
TEXT
  5
7B
330
17
100
AcDbEntity
  8
TEXT
100
AcDbText
 10
68.80033886936519
 20
21.76473194824904
 30
0.0
 40
2.0
  1
Norm.
 41
0.8
100
AcDbText
  0
LINE
  5
7C
330
17
100
AcDbEntity
  8
STEMPEL
100
AcDbLine
 10
24.99999999999995
 20
5.0
 30
0.0
 11
205.0
 21
5.0
 31
0.0
  0
LINE
  5
7D
330
17
100
AcDbEntity
  8
STEMPEL
100
AcDbLine
 10
205.0
 20
55.00000000000003
 30
0.0
 11
205.0
 21
5.0
 31
0.0
  0
TEXT
  5
7E
330
17
100
AcDbEntity
  8
TEXT
100
AcDbText
 10
168.6200430748503
 20
26.03708088939301
 30
0.0
 40
2.5
  1
ersetzt durch:
 41
0.8
100
AcDbText
  0
LINE
  5
7F
330
17
100
AcDbEntity
  8
STEMPEL
100
AcDbLine
 10
205.0
 20
5.0
 30
0.0
 11
19.99999999999994
 21
5.0
 31
0.0
  0
LINE
  5
80
330
17
100
AcDbEntity
  8
STEMPEL
100
AcDbLine
 10
205.0
 20
55.00000000000003
 30
0.0
 11
205.0
 21
292.0
 31
0.0
  0
LINE
  5
81
330
17
100
AcDbEntity
  8
STEMPEL
100
AcDbLine
 10
20.0
 20
5.0
 30
0.0
 11
19.99999999999994
 21
292.0
 31
0.0
  0
LINE
  5
82
330
17
100
AcDbEntity
  8
STEMPEL
100
AcDbLine
 10
205.0
 20
292.0
 30
0.0
 11
19.99999999999994
 21
292.0
 31
0.0
  0
LINE
  5
83
330
17
100
AcDbEntity
  8
HILF
100
AcDbLine
 10
0.0
 20
0.0
 30
0.0
 11
-0.0000000000000568
 21
297.0
 31
0.0
  0
LINE
  5
84
330
17
100
AcDbEntity
  8
HILF
100
AcDbLine
 10
210.0
 20
297.0000000000001
 30
0.0
 11
0.0
 21
297.0
 31
0.0
  0
LINE
  5
85
330
17
100
AcDbEntity
  8
HILF
100
AcDbLine
 10
210.0
 20
0.0
 30
0.0
 11
0.0
 21
0.0
 31
0.0
  0
LINE
  5
86
330
17
100
AcDbEntity
  8
HILF
100
AcDbLine
 10
15.54383567856928
 20
148.5
 30
0.0
 11
0.0000000000000568
 21
148.5
 31
0.0
  0
LINE
  5
87
330
17
100
AcDbEntity
  8
HILF
100
AcDbLine
 10
210.0
 20
-0.0000000000000568
 30
0.0
 11
210.0
 21
297.0
 31
0.0
  0
TEXT
  5
88
330
17
100
AcDbEntity
  8
VOLL
100
AcDbText
 10
78.07675471698113
 20
31.02594776470585
 30
0.0
 40
1.8
  1

  7
GREEKS
100
AcDbText
  0
TEXT
  5
89
330
17
100
AcDbEntity
  8
TEXT
100
AcDbText
 10
20.92754975488837
 20
55.83599999999997
 30
0.0
 40
2.5
  1
Erstellt mit AUTOCAD 2004
 41
0.8
100
AcDbText
  0
TEXT
  5
8A
330
17
100
AcDbEntity
  8
TEXT
 62
     1
100
AcDbText
 10
172.8952774936645
 20
42.88991818477913
 30
0.0
 40
3.5
  1
00801050W
 41
0.8
  7
GREEKS
 72
     1
 11
184.6286108269979
 21
42.88991818477913
 31
0.0
100
AcDbText
  0
TEXT
  5
8B
330
17
100
AcDbEntity
  8
TEXT
 62
     1
100
AcDbText
 10
112.3868400548474
 20
43.01879123782069
 30
0.0
 40
3.5
  1
Sicherheitsdunsthut DN50
 41
0.7
100
AcDbText
  0
TEXT
  5
8F
330
17
100
AcDbEntity
  8
TEXT
100
AcDbText
 10
112.4918750788913
 20
21.31487076511316
 30
0.0
 40
2.0
  1
00801050W.DWG
 41
0.8
100
AcDbText
  0
INSERT
  5
90
330
17
100
AcDbEntity
  8
STEMPEL
100
AcDbBlockReference
  2
LOGO
 10
70.4977742728897
 20
22.51052638224161
 30
0.0
  0
TEXT
  5
93
330
17
100
AcDbEntity
  8
TEXT
100
AcDbText
 10
93.28571428571441
 20
51.27446640058896
 30
0.0
 40
2.5
  1
Zul. Abw.
 41
0.8
 72
     1
 11
100.0000000000001
 21
51.27446640058896
 31
0.0
100
AcDbText
  0
TEXT
  5
94
330
17
100
AcDbEntity
  8
TEXT
100
AcDbText
 10
73.09523809523833
 20
51.27446640058899
 30
0.0
 40
2.5
  1
Maßstab
 41
0.8
 72
     1
 11
79.00000000000023
 21
51.27446640058899
 31
0.0
100
AcDbText
  0
TEXT
  5
95
330
17
100
AcDbEntity
  8
TEXT
 62
     1
100
AcDbText
 10
76.60000000000022
 20
43.38398716376325
 30
0.0
 40
3.5
  1
1:1
 41
0.8
 72
     1
 11
79.00000000000023
 21
43.38398716376325
 31
0.0
100
AcDbText
  0
TEXT
  5
97
330
17
100
AcDbEntity
  8
TEXT
100
AcDbText
 10
96.83809523809536
 20
36.50000000000002
 30
0.0
 40
2.0
  1
Name
 41
0.8
 72
     4
 11
100.0000000000001
 21
37.50000000000002
 31
0.0
100
AcDbText
  0
TEXT
  5
98
330
17
100
AcDbEntity
  8
TEXT
100
AcDbText
 10
97.37142857142869
 20
31.50000000000002
 30
0.0
 40
2.0
  1
Koeh
 41
0.8
 72
     4
 11
100.0000000000001
 21
32.50000000000002
 31
0.0
100
AcDbText
  0
TEXT
  5
99
330
17
100
AcDbEntity
  8
TEXT
100
AcDbText
 10
80.14761904761916
 20
31.50000000000002
 30
0.0
 40
2.0
  1
01.04.
 41
0.8
 72
     4
 11
83.50000000000012
 21
32.50000000000002
 31
0.0
100
AcDbText
  0
TEXT
  5
9A
330
17
100
AcDbEntity
  8
TEXT
100
AcDbText
 10
81.63333333333346
 20
36.83333333333335
 30
0.0
 40
2.0
  1
Tag
 41
0.8
 72
     4
 11
83.50000000000012
 21
37.50000000000002
 31
0.0
100
AcDbText
  0
TEXT
  5
9B
330
17
100
AcDbEntity
  8
TEXT
100
AcDbText
 10
70.17619047619058
 20
36.50000000000002
 30
0.0
 40
2.0
  1
2011
 41
0.8
 72
     4
 11
72.50000000000011
 21
37.50000000000002
 31
0.0
100
AcDbText
  0
TEXT
  5
9E
330
17
100
AcDbEntity
  8
TEXT
100
AcDbText
 10
208.2905770718719
 20
6.074024076691515
 30
0.0
 40
2.0
  1
Diese Zeichnung ist urheberrechtlich geschützt und bleibt unser Eigentum. Sie darf weder ganz noch teilweise vervielfältigt und nicht an Dritte weitergegeben werden.
 50
90.0
 41
0.8
100
AcDbText
  0
TEXT
  5
6BF
330
17
100
AcDbEntity
  8
TEXT35
100
AcDbText
 10
253.07001465536
 20
252.5107486555119
 30
0.0
 40
3.5
  1

 41
0.8
100
AcDbText
  0
TEXT
  5
B4B
330
17
100
AcDbEntity
  8
TEXT
100
AcDbText
 10
91.25397221028716
 20
44.00602005199404
 30
0.0
 40
2.0
  1
DIN EN1123-2
 41
0.8
 72
     1
 11
99.74921030552525
 21
44.00602005199404
 31
0.0
100
AcDbText
  0
TEXT
  5
C19
330
17
100
AcDbEntity
  8
TEXT
 62
     1
100
AcDbText
 10
138.7032887343123
 20
70.32265677993087
 30
0.0
 40
3.5
  1
Werkstoff:
 41
0.8
100
AcDbText
  0
TEXT
  5
C1A
330
17
100
AcDbEntity
  8
TEXT
 62
     1
100
AcDbText
 10
162.0075578574124
 20
70.32265677993087
 30
0.0
 40
3.5
  1
E195 EN10305
 41
0.8
100
AcDbText
  0
TEXT
  5
C1B
330
17
100
AcDbEntity
  8
TEXT
 62
     1
100
AcDbText
 10
162.0075578574124
 20
64.49946395561278
 30
0.0
 40
3.5
  1
feuerverzinkt
 41
0.8
100
AcDbText
  0
TEXT
  5
C28
330
17
100
AcDbEntity
  8
TEXT
100
AcDbText
 10
112.4918750788913
 20
26.31487076511316
 30
0.0
 40
2.5
  1
EDV-Art.Nr. 00801.050X
 41
0.8
100
AcDbText
  0
LINE
  5
C45
330
17
100
AcDbEntity
  8
HILF
100
AcDbLine
 10
88.99999999999996
 20
110.0172703439737
 30
0.0
 11
136.0
 21
110.0172703439737
 31
0.0
  0
LINE
  5
C46
330
17
100
AcDbEntity
  8
STEMPEL
100
AcDbLine
 10
86.43594441437844
 20
105.0172703439737
 30
0.0
 11
138.563307562659
 21
105.0172703439737
 31
0.0
  0
LINE
  5
C47
330
17
100
AcDbEntity
  8
STEMPEL
100
AcDbLine
 10
85.99999999999997
 20
110.0001378014164
 30
0.0
 11
86.43594441437844
 21
105.0172703439737
 31
0.0
  0
LINE
  5
C48
330
17
100
AcDbEntity
  8
STEMPEL
100
AcDbLine
 10
138.9999999999999
 20
110.008687743001
 30
0.0
 11
138.563307562659
 21
105.0172703439737
 31
0.0
  0
LINE
  5
C4A
330
17
100
AcDbEntity
  8
STEMPEL
100
AcDbLine
 10
74.49999999999997
 20
196.0172703439737
 30
0.0
 11
85.99999999999996
 21
196.0172703439737
 31
0.0
  0
LINE
  5
C4B
330
17
100
AcDbEntity
  8
STEMPEL
100
AcDbLine
 10
74.49999999999997
 20
196.0172703439737
 30
0.0
 11
74.49999999999995
 21
210.0348203452229
 31
0.0
  0
LINE
  5
C50
330
17
100
AcDbEntity
  8
STEMPEL
100
AcDbLine
 10
85.99999999999997
 20
110.0001378014164
 30
0.0
 11
85.99999999999997
 21
204.0172703439737
 31
0.0
  0
LINE
  5
C51
330
17
100
AcDbEntity
  8
STEMPEL
100
AcDbLine
 10
138.9999999999999
 20
110.008687743001
 30
0.0
 11
138.9999999999999
 21
204.0172703439736
 31
0.0
  0
LINE
  5
C54
330
17
100
AcDbEntity
  8
STEMPEL
100
AcDbLine
 10
138.9999999999999
 20
196.0172703439737
 30
0.0
 11
150.4999999999999
 21
196.0172703439737
 31
0.0
  0
LINE
  5
C55
330
17
100
AcDbEntity
  8
STEMPEL
100
AcDbLine
 10
87.49999999999998
 20
110.065629215779
 30
0.0
 11
87.49999999999998
 21
204.0172703439737
 31
0.0
  0
LINE
  5
C56
330
17
100
AcDbEntity
  8
STEMPEL
100
AcDbLine
 10
137.5
 20
110.0741791573638
 30
0.0
 11
137.5
 21
204.0172703439736
 31
0.0
  0
LINE
  5
C5B
330
17
100
AcDbEntity
  8
STEMPEL
100
AcDbLine
 10
137.5
 20
110.0741791573638
 30
0.0
 11
137.057577806344
 21
105.0172703439737
 31
0.0
  0
LINE
  5
C5C
330
17
100
AcDbEntity
  8
STEMPEL
100
AcDbLine
 10
87.49999999999998
 20
110.065629215779
 30
0.0
 11
87.94167417069349
 21
105.0172703439737
 31
0.0
  0
LINE
  5
C7B
330
17
100
AcDbEntity
  8
STEMPEL
100
AcDbLine
 10
132.0
 20
221.7741528246146
 30
0.0
 11
132.0
 21
204.0172703439737
 31
0.0
  0
LINE
  5
C7C
330
17
100
AcDbEntity
  8
STEMPEL
100
AcDbLine
 10
92.99999999999997
 20
221.7741528246146
 30
0.0
 11
92.99999999999995
 21
204.0172703439737
 31
0.0
  0
LINE
  5
C7F
330
17
100
AcDbEntity
  8
STEMPEL
100
AcDbLine
 10
89.20147609516082
 20
222.341496087385
 30
0.0
 11
89.20147609516082
 21
204.0172703439736
 31
0.0
  0
LINE
  5
C80
330
17
100
AcDbEntity
  8
STEMPEL
100
AcDbLine
 10
87.20972973207997
 20
222.0319322316226
 30
0.0
 11
87.20972973207997
 21
204.0172703439737
 31
0.0
  0
LINE
  5
C81
330
17
100
AcDbEntity
  8
STEMPEL
100
AcDbLine
 10
92.99999999999995
 20
204.0172703439737
 30
0.0
 11
132.0
 21
204.0172703439737
 31
0.0
  0
LINE
  5
C82
330
17
100
AcDbEntity
  8
STEMPEL
100
AcDbLine
 10
85.99999999999997
 20
204.0172703439737
 30
0.0
 11
89.20147609516082
 21
204.0172703439736
 31
0.0
  0
LINE
  5
C83
330
17
100
AcDbEntity
  8
STEMPEL
100
AcDbLine
 10
138.9999999999999
 20
204.0172703439737
 30
0.0
 11
135.7985239048391
 21
204.0172703439736
 31
0.0
  0
LINE
  5
C84
330
17
100
AcDbEntity
  8
STEMPEL
100
AcDbLine
 10
137.7902702679199
 20
222.0319322316226
 30
0.0
 11
137.7902702679199
 21
204.0172703439737
 31
0.0
  0
LINE
  5
C85
330
17
100
AcDbEntity
  8
STEMPEL
100
AcDbLine
 10
135.7985239048391
 20
221.7741528246145
 30
0.0
 11
135.7985239048391
 21
204.0172703439736
 31
0.0
  0
LINE
  5
C87
330
17
100
AcDbEntity
  8
STEMPEL
100
AcDbLine
 10
75.99999999999997
 20
196.0172703439737
 30
0.0
 11
75.99999999999997
 21
210.0348203452229
 31
0.0
  0
ARC
  5
C96
330
17
100
AcDbEntity
  8
STEMPEL
100
AcDbCircle
 10
88.0
 20
210.0348203452229
 30
0.0
 40
12.0
100
AcDbArc
 50
104.7825054254545
 51
180.0
  0
ARC
  5
C99
330
17
100
AcDbEntity
  8
STEMPEL
100
AcDbCircle
 10
88.0
 20
210.0348203452229
 30
0.0
 40
13.5
100
AcDbArc
 50
104.5317994726792
 51
180.0
  0
DIMENSION
  5
D69
330
17
100
AcDbEntity
  8
BEM
100
AcDbDimension
  2
*D2
 10
138.9999999999999
 20
93.25279525163182
 30
0.0
 11
112.4996259885187
 21
96.00279525163182
 31
0.0
 70
    32
  1
%%c<>
 71
     5
 42
53.00074802296248
  3
STANDARD
100
AcDbAlignedDimension
 13
85.99925197703749
 23
110.0172703439737
 33
0.0
 14
138.9999999999999
 24
110.0172703439737
 34
0.0
100
AcDbRotatedDimension
1001
ACAD
1000
DSTYLE
1002
{
1070
    47
1040
2.0
1070
    48
1040
2.0
1070
   279
1070
     0
1002
}
  0
LINE
  5
D95
330
17
100
AcDbEntity
  8
MITTEL
100
AcDbLine
 10
112.5
 20
100.0172703439737
 30
0.0
 11
112.5
 21
230.022070644666
 31
0.0
  0
DIMENSION
  5
DD0
330
17
100
AcDbEntity
  8
BEM
100
AcDbDimension
  2
*D4
 10
150.4999999999999
 20
234.0734850389878
 30
0.0
 11
112.5
 21
236.8234850389878
 31
0.0
 70
    32
  1
%%c<>
 71
     5
 42
76.00000000000001
  3
STANDARD
100
AcDbAlignedDimension
 13
74.49999999999995
 23
210.64797703077
 33
0.0
 14
150.4999999999999
 24
211.5172703439737
 34
0.0
100
AcDbRotatedDimension
1001
ACAD
1000
DSTYLE
1002
{
1070
    47
1040
2.0
1070
    48
1040
2.0
1070
   279
1070
     0
1002
}
  0
DIMENSION
  5
E18
330
17
100
AcDbEntity
  8
BEM
100
AcDbDimension
  2
*D6
 10
62.91190278098586
 20
225.0172703439738
 30
0.0
 11
60.16190278098583
 21
210.5172703439738
 31
0.0
 70
    32
 71
     5
 42
29.0
  3
STANDARD
100
AcDbAlignedDimension
 13
74.49999999999999
 23
196.0172703439737
 33
0.0
 14
88.0
 24
225.0172703439737
 34
0.0
 50
270.0
100
AcDbRotatedDimension
1001
ACAD
1000
DSTYLE
1002
{
1070
    47
1040
2.0
1070
    48
1040
2.0
1070
   279
1070
     0
1002
}
  0
DIMENSION
  5
E25
330
17
100
AcDbEntity
  8
BEM
100
AcDbDimension
  2
*D7
 10
55.86647323492639
 20
225.0172703439738
 30
0.0
 11
53.11647323492635
 21
165.0172703439737
 31
0.0
 70
    32
 71
     5
 42
120.0000000000001
  3
STANDARD
100
AcDbAlignedDimension
 13
86.43594441437844
 23
105.0172703439737
 33
0.0
 14
112.4999999999999
 24
225.0172703439737
 34
0.0
 50
270.0
100
AcDbRotatedDimension
1001
ACAD
1000
DSTYLE
1002
{
1070
    47
1040
2.0
1070
    48
1040
2.0
1070
   279
1070
     0
1002
}
  0
HATCH
  5
F9F
330
17
100
AcDbEntity
  8
SCHRAFF
100
AcDbHatch
 10
0.0
 20
0.0
 30
0.0
210
0.0
220
0.0
230
1.0
  2
_U
 70
     0
 71
     0
 91
        2
 92
        7
 72
     0
 73
     1
 93
        6
 10
87.49999999999996
 20
204.0172703439737
 10
85.99999999999997
 20
204.0172703439737
 10
85.99999999999997
 20
110.0001378014162
 10
86.43594441437846
 20
105.0172703439737
 10
87.94167417069351
 20
105.0172703439737
 10
87.49999999999998
 20
110.065629215779
 97
        0
 92
        7
 72
     0
 73
     1
 93
        6
 10
137.5
 20
110.0741791573638
 10
137.057577806344
 20
105.0172703439737
 10
138.563307562659
 20
105.0172703439737
 10
138.9999999999999
 20
110.0086877430012
 10
139.0
 20
204.0172703439737
 10
137.5
 20
204.0172703439737
 97
        0
 75
     0
 76
     0
 52
45.0
 41
2.0
 77
     0
 78
     1
 53
45.0
 43
3.097229529763552
 44
0.0000000000000142
 45
-1.414213562373094
 46
1.414213562373095
 79
     0
 47
0.1273514666974935
 98
        2
 10
87.36591226671723
 20
156.3934149073831
 10
137.9768852885408
 20
156.9028205787186
  0
LINE
  5
FAD
330
17
100
AcDbEntity
  8
STEMPEL
100
AcDbLine
 10
92.99999999999997
 20
221.7741528246146
 30
0.0
 11
87.20972973207997
 21
221.7741528246146
 31
0.0
  0
LINE
  5
FC3
330
17
100
AcDbEntity
  8
STEMPEL
100
AcDbLine
 10
132.0
 20
221.7741528246146
 30
0.0
 11
137.7902702679199
 21
221.7741528246145
 31
0.0
  0
ARC
  5
FD1
330
17
100
AcDbEntity
  8
STEMPEL
100
AcDbCircle
 10
106.974482589132
 20
101.4269835354757
 30
0.0
 40
123.7137435213428
100
AcDbArc
 50
98.39310222769769
 51
100.4137340040849
  0
ARC
  5
FD2
330
17
100
AcDbEntity
  8
STEMPEL
100
AcDbCircle
 10
106.974482589132
 20
101.4269835354757
 30
0.0
 40
122.2137435213428
100
AcDbArc
 50
98.58344350143909
 51
100.4137340040849
  0
ARC
  5
FEE
330
17
100
AcDbEntity
  8
STEMPEL
100
AcDbCircle
 10
136.9999999999999
 20
210.0348203452229
 30
0.0
 40
12.0
100
AcDbArc
 50
0.0000000000000325
 51
75.21749457454548
  0
ARC
  5
FEF
330
17
100
AcDbEntity
  8
STEMPEL
100
AcDbCircle
 10
136.9999999999999
 20
210.0348203452229
 30
0.0
 40
13.5
100
AcDbArc
 50
0.0000000000000325
 51
75.46820052732082
  0
LINE
  5
FF0
330
17
100
AcDbEntity
  8
STEMPEL
100
AcDbLine
 10
150.4999999999999
 20
196.0172703439737
 30
0.0
 11
150.4999999999999
 21
210.0348203452229
 31
0.0
  0
LINE
  5
FF1
330
17
100
AcDbEntity
  8
STEMPEL
100
AcDbLine
 10
149.0
 20
196.0172703439737
 30
0.0
 11
149.0
 21
210.0348203452229
 31
0.0
  0
ARC
  5
FF2
330
17
100
AcDbEntity
  8
STEMPEL
100
AcDbCircle
 10
118.0255174108679
 20
101.4269835354757
 30
0.0
 40
122.2137435213428
100
AcDbArc
 50
79.58626599591508
 51
92.55989488853334
  0
ARC
  5
FF3
330
17
100
AcDbEntity
  8
STEMPEL
100
AcDbCircle
 10
118.0255174108679
 20
101.4269835354757
 30
0.0
 40
123.7137435213428
100
AcDbArc
 50
79.58626599591508
 51
92.55989488853334
  0
ARC
  5
FFF
330
17
100
AcDbEntity
  8
STEMPEL
100
AcDbCircle
 10
90.77550644870582
 20
225.3108672682453
 30
0.0
 40
3.310723687717566
100
AcDbArc
 50
250.8415831568661
 51
304.0578017884484
  0
ARC
  5
1000
330
17
100
AcDbEntity
  8
STEMPEL
100
AcDbCircle
 10
90.77550644870582
 20
225.3108672682453
 30
0.0
 40
1.810723687717566
100
AcDbArc
 50
245.7218944945561
 51
309.1774904507582
  0
ARC
  5
1001
330
17
100
AcDbEntity
  8
STEMPEL
100
AcDbCircle
 10
89.20866623054903
 20
221.8371622210517
 30
0.0
 40
2.0
100
AcDbArc
 50
65.72189449455613
 51
98.39310222769773
  0
ARC
  5
1002
330
17
100
AcDbEntity
  8
STEMPEL
100
AcDbCircle
 10
89.0326269525401
 20
220.2942790701639
 30
0.0
 40
2.0
100
AcDbArc
 50
70.84158315686639
 51
98.58344350143823
  0
ARC
  5
1003
330
17
100
AcDbEntity
  8
STEMPEL
100
AcDbCircle
 10
106.9744825891321
 20
101.4269835354757
 30
0.0
 40
123.7137435213428
100
AcDbArc
 50
87.44010511146667
 51
96.50628271761716
  0
ARC
  5
1004
330
17
100
AcDbEntity
  8
STEMPEL
100
AcDbCircle
 10
106.9744825891321
 20
101.4269835354757
 30
0.0
 40
122.2137435213428
100
AcDbArc
 50
87.44010511146667
 51
96.31594144387573
  0
ARC
  5
1006
330
17
100
AcDbEntity
  8
STEMPEL
100
AcDbCircle
 10
93.18283512629349
 20
222.3568219635494
 30
0.0
 40
2.0
100
AcDbArc
 50
96.50628271761645
 51
129.1774904507583
  0
ARC
  5
1007
330
17
100
AcDbEntity
  8
STEMPEL
100
AcDbCircle
 10
93.74966560802228
 20
220.9110759797478
 30
0.0
 40
2.0
100
AcDbArc
 50
96.31594144387531
 51
124.0578017884483
  0
LINE
  5
1035
330
17
100
AcDbEntity
  8
BEM
100
AcDbLine
 10
137.7902702679199
 20
219.337196943417
 30
0.0
 11
141.2463960806676
 21
221.2583723821713
 31
0.0
  0
LINE
  5
1038
330
17
100
AcDbEntity
  8
BEM
100
AcDbLine
 10
87.20972973207997
 20
219.8355216269161
 30
0.0
 11
84.40928896576259
 21
221.4850078663339
 31
0.0
  0
HATCH
  5
104B
330
17
100
AcDbEntity
  8
BEM
100
AcDbHatch
 10
0.0
 20
0.0
 30
0.0
210
0.0
220
0.0
230
1.0
  2
_U
 70
     0
 71
     0
 91
        3
 92
        7
 72
     1
 73
     1
 93
        4
 10
87.20972973207997
 20
219.8355216269161
 42
0.0
 10
87.20972973207997
 20
222.0319322316226
 42
0.0047162344336305
 10
84.93819354180045
 20
221.6376364349715
 42
0.0114699802689947
 10
84.40928896576258
 20
221.4850078663339
 42
0.0
 97
        0
 92
        7
 72
     1
 73
     1
 93
        5
 10
141.2463960806676
 20
221.2583723821713
 42
0.0259303870776643
 10
140.0618064582001
 20
221.6376364349713
 42
0.0020713482642241
 10
139.0650704048693
 20
221.8160873418966
 42
0.0
 10
137.7902702679199
 20
220.87170947708
 42
0.0
 10
137.7902702679199
 20
219.3371969434169
 42
0.0
 97
        0
 92
        7
 72
     1
 73
     1
 93
        3
 10
137.7902702679199
 20
222.0319322316226
 42
0.0
 10
137.7902702679199
 20
220.87170947708
 42
0.0
 10
139.0650704048693
 20
221.8160873418966
 42
0.0026448603318624
 97
        0
 75
     0
 76
     0
 52
0.0
 41
0.1
 77
     0
 78
     1
 53
0.0
 43
3.097229529763552
 44
0.0000000000000142
 45
0.0
 46
0.1
 79
     0
 47
0.0781766181616768
 98
        3
 10
86.12361639764978
 20
220.9144208840608
 10
139.3262525065556
 20
220.5235377404563
 10
138.3091440796356
 20
221.774363119082
  0
HATCH
  5
1074
330
17
100
AcDbEntity
  8
BEM
100
AcDbHatch
 10
0.0
 20
0.0
 30
0.0
210
0.0
220
0.0
230
1.0
  2
_U
 70
     0
 71
     0
 91
        4
 92
        7
 72
     1
 73
     1
 93
       16
 10
74.49999999999995
 20
210.0348203452229
 42
0.0
 10
74.49999999999997
 20
196.0172703439737
 42
0.0
 10
75.99999999999997
 20
196.0172703439737
 42
0.0
 10
75.99999999999997
 20
210.0348203452229
 42
-0.3405129517403251
 10
84.93819354179986
 20
221.6376364349713
 42
-0.0078730792871753
 10
88.73412771092201
 20
222.271878170779
 42
-0.1216413909304971
 10
89.68898928605655
 20
222.1835086716525
 42
0.2364647058598241
 10
92.62960765200586
 20
222.568022018448
 42
-0.1216413909304847
 10
93.52964389347077
 20
222.8989367508094
 42
-0.0388849072093262
 10
112.5
 20
223.5157535466556
 42
0.0
 10
112.5
 20
225.0172703439737
 42
0.0395793103299699
 10
92.95621080164739
 20
224.343940836561
 42
0.1435286160528454
 10
91.91938551678925
 20
223.9072074266661
 42
-0.2841764068002484
 10
90.03099833676126
 20
223.6602831460297
 42
0.1435286160528442
 10
88.91673837023361
 20
223.8157420461716
 42
0.0088168978248542
 10
84.61261654816722
 20
223.102935486675
 42
0.3417341561705656
 97
        0
 92
        7
 72
     1
 73
     1
 93
        4
 10
120.3816401281864
 20
223.618013448647
 42
0.0
 10
120.8566272823984
 20
225.1083287454949
 42
0.0168928447199805
 10
112.5
 20
225.0172703439737
 42
0.0
 10
112.5
 20
223.5157535466556
 42
-0.0161282061922485
 97
        0
 92
        7
 72
     1
 73
     1
 93
        5
 10
120.8566272823984
 20
225.1083287454949
 42
0.0
 10
120.3816401281864
 20
223.618013448647
 42
-0.0384528696506476
 10
139.0650704048693
 20
221.8160873418966
 42
0.0
 10
140.6908675222309
 20
223.0204854007116
 42
0.0058239874267727
 10
140.3873834518327
 20
223.1029354866749
 42
0.0397377936776598
 97
        0
 92
        7
 72
     1
 73
     1
 93
        7
 10
149.0
 20
210.0348203452229
 42
0.0
 10
149.0
 20
196.0172703439737
 42
0.0
 10
150.5
 20
196.0172703439737
 42
0.0
 10
150.4999999999999
 20
210.0348203452229
 42
0.3352429496432853
 10
140.6908675222309
 20
223.0204854007116
 42
0.0
 10
139.0650704048693
 20
221.8160873418966
 42
-0.0020713482642235
 10
140.0618064581999
 20
221.6376364349713
 42
-0.3405129517403295
 97
        0
 75
     0
 76
     0
 52
135.0
 41
2.0
 77
     0
 78
     1
 53
135.0
 43
3.097229529763552
 44
0.0000000000000142
 45
-1.414213562373095
 46
-1.414213562373094
 79
     0
 47
0.2239562665206388
 98
        4
 10
79.71022952401378
 20
219.7672527489134
 10
116.9167162796172
 20
224.246378188118
 10
125.8821338827312
 20
224.4703349282028
 10
144.2612421907231
 20
220.2151653779474
  0
TEXT
  5
114E
330
17
100
AcDbEntity
  8
TEXT
 62
     1
100
AcDbText
 10
111.2274327477335
 20
148.6676646711817
 30
0.0
 40
3.5
  1
DN50
 50
90.0
 41
0.8
100
AcDbText
  0
ENDSEC
  0
SECTION
  2
OBJECTS
  0
DICTIONARY
  5
C
330
0
100
AcDbDictionary
281
     1
  3
ACAD_COLOR
350
B6E
  3
ACAD_GROUP
350
D
  3
ACAD_LAYOUT
350
B6F
  3
ACAD_MATERIAL
350
B6D
  3
ACAD_MLINESTYLE
350
1A
  3
ACAD_PLOTSETTINGS
350
B70
  3
ACAD_PLOTSTYLENAME
350
B6B
  3
ACDBVARIABLEDICTIONARY
350
32
  0
DICTIONARY
  5
B6E
102
{ACAD_REACTORS
330
C
102
}
330
C
100
AcDbDictionary
281
     1
  0
DICTIONARY
  5
D
102
{ACAD_REACTORS
330
C
102
}
330
C
100
AcDbDictionary
281
     1
  0
DICTIONARY
  5
B6F
102
{ACAD_REACTORS
330
C
102
}
330
C
100
AcDbDictionary
281
     1
  3
Layout1
350
B72
  3
Model
350
B71
  0
DICTIONARY
  5
B6D
102
{ACAD_REACTORS
330
C
102
}
330
C
100
AcDbDictionary
281
     1
  0
DICTIONARY
  5
1A
102
{ACAD_REACTORS
330
C
102
}
330
C
100
AcDbDictionary
281
     1
  3
STANDARD
350
1B
  0
DICTIONARY
  5
B70
102
{ACAD_REACTORS
330
C
102
}
330
C
100
AcDbDictionary
281
     1
  0
ACDBDICTIONARYWDFLT
  5
B6B
102
{ACAD_REACTORS
330
C
102
}
330
C
100
AcDbDictionary
281
     1
  3
Normal
350
B6C
100
AcDbDictionaryWithDefault
340
B6C
  0
DICTIONARY
  5
32
102
{ACAD_REACTORS
330
C
102
}
330
C
100
AcDbDictionary
281
     1
  3
DIMADEC
350
33
  3
DIMASSOC
350
B91
  3
PROJECTNAME
350
B92
  0
LAYOUT
  5
B72
102
{ACAD_REACTORS
330
B6F
102
}
330
B6F
100
AcDbPlotSettings
  1

  2
RICOH Aficio 2027 PCL 6
  4

  6

 40
0.0
 41
0.0
 42
0.0
 43
0.0
 44
0.0
 45
0.0
 46
0.0
 47
0.0
 48
0.0
 49
0.0
140
0.0
141
0.0
142
1.0
143
1.0
 70
   688
 72
     0
 73
     0
 74
     5
  7

 75
    16
147
1.0
 76
     0
 77
     2
 78
   300
148
0.0
149
0.0
100
AcDbLayout
  1
Layout1
 70
     0
 71
     1
 10
0.0
 20
0.0
 11
12.0
 21
9.0
 12
0.0
 22
0.0
 32
0.0
 14
1.000000000000000E+20
 24
1.000000000000000E+20
 34
1.000000000000000E+20
 15
-1.000000000000000E+20
 25
-1.000000000000000E+20
 35
-1.000000000000000E+20
146
0.0
 13
0.0
 23
0.0
 33
0.0
 16
1.0
 26
0.0
 36
0.0
 17
0.0
 27
1.0
 37
0.0
 76
     0
330
14
  0
LAYOUT
  5
B71
102
{ACAD_REACTORS
330
B6F
102
}
330
B6F
100
AcDbPlotSettings
  1

  2
RICOH Aficio 2027 PCL 6
  4
A4
  6

 40
5.027083396911621
 41
5.027085304260253
 42
5.027084350585937
 43
5.027069091796875
 44
209.9733276367187
 45
296.9259948730469
 46
0.0
 47
0.0
 48
0.0
 49
0.0
140
0.0
141
0.0
142
1.0
143
1.0
 70
 11952
 72
     0
 73
     1
 74
     0
  7

 75
     0
147
1.0
 76
     0
 77
     2
 78
   300
148
-1794.893408829056
149
457.8399767561887
100
AcDbLayout
  1
Model
 70
     1
 71
     0
 10
0.0
 20
0.0
 11
12.0
 21
9.0
 12
0.0
 22
0.0
 32
0.0
 14
0.0
 24
0.0
 34
0.0
 15
0.0
 25
0.0
 35
0.0
146
0.0
 13
0.0
 23
0.0
 33
0.0
 16
1.0
 26
0.0
 36
0.0
 17
0.0
 27
1.0
 37
0.0
 76
     0
330
17
  0
MLINESTYLE
  5
1B
102
{ACAD_REACTORS
330
1A
102
}
330
1A
100
AcDbMlineStyle
  2
STANDARD
 70
     0
  3

 62
   256
 51
90.0
 52
90.0
 71
     2
 49
0.5
 62
   256
  6
BYLAYER
 49
-0.5
 62
   256
  6
BYLAYER
  0
ACDBPLACEHOLDER
  5
B6C
102
{ACAD_REACTORS
330
B6B
102
}
330
B6B
  0
DICTIONARYVAR
  5
33
102
{ACAD_REACTORS
330
32
102
}
330
32
100
DictionaryVariables
280
     0
  1
0
  0
DICTIONARYVAR
  5
B91
102
{ACAD_REACTORS
330
32
102
}
330
32
100
DictionaryVariables
280
     0
  1
1
  0
DICTIONARYVAR
  5
B92
102
{ACAD_REACTORS
330
32
102
}
330
32
100
DictionaryVariables
280
     0
  1

  0
ENDSEC
  0
EOF
