  0
SECTION
  2
HEADER
  9
$ACADVER
  1
AC1018
  9
$ACADMAINTVER
 70
     2
  9
$DWGCODEPAGE
  3
ANSI_1252
  9
$INSBASE
 10
0.0
 20
0.0
 30
0.0
  9
$EXTMIN
 10
-0.080096417720597
 20
-0.1132792193470777
 30
-0.000000000000013
  9
$EXTMAX
 10
1050.000004890039
 20
1485.000006915915
 30
0.0000000000000023
  9
$LIMMIN
 10
0.0
 20
0.0
  9
$LIMMAX
 10
1050.0
 20
1485.0
  9
$ORTHOMODE
 70
     1
  9
$REGENMODE
 70
     1
  9
$FILLMODE
 70
     1
  9
$QTEXTMODE
 70
     0
  9
$MIRRTEXT
 70
     1
  9
$LTSCALE
 40
50.0
  9
$ATTMODE
 70
     1
  9
$TEXTSIZE
 40
2.5
  9
$TRACEWID
 40
0.5
  9
$TEXTSTYLE
  7
GREEKS
  9
$CLAYER
  8
VOLL
  9
$CELTYPE
  6
ByLayer
  9
$CECOLOR
 62
   256
  9
$CELTSCALE
 40
1.0
  9
$DISPSILH
 70
     0
  9
$DIMSCALE
 40
5.0
  9
$DIMASZ
 40
3.5
  9
$DIMEXO
 40
1.0
  9
$DIMDLI
 40
7.0
  9
$DIMRND
 40
0.0
  9
$DIMDLE
 40
0.0
  9
$DIMEXE
 40
1.0
  9
$DIMTP
 40
4.0
  9
$DIMTM
 40
4.0
  9
$DIMTXT
 40
3.5
  9
$DIMCEN
 40
1.5
  9
$DIMTSZ
 40
0.0
  9
$DIMTOL
 70
     0
  9
$DIMLIM
 70
     0
  9
$DIMTIH
 70
     0
  9
$DIMTOH
 70
     0
  9
$DIMSE1
 70
     0
  9
$DIMSE2
 70
     0
  9
$DIMTAD
 70
     1
  9
$DIMZIN
 70
     8
  9
$DIMBLK
  1

  9
$DIMASO
 70
     1
  9
$DIMSHO
 70
     0
  9
$DIMPOST
  1

  9
$DIMAPOST
  1

  9
$DIMALT
 70
     0
  9
$DIMALTD
 70
     2
  9
$DIMALTF
 40
25.4
  9
$DIMLFAC
 40
1.0
  9
$DIMTOFL
 70
     1
  9
$DIMTVP
 40
0.0
  9
$DIMTIX
 70
     0
  9
$DIMSOXD
 70
     0
  9
$DIMSAH
 70
     0
  9
$DIMBLK1
  1

  9
$DIMBLK2
  1

  9
$DIMSTYLE
  2
Standard
  9
$DIMCLRD
 70
     0
  9
$DIMCLRE
 70
     0
  9
$DIMCLRT
 70
     1
  9
$DIMTFAC
 40
0.5
  9
$DIMGAP
 40
1.5
  9
$DIMJUST
 70
     0
  9
$DIMSD1
 70
     0
  9
$DIMSD2
 70
     0
  9
$DIMTOLJ
 70
     1
  9
$DIMTZIN
 70
     8
  9
$DIMALTZ
 70
     8
  9
$DIMALTTZ
 70
     8
  9
$DIMUPT
 70
     0
  9
$DIMDEC
 70
     2
  9
$DIMTDEC
 70
     2
  9
$DIMALTU
 70
     2
  9
$DIMALTTD
 70
     2
  9
$DIMTXSTY
  7
GREEKS
  9
$DIMAUNIT
 70
     0
  9
$DIMADEC
 70
     2
  9
$DIMALTRND
 40
0.0
  9
$DIMAZIN
 70
     2
  9
$DIMDSEP
 70
    46
  9
$DIMATFIT
 70
     3
  9
$DIMFRAC
 70
     0
  9
$DIMLDRBLK
  1

  9
$DIMLUNIT
 70
     2
  9
$DIMLWD
 70
    -2
  9
$DIMLWE
 70
    -2
  9
$DIMTMOVE
 70
     0
  9
$LUNITS
 70
     2
  9
$LUPREC
 70
     2
  9
$SKETCHINC
 40
1.0
  9
$FILLETRAD
 40
0.0
  9
$AUNITS
 70
     0
  9
$AUPREC
 70
     0
  9
$MENU
  1
ACAD
  9
$ELEVATION
 40
0.0
  9
$PELEVATION
 40
0.0
  9
$THICKNESS
 40
0.0
  9
$LIMCHECK
 70
     0
  9
$CHAMFERA
 40
0.0
  9
$CHAMFERB
 40
0.0
  9
$CHAMFERC
 40
0.0
  9
$CHAMFERD
 40
0.0
  9
$SKPOLY
 70
     0
  9
$TDCREATE
 40
2452219.896248611
  9
$TDUCREATE
 40
2452219.812915278
  9
$TDUPDATE
 40
2455658.403935857
  9
$TDUUPDATE
 40
2455658.320602523
  9
$TDINDWG
 40
0.0186697917
  9
$TDUSRTIMER
 40
0.0186697917
  9
$USRTIMER
 70
     1
  9
$ANGBASE
 50
0.0
  9
$ANGDIR
 70
     0
  9
$PDMODE
 70
     0
  9
$PDSIZE
 40
0.0
  9
$PLINEWID
 40
0.0
  9
$SPLFRAME
 70
     0
  9
$SPLINETYPE
 70
     6
  9
$SPLINESEGS
 70
     8
  9
$HANDSEED
  5
268
  9
$SURFTAB1
 70
     6
  9
$SURFTAB2
 70
     6
  9
$SURFTYPE
 70
     6
  9
$SURFU
 70
     6
  9
$SURFV
 70
     6
  9
$UCSBASE
  2

  9
$UCSNAME
  2

  9
$UCSORG
 10
0.0
 20
0.0
 30
0.0
  9
$UCSXDIR
 10
1.0
 20
0.0
 30
0.0
  9
$UCSYDIR
 10
0.0
 20
1.0
 30
0.0
  9
$UCSORTHOREF
  2

  9
$UCSORTHOVIEW
 70
     0
  9
$UCSORGTOP
 10
0.0
 20
0.0
 30
0.0
  9
$UCSORGBOTTOM
 10
0.0
 20
0.0
 30
0.0
  9
$UCSORGLEFT
 10
0.0
 20
0.0
 30
0.0
  9
$UCSORGRIGHT
 10
0.0
 20
0.0
 30
0.0
  9
$UCSORGFRONT
 10
0.0
 20
0.0
 30
0.0
  9
$UCSORGBACK
 10
0.0
 20
0.0
 30
0.0
  9
$PUCSBASE
  2

  9
$PUCSNAME
  2

  9
$PUCSORG
 10
0.0
 20
0.0
 30
0.0
  9
$PUCSXDIR
 10
1.0
 20
0.0
 30
0.0
  9
$PUCSYDIR
 10
0.0
 20
1.0
 30
0.0
  9
$PUCSORTHOREF
  2

  9
$PUCSORTHOVIEW
 70
     0
  9
$PUCSORGTOP
 10
0.0
 20
0.0
 30
0.0
  9
$PUCSORGBOTTOM
 10
0.0
 20
0.0
 30
0.0
  9
$PUCSORGLEFT
 10
0.0
 20
0.0
 30
0.0
  9
$PUCSORGRIGHT
 10
0.0
 20
0.0
 30
0.0
  9
$PUCSORGFRONT
 10
0.0
 20
0.0
 30
0.0
  9
$PUCSORGBACK
 10
0.0
 20
0.0
 30
0.0
  9
$USERI1
 70
     0
  9
$USERI2
 70
     0
  9
$USERI3
 70
     0
  9
$USERI4
 70
     0
  9
$USERI5
 70
     0
  9
$USERR1
 40
0.0
  9
$USERR2
 40
0.0
  9
$USERR3
 40
0.0
  9
$USERR4
 40
0.0
  9
$USERR5
 40
0.0
  9
$WORLDVIEW
 70
     1
  9
$SHADEDGE
 70
     3
  9
$SHADEDIF
 70
    70
  9
$TILEMODE
 70
     1
  9
$MAXACTVP
 70
    16
  9
$PINSBASE
 10
406.5307777401833
 20
50.00000000000001
 30
-2.58105543498411
  9
$PLIMCHECK
 70
     0
  9
$PEXTMIN
 10
1.000000000000000E+20
 20
1.000000000000000E+20
 30
1.000000000000000E+20
  9
$PEXTMAX
 10
-1.000000000000000E+20
 20
-1.000000000000000E+20
 30
-1.000000000000000E+20
  9
$PLIMMIN
 10
0.0
 20
0.0
  9
$PLIMMAX
 10
12.0
 20
9.0
  9
$UNITMODE
 70
     0
  9
$VISRETAIN
 70
     0
  9
$PLINEGEN
 70
     0
  9
$PSLTSCALE
 70
     0
  9
$TREEDEPTH
 70
  3020
  9
$CMLSTYLE
  2
Standard
  9
$CMLJUST
 70
     0
  9
$CMLSCALE
 40
1.0
  9
$PROXYGRAPHICS
 70
     1
  9
$MEASUREMENT
 70
     0
  9
$CELWEIGHT
370
    -1
  9
$ENDCAPS
280
     0
  9
$JOINSTYLE
280
     0
  9
$LWDISPLAY
290
     0
  9
$INSUNITS
 70
     0
  9
$HYPERLINKBASE
  1

  9
$STYLESHEET
  1
monochrome 1.ctb
  9
$XEDIT
290
     1
  9
$CEPSNTYPE
380
     0
  9
$PSTYLEMODE
290
     1
  9
$FINGERPRINTGUID
  2
{6AD1CE1D-E14E-4E97-985B-3263D8B83303}
  9
$VERSIONGUID
  2
{293B6BA5-B425-4128-97E8-BF6CDBDD6368}
  9
$EXTNAMES
290
     1
  9
$PSVPSCALE
 40
0.0
  9
$OLESTARTUP
290
     0
  9
$SORTENTS
280
   127
  9
$INDEXCTL
280
     0
  9
$HIDETEXT
280
     1
  9
$XCLIPFRAME
290
     0
  9
$HALOGAP
280
     0
  9
$OBSCOLOR
 70
   257
  9
$OBSLTYPE
280
     0
  9
$INTERSECTIONDISPLAY
280
     0
  9
$INTERSECTIONCOLOR
 70
   257
  9
$DIMASSOC
280
     2
  9
$PROJECTNAME
  1

  0
ENDSEC
  0
SECTION
  2
CLASSES
  0
CLASS
  1
ACDBDICTIONARYWDFLT
  2
AcDbDictionaryWithDefault
  3
ObjectDBX Classes
 90
        0
 91
        1
280
     0
281
     0
  0
CLASS
  1
DICTIONARYVAR
  2
AcDbDictionaryVar
  3
ObjectDBX Classes
 90
        0
 91
        3
280
     0
281
     0
  0
ENDSEC
  0
SECTION
  2
TABLES
  0
TABLE
  2
VPORT
  5
8
330
0
100
AcDbSymbolTable
 70
     3
  0
VPORT
  5
267
330
8
100
AcDbSymbolTableRecord
100
AcDbViewportTableRecord
  2
*Active
 70
     0
 10
0.0
 20
0.0
 11
1.0
 21
1.0
 12
524.9999999999998
 22
742.4999999999999
 13
0.0
 23
0.0
 14
1.0
 24
1.0
 15
10.0
 25
10.0
 16
0.0
 26
0.0
 36
1.0
 17
0.0
 27
0.0
 37
0.0
 40
1485.0
 41
1.334231805929919
 42
50.0
 43
0.0
 44
0.0
 50
0.0
 51
0.0
 71
     0
 72
  1500
 73
     1
 74
     0
 75
     0
 76
     0
 77
     0
 78
     0
281
     0
 65
     1
110
0.0
120
0.0
130
0.0
111
1.0
121
0.0
131
0.0
112
0.0
122
1.0
132
0.0
 79
     0
146
0.0
  0
ENDTAB
  0
TABLE
  2
LTYPE
  5
5
330
0
100
AcDbSymbolTable
 70
     2
  0
LTYPE
  5
13
330
5
100
AcDbSymbolTableRecord
100
AcDbLinetypeTableRecord
  2
ByBlock
 70
     0
  3

 72
    65
 73
     0
 40
0.0
  0
LTYPE
  5
14
330
5
100
AcDbSymbolTableRecord
100
AcDbLinetypeTableRecord
  2
ByLayer
 70
     0
  3

 72
    65
 73
     0
 40
0.0
  0
LTYPE
  5
15
330
5
100
AcDbSymbolTableRecord
100
AcDbLinetypeTableRecord
  2
Continuous
 70
     0
  3
Solid line
 72
    65
 73
     0
 40
0.0
  0
LTYPE
  5
32
330
5
100
AcDbSymbolTableRecord
100
AcDbLinetypeTableRecord
  2
STRICHPUNKT
 70
     0
  3
__ . __ . __ . __ . __ . __ . __ . __ . __ . __
 72
    65
 73
     4
 40
1.0
 49
0.5
 74
     0
 49
-0.25
 74
     0
 49
0.0
 74
     0
 49
-0.25
 74
     0
  0
ENDTAB
  0
TABLE
  2
LAYER
  5
2
330
0
100
AcDbSymbolTable
 70
     9
  0
LAYER
  5
10
330
2
100
AcDbSymbolTableRecord
100
AcDbLayerTableRecord
  2
0
 70
     0
 62
     7
  6
Continuous
370
    -3
390
F
  0
LAYER
  5
35
330
2
100
AcDbSymbolTableRecord
100
AcDbLayerTableRecord
  2
VOLL
 70
     0
 62
     1
  6
Continuous
370
    -3
390
F
  0
LAYER
  5
36
330
2
100
AcDbSymbolTableRecord
100
AcDbLayerTableRecord
  2
HILF
 70
     0
 62
     2
  6
Continuous
370
    -3
390
F
  0
LAYER
  5
37
330
2
100
AcDbSymbolTableRecord
100
AcDbLayerTableRecord
  2
MITTEL
 70
     0
 62
     2
  6
STRICHPUNKT
370
    -3
390
F
  0
LAYER
  5
38
330
2
100
AcDbSymbolTableRecord
100
AcDbLayerTableRecord
  2
BEM
 70
     0
 62
     7
  6
Continuous
370
    -3
390
F
  0
LAYER
  5
39
330
2
100
AcDbSymbolTableRecord
100
AcDbLayerTableRecord
  2
STEMPEL
 70
     0
 62
     3
  6
Continuous
370
    -3
390
F
  0
LAYER
  5
3A
330
2
100
AcDbSymbolTableRecord
100
AcDbLayerTableRecord
  2
TEXT
 70
     0
 62
     7
  6
Continuous
370
    -3
390
F
  0
LAYER
  5
3B
330
2
100
AcDbSymbolTableRecord
100
AcDbLayerTableRecord
  2
DEFPOINTS
 70
     0
 62
     7
  6
Continuous
290
     0
370
    -3
390
F
  0
LAYER
  5
3C
330
2
100
AcDbSymbolTableRecord
100
AcDbLayerTableRecord
  2
SCHRAFF
 70
     0
 62
     7
  6
Continuous
370
    -3
390
F
  0
ENDTAB
  0
TABLE
  2
STYLE
  5
3
330
0
100
AcDbSymbolTable
 70
     2
  0
STYLE
  5
11
330
3
100
AcDbSymbolTableRecord
100
AcDbTextStyleTableRecord
  2
STANDARD
 70
     0
 40
0.0
 41
1.0
 50
0.0
 71
     0
 42
3.5
  3
txt
  4

  0
STYLE
  5
31
330
3
100
AcDbSymbolTableRecord
100
AcDbTextStyleTableRecord
  2
GREEKS
 70
     0
 40
0.0
 41
0.8
 50
0.0
 71
     0
 42
2.5
  3
SIMPLEX.shx
  4

  0
ENDTAB
  0
TABLE
  2
VIEW
  5
6
330
0
100
AcDbSymbolTable
 70
     0
  0
ENDTAB
  0
TABLE
  2
UCS
  5
7
330
0
100
AcDbSymbolTable
 70
     0
  0
ENDTAB
  0
TABLE
  2
APPID
  5
9
330
0
100
AcDbSymbolTable
 70
     1
  0
APPID
  5
12
330
9
100
AcDbSymbolTableRecord
100
AcDbRegAppTableRecord
  2
ACAD
 70
     0
  0
ENDTAB
  0
TABLE
  2
DIMSTYLE
  5
A
330
0
100
AcDbSymbolTable
 70
     1
100
AcDbDimStyleTable
 71
     1
340
1B6
  0
DIMSTYLE
105
1B6
102
{ACAD_REACTORS
330
186
330
189
330
18A
102
}
330
A
100
AcDbSymbolTableRecord
100
AcDbDimStyleTableRecord
  2
Standard
 70
     0
340
11
  0
ENDTAB
  0
TABLE
  2
BLOCK_RECORD
  5
1
330
0
100
AcDbSymbolTable
 70
     6
  0
BLOCK_RECORD
  5
20
330
1
100
AcDbSymbolTableRecord
100
AcDbBlockTableRecord
  2
*Model_Space
340
23
  0
BLOCK_RECORD
  5
1C
330
1
100
AcDbSymbolTableRecord
100
AcDbBlockTableRecord
  2
*Paper_Space
340
1F
  0
BLOCK_RECORD
  5
24
330
1
100
AcDbSymbolTableRecord
100
AcDbBlockTableRecord
  2
LOGO
340
0
102
{BLKREFS
331
147
102
}
  0
BLOCK_RECORD
  5
26
330
1
100
AcDbSymbolTableRecord
100
AcDbBlockTableRecord
  2
*D1
340
0
  0
BLOCK_RECORD
  5
2E
330
1
100
AcDbSymbolTableRecord
100
AcDbBlockTableRecord
  2
*X2
340
0
102
{BLKREFS
331
1AD
331
1AE
102
}
  0
BLOCK_RECORD
  5
1E1
330
1
100
AcDbSymbolTableRecord
100
AcDbBlockTableRecord
  2
*D3
340
0
  0
BLOCK_RECORD
  5
227
330
1
100
AcDbSymbolTableRecord
100
AcDbBlockTableRecord
  2
*D4
340
0
  0
BLOCK_RECORD
  5
233
330
1
100
AcDbSymbolTableRecord
100
AcDbBlockTableRecord
  2
*D5
340
0
  0
ENDTAB
  0
ENDSEC
  0
SECTION
  2
BLOCKS
  0
BLOCK
  5
40
330
20
100
AcDbEntity
  8
0
100
AcDbBlockBegin
  2
*Model_Space
 70
     0
 10
0.0
 20
0.0
 30
0.0
  3
*Model_Space
  1

  0
ENDBLK
  5
41
330
20
100
AcDbEntity
  8
0
100
AcDbBlockEnd
  0
BLOCK
  5
3E
330
1C
100
AcDbEntity
 67
     1
  8
0
100
AcDbBlockBegin
  2
*Paper_Space
 70
     0
 10
0.0
 20
0.0
 30
0.0
  3
*Paper_Space
  1

  0
ENDBLK
  5
3F
330
1C
100
AcDbEntity
 67
     1
  8
0
100
AcDbBlockEnd
  0
BLOCK
  5
42
330
24
100
AcDbEntity
  8
0
100
AcDbBlockBegin
  2
LOGO
 70
     0
 10
0.0
 20
0.0
 30
0.0
  3
LOGO
  1

  0
ARC
  5
43
330
24
100
AcDbEntity
  8
0
100
AcDbCircle
 10
11.59973089678112
 20
-9.271599258481501
 30
0.0
 40
4.5
100
AcDbArc
 50
270.0
 51
231.0575587310159
  0
LINE
  5
44
330
24
100
AcDbEntity
  8
0
100
AcDbLine
 10
3.599730896781125
 20
-4.771599258481529
 30
0.0
 11
3.599730896781153
 21
-11.77159925848133
 31
0.0
  0
LINE
  5
45
330
24
100
AcDbEntity
  8
0
100
AcDbLine
 10
2.599730896781125
 20
-4.771599258481529
 30
0.0
 11
2.599730896781153
 21
-11.77159925848133
 31
0.0
  0
CIRCLE
  5
46
330
24
100
AcDbEntity
  8
0
100
AcDbCircle
 10
11.59973089678112
 20
-9.271599258481501
 30
0.0
 40
3.5
  0
ARC
  5
47
330
24
100
AcDbEntity
  8
0
100
AcDbCircle
 10
31.59973089678115
 20
-9.271599258481472
 30
0.0
 40
4.5
100
AcDbArc
 50
270.0
 51
231.0575587310182
  0
LINE
  5
48
330
24
100
AcDbEntity
  8
0
100
AcDbLine
 10
17.59973089678112
 20
-4.771599258481472
 30
0.0
 11
17.59973089678115
 21
-13.77159925848147
 31
0.0
  0
ARC
  5
49
330
24
100
AcDbEntity
  8
0
100
AcDbCircle
 10
22.59973089678116
 20
-7.271599258481472
 30
0.0
 40
2.5
100
AcDbArc
 50
293.1161887722295
 51
90.0
  0
CIRCLE
  5
4A
330
24
100
AcDbEntity
  8
0
100
AcDbCircle
 10
31.59973089678115
 20
-9.271599258481472
 30
0.0
 40
3.5
  0
ARC
  5
4B
330
24
100
AcDbEntity
  8
0
100
AcDbCircle
 10
4.599730896781153
 20
-11.77159925848133
 30
0.0
 40
1.0
100
AcDbArc
 50
180.0
 51
270.0
  0
ARC
  5
4C
330
24
100
AcDbEntity
  8
0
100
AcDbCircle
 10
4.599730896781153
 20
-11.77159925848133
 30
0.0
 40
2.0
100
AcDbArc
 50
179.9999999999992
 51
270.0
  0
LINE
  5
4D
330
24
100
AcDbEntity
  8
0
100
AcDbLine
 10
11.59973089678115
 20
-13.77159925848144
 30
0.0
 11
4.599730896781153
 21
-13.77159925848147
 31
0.0
  0
LINE
  5
4E
330
24
100
AcDbEntity
  8
0
100
AcDbLine
 10
8.771303772034769
 20
-12.77159925848136
 30
0.0
 11
4.599730896781153
 21
-12.77159925848133
 31
0.0
  0
LINE
  5
4F
330
24
100
AcDbEntity
  8
0
100
AcDbLine
 10
31.59973089678115
 20
-13.77159925848147
 30
0.0
 11
23.6715276665056
 21
-13.77159925848144
 31
0.0
  0
LINE
  5
50
330
24
100
AcDbEntity
  8
0
100
AcDbLine
 10
23.56565672307022
 20
-9.51278021337896
 30
0.0
 11
24.4388546544846
 21
-12.77159925848144
 31
0.0
  0
LINE
  5
51
330
24
100
AcDbEntity
  8
0
100
AcDbLine
 10
22.59973089678116
 20
-9.771599258481472
 30
0.0
 11
18.59973089678112
 21
-9.771599258481472
 31
0.0
  0
LINE
  5
52
330
24
100
AcDbEntity
  8
0
100
AcDbLine
 10
18.59973089678115
 20
-13.77159925848144
 30
0.0
 11
17.59973089678115
 21
-13.77159925848144
 31
0.0
  0
LINE
  5
53
330
24
100
AcDbEntity
  8
0
100
AcDbLine
 10
18.59973089678115
 20
-9.771599258481472
 30
0.0
 11
18.59973089678115
 21
-13.77159925848144
 31
0.0
  0
LINE
  5
54
330
24
100
AcDbEntity
  8
0
100
AcDbLine
 10
22.59973089678116
 20
-9.771599258481472
 30
0.0
 11
23.67152766650562
 21
-13.77159925848147
 31
0.0
  0
ARC
  5
55
330
24
100
AcDbEntity
  8
0
100
AcDbCircle
 10
22.59973089678116
 20
-7.271599258481472
 30
0.0
 40
2.5
100
AcDbArc
 50
270.0
 51
270.0000000000007
  0
LINE
  5
56
330
24
100
AcDbEntity
  8
0
100
AcDbLine
 10
28.77130377203494
 20
-12.77159925848147
 30
0.0
 11
24.43885465448463
 21
-12.77159925848144
 31
0.0
  0
LINE
  5
57
330
24
100
AcDbEntity
  8
0
100
AcDbLine
 10
3.599730896781125
 20
-4.771599258481472
 30
0.0
 11
2.599730896781125
 21
-4.771599258481472
 31
0.0
  0
LINE
  5
58
330
24
100
AcDbEntity
  8
0
100
AcDbLine
 10
22.59973089678116
 20
-8.771599258481472
 30
0.0
 11
18.59973089678115
 21
-8.771599258481472
 31
0.0
  0
LINE
  5
59
330
24
100
AcDbEntity
  8
0
100
AcDbLine
 10
22.59973089678116
 20
-5.771599258481472
 30
0.0
 11
18.59973089678115
 21
-5.771599258481472
 31
0.0
  0
LINE
  5
5A
330
24
100
AcDbEntity
  8
0
100
AcDbLine
 10
22.59973089678116
 20
-4.771599258481472
 30
0.0
 11
17.59973089678115
 21
-4.771599258481472
 31
0.0
  0
LINE
  5
5B
330
24
100
AcDbEntity
  8
0
100
AcDbLine
 10
18.59973089678115
 20
-5.771599258481472
 30
0.0
 11
18.59973089678115
 21
-8.771599258481472
 31
0.0
  0
ARC
  5
5C
330
24
100
AcDbEntity
  8
0
100
AcDbCircle
 10
22.59973089678116
 20
-7.271599258481472
 30
0.0
 40
1.5
100
AcDbArc
 50
270.0
 51
90.0
  0
ENDBLK
  5
5D
330
24
100
AcDbEntity
  8
0
100
AcDbBlockEnd
  0
BLOCK
  5
62
330
26
100
AcDbEntity
  8
0
100
AcDbBlockBegin
  2
*D1
 70
     1
 10
0.0
 20
0.0
 30
0.0
  3
*D1
  1

  0
LINE
  5
63
330
26
100
AcDbEntity
  8
0
  6
ByBlock
 62
     0
100
AcDbLine
 10
408.6423118532929
 20
1058.938984663585
 30
0.0
 11
384.4123982725302
 21
1058.938984663585
 31
0.0
  0
LINE
  5
64
330
26
100
AcDbEntity
  8
0
  6
ByBlock
 62
     0
100
AcDbLine
 10
408.5754676285163
 20
1138.938984663585
 30
0.0
 11
384.4123982725302
 21
1138.938984663585
 31
0.0
  0
LINE
  5
65
330
26
100
AcDbEntity
  8
0
  6
ByBlock
 62
     0
100
AcDbLine
 10
389.4123982725302
 20
1076.438984663585
 30
0.0
 11
389.4123982725302
 21
1121.438984663585
 31
0.0
  0
SOLID
  5
66
330
26
100
AcDbEntity
  8
0
  6
ByBlock
 62
     0
100
AcDbTrace
 10
386.4957316058635
 20
1076.438984663585
 30
0.0
 11
392.3290649391969
 21
1076.438984663585
 31
0.0
 12
389.4123982725302
 22
1058.938984663585
 32
0.0
 13
389.4123982725302
 23
1058.938984663585
 33
0.0
  0
SOLID
  5
67
330
26
100
AcDbEntity
  8
0
  6
ByBlock
 62
     0
100
AcDbTrace
 10
386.4957316058635
 20
1121.438984663585
 30
0.0
 11
392.3290649391969
 21
1121.438984663585
 31
0.0
 12
389.4123982725302
 22
1138.938984663585
 32
0.0
 13
389.4123982725302
 23
1138.938984663585
 33
0.0
  0
TEXT
  5
68
330
26
100
AcDbEntity
  8
0
  6
ByBlock
 62
     1
100
AcDbText
 10
380.6623982725302
 20
1066.010508892703
 30
0.0
 40
17.5
  1
min.80
 50
90.0
 41
0.8
  7
GREEKS
 72
     1
 11
371.9123982725302
 21
1099.67717555937
 31
0.0
100
AcDbText
 73
     2
  0
POINT
  5
69
330
26
100
AcDbEntity
  8
DEFPOINTS
  6
ByBlock
 62
     0
100
AcDbPoint
 10
413.6423118532928
 20
1058.938984663585
 30
0.0
  0
POINT
  5
6A
330
26
100
AcDbEntity
  8
DEFPOINTS
  6
ByBlock
 62
     0
100
AcDbPoint
 10
413.5754676285164
 20
1138.938984663585
 30
0.0
  0
POINT
  5
6B
330
26
100
AcDbEntity
  8
DEFPOINTS
  6
ByBlock
 62
     0
100
AcDbPoint
 10
389.4123982725302
 20
1138.938984663585
 30
0.0
  0
ENDBLK
  5
6C
330
26
100
AcDbEntity
  8
0
100
AcDbBlockEnd
  0
BLOCK
  5
CF
330
2E
100
AcDbEntity
  8
0
100
AcDbBlockBegin
  2
*X2
 70
     1
 10
0.0
 20
0.0
 30
0.0
  3
*X2
  1

  0
LINE
  5
D0
330
2E
100
AcDbEntity
  8
0
 62
     0
100
AcDbLine
 10
416.5935534780127
 20
1028.9
 30
0.0
 11
418.0754676285163
 21
1028.9
 31
0.0
  0
LINE
  5
D1
330
2E
100
AcDbEntity
  8
0
 62
     0
100
AcDbLine
 10
416.5885505580741
 20
1029.0
 30
0.0
 11
418.066315328054
 21
1029.0
 31
0.0
  0
LINE
  5
D2
330
2E
100
AcDbEntity
  8
0
 62
     0
100
AcDbLine
 10
416.5859175580926
 20
1029.1
 30
0.0
 11
418.051315328054
 21
1029.1
 31
0.0
  0
LINE
  5
D3
330
2E
100
AcDbEntity
  8
0
 62
     0
100
AcDbLine
 10
416.5856500516928
 20
1029.2
 30
0.0
 11
418.036315328054
 21
1029.2
 31
0.0
  0
LINE
  5
D4
330
2E
100
AcDbEntity
  8
0
 62
     0
100
AcDbLine
 10
416.587747589783
 20
1029.3
 30
0.0
 11
418.021315328054
 21
1029.3
 31
0.0
  0
LINE
  5
D5
330
2E
100
AcDbEntity
  8
0
 62
     0
100
AcDbLine
 10
416.5922136967781
 20
1029.4
 30
0.0
 11
418.006315328054
 21
1029.4
 31
0.0
  0
LINE
  5
D6
330
2E
100
AcDbEntity
  8
0
 62
     0
100
AcDbLine
 10
416.5990559002874
 20
1029.5
 30
0.0
 11
417.991315328054
 21
1029.5
 31
0.0
  0
LINE
  5
D7
330
2E
100
AcDbEntity
  8
0
 62
     0
100
AcDbLine
 10
416.6082857948547
 20
1029.6
 30
0.0
 11
417.976315328054
 21
1029.6
 31
0.0
  0
LINE
  5
D8
330
2E
100
AcDbEntity
  8
0
 62
     0
100
AcDbLine
 10
416.6199191410148
 20
1029.7
 30
0.0
 11
417.961315328054
 21
1029.7
 31
0.0
  0
LINE
  5
D9
330
2E
100
AcDbEntity
  8
0
 62
     0
100
AcDbLine
 10
416.6339760016639
 20
1029.8
 30
0.0
 11
417.9463153280541
 21
1029.8
 31
0.0
  0
LINE
  5
DA
330
2E
100
AcDbEntity
  8
0
 62
     0
100
AcDbLine
 10
416.6504809185325
 20
1029.9
 30
0.0
 11
417.931315328054
 21
1029.9
 31
0.0
  0
LINE
  5
DB
330
2E
100
AcDbEntity
  8
0
 62
     0
100
AcDbLine
 10
416.6694631324605
 20
1030.0
 30
0.0
 11
417.916315328054
 21
1030.0
 31
0.0
  0
LINE
  5
DC
330
2E
100
AcDbEntity
  8
0
 62
     0
100
AcDbLine
 10
416.6909568522185
 20
1030.1
 30
0.0
 11
417.901315328054
 21
1030.1
 31
0.0
  0
LINE
  5
DD
330
2E
100
AcDbEntity
  8
0
 62
     0
100
AcDbLine
 10
416.7150015778522
 20
1030.2
 30
0.0
 11
417.886315328054
 21
1030.2
 31
0.0
  0
LINE
  5
DE
330
2E
100
AcDbEntity
  8
0
 62
     0
100
AcDbLine
 10
416.7416424860163
 20
1030.3
 30
0.0
 11
417.8713153280541
 21
1030.3
 31
0.0
  0
LINE
  5
DF
330
2E
100
AcDbEntity
  8
0
 62
     0
100
AcDbLine
 10
416.7709308865625
 20
1030.4
 30
0.0
 11
417.856315328054
 21
1030.4
 31
0.0
  0
LINE
  5
E0
330
2E
100
AcDbEntity
  8
0
 62
     0
100
AcDbLine
 10
416.802924761884
 20
1030.5
 30
0.0
 11
417.8413153280541
 21
1030.5
 31
0.0
  0
LINE
  5
E1
330
2E
100
AcDbEntity
  8
0
 62
     0
100
AcDbLine
 10
416.8376894032905
 20
1030.6
 30
0.0
 11
417.826315328054
 21
1030.6
 31
0.0
  0
LINE
  5
E2
330
2E
100
AcDbEntity
  8
0
 62
     0
100
AcDbLine
 10
416.8752981621969
 20
1030.7
 30
0.0
 11
417.811315328054
 21
1030.7
 31
0.0
  0
LINE
  5
E3
330
2E
100
AcDbEntity
  8
0
 62
     0
100
AcDbLine
 10
416.9158333383704
 20
1030.8
 30
0.0
 11
417.796315328054
 21
1030.8
 31
0.0
  0
LINE
  5
E4
330
2E
100
AcDbEntity
  8
0
 62
     0
100
AcDbLine
 10
416.9593872332251
 20
1030.9
 30
0.0
 11
417.781315328054
 21
1030.9
 31
0.0
  0
LINE
  5
E5
330
2E
100
AcDbEntity
  8
0
 62
     0
100
AcDbLine
 10
417.0060634036165
 20
1031.0
 30
0.0
 11
417.7663153280541
 21
1031.0
 31
0.0
  0
LINE
  5
E6
330
2E
100
AcDbEntity
  8
0
 62
     0
100
AcDbLine
 10
417.055978161396
 20
1031.1
 30
0.0
 11
417.751315328054
 21
1031.1
 31
0.0
  0
LINE
  5
E7
330
2E
100
AcDbEntity
  8
0
 62
     0
100
AcDbLine
 10
417.1092623770158
 20
1031.2
 30
0.0
 11
417.736315328054
 21
1031.2
 31
0.0
  0
LINE
  5
E8
330
2E
100
AcDbEntity
  8
0
 62
     0
100
AcDbLine
 10
417.1660636629861
 20
1031.3
 30
0.0
 11
417.721315328054
 21
1031.3
 31
0.0
  0
LINE
  5
E9
330
2E
100
AcDbEntity
  8
0
 62
     0
100
AcDbLine
 10
417.2265490368319
 20
1031.4
 30
0.0
 11
417.706315328054
 21
1031.4
 31
0.0
  0
LINE
  5
EA
330
2E
100
AcDbEntity
  8
0
 62
     0
100
AcDbLine
 10
417.2909081961067
 20
1031.5
 30
0.0
 11
417.6913153280541
 21
1031.5
 31
0.0
  0
LINE
  5
EB
330
2E
100
AcDbEntity
  8
0
 62
     0
100
AcDbLine
 10
417.3593575841308
 20
1031.6
 30
0.0
 11
417.676315328054
 21
1031.6
 31
0.0
  0
LINE
  5
EC
330
2E
100
AcDbEntity
  8
0
 62
     0
100
AcDbLine
 10
417.4321454907655
 20
1031.7
 30
0.0
 11
417.661315328054
 21
1031.7
 31
0.0
  0
LINE
  5
ED
330
2E
100
AcDbEntity
  8
0
 62
     0
100
AcDbLine
 10
417.5095585277245
 20
1031.8
 30
0.0
 11
417.6463153280541
 21
1031.8
 31
0.0
  0
LINE
  5
EE
330
2E
100
AcDbEntity
  8
0
 62
     0
100
AcDbLine
 10
417.591929958656
 20
1031.9
 30
0.0
 11
417.631315328054
 21
1031.9
 31
0.0
  0
LINE
  5
EF
330
2E
100
AcDbEntity
  8
0
 62
     0
100
AcDbLine
 10
416.6009347588853
 20
1028.8
 30
0.0
 11
418.0754676285163
 21
1028.8
 31
0.0
  0
LINE
  5
F0
330
2E
100
AcDbEntity
  8
0
 62
     0
100
AcDbLine
 10
416.6107069278647
 20
1028.7
 30
0.0
 11
418.0754676285163
 21
1028.7
 31
0.0
  0
LINE
  5
F1
330
2E
100
AcDbEntity
  8
0
 62
     0
100
AcDbLine
 10
416.6228867056177
 20
1028.6
 30
0.0
 11
418.0754676285163
 21
1028.6
 31
0.0
  0
LINE
  5
F2
330
2E
100
AcDbEntity
  8
0
 62
     0
100
AcDbLine
 10
416.6374951514734
 20
1028.5
 30
0.0
 11
418.0754676285163
 21
1028.5
 31
0.0
  0
LINE
  5
F3
330
2E
100
AcDbEntity
  8
0
 62
     0
100
AcDbLine
 10
416.6545578494488
 20
1028.4
 30
0.0
 11
418.0754676285163
 21
1028.4
 31
0.0
  0
LINE
  5
F4
330
2E
100
AcDbEntity
  8
0
 62
     0
100
AcDbLine
 10
416.6741051390519
 20
1028.3
 30
0.0
 11
418.0754676285163
 21
1028.3
 31
0.0
  0
LINE
  5
F5
330
2E
100
AcDbEntity
  8
0
 62
     0
100
AcDbLine
 10
416.6961723958666
 20
1028.2
 30
0.0
 11
418.0754676285163
 21
1028.2
 31
0.0
  0
LINE
  5
F6
330
2E
100
AcDbEntity
  8
0
 62
     0
100
AcDbLine
 10
416.7208003682122
 20
1028.1
 30
0.0
 11
418.0754676285163
 21
1028.1
 31
0.0
  0
LINE
  5
F7
330
2E
100
AcDbEntity
  8
0
 62
     0
100
AcDbLine
 10
416.748035577714
 20
1028.0
 30
0.0
 11
418.0754676285163
 21
1028.0
 31
0.0
  0
LINE
  5
F8
330
2E
100
AcDbEntity
  8
0
 62
     0
100
AcDbLine
 10
416.7779307935205
 20
1027.9
 30
0.0
 11
418.0754676285163
 21
1027.9
 31
0.0
  0
LINE
  5
F9
330
2E
100
AcDbEntity
  8
0
 62
     0
100
AcDbLine
 10
416.8105455922406
 20
1027.8
 30
0.0
 11
418.0754676285163
 21
1027.8
 31
0.0
  0
LINE
  5
FA
330
2E
100
AcDbEntity
  8
0
 62
     0
100
AcDbLine
 10
416.8459470185956
 20
1027.7
 30
0.0
 11
418.0754676285163
 21
1027.7
 31
0.0
  0
LINE
  5
FB
330
2E
100
AcDbEntity
  8
0
 62
     0
100
AcDbLine
 10
416.8842103654905
 20
1027.6
 30
0.0
 11
418.0754676285163
 21
1027.6
 31
0.0
  0
LINE
  5
FC
330
2E
100
AcDbEntity
  8
0
 62
     0
100
AcDbLine
 10
416.9254200969186
 20
1027.5
 30
0.0
 11
418.0754676285163
 21
1027.5
 31
0.0
  0
LINE
  5
FD
330
2E
100
AcDbEntity
  8
0
 62
     0
100
AcDbLine
 10
416.9696709432085
 20
1027.4
 30
0.0
 11
418.0754676285163
 21
1027.4
 31
0.0
  0
LINE
  5
FE
330
2E
100
AcDbEntity
  8
0
 62
     0
100
AcDbLine
 10
417.0170692060557
 20
1027.3
 30
0.0
 11
418.0754676285163
 21
1027.3
 31
0.0
  0
LINE
  5
FF
330
2E
100
AcDbEntity
  8
0
 62
     0
100
AcDbLine
 10
417.0677343212247
 20
1027.2
 30
0.0
 11
418.0754676285163
 21
1027.2
 31
0.0
  0
LINE
  5
100
330
2E
100
AcDbEntity
  8
0
 62
     0
100
AcDbLine
 10
417.1218007407269
 20
1027.1
 30
0.0
 11
418.0754676285163
 21
1027.1
 31
0.0
  0
LINE
  5
101
330
2E
100
AcDbEntity
  8
0
 62
     0
100
AcDbLine
 10
417.179420215037
 20
1027.0
 30
0.0
 11
418.0754676285163
 21
1027.0
 31
0.0
  0
LINE
  5
102
330
2E
100
AcDbEntity
  8
0
 62
     0
100
AcDbLine
 10
417.2407645815265
 20
1026.9
 30
0.0
 11
418.0754676285163
 21
1026.9
 31
0.0
  0
LINE
  5
103
330
2E
100
AcDbEntity
  8
0
 62
     0
100
AcDbLine
 10
417.3060292007653
 20
1026.8
 30
0.0
 11
418.0754676285163
 21
1026.8
 31
0.0
  0
LINE
  5
104
330
2E
100
AcDbEntity
  8
0
 62
     0
100
AcDbLine
 10
417.3754372322122
 20
1026.7
 30
0.0
 11
418.0754676285163
 21
1026.7
 31
0.0
  0
LINE
  5
105
330
2E
100
AcDbEntity
  8
0
 62
     0
100
AcDbLine
 10
417.4492450121079
 20
1026.6
 30
0.0
 11
418.0754676285163
 21
1026.6
 31
0.0
  0
LINE
  5
106
330
2E
100
AcDbEntity
  8
0
 62
     0
100
AcDbLine
 10
417.5277489001803
 20
1026.5
 30
0.0
 11
418.0754676285163
 21
1026.5
 31
0.0
  0
LINE
  5
107
330
2E
100
AcDbEntity
  8
0
 62
     0
100
AcDbLine
 10
417.6112941159992
 20
1026.4
 30
0.0
 11
418.0754676285163
 21
1026.4
 31
0.0
  0
LINE
  5
108
330
2E
100
AcDbEntity
  8
0
 62
     0
100
AcDbLine
 10
417.7002863202226
 20
1026.3
 30
0.0
 11
418.0754676285163
 21
1026.3
 31
0.0
  0
LINE
  5
109
330
2E
100
AcDbEntity
  8
0
 62
     0
100
AcDbLine
 10
417.7952070614045
 20
1026.2
 30
0.0
 11
418.0754676285163
 21
1026.2
 31
0.0
  0
LINE
  5
10A
330
2E
100
AcDbEntity
  8
0
 62
     0
100
AcDbLine
 10
417.896634795379
 20
1026.1
 30
0.0
 11
418.0754676285163
 21
1026.1
 31
0.0
  0
LINE
  5
10B
330
2E
100
AcDbEntity
  8
0
 62
     0
100
AcDbLine
 10
418.0052741564265
 20
1026.0
 30
0.0
 11
418.0754676285163
 21
1026.0
 31
0.0
  0
ENDBLK
  5
10C
330
2E
100
AcDbEntity
  8
0
100
AcDbBlockEnd
  0
BLOCK
  5
1EB
330
1E1
100
AcDbEntity
  8
0
100
AcDbBlockBegin
  2
*D3
 70
     1
 10
0.0
 20
0.0
 30
0.0
  3
*D3
  1

  0
LINE
  5
1E2
330
1E1
100
AcDbEntity
  8
BEM
 62
     0
370
    -2
100
AcDbLine
 10
452.6942240646539
 20
787.9994598617638
 30
0.0
 11
382.7994678073503
 21
787.9994598617638
 31
0.0
  0
LINE
  5
1E3
330
1E1
100
AcDbEntity
  8
BEM
 62
     0
370
    -2
100
AcDbLine
 10
446.4309542575692
 20
1077.999459861764
 30
0.0
 11
382.7994678073503
 21
1077.999459861764
 31
0.0
  0
LINE
  5
1E4
330
1E1
100
AcDbEntity
  8
BEM
 62
     0
370
    -2
100
AcDbLine
 10
387.7994678073503
 20
805.4994598617637
 30
0.0
 11
387.7994678073503
 21
1060.499459861764
 31
0.0
  0
SOLID
  5
1E5
330
1E1
100
AcDbEntity
  8
BEM
 62
     0
100
AcDbTrace
 10
384.8828011406835
 20
805.4994598617637
 30
0.0
 11
390.716134474017
 21
805.4994598617637
 31
0.0
 12
387.7994678073503
 22
787.9994598617638
 32
0.0
 13
387.7994678073503
 23
787.9994598617638
 33
0.0
  0
SOLID
  5
1E6
330
1E1
100
AcDbEntity
  8
BEM
 62
     0
100
AcDbTrace
 10
384.8828011406837
 20
1060.499459861764
 30
0.0
 11
390.716134474017
 21
1060.499459861764
 31
0.0
 12
387.7994678073503
 22
1077.999459861764
 32
0.0
 13
387.7994678073503
 23
1077.999459861764
 33
0.0
  0
MTEXT
  5
1E7
330
1E1
100
AcDbEntity
  8
BEM
 62
     1
100
AcDbMText
 10
371.5494678073501
 20
932.9994598617641
 30
0.0
 40
17.5
 41
0.0
 71
     5
 72
     1
  1
\A1;290
  7
GREEKS
 11
0.0000000000000001
 21
1.0
 31
0.0
 73
     1
 44
1.0
  0
POINT
  5
1E8
330
1E1
100
AcDbEntity
  8
DEFPOINTS
 62
     0
100
AcDbPoint
 10
457.6942240646538
 20
787.9994598617638
 30
0.0
  0
POINT
  5
1E9
330
1E1
100
AcDbEntity
  8
DEFPOINTS
 62
     0
100
AcDbPoint
 10
451.4309542575692
 20
1077.999459861764
 30
0.0
  0
POINT
  5
1EA
330
1E1
100
AcDbEntity
  8
DEFPOINTS
 62
     0
100
AcDbPoint
 10
387.7994678073503
 20
1077.999459861764
 30
0.0
  0
ENDBLK
  5
1EC
330
1E1
100
AcDbEntity
  8
0
100
AcDbBlockEnd
  0
BLOCK
  5
231
330
227
100
AcDbEntity
  8
0
100
AcDbBlockBegin
  2
*D4
 70
     1
 10
0.0
 20
0.0
 30
0.0
  3
*D4
  1

  0
LINE
  5
23F
330
227
100
AcDbEntity
  8
BEM
 62
     0
370
    -2
100
AcDbLine
 10
775.4309542575692
 20
1082.999459861764
 30
0.0
 11
775.4309542575692
 21
1105.208361473422
 31
0.0
  0
LINE
  5
240
330
227
100
AcDbEntity
  8
BEM
 62
     0
370
    -2
100
AcDbLine
 10
451.4309542575692
 20
1082.999459861764
 30
0.0
 11
451.4309542575692
 21
1105.208361473422
 31
0.0
  0
LINE
  5
241
330
227
100
AcDbEntity
  8
BEM
 62
     0
370
    -2
100
AcDbLine
 10
757.9309542575692
 20
1100.208361473422
 30
0.0
 11
468.9309542575692
 21
1100.208361473422
 31
0.0
  0
SOLID
  5
242
330
227
100
AcDbEntity
  8
BEM
 62
     0
100
AcDbTrace
 10
757.9309542575692
 20
1103.125028140088
 30
0.0
 11
757.9309542575692
 21
1097.291694806755
 31
0.0
 12
775.4309542575692
 22
1100.208361473422
 32
0.0
 13
775.4309542575692
 23
1100.208361473422
 33
0.0
  0
SOLID
  5
243
330
227
100
AcDbEntity
  8
BEM
 62
     0
100
AcDbTrace
 10
468.9309542575692
 20
1103.125028140088
 30
0.0
 11
468.9309542575692
 21
1097.291694806755
 31
0.0
 12
451.4309542575692
 22
1100.208361473422
 32
0.0
 13
451.4309542575692
 23
1100.208361473422
 33
0.0
  0
MTEXT
  5
244
330
227
100
AcDbEntity
  8
BEM
 62
     1
100
AcDbMText
 10
613.4309542575692
 20
1116.458361473422
 30
0.0
 40
17.5
 41
0.0
 71
     5
 72
     1
  1
\A1;%%c324
  7
GREEKS
 73
     1
 44
1.0
  0
POINT
  5
245
330
227
100
AcDbEntity
  8
DEFPOINTS
 62
     0
100
AcDbPoint
 10
775.4309542575692
 20
1077.999459861764
 30
0.0
  0
POINT
  5
246
330
227
100
AcDbEntity
  8
DEFPOINTS
 62
     0
100
AcDbPoint
 10
451.4309542575692
 20
1077.999459861764
 30
0.0
  0
POINT
  5
247
330
227
100
AcDbEntity
  8
DEFPOINTS
 62
     0
100
AcDbPoint
 10
451.4309542575692
 20
1100.208361473422
 30
0.0
  0
ENDBLK
  5
232
330
227
100
AcDbEntity
  8
0
100
AcDbBlockEnd
  0
BLOCK
  5
23D
330
233
100
AcDbEntity
  8
0
100
AcDbBlockBegin
  2
*D5
 70
     1
 10
0.0
 20
0.0
 30
0.0
  3
*D5
  1

  0
LINE
  5
248
330
233
100
AcDbEntity
  8
BEM
 62
     0
370
    -2
100
AcDbLine
 10
770.9309542575692
 20
792.9994598617637
 30
0.0
 11
770.9309542575692
 21
727.0955439958343
 31
0.0
  0
LINE
  5
249
330
233
100
AcDbEntity
  8
BEM
 62
     0
370
    -2
100
AcDbLine
 10
455.9309542575692
 20
792.9994598617639
 30
0.0
 11
455.9309542575692
 21
727.0955439958343
 31
0.0
  0
LINE
  5
24A
330
233
100
AcDbEntity
  8
BEM
 62
     0
370
    -2
100
AcDbLine
 10
753.4309542575691
 20
732.0955439958343
 30
0.0
 11
473.4309542575693
 21
732.0955439958343
 31
0.0
  0
SOLID
  5
24B
330
233
100
AcDbEntity
  8
BEM
 62
     0
100
AcDbTrace
 10
753.4309542575691
 20
735.0122106625009
 30
0.0
 11
753.4309542575691
 21
729.1788773291677
 31
0.0
 12
770.9309542575692
 22
732.0955439958343
 32
0.0
 13
770.9309542575692
 23
732.0955439958343
 33
0.0
  0
SOLID
  5
24C
330
233
100
AcDbEntity
  8
BEM
 62
     0
100
AcDbTrace
 10
473.4309542575693
 20
735.0122106625009
 30
0.0
 11
473.4309542575693
 21
729.1788773291677
 31
0.0
 12
455.9309542575692
 22
732.0955439958343
 32
0.0
 13
455.9309542575692
 23
732.0955439958343
 33
0.0
  0
MTEXT
  5
24D
330
233
100
AcDbEntity
  8
BEM
 62
     1
100
AcDbMText
 10
613.4309542575692
 20
748.3455439958342
 30
0.0
 40
17.5
 41
0.0
 71
     5
 72
     1
  1
\A1;%%c315
  7
GREEKS
 73
     1
 44
1.0
  0
POINT
  5
24E
330
233
100
AcDbEntity
  8
DEFPOINTS
 62
     0
100
AcDbPoint
 10
770.9309542575692
 20
797.9994598617637
 30
0.0
  0
POINT
  5
24F
330
233
100
AcDbEntity
  8
DEFPOINTS
 62
     0
100
AcDbPoint
 10
455.9309542575692
 20
797.9994598617639
 30
0.0
  0
POINT
  5
250
330
233
100
AcDbEntity
  8
DEFPOINTS
 62
     0
100
AcDbPoint
 10
455.9309542575692
 20
732.0955439958343
 30
0.0
  0
ENDBLK
  5
23E
330
233
100
AcDbEntity
  8
0
100
AcDbBlockEnd
  0
ENDSEC
  0
SECTION
  2
ENTITIES
  0
TEXT
  5
124
330
20
100
AcDbEntity
  8
TEXT
100
AcDbText
 10
587.8240977813288
 20
178.7583604396322
 30
0.0
 40
12.5
  1
von LX-Rohr DN300
 41
0.8
  7
GREEKS
100
AcDbText
  0
TEXT
  5
125
330
20
100
AcDbEntity
  8
TEXT
 62
     1
100
AcDbText
 10
588.2351763962648
 20
218.5437197313445
 30
0.0
 40
17.5
  1
Anschlußstück DN300
 41
0.8
  7
GREEKS
100
AcDbText
  0
TEXT
  5
127
330
20
100
AcDbEntity
  8
TEXT
 62
     1
100
AcDbText
 10
598.6674728771919
 20
318.4411278615431
 30
0.0
 40
17.5
  1
feuerverzinkt und innen beschichtet
 41
0.8
  7
GREEKS
100
AcDbText
  0
LINE
  5
128
330
20
100
AcDbEntity
  8
HILF
100
AcDbLine
 10
1050.0
 20
0.0
 30
0.0
 11
0.0
 21
0.0
 31
0.0
  0
LINE
  5
129
330
20
100
AcDbEntity
  8
HILF
100
AcDbLine
 10
1050.0
 20
1485.0
 30
0.0
 11
0.0
 21
1485.0
 31
0.0
  0
LINE
  5
12A
330
20
100
AcDbEntity
  8
STEMPEL
100
AcDbLine
 10
1025.0
 20
1460.0
 30
0.0
 11
99.99999999999971
 21
1460.0
 31
0.0
  0
LINE
  5
12B
330
20
100
AcDbEntity
  8
STEMPEL
100
AcDbLine
 10
1025.0
 20
25.0
 30
0.0
 11
99.99999999999971
 21
25.0
 31
0.0
  0
LINE
  5
12C
330
20
100
AcDbEntity
  8
STEMPEL
100
AcDbLine
 10
124.9999999999997
 20
25.0
 30
0.0
 11
1025.0
 21
25.0
 31
0.0
  0
LINE
  5
12D
330
20
100
AcDbEntity
  8
HILF
100
AcDbLine
 10
583.7274248224712
 20
37.23495645070784
 30
0.0
 11
1012.147209831682
 21
37.23495645070784
 31
0.0
  0
LINE
  5
12E
330
20
100
AcDbEntity
  8
HILF
100
AcDbLine
 10
586.9342002742369
 20
124.9999999999999
 30
0.0
 11
812.0884791390775
 21
124.9999999999999
 31
0.0
  0
LINE
  5
12F
330
20
100
AcDbEntity
  8
HILF
100
AcDbLine
 10
586.9342002742369
 20
149.9999999999999
 30
0.0
 11
812.0884791390775
 21
149.9999999999999
 31
0.0
  0
LINE
  5
130
330
20
100
AcDbEntity
  8
HILF
100
AcDbLine
 10
586.9342002742369
 20
174.9999999999998
 30
0.0
 11
812.0884791390775
 21
174.9999999999998
 31
0.0
  0
LINE
  5
131
330
20
100
AcDbEntity
  8
HILF
100
AcDbLine
 10
586.9342002742369
 20
210.0939561891034
 30
0.0
 11
812.0884791390777
 21
210.0939561891034
 31
0.0
  0
LINE
  5
132
330
20
100
AcDbEntity
  8
STEMPEL
100
AcDbLine
 10
1025.0
 20
200.0
 30
0.0
 11
365.0000000000003
 21
199.9999999999998
 31
0.0
  0
LINE
  5
133
330
20
100
AcDbEntity
  8
STEMPEL
100
AcDbLine
 10
1025.0
 20
100.0
 30
0.0
 11
365.0000000000003
 21
99.99999999999992
 31
0.0
  0
LINE
  5
134
330
20
100
AcDbEntity
  8
STEMPEL
100
AcDbLine
 10
1025.0
 20
275.0000000000001
 30
0.0
 11
99.99999999999992
 21
275.0
 31
0.0
  0
LINE
  5
135
330
20
100
AcDbEntity
  8
HILF
100
AcDbLine
 10
0.0
 20
0.0
 30
0.0
 11
-0.0000000000002842
 21
1485.0
 31
0.0
  0
LINE
  5
136
330
20
100
AcDbEntity
  8
STEMPEL
100
AcDbLine
 10
100.0
 20
25.0
 30
0.0
 11
99.99999999999971
 21
1460.0
 31
0.0
  0
TEXT
  5
138
330
20
100
AcDbEntity
  8
TEXT
100
AcDbText
 10
104.6377487744418
 20
279.1799999999999
 30
0.0
 40
12.5
  1
Erstellt mit AUTOCAD 2004
 41
0.8
  7
GREEKS
100
AcDbText
  0
LINE
  5
139
330
20
100
AcDbEntity
  8
HILF
100
AcDbLine
 10
100.0000000000002
 20
99.99999999999992
 30
0.0
 11
365.0000000000003
 21
99.99999999999992
 31
0.0
  0
LINE
  5
13A
330
20
100
AcDbEntity
  8
HILF
100
AcDbLine
 10
100.0000000000002
 20
124.9999999999999
 30
0.0
 11
365.0000000000003
 21
124.9999999999999
 31
0.0
  0
LINE
  5
13B
330
20
100
AcDbEntity
  8
HILF
100
AcDbLine
 10
100.0000000000002
 20
149.9999999999999
 30
0.0
 11
365.0000000000003
 21
149.9999999999999
 31
0.0
  0
LINE
  5
13C
330
20
100
AcDbEntity
  8
HILF
100
AcDbLine
 10
100.0000000000002
 20
174.9999999999998
 30
0.0
 11
365.0000000000003
 21
174.9999999999998
 31
0.0
  0
LINE
  5
13D
330
20
100
AcDbEntity
  8
HILF
100
AcDbLine
 10
100.0000000000002
 20
199.9999999999998
 30
0.0
 11
365.0000000000003
 21
199.9999999999998
 31
0.0
  0
LINE
  5
13E
330
20
100
AcDbEntity
  8
HILF
100
AcDbLine
 10
100.0000000000002
 20
225.0000000000001
 30
0.0
 11
365.0000000000003
 21
225.0000000000001
 31
0.0
  0
LINE
  5
13F
330
20
100
AcDbEntity
  8
HILF
100
AcDbLine
 10
100.0000000000002
 20
250.0000000000001
 30
0.0
 11
365.0000000000003
 21
250.0000000000001
 31
0.0
  0
LINE
  5
140
330
20
100
AcDbEntity
  8
STEMPEL
100
AcDbLine
 10
364.9999999999997
 20
74.99999999999992
 30
0.0
 11
99.99999999999992
 21
74.99999999999992
 31
0.0
  0
TEXT
  5
141
330
20
100
AcDbEntity
  8
TEXT
100
AcDbText
 10
273.6808842493008
 20
46.67890673349525
 30
0.0
 40
10.0
  1
Tag
 41
0.8
  7
GREEKS
100
AcDbText
  0
TEXT
  5
142
330
20
100
AcDbEntity
  8
TEXT
100
AcDbText
 10
120.6660276761439
 20
34.13664615067979
 30
0.0
 40
10.0
  1
Index
 50
90.0
 41
0.8
  7
GREEKS
100
AcDbText
  0
TEXT
  5
143
330
20
100
AcDbEntity
  8
TEXT
100
AcDbText
 10
168.3124224471957
 20
46.68454737460329
 30
0.0
 40
10.0
  1
Änderung
 41
0.8
  7
GREEKS
100
AcDbText
  0
LINE
  5
144
330
20
100
AcDbEntity
  8
VOLL
100
AcDbLine
 10
260.0000000000003
 20
274.9999999999999
 30
0.0
 11
260.0
 21
24.99999999999993
 31
0.0
  0
LINE
  5
145
330
20
100
AcDbEntity
  8
VOLL
100
AcDbLine
 10
135.0000000000002
 20
275.0000000000001
 30
0.0
 11
134.9999999999999
 21
24.99999999999993
 31
0.0
  0
LINE
  5
146
330
20
100
AcDbEntity
  8
HILF
100
AcDbLine
 10
77.7191783928464
 20
742.5000000000001
 30
0.0
 11
0.0000000000002842
 21
742.5000000000001
 31
0.0
  0
INSERT
  5
147
330
20
100
AcDbEntity
  8
STEMPEL
100
AcDbBlockReference
  2
LOGO
 10
377.4888713644485
 20
112.552631911208
 30
0.0
 41
5.0
 42
5.0
 43
5.0
  0
TEXT
  5
148
330
20
100
AcDbEntity
  8
TEXT
100
AcDbText
 10
485.7147386835128
 20
256.0460421087048
 30
0.0
 40
12.5
  1
Zul. Abw.
 41
0.8
  7
GREEKS
100
AcDbText
  0
LINE
  5
149
330
20
100
AcDbEntity
  8
HILF
100
AcDbLine
 10
365.0000000000003
 20
124.9999999999999
 30
0.0
 11
575.0
 21
124.9999999999999
 31
0.0
  0
LINE
  5
14A
330
20
100
AcDbEntity
  8
HILF
100
AcDbLine
 10
365.0000000000003
 20
149.9999999999999
 30
0.0
 11
575.0
 21
149.9999999999999
 31
0.0
  0
LINE
  5
14B
330
20
100
AcDbEntity
  8
HILF
100
AcDbLine
 10
365.0000000000003
 20
174.9999999999998
 30
0.0
 11
575.0
 21
174.9999999999998
 31
0.0
  0
LINE
  5
14C
330
20
100
AcDbEntity
  8
VOLL
100
AcDbLine
 10
310.0000000000003
 20
274.9999999999999
 30
0.0
 11
310.0
 21
24.99999999999993
 31
0.0
  0
LINE
  5
14D
330
20
100
AcDbEntity
  8
STEMPEL
100
AcDbLine
 10
365.0000000000003
 20
274.9999999999999
 30
0.0
 11
365.0
 21
24.99999999999993
 31
0.0
  0
TEXT
  5
14E
330
20
100
AcDbEntity
  8
TEXT
 62
     1
100
AcDbText
 10
401.2515766204717
 20
220.372535722849
 30
0.0
 40
17.5
  1
1:5
 41
0.8
  7
GREEKS
100
AcDbText
  0
TEXT
  5
14F
330
20
100
AcDbEntity
  8
TEXT
100
AcDbText
 10
383.7908930375943
 20
256.1552237717722
 30
0.0
 40
12.5
  1
Maßstab
 41
0.8
  7
GREEKS
100
AcDbText
  0
TEXT
  5
150
330
20
100
AcDbEntity
  8
TEXT
100
AcDbText
 10
368.9590317919039
 20
159.0747592404491
 30
0.0
 40
10.0
  1
Gez.
 41
0.8
  7
GREEKS
100
AcDbText
  0
LINE
  5
151
330
20
100
AcDbEntity
  8
VOLL
100
AcDbLine
 10
410.0000000000003
 20
199.9999999999998
 30
0.0
 11
410.0000000000003
 21
99.99999999999992
 31
0.0
  0
TEXT
  5
152
330
20
100
AcDbEntity
  8
TEXT
100
AcDbText
 10
320.5503761794202
 20
46.4831054241602
 30
0.0
 40
10.0
  1
Name
 41
0.8
  7
GREEKS
100
AcDbText
  0
TEXT
  5
153
330
20
100
AcDbEntity
  8
TEXT
100
AcDbText
 10
369.0016943468259
 20
108.8236597412452
 30
0.0
 40
10.0
  1
Norm.
 41
0.8
  7
GREEKS
100
AcDbText
  0
TEXT
  5
154
330
20
100
AcDbEntity
  8
TEXT
100
AcDbText
 10
368.8787716429181
 20
134.2231572857094
 30
0.0
 40
10.0
  1
Gepr.
 41
0.8
  7
GREEKS
100
AcDbText
  0
TEXT
  5
155
330
20
100
AcDbEntity
  8
TEXT
100
AcDbText
 10
371.55527455526
 20
182.8506367787916
 30
0.0
 40
10.0
  1
2011
 41
0.8
  7
GREEKS
100
AcDbText
  0
TEXT
  5
156
330
20
100
AcDbEntity
  8
TEXT
100
AcDbText
 10
425.9974927705902
 20
157.7691260206433
 30
0.0
 40
10.0
  1
06.04.
 41
0.8
  7
GREEKS
 72
     1
 11
443.5213022943996
 21
157.7691260206433
 31
0.0
100
AcDbText
  0
TEXT
  5
157
330
20
100
AcDbEntity
  8
TEXT
100
AcDbText
 10
511.0540121453142
 20
157.7240979930877
 30
0.0
 40
10.0
  1
Koeh
 41
0.8
  7
GREEKS
 72
     1
 11
524.1968692881714
 21
157.7240979930877
 31
0.0
100
AcDbText
  0
LINE
  5
158
330
20
100
AcDbEntity
  8
VOLL
100
AcDbLine
 10
475.0000000000002
 20
274.9999999999996
 30
0.0
 11
475.0
 21
99.99999999999992
 31
0.0
  0
TEXT
  5
159
330
20
100
AcDbEntity
  8
TEXT
100
AcDbText
 10
430.8279182884127
 20
183.2970125307481
 30
0.0
 40
10.0
  1
Tag
 41
0.8
  7
GREEKS
100
AcDbText
  0
TEXT
  5
15A
330
20
100
AcDbEntity
  8
TEXT
100
AcDbText
 10
506.1566460565737
 20
183.2740272978806
 30
0.0
 40
10.0
  1
Name
 41
0.8
  7
GREEKS
100
AcDbText
  0
LINE
  5
15B
330
20
100
AcDbEntity
  8
STEMPEL
100
AcDbLine
 10
575.0
 20
275.0000000000001
 30
0.0
 11
575.0
 21
24.99999999999993
 31
0.0
  0
TEXT
  5
15C
330
20
100
AcDbEntity
  8
TEXT
100
AcDbText
 10
587.8240977813288
 20
129.100298576054
 30
0.0
 40
12.5
  1
EDV-Art.Nr. 00770.300X
 41
0.8
  7
GREEKS
100
AcDbText
  0
TEXT
  5
15D
330
20
100
AcDbEntity
  8
TEXT
100
AcDbText
 10
587.4593753944567
 20
106.5743538255658
 30
0.0
 40
10.0
  1
00770300W.DWG
 41
0.8
  7
GREEKS
100
AcDbText
  0
TEXT
  5
15E
330
20
100
AcDbEntity
  8
TEXT
100
AcDbText
 10
586.8555959778399
 20
77.11401425482641
 30
0.0
 40
12.5
  1
Bauvorhaben
 41
0.8
  7
GREEKS
100
AcDbText
  0
TEXT
  5
15F
330
20
100
AcDbEntity
  8
TEXT
100
AcDbText
 10
587.1948509522525
 20
256.3723320029449
 30
0.0
 40
12.5
  1
Benennung
 41
0.8
  7
GREEKS
100
AcDbText
  0
TEXT
  5
160
330
20
100
AcDbEntity
  8
TEXT
 62
     1
100
AcDbText
 10
478.6674728771919
 20
348.4411278615431
 30
0.0
 40
17.5
  1
Werkstoff: EN 10219 S235
 41
0.8
  7
GREEKS
100
AcDbText
  0
LINE
  5
162
330
20
100
AcDbEntity
  8
HILF
100
AcDbLine
 10
1050.0
 20
-0.0000000000002842
 30
0.0
 11
1050.0
 21
1485.0
 31
0.0
  0
LINE
  5
163
330
20
100
AcDbEntity
  8
STEMPEL
100
AcDbLine
 10
1025.0
 20
25.0
 30
0.0
 11
1025.0
 21
1460.0
 31
0.0
  0
TEXT
  5
164
330
20
100
AcDbEntity
  8
TEXT
 62
     1
100
AcDbText
 10
858.1192936356673
 20
220.372535722849
 30
0.0
 40
17.5
  1
00770300W
 41
0.8
  7
GREEKS
 72
     1
 11
918.1192936356675
 21
220.372535722849
 31
0.0
100
AcDbText
  0
TEXT
  5
165
330
20
100
AcDbEntity
  8
TEXT
100
AcDbText
 10
843.1002153742515
 20
130.185404446965
 30
0.0
 40
12.5
  1
ersetzt durch:
 41
0.8
  7
GREEKS
100
AcDbText
  0
TEXT
  5
166
330
20
100
AcDbEntity
  8
TEXT
100
AcDbText
 10
841.8096540742482
 20
182.9529559274992
 30
0.0
 40
12.5
  1
Ersatz für:
 41
0.8
  7
GREEKS
100
AcDbText
  0
TEXT
  5
167
330
20
100
AcDbEntity
  8
TEXT
100
AcDbText
 10
840.4468873940851
 20
255.7830086342841
 30
0.0
 40
12.5
  1
Zeichnungs Nr.
 41
0.8
  7
GREEKS
100
AcDbText
  0
LINE
  5
168
330
20
100
AcDbEntity
  8
HILF
100
AcDbLine
 10
841.8096540742482
 20
209.4495909238957
 30
0.0
 11
1012.147209831682
 21
209.4495909238957
 31
0.0
  0
LINE
  5
169
330
20
100
AcDbEntity
  8
VOLL
100
AcDbLine
 10
830.0
 20
150.0
 30
0.0
 11
1025.0
 21
150.0
 31
0.0
  0
LINE
  5
16A
330
20
100
AcDbEntity
  8
STEMPEL
100
AcDbLine
 10
830.0
 20
274.9999999999994
 30
0.0
 11
830.0
 21
100.0
 31
0.0
  0
LINE
  5
170
330
20
100
AcDbEntity
  8
MITTEL
100
AcDbLine
 10
613.4309542575691
 20
1082.999459861764
 30
0.0
 11
613.4309542575691
 21
782.9994598617639
 31
0.0
  0
LINE
  5
171
330
20
100
AcDbEntity
  8
STEMPEL
100
AcDbLine
 10
775.4309542575692
 20
1077.999459861764
 30
0.0
 11
451.4309542575692
 21
1077.999459861764
 31
0.0
  0
LINE
  5
172
330
20
100
AcDbEntity
  8
STEMPEL
100
AcDbLine
 10
769.1676844504843
 20
787.9994598617639
 30
0.0
 11
457.6942240646538
 21
787.9994598617638
 31
0.0
  0
LINE
  5
173
330
20
100
AcDbEntity
  8
STEMPEL
100
AcDbLine
 10
451.4309542575692
 20
1077.999459861764
 30
0.0
 11
451.4309542575692
 21
999.7894471910173
 31
0.0
  0
LINE
  5
174
330
20
100
AcDbEntity
  8
STEMPEL
100
AcDbLine
 10
775.4309542575692
 20
1077.999459861764
 30
0.0
 11
775.4309542575692
 21
999.7894471910173
 31
0.0
  0
LINE
  5
175
330
20
100
AcDbEntity
  8
STEMPEL
100
AcDbLine
 10
770.9309542575693
 20
967.9994598617637
 30
0.0
 11
455.9309542575691
 21
967.9994598617641
 31
0.0
  0
LINE
  5
176
330
20
100
AcDbEntity
  8
STEMPEL
100
AcDbLine
 10
455.9309542575691
 20
967.9994598617641
 30
0.0
 11
455.9309542575692
 21
797.9994598617639
 31
0.0
  0
LINE
  5
177
330
20
100
AcDbEntity
  8
STEMPEL
100
AcDbLine
 10
770.9309542575693
 20
967.9994598617637
 30
0.0
 11
770.9309542575692
 21
797.9994598617637
 31
0.0
  0
LINE
  5
17A
330
20
100
AcDbEntity
  8
HILF
100
AcDbLine
 10
771.3506918402059
 20
997.9994598617643
 30
0.0
 11
455.5112166749323
 21
997.999459861764
 31
0.0
  0
LINE
  5
17B
330
20
100
AcDbEntity
  8
STEMPEL
100
AcDbLine
 10
775.1654267264083
 20
996.2292763206917
 30
0.0
 11
770.9309542575693
 21
967.9994598617637
 31
0.0
  0
ARC
  5
17D
330
20
100
AcDbEntity
  8
STEMPEL
100
AcDbCircle
 10
751.4309542575691
 20
999.7894471910173
 30
0.0
 40
24.0
100
AcDbArc
 50
351.4692343900522
 51
0.0
  0
LINE
  5
17F
330
20
100
AcDbEntity
  8
STEMPEL
100
AcDbLine
 10
451.6964817887299
 20
996.2292763206917
 30
0.0
 11
455.930954257569
 21
967.9994598617637
 31
0.0
  0
ARC
  5
180
330
20
100
AcDbEntity
  8
STEMPEL
100
AcDbCircle
 10
475.4309542575692
 20
999.7894471910173
 30
0.0
 40
24.0
100
AcDbArc
 50
180.0
 51
188.5307656099478
  0
DIMENSION
  5
181
330
20
100
AcDbEntity
  8
BEM
100
AcDbDimension
  2
*D1
 10
427.267884901583
 20
1077.999459861764
 30
0.0
 11
409.7678849015831
 21
1038.737650757548
 31
0.0
 12
37.85548662905288
 22
-60.93952480182156
 32
0.0
 70
   128
  1
min.80
 71
     5
 42
-1.0
100
AcDbAlignedDimension
 13
451.4977984823457
 23
997.999459861764
 33
0.0
 14
451.4309542575692
 24
1077.999459861764
 34
0.0
 50
90.0
100
AcDbRotatedDimension
  0
LINE
  5
182
330
20
100
AcDbEntity
  8
STEMPEL
100
AcDbLine
 10
770.9309542575689
 20
797.9994598617638
 30
0.0
 11
455.9309542575692
 21
797.9994598617639
 31
0.0
  0
LINE
  5
183
330
20
100
AcDbEntity
  8
STEMPEL
100
AcDbLine
 10
455.9309542575692
 20
797.9994598617639
 30
0.0
 11
457.6942240646538
 21
787.9994598617638
 31
0.0
  0
LINE
  5
184
330
20
100
AcDbEntity
  8
STEMPEL
100
AcDbLine
 10
770.9309542575689
 20
797.9994598617639
 30
0.0
 11
769.1676844504843
 21
787.9994598617638
 31
0.0
  0
DIMENSION
  5
186
330
20
100
AcDbEntity
  8
BEM
100
AcDbDimension
  2
*D3
 10
387.7994678073503
 20
1077.999459861764
 30
0.0
 11
371.5494678073501
 21
932.9994598617641
 31
0.0
 70
    32
 71
     5
 42
290.0000000000001
  3
Standard
100
AcDbAlignedDimension
 13
457.6942240646538
 23
787.9994598617638
 33
0.0
 14
451.4309542575692
 24
1077.999459861764
 34
0.0
 50
90.0
100
AcDbRotatedDimension
1001
ACAD
1000
DSTYLE
1002
{
1070
    40
1040
5.0
1070
    41
1040
3.5
1070
    42
1040
1.0
1070
    43
1040
7.0
1070
    44
1040
1.0
1070
    47
1040
4.0
1070
    48
1040
4.0
1070
    73
1070
     0
1070
    74
1070
     0
1070
    77
1070
     1
1070
    78
1070
     8
1070
    79
1070
     2
1070
   140
1040
3.5
1070
   141
1040
1.5
1070
   146
1040
0.5
1070
   147
1040
1.5
1070
   172
1070
     1
1070
   178
1070
     1
1070
   179
1070
     2
1070
   271
1070
     2
1070
   272
1070
     2
1070
   284
1070
     8
1070
   285
1070
     8
1070
   286
1070
     8
1070
   340
1005
31
1002
}
  0
DIMENSION
  5
189
330
20
100
AcDbEntity
  8
BEM
100
AcDbDimension
  2
*D4
 10
451.4309542575692
 20
1100.208361473422
 30
0.0
 11
613.4309542575692
 21
1116.458361473422
 31
0.0
 70
    32
  1
%%c<>
 71
     5
 42
323.9999999999999
  3
Standard
100
AcDbAlignedDimension
 13
775.4309542575692
 23
1077.999459861764
 33
0.0
 14
451.4309542575692
 24
1077.999459861764
 34
0.0
100
AcDbRotatedDimension
1001
ACAD
1000
DSTYLE
1002
{
1070
    40
1040
5.0
1070
    41
1040
3.5
1070
    42
1040
1.0
1070
    43
1040
7.0
1070
    44
1040
1.0
1070
    47
1040
4.0
1070
    48
1040
4.0
1070
    73
1070
     0
1070
    74
1070
     0
1070
    77
1070
     1
1070
    78
1070
     8
1070
    79
1070
     2
1070
   140
1040
3.5
1070
   141
1040
1.5
1070
   146
1040
0.5
1070
   147
1040
1.5
1070
   172
1070
     1
1070
   178
1070
     1
1070
   179
1070
     2
1070
   271
1070
     2
1070
   272
1070
     2
1070
   284
1070
     8
1070
   285
1070
     8
1070
   286
1070
     8
1070
   340
1005
31
1002
}
  0
DIMENSION
  5
18A
330
20
100
AcDbEntity
  8
BEM
100
AcDbDimension
  2
*D5
 10
455.9309542575692
 20
732.0955439958343
 30
0.0
 11
613.4309542575692
 21
748.3455439958342
 31
0.0
 70
    32
  1
%%c<>
 71
     5
 42
314.9999999999999
  3
Standard
100
AcDbAlignedDimension
 13
770.9309542575692
 23
797.9994598617637
 33
0.0
 14
455.9309542575692
 24
797.9994598617639
 34
0.0
100
AcDbRotatedDimension
1001
ACAD
1000
DSTYLE
1002
{
1070
    40
1040
5.0
1070
    41
1040
3.5
1070
    42
1040
1.0
1070
    43
1040
7.0
1070
    44
1040
1.0
1070
    47
1040
4.0
1070
    48
1040
4.0
1070
    73
1070
     0
1070
    74
1070
     0
1070
    77
1070
     1
1070
    78
1070
     8
1070
    79
1070
     2
1070
   140
1040
3.5
1070
   141
1040
1.5
1070
   146
1040
0.5
1070
   147
1040
1.5
1070
   172
1070
     1
1070
   178
1070
     1
1070
   179
1070
     2
1070
   271
1070
     2
1070
   272
1070
     2
1070
   284
1070
     8
1070
   285
1070
     8
1070
   286
1070
     8
1070
   340
1005
31
1002
}
  0
ARC
  5
18D
330
20
100
AcDbEntity
  8
SCHRAFF
100
AcDbCircle
 10
461.3133510813067
 20
967.9994598617641
 30
0.0
 40
3.926722853745847
100
AcDbArc
 50
310.1822582651791
 51
49.81774173481962
  0
ARC
  5
18F
330
20
100
AcDbEntity
  8
SCHRAFF
100
AcDbCircle
 10
471.3133510813068
 20
967.9994598617641
 30
0.0
 40
3.926722853745847
100
AcDbArc
 50
310.1822582651791
 51
49.81774173481962
  0
ARC
  5
191
330
20
100
AcDbEntity
  8
SCHRAFF
100
AcDbCircle
 10
481.3133510813067
 20
967.9994598617641
 30
0.0
 40
3.926722853745847
100
AcDbArc
 50
310.1822582651791
 51
49.81774173481962
  0
ARC
  5
193
330
20
100
AcDbEntity
  8
SCHRAFF
100
AcDbCircle
 10
491.3133510813067
 20
967.9994598617641
 30
0.0
 40
3.926722853745847
100
AcDbArc
 50
310.1822582651791
 51
49.81774173481962
  0
ARC
  5
195
330
20
100
AcDbEntity
  8
SCHRAFF
100
AcDbCircle
 10
511.3133510813067
 20
967.9994598617637
 30
0.0
 40
3.926722853745847
100
AcDbArc
 50
310.1822582651791
 51
49.81774173481962
  0
ARC
  5
197
330
20
100
AcDbEntity
  8
SCHRAFF
100
AcDbCircle
 10
501.3133510813068
 20
967.9994598617637
 30
0.0
 40
3.926722853745847
100
AcDbArc
 50
310.1822582651791
 51
49.81774173481962
  0
ARC
  5
198
330
20
100
AcDbEntity
  8
SCHRAFF
100
AcDbCircle
 10
521.3133510813068
 20
967.9994598617637
 30
0.0
 40
3.926722853745847
100
AcDbArc
 50
310.1822582651791
 51
49.81774173481962
  0
ARC
  5
19B
330
20
100
AcDbEntity
  8
SCHRAFF
100
AcDbCircle
 10
541.3133510813067
 20
967.9994598617637
 30
0.0
 40
3.926722853745847
100
AcDbArc
 50
310.1822582651791
 51
49.81774173481962
  0
ARC
  5
19D
330
20
100
AcDbEntity
  8
SCHRAFF
100
AcDbCircle
 10
531.3133510813067
 20
967.9994598617637
 30
0.0
 40
3.926722853745847
100
AcDbArc
 50
310.1822582651791
 51
49.81774173481962
  0
ARC
  5
19E
330
20
100
AcDbEntity
  8
SCHRAFF
100
AcDbCircle
 10
551.3133510813068
 20
967.9994598617637
 30
0.0
 40
3.926722853745847
100
AcDbArc
 50
310.1822582651791
 51
49.81774173481962
  0
ARC
  5
1A1
330
20
100
AcDbEntity
  8
SCHRAFF
100
AcDbCircle
 10
571.3133510813068
 20
967.9994598617637
 30
0.0
 40
3.926722853745847
100
AcDbArc
 50
310.1822582651791
 51
49.81774173481962
  0
ARC
  5
1A3
330
20
100
AcDbEntity
  8
SCHRAFF
100
AcDbCircle
 10
561.3133510813067
 20
967.9994598617637
 30
0.0
 40
3.926722853745847
100
AcDbArc
 50
310.1822582651791
 51
49.81774173481962
  0
ARC
  5
1A4
330
20
100
AcDbEntity
  8
SCHRAFF
100
AcDbCircle
 10
581.3133510813067
 20
967.9994598617637
 30
0.0
 40
3.926722853745847
100
AcDbArc
 50
310.1822582651791
 51
49.81774173481962
  0
ARC
  5
1A7
330
20
100
AcDbEntity
  8
SCHRAFF
100
AcDbCircle
 10
601.3133510813068
 20
967.9994598617637
 30
0.0
 40
3.926722853745847
100
AcDbArc
 50
310.1822582651791
 51
49.81774173481962
  0
ARC
  5
1A9
330
20
100
AcDbEntity
  8
SCHRAFF
100
AcDbCircle
 10
591.3133510813067
 20
967.9994598617637
 30
0.0
 40
3.926722853745847
100
AcDbArc
 50
310.1822582651791
 51
49.81774173481962
  0
ARC
  5
1AA
330
20
100
AcDbEntity
  8
SCHRAFF
100
AcDbCircle
 10
611.3133510813067
 20
967.9994598617637
 30
0.0
 40
3.926722853745847
100
AcDbArc
 50
310.1822582651791
 51
49.81774173481962
  0
ARC
  5
1AC
330
20
100
AcDbEntity
  8
SCHRAFF
100
AcDbCircle
 10
458.6703322222632
 20
968.221788209116
 30
0.0
 40
4.229372484376504
100
AcDbArc
 50
138.9469603917399
 51
229.6313462659006
  0
INSERT
  5
1AD
330
20
100
AcDbEntity
  8
SCHRAFF
100
AcDbBlockReference
  2
*X2
 10
37.85548662905288
 20
-60.93952480182156
 30
0.0
1001
ACAD
1000
HATCH
1002
{
1070
    16
1000
_U,I
1040
0.1
1040
0.0
1070
     0
1002
}
  0
INSERT
  5
1AE
330
20
100
AcDbEntity
  8
SCHRAFF
100
AcDbBlockReference
  2
*X2
 10
1189.006421886085
 20
-60.93952480182156
 30
0.0
 41
-1.0
1001
ACAD
1000
HATCH
1002
{
1070
    16
1000
_U,I
1040
0.1
1040
0.0
1070
     0
1002
}
  0
ARC
  5
1AF
330
20
100
AcDbEntity
  8
SCHRAFF
100
AcDbCircle
 10
768.1915762928751
 20
968.221788209116
 30
0.0
 40
4.229372484376504
100
AcDbArc
 50
310.3686537340994
 51
41.05303960826003
  0
TEXT
  5
1B3
330
20
100
AcDbEntity
  8
TEXT
100
AcDbText
 10
587.8240977813288
 20
153.7583604396323
 30
0.0
 40
12.5
  1
an KA-Muffe DN300
 41
0.8
  7
GREEKS
100
AcDbText
  0
TEXT
  5
1B4
330
20
100
AcDbEntity
  8
TEXT
 62
     1
100
AcDbText
 10
606.4374780619234
 20
813.0238866733996
 30
0.0
 40
17.5
  1
KA-DN300
 50
90.0
 41
0.8
  7
GREEKS
100
AcDbText
  0
TEXT
  5
1B5
330
20
100
AcDbEntity
  8
TEXT
 62
     1
100
AcDbText
 10
606.4374780619234
 20
1009.41825431342
 30
0.0
 40
17.5
  1
DN300
 50
90.0
 41
0.8
  7
GREEKS
100
AcDbText
  0
TEXT
  5
1B8
330
20
100
AcDbEntity
  8
BEM
100
AcDbText
 10
1041.452885359359
 20
30.37012038345757
 30
0.0
 40
10.0
  1
Diese Zeichnung ist urheberrechtlich geschützt und bleibt unser Eigentum. Sie darf weder ganz noch teilweise vervielfältigt und nicht an Dritte weitergegeben werden.
 50
90.0
 41
0.8
  7
GREEKS
100
AcDbText
  0
TEXT
  5
1B9
330
20
100
AcDbEntity
  8
TEXT
100
AcDbText
 10
481.7206788119809
 20
224.2465228278895
 30
0.0
 40
10.0
  1
DIN EN1123-2
 41
0.8
  7
GREEKS
 72
     1
 11
524.1968692881714
 21
224.2465228278895
 31
0.0
100
AcDbText
  0
ARC
  5
257
330
20
100
AcDbEntity
  8
SCHRAFF
100
AcDbCircle
 10
761.3133510813067
 20
967.9994598617637
 30
0.0
 40
3.926722853745847
100
AcDbArc
 50
310.1822582651791
 51
49.81774173481962
  0
ARC
  5
258
330
20
100
AcDbEntity
  8
SCHRAFF
100
AcDbCircle
 10
741.3133510813068
 20
967.9994598617637
 30
0.0
 40
3.926722853745847
100
AcDbArc
 50
310.1822582651791
 51
49.81774173481962
  0
ARC
  5
259
330
20
100
AcDbEntity
  8
SCHRAFF
100
AcDbCircle
 10
751.3133510813068
 20
967.9994598617637
 30
0.0
 40
3.926722853745847
100
AcDbArc
 50
310.1822582651791
 51
49.81774173481962
  0
ARC
  5
25A
330
20
100
AcDbEntity
  8
SCHRAFF
100
AcDbCircle
 10
731.3133510813067
 20
967.9994598617637
 30
0.0
 40
3.926722853745847
100
AcDbArc
 50
310.1822582651791
 51
49.81774173481962
  0
ARC
  5
25B
330
20
100
AcDbEntity
  8
SCHRAFF
100
AcDbCircle
 10
711.3133510813067
 20
967.9994598617637
 30
0.0
 40
3.926722853745847
100
AcDbArc
 50
310.1822582651791
 51
49.81774173481962
  0
ARC
  5
25C
330
20
100
AcDbEntity
  8
SCHRAFF
100
AcDbCircle
 10
721.3133510813068
 20
967.9994598617637
 30
0.0
 40
3.926722853745847
100
AcDbArc
 50
310.1822582651791
 51
49.81774173481962
  0
ARC
  5
25D
330
20
100
AcDbEntity
  8
SCHRAFF
100
AcDbCircle
 10
701.3133510813068
 20
967.9994598617637
 30
0.0
 40
3.926722853745847
100
AcDbArc
 50
310.1822582651791
 51
49.81774173481962
  0
ARC
  5
25E
330
20
100
AcDbEntity
  8
SCHRAFF
100
AcDbCircle
 10
681.3133510813067
 20
967.9994598617637
 30
0.0
 40
3.926722853745847
100
AcDbArc
 50
310.1822582651791
 51
49.81774173481962
  0
ARC
  5
25F
330
20
100
AcDbEntity
  8
SCHRAFF
100
AcDbCircle
 10
691.3133510813068
 20
967.9994598617637
 30
0.0
 40
3.926722853745847
100
AcDbArc
 50
310.1822582651791
 51
49.81774173481962
  0
ARC
  5
260
330
20
100
AcDbEntity
  8
SCHRAFF
100
AcDbCircle
 10
671.3133510813068
 20
967.9994598617637
 30
0.0
 40
3.926722853745847
100
AcDbArc
 50
310.1822582651791
 51
49.81774173481962
  0
ARC
  5
261
330
20
100
AcDbEntity
  8
SCHRAFF
100
AcDbCircle
 10
651.3133510813068
 20
967.9994598617637
 30
0.0
 40
3.926722853745847
100
AcDbArc
 50
310.1822582651791
 51
49.81774173481962
  0
ARC
  5
262
330
20
100
AcDbEntity
  8
SCHRAFF
100
AcDbCircle
 10
661.3133510813067
 20
967.9994598617637
 30
0.0
 40
3.926722853745847
100
AcDbArc
 50
310.1822582651791
 51
49.81774173481962
  0
ARC
  5
263
330
20
100
AcDbEntity
  8
SCHRAFF
100
AcDbCircle
 10
641.3133510813068
 20
967.9994598617641
 30
0.0
 40
3.926722853745847
100
AcDbArc
 50
310.1822582651791
 51
49.81774173481962
  0
ARC
  5
264
330
20
100
AcDbEntity
  8
SCHRAFF
100
AcDbCircle
 10
631.3133510813067
 20
967.9994598617641
 30
0.0
 40
3.926722853745847
100
AcDbArc
 50
310.1822582651791
 51
49.81774173481962
  0
ARC
  5
265
330
20
100
AcDbEntity
  8
SCHRAFF
100
AcDbCircle
 10
621.3133510813068
 20
967.9994598617641
 30
0.0
 40
3.926722853745847
100
AcDbArc
 50
310.1822582651791
 51
49.81774173481962
  0
ENDSEC
  0
SECTION
  2
OBJECTS
  0
DICTIONARY
  5
C
330
0
100
AcDbDictionary
281
     1
  3
ACAD_COLOR
350
1B
  3
ACAD_GROUP
350
D
  3
ACAD_LAYOUT
350
19
  3
ACAD_MATERIAL
350
1A
  3
ACAD_MLINESTYLE
350
16
  3
ACAD_PLOTSETTINGS
350
18
  3
ACAD_PLOTSTYLENAME
350
E
  3
AcDbVariableDictionary
350
1DA
  0
DICTIONARY
  5
1B
102
{ACAD_REACTORS
330
C
102
}
330
C
100
AcDbDictionary
281
     1
  0
DICTIONARY
  5
D
102
{ACAD_REACTORS
330
C
102
}
330
C
100
AcDbDictionary
281
     1
  0
DICTIONARY
  5
19
102
{ACAD_REACTORS
330
C
102
}
330
C
100
AcDbDictionary
281
     1
  3
Layout1
350
1F
  3
Model
350
23
  0
DICTIONARY
  5
1A
102
{ACAD_REACTORS
330
C
102
}
330
C
100
AcDbDictionary
281
     1
  0
DICTIONARY
  5
16
102
{ACAD_REACTORS
330
C
102
}
330
C
100
AcDbDictionary
281
     1
  3
Standard
350
17
  0
DICTIONARY
  5
18
102
{ACAD_REACTORS
330
C
102
}
330
C
100
AcDbDictionary
281
     1
  0
ACDBDICTIONARYWDFLT
  5
E
102
{ACAD_REACTORS
330
C
102
}
330
C
100
AcDbDictionary
281
     1
  3
Normal
350
F
100
AcDbDictionaryWithDefault
340
F
  0
DICTIONARY
  5
1DA
102
{ACAD_REACTORS
330
C
102
}
330
C
100
AcDbDictionary
281
     1
  3
DIMASSOC
350
1DC
  3
HIDETEXT
350
1DB
  3
PROJECTNAME
350
1DD
  0
LAYOUT
  5
1F
102
{ACAD_REACTORS
330
19
102
}
330
19
100
AcDbPlotSettings
  1

  2
RICOH Aficio 2027 PCL 6
  4

  6

 40
0.0
 41
0.0
 42
0.0
 43
0.0
 44
0.0
 45
0.0
 46
0.0
 47
0.0
 48
0.0
 49
0.0
140
0.0
141
0.0
142
1.0
143
1.0
 70
   688
 72
     0
 73
     0
 74
     5
  7
monochrome1.ctb
 75
    16
147
1.0
 76
     0
 77
     2
 78
   300
148
0.0
149
0.0
100
AcDbLayout
  1
Layout1
 70
     0
 71
     1
 10
0.0
 20
0.0
 11
12.0
 21
9.0
 12
406.5307777401833
 22
50.00000000000001
 32
-2.58105543498411
 14
1.000000000000000E+20
 24
1.000000000000000E+20
 34
1.000000000000000E+20
 15
-1.000000000000000E+20
 25
-1.000000000000000E+20
 35
-1.000000000000000E+20
146
0.0
 13
0.0
 23
0.0
 33
0.0
 16
1.0
 26
0.0
 36
0.0
 17
0.0
 27
1.0
 37
0.0
 76
     0
330
1C
  0
LAYOUT
  5
23
102
{ACAD_REACTORS
330
19
102
}
330
19
100
AcDbPlotSettings
  1

  2
RICOH Aficio 2027 PCL 6
  4
A4
  6

 40
5.027083396911621
 41
5.027085304260253
 42
5.027084350585937
 43
5.027069091796875
 44
209.9733276367187
 45
296.9259948730469
 46
0.0
 47
0.0
 48
0.0
 49
0.0
140
0.0
141
0.0
142
1.0
143
1.0
 70
 11952
 72
     0
 73
     1
 74
     0
  7
monochrome1.ctb
 75
     0
147
1.0
 76
     0
 77
     2
 78
   300
148
5749.737974108374
149
225.2379483828901
100
AcDbLayout
  1
Model
 70
     1
 71
     0
 10
0.0
 20
0.0
 11
12.0
 21
9.0
 12
0.0
 22
0.0
 32
0.0
 14
0.0
 24
0.0
 34
0.0
 15
0.0
 25
0.0
 35
0.0
146
0.0
 13
0.0
 23
0.0
 33
0.0
 16
1.0
 26
0.0
 36
0.0
 17
0.0
 27
1.0
 37
0.0
 76
     0
330
20
  0
MLINESTYLE
  5
17
102
{ACAD_REACTORS
330
16
102
}
330
16
100
AcDbMlineStyle
  2
STANDARD
 70
     0
  3

 62
   256
 51
90.0
 52
90.0
 71
     2
 49
0.5
 62
   256
  6
BYLAYER
 49
-0.5
 62
   256
  6
BYLAYER
  0
ACDBPLACEHOLDER
  5
F
102
{ACAD_REACTORS
330
E
102
}
330
E
  0
DICTIONARYVAR
  5
1DC
102
{ACAD_REACTORS
330
1DA
102
}
330
1DA
100
DictionaryVariables
280
     0
  1
2
  0
DICTIONARYVAR
  5
1DB
102
{ACAD_REACTORS
330
1DA
102
}
330
1DA
100
DictionaryVariables
280
     0
  1
1
  0
DICTIONARYVAR
  5
1DD
102
{ACAD_REACTORS
330
1DA
102
}
330
1DA
100
DictionaryVariables
280
     0
  1

  0
ENDSEC
  0
EOF
