  0
SECTION
  2
HEADER
  9
$ACADVER
  1
AC1018
  9
$ACADMAINTVER
 70
     2
  9
$DWGCODEPAGE
  3
ANSI_1252
  9
$INSBASE
 10
0.0
 20
0.0
 30
0.0
  9
$EXTMIN
 10
-0.0192209888436992
 20
-0.0271839699362317
 30
-0.0000000000000058
  9
$EXTMAX
 10
420.0192288123714
 20
594.0271950346398
 30
0.0000000000000104
  9
$LIMMIN
 10
0.0
 20
0.0
  9
$LIMMAX
 10
419.9999999999999
 20
594.0
  9
$ORTHOMODE
 70
     1
  9
$REGENMODE
 70
     1
  9
$FILLMODE
 70
     1
  9
$QTEXTMODE
 70
     0
  9
$MIRRTEXT
 70
     1
  9
$LTSCALE
 40
20.0
  9
$ATTMODE
 70
     1
  9
$TEXTSIZE
 40
3.5
  9
$TRACEWID
 40
0.5
  9
$TEXTSTYLE
  7
STANDARD
  9
$CLAYER
  8
SCHRAFF
  9
$CELTYPE
  6
ByLayer
  9
$CECOLOR
 62
   256
  9
$CELTSCALE
 40
1.0
  9
$DISPSILH
 70
     0
  9
$DIMSCALE
 40
2.0
  9
$DIMASZ
 40
3.5
  9
$DIMEXO
 40
1.0
  9
$DIMDLI
 40
7.0
  9
$DIMRND
 40
0.0
  9
$DIMDLE
 40
0.0
  9
$DIMEXE
 40
1.0
  9
$DIMTP
 40
0.0
  9
$DIMTM
 40
0.0
  9
$DIMTXT
 40
3.5
  9
$DIMCEN
 40
1.5
  9
$DIMTSZ
 40
0.0
  9
$DIMTOL
 70
     0
  9
$DIMLIM
 70
     0
  9
$DIMTIH
 70
     0
  9
$DIMTOH
 70
     0
  9
$DIMSE1
 70
     0
  9
$DIMSE2
 70
     0
  9
$DIMTAD
 70
     1
  9
$DIMZIN
 70
     8
  9
$DIMBLK
  1

  9
$DIMASO
 70
     1
  9
$DIMSHO
 70
     0
  9
$DIMPOST
  1

  9
$DIMAPOST
  1

  9
$DIMALT
 70
     0
  9
$DIMALTD
 70
     2
  9
$DIMALTF
 40
25.4
  9
$DIMLFAC
 40
1.0
  9
$DIMTOFL
 70
     1
  9
$DIMTVP
 40
0.0
  9
$DIMTIX
 70
     0
  9
$DIMSOXD
 70
     0
  9
$DIMSAH
 70
     0
  9
$DIMBLK1
  1

  9
$DIMBLK2
  1

  9
$DIMSTYLE
  2
Standard
  9
$DIMCLRD
 70
     0
  9
$DIMCLRE
 70
     0
  9
$DIMCLRT
 70
     1
  9
$DIMTFAC
 40
0.5
  9
$DIMGAP
 40
1.5
  9
$DIMJUST
 70
     0
  9
$DIMSD1
 70
     0
  9
$DIMSD2
 70
     0
  9
$DIMTOLJ
 70
     1
  9
$DIMTZIN
 70
     8
  9
$DIMALTZ
 70
     8
  9
$DIMALTTZ
 70
     8
  9
$DIMUPT
 70
     0
  9
$DIMDEC
 70
     2
  9
$DIMTDEC
 70
     2
  9
$DIMALTU
 70
     2
  9
$DIMALTTD
 70
     2
  9
$DIMTXSTY
  7
STANDARD
  9
$DIMAUNIT
 70
     0
  9
$DIMADEC
 70
     2
  9
$DIMALTRND
 40
0.0
  9
$DIMAZIN
 70
     2
  9
$DIMDSEP
 70
    46
  9
$DIMATFIT
 70
     3
  9
$DIMFRAC
 70
     0
  9
$DIMLDRBLK
  1

  9
$DIMLUNIT
 70
     2
  9
$DIMLWD
 70
    -2
  9
$DIMLWE
 70
    -2
  9
$DIMTMOVE
 70
     0
  9
$LUNITS
 70
     2
  9
$LUPREC
 70
     2
  9
$SKETCHINC
 40
1.0
  9
$FILLETRAD
 40
8.0
  9
$AUNITS
 70
     0
  9
$AUPREC
 70
     0
  9
$MENU
  1
ACAD
  9
$ELEVATION
 40
0.0
  9
$PELEVATION
 40
0.0
  9
$THICKNESS
 40
0.0
  9
$LIMCHECK
 70
     0
  9
$CHAMFERA
 40
0.0
  9
$CHAMFERB
 40
0.0
  9
$CHAMFERC
 40
0.0
  9
$CHAMFERD
 40
0.0
  9
$SKPOLY
 70
     0
  9
$TDCREATE
 40
2455397.864709028
  9
$TDUCREATE
 40
2455397.781375695
  9
$TDUPDATE
 40
2455714.594719942
  9
$TDUUPDATE
 40
2455714.511386609
  9
$TDINDWG
 40
0.0751306250
  9
$TDUSRTIMER
 40
0.0751306250
  9
$USRTIMER
 70
     1
  9
$ANGBASE
 50
0.0
  9
$ANGDIR
 70
     0
  9
$PDMODE
 70
     0
  9
$PDSIZE
 40
0.0
  9
$PLINEWID
 40
0.0
  9
$SPLFRAME
 70
     0
  9
$SPLINETYPE
 70
     6
  9
$SPLINESEGS
 70
     8
  9
$HANDSEED
  5
923
  9
$SURFTAB1
 70
     6
  9
$SURFTAB2
 70
     6
  9
$SURFTYPE
 70
     6
  9
$SURFU
 70
     6
  9
$SURFV
 70
     6
  9
$UCSBASE
  2

  9
$UCSNAME
  2

  9
$UCSORG
 10
0.0
 20
0.0
 30
0.0
  9
$UCSXDIR
 10
1.0
 20
0.0
 30
0.0
  9
$UCSYDIR
 10
0.0
 20
1.0
 30
0.0
  9
$UCSORTHOREF
  2

  9
$UCSORTHOVIEW
 70
     0
  9
$UCSORGTOP
 10
0.0
 20
0.0
 30
0.0
  9
$UCSORGBOTTOM
 10
0.0
 20
0.0
 30
0.0
  9
$UCSORGLEFT
 10
0.0
 20
0.0
 30
0.0
  9
$UCSORGRIGHT
 10
0.0
 20
0.0
 30
0.0
  9
$UCSORGFRONT
 10
0.0
 20
0.0
 30
0.0
  9
$UCSORGBACK
 10
0.0
 20
0.0
 30
0.0
  9
$PUCSBASE
  2

  9
$PUCSNAME
  2

  9
$PUCSORG
 10
0.0
 20
0.0
 30
0.0
  9
$PUCSXDIR
 10
1.0
 20
0.0
 30
0.0
  9
$PUCSYDIR
 10
0.0
 20
1.0
 30
0.0
  9
$PUCSORTHOREF
  2

  9
$PUCSORTHOVIEW
 70
     0
  9
$PUCSORGTOP
 10
0.0
 20
0.0
 30
0.0
  9
$PUCSORGBOTTOM
 10
0.0
 20
0.0
 30
0.0
  9
$PUCSORGLEFT
 10
0.0
 20
0.0
 30
0.0
  9
$PUCSORGRIGHT
 10
0.0
 20
0.0
 30
0.0
  9
$PUCSORGFRONT
 10
0.0
 20
0.0
 30
0.0
  9
$PUCSORGBACK
 10
0.0
 20
0.0
 30
0.0
  9
$USERI1
 70
     0
  9
$USERI2
 70
     0
  9
$USERI3
 70
     0
  9
$USERI4
 70
     0
  9
$USERI5
 70
     0
  9
$USERR1
 40
0.0
  9
$USERR2
 40
0.0
  9
$USERR3
 40
0.0
  9
$USERR4
 40
0.0
  9
$USERR5
 40
0.0
  9
$WORLDVIEW
 70
     1
  9
$SHADEDGE
 70
     3
  9
$SHADEDIF
 70
    70
  9
$TILEMODE
 70
     1
  9
$MAXACTVP
 70
    16
  9
$PINSBASE
 10
0.0
 20
0.0
 30
0.0
  9
$PLIMCHECK
 70
     0
  9
$PEXTMIN
 10
1.000000000000000E+20
 20
1.000000000000000E+20
 30
1.000000000000000E+20
  9
$PEXTMAX
 10
-1.000000000000000E+20
 20
-1.000000000000000E+20
 30
-1.000000000000000E+20
  9
$PLIMMIN
 10
0.0
 20
0.0
  9
$PLIMMAX
 10
12.0
 20
9.0
  9
$UNITMODE
 70
     0
  9
$VISRETAIN
 70
     0
  9
$PLINEGEN
 70
     0
  9
$PSLTSCALE
 70
     0
  9
$TREEDEPTH
 70
  3020
  9
$CMLSTYLE
  2
Standard
  9
$CMLJUST
 70
     0
  9
$CMLSCALE
 40
1.0
  9
$PROXYGRAPHICS
 70
     1
  9
$MEASUREMENT
 70
     0
  9
$CELWEIGHT
370
    -1
  9
$ENDCAPS
280
     0
  9
$JOINSTYLE
280
     0
  9
$LWDISPLAY
290
     0
  9
$INSUNITS
 70
     0
  9
$HYPERLINKBASE
  1

  9
$STYLESHEET
  1
monochrome 1.ctb
  9
$XEDIT
290
     1
  9
$CEPSNTYPE
380
     0
  9
$PSTYLEMODE
290
     1
  9
$FINGERPRINTGUID
  2
{D68B0D02-A558-11D7-B632-000102183313}
  9
$VERSIONGUID
  2
{9606845F-B382-4971-90D7-82FF33F523CF}
  9
$EXTNAMES
290
     1
  9
$PSVPSCALE
 40
0.0
  9
$OLESTARTUP
290
     0
  9
$SORTENTS
280
   127
  9
$INDEXCTL
280
     0
  9
$HIDETEXT
280
     0
  9
$XCLIPFRAME
290
     0
  9
$HALOGAP
280
     0
  9
$OBSCOLOR
 70
   257
  9
$OBSLTYPE
280
     0
  9
$INTERSECTIONDISPLAY
280
     0
  9
$INTERSECTIONCOLOR
 70
   257
  9
$DIMASSOC
280
     1
  9
$PROJECTNAME
  1

  0
ENDSEC
  0
SECTION
  2
CLASSES
  0
CLASS
  1
ACDBDICTIONARYWDFLT
  2
AcDbDictionaryWithDefault
  3
ObjectDBX Classes
 90
        0
 91
        1
280
     0
281
     0
  0
CLASS
  1
DICTIONARYVAR
  2
AcDbDictionaryVar
  3
ObjectDBX Classes
 90
        0
 91
        2
280
     0
281
     0
  0
ENDSEC
  0
SECTION
  2
TABLES
  0
TABLE
  2
VPORT
  5
8
330
0
100
AcDbSymbolTable
 70
     2
  0
VPORT
  5
922
330
8
100
AcDbSymbolTableRecord
100
AcDbViewportTableRecord
  2
*Active
 70
     0
 10
0.0
 20
0.0
 11
1.0
 21
1.0
 12
210.0
 22
297.0
 13
0.0
 23
0.0
 14
1.0
 24
1.0
 15
10.0
 25
10.0
 16
0.0
 26
0.0
 36
1.0
 17
0.0
 27
0.0
 37
0.0
 40
594.0
 41
1.334231805929919
 42
50.0
 43
0.0
 44
0.0
 50
0.0
 51
0.0
 71
     0
 72
  1500
 73
     1
 74
     0
 75
     0
 76
     0
 77
     0
 78
     0
281
     0
 65
     1
110
0.0
120
0.0
130
0.0
111
1.0
121
0.0
131
0.0
112
0.0
122
1.0
132
0.0
 79
     0
146
0.0
  0
ENDTAB
  0
TABLE
  2
LTYPE
  5
5
330
0
100
AcDbSymbolTable
 70
     2
  0
LTYPE
  5
13
330
5
100
AcDbSymbolTableRecord
100
AcDbLinetypeTableRecord
  2
ByBlock
 70
     0
  3

 72
    65
 73
     0
 40
0.0
  0
LTYPE
  5
14
330
5
100
AcDbSymbolTableRecord
100
AcDbLinetypeTableRecord
  2
ByLayer
 70
     0
  3

 72
    65
 73
     0
 40
0.0
  0
LTYPE
  5
15
330
5
100
AcDbSymbolTableRecord
100
AcDbLinetypeTableRecord
  2
Continuous
 70
     0
  3
Solid line
 72
    65
 73
     0
 40
0.0
  0
LTYPE
  5
25
330
5
100
AcDbSymbolTableRecord
100
AcDbLinetypeTableRecord
  2
STRICHPUNKT
 70
     0
  3
__ . __ . __ . __ . __ . __ . __ . __ . __ . __
 72
    65
 73
     4
 40
1.0
 49
0.5
 74
     0
 49
-0.25
 74
     0
 49
0.0
 74
     0
 49
-0.25
 74
     0
  0
ENDTAB
  0
TABLE
  2
LAYER
  5
2
330
0
100
AcDbSymbolTable
 70
     9
  0
LAYER
  5
10
330
2
100
AcDbSymbolTableRecord
100
AcDbLayerTableRecord
  2
0
 70
     0
 62
     7
  6
Continuous
370
    -3
390
F
  0
LAYER
  5
2A
330
2
100
AcDbSymbolTableRecord
100
AcDbLayerTableRecord
  2
VOLL
 70
     0
 62
     1
  6
Continuous
370
    -3
390
F
  0
LAYER
  5
2B
330
2
100
AcDbSymbolTableRecord
100
AcDbLayerTableRecord
  2
HILF
 70
     0
 62
     2
  6
Continuous
370
    -3
390
F
  0
LAYER
  5
2C
330
2
100
AcDbSymbolTableRecord
100
AcDbLayerTableRecord
  2
MITTEL
 70
     0
 62
     2
  6
STRICHPUNKT
370
    -3
390
F
  0
LAYER
  5
2F
330
2
100
AcDbSymbolTableRecord
100
AcDbLayerTableRecord
  2
BEM
 70
     0
 62
     7
  6
Continuous
370
    -3
390
F
  0
LAYER
  5
30
330
2
100
AcDbSymbolTableRecord
100
AcDbLayerTableRecord
  2
STEMPEL
 70
     0
 62
     3
  6
Continuous
370
    -3
390
F
  0
LAYER
  5
31
330
2
100
AcDbSymbolTableRecord
100
AcDbLayerTableRecord
  2
TEXT
 70
     0
 62
     7
  6
Continuous
370
    -3
390
F
  0
LAYER
  5
390
330
2
100
AcDbSymbolTableRecord
100
AcDbLayerTableRecord
  2
DEFPOINTS
 70
     0
 62
     7
  6
Continuous
290
     0
370
    -3
390
F
  0
LAYER
  5
391
330
2
100
AcDbSymbolTableRecord
100
AcDbLayerTableRecord
  2
SCHRAFF
 70
     0
 62
     7
  6
Continuous
370
    -3
390
F
  0
ENDTAB
  0
TABLE
  2
STYLE
  5
3
330
0
100
AcDbSymbolTable
 70
     2
  0
STYLE
  5
11
330
3
100
AcDbSymbolTableRecord
100
AcDbTextStyleTableRecord
  2
STANDARD
 70
     0
 40
0.0
 41
0.8
 50
0.0
 71
     0
 42
3.5
  3
simplex.shx
  4

  0
STYLE
  5
24
330
3
100
AcDbSymbolTableRecord
100
AcDbTextStyleTableRecord
  2
GREEKS
 70
     0
 40
0.0
 41
0.8
 50
0.0
 71
     0
 42
2.5
  3
SIMPLEX.shx
  4

  0
ENDTAB
  0
TABLE
  2
VIEW
  5
6
330
0
100
AcDbSymbolTable
 70
     0
  0
ENDTAB
  0
TABLE
  2
UCS
  5
7
330
0
100
AcDbSymbolTable
 70
     0
  0
ENDTAB
  0
TABLE
  2
APPID
  5
9
330
0
100
AcDbSymbolTable
 70
     2
  0
APPID
  5
12
330
9
100
AcDbSymbolTableRecord
100
AcDbRegAppTableRecord
  2
ACAD
 70
     0
  0
APPID
  5
8C5
330
9
100
AcDbSymbolTableRecord
100
AcDbRegAppTableRecord
  2
RAK
 70
     0
  0
ENDTAB
  0
TABLE
  2
DIMSTYLE
  5
A
330
0
100
AcDbSymbolTable
 70
     1
100
AcDbDimStyleTable
 71
     1
340
9D
  0
DIMSTYLE
105
9D
102
{ACAD_REACTORS
330
6BA
330
6C5
330
7A6
330
7CE
330
810
102
}
330
A
100
AcDbSymbolTableRecord
100
AcDbDimStyleTableRecord
  2
Standard
 70
     0
340
11
  0
ENDTAB
  0
TABLE
  2
BLOCK_RECORD
  5
1
330
0
100
AcDbSymbolTable
 70
     6
  0
BLOCK_RECORD
  5
1E
102
{ACAD_XDICTIONARY
360
A0
102
}
330
1
100
AcDbSymbolTableRecord
100
AcDbBlockTableRecord
  2
*Model_Space
340
21
  0
BLOCK_RECORD
  5
1A
102
{ACAD_XDICTIONARY
360
A2
102
}
330
1
100
AcDbSymbolTableRecord
100
AcDbBlockTableRecord
  2
*Paper_Space
340
1D
  0
BLOCK_RECORD
  5
22
330
1
100
AcDbSymbolTableRecord
100
AcDbBlockTableRecord
  2
LOGO
340
0
102
{BLKREFS
331
9B
102
}
  0
BLOCK_RECORD
  5
6D4
330
1
100
AcDbSymbolTableRecord
100
AcDbBlockTableRecord
  2
*D1
340
0
  0
BLOCK_RECORD
  5
6EC
330
1
100
AcDbSymbolTableRecord
100
AcDbBlockTableRecord
  2
*D2
340
0
  0
BLOCK_RECORD
  5
7A7
330
1
100
AcDbSymbolTableRecord
100
AcDbBlockTableRecord
  2
*D3
340
0
  0
BLOCK_RECORD
  5
7CF
330
1
100
AcDbSymbolTableRecord
100
AcDbBlockTableRecord
  2
*D4
340
0
  0
BLOCK_RECORD
  5
811
330
1
100
AcDbSymbolTableRecord
100
AcDbBlockTableRecord
  2
*D5
340
0
  0
ENDTAB
  0
ENDSEC
  0
SECTION
  2
BLOCKS
  0
BLOCK
  5
35
330
1E
100
AcDbEntity
  8
0
100
AcDbBlockBegin
  2
*Model_Space
 70
     0
 10
0.0
 20
0.0
 30
0.0
  3
*Model_Space
  1

  0
ENDBLK
  5
36
330
1E
100
AcDbEntity
  8
0
100
AcDbBlockEnd
  0
BLOCK
  5
33
330
1A
100
AcDbEntity
 67
     1
  8
0
100
AcDbBlockBegin
  2
*Paper_Space
 70
     0
 10
0.0
 20
0.0
 30
0.0
  3
*Paper_Space
  1

  0
ENDBLK
  5
34
330
1A
100
AcDbEntity
 67
     1
  8
0
100
AcDbBlockEnd
  0
BLOCK
  5
37
330
22
100
AcDbEntity
  8
0
100
AcDbBlockBegin
  2
LOGO
 70
     0
 10
0.0
 20
0.0
 30
0.0
  3
LOGO
  1

  0
ARC
  5
38
330
22
100
AcDbEntity
  8
0
100
AcDbCircle
 10
11.59973089678112
 20
-9.271599258481501
 30
0.0
 40
4.5
100
AcDbArc
 50
270.0
 51
231.0575587310159
  0
LINE
  5
39
330
22
100
AcDbEntity
  8
0
100
AcDbLine
 10
3.599730896781125
 20
-4.771599258481529
 30
0.0
 11
3.599730896781153
 21
-11.77159925848133
 31
0.0
  0
LINE
  5
3A
330
22
100
AcDbEntity
  8
0
100
AcDbLine
 10
2.599730896781125
 20
-4.771599258481529
 30
0.0
 11
2.599730896781153
 21
-11.77159925848133
 31
0.0
  0
CIRCLE
  5
3B
330
22
100
AcDbEntity
  8
0
100
AcDbCircle
 10
11.59973089678112
 20
-9.271599258481501
 30
0.0
 40
3.5
  0
ARC
  5
3C
330
22
100
AcDbEntity
  8
0
100
AcDbCircle
 10
31.59973089678115
 20
-9.271599258481472
 30
0.0
 40
4.5
100
AcDbArc
 50
270.0
 51
231.0575587310182
  0
LINE
  5
3D
330
22
100
AcDbEntity
  8
0
100
AcDbLine
 10
17.59973089678112
 20
-4.771599258481472
 30
0.0
 11
17.59973089678115
 21
-13.77159925848147
 31
0.0
  0
ARC
  5
3E
330
22
100
AcDbEntity
  8
0
100
AcDbCircle
 10
22.59973089678116
 20
-7.271599258481472
 30
0.0
 40
2.5
100
AcDbArc
 50
293.1161887722295
 51
90.0
  0
CIRCLE
  5
3F
330
22
100
AcDbEntity
  8
0
100
AcDbCircle
 10
31.59973089678115
 20
-9.271599258481472
 30
0.0
 40
3.5
  0
ARC
  5
40
330
22
100
AcDbEntity
  8
0
100
AcDbCircle
 10
4.599730896781153
 20
-11.77159925848133
 30
0.0
 40
1.0
100
AcDbArc
 50
180.0
 51
270.0
  0
ARC
  5
41
330
22
100
AcDbEntity
  8
0
100
AcDbCircle
 10
4.599730896781153
 20
-11.77159925848133
 30
0.0
 40
2.0
100
AcDbArc
 50
179.9999999999992
 51
270.0
  0
LINE
  5
42
330
22
100
AcDbEntity
  8
0
100
AcDbLine
 10
11.59973089678115
 20
-13.77159925848144
 30
0.0
 11
4.599730896781153
 21
-13.77159925848147
 31
0.0
  0
LINE
  5
43
330
22
100
AcDbEntity
  8
0
100
AcDbLine
 10
8.771303772034769
 20
-12.77159925848136
 30
0.0
 11
4.599730896781153
 21
-12.77159925848133
 31
0.0
  0
LINE
  5
44
330
22
100
AcDbEntity
  8
0
100
AcDbLine
 10
31.59973089678115
 20
-13.77159925848147
 30
0.0
 11
23.6715276665056
 21
-13.77159925848144
 31
0.0
  0
LINE
  5
45
330
22
100
AcDbEntity
  8
0
100
AcDbLine
 10
23.56565672307022
 20
-9.51278021337896
 30
0.0
 11
24.4388546544846
 21
-12.77159925848144
 31
0.0
  0
LINE
  5
46
330
22
100
AcDbEntity
  8
0
100
AcDbLine
 10
22.59973089678116
 20
-9.771599258481472
 30
0.0
 11
18.59973089678112
 21
-9.771599258481472
 31
0.0
  0
LINE
  5
47
330
22
100
AcDbEntity
  8
0
100
AcDbLine
 10
18.59973089678115
 20
-13.77159925848144
 30
0.0
 11
17.59973089678115
 21
-13.77159925848144
 31
0.0
  0
LINE
  5
48
330
22
100
AcDbEntity
  8
0
100
AcDbLine
 10
18.59973089678115
 20
-9.771599258481472
 30
0.0
 11
18.59973089678115
 21
-13.77159925848144
 31
0.0
  0
LINE
  5
49
330
22
100
AcDbEntity
  8
0
100
AcDbLine
 10
22.59973089678116
 20
-9.771599258481472
 30
0.0
 11
23.67152766650562
 21
-13.77159925848147
 31
0.0
  0
ARC
  5
4A
330
22
100
AcDbEntity
  8
0
100
AcDbCircle
 10
22.59973089678116
 20
-7.271599258481472
 30
0.0
 40
2.5
100
AcDbArc
 50
270.0
 51
270.0000000000007
  0
LINE
  5
4B
330
22
100
AcDbEntity
  8
0
100
AcDbLine
 10
28.77130377203494
 20
-12.77159925848147
 30
0.0
 11
24.43885465448463
 21
-12.77159925848144
 31
0.0
  0
LINE
  5
4C
330
22
100
AcDbEntity
  8
0
100
AcDbLine
 10
3.599730896781125
 20
-4.771599258481472
 30
0.0
 11
2.599730896781125
 21
-4.771599258481472
 31
0.0
  0
LINE
  5
4D
330
22
100
AcDbEntity
  8
0
100
AcDbLine
 10
22.59973089678116
 20
-8.771599258481472
 30
0.0
 11
18.59973089678115
 21
-8.771599258481472
 31
0.0
  0
LINE
  5
4E
330
22
100
AcDbEntity
  8
0
100
AcDbLine
 10
22.59973089678116
 20
-5.771599258481472
 30
0.0
 11
18.59973089678115
 21
-5.771599258481472
 31
0.0
  0
LINE
  5
4F
330
22
100
AcDbEntity
  8
0
100
AcDbLine
 10
22.59973089678116
 20
-4.771599258481472
 30
0.0
 11
17.59973089678115
 21
-4.771599258481472
 31
0.0
  0
LINE
  5
50
330
22
100
AcDbEntity
  8
0
100
AcDbLine
 10
18.59973089678115
 20
-5.771599258481472
 30
0.0
 11
18.59973089678115
 21
-8.771599258481472
 31
0.0
  0
ARC
  5
51
330
22
100
AcDbEntity
  8
0
100
AcDbCircle
 10
22.59973089678116
 20
-7.271599258481472
 30
0.0
 40
1.5
100
AcDbArc
 50
270.0
 51
90.0
  0
ENDBLK
  5
52
330
22
100
AcDbEntity
  8
0
100
AcDbBlockEnd
  0
BLOCK
  5
6DE
330
6D4
100
AcDbEntity
  8
0
100
AcDbBlockBegin
  2
*D1
 70
     1
 10
0.0
 20
0.0
 30
0.0
  3
*D1
  1

  0
LINE
  5
835
330
6D4
100
AcDbEntity
  8
BEM
 62
     0
370
    -2
100
AcDbLine
 10
258.1499999999999
 20
244.91897417913
 30
0.0
 11
258.1499999999999
 21
210.1011187965212
 31
0.0
  0
LINE
  5
836
330
6D4
100
AcDbEntity
  8
BEM
 62
     0
370
    -2
100
AcDbLine
 10
191.8499999999999
 20
244.91897417913
 30
0.0
 11
191.8499999999999
 21
210.1011187965212
 31
0.0
  0
LINE
  5
837
330
6D4
100
AcDbEntity
  8
BEM
 62
     0
370
    -2
100
AcDbLine
 10
251.1499999999998
 20
212.1011187965212
 30
0.0
 11
198.8499999999999
 21
212.1011187965212
 31
0.0
  0
SOLID
  5
838
330
6D4
100
AcDbEntity
  8
BEM
 62
     0
100
AcDbTrace
 10
251.1499999999998
 20
213.2677854631879
 30
0.0
 11
251.1499999999998
 21
210.9344521298545
 31
0.0
 12
258.1499999999999
 22
212.1011187965212
 32
0.0
 13
258.1499999999999
 23
212.1011187965212
 33
0.0
  0
SOLID
  5
839
330
6D4
100
AcDbEntity
  8
BEM
 62
     0
100
AcDbTrace
 10
198.8499999999999
 20
213.2677854631879
 30
0.0
 11
198.8499999999999
 21
210.9344521298545
 31
0.0
 12
191.8499999999999
 22
212.1011187965212
 32
0.0
 13
191.8499999999999
 23
212.1011187965212
 33
0.0
  0
MTEXT
  5
83A
330
6D4
100
AcDbEntity
  8
BEM
 62
     1
100
AcDbMText
 10
224.9999999999999
 20
218.6011187965212
 30
0.0
 40
7.0
 41
0.0
 71
     5
 72
     1
  1
\A1;%%c66.3
 73
     1
 44
1.0
  0
POINT
  5
83B
330
6D4
100
AcDbEntity
  8
DEFPOINTS
 62
     0
100
AcDbPoint
 10
258.1499999999999
 20
246.91897417913
 30
0.0
  0
POINT
  5
83C
330
6D4
100
AcDbEntity
  8
DEFPOINTS
 62
     0
100
AcDbPoint
 10
191.8499999999999
 20
246.91897417913
 30
0.0
  0
POINT
  5
83D
330
6D4
100
AcDbEntity
  8
DEFPOINTS
 62
     0
100
AcDbPoint
 10
191.8499999999999
 20
212.1011187965212
 30
0.0
  0
ENDBLK
  5
6DF
330
6D4
100
AcDbEntity
  8
0
100
AcDbBlockEnd
  0
BLOCK
  5
6F6
330
6EC
100
AcDbEntity
  8
0
100
AcDbBlockBegin
  2
*D2
 70
     1
 10
0.0
 20
0.0
 30
0.0
  3
*D2
  1

  0
LINE
  5
862
330
6EC
100
AcDbEntity
  8
BEM
 62
     0
370
    -2
100
AcDbLine
 10
193.92016
 20
446.9189741791299
 30
0.0
 11
179.3346670942958
 21
446.9189741791299
 31
0.0
  0
LINE
  5
863
330
6EC
100
AcDbEntity
  8
BEM
 62
     0
370
    -2
100
AcDbLine
 10
192.85
 20
423.5189741791298
 30
0.0
 11
179.3346670942958
 21
423.5189741791298
 31
0.0
  0
LINE
  5
864
330
6EC
100
AcDbEntity
  8
BEM
 62
     0
370
    -2
100
AcDbLine
 10
181.3346670942958
 20
439.9189741791299
 30
0.0
 11
181.3346670942958
 21
430.5189741791298
 31
0.0
  0
SOLID
  5
865
330
6EC
100
AcDbEntity
  8
BEM
 62
     0
100
AcDbTrace
 10
180.1680004276291
 20
439.9189741791299
 30
0.0
 11
182.5013337609624
 21
439.9189741791299
 31
0.0
 12
181.3346670942958
 22
446.9189741791299
 32
0.0
 13
181.3346670942958
 23
446.9189741791299
 33
0.0
  0
SOLID
  5
866
330
6EC
100
AcDbEntity
  8
BEM
 62
     0
100
AcDbTrace
 10
180.1680004276291
 20
430.5189741791298
 30
0.0
 11
182.5013337609624
 21
430.5189741791298
 31
0.0
 12
181.3346670942958
 22
423.5189741791298
 32
0.0
 13
181.3346670942958
 23
423.5189741791298
 33
0.0
  0
MTEXT
  5
867
330
6EC
100
AcDbEntity
  8
BEM
 62
     1
100
AcDbMText
 10
174.8346670942957
 20
435.2189741791299
 30
0.0
 40
7.0
 41
0.0
 71
     5
 72
     1
  1
\A1;23.4
 11
0.0000000000000001
 21
1.0
 31
0.0
 73
     1
 44
1.0
  0
POINT
  5
868
330
6EC
100
AcDbEntity
  8
DEFPOINTS
 62
     0
100
AcDbPoint
 10
195.92016
 20
446.9189741791299
 30
0.0
  0
POINT
  5
869
330
6EC
100
AcDbEntity
  8
DEFPOINTS
 62
     0
100
AcDbPoint
 10
194.85
 20
423.5189741791298
 30
0.0
  0
POINT
  5
86A
330
6EC
100
AcDbEntity
  8
DEFPOINTS
 62
     0
100
AcDbPoint
 10
181.3346670942958
 20
423.5189741791298
 30
0.0
  0
ENDBLK
  5
6F7
330
6EC
100
AcDbEntity
  8
0
100
AcDbBlockEnd
  0
BLOCK
  5
7B1
330
7A7
100
AcDbEntity
  8
0
100
AcDbBlockBegin
  2
*D3
 70
     1
 10
0.0
 20
0.0
 30
0.0
  3
*D3
  1

  0
LINE
  5
82E
330
7A7
100
AcDbEntity
  8
BEM
 62
     0
370
    -2
100
AcDbLine
 10
254.8069999999999
 20
244.91897417913
 30
0.0
 11
254.8069999999999
 21
225.240539731572
 31
0.0
  0
LINE
  5
82F
330
7A7
100
AcDbEntity
  8
BEM
 62
     0
370
    -2
100
AcDbLine
 10
247.8069999999999
 20
227.240539731572
 30
0.0
 11
214.7999999999999
 21
227.240539731572
 31
0.0
  0
SOLID
  5
830
330
7A7
100
AcDbEntity
  8
BEM
 62
     0
100
AcDbTrace
 10
247.8069999999999
 20
228.4072063982386
 30
0.0
 11
247.8069999999999
 21
226.0738730649053
 31
0.0
 12
254.8069999999999
 22
227.240539731572
 32
0.0
 13
254.8069999999999
 23
227.240539731572
 33
0.0
  0
MTEXT
  5
831
330
7A7
100
AcDbEntity
  8
BEM
 62
     1
100
AcDbMText
 10
224.9999999999999
 20
234.9072063982386
 30
0.0
 40
7.0
 41
0.0
 71
     5
 72
     1
  1
\A1;Rp2
 73
     1
 44
1.0
  0
POINT
  5
832
330
7A7
100
AcDbEntity
  8
DEFPOINTS
 62
     0
100
AcDbPoint
 10
254.8069999999999
 20
246.91897417913
 30
0.0
  0
POINT
  5
833
330
7A7
100
AcDbEntity
  8
DEFPOINTS
 62
     0
100
AcDbPoint
 10
195.1929999999999
 20
246.91897417913
 30
0.0
  0
POINT
  5
834
330
7A7
100
AcDbEntity
  8
DEFPOINTS
 62
     0
100
AcDbPoint
 10
195.1929999999999
 20
227.240539731572
 30
0.0
  0
ENDBLK
  5
7B2
330
7A7
100
AcDbEntity
  8
0
100
AcDbBlockEnd
  0
BLOCK
  5
7D9
330
7CF
100
AcDbEntity
  8
0
100
AcDbBlockBegin
  2
*D4
 70
     1
 10
0.0
 20
0.0
 30
0.0
  3
*D4
  1

  0
LINE
  5
8A4
330
7CF
100
AcDbEntity
  8
BEM
 62
     0
370
    -2
100
AcDbLine
 10
255.15
 20
425.5189741791299
 30
0.0
 11
255.15
 21
458.5258632516813
 31
0.0
  0
LINE
  5
8A5
330
7CF
100
AcDbEntity
  8
BEM
 62
     0
370
    -2
100
AcDbLine
 10
194.85
 20
425.5189741791298
 30
0.0
 11
194.85
 21
458.5258632516813
 31
0.0
  0
LINE
  5
8A6
330
7CF
100
AcDbEntity
  8
BEM
 62
     0
370
    -2
100
AcDbLine
 10
248.15
 20
456.5258632516814
 30
0.0
 11
201.85
 21
456.5258632516814
 31
0.0
  0
SOLID
  5
8A7
330
7CF
100
AcDbEntity
  8
BEM
 62
     0
100
AcDbTrace
 10
248.15
 20
457.692529918348
 30
0.0
 11
248.15
 21
455.3591965850146
 31
0.0
 12
255.15
 22
456.5258632516814
 32
0.0
 13
255.15
 23
456.5258632516814
 33
0.0
  0
SOLID
  5
8A8
330
7CF
100
AcDbEntity
  8
BEM
 62
     0
100
AcDbTrace
 10
201.85
 20
457.692529918348
 30
0.0
 11
201.85
 21
455.3591965850146
 31
0.0
 12
194.85
 22
456.5258632516814
 32
0.0
 13
194.85
 23
456.5258632516814
 33
0.0
  0
MTEXT
  5
8A9
330
7CF
100
AcDbEntity
  8
BEM
 62
     1
100
AcDbMText
 10
225.0
 20
463.0258632516813
 30
0.0
 40
7.0
 41
0.0
 71
     5
 72
     1
  1
\A1;R2
 73
     1
 44
1.0
  0
POINT
  5
8AA
330
7CF
100
AcDbEntity
  8
DEFPOINTS
 62
     0
100
AcDbPoint
 10
255.15
 20
423.5189741791299
 30
0.0
  0
POINT
  5
8AB
330
7CF
100
AcDbEntity
  8
DEFPOINTS
 62
     0
100
AcDbPoint
 10
194.85
 20
423.5189741791298
 30
0.0
  0
POINT
  5
8AC
330
7CF
100
AcDbEntity
  8
DEFPOINTS
 62
     0
100
AcDbPoint
 10
194.85
 20
456.5258632516814
 30
0.0
  0
ENDBLK
  5
7DA
330
7CF
100
AcDbEntity
  8
0
100
AcDbBlockEnd
  0
BLOCK
  5
81B
330
811
100
AcDbEntity
  8
0
100
AcDbBlockBegin
  2
*D5
 70
     1
 10
0.0
 20
0.0
 30
0.0
  3
*D5
  1

  0
LINE
  5
915
330
811
100
AcDbEntity
  8
BEM
 62
     0
370
    -2
100
AcDbLine
 10
189.8499999999999
 20
246.9189741791299
 30
0.0
 11
163.6665319476819
 21
246.9189741791299
 31
0.0
  0
LINE
  5
916
330
811
100
AcDbEntity
  8
BEM
 62
     0
370
    -2
100
AcDbLine
 10
193.92016
 20
446.9189741791299
 30
0.0
 11
163.6665319476819
 21
446.9189741791299
 31
0.0
  0
LINE
  5
917
330
811
100
AcDbEntity
  8
BEM
 62
     0
370
    -2
100
AcDbLine
 10
165.6665319476819
 20
253.9189741791299
 30
0.0
 11
165.6665319476819
 21
439.9189741791299
 31
0.0
  0
SOLID
  5
918
330
811
100
AcDbEntity
  8
BEM
 62
     0
100
AcDbTrace
 10
164.4998652810152
 20
253.9189741791299
 30
0.0
 11
166.8331986143486
 21
253.9189741791299
 31
0.0
 12
165.6665319476819
 22
246.9189741791299
 32
0.0
 13
165.6665319476819
 23
246.9189741791299
 33
0.0
  0
SOLID
  5
919
330
811
100
AcDbEntity
  8
BEM
 62
     0
100
AcDbTrace
 10
164.4998652810153
 20
439.9189741791299
 30
0.0
 11
166.8331986143486
 21
439.9189741791299
 31
0.0
 12
165.6665319476819
 22
446.9189741791299
 32
0.0
 13
165.6665319476819
 23
446.9189741791299
 33
0.0
  0
MTEXT
  5
91A
330
811
100
AcDbEntity
  8
BEM
 62
     1
100
AcDbMText
 10
159.1665319476819
 20
346.9189741791299
 30
0.0
 40
7.0
 41
0.0
 71
     5
 72
     1
  1
\A1;200
 11
0.0000000000000001
 21
1.0
 31
0.0
 73
     1
 44
1.0
  0
POINT
  5
91B
330
811
100
AcDbEntity
  8
DEFPOINTS
 62
     0
100
AcDbPoint
 10
191.8499999999999
 20
246.9189741791299
 30
0.0
  0
POINT
  5
91C
330
811
100
AcDbEntity
  8
DEFPOINTS
 62
     0
100
AcDbPoint
 10
195.92016
 20
446.9189741791299
 30
0.0
  0
POINT
  5
91D
330
811
100
AcDbEntity
  8
DEFPOINTS
 62
     0
100
AcDbPoint
 10
165.6665319476819
 20
446.9189741791299
 30
0.0
  0
ENDBLK
  5
81C
330
811
100
AcDbEntity
  8
0
100
AcDbBlockEnd
  0
ENDSEC
  0
SECTION
  2
ENTITIES
  0
LINE
  5
57
330
1E
100
AcDbEntity
  8
STEMPEL
100
AcDbLine
 10
410.0
 20
110.0
 30
0.0
 11
39.99999999999997
 21
110.0
 31
0.0
  0
LINE
  5
58
330
1E
100
AcDbEntity
  8
STEMPEL
100
AcDbLine
 10
136.0000000000001
 20
109.9999999999999
 30
0.0
 11
136.0
 21
9.999999999999971
 31
0.0
  0
LINE
  5
59
330
1E
100
AcDbEntity
  8
STEMPEL
100
AcDbLine
 10
220.0
 20
110.0
 30
0.0
 11
220.0
 21
9.999999999999971
 31
0.0
  0
LINE
  5
5A
330
1E
100
AcDbEntity
  8
STEMPEL
100
AcDbLine
 10
332.0
 20
109.9999999999997
 30
0.0
 11
332.0
 21
40.0
 31
0.0
  0
LINE
  5
5B
330
1E
100
AcDbEntity
  8
STEMPEL
100
AcDbLine
 10
135.9999999999999
 20
29.99999999999997
 30
0.0
 11
39.99999999999997
 21
29.99999999999997
 31
0.0
  0
LINE
  5
5C
330
1E
100
AcDbEntity
  8
STEMPEL
100
AcDbLine
 10
410.0
 20
40.0
 30
0.0
 11
136.0000000000001
 21
39.99999999999997
 31
0.0
  0
LINE
  5
5D
330
1E
100
AcDbEntity
  8
STEMPEL
100
AcDbLine
 10
410.0
 20
80.0
 30
0.0
 11
136.0000000000001
 21
79.99999999999994
 31
0.0
  0
LINE
  5
5E
330
1E
100
AcDbEntity
  8
VOLL
100
AcDbLine
 10
54.00000000000009
 20
110.0
 30
0.0
 11
53.99999999999997
 21
9.999999999999971
 31
0.0
  0
LINE
  5
5F
330
1E
100
AcDbEntity
  8
VOLL
100
AcDbLine
 10
94.00000000000011
 20
109.9999999999999
 30
0.0
 11
94.0
 21
9.999999999999971
 31
0.0
  0
LINE
  5
60
330
1E
100
AcDbEntity
  8
VOLL
100
AcDbLine
 10
114.0000000000001
 20
109.9999999999999
 30
0.0
 11
114.0
 21
9.999999999999971
 31
0.0
  0
LINE
  5
61
330
1E
100
AcDbEntity
  8
VOLL
100
AcDbLine
 10
154.0000000000001
 20
79.99999999999994
 30
0.0
 11
154.0000000000001
 21
39.99999999999997
 31
0.0
  0
LINE
  5
62
330
1E
100
AcDbEntity
  8
VOLL
100
AcDbLine
 10
180.0000000000001
 20
109.9999999999998
 30
0.0
 11
180.0
 21
39.99999999999997
 31
0.0
  0
LINE
  5
63
330
1E
100
AcDbEntity
  8
HILF
100
AcDbLine
 10
40.00000000000008
 20
100.0
 30
0.0
 11
136.0000000000001
 21
100.0
 31
0.0
  0
LINE
  5
64
330
1E
100
AcDbEntity
  8
HILF
100
AcDbLine
 10
40.00000000000008
 20
90.00000000000005
 30
0.0
 11
136.0000000000001
 21
90.00000000000005
 31
0.0
  0
LINE
  5
65
330
1E
100
AcDbEntity
  8
HILF
100
AcDbLine
 10
40.00000000000008
 20
79.99999999999994
 30
0.0
 11
136.0000000000001
 21
79.99999999999994
 31
0.0
  0
LINE
  5
66
330
1E
100
AcDbEntity
  8
HILF
100
AcDbLine
 10
40.00000000000008
 20
69.99999999999994
 30
0.0
 11
136.0000000000001
 21
69.99999999999994
 31
0.0
  0
LINE
  5
67
330
1E
100
AcDbEntity
  8
HILF
100
AcDbLine
 10
40.00000000000008
 20
59.99999999999997
 30
0.0
 11
136.0000000000001
 21
59.99999999999997
 31
0.0
  0
LINE
  5
68
330
1E
100
AcDbEntity
  8
HILF
100
AcDbLine
 10
40.00000000000008
 20
49.99999999999997
 30
0.0
 11
136.0000000000001
 21
49.99999999999997
 31
0.0
  0
LINE
  5
69
330
1E
100
AcDbEntity
  8
HILF
100
AcDbLine
 10
40.00000000000008
 20
39.99999999999997
 30
0.0
 11
136.0000000000001
 21
39.99999999999997
 31
0.0
  0
LINE
  5
6A
330
1E
100
AcDbEntity
  8
HILF
100
AcDbLine
 10
136.0000000000001
 20
69.99999999999994
 30
0.0
 11
220.0
 21
69.99999999999994
 31
0.0
  0
LINE
  5
6B
330
1E
100
AcDbEntity
  8
HILF
100
AcDbLine
 10
136.0000000000001
 20
59.99999999999997
 30
0.0
 11
220.0
 21
59.99999999999997
 31
0.0
  0
LINE
  5
6C
330
1E
100
AcDbEntity
  8
HILF
100
AcDbLine
 10
136.0000000000001
 20
49.99999999999997
 30
0.0
 11
220.0
 21
49.99999999999997
 31
0.0
  0
LINE
  5
6D
330
1E
100
AcDbEntity
  8
HILF
100
AcDbLine
 10
224.7736801096948
 20
84.03758247564139
 30
0.0
 11
324.8353916556311
 21
84.03758247564139
 31
0.0
  0
LINE
  5
6E
330
1E
100
AcDbEntity
  8
HILF
100
AcDbLine
 10
224.7736801096948
 20
69.99999999999994
 30
0.0
 11
324.835391655631
 21
69.99999999999994
 31
0.0
  0
LINE
  5
6F
330
1E
100
AcDbEntity
  8
HILF
100
AcDbLine
 10
224.7736801096948
 20
59.99999999999997
 30
0.0
 11
324.835391655631
 21
59.99999999999997
 31
0.0
  0
LINE
  5
70
330
1E
100
AcDbEntity
  8
HILF
100
AcDbLine
 10
224.7736801096948
 20
49.99999999999997
 30
0.0
 11
324.835391655631
 21
49.99999999999997
 31
0.0
  0
LINE
  5
71
330
1E
100
AcDbEntity
  8
VOLL
100
AcDbLine
 10
332.0
 20
60.0
 30
0.0
 11
410.0
 21
60.0
 31
0.0
  0
LINE
  5
72
330
1E
100
AcDbEntity
  8
HILF
100
AcDbLine
 10
336.7238616296993
 20
83.77983636955827
 30
0.0
 11
404.8588839326728
 21
83.77983636955827
 31
0.0
  0
LINE
  5
73
330
1E
100
AcDbEntity
  8
HILF
100
AcDbLine
 10
223.4909699289885
 20
14.89398258028314
 30
0.0
 11
404.8588839326728
 21
14.89398258028314
 31
0.0
  0
TEXT
  5
74
330
1E
100
AcDbEntity
  8
TEXT
100
AcDbText
 10
63.86165979631819
 20
18.67381894984132
 30
0.0
 40
4.0
  1
Änderung
 41
0.8
  7
GREEKS
 72
     1
 11
74.60451693917534
 21
18.67381894984132
 31
0.0
100
AcDbText
  0
TEXT
  5
75
330
1E
100
AcDbEntity
  8
TEXT
100
AcDbText
 10
143.5163572150377
 20
102.4620895087088
 30
0.0
 40
5.0
  1
Maßstab
 41
0.8
  7
GREEKS
100
AcDbText
  0
TEXT
  5
76
330
1E
100
AcDbEntity
  8
TEXT
100
AcDbText
 10
184.2858954734051
 20
102.4184168434819
 30
0.0
 40
5.0
  1
Zul. Abw.
 41
0.8
  7
GREEKS
100
AcDbText
  0
TEXT
  5
77
330
1E
100
AcDbEntity
  8
TEXT
100
AcDbText
 10
224.877940380901
 20
102.5489328011779
 30
0.0
 40
5.0
  1
Benennung
 41
0.8
  7
GREEKS
100
AcDbText
  0
TEXT
  5
78
330
1E
100
AcDbEntity
  8
TEXT
100
AcDbText
 10
336.178754957634
 20
102.3132034537136
 30
0.0
 40
5.0
  1
Zeichnungs Nr.
 41
0.8
  7
GREEKS
100
AcDbText
  0
TEXT
  5
79
330
1E
100
AcDbEntity
  8
TEXT
100
AcDbText
 10
224.742238391136
 20
30.84560570193057
 30
0.0
 40
5.0
  1
Bauvorhaben
 41
0.8
  7
GREEKS
100
AcDbText
  0
TEXT
  5
7A
330
1E
100
AcDbEntity
  8
TEXT
100
AcDbText
 10
336.7238616296993
 20
73.1811823709997
 30
0.0
 40
5.0
  1
Ersatz für:
 41
0.8
  7
GREEKS
100
AcDbText
  0
TEXT
  5
7B
330
1E
100
AcDbEntity
  8
TEXT
100
AcDbText
 10
48.26641107045756
 20
13.65465846027192
 30
0.0
 40
4.0
  1
Index
 50
90.0
 41
0.8
  7
GREEKS
100
AcDbText
  0
TEXT
  5
7C
330
1E
100
AcDbEntity
  8
TEXT
100
AcDbText
 10
100.0934676075481
 20
18.6715626933981
 30
0.0
 40
4.0
  1
Tag
 41
0.8
  7
GREEKS
 72
     1
 11
103.8268009408814
 21
18.6715626933981
 31
0.0
100
AcDbText
  0
TEXT
  5
7D
330
1E
100
AcDbEntity
  8
TEXT
100
AcDbText
 10
119.0122744386592
 20
18.59324216966408
 30
0.0
 40
4.0
  1
Name
 41
0.8
  7
GREEKS
 72
     1
 11
125.3360839624688
 21
18.59324216966408
 31
0.0
100
AcDbText
  0
TEXT
  5
7E
330
1E
100
AcDbEntity
  8
TEXT
100
AcDbText
 10
162.3311673153651
 20
73.31880501229926
 30
0.0
 40
4.0
  1
Tag
 41
0.8
  7
GREEKS
100
AcDbText
  0
TEXT
  5
7F
330
1E
100
AcDbEntity
  8
TEXT
100
AcDbText
 10
192.4626584226295
 20
73.30961091915225
 30
0.0
 40
4.0
  1
Name
 41
0.8
  7
GREEKS
100
AcDbText
  0
TEXT
  5
80
330
1E
100
AcDbEntity
  8
TEXT
100
AcDbText
 10
137.5836127167615
 20
63.62990369617964
 30
0.0
 40
4.0
  1
Gez.
 41
0.8
  7
GREEKS
100
AcDbText
  0
TEXT
  5
81
330
1E
100
AcDbEntity
  8
TEXT
100
AcDbText
 10
137.5515086571672
 20
53.68926291428377
 30
0.0
 40
4.0
  1
Gepr.
 41
0.8
  7
GREEKS
100
AcDbText
  0
TEXT
  5
82
330
1E
100
AcDbEntity
  8
TEXT
100
AcDbText
 10
137.6006777387304
 20
43.52946389649807
 30
0.0
 40
4.0
  1
Norm.
 41
0.8
  7
GREEKS
100
AcDbText
  0
LINE
  5
83
330
1E
100
AcDbEntity
  8
STEMPEL
100
AcDbLine
 10
49.99999999999989
 20
10.0
 30
0.0
 11
410.0
 21
10.0
 31
0.0
  0
TEXT
  5
84
330
1E
100
AcDbEntity
  8
TEXT
100
AcDbText
 10
337.2400861497006
 20
52.07416177878602
 30
0.0
 40
5.0
  1
ersetzt durch:
 41
0.8
  7
GREEKS
100
AcDbText
  0
LINE
  5
85
330
1E
100
AcDbEntity
  8
STEMPEL
100
AcDbLine
 10
410.0
 20
10.0
 30
0.0
 11
39.99999999999989
 21
10.0
 31
0.0
  0
LINE
  5
86
330
1E
100
AcDbEntity
  8
STEMPEL
100
AcDbLine
 10
410.0
 20
10.0
 30
0.0
 11
410.0
 21
584.0
 31
0.0
  0
LINE
  5
87
330
1E
100
AcDbEntity
  8
STEMPEL
100
AcDbLine
 10
40.0
 20
10.0
 30
0.0
 11
39.99999999999989
 21
584.0
 31
0.0
  0
LINE
  5
88
330
1E
100
AcDbEntity
  8
STEMPEL
100
AcDbLine
 10
410.0
 20
584.0
 30
0.0
 11
39.99999999999989
 21
584.0
 31
0.0
  0
LINE
  5
89
330
1E
100
AcDbEntity
  8
HILF
100
AcDbLine
 10
0.0
 20
0.0
 30
0.0
 11
-0.0000000000001137
 21
594.0
 31
0.0
  0
LINE
  5
8A
330
1E
100
AcDbEntity
  8
HILF
100
AcDbLine
 10
419.9999999999999
 20
594.0000000000002
 30
0.0
 11
0.0
 21
594.0
 31
0.0
  0
LINE
  5
8B
330
1E
100
AcDbEntity
  8
HILF
100
AcDbLine
 10
420.0
 20
0.0
 30
0.0
 11
0.0
 21
0.0
 31
0.0
  0
LINE
  5
8C
330
1E
100
AcDbEntity
  8
HILF
100
AcDbLine
 10
31.08767135713856
 20
297.0
 30
0.0
 11
0.0000000000001137
 21
297.0
 31
0.0
  0
TEXT
  5
8D
330
1E
100
AcDbEntity
  8
TEXT
100
AcDbText
 10
138.622109822104
 20
73.14025471151666
 30
0.0
 40
4.0
  1
2011
 41
0.8
  7
GREEKS
100
AcDbText
  0
LINE
  5
8E
330
1E
100
AcDbEntity
  8
HILF
100
AcDbLine
 10
420.0
 20
-0.0000000000001137
 30
0.0
 11
419.9999999999999
 21
594.0
 31
0.0
  0
TEXT
  5
8F
330
1E
100
AcDbEntity
  8
VOLL
100
AcDbText
 10
78.07675471698113
 20
31.02594776470585
 30
0.0
 40
1.8
  1

  7
GREEKS
100
AcDbText
  0
TEXT
  5
90
330
1E
100
AcDbEntity
  8
TEXT
100
AcDbText
 10
41.85509950977674
 20
111.6719999999999
 30
0.0
 40
5.0
  1
Erstellt mit AUTOCAD 2004
 41
0.8
  7
GREEKS
100
AcDbText
  0
TEXT
  5
91
330
1E
100
AcDbEntity
  8
TEXT
100
AcDbText
 10
194.4216048581257
 20
63.0896391972351
 30
0.0
 40
4.0
  1
Koeh
 41
0.8
  7
GREEKS
 72
     1
 11
199.6787477152685
 21
63.0896391972351
 31
0.0
100
AcDbText
  0
TEXT
  5
92
330
1E
100
AcDbEntity
  8
TEXT
 62
     1
100
AcDbText
 10
344.776441331977
 20
88.14901428913959
 30
0.0
 40
7.0
  1
00727050W
 41
0.8
  7
GREEKS
 72
     1
 11
368.776441331977
 21
88.14901428913959
 31
0.0
100
AcDbText
  0
TEXT
  5
93
330
1E
100
AcDbEntity
  8
TEXT
 62
     1
100
AcDbText
 10
150.5006306481887
 20
88.14901428913959
 30
0.0
 40
7.0
  1
1:2
 41
0.8
  7
GREEKS
100
AcDbText
  0
TEXT
  5
94
330
1E
100
AcDbEntity
  8
TEXT
100
AcDbText
 10
160.7037590129979
 20
63.10765040825732
 30
0.0
 40
4.0
  1
01.06.
 41
0.8
  7
GREEKS
 72
     1
 11
167.4085209177598
 21
63.10765040825732
 31
0.0
100
AcDbText
  0
TEXT
  5
95
330
1E
100
AcDbEntity
  8
TEXT
 62
     1
100
AcDbText
 10
224.1256729169179
 20
87.41748789253779
 30
0.0
 40
7.0
  1
Verlängerungsrohr DN50
 41
0.8
  7
GREEKS
100
AcDbText
  0
TEXT
  5
96
330
1E
100
AcDbEntity
  8
TEXT
100
AcDbText
 10
225.1296391125315
 20
71.50334417585288
 30
0.0
 40
5.0
  1
mit Gewinde R2 und Rp2
 41
0.8
  7
GREEKS
100
AcDbText
  0
TEXT
  5
98
330
1E
100
AcDbEntity
  8
TEXT
100
AcDbText
 10
225.1296391125315
 20
51.64011943042158
 30
0.0
 40
5.0
  1
EDV-Art.Nr. 00727.050X
 41
0.8
  7
GREEKS
100
AcDbText
  0
TEXT
  5
99
330
1E
100
AcDbEntity
  8
TEXT
100
AcDbText
 10
224.9837501577827
 20
42.62974153022632
 30
0.0
 40
4.0
  1
00727050W.DWG
 41
0.8
  7
GREEKS
100
AcDbText
  0
TEXT
  5
9A
330
1E
100
AcDbEntity
  8
TEXT
100
AcDbText
 10
182.626132208084
 20
90.76363841023022
 30
0.0
 40
4.0
  1
DIN EN1124-3
 41
0.8
  7
GREEKS
 72
     1
 11
199.6166083985602
 21
90.76363841023022
 31
0.0
100
AcDbText
  0
INSERT
  5
9B
330
1E
100
AcDbEntity
  8
STEMPEL
100
AcDbBlockReference
  2
LOGO
 10
140.9955485457794
 20
45.02105276448322
 30
0.0
 41
2.0
 42
2.0
 43
2.0
  0
TEXT
  5
118
330
1E
100
AcDbEntity
  8
BEM
100
AcDbText
 10
417.3022923857165
 20
10.16790107998849
 30
0.0
 40
4.0
  1
Diese Zeichnung ist urheberrechtlich geschützt und bleibt unser Eigentum. Sie darf weder ganz noch teilweise verfielfältigt und nicht an Dritte weitergegeben werden.
 50
90.0
 41
0.8
  7
GREEKS
100
AcDbText
  0
LINE
  5
66F
330
1E
100
AcDbEntity
  8
MITTEL
100
AcDbLine
 10
225.0
 20
451.9189741791299
 30
0.0
 11
224.9999999999999
 21
241.9189741791299
 31
0.0
  0
LINE
  5
670
102
{ACAD_REACTORS
330
790
102
}
330
1E
100
AcDbEntity
  8
STEMPEL
100
AcDbLine
 10
254.07984
 20
446.9189741791299
 30
0.0
 11
195.92016
 21
446.9189741791299
 31
0.0
  0
DIMENSION
  5
6BA
330
1E
100
AcDbEntity
  8
BEM
100
AcDbDimension
  2
*D1
 10
191.8499999999999
 20
212.1011187965212
 30
0.0
 11
224.9999999999999
 21
218.6011187965212
 31
0.0
 70
    32
  1
%%c<>
 71
     5
 42
66.29999999999995
  3
Standard
100
AcDbAlignedDimension
 13
258.1499999999999
 23
246.91897417913
 33
0.0
 14
191.8499999999999
 24
246.91897417913
 34
0.0
 50
180.0
100
AcDbRotatedDimension
1001
ACAD
1000
DSTYLE
1002
{
1070
    40
1040
2.0
1070
    41
1040
3.5
1070
    42
1040
1.0
1070
    43
1040
7.0
1070
    44
1040
1.0
1070
    73
1070
     0
1070
    74
1070
     0
1070
    77
1070
     1
1070
    78
1070
     8
1070
    79
1070
     2
1070
   140
1040
3.5
1070
   141
1040
1.5
1070
   146
1040
0.5142857142857144
1070
   147
1040
1.5
1070
   172
1070
     1
1070
   178
1070
     1
1070
   179
1070
     2
1070
   271
1070
     2
1070
   272
1070
     2
1070
   284
1070
     8
1070
   285
1070
     8
1070
   286
1070
     8
1002
}
  0
LINE
  5
6BC
102
{ACAD_REACTORS
330
79C
102
}
330
1E
100
AcDbEntity
  8
HILF
100
AcDbLine
 10
254.8069999999999
 20
302.9189741791299
 30
0.0
 11
254.8069999999999
 21
246.91897417913
 31
0.0
  0
LINE
  5
6BD
102
{ACAD_REACTORS
330
79C
102
}
330
1E
100
AcDbEntity
  8
STEMPEL
100
AcDbLine
 10
253.328
 20
302.9189741791299
 30
0.0
 11
253.3279999999999
 21
246.91897417913
 31
0.0
  0
LINE
  5
6BE
102
{ACAD_REACTORS
330
79C
102
}
330
1E
100
AcDbEntity
  8
STEMPEL
100
AcDbLine
 10
258.1499999999999
 20
302.9189741791299
 30
0.0
 11
258.1499999999999
 21
246.91897417913
 31
0.0
  0
LINE
  5
6BF
102
{ACAD_REACTORS
330
79C
330
886
102
}
330
1E
100
AcDbEntity
  8
STEMPEL
100
AcDbLine
 10
191.8499999999999
 20
302.9189741791299
 30
0.0
 11
258.1499999999999
 21
302.9189741791299
 31
0.0
  0
LINE
  5
6C0
102
{ACAD_REACTORS
330
79C
102
}
330
1E
100
AcDbEntity
  8
STEMPEL
100
AcDbLine
 10
191.8499999999999
 20
246.9189741791299
 30
0.0
 11
258.1499999999999
 21
246.91897417913
 31
0.0
  0
LINE
  5
6C1
330
1E
100
AcDbEntity
  8
STEMPEL
100
AcDbLine
 10
191.8499999999999
 20
302.9189741791299
 30
0.0
 11
191.8499999999999
 21
246.91897417913
 31
0.0
  0
DIMENSION
  5
6C5
330
1E
100
AcDbEntity
  8
BEM
100
AcDbDimension
  2
*D2
 10
181.3346670942958
 20
423.5189741791298
 30
0.0
 11
174.8346670942957
 21
435.2189741791299
 31
0.0
 70
    32
 71
     5
 42
23.40000000000009
  3
Standard
100
AcDbAlignedDimension
 13
195.92016
 23
446.9189741791299
 33
0.0
 14
194.85
 24
423.5189741791298
 34
0.0
 50
90.0
100
AcDbRotatedDimension
1001
ACAD
1000
DSTYLE
1002
{
1070
    40
1040
2.0
1070
    41
1040
3.5
1070
    42
1040
1.0
1070
    43
1040
7.0
1070
    44
1040
1.0
1070
    73
1070
     0
1070
    74
1070
     0
1070
    77
1070
     1
1070
    78
1070
     8
1070
    79
1070
     2
1070
   140
1040
3.5
1070
   141
1040
1.5
1070
   146
1040
0.5142857142857144
1070
   147
1040
1.5
1070
   172
1070
     1
1070
   178
1070
     1
1070
   179
1070
     2
1070
   271
1070
     2
1070
   272
1070
     2
1070
   284
1070
     8
1070
   285
1070
     8
1070
   286
1070
     8
1002
}
  0
LINE
  5
6C7
102
{ACAD_REACTORS
330
790
102
}
330
1E
100
AcDbEntity
  8
HILF
100
AcDbLine
 10
253.671
 20
423.5189741791298
 30
0.0
 11
255.15
 21
423.5189741791299
 31
0.0
  0
LINE
  5
6C8
102
{ACAD_REACTORS
330
790
102
}
330
1E
100
AcDbEntity
  8
STEMPEL
100
AcDbLine
 10
255.15
 20
423.5189741791298
 30
0.0
 11
254.07984
 21
446.9189741791297
 31
0.0
  0
LINE
  5
6C9
102
{ACAD_REACTORS
330
790
102
}
330
1E
100
AcDbEntity
  8
HILF
100
AcDbLine
 10
253.671
 20
423.5189741791298
 30
0.0
 11
252.60084
 21
446.9189741791297
 31
0.0
  0
LINE
  5
6CA
330
1E
100
AcDbEntity
  8
HILF
100
AcDbLine
 10
196.329
 20
423.5189741791298
 30
0.0
 11
197.39916
 21
446.9189741791299
 31
0.0
  0
LINE
  5
6CB
330
1E
100
AcDbEntity
  8
STEMPEL
100
AcDbLine
 10
194.85
 20
423.5189741791298
 30
0.0
 11
195.92016
 21
446.9189741791299
 31
0.0
  0
LINE
  5
6CC
102
{ACAD_REACTORS
330
790
102
}
330
1E
100
AcDbEntity
  8
STEMPEL
100
AcDbLine
 10
251.5000000000001
 20
446.9189741791299
 30
0.0
 11
251.5
 21
396.9189741791299
 31
0.0
  0
LINE
  5
6CE
330
1E
100
AcDbEntity
  8
HILF
100
AcDbLine
 10
194.8500000000001
 20
423.5189741791298
 30
0.0
 11
224.9999999999999
 21
423.5189741791298
 31
0.0
  0
LINE
  5
6CF
102
{ACAD_REACTORS
330
790
102
}
330
1E
100
AcDbEntity
  8
STEMPEL
100
AcDbLine
 10
255.15
 20
423.5189741791299
 30
0.0
 11
255.15
 21
396.9189741791299
 31
0.0
  0
LINE
  5
6D0
330
1E
100
AcDbEntity
  8
STEMPEL
100
AcDbLine
 10
194.85
 20
423.5189741791298
 30
0.0
 11
194.85
 21
396.91897417913
 31
0.0
  0
LINE
  5
6D1
102
{ACAD_REACTORS
330
790
330
89A
102
}
330
1E
100
AcDbEntity
  8
STEMPEL
100
AcDbLine
 10
194.8500000000001
 20
396.91897417913
 30
0.0
 11
255.15
 21
396.9189741791299
 31
0.0
  0
LINE
  5
752
330
1E
100
AcDbEntity
  8
STEMPEL
100
AcDbLine
 10
198.4999999999999
 20
390.5246702342467
 30
0.0
 11
198.4999999999999
 21
312.8667977572131
 31
0.0
  0
LINE
  5
753
102
{ACAD_REACTORS
330
782
102
}
330
1E
100
AcDbEntity
  8
STEMPEL
100
AcDbLine
 10
251.5
 20
390.5246702342467
 30
0.0
 11
251.5
 21
312.8667977572131
 31
0.0
  0
LINE
  5
754
102
{ACAD_REACTORS
330
782
102
}
330
1E
100
AcDbEntity
  8
STEMPEL
100
AcDbLine
 10
251.5
 20
396.9189741791299
 30
0.0
 11
250.400650290399
 21
393.254475147127
 31
0.0
  0
TEXT
  5
757
330
1E
100
AcDbEntity
  8
TEXT
 62
     1
100
AcDbText
 10
308.0754262907933
 20
131.7990235945165
 30
0.0
 40
7.0
  1
Werkstoff: 1.4571
 41
0.8
  7
GREEKS
100
AcDbText
  0
LINE
  5
759
330
1E
100
AcDbEntity
  8
HILF
100
AcDbLine
 10
199.8971227782381
 20
391.91897417913
 30
0.0
 11
248.5887252573641
 21
391.9189741791299
 31
0.0
  0
LINE
  5
75A
102
{ACAD_REACTORS
330
782
102
}
330
1E
100
AcDbEntity
  8
STEMPEL
100
AcDbLine
 10
249.9999999999999
 20
390.5246702342467
 30
0.0
 11
250.0
 21
312.8667977572131
 31
0.0
  0
LINE
  5
75B
102
{ACAD_REACTORS
330
782
330
89A
102
}
330
1E
100
AcDbEntity
  8
STEMPEL
100
AcDbLine
 10
252.9367394278317
 20
396.4879523507804
 30
0.0
 11
251.8373897182307
 21
392.8234533187774
 31
0.0
  0
ARC
  5
75C
102
{ACAD_REACTORS
330
782
102
}
330
1E
100
AcDbEntity
  8
STEMPEL
100
AcDbCircle
 10
259.4999999999999
 20
390.5246702342467
 30
0.0
 40
8.0
100
AcDbArc
 50
163.3007557660062
 51
179.9999999999999
  0
ARC
  5
75D
102
{ACAD_REACTORS
330
782
102
}
330
1E
100
AcDbEntity
  8
STEMPEL
100
AcDbCircle
 10
259.4999999999999
 20
390.5246702342467
 30
0.0
 40
9.5
100
AcDbArc
 50
163.3007557660062
 51
179.9999999999999
  0
LINE
  5
75F
102
{ACAD_REACTORS
330
782
330
89A
102
}
330
1E
100
AcDbEntity
  8
STEMPEL
100
AcDbLine
 10
251.5
 20
396.9189741791299
 30
0.0
 11
252.9367394278317
 21
396.4879523507804
 31
0.0
  0
LINE
  5
760
102
{ACAD_REACTORS
330
89A
102
}
330
1E
100
AcDbEntity
  8
STEMPEL
100
AcDbLine
 10
198.4999999999999
 20
396.9189741791299
 30
0.0
 11
197.0632605721682
 21
396.4879523507804
 31
0.0
  0
ARC
  5
762
330
1E
100
AcDbEntity
  8
STEMPEL
100
AcDbCircle
 10
190.4999999999999
 20
390.5246702342467
 30
0.0
 40
8.0
100
AcDbArc
 50
0.0000000000000579
 51
16.69924423399377
  0
LINE
  5
763
102
{ACAD_REACTORS
330
89A
102
}
330
1E
100
AcDbEntity
  8
STEMPEL
100
AcDbLine
 10
197.0632605721682
 20
396.4879523507804
 30
0.0
 11
198.1626102817691
 21
392.8234533187774
 31
0.0
  0
LINE
  5
765
330
1E
100
AcDbEntity
  8
HILF
100
AcDbLine
 10
199.5310761347967
 20
309.9189741791299
 30
0.0
 11
248.9023428932382
 21
309.9189741791299
 31
0.0
  0
LINE
  5
766
102
{ACAD_REACTORS
330
782
102
}
330
1E
100
AcDbEntity
  8
STEMPEL
100
AcDbLine
 10
251.6687302814877
 20
307.4889529662291
 30
0.0
 11
254.8069999999999
 21
302.91897417913
 31
0.0
  0
LINE
  5
767
102
{ACAD_REACTORS
330
782
330
886
102
}
330
1E
100
AcDbEntity
  8
STEMPEL
100
AcDbLine
 10
252.9052465528318
 20
308.3380863542792
 30
0.0
 11
256.043516271344
 21
303.7681075671801
 31
0.0
  0
LINE
  5
768
102
{ACAD_REACTORS
330
782
330
886
102
}
330
1E
100
AcDbEntity
  8
STEMPEL
100
AcDbLine
 10
254.8069999999999
 20
302.91897417913
 30
0.0
 11
256.043516271344
 21
303.7681075671801
 31
0.0
  0
ARC
  5
769
102
{ACAD_REACTORS
330
782
102
}
330
1E
100
AcDbEntity
  8
STEMPEL
100
AcDbCircle
 10
259.4999999999999
 20
312.8667977572131
 30
0.0
 40
8.0
100
AcDbArc
 50
180.0
 51
214.4779424450923
  0
ARC
  5
76A
102
{ACAD_REACTORS
330
782
102
}
330
1E
100
AcDbEntity
  8
STEMPEL
100
AcDbCircle
 10
259.4999999999999
 20
312.8667977572131
 30
0.0
 40
9.5
100
AcDbArc
 50
180.0
 51
214.4779424450923
  0
ARC
  5
76E
330
1E
100
AcDbEntity
  8
STEMPEL
100
AcDbCircle
 10
190.4999999999999
 20
312.8667977572131
 30
0.0
 40
8.0
100
AcDbArc
 50
325.5220575549078
 51
0.000000000000007
  0
LINE
  5
76F
102
{ACAD_REACTORS
330
886
102
}
330
1E
100
AcDbEntity
  8
STEMPEL
100
AcDbLine
 10
195.1929999999999
 20
302.91897417913
 30
0.0
 11
193.9564837286559
 21
303.7681075671801
 31
0.0
  0
LINE
  5
770
102
{ACAD_REACTORS
330
886
102
}
330
1E
100
AcDbEntity
  8
STEMPEL
100
AcDbLine
 10
197.094753447168
 20
308.3380863542792
 30
0.0
 11
193.9564837286559
 21
303.7681075671801
 31
0.0
  0
HATCH
  5
782
330
1E
100
AcDbEntity
  8
SCHRAFF
100
AcDbHatch
 10
0.0
 20
0.0
 30
0.0
210
0.0
220
0.0
230
1.0
  2
_USER
 70
     0
 71
     1
 91
        1
 92
        7
 72
     1
 73
     1
 93
       12
 10
251.5
 20
390.5246702342467
 42
-0.0729934230505129
 10
251.8373897182307
 20
392.8234533187774
 42
0.0
 10
252.9367394278317
 20
396.4879523507804
 42
0.0
 10
251.4999999999999
 20
396.9189741791298
 42
0.0
 10
250.400650290399
 20
393.254475147127
 42
0.0729934230505179
 10
249.9999999999999
 20
390.5246702342465
 42
0.0
 10
250.0
 20
312.8667977572131
 42
0.1515836654997512
 10
251.6687302814877
 20
307.4889529662292
 42
0.0
 10
254.8069999999999
 20
302.91897417913
 42
0.0
 10
256.043516271344
 20
303.7681075671802
 42
0.0
 10
252.9052465528318
 20
308.3380863542792
 42
-0.1515836654997535
 10
251.5
 20
312.8667977572131
 42
0.0
 97
       12
330
75C
330
75B
330
75F
330
754
330
75D
330
75A
330
76A
330
766
330
768
330
767
330
769
330
753
 75
     0
 76
     0
 52
45.0
 41
2.0
 77
     0
 78
     1
 53
45.0
 43
0.0
 44
0.0
 45
-1.414213562373094
 46
1.414213562373095
 79
     0
 47
0.3471401225097723
 98
        1
 10
250.5455349617623
 20
354.0231922159389
  0
HATCH
  5
790
330
1E
100
AcDbEntity
  8
SCHRAFF
100
AcDbHatch
 10
0.0
 20
0.0
 30
0.0
210
0.0
220
0.0
230
1.0
  2
_USER
 70
     0
 71
     1
 91
        2
 92
        7
 72
     0
 73
     1
 93
        6
 10
251.5
 20
396.9189741791299
 10
255.15
 20
396.9189741791299
 10
255.1500000000001
 20
423.5189741791298
 10
253.671
 20
423.5189741791297
 10
252.60084
 20
446.9189741791298
 10
251.5000000000001
 20
446.9189741791298
 97
        6
330
6C7
330
6C9
330
670
330
6CC
330
6D1
330
6CF
 92
       23
 72
     0
 73
     1
 93
        4
 10
254.07984
 20
446.9189741791299
 10
252.60084
 20
446.91897417913
 10
253.671
 20
423.5189741791297
 10
255.15
 20
423.5189741791298
 97
        4
330
670
330
6C9
330
6C7
330
6C8
 75
     0
 76
     0
 52
135.0
 41
5.0
 77
     0
 78
     1
 53
135.0
 43
0.0
 44
0.0
 45
-3.535533905932737
 46
-3.535533905932737
 79
     0
 47
0.3471401225097723
 98
        2
 10
252.2818204460878
 20
407.8299118711245
 10
254.3653649183716
 20
426.9226188005688
  0
HATCH
  5
79C
330
1E
100
AcDbEntity
  8
SCHRAFF
100
AcDbHatch
 10
0.0
 20
0.0
 30
0.0
210
0.0
220
0.0
230
1.0
  2
_USER
 70
     0
 71
     1
 91
        2
 92
        7
 72
     0
 73
     1
 93
        4
 10
258.1499999999999
 20
302.9189741791299
 10
254.8069999999999
 20
302.9189741791299
 10
254.8069999999999
 20
246.9189741791299
 10
258.1499999999998
 20
246.91897417913
 97
        4
330
6BF
330
6BC
330
6C0
330
6BE
 92
        7
 72
     0
 73
     1
 93
        4
 10
253.3279999999998
 20
246.9189741791299
 10
254.8069999999999
 20
246.9189741791299
 10
254.807
 20
302.9189741791299
 10
253.328
 20
302.9189741791299
 97
        4
330
6BF
330
6BD
330
6C0
330
6BC
 75
     0
 76
     0
 52
135.0
 41
5.0
 77
     0
 78
     1
 53
135.0
 43
0.0
 44
0.0
 45
-3.535533905932737
 46
-3.535533905932737
 79
     0
 47
0.3471401225097723
 98
        2
 10
256.7961660147471
 20
286.3308680281639
 10
254.0181082942795
 20
290.4965502245011
  0
DIMENSION
  5
7A6
330
1E
100
AcDbEntity
  8
BEM
100
AcDbDimension
  2
*D3
 10
195.1929999999999
 20
227.240539731572
 30
0.0
 11
224.9999999999999
 21
234.9072063982386
 31
0.0
 70
    32
  1
Rp2
 71
     5
 42
59.61400000000003
  3
Standard
100
AcDbAlignedDimension
 13
254.8069999999999
 23
246.91897417913
 33
0.0
 14
195.1929999999999
 24
246.91897417913
 34
0.0
100
AcDbRotatedDimension
1001
ACAD
1000
DSTYLE
1002
{
1070
    76
1070
     1
1070
   282
1070
     1
1070
    40
1040
2.0
1070
    41
1040
3.5
1070
    42
1040
1.0
1070
    43
1040
7.0
1070
    44
1040
1.0
1070
    73
1070
     0
1070
    74
1070
     0
1070
    77
1070
     1
1070
    78
1070
     8
1070
    79
1070
     2
1070
   140
1040
3.5
1070
   141
1040
1.5
1070
   146
1040
0.5
1070
   147
1040
1.5
1070
   172
1070
     1
1070
   178
1070
     1
1070
   179
1070
     2
1070
   271
1070
     2
1070
   272
1070
     2
1070
   284
1070
     8
1070
   285
1070
     8
1070
   286
1070
     8
1002
}
  0
DIMENSION
  5
7CE
330
1E
100
AcDbEntity
  8
BEM
100
AcDbDimension
  2
*D4
 10
194.85
 20
456.5258632516814
 30
0.0
 11
225.0
 21
463.0258632516813
 31
0.0
 70
    32
  1
R2
 71
     5
 42
60.30000000000001
  3
Standard
100
AcDbAlignedDimension
 13
255.15
 23
423.5189741791299
 33
0.0
 14
194.85
 24
423.5189741791298
 34
0.0
100
AcDbRotatedDimension
1001
ACAD
1000
DSTYLE
1002
{
1070
    40
1040
2.0
1070
    41
1040
3.5
1070
    42
1040
1.0
1070
    43
1040
7.0
1070
    44
1040
1.0
1070
    73
1070
     0
1070
    74
1070
     0
1070
    77
1070
     1
1070
    78
1070
     8
1070
    79
1070
     2
1070
   140
1040
3.5
1070
   141
1040
1.5
1070
   146
1040
0.5
1070
   147
1040
1.5
1070
   172
1070
     1
1070
   178
1070
     1
1070
   179
1070
     2
1070
   271
1070
     2
1070
   272
1070
     2
1070
   284
1070
     8
1070
   285
1070
     8
1070
   286
1070
     8
1002
}
  0
DIMENSION
  5
810
330
1E
100
AcDbEntity
  8
BEM
100
AcDbDimension
  2
*D5
 10
165.6665319476819
 20
446.9189741791299
 30
0.0
 11
159.1665319476819
 21
346.9189741791299
 31
0.0
 70
    32
 71
     5
 42
200.0
  3
Standard
100
AcDbAlignedDimension
 13
191.8499999999999
 23
246.9189741791299
 33
0.0
 14
195.92016
 24
446.9189741791299
 34
0.0
 50
90.0
100
AcDbRotatedDimension
1001
ACAD
1000
DSTYLE
1002
{
1070
    40
1040
2.0
1070
    41
1040
3.5
1070
    42
1040
1.0
1070
    43
1040
7.0
1070
    44
1040
1.0
1070
    73
1070
     0
1070
    74
1070
     0
1070
    77
1070
     1
1070
    78
1070
     8
1070
    79
1070
     2
1070
   140
1040
3.5
1070
   141
1040
1.5
1070
   146
1040
0.5
1070
   147
1040
1.5
1070
   172
1070
     1
1070
   178
1070
     1
1070
   179
1070
     2
1070
   271
1070
     2
1070
   272
1070
     2
1070
   284
1070
     8
1070
   285
1070
     8
1070
   286
1070
     8
1002
}
  0
ARC
  5
82D
102
{ACAD_REACTORS
330
886
102
}
330
1E
100
AcDbEntity
  8
SCHRAFF
100
AcDbCircle
 10
196.1928002346536
 20
302.5621432702188
 30
0.0
 40
4.357435274982584
100
AcDbArc
 50
90.95428306181934
 51
175.3027816631554
  0
ARC
  5
875
330
1E
100
AcDbEntity
  8
SCHRAFF
100
AcDbCircle
 10
192.9421777892607
 20
304.9189741791299
 30
0.0
 40
5.0
100
AcDbArc
 50
336.4218215217981
 51
23.57817847820186
  0
ARC
  5
876
330
1E
100
AcDbEntity
  8
SCHRAFF
100
AcDbCircle
 10
197.9421777892607
 20
304.9189741791299
 30
0.0
 40
5.0
100
AcDbArc
 50
336.4218215217981
 51
23.57817847820186
  0
ARC
  5
877
330
1E
100
AcDbEntity
  8
SCHRAFF
100
AcDbCircle
 10
207.9421777892608
 20
304.9189741791299
 30
0.0
 40
5.0
100
AcDbArc
 50
336.4218215217981
 51
23.57817847820186
  0
ARC
  5
878
330
1E
100
AcDbEntity
  8
SCHRAFF
100
AcDbCircle
 10
202.9421777892608
 20
304.9189741791299
 30
0.0
 40
5.0
100
AcDbArc
 50
336.4218215217981
 51
23.57817847820186
  0
ARC
  5
879
330
1E
100
AcDbEntity
  8
SCHRAFF
100
AcDbCircle
 10
212.9421777892608
 20
304.9189741791299
 30
0.0
 40
5.0
100
AcDbArc
 50
336.4218215217981
 51
23.57817847820186
  0
ARC
  5
87A
330
1E
100
AcDbEntity
  8
SCHRAFF
100
AcDbCircle
 10
217.9421777892608
 20
304.9189741791299
 30
0.0
 40
5.0
100
AcDbArc
 50
336.4218215217981
 51
23.57817847820186
  0
ARC
  5
87B
102
{ACAD_REACTORS
330
886
102
}
330
1E
100
AcDbEntity
  8
SCHRAFF
100
AcDbCircle
 10
253.8071997653462
 20
302.5621432702188
 30
0.0
 40
4.357435274982584
100
AcDbArc
 50
4.697218336844595
 51
89.04571693818066
  0
HATCH
  5
886
330
1E
100
AcDbEntity
  8
SCHRAFF
100
AcDbHatch
 10
0.0
 20
0.0
 30
0.0
210
0.0
220
0.0
230
1.0
  2
_USER
 70
     0
 71
     1
 91
        2
 92
        7
 72
     1
 73
     1
 93
        4
 10
253.8797711565379
 20
306.9189741791299
 42
0.0
 10
256.043516271344
 20
303.76810756718
 42
0.0
 10
254.8069999999999
 20
302.91897417913
 42
0.0
 10
258.1499999999999
 20
302.9189741791299
 42
0.3856097319750121
 97
        4
330
767
330
768
330
6BF
330
87B
 92
        7
 72
     1
 73
     1
 93
        4
 10
196.1202288434619
 20
306.9189741791299
 42
0.385609731975012
 10
191.8499999999999
 20
302.9189741791299
 42
0.0
 10
195.1930000000001
 20
302.9189741791299
 42
0.0
 10
193.9564837286559
 20
303.7681075671801
 42
0.0
 97
        4
330
82D
330
6BF
330
76F
330
770
 75
     0
 76
     0
 52
0.0
 41
0.1
 77
     0
 78
     1
 53
0.0
 43
0.0
 44
0.0
 45
0.0
 46
0.1
 79
     0
 47
0.1061183773284529
 98
        2
 10
256.5395305526622
 20
303.8380641856465
 10
193.8024168869624
 20
304.7931290362126
  0
ARC
  5
888
102
{ACAD_REACTORS
330
89A
102
}
330
1E
100
AcDbEntity
  8
SCHRAFF
100
AcDbCircle
 10
198.8408233137664
 20
396.759459265496
 30
0.0
 40
3.994009981130891
100
AcDbArc
 50
177.7110816363395
 51
260.2233704563399
  0
ARC
  5
889
330
1E
100
AcDbEntity
  8
SCHRAFF
100
AcDbCircle
 10
217.2744565968524
 20
394.91897417913
 30
0.0
 40
5.0
100
AcDbArc
 50
336.4218215217981
 51
23.57817847820186
  0
ARC
  5
88A
330
1E
100
AcDbEntity
  8
SCHRAFF
100
AcDbCircle
 10
212.2744565968524
 20
394.91897417913
 30
0.0
 40
5.0
100
AcDbArc
 50
336.4218215217981
 51
23.57817847820186
  0
ARC
  5
88B
330
1E
100
AcDbEntity
  8
SCHRAFF
100
AcDbCircle
 10
202.2744565968524
 20
394.91897417913
 30
0.0
 40
5.0
100
AcDbArc
 50
336.4218215217981
 51
23.57817847820186
  0
ARC
  5
88C
330
1E
100
AcDbEntity
  8
SCHRAFF
100
AcDbCircle
 10
207.2744565968524
 20
394.91897417913
 30
0.0
 40
5.0
100
AcDbArc
 50
336.4218215217981
 51
23.57817847820186
  0
ARC
  5
88D
330
1E
100
AcDbEntity
  8
SCHRAFF
100
AcDbCircle
 10
197.2744565968524
 20
394.91897417913
 30
0.0
 40
5.0
100
AcDbArc
 50
336.4218215217981
 51
23.57817847820186
  0
ARC
  5
88F
102
{ACAD_REACTORS
330
89A
102
}
330
1E
100
AcDbEntity
  8
SCHRAFF
100
AcDbCircle
 10
251.1591766862337
 20
396.7594592654945
 30
0.0
 40
3.994009981130891
100
AcDbArc
 50
279.7766295436568
 51
2.288918363657181
  0
HATCH
  5
89A
330
1E
100
AcDbEntity
  8
SCHRAFF
100
AcDbHatch
 10
0.0
 20
0.0
 30
0.0
210
0.0
220
0.0
230
1.0
  2
_USER
 70
     0
 71
     1
 91
        2
 92
        7
 72
     1
 73
     1
 93
        4
 10
255.15
 20
396.9189741791299
 42
0.0
 10
251.5000000000001
 20
396.9189741791299
 42
0.0
 10
252.9367394278317
 20
396.4879523507804
 42
0.0
 10
251.8373897182307
 20
392.8234533187774
 42
0.3764345658970825
 97
        4
330
6D1
330
75F
330
75B
330
88F
 92
        7
 72
     1
 73
     1
 93
        4
 10
197.0632605721682
 20
396.4879523507804
 42
0.0
 10
198.5000000000001
 20
396.9189741791299
 42
0.0
 10
194.8500000000001
 20
396.91897417913
 42
0.3764345658970706
 10
198.1626102817691
 20
392.8234533187774
 42
0.0
 97
        4
330
760
330
6D1
330
888
330
763
 75
     0
 76
     0
 52
0.0
 41
0.1
 77
     0
 78
     1
 53
0.0
 43
0.0
 44
0.0
 45
0.0
 46
0.1
 79
     0
 47
0.0834370937309203
 98
        2
 10
254.6672211345567
 20
395.9437008315585
 10
196.0746238582278
 20
394.7755807576104
  0
TEXT
  5
8F5
330
1E
100
AcDbEntity
  8
TEXT
 62
     1
100
AcDbText
 10
218.9048186282146
 20
338.5209115204379
 30
0.0
 40
7.0
  1
DN50
 50
90.0
 41
0.8
  7
GREEKS
100
AcDbText
  0
ENDSEC
  0
SECTION
  2
OBJECTS
  0
DICTIONARY
  5
C
330
0
100
AcDbDictionary
281
     1
  3
ACAD_COLOR
350
DF
  3
ACAD_GROUP
350
D
  3
ACAD_LAYOUT
350
19
  3
ACAD_MATERIAL
350
DE
  3
ACAD_MLINESTYLE
350
16
  3
ACAD_PLOTSETTINGS
350
18
  3
ACAD_PLOTSTYLENAME
350
E
  3
AcDbVariableDictionary
350
EA
  0
DICTIONARY
  5
A0
330
1E
100
AcDbDictionary
280
     1
281
     1
  3
ACAD_LAYOUTSELFREF
360
D4
  0
DICTIONARY
  5
A2
330
1A
100
AcDbDictionary
280
     1
281
     1
  3
ACAD_LAYOUTSELFREF
360
D3
  0
DICTIONARY
  5
DF
102
{ACAD_REACTORS
330
C
102
}
330
C
100
AcDbDictionary
281
     1
  0
DICTIONARY
  5
D
102
{ACAD_REACTORS
330
C
102
}
330
C
100
AcDbDictionary
281
     1
  0
DICTIONARY
  5
19
102
{ACAD_REACTORS
330
C
102
}
330
C
100
AcDbDictionary
281
     1
  3
Layout1
350
1D
  3
Model
350
21
  0
DICTIONARY
  5
DE
102
{ACAD_REACTORS
330
C
102
}
330
C
100
AcDbDictionary
281
     1
  0
DICTIONARY
  5
16
102
{ACAD_REACTORS
330
C
102
}
330
C
100
AcDbDictionary
281
     1
  3
Standard
350
17
  0
DICTIONARY
  5
18
102
{ACAD_REACTORS
330
C
102
}
330
C
100
AcDbDictionary
281
     1
  0
ACDBDICTIONARYWDFLT
  5
E
102
{ACAD_REACTORS
330
C
102
}
330
C
100
AcDbDictionary
281
     1
  3
Normal
350
F
100
AcDbDictionaryWithDefault
340
F
  0
DICTIONARY
  5
EA
102
{ACAD_REACTORS
330
C
102
}
330
C
100
AcDbDictionary
281
     1
  3
DIMASSOC
350
EB
  3
PROJECTNAME
350
EC
  0
XRECORD
  5
D4
102
{ACAD_REACTORS
330
A0
102
}
330
A0
100
AcDbXrecord
280
     1
340
1E
  0
XRECORD
  5
D3
102
{ACAD_REACTORS
330
A2
102
}
330
A2
100
AcDbXrecord
280
     1
340
1A
  0
LAYOUT
  5
1D
102
{ACAD_REACTORS
330
19
102
}
330
19
100
AcDbPlotSettings
  1

  2
\\NT_WORK01\HP LaserJet 5000 PCL 6
  4

  6

 40
0.0
 41
0.0
 42
0.0
 43
0.0
 44
0.0
 45
0.0
 46
0.0
 47
0.0
 48
0.0
 49
0.0
140
0.0
141
0.0
142
1.0
143
1.0
 70
   688
 72
     0
 73
     0
 74
     5
  7

 75
    16
147
1.0
 76
     0
 77
     2
 78
   300
148
0.0
149
0.0
100
AcDbLayout
  1
Layout1
 70
     0
 71
     1
 10
0.0
 20
0.0
 11
12.0
 21
9.0
 12
0.0
 22
0.0
 32
0.0
 14
1.000000000000000E+20
 24
1.000000000000000E+20
 34
1.000000000000000E+20
 15
-1.000000000000000E+20
 25
-1.000000000000000E+20
 35
-1.000000000000000E+20
146
0.0
 13
0.0
 23
0.0
 33
0.0
 16
1.0
 26
0.0
 36
0.0
 17
0.0
 27
1.0
 37
0.0
 76
     0
330
1A
  0
LAYOUT
  5
21
102
{ACAD_REACTORS
330
19
102
}
330
19
100
AcDbPlotSettings
  1

  2
none_device
  4
Letter_(8.50_x_11.00_Inches)
  6

 40
6.349999904632568
 41
6.349999904632568
 42
6.350006103515625
 43
6.350006103515625
 44
215.8999938964844
 45
279.3999938964844
 46
0.0
 47
0.0
 48
0.0
 49
0.0
140
0.0
141
0.0
142
1.0
143
1.0
 70
 11952
 72
     0
 73
     1
 74
     0
  7

 75
     0
147
1.0
 76
     0
 77
     2
 78
   300
148
2209.800000000001
149
0.0
100
AcDbLayout
  1
Model
 70
     1
 71
     0
 10
0.0
 20
0.0
 11
12.0
 21
9.0
 12
0.0
 22
0.0
 32
0.0
 14
0.0
 24
0.0
 34
0.0
 15
0.0
 25
0.0
 35
0.0
146
0.0
 13
0.0
 23
0.0
 33
0.0
 16
1.0
 26
0.0
 36
0.0
 17
0.0
 27
1.0
 37
0.0
 76
     0
330
1E
  0
MLINESTYLE
  5
17
102
{ACAD_REACTORS
330
16
102
}
330
16
100
AcDbMlineStyle
  2
STANDARD
 70
     0
  3

 62
   256
 51
90.0
 52
90.0
 71
     2
 49
0.5
 62
   256
  6
BYLAYER
 49
-0.5
 62
   256
  6
BYLAYER
  0
ACDBPLACEHOLDER
  5
F
102
{ACAD_REACTORS
330
E
102
}
330
E
  0
DICTIONARYVAR
  5
EB
102
{ACAD_REACTORS
330
EA
102
}
330
EA
100
DictionaryVariables
280
     0
  1
1
  0
DICTIONARYVAR
  5
EC
102
{ACAD_REACTORS
330
EA
102
}
330
EA
100
DictionaryVariables
280
     0
  1

  0
ENDSEC
  0
EOF
