  0
SECTION
  2
HEADER
  9
$ACADVER
  1
AC1018
  9
$ACADMAINTVER
 70
     2
  9
$DWGCODEPAGE
  3
ANSI_1252
  9
$INSBASE
 10
0.0
 20
0.0
 30
0.0
  9
$EXTMIN
 10
-0.0063978361731643
 20
-0.0090483683025013
 30
-0.0000000000000053
  9
$EXTMAX
 10
420.0064129945077
 20
594.0090698065175
 30
0.0000000000000099
  9
$LIMMIN
 10
0.0
 20
0.0
  9
$LIMMAX
 10
419.9999999999999
 20
594.0000000000002
  9
$ORTHOMODE
 70
     1
  9
$REGENMODE
 70
     1
  9
$FILLMODE
 70
     1
  9
$QTEXTMODE
 70
     0
  9
$MIRRTEXT
 70
     1
  9
$LTSCALE
 40
20.0
  9
$ATTMODE
 70
     1
  9
$TEXTSIZE
 40
3.5
  9
$TRACEWID
 40
0.5
  9
$TEXTSTYLE
  7
STANDARD
  9
$CLAYER
  8
SCHRAFF
  9
$CELTYPE
  6
ByLayer
  9
$CECOLOR
 62
   256
  9
$CELTSCALE
 40
1.0
  9
$DISPSILH
 70
     0
  9
$DIMSCALE
 40
2.0
  9
$DIMASZ
 40
3.5
  9
$DIMEXO
 40
1.0
  9
$DIMDLI
 40
7.0
  9
$DIMRND
 40
0.0
  9
$DIMDLE
 40
0.0
  9
$DIMEXE
 40
1.0
  9
$DIMTP
 40
3.0
  9
$DIMTM
 40
3.0
  9
$DIMTXT
 40
3.5
  9
$DIMCEN
 40
2.0
  9
$DIMTSZ
 40
0.0
  9
$DIMTOL
 70
     0
  9
$DIMLIM
 70
     0
  9
$DIMTIH
 70
     0
  9
$DIMTOH
 70
     0
  9
$DIMSE1
 70
     0
  9
$DIMSE2
 70
     0
  9
$DIMTAD
 70
     1
  9
$DIMZIN
 70
     8
  9
$DIMBLK
  1

  9
$DIMASO
 70
     1
  9
$DIMSHO
 70
     0
  9
$DIMPOST
  1

  9
$DIMAPOST
  1

  9
$DIMALT
 70
     0
  9
$DIMALTD
 70
     2
  9
$DIMALTF
 40
25.4
  9
$DIMLFAC
 40
1.0
  9
$DIMTOFL
 70
     1
  9
$DIMTVP
 40
0.0
  9
$DIMTIX
 70
     0
  9
$DIMSOXD
 70
     0
  9
$DIMSAH
 70
     0
  9
$DIMBLK1
  1

  9
$DIMBLK2
  1

  9
$DIMSTYLE
  2
Standard
  9
$DIMCLRD
 70
     0
  9
$DIMCLRE
 70
     0
  9
$DIMCLRT
 70
     1
  9
$DIMTFAC
 40
0.5142857142857144
  9
$DIMGAP
 40
1.0
  9
$DIMJUST
 70
     0
  9
$DIMSD1
 70
     0
  9
$DIMSD2
 70
     0
  9
$DIMTOLJ
 70
     1
  9
$DIMTZIN
 70
     8
  9
$DIMALTZ
 70
     8
  9
$DIMALTTZ
 70
     8
  9
$DIMUPT
 70
     0
  9
$DIMDEC
 70
     1
  9
$DIMTDEC
 70
     1
  9
$DIMALTU
 70
     2
  9
$DIMALTTD
 70
     2
  9
$DIMTXSTY
  7
STANDARD
  9
$DIMAUNIT
 70
     0
  9
$DIMADEC
 70
     0
  9
$DIMALTRND
 40
0.0
  9
$DIMAZIN
 70
     0
  9
$DIMDSEP
 70
    46
  9
$DIMATFIT
 70
     3
  9
$DIMFRAC
 70
     0
  9
$DIMLDRBLK
  1

  9
$DIMLUNIT
 70
     2
  9
$DIMLWD
 70
    -2
  9
$DIMLWE
 70
    -2
  9
$DIMTMOVE
 70
     0
  9
$LUNITS
 70
     2
  9
$LUPREC
 70
     1
  9
$SKETCHINC
 40
1.0
  9
$FILLETRAD
 40
12.0
  9
$AUNITS
 70
     0
  9
$AUPREC
 70
     0
  9
$MENU
  1
ACAD
  9
$ELEVATION
 40
0.0
  9
$PELEVATION
 40
0.0
  9
$THICKNESS
 40
0.0
  9
$LIMCHECK
 70
     0
  9
$CHAMFERA
 40
0.0
  9
$CHAMFERB
 40
0.0
  9
$CHAMFERC
 40
0.0
  9
$CHAMFERD
 40
0.0
  9
$SKPOLY
 70
     0
  9
$TDCREATE
 40
2452920.183809838
  9
$TDUCREATE
 40
2452920.100476505
  9
$TDUPDATE
 40
2455653.348501215
  9
$TDUUPDATE
 40
2455653.265167882
  9
$TDINDWG
 40
0.2244352546
  9
$TDUSRTIMER
 40
0.2244352546
  9
$USRTIMER
 70
     1
  9
$ANGBASE
 50
0.0
  9
$ANGDIR
 70
     0
  9
$PDMODE
 70
     0
  9
$PDSIZE
 40
0.0
  9
$PLINEWID
 40
0.0
  9
$SPLFRAME
 70
     0
  9
$SPLINETYPE
 70
     6
  9
$SPLINESEGS
 70
     8
  9
$HANDSEED
  5
410
  9
$SURFTAB1
 70
     6
  9
$SURFTAB2
 70
     6
  9
$SURFTYPE
 70
     6
  9
$SURFU
 70
     6
  9
$SURFV
 70
     6
  9
$UCSBASE
  2

  9
$UCSNAME
  2

  9
$UCSORG
 10
0.0
 20
0.0
 30
0.0
  9
$UCSXDIR
 10
1.0
 20
0.0
 30
0.0
  9
$UCSYDIR
 10
0.0
 20
1.0
 30
0.0
  9
$UCSORTHOREF
  2

  9
$UCSORTHOVIEW
 70
     0
  9
$UCSORGTOP
 10
0.0
 20
0.0
 30
0.0
  9
$UCSORGBOTTOM
 10
0.0
 20
0.0
 30
0.0
  9
$UCSORGLEFT
 10
0.0
 20
0.0
 30
0.0
  9
$UCSORGRIGHT
 10
0.0
 20
0.0
 30
0.0
  9
$UCSORGFRONT
 10
0.0
 20
0.0
 30
0.0
  9
$UCSORGBACK
 10
0.0
 20
0.0
 30
0.0
  9
$PUCSBASE
  2

  9
$PUCSNAME
  2

  9
$PUCSORG
 10
0.0
 20
0.0
 30
0.0
  9
$PUCSXDIR
 10
1.0
 20
0.0
 30
0.0
  9
$PUCSYDIR
 10
0.0
 20
1.0
 30
0.0
  9
$PUCSORTHOREF
  2

  9
$PUCSORTHOVIEW
 70
     0
  9
$PUCSORGTOP
 10
0.0
 20
0.0
 30
0.0
  9
$PUCSORGBOTTOM
 10
0.0
 20
0.0
 30
0.0
  9
$PUCSORGLEFT
 10
0.0
 20
0.0
 30
0.0
  9
$PUCSORGRIGHT
 10
0.0
 20
0.0
 30
0.0
  9
$PUCSORGFRONT
 10
0.0
 20
0.0
 30
0.0
  9
$PUCSORGBACK
 10
0.0
 20
0.0
 30
0.0
  9
$USERI1
 70
     0
  9
$USERI2
 70
     0
  9
$USERI3
 70
     0
  9
$USERI4
 70
     0
  9
$USERI5
 70
     0
  9
$USERR1
 40
0.0
  9
$USERR2
 40
0.0
  9
$USERR3
 40
0.0
  9
$USERR4
 40
0.0
  9
$USERR5
 40
0.0
  9
$WORLDVIEW
 70
     1
  9
$SHADEDGE
 70
     3
  9
$SHADEDIF
 70
    70
  9
$TILEMODE
 70
     1
  9
$MAXACTVP
 70
    16
  9
$PINSBASE
 10
0.0
 20
0.0
 30
0.0
  9
$PLIMCHECK
 70
     0
  9
$PEXTMIN
 10
1.000000000000000E+20
 20
1.000000000000000E+20
 30
1.000000000000000E+20
  9
$PEXTMAX
 10
-1.000000000000000E+20
 20
-1.000000000000000E+20
 30
-1.000000000000000E+20
  9
$PLIMMIN
 10
0.0
 20
0.0
  9
$PLIMMAX
 10
12.0
 20
9.0
  9
$UNITMODE
 70
     0
  9
$VISRETAIN
 70
     0
  9
$PLINEGEN
 70
     0
  9
$PSLTSCALE
 70
     0
  9
$TREEDEPTH
 70
  3020
  9
$CMLSTYLE
  2
Standard
  9
$CMLJUST
 70
     0
  9
$CMLSCALE
 40
1.0
  9
$PROXYGRAPHICS
 70
     1
  9
$MEASUREMENT
 70
     0
  9
$CELWEIGHT
370
    -1
  9
$ENDCAPS
280
     0
  9
$JOINSTYLE
280
     0
  9
$LWDISPLAY
290
     0
  9
$INSUNITS
 70
     0
  9
$HYPERLINKBASE
  1

  9
$STYLESHEET
  1
monochrome 1.ctb
  9
$XEDIT
290
     1
  9
$CEPSNTYPE
380
     0
  9
$PSTYLEMODE
290
     1
  9
$FINGERPRINTGUID
  2
{BDECD722-A23E-401F-BC06-E9A22F118CC6}
  9
$VERSIONGUID
  2
{7A485078-AB10-4733-BD67-99B1767E961B}
  9
$EXTNAMES
290
     1
  9
$PSVPSCALE
 40
0.0
  9
$OLESTARTUP
290
     0
  9
$SORTENTS
280
   127
  9
$INDEXCTL
280
     0
  9
$HIDETEXT
280
     1
  9
$XCLIPFRAME
290
     0
  9
$HALOGAP
280
     0
  9
$OBSCOLOR
 70
   257
  9
$OBSLTYPE
280
     0
  9
$INTERSECTIONDISPLAY
280
     0
  9
$INTERSECTIONCOLOR
 70
   257
  9
$DIMASSOC
280
     2
  9
$PROJECTNAME
  1

  0
ENDSEC
  0
SECTION
  2
CLASSES
  0
CLASS
  1
ACDBDICTIONARYWDFLT
  2
AcDbDictionaryWithDefault
  3
ObjectDBX Classes
 90
        0
 91
        1
280
     0
281
     0
  0
ENDSEC
  0
SECTION
  2
TABLES
  0
TABLE
  2
VPORT
  5
8
330
0
100
AcDbSymbolTable
 70
     3
  0
VPORT
  5
40F
330
8
100
AcDbSymbolTableRecord
100
AcDbViewportTableRecord
  2
*Active
 70
     0
 10
0.0
 20
0.0
 11
1.0
 21
1.0
 12
210.0
 22
297.0
 13
0.0
 23
0.0
 14
1.0
 24
1.0
 15
20.0
 25
20.0
 16
0.0
 26
0.0
 36
1.0
 17
0.0
 27
0.0
 37
0.0
 40
594.0
 41
1.334231805929919
 42
50.0
 43
0.0
 44
0.0
 50
0.0
 51
0.0
 71
     0
 72
  1500
 73
     1
 74
     0
 75
     0
 76
     0
 77
     0
 78
     0
281
     0
 65
     1
110
0.0
120
0.0
130
0.0
111
1.0
121
0.0
131
0.0
112
0.0
122
1.0
132
0.0
 79
     0
146
0.0
  0
ENDTAB
  0
TABLE
  2
LTYPE
  5
5
330
0
100
AcDbSymbolTable
 70
     2
  0
LTYPE
  5
13
330
5
100
AcDbSymbolTableRecord
100
AcDbLinetypeTableRecord
  2
ByBlock
 70
     0
  3

 72
    65
 73
     0
 40
0.0
  0
LTYPE
  5
14
330
5
100
AcDbSymbolTableRecord
100
AcDbLinetypeTableRecord
  2
ByLayer
 70
     0
  3

 72
    65
 73
     0
 40
0.0
  0
LTYPE
  5
15
330
5
100
AcDbSymbolTableRecord
100
AcDbLinetypeTableRecord
  2
Continuous
 70
     0
  3
Solid line
 72
    65
 73
     0
 40
0.0
  0
LTYPE
  5
2E
330
5
100
AcDbSymbolTableRecord
100
AcDbLinetypeTableRecord
  2
STRICHPUNKT
 70
     0
  3
__ . __ . __ . __ . __ . __ . __ . __ . __ . __
 72
    65
 73
     4
 40
1.0
 49
0.5
 74
     0
 49
-0.25
 74
     0
 49
0.0
 74
     0
 49
-0.25
 74
     0
  0
ENDTAB
  0
TABLE
  2
LAYER
  5
2
330
0
100
AcDbSymbolTable
 70
    10
  0
LAYER
  5
10
330
2
100
AcDbSymbolTableRecord
100
AcDbLayerTableRecord
  2
0
 70
     0
 62
     7
  6
Continuous
370
    -3
390
F
  0
LAYER
  5
31
330
2
100
AcDbSymbolTableRecord
100
AcDbLayerTableRecord
  2
VOLL
 70
     0
 62
     1
  6
Continuous
370
    -3
390
F
  0
LAYER
  5
32
330
2
100
AcDbSymbolTableRecord
100
AcDbLayerTableRecord
  2
HILF
 70
     0
 62
     2
  6
Continuous
370
    -3
390
F
  0
LAYER
  5
33
330
2
100
AcDbSymbolTableRecord
100
AcDbLayerTableRecord
  2
MITTEL
 70
     0
 62
     2
  6
STRICHPUNKT
370
    -3
390
F
  0
LAYER
  5
34
330
2
100
AcDbSymbolTableRecord
100
AcDbLayerTableRecord
  2
BEM
 70
     0
 62
     7
  6
Continuous
370
    -3
390
F
  0
LAYER
  5
35
330
2
100
AcDbSymbolTableRecord
100
AcDbLayerTableRecord
  2
STEMPEL
 70
     0
 62
     3
  6
Continuous
370
    -3
390
F
  0
LAYER
  5
36
330
2
100
AcDbSymbolTableRecord
100
AcDbLayerTableRecord
  2
TEXT25
 70
     0
 62
     7
  6
Continuous
370
    -3
390
F
  0
LAYER
  5
37
330
2
100
AcDbSymbolTableRecord
100
AcDbLayerTableRecord
  2
TEXT35
 70
     0
 62
     1
  6
Continuous
370
    -3
390
F
  0
LAYER
  5
38
330
2
100
AcDbSymbolTableRecord
100
AcDbLayerTableRecord
  2
SCHRAFF
 70
     0
 62
     7
  6
Continuous
370
    -3
390
F
  0
LAYER
  5
39
330
2
100
AcDbSymbolTableRecord
100
AcDbLayerTableRecord
  2
DEFPOINTS
 70
     0
 62
     7
  6
Continuous
290
     0
370
    -3
390
F
  0
ENDTAB
  0
TABLE
  2
STYLE
  5
3
330
0
100
AcDbSymbolTable
 70
     2
  0
STYLE
  5
11
330
3
100
AcDbSymbolTableRecord
100
AcDbTextStyleTableRecord
  2
STANDARD
 70
     0
 40
0.0
 41
0.8
 50
0.0
 71
     0
 42
3.5
  3
SIMPLEX.SHX
  4

  0
STYLE
  5
2D
330
3
100
AcDbSymbolTableRecord
100
AcDbTextStyleTableRecord
  2
GREEKS
 70
     0
 40
0.0
 41
0.8
 50
0.0
 71
     0
 42
2.5
  3
SIMPLEX.shx
  4

  0
ENDTAB
  0
TABLE
  2
VIEW
  5
6
330
0
100
AcDbSymbolTable
 70
     0
  0
ENDTAB
  0
TABLE
  2
UCS
  5
7
330
0
100
AcDbSymbolTable
 70
     0
  0
ENDTAB
  0
TABLE
  2
APPID
  5
9
330
0
100
AcDbSymbolTable
 70
     1
  0
APPID
  5
12
330
9
100
AcDbSymbolTableRecord
100
AcDbRegAppTableRecord
  2
ACAD
 70
     0
  0
ENDTAB
  0
TABLE
  2
DIMSTYLE
  5
A
330
0
100
AcDbSymbolTable
 70
     1
100
AcDbDimStyleTable
 71
     1
340
1CF
  0
DIMSTYLE
105
1CF
102
{ACAD_REACTORS
330
349
330
1C2
330
1C1
330
1B7
102
}
330
A
100
AcDbSymbolTableRecord
100
AcDbDimStyleTableRecord
  2
Standard
 70
     0
340
11
  0
ENDTAB
  0
TABLE
  2
BLOCK_RECORD
  5
1
330
0
100
AcDbSymbolTable
 70
     7
  0
BLOCK_RECORD
  5
20
330
1
100
AcDbSymbolTableRecord
100
AcDbBlockTableRecord
  2
*Model_Space
340
23
  0
BLOCK_RECORD
  5
1C
330
1
100
AcDbSymbolTableRecord
100
AcDbBlockTableRecord
  2
*Paper_Space
340
1F
  0
BLOCK_RECORD
  5
24
330
1
100
AcDbSymbolTableRecord
100
AcDbBlockTableRecord
  2
LOGO
340
0
102
{BLKREFS
331
5C
102
}
  0
BLOCK_RECORD
  5
25
330
1
100
AcDbSymbolTableRecord
100
AcDbBlockTableRecord
  2
LORO
340
0
102
{BLKREFS
331
16E
102
}
  0
BLOCK_RECORD
  5
1D1
330
1
100
AcDbSymbolTableRecord
100
AcDbBlockTableRecord
  2
*D2
340
0
  0
BLOCK_RECORD
  5
1DD
330
1
100
AcDbSymbolTableRecord
100
AcDbBlockTableRecord
  2
*D3
340
0
  0
BLOCK_RECORD
  5
209
330
1
100
AcDbSymbolTableRecord
100
AcDbBlockTableRecord
  2
*D5
340
0
  0
BLOCK_RECORD
  5
34C
330
1
100
AcDbSymbolTableRecord
100
AcDbBlockTableRecord
  2
*D6
340
0
  0
ENDTAB
  0
ENDSEC
  0
SECTION
  2
BLOCKS
  0
BLOCK
  5
3D
330
20
100
AcDbEntity
  8
0
100
AcDbBlockBegin
  2
*Model_Space
 70
     0
 10
0.0
 20
0.0
 30
0.0
  3
*Model_Space
  1

  0
ENDBLK
  5
3E
330
20
100
AcDbEntity
  8
0
100
AcDbBlockEnd
  0
BLOCK
  5
3B
330
1C
100
AcDbEntity
 67
     1
  8
0
100
AcDbBlockBegin
  2
*Paper_Space
 70
     0
 10
0.0
 20
0.0
 30
0.0
  3
*Paper_Space
  1

  0
ENDBLK
  5
3C
330
1C
100
AcDbEntity
 67
     1
  8
0
100
AcDbBlockEnd
  0
BLOCK
  5
3F
330
24
100
AcDbEntity
  8
0
100
AcDbBlockBegin
  2
LOGO
 70
     0
 10
0.0
 20
0.0
 30
0.0
  3
LOGO
  1

  0
ARC
  5
40
330
24
100
AcDbEntity
  8
0
100
AcDbCircle
 10
11.59973089678112
 20
-9.271599258481501
 30
0.0
 40
4.5
100
AcDbArc
 50
270.0
 51
231.0575587310159
  0
LINE
  5
41
330
24
100
AcDbEntity
  8
0
100
AcDbLine
 10
3.599730896781125
 20
-4.771599258481529
 30
0.0
 11
3.599730896781153
 21
-11.77159925848133
 31
0.0
  0
LINE
  5
42
330
24
100
AcDbEntity
  8
0
100
AcDbLine
 10
2.599730896781125
 20
-4.771599258481529
 30
0.0
 11
2.599730896781153
 21
-11.77159925848133
 31
0.0
  0
CIRCLE
  5
43
330
24
100
AcDbEntity
  8
0
100
AcDbCircle
 10
11.59973089678112
 20
-9.271599258481501
 30
0.0
 40
3.5
  0
ARC
  5
44
330
24
100
AcDbEntity
  8
0
100
AcDbCircle
 10
31.59973089678115
 20
-9.271599258481472
 30
0.0
 40
4.5
100
AcDbArc
 50
270.0
 51
231.0575587310182
  0
LINE
  5
45
330
24
100
AcDbEntity
  8
0
100
AcDbLine
 10
17.59973089678112
 20
-4.771599258481472
 30
0.0
 11
17.59973089678115
 21
-13.77159925848147
 31
0.0
  0
ARC
  5
46
330
24
100
AcDbEntity
  8
0
100
AcDbCircle
 10
22.59973089678116
 20
-7.271599258481472
 30
0.0
 40
2.5
100
AcDbArc
 50
293.1161887722295
 51
90.0
  0
CIRCLE
  5
47
330
24
100
AcDbEntity
  8
0
100
AcDbCircle
 10
31.59973089678115
 20
-9.271599258481472
 30
0.0
 40
3.5
  0
ARC
  5
48
330
24
100
AcDbEntity
  8
0
100
AcDbCircle
 10
4.599730896781153
 20
-11.77159925848133
 30
0.0
 40
1.0
100
AcDbArc
 50
180.0
 51
270.0
  0
ARC
  5
49
330
24
100
AcDbEntity
  8
0
100
AcDbCircle
 10
4.599730896781153
 20
-11.77159925848133
 30
0.0
 40
2.0
100
AcDbArc
 50
179.9999999999992
 51
270.0
  0
LINE
  5
4A
330
24
100
AcDbEntity
  8
0
100
AcDbLine
 10
11.59973089678115
 20
-13.77159925848144
 30
0.0
 11
4.599730896781153
 21
-13.77159925848147
 31
0.0
  0
LINE
  5
4B
330
24
100
AcDbEntity
  8
0
100
AcDbLine
 10
8.771303772034769
 20
-12.77159925848136
 30
0.0
 11
4.599730896781153
 21
-12.77159925848133
 31
0.0
  0
LINE
  5
4C
330
24
100
AcDbEntity
  8
0
100
AcDbLine
 10
31.59973089678115
 20
-13.77159925848147
 30
0.0
 11
23.6715276665056
 21
-13.77159925848144
 31
0.0
  0
LINE
  5
4D
330
24
100
AcDbEntity
  8
0
100
AcDbLine
 10
23.56565672307022
 20
-9.51278021337896
 30
0.0
 11
24.4388546544846
 21
-12.77159925848144
 31
0.0
  0
LINE
  5
4E
330
24
100
AcDbEntity
  8
0
100
AcDbLine
 10
22.59973089678116
 20
-9.771599258481472
 30
0.0
 11
18.59973089678112
 21
-9.771599258481472
 31
0.0
  0
LINE
  5
4F
330
24
100
AcDbEntity
  8
0
100
AcDbLine
 10
18.59973089678115
 20
-13.77159925848144
 30
0.0
 11
17.59973089678115
 21
-13.77159925848144
 31
0.0
  0
LINE
  5
50
330
24
100
AcDbEntity
  8
0
100
AcDbLine
 10
18.59973089678115
 20
-9.771599258481472
 30
0.0
 11
18.59973089678115
 21
-13.77159925848144
 31
0.0
  0
LINE
  5
51
330
24
100
AcDbEntity
  8
0
100
AcDbLine
 10
22.59973089678116
 20
-9.771599258481472
 30
0.0
 11
23.67152766650562
 21
-13.77159925848147
 31
0.0
  0
ARC
  5
52
330
24
100
AcDbEntity
  8
0
100
AcDbCircle
 10
22.59973089678116
 20
-7.271599258481472
 30
0.0
 40
2.5
100
AcDbArc
 50
270.0
 51
270.0000000000007
  0
LINE
  5
53
330
24
100
AcDbEntity
  8
0
100
AcDbLine
 10
28.77130377203494
 20
-12.77159925848147
 30
0.0
 11
24.43885465448463
 21
-12.77159925848144
 31
0.0
  0
LINE
  5
54
330
24
100
AcDbEntity
  8
0
100
AcDbLine
 10
3.599730896781125
 20
-4.771599258481472
 30
0.0
 11
2.599730896781125
 21
-4.771599258481472
 31
0.0
  0
LINE
  5
55
330
24
100
AcDbEntity
  8
0
100
AcDbLine
 10
22.59973089678116
 20
-8.771599258481472
 30
0.0
 11
18.59973089678115
 21
-8.771599258481472
 31
0.0
  0
LINE
  5
56
330
24
100
AcDbEntity
  8
0
100
AcDbLine
 10
22.59973089678116
 20
-5.771599258481472
 30
0.0
 11
18.59973089678115
 21
-5.771599258481472
 31
0.0
  0
LINE
  5
57
330
24
100
AcDbEntity
  8
0
100
AcDbLine
 10
22.59973089678116
 20
-4.771599258481472
 30
0.0
 11
17.59973089678115
 21
-4.771599258481472
 31
0.0
  0
LINE
  5
58
330
24
100
AcDbEntity
  8
0
100
AcDbLine
 10
18.59973089678115
 20
-5.771599258481472
 30
0.0
 11
18.59973089678115
 21
-8.771599258481472
 31
0.0
  0
ARC
  5
59
330
24
100
AcDbEntity
  8
0
100
AcDbCircle
 10
22.59973089678116
 20
-7.271599258481472
 30
0.0
 40
1.5
100
AcDbArc
 50
270.0
 51
90.0
  0
ENDBLK
  5
5A
330
24
100
AcDbEntity
  8
0
100
AcDbBlockEnd
  0
BLOCK
  5
5B
330
25
100
AcDbEntity
  8
0
100
AcDbBlockBegin
  2
LORO
 70
     0
 10
0.0
 20
0.0
 30
0.0
  3
LORO
  1

  0
INSERT
  5
5C
330
25
100
AcDbEntity
  8
STEMPEL
100
AcDbBlockReference
  2
LOGO
 10
-1.748032802467321
 20
3.771489518552062
 30
0.0
  0
ENDBLK
  5
5D
330
25
100
AcDbEntity
  8
0
100
AcDbBlockEnd
  0
BLOCK
  5
1DB
330
1D1
100
AcDbEntity
  8
0
100
AcDbBlockBegin
  2
*D2
 70
     1
 10
0.0
 20
0.0
 30
0.0
  3
*D2
  1

  0
LINE
  5
3F2
330
1D1
100
AcDbEntity
  8
SCHRAFF
 62
     0
370
    -2
100
AcDbLine
 10
259.4750680188444
 20
218.7764577338418
 30
0.0
 11
324.657756593445
 21
218.7764577338418
 31
0.0
  0
LINE
  5
3F3
330
1D1
100
AcDbEntity
  8
SCHRAFF
 62
     0
370
    -2
100
AcDbLine
 10
262.5517350874076
 20
548.7764577338419
 30
0.0
 11
324.657756593445
 21
548.7764577338419
 31
0.0
  0
LINE
  5
3F4
330
1D1
100
AcDbEntity
  8
SCHRAFF
 62
     0
370
    -2
100
AcDbLine
 10
322.657756593445
 20
225.7764577338418
 30
0.0
 11
322.657756593445
 21
541.7764577338418
 31
0.0
  0
SOLID
  5
3F5
330
1D1
100
AcDbEntity
  8
SCHRAFF
 62
     0
100
AcDbTrace
 10
321.4910899267783
 20
225.7764577338418
 30
0.0
 11
323.8244232601116
 21
225.7764577338418
 31
0.0
 12
322.657756593445
 22
218.7764577338418
 32
0.0
 13
322.657756593445
 23
218.7764577338418
 33
0.0
  0
SOLID
  5
3F6
330
1D1
100
AcDbEntity
  8
SCHRAFF
 62
     0
100
AcDbTrace
 10
321.4910899267783
 20
541.7764577338418
 30
0.0
 11
323.8244232601117
 21
541.7764577338418
 31
0.0
 12
322.657756593445
 22
548.7764577338419
 32
0.0
 13
322.657756593445
 23
548.7764577338419
 33
0.0
  0
MTEXT
  5
3F7
330
1D1
100
AcDbEntity
  8
SCHRAFF
 62
     1
100
AcDbMText
 10
317.1577565934449
 20
383.7764577338419
 30
0.0
 40
7.0
 41
0.0
 71
     5
 72
     1
  1
\A1;800
 11
0.0000000000000001
 21
1.0
 31
0.0
 73
     1
 44
1.0
  0
POINT
  5
3F8
330
1D1
100
AcDbEntity
  8
DEFPOINTS
 62
     0
100
AcDbPoint
 10
257.4750680188444
 20
218.7764577338418
 30
0.0
  0
POINT
  5
3F9
330
1D1
100
AcDbEntity
  8
DEFPOINTS
 62
     0
100
AcDbPoint
 10
260.5517350874076
 20
548.7764577338419
 30
0.0
  0
POINT
  5
3FA
330
1D1
100
AcDbEntity
  8
DEFPOINTS
 62
     0
100
AcDbPoint
 10
322.657756593445
 20
548.7764577338419
 30
0.0
  0
ENDBLK
  5
1DC
330
1D1
100
AcDbEntity
  8
0
100
AcDbBlockEnd
  0
BLOCK
  5
1E7
330
1DD
100
AcDbEntity
  8
0
100
AcDbBlockBegin
  2
*D3
 70
     1
 10
0.0
 20
0.0
 30
0.0
  3
*D3
  1

  0
LINE
  5
3FB
330
1DD
100
AcDbEntity
  8
SCHRAFF
 62
     0
370
    -2
100
AcDbLine
 10
259.4750680188444
 20
218.7764577338418
 30
0.0
 11
310.657756593445
 21
218.7764577338418
 31
0.0
  0
LINE
  5
3FC
330
1DD
100
AcDbEntity
  8
SCHRAFF
 62
     0
370
    -2
100
AcDbLine
 10
260.0797816098719
 20
298.7764577338419
 30
0.0
 11
310.657756593445
 21
298.7764577338419
 31
0.0
  0
LINE
  5
3FD
330
1DD
100
AcDbEntity
  8
SCHRAFF
 62
     0
370
    -2
100
AcDbLine
 10
308.657756593445
 20
225.7764577338419
 30
0.0
 11
308.657756593445
 21
291.7764577338419
 31
0.0
  0
SOLID
  5
3FE
330
1DD
100
AcDbEntity
  8
SCHRAFF
 62
     0
100
AcDbTrace
 10
307.4910899267783
 20
225.7764577338419
 30
0.0
 11
309.8244232601117
 21
225.7764577338419
 31
0.0
 12
308.657756593445
 22
218.7764577338418
 32
0.0
 13
308.657756593445
 23
218.7764577338418
 33
0.0
  0
SOLID
  5
3FF
330
1DD
100
AcDbEntity
  8
SCHRAFF
 62
     0
100
AcDbTrace
 10
307.4910899267783
 20
291.7764577338419
 30
0.0
 11
309.8244232601117
 21
291.7764577338419
 31
0.0
 12
308.657756593445
 22
298.7764577338419
 32
0.0
 13
308.657756593445
 23
298.7764577338419
 33
0.0
  0
MTEXT
  5
400
330
1DD
100
AcDbEntity
  8
SCHRAFF
 62
     1
100
AcDbMText
 10
303.1577565934449
 20
258.7764577338419
 30
0.0
 40
7.0
 41
0.0
 71
     5
 72
     1
  1
\A1;80
 11
0.0000000000000001
 21
1.0
 31
0.0
 73
     1
 44
1.0
  0
POINT
  5
401
330
1DD
100
AcDbEntity
  8
DEFPOINTS
 62
     0
100
AcDbPoint
 10
257.4750680188444
 20
218.7764577338418
 30
0.0
  0
POINT
  5
402
330
1DD
100
AcDbEntity
  8
DEFPOINTS
 62
     0
100
AcDbPoint
 10
258.0797816098719
 20
298.7764577338419
 30
0.0
  0
POINT
  5
403
330
1DD
100
AcDbEntity
  8
DEFPOINTS
 62
     0
100
AcDbPoint
 10
308.657756593445
 20
298.7764577338419
 30
0.0
  0
ENDBLK
  5
1E8
330
1DD
100
AcDbEntity
  8
0
100
AcDbBlockEnd
  0
BLOCK
  5
213
330
209
100
AcDbEntity
  8
0
100
AcDbBlockBegin
  2
*D5
 70
     1
 10
0.0
 20
0.0
 30
0.0
  3
*D5
  1

  0
LINE
  5
404
330
209
100
AcDbEntity
  8
BEM
 62
     0
370
    -2
100
AcDbLine
 10
188.4999999999999
 20
545.7764577338416
 30
0.0
 11
188.4999999999999
 21
562.5926042495946
 31
0.0
  0
LINE
  5
405
330
209
100
AcDbEntity
  8
BEM
 62
     0
370
    -2
100
AcDbLine
 10
261.4999999999999
 20
544.9943101536676
 30
0.0
 11
261.4999999999999
 21
562.5926042495946
 31
0.0
  0
LINE
  5
406
330
209
100
AcDbEntity
  8
BEM
 62
     0
370
    -2
100
AcDbLine
 10
195.4999999999999
 20
560.5926042495946
 30
0.0
 11
254.4999999999999
 21
560.5926042495946
 31
0.0
  0
SOLID
  5
407
330
209
100
AcDbEntity
  8
BEM
 62
     0
100
AcDbTrace
 10
195.4999999999999
 20
561.7592709162612
 30
0.0
 11
195.4999999999999
 21
559.4259375829279
 31
0.0
 12
188.4999999999999
 22
560.5926042495946
 32
0.0
 13
188.4999999999999
 23
560.5926042495946
 33
0.0
  0
SOLID
  5
408
330
209
100
AcDbEntity
  8
BEM
 62
     0
100
AcDbTrace
 10
254.4999999999999
 20
561.7592709162612
 30
0.0
 11
254.4999999999999
 21
559.4259375829279
 31
0.0
 12
261.4999999999999
 22
560.5926042495946
 32
0.0
 13
261.4999999999999
 23
560.5926042495946
 33
0.0
  0
MTEXT
  5
409
330
209
100
AcDbEntity
  8
BEM
 62
     1
100
AcDbMText
 10
224.9999999999999
 20
566.0926042495946
 30
0.0
 40
7.0
 41
0.0
 71
     5
 72
     1
  1
\A1;%%c73
 73
     1
 44
1.0
  0
POINT
  5
40A
330
209
100
AcDbEntity
  8
DEFPOINTS
 62
     0
100
AcDbPoint
 10
188.4999999999999
 20
543.7764577338416
 30
0.0
  0
POINT
  5
40B
330
209
100
AcDbEntity
  8
DEFPOINTS
 62
     0
100
AcDbPoint
 10
261.4999999999999
 20
542.9943101536675
 30
0.0
  0
POINT
  5
40C
330
209
100
AcDbEntity
  8
DEFPOINTS
 62
     0
100
AcDbPoint
 10
261.4999999999999
 20
560.5926042495946
 30
0.0
  0
ENDBLK
  5
214
330
209
100
AcDbEntity
  8
0
100
AcDbBlockEnd
  0
BLOCK
  5
356
330
34C
100
AcDbEntity
  8
0
100
AcDbBlockBegin
  2
*D6
 70
     1
 10
0.0
 20
0.0
 30
0.0
  3
*D6
  1

  0
LINE
  5
3E9
330
34C
100
AcDbEntity
  8
SCHRAFF
 62
     0
370
    -2
100
AcDbLine
 10
191.9999999999999
 20
222.7764577338413
 30
0.0
 11
191.9999999999999
 21
199.8364809270969
 31
0.0
  0
LINE
  5
3EA
330
34C
100
AcDbEntity
  8
SCHRAFF
 62
     0
370
    -2
100
AcDbLine
 10
258.0
 20
225.4064242979318
 30
0.0
 11
258.0
 21
199.8364809270969
 31
0.0
  0
LINE
  5
3EB
330
34C
100
AcDbEntity
  8
SCHRAFF
 62
     0
370
    -2
100
AcDbLine
 10
199.0
 20
201.836480927097
 30
0.0
 11
250.9999999999999
 21
201.836480927097
 31
0.0
  0
SOLID
  5
3EC
330
34C
100
AcDbEntity
  8
SCHRAFF
 62
     0
100
AcDbTrace
 10
199.0
 20
203.0031475937636
 30
0.0
 11
199.0
 21
200.6698142604303
 31
0.0
 12
191.9999999999999
 22
201.836480927097
 32
0.0
 13
191.9999999999999
 23
201.836480927097
 33
0.0
  0
SOLID
  5
3ED
330
34C
100
AcDbEntity
  8
SCHRAFF
 62
     0
100
AcDbTrace
 10
250.9999999999999
 20
203.0031475937636
 30
0.0
 11
250.9999999999999
 21
200.6698142604303
 31
0.0
 12
258.0
 22
201.836480927097
 32
0.0
 13
258.0
 23
201.836480927097
 33
0.0
  0
MTEXT
  5
3EE
330
34C
100
AcDbEntity
  8
SCHRAFF
 62
     1
100
AcDbMText
 10
225.0
 20
207.3364809270969
 30
0.0
 40
7.0
 41
0.0
 71
     5
 72
     1
  1
\A1;%%c66
 73
     1
 44
1.0
  0
POINT
  5
3EF
330
34C
100
AcDbEntity
  8
DEFPOINTS
 62
     0
100
AcDbPoint
 10
191.9999999999999
 20
224.7764577338413
 30
0.0
  0
POINT
  5
3F0
330
34C
100
AcDbEntity
  8
DEFPOINTS
 62
     0
100
AcDbPoint
 10
258.0
 20
227.4064242979318
 30
0.0
  0
POINT
  5
3F1
330
34C
100
AcDbEntity
  8
DEFPOINTS
 62
     0
100
AcDbPoint
 10
258.0
 20
201.836480927097
 30
0.0
  0
ENDBLK
  5
357
330
34C
100
AcDbEntity
  8
0
100
AcDbBlockEnd
  0
ENDSEC
  0
SECTION
  2
ENTITIES
  0
LINE
  5
161
330
20
100
AcDbEntity
  8
STEMPEL
100
AcDbLine
 10
39.99999999999977
 20
9.999999999999996
 30
0.0
 11
410.0
 21
10.0
 31
0.0
  0
LINE
  5
162
330
20
100
AcDbEntity
  8
STEMPEL
100
AcDbLine
 10
410.0
 20
110.0
 30
0.0
 11
410.0
 21
10.0
 31
0.0
  0
LINE
  5
163
330
20
100
AcDbEntity
  8
STEMPEL
100
AcDbLine
 10
410.0
 20
10.0
 30
0.0
 11
39.99999999999989
 21
10.0
 31
0.0
  0
LINE
  5
164
330
20
100
AcDbEntity
  8
STEMPEL
100
AcDbLine
 10
410.0
 20
110.0
 30
0.0
 11
410.0
 21
584.0
 31
0.0
  0
LINE
  5
165
330
20
100
AcDbEntity
  8
STEMPEL
100
AcDbLine
 10
40.0
 20
10.0
 30
0.0
 11
39.99999999999989
 21
584.0
 31
0.0
  0
LINE
  5
166
330
20
100
AcDbEntity
  8
STEMPEL
100
AcDbLine
 10
410.0
 20
584.0
 30
0.0
 11
39.99999999999989
 21
584.0
 31
0.0
  0
LINE
  5
167
330
20
100
AcDbEntity
  8
HILF
100
AcDbLine
 10
0.0
 20
0.0
 30
0.0
 11
-0.0000000000001137
 21
594.0
 31
0.0
  0
LINE
  5
168
330
20
100
AcDbEntity
  8
HILF
100
AcDbLine
 10
419.9999999999999
 20
594.0000000000002
 30
0.0
 11
0.0
 21
594.0
 31
0.0
  0
LINE
  5
169
330
20
100
AcDbEntity
  8
HILF
100
AcDbLine
 10
420.0
 20
0.0
 30
0.0
 11
0.0
 21
0.0
 31
0.0
  0
LINE
  5
16A
330
20
100
AcDbEntity
  8
HILF
100
AcDbLine
 10
31.08767135713856
 20
297.0
 30
0.0
 11
0.0000000000001137
 21
297.0
 31
0.0
  0
LINE
  5
16B
330
20
100
AcDbEntity
  8
HILF
100
AcDbLine
 10
420.0
 20
-0.0000000000001137
 30
0.0
 11
419.9999999999999
 21
594.0
 31
0.0
  0
TEXT
  5
16C
330
20
100
AcDbEntity
  8
VOLL
100
AcDbText
 10
78.07675471698113
 20
31.02594776470585
 30
0.0
 40
1.8
  1

  7
GREEKS
100
AcDbText
  0
TEXT
  5
16D
330
20
100
AcDbEntity
  8
TEXT35
100
AcDbText
 10
275.4909634827566
 20
138.2159990181056
 30
0.0
 40
7.0
  1
Werkstoff: E195 EN10305
 41
0.8
100
AcDbText
  0
INSERT
  5
16E
330
20
100
AcDbEntity
  8
STEMPEL
100
AcDbBlockReference
  2
LORO
 10
153.0624985962354
 20
36.98059300298962
 30
0.0
 41
2.0
 42
2.0
 43
2.0
  0
TEXT
  5
16F
330
20
100
AcDbEntity
  8
TEXT25
100
AcDbText
 10
196.5714285714288
 20
102.8515866604871
 30
0.0
 40
5.0
  1
Zul. Abw.
 41
0.8
 72
     1
 11
210.0000000000002
 21
102.8515866604871
 31
0.0
100
AcDbText
  0
LINE
  5
170
330
20
100
AcDbEntity
  8
HILF
100
AcDbLine
 10
146.0000000000002
 20
50.0
 30
0.0
 11
230.0000000000001
 21
50.0
 31
0.0
  0
LINE
  5
171
330
20
100
AcDbEntity
  8
HILF
100
AcDbLine
 10
146.0000000000002
 20
60.0
 30
0.0
 11
230.0000000000001
 21
60.0
 31
0.0
  0
LINE
  5
172
330
20
100
AcDbEntity
  8
HILF
100
AcDbLine
 10
146.0000000000002
 20
70.0
 30
0.0
 11
230.0000000000001
 21
70.0
 31
0.0
  0
LINE
  5
173
330
20
100
AcDbEntity
  8
STEMPEL
100
AcDbLine
 10
410.0000000000002
 20
80.0
 30
0.0
 11
146.0000000000002
 21
80.0
 31
0.0
  0
LINE
  5
174
330
20
100
AcDbEntity
  8
STEMPEL
100
AcDbLine
 10
410.0000000000002
 20
40.0
 30
0.0
 11
146.0000000000001
 21
40.0
 31
0.0
  0
LINE
  5
175
330
20
100
AcDbEntity
  8
STEMPEL
100
AcDbLine
 10
410.0000000000002
 20
110.0
 30
0.0
 11
40.0000000000001
 21
110.0
 31
0.0
  0
TEXT
  5
176
330
20
100
AcDbEntity
  8
TEXT25
100
AcDbText
 10
48.99999999999999
 20
14.28571428571428
 30
0.0
 40
4.0
  1
Index
 50
90.0
 41
0.8
 72
     4
 11
46.99999999999999
 21
20.0
 31
0.0
100
AcDbText
  0
LINE
  5
177
330
20
100
AcDbEntity
  8
VOLL
100
AcDbLine
 10
124.0000000000002
 20
109.9999999999999
 30
0.0
 11
124.0000000000001
 21
9.999999999999886
 31
0.0
  0
LINE
  5
178
330
20
100
AcDbEntity
  8
VOLL
100
AcDbLine
 10
104.0000000000002
 20
110.0
 30
0.0
 11
104.0000000000001
 21
10.0
 31
0.0
  0
LINE
  5
179
330
20
100
AcDbEntity
  8
VOLL
100
AcDbLine
 10
54.00000000000011
 20
110.0
 30
0.0
 11
53.99999999999999
 21
9.999999999999996
 31
0.0
  0
LINE
  5
17A
330
20
100
AcDbEntity
  8
STEMPEL
100
AcDbLine
 10
146.0000000000002
 20
109.9999999999999
 30
0.0
 11
146.0000000000001
 21
9.999999999999886
 31
0.0
  0
LINE
  5
17B
330
20
100
AcDbEntity
  8
VOLL
100
AcDbLine
 10
190.0000000000002
 20
109.9999999999999
 30
0.0
 11
190.0000000000001
 21
40.0
 31
0.0
  0
TEXT
  5
17C
330
20
100
AcDbEntity
  8
TEXT25
100
AcDbText
 10
43.83548634483843
 20
112.492566121982
 30
0.0
 40
5.0
  1
Erstellt mit AUTOCAD 2004
 41
0.8
100
AcDbText
  0
LINE
  5
17D
330
20
100
AcDbEntity
  8
HILF
100
AcDbLine
 10
40.0000000000001
 20
90.0
 30
0.0
 11
146.0000000000002
 21
90.0
 31
0.0
  0
LINE
  5
17E
330
20
100
AcDbEntity
  8
HILF
100
AcDbLine
 10
40.0000000000001
 20
100.0
 30
0.0
 11
146.0000000000002
 21
100.0
 31
0.0
  0
TEXT
  5
17F
330
20
100
AcDbEntity
  8
TEXT25
100
AcDbText
 10
156.1904761904764
 20
102.8515866604871
 30
0.0
 40
5.0
  1
Maßstab
 41
0.8
 72
     1
 11
168.0000000000002
 21
102.8515866604871
 31
0.0
100
AcDbText
  0
TEXT
  5
180
330
20
100
AcDbEntity
  8
TEXT35
100
AcDbText
 10
162.0000000000002
 20
86.13492260326564
 30
0.0
 40
7.0
  1
1:2
 41
0.8
 72
     1
 11
168.0000000000002
 21
86.13492260326564
 31
0.0
100
AcDbText
  0
LINE
  5
181
330
20
100
AcDbEntity
  8
HILF
100
AcDbLine
 10
40.0000000000001
 20
40.0
 30
0.0
 11
146.0000000000002
 21
40.0
 31
0.0
  0
LINE
  5
182
330
20
100
AcDbEntity
  8
HILF
100
AcDbLine
 10
40.0000000000001
 20
50.0
 30
0.0
 11
146.0000000000002
 21
50.0
 31
0.0
  0
LINE
  5
183
330
20
100
AcDbEntity
  8
HILF
100
AcDbLine
 10
40.0000000000001
 20
60.0
 30
0.0
 11
146.0000000000002
 21
60.0
 31
0.0
  0
LINE
  5
184
330
20
100
AcDbEntity
  8
HILF
100
AcDbLine
 10
40.0000000000001
 20
70.0
 30
0.0
 11
146.0000000000002
 21
70.0
 31
0.0
  0
LINE
  5
185
330
20
100
AcDbEntity
  8
HILF
100
AcDbLine
 10
40.0000000000001
 20
80.0
 30
0.0
 11
146.0000000000002
 21
80.0
 31
0.0
  0
LINE
  5
186
330
20
100
AcDbEntity
  8
STEMPEL
100
AcDbLine
 10
146.0
 20
30.0
 30
0.0
 11
40.0
 21
30.0
 31
0.0
  0
TEXT
  5
187
330
20
100
AcDbEntity
  8
TEXT25
100
AcDbText
 10
68.2571428571429
 20
18.28571428571428
 30
0.0
 40
4.0
  1
Änderung
 41
0.8
 72
     4
 11
79.00000000000005
 21
20.0
 31
0.0
100
AcDbText
  0
LINE
  5
188
330
20
100
AcDbEntity
  8
VOLL
100
AcDbLine
 10
164.0000000000002
 20
80.0
 30
0.0
 11
164.0000000000002
 21
40.0
 31
0.0
  0
TEXT
  5
189
330
20
100
AcDbEntity
  8
TEXT25
100
AcDbText
 10
150.3523809523812
 20
73.0
 30
0.0
 40
4.0
  1
2011
 41
0.8
 72
     4
 11
155.0000000000003
 21
75.0
 31
0.0
100
AcDbText
  0
TEXT
  5
18A
330
20
100
AcDbEntity
  8
TEXT25
100
AcDbText
 10
147.5772107698141
 20
52.0
 30
0.0
 40
4.0
  1
Gepr.
 41
0.8
100
AcDbText
  0
TEXT
  5
18B
330
20
100
AcDbEntity
  8
TEXT25
100
AcDbText
 10
147.5772107698141
 20
62.0
 30
0.0
 40
4.0
  1
Gez.
 41
0.8
100
AcDbText
  0
TEXT
  5
18C
330
20
100
AcDbEntity
  8
TEXT25
100
AcDbText
 10
170.2952380952383
 20
62.71674890197676
 30
0.0
 40
4.0
  1
01.04.
 41
0.8
 72
     4
 11
177.0000000000002
 21
64.71674890197675
 31
0.0
100
AcDbText
  0
TEXT
  5
18D
330
20
100
AcDbEntity
  8
TEXT25
100
AcDbText
 10
173.266666666667
 20
73.66666666666667
 30
0.0
 40
4.0
  1
Tag
 41
0.8
 72
     4
 11
177.0000000000003
 21
75.0
 31
0.0
100
AcDbText
  0
TEXT
  5
18E
330
20
100
AcDbEntity
  8
TEXT25
100
AcDbText
 10
147.5772107698141
 20
42.00000000000023
 30
0.0
 40
4.0
  1
Norm.
 41
0.8
100
AcDbText
  0
TEXT
  5
18F
330
20
100
AcDbEntity
  8
TEXT25
100
AcDbText
 10
128.6761904761906
 20
18.0
 30
0.0
 40
4.0
  1
Name
 41
0.8
 72
     4
 11
135.0000000000001
 21
20.0
 31
0.0
100
AcDbText
  0
TEXT
  5
190
330
20
100
AcDbEntity
  8
TEXT25
100
AcDbText
 10
110.2666666666668
 20
18.66666666666667
 30
0.0
 40
4.0
  1
Tag
 41
0.8
 72
     4
 11
114.0000000000001
 21
20.0
 31
0.0
100
AcDbText
  0
LINE
  5
191
330
20
100
AcDbEntity
  8
STEMPEL
100
AcDbLine
 10
230.0000000000001
 20
110.0
 30
0.0
 11
230.0000000000001
 21
10.0
 31
0.0
  0
LINE
  5
192
330
20
100
AcDbEntity
  8
HILF
100
AcDbLine
 10
336.7238616296995
 20
83.77983636955821
 30
0.0
 11
404.858883932673
 21
83.77983636955821
 31
0.0
  0
LINE
  5
193
330
20
100
AcDbEntity
  8
VOLL
100
AcDbLine
 10
332.0000000000002
 20
60.0
 30
0.0
 11
410.0000000000002
 21
60.0
 31
0.0
  0
LINE
  5
194
330
20
100
AcDbEntity
  8
STEMPEL
100
AcDbLine
 10
332.0000000000002
 20
109.9999999999996
 30
0.0
 11
332.0000000000002
 21
40.0
 31
0.0
  0
LINE
  5
195
330
20
100
AcDbEntity
  8
HILF
100
AcDbLine
 10
234.7736801096949
 20
84.03758247564132
 30
0.0
 11
326.6297842514812
 21
84.03758247564132
 31
0.0
  0
TEXT
  5
196
330
20
100
AcDbEntity
  8
TEXT25
100
AcDbText
 10
234.8779403809011
 20
102.5489328011779
 30
0.0
 40
5.0
  1
Benennung
 41
0.8
100
AcDbText
  0
TEXT
  5
197
330
20
100
AcDbEntity
  8
TEXT35
100
AcDbText
 10
234.8779403809011
 20
86.03758247564133
 30
0.0
 40
7.0
  1
Schutzrohr DN50
 41
0.8
100
AcDbText
  0
TEXT
  5
198
330
20
100
AcDbEntity
  8
TEXT25
100
AcDbText
 10
336.1787549576343
 20
102.0
 30
0.0
 40
5.0
  1
Zeichnungs Nr.
 41
0.8
100
AcDbText
  0
TEXT
  5
199
330
20
100
AcDbEntity
  8
TEXT35
100
AcDbText
 10
347.5333333333333
 20
86.03758247564133
 30
0.0
 40
7.0
  1
00718050W
 41
0.8
 72
     1
 11
371.0
 21
86.03758247564133
 31
0.0
100
AcDbText
  0
LINE
  5
19A
330
20
100
AcDbEntity
  8
HILF
100
AcDbLine
 10
234.7736801096949
 20
50.0
 30
0.0
 11
326.6297842514812
 21
50.0
 31
0.0
  0
LINE
  5
19B
330
20
100
AcDbEntity
  8
HILF
100
AcDbLine
 10
234.7736801096949
 20
60.0
 30
0.0
 11
326.6297842514812
 21
60.0
 31
0.0
  0
LINE
  5
19C
330
20
100
AcDbEntity
  8
HILF
100
AcDbLine
 10
234.7736801096949
 20
70.0
 30
0.0
 11
326.6297842514812
 21
70.0
 31
0.0
  0
TEXT
  5
19D
330
20
100
AcDbEntity
  8
TEXT25
100
AcDbText
 10
204.7428571428572
 20
62.71674890197664
 30
0.0
 40
4.0
  1
Koeh
 41
0.8
 72
     4
 11
210.0000000000001
 21
64.71674890197665
 31
0.0
100
AcDbText
  0
TEXT
  5
19E
330
20
100
AcDbEntity
  8
TEXT25
100
AcDbText
 10
203.6761904761906
 20
73.0
 30
0.0
 40
4.0
  1
Name
 41
0.8
 72
     4
 11
210.0000000000001
 21
75.0
 31
0.0
100
AcDbText
  0
TEXT
  5
19F
330
20
100
AcDbEntity
  8
TEXT25
100
AcDbText
 10
234.8779403809011
 20
71.0
 30
0.0
 40
5.0
  1
zur Wanddurchführung
 41
0.8
100
AcDbText
  0
TEXT
  5
1A0
330
20
100
AcDbEntity
  8
TEXT25
100
AcDbText
 10
234.8779403809011
 20
51.0
 30
0.0
 40
5.0
  1
EDV-Art.Nr. 00718.050X
 41
0.8
100
AcDbText
  0
TEXT
  5
1A1
330
20
100
AcDbEntity
  8
TEXT25
100
AcDbText
 10
234.8779403809011
 20
30.8456057019306
 30
0.0
 40
5.0
  1
Bauvorhaben
 41
0.8
100
AcDbText
  0
TEXT
  5
1A2
330
20
100
AcDbEntity
  8
TEXT25
100
AcDbText
 10
234.8779403809011
 20
42.0
 30
0.0
 40
4.0
  1
00718050W.DWG
 41
0.8
100
AcDbText
  0
TEXT
  5
1A3
330
20
100
AcDbEntity
  8
TEXT25
100
AcDbText
 10
336.1787549576343
 20
52.0
 30
0.0
 40
5.0
  1
ersetzt durch:
 41
0.8
100
AcDbText
  0
TEXT
  5
1A4
330
20
100
AcDbEntity
  8
TEXT25
100
AcDbText
 10
336.1787549576343
 20
72.00000000000023
 30
0.0
 40
5.0
  1
Ersatz für:
 41
0.8
100
AcDbText
  0
LINE
  5
1A5
330
20
100
AcDbEntity
  8
HILF
100
AcDbLine
 10
234.7736801096949
 20
14.89398258028302
 30
0.0
 11
404.858883932673
 21
14.89398258028302
 31
0.0
  0
TEXT
  5
1A6
330
20
100
AcDbEntity
  8
TEXT25
100
AcDbText
 10
416.5811541437437
 20
12.14804815338303
 30
0.0
 40
4.0
  1
Diese Zeichnung ist urheberrechtlich geschuetzt und bleibt unser Eigentum. Sie darf weder ganz noch teilweise vervielfaeltigt und nicht an Dritte weitergegeben werden.
 50
90.0
 41
0.8
100
AcDbText
  0
LINE
  5
1A7
330
20
100
AcDbEntity
  8
STEMPEL
100
AcDbLine
 10
188.9374433176296
 20
548.7764577338419
 30
0.0
 11
261.0686684224397
 21
548.7764577338419
 31
0.0
  0
LINE
  5
1A9
330
20
100
AcDbEntity
  8
MITTEL
  6
STRICHPUNKT
100
AcDbLine
 10
225.0
 20
553.7764577338419
 30
0.0
 11
224.9999999999999
 21
213.9157035560797
 31
0.0
  0
LINE
  5
1AA
330
20
100
AcDbEntity
  8
STEMPEL
100
AcDbLine
 10
188.4999999999999
 20
543.7764577338416
 30
0.0
 11
188.4999999999999
 21
444.3387489948024
 31
0.0
  0
LINE
  5
1AB
330
20
100
AcDbEntity
  8
STEMPEL
100
AcDbLine
 10
261.5
 20
543.8463152424957
 30
0.0
 11
261.5
 21
444.3387489948024
 31
0.0
  0
LINE
  5
1AC
330
20
100
AcDbEntity
  8
HILF
100
AcDbLine
 10
193.5261759226531
 20
298.7764577338419
 30
0.0
 11
256.4703434460313
 21
298.7764577338418
 31
0.0
  0
LINE
  5
1AD
330
20
100
AcDbEntity
  8
HILF
100
AcDbLine
 10
190.1921580110894
 20
313.7764577338419
 30
0.0
 11
259.8078419889105
 21
313.7764577338418
 31
0.0
  0
LINE
  5
1AE
330
20
100
AcDbEntity
  8
STEMPEL
100
AcDbLine
 10
191.9999999999999
 20
297.3950115598441
 30
0.0
 11
191.9999999999999
 21
224.7764577338415
 31
0.0
  0
LINE
  5
1AF
330
20
100
AcDbEntity
  8
STEMPEL
100
AcDbLine
 10
257.9999999999999
 20
297.3950115598441
 30
0.0
 11
257.9999999999999
 21
224.7764577338415
 31
0.0
  0
LINE
  5
1B0
330
20
100
AcDbEntity
  8
STEMPEL
100
AcDbLine
 10
188.8139054830983
 20
312.4311485205627
 30
0.0
 11
191.6860945169014
 21
300.1217669471212
 31
0.0
  0
LINE
  5
1B1
330
20
100
AcDbEntity
  8
STEMPEL
100
AcDbLine
 10
261.1860945169015
 20
312.4311485205627
 30
0.0
 11
258.3139054830984
 21
300.1217669471211
 31
0.0
  0
DIMENSION
  5
1B7
330
20
100
AcDbEntity
  8
BEM
100
AcDbDimension
  2
*D5
 10
261.4999999999999
 20
560.5926042495946
 30
0.0
 11
224.9999999999999
 21
566.0926042495946
 31
0.0
 70
    32
  1
%%c<>
 71
     5
 42
73.0
  3
Standard
100
AcDbAlignedDimension
 13
188.4999999999999
 23
543.7764577338416
 33
0.0
 14
261.4999999999999
 24
542.9943101536675
 34
0.0
100
AcDbRotatedDimension
1001
ACAD
1000
DSTYLE
1002
{
1070
    40
1040
2.0
1070
    41
1040
3.5
1070
    42
1040
1.0
1070
    43
1040
7.0
1070
    44
1040
1.0
1070
    47
1040
3.0
1070
    48
1040
3.0
1070
    73
1070
     0
1070
    74
1070
     0
1070
    77
1070
     1
1070
    78
1070
     8
1070
   140
1040
3.5
1070
   141
1040
2.0
1070
   146
1040
0.5142857142857144
1070
   147
1040
1.0
1070
   172
1070
     1
1070
   178
1070
     1
1070
   271
1070
     1
1070
   272
1070
     1
1070
   284
1070
     8
1070
   285
1070
     8
1070
   286
1070
     8
1002
}
  0
TEXT
  5
1B8
330
20
100
AcDbEntity
  8
TEXT35
100
AcDbText
 10
322.2742371537278
 20
125.5914867917842
 30
0.0
 40
7.0
  1
feuerverzinkt
 41
0.8
100
AcDbText
  0
TEXT
  5
1BA
330
20
100
AcDbEntity
  8
TEXT35
100
AcDbText
 10
221.0965272127348
 20
383.2065067400952
 30
0.0
 40
7.0
  1
DN70
 50
90.0
 41
0.8
100
AcDbText
  0
DIMENSION
  5
1C1
330
20
100
AcDbEntity
  8
SCHRAFF
100
AcDbDimension
  2
*D3
 10
308.657756593445
 20
298.7764577338419
 30
0.0
 11
303.1577565934449
 21
258.7764577338419
 31
0.0
 70
    32
 71
     5
 42
80.00000000000003
  3
Standard
100
AcDbAlignedDimension
 13
257.4750680188444
 23
218.7764577338418
 33
0.0
 14
258.0797816098719
 24
298.7764577338419
 34
0.0
 50
90.0
100
AcDbRotatedDimension
1001
ACAD
1000
DSTYLE
1002
{
1070
    40
1040
2.0
1070
    41
1040
3.5
1070
    42
1040
1.0
1070
    43
1040
7.0
1070
    44
1040
1.0
1070
    47
1040
3.0
1070
    48
1040
3.0
1070
    73
1070
     0
1070
    74
1070
     0
1070
    77
1070
     1
1070
    78
1070
     8
1070
   140
1040
3.5
1070
   141
1040
2.0
1070
   146
1040
0.5142857142857144
1070
   147
1040
1.0
1070
   172
1070
     1
1070
   178
1070
     1
1070
   271
1070
     1
1070
   272
1070
     1
1070
   284
1070
     8
1070
   285
1070
     8
1070
   286
1070
     8
1002
}
  0
DIMENSION
  5
1C2
330
20
100
AcDbEntity
  8
SCHRAFF
100
AcDbDimension
  2
*D2
 10
322.657756593445
 20
548.7764577338419
 30
0.0
 11
317.1577565934449
 21
383.7764577338419
 31
0.0
 70
    32
  1
800
 71
     5
 42
330.0000000000001
  3
Standard
100
AcDbAlignedDimension
 13
257.4750680188444
 23
218.7764577338418
 33
0.0
 14
260.5517350874076
 24
548.7764577338419
 34
0.0
 50
90.0
100
AcDbRotatedDimension
1001
ACAD
1000
DSTYLE
1002
{
1070
    40
1040
2.0
1070
    41
1040
3.5
1070
    42
1040
1.0
1070
    43
1040
7.0
1070
    44
1040
1.0
1070
    47
1040
3.0
1070
    48
1040
3.0
1070
    73
1070
     0
1070
    74
1070
     0
1070
    77
1070
     1
1070
    78
1070
     8
1070
   140
1040
3.5
1070
   141
1040
2.0
1070
   146
1040
0.5142857142857144
1070
   147
1040
1.0
1070
   172
1070
     1
1070
   178
1070
     1
1070
   271
1070
     1
1070
   272
1070
     1
1070
   284
1070
     8
1070
   285
1070
     8
1070
   286
1070
     8
1002
}
  0
TEXT
  5
281
330
20
100
AcDbEntity
  8
TEXT25
100
AcDbText
 10
193.3322544547035
 20
90.01136940000163
 30
0.0
 40
4.0
  1
DIN EN1123-3
 41
0.8
 72
     4
 11
210.3227306451797
 21
92.01136940000163
 31
0.0
100
AcDbText
  0
LINE
  5
290
330
20
100
AcDbEntity
  8
STEMPEL
100
AcDbLine
 10
188.9374433176296
 20
548.7764577338419
 30
0.0
 11
188.4999999999999
 21
543.7764577338419
 31
0.0
  0
LINE
  5
292
330
20
100
AcDbEntity
  8
STEMPEL
100
AcDbLine
 10
261.0686684224397
 20
548.7764577338419
 30
0.0
 11
261.4999999999999
 21
543.8463152424956
 31
0.0
  0
LINE
  5
293
330
20
100
AcDbEntity
  8
HILF
100
AcDbLine
 10
190.0999999999999
 20
543.7764577338417
 30
0.0
 11
259.8999999999999
 21
543.7764577338416
 31
0.0
  0
TEXT
  5
296
330
20
100
AcDbEntity
  8
TEXT35
100
AcDbText
 10
62.47273647228661
 20
559.4545252312439
 30
0.0
 40
7.0
  1
Rohrende leicht eingezogen
 41
0.8
100
AcDbText
  0
ARC
  5
2C1
330
20
100
AcDbEntity
  8
STEMPEL
100
AcDbCircle
 10
179.9999999999999
 20
297.3950115598441
 30
0.0
 40
12.0
100
AcDbArc
 50
0.0000000000000509
 51
13.13402230639631
  0
ARC
  5
2C2
330
20
100
AcDbEntity
  8
STEMPEL
100
AcDbCircle
 10
200.4999999999999
 20
315.1579039078397
 30
0.0
 40
12.0
100
AcDbArc
 50
180.0
 51
193.1340223063965
  0
ARC
  5
2C5
330
20
100
AcDbEntity
  8
STEMPEL
100
AcDbCircle
 10
249.5
 20
315.1579039078397
 30
0.0
 40
12.0
100
AcDbArc
 50
346.8659776936035
 51
0.0
  0
ARC
  5
2C6
330
20
100
AcDbEntity
  8
STEMPEL
100
AcDbCircle
 10
269.9999999999999
 20
297.3950115598441
 30
0.0
 40
12.0
100
AcDbArc
 50
166.8659776936035
 51
180.0
  0
SPLINE
  5
2F8
330
20
100
AcDbEntity
  8
HILF
100
AcDbSpline
210
0.0
220
0.0
230
1.0
 70
     8
 71
     3
 72
    10
 73
     6
 74
     4
 42
0.0000000001
 43
0.0000000001
 44
0.0000000001
 40
0.0
 40
0.0
 40
0.0
 40
0.0
 40
18.51504265612381
 40
55.5451279683715
 40
74.06017062449535
 40
74.06017062449535
 40
74.06017062449535
 40
74.06017062449535
 10
188.4999999999999
 20
444.3387489948024
 30
0.0
 10
194.5833333333333
 20
445.8995424274902
 30
0.0
 10
212.8333333333333
 20
450.5819227255535
 30
0.0
 10
237.1666666666666
 20
438.0955752640511
 30
0.0
 10
255.4166666666667
 20
442.7779555621146
 30
0.0
 10
261.5
 20
444.3387489948023
 30
0.0
 11
188.4999999999999
 21
444.3387489948024
 31
0.0
 11
206.7499999999999
 21
447.460335860178
 31
0.0
 11
243.25
 21
441.2171621294269
 31
0.0
 11
261.5
 21
444.3387489948023
 31
0.0
  0
SPLINE
  5
2F9
330
20
100
AcDbEntity
  8
HILF
100
AcDbSpline
210
0.0
220
0.0
230
1.0
 70
     8
 71
     3
 72
    10
 73
     6
 74
     4
 42
0.0000000001
 43
0.0000000001
 44
0.0000000001
 40
0.0
 40
0.0
 40
0.0
 40
0.0
 40
18.51504265612381
 40
55.5451279683715
 40
74.06017062449535
 40
74.06017062449535
 40
74.06017062449535
 40
74.06017062449535
 10
188.4999999999999
 20
431.2764577338419
 30
0.0
 10
194.5833333333333
 20
432.8372511665296
 30
0.0
 10
212.8333333333333
 20
437.519631464593
 30
0.0
 10
237.1666666666666
 20
425.0332840030907
 30
0.0
 10
255.4166666666667
 20
429.715664301154
 30
0.0
 10
261.5
 20
431.2764577338418
 30
0.0
 11
188.4999999999999
 21
431.2764577338419
 31
0.0
 11
206.7499999999999
 21
434.3980445992174
 31
0.0
 11
243.25
 21
428.1548708684663
 31
0.0
 11
261.5
 21
431.2764577338418
 31
0.0
  0
LINE
  5
2FA
330
20
100
AcDbEntity
  8
STEMPEL
100
AcDbLine
 10
188.4999999999999
 20
431.2764577338419
 30
0.0
 11
188.4999999999999
 21
315.1579039078397
 31
0.0
  0
LINE
  5
2FC
330
20
100
AcDbEntity
  8
STEMPEL
100
AcDbLine
 10
261.5
 20
431.2764577338418
 30
0.0
 11
261.4999999999999
 21
315.1579039078397
 31
0.0
  0
LINE
  5
346
330
20
100
AcDbEntity
  8
STEMPEL
100
AcDbLine
 10
191.9999999999999
 20
224.7764577338415
 30
0.0
 11
192.5249319811555
 21
218.7764577338418
 31
0.0
  0
LINE
  5
348
330
20
100
AcDbEntity
  8
STEMPEL
100
AcDbLine
 10
257.9999999999999
 20
224.7764577338415
 30
0.0
 11
257.4750680188444
 21
218.7764577338419
 31
0.0
  0
DIMENSION
  5
349
330
20
100
AcDbEntity
  8
SCHRAFF
100
AcDbDimension
  2
*D6
 10
258.0
 20
201.836480927097
 30
0.0
 11
225.0
 21
207.3364809270969
 31
0.0
 70
    32
  1
%%c<>
 71
     5
 42
65.99999999999997
  3
Standard
100
AcDbAlignedDimension
 13
191.9999999999999
 23
224.7764577338413
 33
0.0
 14
258.0
 24
227.4064242979318
 34
0.0
100
AcDbRotatedDimension
1001
ACAD
1000
DSTYLE
1002
{
1070
    40
1040
2.0
1070
    41
1040
3.5
1070
    42
1040
1.0
1070
    43
1040
7.0
1070
    44
1040
1.0
1070
    47
1040
3.0
1070
    48
1040
3.0
1070
    73
1070
     0
1070
    74
1070
     0
1070
    77
1070
     1
1070
    78
1070
     8
1070
   140
1040
3.5
1070
   141
1040
2.0
1070
   146
1040
0.5142857142857144
1070
   147
1040
1.0
1070
   172
1070
     1
1070
   178
1070
     1
1070
   271
1070
     1
1070
   272
1070
     1
1070
   284
1070
     8
1070
   285
1070
     8
1070
   286
1070
     8
1002
}
  0
LINE
  5
34A
330
20
100
AcDbEntity
  8
HILF
100
AcDbLine
 10
193.7768942263868
 20
224.7764577338419
 30
0.0
 11
256.3938882599306
 21
224.7764577338419
 31
0.0
  0
LINE
  5
34B
330
20
100
AcDbEntity
  8
STEMPEL
100
AcDbLine
 10
192.5249319811555
 20
218.7764577338418
 30
0.0
 11
257.4750680188444
 21
218.7764577338419
 31
0.0
  0
TEXT
  5
40D
330
20
100
AcDbEntity
  8
TEXT35
100
AcDbText
 10
62.47273647228661
 20
215.317217407445
 30
0.0
 40
7.0
  1
Rohrende leicht eingezogen
 41
0.8
100
AcDbText
  0
ENDSEC
  0
SECTION
  2
OBJECTS
  0
DICTIONARY
  5
C
330
0
100
AcDbDictionary
281
     1
  3
ACAD_COLOR
350
1B
  3
ACAD_GROUP
350
D
  3
ACAD_LAYOUT
350
19
  3
ACAD_MATERIAL
350
1A
  3
ACAD_MLINESTYLE
350
16
  3
ACAD_PLOTSETTINGS
350
18
  3
ACAD_PLOTSTYLENAME
350
E
  0
DICTIONARY
  5
1B
102
{ACAD_REACTORS
330
C
102
}
330
C
100
AcDbDictionary
281
     1
  0
DICTIONARY
  5
D
102
{ACAD_REACTORS
330
C
102
}
330
C
100
AcDbDictionary
281
     1
  0
DICTIONARY
  5
19
102
{ACAD_REACTORS
330
C
102
}
330
C
100
AcDbDictionary
281
     1
  3
Layout1
350
1F
  3
Model
350
23
  0
DICTIONARY
  5
1A
102
{ACAD_REACTORS
330
C
102
}
330
C
100
AcDbDictionary
281
     1
  0
DICTIONARY
  5
16
102
{ACAD_REACTORS
330
C
102
}
330
C
100
AcDbDictionary
281
     1
  3
Standard
350
17
  0
DICTIONARY
  5
18
102
{ACAD_REACTORS
330
C
102
}
330
C
100
AcDbDictionary
281
     1
  0
ACDBDICTIONARYWDFLT
  5
E
102
{ACAD_REACTORS
330
C
102
}
330
C
100
AcDbDictionary
281
     1
  3
Normal
350
F
100
AcDbDictionaryWithDefault
340
F
  0
LAYOUT
  5
1F
102
{ACAD_REACTORS
330
19
102
}
330
19
100
AcDbPlotSettings
  1

  2
RICOH Aficio 2027 PCL 6
  4

  6

 40
0.0
 41
0.0
 42
0.0
 43
0.0
 44
0.0
 45
0.0
 46
0.0
 47
0.0
 48
0.0
 49
0.0
140
0.0
141
0.0
142
1.0
143
1.0
 70
   688
 72
     0
 73
     0
 74
     5
  7
C:\Dokumente und Einstellungen\Ines Haase\Anwendungsdaten\Autodesk\Mechanical Desktop 2004 DX\R16.0\deu\Plot Styles\stift.ctb
 75
    16
147
1.0
 76
     0
 77
     2
 78
   300
148
0.0
149
0.0
100
AcDbLayout
  1
Layout1
 70
     0
 71
     1
 10
0.0
 20
0.0
 11
12.0
 21
9.0
 12
0.0
 22
0.0
 32
0.0
 14
1.000000000000000E+20
 24
1.000000000000000E+20
 34
1.000000000000000E+20
 15
-1.000000000000000E+20
 25
-1.000000000000000E+20
 35
-1.000000000000000E+20
146
0.0
 13
0.0
 23
0.0
 33
0.0
 16
1.0
 26
0.0
 36
0.0
 17
0.0
 27
1.0
 37
0.0
 76
     0
330
1C
  0
LAYOUT
  5
23
102
{ACAD_REACTORS
330
19
102
}
330
19
100
AcDbPlotSettings
  1

  2
RICOH Aficio 2027 PCL 6
  4
A4
  6

 40
5.027083396911621
 41
5.027085304260253
 42
5.027084350585937
 43
5.027069091796875
 44
209.9733276367187
 45
296.9259948730469
 46
0.0
 47
0.0
 48
0.0
 49
0.0
140
0.0
141
0.0
142
1.0
143
1.0
 70
 11952
 72
     0
 73
     1
 74
     0
  7
C:\Dokumente und Einstellungen\Ines Haase\Anwendungsdaten\Autodesk\Mechanical Desktop 2004 DX\R16.0\deu\Plot Styles\stift.ctb
 75
     0
147
1.0
 76
     0
 77
     2
 78
   300
148
-1495.079798858627
149
1010.390539824526
100
AcDbLayout
  1
Model
 70
     1
 71
     0
 10
0.0
 20
0.0
 11
12.0
 21
9.0
 12
0.0
 22
0.0
 32
0.0
 14
0.0
 24
0.0
 34
0.0
 15
0.0
 25
0.0
 35
0.0
146
0.0
 13
0.0
 23
0.0
 33
0.0
 16
1.0
 26
0.0
 36
0.0
 17
0.0
 27
1.0
 37
0.0
 76
     0
330
20
  0
MLINESTYLE
  5
17
102
{ACAD_REACTORS
330
16
102
}
330
16
100
AcDbMlineStyle
  2
STANDARD
 70
     0
  3

 62
   256
 51
90.0
 52
90.0
 71
     2
 49
0.5
 62
   256
  6
BYLAYER
 49
-0.5
 62
   256
  6
BYLAYER
  0
ACDBPLACEHOLDER
  5
F
102
{ACAD_REACTORS
330
E
102
}
330
E
  0
ENDSEC
  0
EOF
