  0
SECTION
  2
HEADER
  9
$ACADVER
  1
AC1018
  9
$ACADMAINTVER
 70
     2
  9
$DWGCODEPAGE
  3
ANSI_1252
  9
$INSBASE
 10
214.18963059078
 20
83.98788932831553
 30
0.0
  9
$EXTMIN
 10
-0.0020219997317099
 20
-0.045311687738149
 30
-0.000000000000013
  9
$EXTMAX
 10
420.0113054954366
 20
594.0000027663659
 30
0.0000000000000023
  9
$LIMMIN
 10
0.0
 20
0.0
  9
$LIMMAX
 10
420.0
 20
594.0
  9
$ORTHOMODE
 70
     1
  9
$REGENMODE
 70
     1
  9
$FILLMODE
 70
     1
  9
$QTEXTMODE
 70
     0
  9
$MIRRTEXT
 70
     1
  9
$LTSCALE
 40
20.0
  9
$ATTMODE
 70
     1
  9
$TEXTSIZE
 40
3.5
  9
$TRACEWID
 40
1.0
  9
$TEXTSTYLE
  7
STANDARD
  9
$CLAYER
  8
STEMPEL
  9
$CELTYPE
  6
ByLayer
  9
$CECOLOR
 62
   256
  9
$CELTSCALE
 40
1.0
  9
$DISPSILH
 70
     0
  9
$DIMSCALE
 40
2.0
  9
$DIMASZ
 40
3.5
  9
$DIMEXO
 40
1.0
  9
$DIMDLI
 40
7.0
  9
$DIMRND
 40
0.0
  9
$DIMDLE
 40
0.0
  9
$DIMEXE
 40
1.0
  9
$DIMTP
 40
2.0
  9
$DIMTM
 40
2.0
  9
$DIMTXT
 40
3.5
  9
$DIMCEN
 40
1.5
  9
$DIMTSZ
 40
0.0
  9
$DIMTOL
 70
     0
  9
$DIMLIM
 70
     0
  9
$DIMTIH
 70
     0
  9
$DIMTOH
 70
     0
  9
$DIMSE1
 70
     0
  9
$DIMSE2
 70
     0
  9
$DIMTAD
 70
     1
  9
$DIMZIN
 70
     8
  9
$DIMBLK
  1

  9
$DIMASO
 70
     1
  9
$DIMSHO
 70
     0
  9
$DIMPOST
  1

  9
$DIMAPOST
  1

  9
$DIMALT
 70
     0
  9
$DIMALTD
 70
     2
  9
$DIMALTF
 40
25.4
  9
$DIMLFAC
 40
1.0
  9
$DIMTOFL
 70
     1
  9
$DIMTVP
 40
0.2857142857142857
  9
$DIMTIX
 70
     0
  9
$DIMSOXD
 70
     0
  9
$DIMSAH
 70
     0
  9
$DIMBLK1
  1

  9
$DIMBLK2
  1

  9
$DIMSTYLE
  2
Standard
  9
$DIMCLRD
 70
     0
  9
$DIMCLRE
 70
     0
  9
$DIMCLRT
 70
     1
  9
$DIMTFAC
 40
0.5
  9
$DIMGAP
 40
1.199999999999999
  9
$DIMJUST
 70
     0
  9
$DIMSD1
 70
     0
  9
$DIMSD2
 70
     0
  9
$DIMTOLJ
 70
     1
  9
$DIMTZIN
 70
     8
  9
$DIMALTZ
 70
     8
  9
$DIMALTTZ
 70
     8
  9
$DIMUPT
 70
     0
  9
$DIMDEC
 70
     2
  9
$DIMTDEC
 70
     2
  9
$DIMALTU
 70
     2
  9
$DIMALTTD
 70
     2
  9
$DIMTXSTY
  7
STANDARD
  9
$DIMAUNIT
 70
     0
  9
$DIMADEC
 70
     2
  9
$DIMALTRND
 40
0.0
  9
$DIMAZIN
 70
     2
  9
$DIMDSEP
 70
    46
  9
$DIMATFIT
 70
     3
  9
$DIMFRAC
 70
     0
  9
$DIMLDRBLK
  1

  9
$DIMLUNIT
 70
     2
  9
$DIMLWD
 70
    -2
  9
$DIMLWE
 70
    -2
  9
$DIMTMOVE
 70
     0
  9
$LUNITS
 70
     2
  9
$LUPREC
 70
     2
  9
$SKETCHINC
 40
1.0
  9
$FILLETRAD
 40
0.0
  9
$AUNITS
 70
     0
  9
$AUPREC
 70
     0
  9
$MENU
  1
ACAD
  9
$ELEVATION
 40
0.0
  9
$PELEVATION
 40
0.0
  9
$THICKNESS
 40
0.0
  9
$LIMCHECK
 70
     0
  9
$CHAMFERA
 40
0.0
  9
$CHAMFERB
 40
0.0
  9
$CHAMFERC
 40
0.0
  9
$CHAMFERD
 40
0.0
  9
$SKPOLY
 70
     0
  9
$TDCREATE
 40
2449826.448410880
  9
$TDUCREATE
 40
2449826.365077547
  9
$TDUPDATE
 40
2455653.344393669
  9
$TDUUPDATE
 40
2455653.261060336
  9
$TDINDWG
 40
0.3381015046
  9
$TDUSRTIMER
 40
0.3381015046
  9
$USRTIMER
 70
     1
  9
$ANGBASE
 50
0.0
  9
$ANGDIR
 70
     0
  9
$PDMODE
 70
     0
  9
$PDSIZE
 40
0.0
  9
$PLINEWID
 40
0.0
  9
$SPLFRAME
 70
     0
  9
$SPLINETYPE
 70
     6
  9
$SPLINESEGS
 70
     8
  9
$HANDSEED
  5
AFF
  9
$SURFTAB1
 70
     6
  9
$SURFTAB2
 70
     6
  9
$SURFTYPE
 70
     6
  9
$SURFU
 70
     6
  9
$SURFV
 70
     6
  9
$UCSBASE
  2

  9
$UCSNAME
  2

  9
$UCSORG
 10
0.0
 20
0.0
 30
0.0
  9
$UCSXDIR
 10
1.0
 20
0.0
 30
0.0
  9
$UCSYDIR
 10
0.0
 20
1.0
 30
0.0
  9
$UCSORTHOREF
  2

  9
$UCSORTHOVIEW
 70
     0
  9
$UCSORGTOP
 10
0.0
 20
0.0
 30
0.0
  9
$UCSORGBOTTOM
 10
0.0
 20
0.0
 30
0.0
  9
$UCSORGLEFT
 10
0.0
 20
0.0
 30
0.0
  9
$UCSORGRIGHT
 10
0.0
 20
0.0
 30
0.0
  9
$UCSORGFRONT
 10
0.0
 20
0.0
 30
0.0
  9
$UCSORGBACK
 10
0.0
 20
0.0
 30
0.0
  9
$PUCSBASE
  2

  9
$PUCSNAME
  2

  9
$PUCSORG
 10
0.0
 20
0.0
 30
0.0
  9
$PUCSXDIR
 10
1.0
 20
0.0
 30
0.0
  9
$PUCSYDIR
 10
0.0
 20
1.0
 30
0.0
  9
$PUCSORTHOREF
  2

  9
$PUCSORTHOVIEW
 70
     0
  9
$PUCSORGTOP
 10
0.0
 20
0.0
 30
0.0
  9
$PUCSORGBOTTOM
 10
0.0
 20
0.0
 30
0.0
  9
$PUCSORGLEFT
 10
0.0
 20
0.0
 30
0.0
  9
$PUCSORGRIGHT
 10
0.0
 20
0.0
 30
0.0
  9
$PUCSORGFRONT
 10
0.0
 20
0.0
 30
0.0
  9
$PUCSORGBACK
 10
0.0
 20
0.0
 30
0.0
  9
$USERI1
 70
     0
  9
$USERI2
 70
     0
  9
$USERI3
 70
     0
  9
$USERI4
 70
     0
  9
$USERI5
 70
     0
  9
$USERR1
 40
0.0
  9
$USERR2
 40
0.0
  9
$USERR3
 40
0.0
  9
$USERR4
 40
0.0
  9
$USERR5
 40
0.0
  9
$WORLDVIEW
 70
     1
  9
$SHADEDGE
 70
     3
  9
$SHADEDIF
 70
    70
  9
$TILEMODE
 70
     1
  9
$MAXACTVP
 70
    16
  9
$PINSBASE
 10
0.0
 20
0.0
 30
0.0
  9
$PLIMCHECK
 70
     0
  9
$PEXTMIN
 10
1.000000000000000E+20
 20
1.000000000000000E+20
 30
1.000000000000000E+20
  9
$PEXTMAX
 10
-1.000000000000000E+20
 20
-1.000000000000000E+20
 30
-1.000000000000000E+20
  9
$PLIMMIN
 10
0.0
 20
0.0
  9
$PLIMMAX
 10
12.0
 20
9.0
  9
$UNITMODE
 70
     0
  9
$VISRETAIN
 70
     0
  9
$PLINEGEN
 70
     0
  9
$PSLTSCALE
 70
     0
  9
$TREEDEPTH
 70
  3020
  9
$CMLSTYLE
  2
Standard
  9
$CMLJUST
 70
     0
  9
$CMLSCALE
 40
1.0
  9
$PROXYGRAPHICS
 70
     1
  9
$MEASUREMENT
 70
     0
  9
$CELWEIGHT
370
    -1
  9
$ENDCAPS
280
     0
  9
$JOINSTYLE
280
     0
  9
$LWDISPLAY
290
     0
  9
$INSUNITS
 70
     0
  9
$HYPERLINKBASE
  1

  9
$STYLESHEET
  1
monochrome 1.ctb
  9
$XEDIT
290
     1
  9
$CEPSNTYPE
380
     0
  9
$PSTYLEMODE
290
     1
  9
$FINGERPRINTGUID
  2
{3B2388A7-0921-428B-955B-B20B977E5677}
  9
$VERSIONGUID
  2
{14D50589-4052-4A50-8A02-E6C7CC3A49E4}
  9
$EXTNAMES
290
     1
  9
$PSVPSCALE
 40
0.0
  9
$OLESTARTUP
290
     0
  9
$SORTENTS
280
   127
  9
$INDEXCTL
280
     0
  9
$HIDETEXT
280
     1
  9
$XCLIPFRAME
290
     0
  9
$HALOGAP
280
     0
  9
$OBSCOLOR
 70
   257
  9
$OBSLTYPE
280
     0
  9
$INTERSECTIONDISPLAY
280
     0
  9
$INTERSECTIONCOLOR
 70
   257
  9
$DIMASSOC
280
     2
  9
$PROJECTNAME
  1

  0
ENDSEC
  0
SECTION
  2
CLASSES
  0
CLASS
  1
ACDBDICTIONARYWDFLT
  2
AcDbDictionaryWithDefault
  3
ObjectDBX Classes
 90
        0
 91
        1
280
     0
281
     0
  0
CLASS
  1
DIMASSOC
  2
AcDbDimAssoc
  3
"AcDbDimAssoc|Product Desc:     AcDim ARX App For Dimension|Company:          Autodesk, Inc.|WEB Address:      www.autodesk.com"
 90
        0
 91
        5
280
     0
281
     0
  0
CLASS
  1
DICTIONARYVAR
  2
AcDbDictionaryVar
  3
ObjectDBX Classes
 90
        0
 91
        3
280
     0
281
     0
  0
ENDSEC
  0
SECTION
  2
TABLES
  0
TABLE
  2
VPORT
  5
8
330
0
100
AcDbSymbolTable
 70
     3
  0
VPORT
  5
AFE
330
8
100
AcDbSymbolTableRecord
100
AcDbViewportTableRecord
  2
*Active
 70
     0
 10
0.0
 20
0.0
 11
1.0
 21
1.0
 12
210.0
 22
297.0
 13
0.0
 23
0.0
 14
2.5
 24
2.5
 15
10.0
 25
10.0
 16
0.0
 26
0.0
 36
1.0
 17
0.0
 27
0.0
 37
0.0
 40
594.0
 41
1.334231805929919
 42
50.0
 43
0.0
 44
0.0
 50
0.0
 51
0.0
 71
     0
 72
   500
 73
     1
 74
     0
 75
     0
 76
     0
 77
     0
 78
     0
281
     0
 65
     1
110
0.0
120
0.0
130
0.0
111
1.0
121
0.0
131
0.0
112
0.0
122
1.0
132
0.0
 79
     0
146
0.0
  0
ENDTAB
  0
TABLE
  2
LTYPE
  5
5
330
0
100
AcDbSymbolTable
 70
     3
  0
LTYPE
  5
13
330
5
100
AcDbSymbolTableRecord
100
AcDbLinetypeTableRecord
  2
ByBlock
 70
     0
  3

 72
    65
 73
     0
 40
0.0
  0
LTYPE
  5
14
330
5
100
AcDbSymbolTableRecord
100
AcDbLinetypeTableRecord
  2
ByLayer
 70
     0
  3

 72
    65
 73
     0
 40
0.0
  0
LTYPE
  5
15
330
5
100
AcDbSymbolTableRecord
100
AcDbLinetypeTableRecord
  2
Continuous
 70
     0
  3
Solid line
 72
    65
 73
     0
 40
0.0
  0
LTYPE
  5
3D
330
5
100
AcDbSymbolTableRecord
100
AcDbLinetypeTableRecord
  2
STRICHPUNKT
 70
     0
  3
__ . __ . __ . __ . __ . __ . __ . __ . __ . __
 72
    65
 73
     4
 40
1.0
 49
0.5
 74
     0
 49
-0.25
 74
     0
 49
0.0
 74
     0
 49
-0.25
 74
     0
  0
LTYPE
  5
3E
330
5
100
AcDbSymbolTableRecord
100
AcDbLinetypeTableRecord
  2
VERDECKT
 70
     0
  3
_ _ _ _ _ _ _ _ _ _ _ _ _ _ _ _ _ _ _ _ _ _ _
 72
    65
 73
     2
 40
0.375
 49
0.25
 74
     0
 49
-0.125
 74
     0
  0
ENDTAB
  0
TABLE
  2
LAYER
  5
2
330
0
100
AcDbSymbolTable
 70
    10
  0
LAYER
  5
10
330
2
100
AcDbSymbolTableRecord
100
AcDbLayerTableRecord
  2
0
 70
     0
 62
     7
  6
Continuous
370
    -3
390
F
  0
LAYER
  5
42
330
2
100
AcDbSymbolTableRecord
100
AcDbLayerTableRecord
  2
VOLL
 70
     0
 62
     1
  6
Continuous
370
    -3
390
F
  0
LAYER
  5
43
330
2
100
AcDbSymbolTableRecord
100
AcDbLayerTableRecord
  2
MITTEL
 70
     0
 62
     2
  6
STRICHPUNKT
370
    -3
390
F
  0
LAYER
  5
44
330
2
100
AcDbSymbolTableRecord
100
AcDbLayerTableRecord
  2
BEM
 70
     0
 62
     7
  6
Continuous
370
    -3
390
F
  0
LAYER
  5
45
330
2
100
AcDbSymbolTableRecord
100
AcDbLayerTableRecord
  2
HILF
 70
     0
 62
     2
  6
Continuous
370
    -3
390
F
  0
LAYER
  5
46
330
2
100
AcDbSymbolTableRecord
100
AcDbLayerTableRecord
  2
DEFPOINTS
 70
     0
 62
     7
  6
Continuous
290
     0
370
    -3
390
F
  0
LAYER
  5
47
330
2
100
AcDbSymbolTableRecord
100
AcDbLayerTableRecord
  2
STEMPEL
 70
     0
 62
     3
  6
Continuous
370
    -3
390
F
  0
LAYER
  5
48
330
2
100
AcDbSymbolTableRecord
100
AcDbLayerTableRecord
  2
SCHRAFF
 70
     0
 62
     7
  6
Continuous
370
    -3
390
F
  0
LAYER
  5
49
330
2
100
AcDbSymbolTableRecord
100
AcDbLayerTableRecord
  2
VERDECKT
 70
     0
 62
     6
  6
VERDECKT
370
    -3
390
F
  0
LAYER
  5
A11
330
2
100
AcDbSymbolTableRecord
100
AcDbLayerTableRecord
  2
TEXT
 70
     0
 62
     7
  6
Continuous
370
    -3
390
F
  0
ENDTAB
  0
TABLE
  2
STYLE
  5
3
330
0
100
AcDbSymbolTable
 70
     2
  0
STYLE
  5
11
330
3
100
AcDbSymbolTableRecord
100
AcDbTextStyleTableRecord
  2
STANDARD
 70
     0
 40
0.0
 41
0.8
 50
0.0
 71
     0
 42
3.5
  3
simplex.shx
  4

  0
STYLE
  5
3C
330
3
100
AcDbSymbolTableRecord
100
AcDbTextStyleTableRecord
  2
GREEKS
 70
     0
 40
0.0
 41
0.8
 50
0.0
 71
     0
 42
2.0
  3
SIMPLEX.shx
  4

  0
ENDTAB
  0
TABLE
  2
VIEW
  5
6
330
0
100
AcDbSymbolTable
 70
     0
  0
ENDTAB
  0
TABLE
  2
UCS
  5
7
330
0
100
AcDbSymbolTable
 70
     0
  0
ENDTAB
  0
TABLE
  2
APPID
  5
9
330
0
100
AcDbSymbolTable
 70
     1
  0
APPID
  5
12
330
9
100
AcDbSymbolTableRecord
100
AcDbRegAppTableRecord
  2
ACAD
 70
     0
  0
ENDTAB
  0
TABLE
  2
DIMSTYLE
  5
A
330
0
100
AcDbSymbolTable
 70
     1
100
AcDbDimStyleTable
 71
     1
340
377
  0
DIMSTYLE
105
377
102
{ACAD_REACTORS
330
693
330
5EE
330
5AA
330
570
330
503
330
369
330
358
330
965
102
}
330
A
100
AcDbSymbolTableRecord
100
AcDbDimStyleTableRecord
  2
Standard
 70
     0
340
11
  0
ENDTAB
  0
TABLE
  2
BLOCK_RECORD
  5
1
330
0
100
AcDbSymbolTable
 70
    10
  0
BLOCK_RECORD
  5
20
330
1
100
AcDbSymbolTableRecord
100
AcDbBlockTableRecord
  2
*Model_Space
340
23
  0
BLOCK_RECORD
  5
1C
330
1
100
AcDbSymbolTableRecord
100
AcDbBlockTableRecord
  2
*Paper_Space
340
1F
  0
BLOCK_RECORD
  5
24
330
1
100
AcDbSymbolTableRecord
100
AcDbBlockTableRecord
  2
LOGO
340
0
102
{BLKREFS
331
2FE
102
}
  0
BLOCK_RECORD
  5
25
330
1
100
AcDbSymbolTableRecord
100
AcDbBlockTableRecord
  2
*X1
340
0
102
{BLKREFS
331
314
102
}
  0
BLOCK_RECORD
  5
38A
330
1
100
AcDbSymbolTableRecord
100
AcDbBlockTableRecord
  2
*D2
340
0
  0
BLOCK_RECORD
  5
3D6
330
1
100
AcDbSymbolTableRecord
100
AcDbBlockTableRecord
  2
*D3
340
0
  0
BLOCK_RECORD
  5
504
330
1
100
AcDbSymbolTableRecord
100
AcDbBlockTableRecord
  2
*D4
340
0
  0
BLOCK_RECORD
  5
571
330
1
100
AcDbSymbolTableRecord
100
AcDbBlockTableRecord
  2
*D5
340
0
  0
BLOCK_RECORD
  5
5AB
330
1
100
AcDbSymbolTableRecord
100
AcDbBlockTableRecord
  2
*D6
340
0
  0
BLOCK_RECORD
  5
5EF
330
1
100
AcDbSymbolTableRecord
100
AcDbBlockTableRecord
  2
*D7
340
0
  0
BLOCK_RECORD
  5
694
330
1
100
AcDbSymbolTableRecord
100
AcDbBlockTableRecord
  2
*D8
340
0
  0
BLOCK_RECORD
  5
966
330
1
100
AcDbSymbolTableRecord
100
AcDbBlockTableRecord
  2
*D9
340
0
  0
ENDTAB
  0
ENDSEC
  0
SECTION
  2
BLOCKS
  0
BLOCK
  5
4D
330
20
100
AcDbEntity
  8
0
100
AcDbBlockBegin
  2
*Model_Space
 70
     0
 10
0.0
 20
0.0
 30
0.0
  3
*Model_Space
  1

  0
ENDBLK
  5
4E
330
20
100
AcDbEntity
  8
0
100
AcDbBlockEnd
  0
BLOCK
  5
4B
330
1C
100
AcDbEntity
 67
     1
  8
0
100
AcDbBlockBegin
  2
*Paper_Space
 70
     0
 10
0.0
 20
0.0
 30
0.0
  3
*Paper_Space
  1

  0
ENDBLK
  5
4C
330
1C
100
AcDbEntity
 67
     1
  8
0
100
AcDbBlockEnd
  0
BLOCK
  5
4F
330
24
100
AcDbEntity
  8
0
100
AcDbBlockBegin
  2
LOGO
 70
     0
 10
0.0
 20
0.0
 30
0.0
  3
LOGO
  1

  0
ARC
  5
50
330
24
100
AcDbEntity
  8
0
100
AcDbCircle
 10
11.59973089678112
 20
-9.271599258481501
 30
0.0
 40
4.5
100
AcDbArc
 50
270.0
 51
231.0575587310159
  0
LINE
  5
51
330
24
100
AcDbEntity
  8
0
100
AcDbLine
 10
3.599730896781125
 20
-4.771599258481529
 30
0.0
 11
3.599730896781153
 21
-11.77159925848133
 31
0.0
  0
LINE
  5
52
330
24
100
AcDbEntity
  8
0
100
AcDbLine
 10
2.599730896781125
 20
-4.771599258481529
 30
0.0
 11
2.599730896781153
 21
-11.77159925848133
 31
0.0
  0
CIRCLE
  5
53
330
24
100
AcDbEntity
  8
0
100
AcDbCircle
 10
11.59973089678112
 20
-9.271599258481501
 30
0.0
 40
3.5
  0
ARC
  5
54
330
24
100
AcDbEntity
  8
0
100
AcDbCircle
 10
31.59973089678115
 20
-9.271599258481472
 30
0.0
 40
4.5
100
AcDbArc
 50
270.0
 51
231.0575587310182
  0
LINE
  5
55
330
24
100
AcDbEntity
  8
0
100
AcDbLine
 10
17.59973089678112
 20
-4.771599258481472
 30
0.0
 11
17.59973089678115
 21
-13.77159925848147
 31
0.0
  0
ARC
  5
56
330
24
100
AcDbEntity
  8
0
100
AcDbCircle
 10
22.59973089678116
 20
-7.271599258481472
 30
0.0
 40
2.5
100
AcDbArc
 50
293.1161887722295
 51
90.0
  0
CIRCLE
  5
57
330
24
100
AcDbEntity
  8
0
100
AcDbCircle
 10
31.59973089678115
 20
-9.271599258481472
 30
0.0
 40
3.5
  0
ARC
  5
58
330
24
100
AcDbEntity
  8
0
100
AcDbCircle
 10
4.599730896781153
 20
-11.77159925848133
 30
0.0
 40
1.0
100
AcDbArc
 50
180.0
 51
270.0
  0
ARC
  5
59
330
24
100
AcDbEntity
  8
0
100
AcDbCircle
 10
4.599730896781153
 20
-11.77159925848133
 30
0.0
 40
2.0
100
AcDbArc
 50
179.9999999999992
 51
270.0
  0
LINE
  5
5A
330
24
100
AcDbEntity
  8
0
100
AcDbLine
 10
11.59973089678115
 20
-13.77159925848144
 30
0.0
 11
4.599730896781153
 21
-13.77159925848147
 31
0.0
  0
LINE
  5
5B
330
24
100
AcDbEntity
  8
0
100
AcDbLine
 10
8.771303772034769
 20
-12.77159925848136
 30
0.0
 11
4.599730896781153
 21
-12.77159925848133
 31
0.0
  0
LINE
  5
5C
330
24
100
AcDbEntity
  8
0
100
AcDbLine
 10
31.59973089678115
 20
-13.77159925848147
 30
0.0
 11
23.6715276665056
 21
-13.77159925848144
 31
0.0
  0
LINE
  5
5D
330
24
100
AcDbEntity
  8
0
100
AcDbLine
 10
23.56565672307022
 20
-9.51278021337896
 30
0.0
 11
24.4388546544846
 21
-12.77159925848144
 31
0.0
  0
LINE
  5
5E
330
24
100
AcDbEntity
  8
0
100
AcDbLine
 10
22.59973089678116
 20
-9.771599258481472
 30
0.0
 11
18.59973089678112
 21
-9.771599258481472
 31
0.0
  0
LINE
  5
5F
330
24
100
AcDbEntity
  8
0
100
AcDbLine
 10
18.59973089678115
 20
-13.77159925848144
 30
0.0
 11
17.59973089678115
 21
-13.77159925848144
 31
0.0
  0
LINE
  5
60
330
24
100
AcDbEntity
  8
0
100
AcDbLine
 10
18.59973089678115
 20
-9.771599258481472
 30
0.0
 11
18.59973089678115
 21
-13.77159925848144
 31
0.0
  0
LINE
  5
61
330
24
100
AcDbEntity
  8
0
100
AcDbLine
 10
22.59973089678116
 20
-9.771599258481472
 30
0.0
 11
23.67152766650562
 21
-13.77159925848147
 31
0.0
  0
ARC
  5
62
330
24
100
AcDbEntity
  8
0
100
AcDbCircle
 10
22.59973089678116
 20
-7.271599258481472
 30
0.0
 40
2.5
100
AcDbArc
 50
270.0
 51
270.0000000000007
  0
LINE
  5
63
330
24
100
AcDbEntity
  8
0
100
AcDbLine
 10
28.77130377203494
 20
-12.77159925848147
 30
0.0
 11
24.43885465448463
 21
-12.77159925848144
 31
0.0
  0
LINE
  5
64
330
24
100
AcDbEntity
  8
0
100
AcDbLine
 10
3.599730896781125
 20
-4.771599258481472
 30
0.0
 11
2.599730896781125
 21
-4.771599258481472
 31
0.0
  0
LINE
  5
65
330
24
100
AcDbEntity
  8
0
100
AcDbLine
 10
22.59973089678116
 20
-8.771599258481472
 30
0.0
 11
18.59973089678115
 21
-8.771599258481472
 31
0.0
  0
LINE
  5
66
330
24
100
AcDbEntity
  8
0
100
AcDbLine
 10
22.59973089678116
 20
-5.771599258481472
 30
0.0
 11
18.59973089678115
 21
-5.771599258481472
 31
0.0
  0
LINE
  5
67
330
24
100
AcDbEntity
  8
0
100
AcDbLine
 10
22.59973089678116
 20
-4.771599258481472
 30
0.0
 11
17.59973089678115
 21
-4.771599258481472
 31
0.0
  0
LINE
  5
68
330
24
100
AcDbEntity
  8
0
100
AcDbLine
 10
18.59973089678115
 20
-5.771599258481472
 30
0.0
 11
18.59973089678115
 21
-8.771599258481472
 31
0.0
  0
ARC
  5
69
330
24
100
AcDbEntity
  8
0
100
AcDbCircle
 10
22.59973089678116
 20
-7.271599258481472
 30
0.0
 40
1.5
100
AcDbArc
 50
270.0
 51
90.0
  0
ENDBLK
  5
6A
330
24
100
AcDbEntity
  8
0
100
AcDbBlockEnd
  0
BLOCK
  5
6B
330
25
100
AcDbEntity
  8
0
100
AcDbBlockBegin
  2
*X1
 70
     1
 10
0.0
 20
0.0
 30
0.0
  3
*X1
  1

  0
LINE
  5
6C
330
25
100
AcDbEntity
  8
0
 62
     0
100
AcDbLine
 10
237.6270108522743
 20
131.4827289271035
 30
0.0
 11
237.6250822035022
 21
131.4846575758757
 31
0.0
  0
LINE
  5
6D
330
25
100
AcDbEntity
  8
0
 62
     0
100
AcDbLine
 10
237.485589496037
 20
131.4827289271035
 30
0.0
 11
237.4827209873811
 21
131.4855974357593
 31
0.0
  0
LINE
  5
6E
330
25
100
AcDbEntity
  8
0
 62
     0
100
AcDbLine
 10
237.3441681397996
 20
131.4827289271035
 30
0.0
 11
237.3401722174799
 21
131.4867248494233
 31
0.0
  0
LINE
  5
6F
330
25
100
AcDbEntity
  8
0
 62
     0
100
AcDbLine
 10
237.2027467835624
 20
131.4827289271035
 30
0.0
 11
237.1974351447058
 21
131.48804056596
 31
0.0
  0
LINE
  5
70
330
25
100
AcDbEntity
  8
0
 62
     0
100
AcDbLine
 10
237.061325427325
 20
131.4827289271035
 30
0.0
 11
237.0545090139927
 21
131.4895453404359
 31
0.0
  0
LINE
  5
71
330
25
100
AcDbEntity
  8
0
 62
     0
100
AcDbLine
 10
236.9199040710878
 20
131.4827289271035
 30
0.0
 11
236.911393064234
 21
131.4912399339573
 31
0.0
  0
LINE
  5
72
330
25
100
AcDbEntity
  8
0
 62
     0
100
AcDbLine
 10
236.7784827148504
 20
131.4827289271035
 30
0.0
 11
236.7680865282155
 21
131.4931251137385
 31
0.0
  0
LINE
  5
73
330
25
100
AcDbEntity
  8
0
 62
     0
100
AcDbLine
 10
236.6370613586131
 20
131.4827289271035
 30
0.0
 11
236.6245886325469
 21
131.4952016531697
 31
0.0
  0
LINE
  5
74
330
25
100
AcDbEntity
  8
0
 62
     0
100
AcDbLine
 10
236.4956400023758
 20
131.4827289271035
 30
0.0
 11
236.4808985975928
 21
131.4974703318865
 31
0.0
  0
LINE
  5
75
330
25
100
AcDbEntity
  8
0
 62
     0
100
AcDbLine
 10
236.3542186461385
 20
131.4827289271035
 30
0.0
 11
236.3370156374016
 21
131.4999319358404
 31
0.0
  0
LINE
  5
76
330
25
100
AcDbEntity
  8
0
 62
     0
100
AcDbLine
 10
236.2127972899012
 20
131.4827289271035
 30
0.0
 11
236.1929389596346
 21
131.5025872573702
 31
0.0
  0
LINE
  5
77
330
25
100
AcDbEntity
  8
0
 62
     0
100
AcDbLine
 10
236.0713759336639
 20
131.4827289271035
 30
0.0
 11
236.0486677654932
 21
131.5054370952742
 31
0.0
  0
LINE
  5
78
330
25
100
AcDbEntity
  8
0
 62
     0
100
AcDbLine
 10
235.9299545774265
 20
131.4827289271035
 30
0.0
 11
235.9042012496459
 21
131.5084822548841
 31
0.0
  0
LINE
  5
79
330
25
100
AcDbEntity
  8
0
 62
     0
100
AcDbLine
 10
235.7885332211893
 20
131.4827289271035
 30
0.0
 11
235.7595386001531
 21
131.5117235481397
 31
0.0
  0
LINE
  5
7A
330
25
100
AcDbEntity
  8
0
 62
     0
100
AcDbLine
 10
235.6471118649519
 20
131.4827289271035
 30
0.0
 11
235.6146789983913
 21
131.5151617936641
 31
0.0
  0
LINE
  5
7B
330
25
100
AcDbEntity
  8
0
 62
     0
100
AcDbLine
 10
235.5056905087147
 20
131.4827289271035
 30
0.0
 11
235.4696216189769
 21
131.5187978168413
 31
0.0
  0
LINE
  5
7C
330
25
100
AcDbEntity
  8
0
 62
     0
100
AcDbLine
 10
235.3642691524773
 20
131.4827289271035
 30
0.0
 11
235.3243656296873
 21
131.5226324498935
 31
0.0
  0
LINE
  5
7D
330
25
100
AcDbEntity
  8
0
 62
     0
100
AcDbLine
 10
235.22284779624
 20
131.4827289271035
 30
0.0
 11
235.1789101913826
 21
131.5266665319609
 31
0.0
  0
LINE
  5
7E
330
25
100
AcDbEntity
  8
0
 62
     0
100
AcDbLine
 10
235.0814264400027
 20
131.4827289271035
 30
0.0
 11
235.0332544579246
 21
131.5309009091817
 31
0.0
  0
LINE
  5
7F
330
25
100
AcDbEntity
  8
0
 62
     0
100
AcDbLine
 10
234.9400050837654
 20
131.4827289271035
 30
0.0
 11
234.8873975760951
 21
131.5353364347737
 31
0.0
  0
LINE
  5
80
330
25
100
AcDbEntity
  8
0
 62
     0
100
AcDbLine
 10
234.7985837275281
 20
131.4827289271035
 30
0.0
 11
234.741338685514
 21
131.5399739691176
 31
0.0
  0
LINE
  5
81
330
25
100
AcDbEntity
  8
0
 62
     0
100
AcDbLine
 10
234.6571623712908
 20
131.4827289271035
 30
0.0
 11
234.595076918554
 21
131.5448143798403
 31
0.0
  0
LINE
  5
82
330
25
100
AcDbEntity
  8
0
 62
     0
100
AcDbLine
 10
234.5157410150534
 20
131.4827289271035
 30
0.0
 11
234.448611400256
 21
131.549858541901
 31
0.0
  0
LINE
  5
83
330
25
100
AcDbEntity
  8
0
 62
     0
100
AcDbLine
 10
234.3743196588162
 20
131.4827289271035
 30
0.0
 11
234.3019412482423
 21
131.5551073376774
 31
0.0
  0
LINE
  5
84
330
25
100
AcDbEntity
  8
0
 62
     0
100
AcDbLine
 10
234.2328983025788
 20
131.4827289271035
 30
0.0
 11
234.1550655726284
 21
131.560561657054
 31
0.0
  0
LINE
  5
85
330
25
100
AcDbEntity
  8
0
 62
     0
100
AcDbLine
 10
234.0914769463416
 20
131.4827289271035
 30
0.0
 11
234.0079834759339
 21
131.5662223975113
 31
0.0
  0
LINE
  5
86
330
25
100
AcDbEntity
  8
0
 62
     0
100
AcDbLine
 10
233.9500555901042
 20
131.4827289271035
 30
0.0
 11
233.8606940529913
 21
131.5720904642165
 31
0.0
  0
LINE
  5
87
330
25
100
AcDbEntity
  8
0
 62
     0
100
AcDbLine
 10
233.8086342338669
 20
131.4827289271035
 30
0.0
 11
233.7131963908544
 21
131.578166770116
 31
0.0
  0
LINE
  5
88
330
25
100
AcDbEntity
  8
0
 62
     0
100
AcDbLine
 10
233.6672128776296
 20
131.4827289271035
 30
0.0
 11
233.5654895687046
 21
131.5844522360285
 31
0.0
  0
LINE
  5
89
330
25
100
AcDbEntity
  8
0
 62
     0
100
AcDbLine
 10
233.5257915213923
 20
131.4827289271035
 30
0.0
 11
233.4175726577553
 21
131.5909477907404
 31
0.0
  0
LINE
  5
8A
330
25
100
AcDbEntity
  8
0
 62
     0
100
AcDbLine
 10
233.384370165155
 20
131.4827289271035
 30
0.0
 11
233.2694447211562
 21
131.5976543711023
 31
0.0
  0
LINE
  5
8B
330
25
100
AcDbEntity
  8
0
 62
     0
100
AcDbLine
 10
233.2734969724873
 20
131.4521807635339
 30
0.0
 11
233.1211048138945
 21
131.6045729221267
 31
0.0
  0
LINE
  5
8C
330
25
100
AcDbEntity
  8
0
 62
     0
100
AcDbLine
 10
233.2734969724873
 20
131.3107594072966
 30
0.0
 11
232.9725519826957
 21
131.6117043970882
 31
0.0
  0
LINE
  5
8D
330
25
100
AcDbEntity
  8
0
 62
     0
100
AcDbLine
 10
233.2734969724873
 20
131.1693380510593
 30
0.0
 11
232.8237852659224
 21
131.6190497576242
 31
0.0
  0
LINE
  5
8E
330
25
100
AcDbEntity
  8
0
 62
     0
100
AcDbLine
 10
233.2734969724873
 20
131.027916694822
 30
0.0
 11
232.6748036934713
 21
131.626609973838
 31
0.0
  0
LINE
  5
8F
330
25
100
AcDbEntity
  8
0
 62
     0
100
AcDbLine
 10
233.2734969724873
 20
130.8864953385847
 30
0.0
 11
232.525606286669
 21
131.634386024403
 31
0.0
  0
LINE
  5
90
330
25
100
AcDbEntity
  8
0
 62
     0
100
AcDbLine
 10
233.2734969724873
 20
130.7450739823474
 30
0.0
 11
232.3761920581657
 21
131.642378896669
 31
0.0
  0
LINE
  5
91
330
25
100
AcDbEntity
  8
0
 62
     0
100
AcDbLine
 10
233.2734969724873
 20
130.60365262611
 30
0.0
 11
232.2265600118275
 21
131.6505895867698
 31
0.0
  0
LINE
  5
92
330
25
100
AcDbEntity
  8
0
 62
     0
100
AcDbLine
 10
233.2734969724873
 20
130.4622312698727
 30
0.0
 11
232.0767091426268
 21
131.6590190997332
 31
0.0
  0
LINE
  5
93
330
25
100
AcDbEntity
  8
0
 62
     0
100
AcDbLine
 10
233.2734969724873
 20
130.3208099136354
 30
0.0
 11
231.926638436531
 21
131.6676684495917
 31
0.0
  0
LINE
  5
94
330
25
100
AcDbEntity
  8
0
 62
     0
100
AcDbLine
 10
233.2734969724873
 20
130.1793885573981
 30
0.0
 11
231.7763468703894
 21
131.676538659496
 31
0.0
  0
LINE
  5
95
330
25
100
AcDbEntity
  8
0
 62
     0
100
AcDbLine
 10
233.2734969724873
 20
130.0379672011608
 30
0.0
 11
231.6258334118181
 21
131.6856307618301
 31
0.0
  0
LINE
  5
96
330
25
100
AcDbEntity
  8
0
 62
     0
100
AcDbLine
 10
233.2734969724873
 20
129.8965458449234
 30
0.0
 11
231.475097019083
 21
131.6949457983277
 31
0.0
  0
LINE
  5
97
330
25
100
AcDbEntity
  8
0
 62
     0
100
AcDbLine
 10
233.2734969724873
 20
129.7551244886862
 30
0.0
 11
231.3241366409818
 21
131.7044848201917
 31
0.0
  0
LINE
  5
98
330
25
100
AcDbEntity
  8
0
 62
     0
100
AcDbLine
 10
233.2734969724873
 20
129.6137031324489
 30
0.0
 11
231.1729512167221
 21
131.7142488882141
 31
0.0
  0
LINE
  5
99
330
25
100
AcDbEntity
  8
0
 62
     0
100
AcDbLine
 10
233.2734969724873
 20
129.4722817762116
 30
0.0
 11
231.0215396757995
 21
131.7242390728994
 31
0.0
  0
LINE
  5
9A
330
25
100
AcDbEntity
  8
0
 62
     0
100
AcDbLine
 10
233.2734969724873
 20
129.3308604199743
 30
0.0
 11
230.8699009378724
 21
131.7344564545891
 31
0.0
  0
LINE
  5
9B
330
25
100
AcDbEntity
  8
0
 62
     0
100
AcDbLine
 10
233.2734969724873
 20
129.1894390637369
 30
0.0
 11
230.7180339126357
 21
131.7449021235886
 31
0.0
  0
LINE
  5
9C
330
25
100
AcDbEntity
  8
0
 62
     0
100
AcDbLine
 10
233.2734969724873
 20
129.0480177074996
 30
0.0
 11
230.5659374996909
 21
131.755577180296
 31
0.0
  0
LINE
  5
9D
330
25
100
AcDbEntity
  8
0
 62
     0
100
AcDbLine
 10
233.2734969724873
 20
128.9065963512623
 30
0.0
 11
230.4136105884158
 21
131.7664827353338
 31
0.0
  0
LINE
  5
9E
330
25
100
AcDbEntity
  8
0
 62
     0
100
AcDbLine
 10
233.2734969724873
 20
128.765174995025
 30
0.0
 11
230.2610520578308
 21
131.7776199096816
 31
0.0
  0
LINE
  5
9F
330
25
100
AcDbEntity
  8
0
 62
     0
100
AcDbLine
 10
233.2734969724873
 20
128.6237536387877
 30
0.0
 11
230.108260776463
 21
131.788989834812
 31
0.0
  0
LINE
  5
A0
330
25
100
AcDbEntity
  8
0
 62
     0
100
AcDbLine
 10
233.2734969724873
 20
128.4823322825504
 30
0.0
 11
229.9552356022088
 21
131.8005936528289
 31
0.0
  0
LINE
  5
A1
330
25
100
AcDbEntity
  8
0
 62
     0
100
AcDbLine
 10
233.2734969724873
 20
128.3409109263131
 30
0.0
 11
229.8019753821935
 21
131.8124325166069
 31
0.0
  0
LINE
  5
A2
330
25
100
AcDbEntity
  8
0
 62
     0
100
AcDbLine
 10
233.2734969724873
 20
128.1994895700757
 30
0.0
 11
229.6903593968671
 21
131.7826271456959
 31
0.0
  0
LINE
  5
A3
330
25
100
AcDbEntity
  8
0
 62
     0
100
AcDbLine
 10
233.2734969724873
 20
128.0580682138385
 30
0.0
 11
229.6828121897281
 21
131.6487529965977
 31
0.0
  0
LINE
  5
A4
330
25
100
AcDbEntity
  8
0
 62
     0
100
AcDbLine
 10
233.2734969724873
 20
127.9166468576012
 30
0.0
 11
229.6790716443043
 21
131.5110721857841
 31
0.0
  0
LINE
  5
A5
330
25
100
AcDbEntity
  8
0
 62
     0
100
AcDbLine
 10
233.2734969724873
 20
127.7752255013639
 30
0.0
 11
229.6794719226981
 21
131.369250551153
 31
0.0
  0
LINE
  5
A6
330
25
100
AcDbEntity
  8
0
 62
     0
100
AcDbLine
 10
233.2734969724873
 20
127.6338041451265
 30
0.0
 11
229.6844121843933
 21
131.2228889332205
 31
0.0
  0
LINE
  5
A7
330
25
100
AcDbEntity
  8
0
 62
     0
100
AcDbLine
 10
233.2734969724873
 20
127.4923827888892
 30
0.0
 11
229.6943756110136
 21
131.0715041503629
 31
0.0
  0
LINE
  5
A8
330
25
100
AcDbEntity
  8
0
 62
     0
100
AcDbLine
 10
233.2734969724873
 20
127.3509614326519
 30
0.0
 11
229.70995633215
 21
130.9145020729892
 31
0.0
  0
LINE
  5
A9
330
25
100
AcDbEntity
  8
0
 62
     0
100
AcDbLine
 10
233.2734969724873
 20
127.2095400764146
 30
0.0
 11
229.7318986883102
 21
130.7511383605916
 31
0.0
  0
LINE
  5
AA
330
25
100
AcDbEntity
  8
0
 62
     0
100
AcDbLine
 10
233.2734969724873
 20
127.0681187201773
 30
0.0
 11
229.7611565569583
 21
130.5804591357062
 31
0.0
  0
LINE
  5
AB
330
25
100
AcDbEntity
  8
0
 62
     0
100
AcDbLine
 10
233.2734969724873
 20
126.92669736394
 30
0.0
 11
229.7989869459231
 21
130.4012073905042
 31
0.0
  0
LINE
  5
AC
330
25
100
AcDbEntity
  8
0
 62
     0
100
AcDbLine
 10
233.0989611149146
 20
126.9598118652754
 30
0.0
 11
229.8471057613799
 21
130.2116672188101
 31
0.0
  0
LINE
  5
AD
330
25
100
AcDbEntity
  8
0
 62
     0
100
AcDbLine
 10
232.8966801592788
 20
127.0206714646739
 30
0.0
 11
229.9079653607784
 21
130.0093862631742
 31
0.0
  0
LINE
  5
AE
330
25
100
AcDbEntity
  8
0
 62
     0
100
AcDbLine
 10
232.6779282644277
 20
127.0980020032876
 30
0.0
 11
229.9852958993922
 21
129.7906343683232
 31
0.0
  0
LINE
  5
AF
330
25
100
AcDbEntity
  8
0
 62
     0
100
AcDbLine
 10
232.4364993324747
 20
127.1980095790033
 30
0.0
 11
230.0853034751078
 21
129.5492054363702
 31
0.0
  0
LINE
  5
B0
330
25
100
AcDbEntity
  8
0
 62
     0
100
AcDbLine
 10
232.1604967168632
 20
127.3325908383775
 30
0.0
 11
230.219884734482
 21
129.2732028207588
 31
0.0
  0
LINE
  5
B1
330
25
100
AcDbEntity
  8
0
 62
     0
100
AcDbLine
 10
231.8201632449805
 20
127.5315029540229
 30
0.0
 11
230.4187968501274
 21
128.932869348876
 31
0.0
  0
LINE
  5
B2
330
25
100
AcDbEntity
  8
0
 62
     0
100
AcDbLine
 10
231.2231831583726
 20
127.9870616843936
 30
0.0
 11
230.8743555804981
 21
128.335889262268
 31
0.0
  0
LINE
  5
B3
330
25
100
AcDbEntity
  8
0
 62
     0
100
AcDbLine
 10
263.3869659549158
 20
126.9359772600585
 30
0.0
 11
263.2734969724873
 21
127.0494462424869
 31
0.0
  0
LINE
  5
B4
330
25
100
AcDbEntity
  8
0
 62
     0
100
AcDbLine
 10
263.5037877856803
 20
126.9605767855312
 30
0.0
 11
263.2734969724873
 21
127.1908675987242
 31
0.0
  0
LINE
  5
B5
330
25
100
AcDbEntity
  8
0
 62
     0
100
AcDbLine
 10
263.6179716155827
 20
126.9878143118662
 30
0.0
 11
263.2734969724873
 21
127.3322889549616
 31
0.0
  0
LINE
  5
B6
330
25
100
AcDbEntity
  8
0
 62
     0
100
AcDbLine
 10
263.7296429652362
 20
127.0175643184499
 30
0.0
 11
263.2734969724873
 21
127.4737103111988
 31
0.0
  0
LINE
  5
B7
330
25
100
AcDbEntity
  8
0
 62
     0
100
AcDbLine
 10
263.8389129107328
 20
127.0497157291907
 30
0.0
 11
263.2734969724873
 21
127.6151316674362
 31
0.0
  0
LINE
  5
B8
330
25
100
AcDbEntity
  8
0
 62
     0
100
AcDbLine
 10
263.94588010627
 20
127.0841698898909
 30
0.0
 11
263.2734969724873
 21
127.7565530236735
 31
0.0
  0
LINE
  5
B9
330
25
100
AcDbEntity
  8
0
 62
     0
100
AcDbLine
 10
264.0506324408703
 20
127.1208389115277
 30
0.0
 11
263.2734969724873
 21
127.8979743799108
 31
0.0
  0
LINE
  5
BA
330
25
100
AcDbEntity
  8
0
 62
     0
100
AcDbLine
 10
264.1532484061158
 20
127.1596443025196
 30
0.0
 11
263.2734969724873
 21
128.0393957361481
 31
0.0
  0
LINE
  5
BB
330
25
100
AcDbEntity
  8
0
 62
     0
100
AcDbLine
 10
264.253798233275
 20
127.2005158315977
 30
0.0
 11
263.2734969724873
 21
128.1808170923854
 31
0.0
  0
LINE
  5
BC
330
25
100
AcDbEntity
  8
0
 62
     0
100
AcDbLine
 10
264.3523448446273
 20
127.2433905764827
 30
0.0
 11
263.2734969724873
 21
128.3222384486227
 31
0.0
  0
LINE
  5
BD
330
25
100
AcDbEntity
  8
0
 62
     0
100
AcDbLine
 10
264.4489446537183
 20
127.2882121236291
 30
0.0
 11
263.2734969724873
 21
128.46365980486
 31
0.0
  0
LINE
  5
BE
330
25
100
AcDbEntity
  8
0
 62
     0
100
AcDbLine
 10
264.543648241727
 20
127.3349298918576
 30
0.0
 11
263.2734969724873
 21
128.6050811610973
 31
0.0
  0
LINE
  5
BF
330
25
100
AcDbEntity
  8
0
 62
     0
100
AcDbLine
 10
264.6365009313942
 20
127.3834985584277
 30
0.0
 11
263.2734969724873
 21
128.7465025173347
 31
0.0
  0
LINE
  5
C0
330
25
100
AcDbEntity
  8
0
 62
     0
100
AcDbLine
 10
264.727543275563
 20
127.4338775704962
 30
0.0
 11
263.2734969724873
 21
128.8879238735719
 31
0.0
  0
LINE
  5
C1
330
25
100
AcDbEntity
  8
0
 62
     0
100
AcDbLine
 10
264.8168114739855
 20
127.4860307283111
 30
0.0
 11
263.2734969724873
 21
129.0293452298093
 31
0.0
  0
LINE
  5
C2
330
25
100
AcDbEntity
  8
0
 62
     0
100
AcDbLine
 10
264.9043377293825
 20
127.5399258291514
 30
0.0
 11
263.2734969724873
 21
129.1707665860466
 31
0.0
  0
LINE
  5
C3
330
25
100
AcDbEntity
  8
0
 62
     0
100
AcDbLine
 10
264.990150551652
 20
127.5955343631192
 30
0.0
 11
263.2734969724873
 21
129.3121879422839
 31
0.0
  0
LINE
  5
C4
330
25
100
AcDbEntity
  8
0
 62
     0
100
AcDbLine
 10
265.0742750174464
 20
127.6528312535621
 30
0.0
 11
263.2734969724873
 21
129.4536092985212
 31
0.0
  0
LINE
  5
C5
330
25
100
AcDbEntity
  8
0
 62
     0
100
AcDbLine
 10
265.1567329909974
 20
127.7117946362483
 30
0.0
 11
263.2734969724873
 21
129.5950306547585
 31
0.0
  0
LINE
  5
C6
330
25
100
AcDbEntity
  8
0
 62
     0
100
AcDbLine
 10
265.2375433109822
 20
127.7724056725009
 30
0.0
 11
263.2734969724873
 21
129.7364520109958
 31
0.0
  0
LINE
  5
C7
330
25
100
AcDbEntity
  8
0
 62
     0
100
AcDbLine
 10
265.3167219473242
 20
127.8346483923962
 30
0.0
 11
263.2734969724873
 21
129.8778733672331
 31
0.0
  0
LINE
  5
C8
330
25
100
AcDbEntity
  8
0
 62
     0
100
AcDbLine
 10
265.3942821310908
 20
127.8985095648668
 30
0.0
 11
263.2734969724873
 21
130.0192947234704
 31
0.0
  0
LINE
  5
C9
330
25
100
AcDbEntity
  8
0
 62
     0
100
AcDbLine
 10
265.4702344600214
 20
127.9639785921737
 30
0.0
 11
263.2734969724873
 21
130.1607160797078
 31
0.0
  0
LINE
  5
CA
330
25
100
AcDbEntity
  8
0
 62
     0
100
AcDbLine
 10
265.5445869816907
 20
128.0310474267416
 30
0.0
 11
263.2734969724873
 21
130.302137435945
 31
0.0
  0
LINE
  5
CB
330
25
100
AcDbEntity
  8
0
 62
     0
100
AcDbLine
 10
265.6173452558579
 20
128.0997105088117
 30
0.0
 11
263.2734969724873
 21
130.4435587921824
 31
0.0
  0
LINE
  5
CC
330
25
100
AcDbEntity
  8
0
 62
     0
100
AcDbLine
 10
265.6885123971337
 20
128.1699647237733
 30
0.0
 11
263.2734969724873
 21
130.5849801484197
 31
0.0
  0
LINE
  5
CD
330
25
100
AcDbEntity
  8
0
 62
     0
100
AcDbLine
 10
265.7580890987402
 20
128.241809378404
 30
0.0
 11
263.2734969724873
 21
130.726401504657
 31
0.0
  0
LINE
  5
CE
330
25
100
AcDbEntity
  8
0
 62
     0
100
AcDbLine
 10
265.826073637785
 20
128.3152461955965
 30
0.0
 11
263.2734969724873
 21
130.8678228608943
 31
0.0
  0
LINE
  5
CF
330
25
100
AcDbEntity
  8
0
 62
     0
100
AcDbLine
 10
265.8924618621436
 20
128.3902793274752
 30
0.0
 11
263.2734969724873
 21
131.0092442171316
 31
0.0
  0
LINE
  5
D0
330
25
100
AcDbEntity
  8
0
 62
     0
100
AcDbLine
 10
265.9572471587176
 20
128.4669153871386
 30
0.0
 11
263.2734969724873
 21
131.1506655733689
 31
0.0
  0
LINE
  5
D1
330
25
100
AcDbEntity
  8
0
 62
     0
100
AcDbLine
 10
266.0204204024985
 20
128.545163499595
 30
0.0
 11
263.2734969724873
 21
131.2920869296062
 31
0.0
  0
LINE
  5
D2
330
25
100
AcDbEntity
  8
0
 62
     0
100
AcDbLine
 10
266.0819698855156
 20
128.6250353728151
 30
0.0
 11
263.2734969724873
 21
131.4335082858435
 31
0.0
  0
LINE
  5
D3
330
25
100
AcDbEntity
  8
0
 62
     0
100
AcDbLine
 10
266.14188122436
 20
128.7065453902082
 30
0.0
 11
263.3656976874646
 21
131.4827289271035
 31
0.0
  0
LINE
  5
D4
330
25
100
AcDbEntity
  8
0
 62
     0
100
AcDbLine
 10
266.2001372445506
 20
128.7897107262548
 30
0.0
 11
263.5071190437019
 21
131.4827289271035
 31
0.0
  0
LINE
  5
D5
330
25
100
AcDbEntity
  8
0
 62
     0
100
AcDbLine
 10
266.2567178395217
 20
128.874551487521
 30
0.0
 11
263.6485403999393
 21
131.4827289271035
 31
0.0
  0
LINE
  5
D6
330
25
100
AcDbEntity
  8
0
 62
     0
100
AcDbLine
 10
266.3115998014414
 20
128.9610908818387
 30
0.0
 11
263.7899617561766
 21
131.4827289271035
 31
0.0
  0
LINE
  5
D7
330
25
100
AcDbEntity
  8
0
 62
     0
100
AcDbLine
 10
266.3647566204049
 20
129.0493554191124
 30
0.0
 11
263.9313831124138
 21
131.4827289271035
 31
0.0
  0
LINE
  5
D8
330
25
100
AcDbEntity
  8
0
 62
     0
100
AcDbLine
 10
266.4161582477481
 20
129.1393751480066
 30
0.0
 11
264.0728044686512
 21
131.4827289271035
 31
0.0
  0
LINE
  5
D9
330
25
100
AcDbEntity
  8
0
 62
     0
100
AcDbLine
 10
266.4657708182492
 20
129.2311839337427
 30
0.0
 11
264.2142258248885
 21
131.4827289271035
 31
0.0
  0
LINE
  5
DA
330
25
100
AcDbEntity
  8
0
 62
     0
100
AcDbLine
 10
266.5135563248065
 20
129.3248197834228
 30
0.0
 11
264.3556471811258
 21
131.4827289271035
 31
0.0
  0
LINE
  5
DB
330
25
100
AcDbEntity
  8
0
 62
     0
100
AcDbLine
 10
266.5594722377013
 20
129.4203252267653
 30
0.0
 11
264.4970685373631
 21
131.4827289271035
 31
0.0
  0
LINE
  5
DC
330
25
100
AcDbEntity
  8
0
 62
     0
100
AcDbLine
 10
266.6034710587204
 20
129.5177477619835
 30
0.0
 11
264.6384898936004
 21
131.4827289271035
 31
0.0
  0
LINE
  5
DD
330
25
100
AcDbEntity
  8
0
 62
     0
100
AcDbLine
 10
266.6454997980919
 20
129.6171403788494
 30
0.0
 11
264.7799112498377
 21
131.4827289271035
 31
0.0
  0
LINE
  5
DE
330
25
100
AcDbEntity
  8
0
 62
     0
100
AcDbLine
 10
266.6854993592374
 20
129.7185621739411
 30
0.0
 11
264.921332606075
 21
131.4827289271035
 31
0.0
  0
LINE
  5
DF
330
25
100
AcDbEntity
  8
0
 62
     0
100
AcDbLine
 10
266.7234038125558
 20
129.82207907686
 30
0.0
 11
265.0627539623124
 21
131.4827289271035
 31
0.0
  0
LINE
  5
E0
330
25
100
AcDbEntity
  8
0
 62
     0
100
AcDbLine
 10
266.7591395345339
 20
129.9277647111193
 30
0.0
 11
265.2041753185497
 21
131.4827289271035
 31
0.0
  0
LINE
  5
E1
330
25
100
AcDbEntity
  8
0
 62
     0
100
AcDbLine
 10
266.7926241820451
 20
130.0357014198453
 30
0.0
 11
265.3455966747869
 21
131.4827289271035
 31
0.0
  0
LINE
  5
E2
330
25
100
AcDbEntity
  8
0
 62
     0
100
AcDbLine
 10
266.8237654631684
 20
130.1459814949594
 30
0.0
 11
265.4870180310243
 21
131.4827289271035
 31
0.0
  0
LINE
  5
E3
330
25
100
AcDbEntity
  8
0
 62
     0
100
AcDbLine
 10
266.8524596544427
 20
130.2587086599223
 30
0.0
 11
265.6284393872616
 21
131.4827289271035
 31
0.0
  0
LINE
  5
E4
330
25
100
AcDbEntity
  8
0
 62
     0
100
AcDbLine
 10
266.8785897989944
 20
130.373999871608
 30
0.0
 11
265.7698607434989
 21
131.4827289271035
 31
0.0
  0
LINE
  5
E5
330
25
100
AcDbEntity
  8
0
 62
     0
100
AcDbLine
 10
266.9020234987062
 20
130.4919875281336
 30
0.0
 11
265.9112820997362
 21
131.4827289271035
 31
0.0
  0
LINE
  5
E6
330
25
100
AcDbEntity
  8
0
 62
     0
100
AcDbLine
 10
266.9226101839612
 20
130.6128221991158
 30
0.0
 11
266.0527034559735
 21
131.4827289271035
 31
0.0
  0
LINE
  5
E7
330
25
100
AcDbEntity
  8
0
 62
     0
100
AcDbLine
 10
266.9401777025289
 20
130.7366760367854
 30
0.0
 11
266.1941248122108
 21
131.4827289271035
 31
0.0
  0
LINE
  5
E8
330
25
100
AcDbEntity
  8
0
 62
     0
100
AcDbLine
 10
266.9545280087076
 20
130.8637470868439
 30
0.0
 11
266.3355461684481
 21
131.4827289271035
 31
0.0
  0
LINE
  5
E9
330
25
100
AcDbEntity
  8
0
 62
     0
100
AcDbLine
 10
266.9654316450731
 20
130.9942648067158
 30
0.0
 11
266.4769675246854
 21
131.4827289271035
 31
0.0
  0
LINE
  5
EA
330
25
100
AcDbEntity
  8
0
 62
     0
100
AcDbLine
 10
266.9726205760378
 20
131.1284972319885
 30
0.0
 11
266.6183888809227
 21
131.4827289271035
 31
0.0
  0
LINE
  5
EB
330
25
100
AcDbEntity
  8
0
 62
     0
100
AcDbLine
 10
266.9757787279279
 20
131.2667604363356
 30
0.0
 11
266.75981023716
 21
131.4827289271035
 31
0.0
  0
LINE
  5
EC
330
25
100
AcDbEntity
  8
0
 62
     0
100
AcDbLine
 10
266.9745292676479
 20
131.409431252853
 30
0.0
 11
266.9012315933974
 21
131.4827289271035
 31
0.0
  0
ENDBLK
  5
ED
330
25
100
AcDbEntity
  8
0
100
AcDbBlockEnd
  0
BLOCK
  5
394
330
38A
100
AcDbEntity
  8
0
100
AcDbBlockBegin
  2
*D2
 70
     1
 10
0.0
 20
0.0
 30
0.0
  3
*D2
  1

  0
LINE
  5
AC9
330
38A
100
AcDbEntity
  8
BEM
 62
     0
370
    -2
100
AcDbLine
 10
237.0149623857274
 20
249.6416511873666
 30
0.0
 11
237.0149623857274
 21
224.9802665369844
 31
0.0
  0
LINE
  5
ACA
330
38A
100
AcDbEntity
  8
BEM
 62
     0
370
    -2
100
AcDbLine
 10
290.0149623857274
 20
249.6416511873666
 30
0.0
 11
290.0149623857274
 21
224.9802665369844
 31
0.0
  0
LINE
  5
ACB
330
38A
100
AcDbEntity
  8
BEM
 62
     0
370
    -2
100
AcDbLine
 10
244.0149623857274
 20
226.9802665369844
 30
0.0
 11
283.0149623857274
 21
226.9802665369844
 31
0.0
  0
SOLID
  5
ACC
330
38A
100
AcDbEntity
  8
BEM
 62
     0
100
AcDbTrace
 10
244.0149623857274
 20
228.1469332036511
 30
0.0
 11
244.0149623857274
 21
225.8135998703178
 31
0.0
 12
237.0149623857274
 22
226.9802665369844
 32
0.0
 13
237.0149623857274
 23
226.9802665369844
 33
0.0
  0
SOLID
  5
ACD
330
38A
100
AcDbEntity
  8
BEM
 62
     0
100
AcDbTrace
 10
283.0149623857274
 20
228.1469332036511
 30
0.0
 11
283.0149623857274
 21
225.8135998703178
 31
0.0
 12
290.0149623857274
 22
226.9802665369844
 32
0.0
 13
290.0149623857274
 23
226.9802665369844
 33
0.0
  0
MTEXT
  5
ACE
330
38A
100
AcDbEntity
  8
BEM
 62
     1
100
AcDbMText
 10
263.5149623857274
 20
232.8802665369844
 30
0.0
 40
7.0
 41
0.0
 71
     5
 72
     1
  1
\A1;%%C53
 73
     1
 44
1.0
  0
POINT
  5
ACF
330
38A
100
AcDbEntity
  8
DEFPOINTS
 62
     0
100
AcDbPoint
 10
237.0149623857274
 20
251.6416511873666
 30
0.0
  0
POINT
  5
AD0
330
38A
100
AcDbEntity
  8
DEFPOINTS
 62
     0
100
AcDbPoint
 10
290.0149623857274
 20
251.6416511873666
 30
0.0
  0
POINT
  5
AD1
330
38A
100
AcDbEntity
  8
DEFPOINTS
 62
     0
100
AcDbPoint
 10
290.0149623857274
 20
226.9802665369844
 30
0.0
  0
ENDBLK
  5
395
330
38A
100
AcDbEntity
  8
0
100
AcDbBlockEnd
  0
BLOCK
  5
3DF
330
3D6
100
AcDbEntity
  8
0
100
AcDbBlockBegin
  2
*D3
 70
     1
 10
0.0
 20
0.0
 30
0.0
  3
*D3
  1

  0
LINE
  5
AD2
330
3D6
100
AcDbEntity
  8
BEM
 62
     0
370
    -2
100
AcDbLine
 10
66.85660451014957
 20
328.6416511873667
 30
0.0
 11
66.85660451014957
 21
293.2483406403227
 31
0.0
  0
LINE
  5
AD3
330
3D6
100
AcDbEntity
  8
BEM
 62
     0
370
    -2
100
AcDbLine
 10
73.85660451014956
 20
295.2483406403227
 30
0.0
 11
230.0149623857274
 21
295.2483406403227
 31
0.0
  0
SOLID
  5
AD4
330
3D6
100
AcDbEntity
  8
BEM
 62
     0
100
AcDbTrace
 10
73.85660451014956
 20
296.4150073069894
 30
0.0
 11
73.85660451014956
 21
294.081673973656
 31
0.0
 12
66.85660451014957
 22
295.2483406403227
 32
0.0
 13
66.85660451014957
 23
295.2483406403227
 33
0.0
  0
SOLID
  5
AD5
330
3D6
100
AcDbEntity
  8
BEM
 62
     0
100
AcDbTrace
 10
230.0149623857274
 20
296.4150073069894
 30
0.0
 11
230.0149623857274
 21
294.081673973656
 31
0.0
 12
237.0149623857274
 22
295.2483406403227
 32
0.0
 13
237.0149623857274
 23
295.2483406403227
 33
0.0
  0
MTEXT
  5
AD6
330
3D6
100
AcDbEntity
  8
BEM
 62
     1
100
AcDbMText
 10
151.9357834479385
 20
301.1483406403227
 30
0.0
 40
7.0
 41
0.0
 71
     5
 72
     1
  1
\A1;170
 73
     1
 44
1.0
  0
POINT
  5
AD7
330
3D6
100
AcDbEntity
  8
DEFPOINTS
 62
     0
100
AcDbPoint
 10
66.85660451014957
 20
330.6416511873667
 30
0.0
  0
POINT
  5
AD8
330
3D6
100
AcDbEntity
  8
DEFPOINTS
 62
     0
100
AcDbPoint
 10
237.0149623857274
 20
295.2483406403227
 30
0.0
  0
POINT
  5
AD9
330
3D6
100
AcDbEntity
  8
DEFPOINTS
 62
     0
100
AcDbPoint
 10
237.0149623857274
 20
295.2483406403227
 30
0.0
  0
ENDBLK
  5
3E0
330
3D6
100
AcDbEntity
  8
0
100
AcDbBlockEnd
  0
BLOCK
  5
50E
330
504
100
AcDbEntity
  8
0
100
AcDbBlockBegin
  2
*D4
 70
     1
 10
0.0
 20
0.0
 30
0.0
  3
*D4
  1

  0
LINE
  5
AC0
330
504
100
AcDbEntity
  8
BEM
 62
     0
370
    -2
100
AcDbLine
 10
364.0309376528817
 20
490.6416511873665
 30
0.0
 11
393.1620074719095
 21
490.6416511873664
 31
0.0
  0
LINE
  5
AC1
330
504
100
AcDbEntity
  8
BEM
 62
     0
370
    -2
100
AcDbLine
 10
291.4900304045718
 20
245.6416511873666
 30
0.0
 11
393.1620074719094
 21
245.6416511873666
 31
0.0
  0
LINE
  5
AC2
330
504
100
AcDbEntity
  8
BEM
 62
     0
370
    -2
100
AcDbLine
 10
391.1620074719095
 20
483.6416511873664
 30
0.0
 11
391.1620074719094
 21
252.6416511873665
 31
0.0
  0
SOLID
  5
AC3
330
504
100
AcDbEntity
  8
BEM
 62
     0
100
AcDbTrace
 10
389.9953408052428
 20
483.6416511873664
 30
0.0
 11
392.3286741385762
 21
483.6416511873664
 31
0.0
 12
391.1620074719095
 22
490.6416511873664
 32
0.0
 13
391.1620074719095
 23
490.6416511873664
 33
0.0
  0
SOLID
  5
AC4
330
504
100
AcDbEntity
  8
BEM
 62
     0
100
AcDbTrace
 10
389.9953408052427
 20
252.6416511873665
 30
0.0
 11
392.3286741385761
 21
252.6416511873665
 31
0.0
 12
391.1620074719094
 22
245.6416511873666
 32
0.0
 13
391.1620074719094
 23
245.6416511873666
 33
0.0
  0
MTEXT
  5
AC5
330
504
100
AcDbEntity
  8
BEM
 62
     1
100
AcDbMText
 10
385.2620074719094
 20
368.1416511873666
 30
0.0
 40
7.0
 41
0.0
 71
     5
 72
     1
  1
\A1;245
 11
0.0000000000000001
 21
1.0
 31
0.0
 73
     1
 44
1.0
  0
POINT
  5
AC6
330
504
100
AcDbEntity
  8
DEFPOINTS
 62
     0
100
AcDbPoint
 10
362.0309376528817
 20
490.6416511873665
 30
0.0
  0
POINT
  5
AC7
330
504
100
AcDbEntity
  8
DEFPOINTS
 62
     0
100
AcDbPoint
 10
289.4900304045718
 20
245.6416511873666
 30
0.0
  0
POINT
  5
AC8
330
504
100
AcDbEntity
  8
DEFPOINTS
 62
     0
100
AcDbPoint
 10
391.1620074719094
 20
245.6416511873666
 30
0.0
  0
ENDBLK
  5
50F
330
504
100
AcDbEntity
  8
0
100
AcDbBlockEnd
  0
BLOCK
  5
57C
330
571
100
AcDbEntity
  8
0
100
AcDbBlockBegin
  2
*D5
 70
     1
 10
0.0
 20
0.0
 30
0.0
  3
*D5
  1

  0
LINE
  5
AB4
330
571
100
AcDbEntity
  8
BEM
 62
     0
370
    -2
100
AcDbLine
 10
263.5149623857274
 20
390.2130008003415
 30
0.0
 11
263.5149623857274
 21
416.2502970665671
 31
0.0
  0
ARC
  5
AB5
330
571
100
AcDbEntity
  8
BEM
 62
     0
370
    -2
100
AcDbCircle
 10
263.5149623857274
 20
388.2130008003414
 30
0.0
 40
26.0372962662257
100
AcDbArc
 50
16.09907750660582
 51
31.549538753303
  0
ARC
  5
AB6
330
571
100
AcDbEntity
  8
BEM
 62
     0
370
    -2
100
AcDbCircle
 10
263.5149623857274
 20
388.2130008003414
 30
0.0
 40
26.0372962662257
100
AcDbArc
 50
105.4504612466971
 51
120.9009224933943
  0
ARC
  5
AB7
330
571
100
AcDbEntity
  8
BEM
 62
     0
370
    -2
100
AcDbCircle
 10
263.5149623857274
 20
388.2130008003414
 30
0.0
 40
26.0372962662257
100
AcDbArc
 50
47.00000000000016
 51
90.0
  0
SOLID
  5
AB8
330
571
100
AcDbEntity
  8
BEM
 62
     0
100
AcDbTrace
 10
284.8004971641198
 20
401.0980937450033
 30
0.0
 11
286.6067749443587
 21
402.5751871831648
 31
0.0
 12
281.2723557397547
 22
407.2554738048006
 32
0.0
 13
281.2723557397547
 23
407.2554738048006
 33
0.0
  0
SOLID
  5
AB9
330
571
100
AcDbEntity
  8
BEM
 62
     0
100
AcDbTrace
 10
256.4216673538738
 20
414.4654172706208
 30
0.0
 11
256.7353199921188
 21
412.1532610330438
 31
0.0
 12
263.5149623857274
 22
414.2502970665671
 32
0.0
 13
263.5149623857274
 23
414.2502970665671
 33
0.0
  0
MTEXT
  5
ABA
330
571
100
AcDbEntity
  8
BEM
 62
     1
100
AcDbMText
 10
275.2200206455564
 20
417.9280223202844
 30
0.0
 40
7.0
 41
0.0
 71
     5
 72
     1
  1
\A1;43°
 11
0.930417567982025
 21
-0.366501226724296
 31
0.0
 73
     1
 44
1.0
  0
POINT
  5
ABB
330
571
100
AcDbEntity
  8
DEFPOINTS
 62
     0
100
AcDbPoint
 10
276.0053948382175
 20
411.0587858383959
 30
0.0
  0
POINT
  5
ABC
330
571
100
AcDbEntity
  8
DEFPOINTS
 62
     0
100
AcDbPoint
 10
263.5149623857274
 20
240.6416511873666
 30
0.0
  0
POINT
  5
ABD
330
571
100
AcDbEntity
  8
DEFPOINTS
 62
     0
100
AcDbPoint
 10
263.5149623857274
 20
388.2130008003414
 30
0.0
  0
POINT
  5
ABE
330
571
100
AcDbEntity
  8
DEFPOINTS
 62
     0
100
AcDbPoint
 10
343.489197892174
 20
473.9748685656
 30
0.0
  0
POINT
  5
ABF
330
571
100
AcDbEntity
  8
DEFPOINTS
 62
     0
100
AcDbPoint
 10
263.5149623857274
 20
388.2130008003414
 30
0.0
  0
ENDBLK
  5
57D
330
571
100
AcDbEntity
  8
0
100
AcDbBlockEnd
  0
BLOCK
  5
5B5
330
5AB
100
AcDbEntity
  8
0
100
AcDbBlockBegin
  2
*D6
 70
     1
 10
0.0
 20
0.0
 30
0.0
  3
*D6
  1

  0
LINE
  5
AEA
330
5AB
100
AcDbEntity
  8
BEM
 62
     0
370
    -2
100
AcDbLine
 10
265.5149623857274
 20
388.2130008003415
 30
0.0
 11
377.1157026825659
 21
388.2130008003415
 31
0.0
  0
LINE
  5
AEB
330
5AB
100
AcDbEntity
  8
BEM
 62
     0
370
    -2
100
AcDbLine
 10
289.9843006482569
 20
245.6416511873666
 30
0.0
 11
377.1157026825658
 21
245.6416511873666
 31
0.0
  0
LINE
  5
AEC
330
5AB
100
AcDbEntity
  8
BEM
 62
     0
370
    -2
100
AcDbLine
 10
375.1157026825658
 20
381.2130008003415
 30
0.0
 11
375.1157026825658
 21
252.6416511873666
 31
0.0
  0
SOLID
  5
AED
330
5AB
100
AcDbEntity
  8
BEM
 62
     0
100
AcDbTrace
 10
373.9490360158991
 20
381.2130008003415
 30
0.0
 11
376.2823693492325
 21
381.2130008003415
 31
0.0
 12
375.1157026825659
 22
388.2130008003415
 32
0.0
 13
375.1157026825659
 23
388.2130008003415
 33
0.0
  0
SOLID
  5
AEE
330
5AB
100
AcDbEntity
  8
BEM
 62
     0
100
AcDbTrace
 10
373.9490360158991
 20
252.6416511873666
 30
0.0
 11
376.2823693492325
 21
252.6416511873666
 31
0.0
 12
375.1157026825658
 22
245.6416511873666
 32
0.0
 13
375.1157026825658
 23
245.6416511873666
 33
0.0
  0
MTEXT
  5
AEF
330
5AB
100
AcDbEntity
  8
BEM
 62
     1
100
AcDbMText
 10
369.2157026825658
 20
316.9273259938541
 30
0.0
 40
7.0
 41
0.0
 71
     5
 72
     1
  1
\A1;142
 11
0.0000000000000001
 21
1.0
 31
0.0
 73
     1
 44
1.0
  0
POINT
  5
AF0
330
5AB
100
AcDbEntity
  8
DEFPOINTS
 62
     0
100
AcDbPoint
 10
263.5149623857274
 20
388.2130008003415
 30
0.0
  0
POINT
  5
AF1
330
5AB
100
AcDbEntity
  8
DEFPOINTS
 62
     0
100
AcDbPoint
 10
287.9843006482569
 20
245.6416511873666
 30
0.0
  0
POINT
  5
AF2
330
5AB
100
AcDbEntity
  8
DEFPOINTS
 62
     0
100
AcDbPoint
 10
375.1157026825658
 20
245.6416511873666
 30
0.0
  0
ENDBLK
  5
5B6
330
5AB
100
AcDbEntity
  8
0
100
AcDbBlockEnd
  0
BLOCK
  5
5F9
330
5EF
100
AcDbEntity
  8
0
100
AcDbBlockBegin
  2
*D7
 70
     1
 10
0.0
 20
0.0
 30
0.0
  3
*D7
  1

  0
LINE
  5
AA2
330
5EF
100
AcDbEntity
  8
BEM
 62
     0
370
    -2
100
AcDbLine
 10
363.2375431202376
 20
451.4572563308801
 30
0.0
 11
375.9647599362993
 21
465.1055254101247
 31
0.0
  0
LINE
  5
AA3
330
5EF
100
AcDbEntity
  8
BEM
 62
     0
370
    -2
100
AcDbLine
 10
319.648862503735
 20
492.1043585906048
 30
0.0
 11
332.3760793197968
 21
505.7526276698494
 31
0.0
  0
LINE
  5
AA4
330
5EF
100
AcDbEntity
  8
BEM
 62
     0
370
    -2
100
AcDbLine
 10
369.4812873048401
 20
468.4168065273238
 30
0.0
 11
336.1315585110059
 21
499.5159317461736
 31
0.0
  0
SOLID
  5
AA5
330
5EF
100
AcDbEntity
  8
BEM
 62
     0
100
AcDbTrace
 10
370.2769520582464
 20
469.2700525125461
 30
0.0
 11
368.6856225514339
 21
467.5635605421015
 31
0.0
 12
374.6007632161743
 22
463.6428180068864
 32
0.0
 13
374.6007632161743
 23
463.6428180068864
 33
0.0
  0
SOLID
  5
AA6
330
5EF
100
AcDbEntity
  8
BEM
 62
     0
100
AcDbTrace
 10
336.9272232644122
 20
500.3691777313959
 30
0.0
 11
335.3358937575997
 21
498.6626857609512
 31
0.0
 12
331.0120825996718
 22
504.289920266611
 32
0.0
 13
331.0120825996718
 23
504.289920266611
 33
0.0
  0
MTEXT
  5
AA7
330
5EF
100
AcDbEntity
  8
BEM
 62
     1
100
AcDbMText
 10
356.8302132322918
 20
488.2813559763018
 30
0.0
 40
7.0
 41
0.0
 71
     5
 72
     1
  1
\A1;R2
 11
0.7313537016191721
 21
-0.6819983600624969
 31
0.0
 73
     1
 44
1.0
  0
POINT
  5
AA8
330
5EF
100
AcDbEntity
  8
DEFPOINTS
 62
     0
100
AcDbPoint
 10
361.8735464001126
 20
449.9945489276417
 30
0.0
  0
POINT
  5
AA9
330
5EF
100
AcDbEntity
  8
DEFPOINTS
 62
     0
100
AcDbPoint
 10
318.28486578361
 20
490.6416511873664
 30
0.0
  0
POINT
  5
AAA
330
5EF
100
AcDbEntity
  8
DEFPOINTS
 62
     0
100
AcDbPoint
 10
331.0120825996718
 20
504.289920266611
 30
0.0
  0
ENDBLK
  5
5FA
330
5EF
100
AcDbEntity
  8
0
100
AcDbBlockEnd
  0
BLOCK
  5
69E
330
694
100
AcDbEntity
  8
0
100
AcDbBlockBegin
  2
*D8
 70
     1
 10
0.0
 20
0.0
 30
0.0
  3
*D8
  1

  0
LINE
  5
A99
330
694
100
AcDbEntity
  8
BEM
 62
     0
370
    -2
100
AcDbLine
 10
291.4900304045718
 20
245.6416511873666
 30
0.0
 11
360.0486008908287
 21
245.6416511873666
 31
0.0
  0
LINE
  5
A9A
330
694
100
AcDbEntity
  8
BEM
 62
     0
370
    -2
100
AcDbLine
 10
229.0149623857274
 20
330.6416511873667
 30
0.0
 11
360.0486008908287
 21
330.6416511873667
 31
0.0
  0
LINE
  5
A9B
330
694
100
AcDbEntity
  8
BEM
 62
     0
370
    -2
100
AcDbLine
 10
358.0486008908287
 20
252.6416511873665
 30
0.0
 11
358.0486008908287
 21
323.6416511873667
 31
0.0
  0
SOLID
  5
A9C
330
694
100
AcDbEntity
  8
BEM
 62
     0
100
AcDbTrace
 10
356.881934224162
 20
252.6416511873665
 30
0.0
 11
359.2152675574954
 21
252.6416511873665
 31
0.0
 12
358.0486008908287
 22
245.6416511873666
 32
0.0
 13
358.0486008908287
 23
245.6416511873666
 33
0.0
  0
SOLID
  5
A9D
330
694
100
AcDbEntity
  8
BEM
 62
     0
100
AcDbTrace
 10
356.881934224162
 20
323.6416511873667
 30
0.0
 11
359.2152675574954
 21
323.6416511873667
 31
0.0
 12
358.0486008908287
 22
330.6416511873667
 32
0.0
 13
358.0486008908287
 23
330.6416511873667
 33
0.0
  0
MTEXT
  5
A9E
330
694
100
AcDbEntity
  8
BEM
 62
     1
100
AcDbMText
 10
352.1486008908287
 20
288.1416511873667
 30
0.0
 40
7.0
 41
0.0
 71
     5
 72
     1
  1
\A1;85
 11
0.0000000000000001
 21
1.0
 31
0.0
 73
     1
 44
1.0
  0
POINT
  5
A9F
330
694
100
AcDbEntity
  8
DEFPOINTS
 62
     0
100
AcDbPoint
 10
289.4900304045718
 20
245.6416511873666
 30
0.0
  0
POINT
  5
AA0
330
694
100
AcDbEntity
  8
DEFPOINTS
 62
     0
100
AcDbPoint
 10
227.0149623857274
 20
330.6416511873667
 30
0.0
  0
POINT
  5
AA1
330
694
100
AcDbEntity
  8
DEFPOINTS
 62
     0
100
AcDbPoint
 10
358.0486008908287
 20
330.6416511873667
 30
0.0
  0
ENDBLK
  5
69F
330
694
100
AcDbEntity
  8
0
100
AcDbBlockEnd
  0
BLOCK
  5
970
330
966
100
AcDbEntity
  8
0
100
AcDbBlockBegin
  2
*D9
 70
     1
 10
0.0
 20
0.0
 30
0.0
  3
*D9
  1

  0
LINE
  5
ADC
330
966
100
AcDbEntity
  8
BEM
 62
     0
370
    -2
100
AcDbLine
 10
316.8221583803717
 20
492.0056479074916
 30
0.0
 11
306.5897353503565
 21
501.5475367507232
 31
0.0
  0
LINE
  5
ADD
330
966
100
AcDbEntity
  8
BEM
 62
     0
370
    -2
100
AcDbLine
 10
262.0522549824891
 20
389.5769975204664
 30
0.0
 11
230.0254916442225
 21
419.4424374935604
 31
0.0
  0
LINE
  5
ADE
330
966
100
AcDbEntity
  8
BEM
 62
     0
370
    -2
100
AcDbLine
 10
303.2784542331573
 20
495.064064119264
 30
0.0
 11
236.2621875678983
 21
423.1979166847696
 31
0.0
  0
SOLID
  5
ADF
330
966
100
AcDbEntity
  8
BEM
 62
     0
100
AcDbTrace
 10
302.425208247935
 20
495.8597288726702
 30
0.0
 11
304.1317002183797
 21
494.2683993658577
 31
0.0
 12
308.0524427535948
 22
500.1835400305982
 32
0.0
 13
308.0524427535948
 23
500.1835400305982
 33
0.0
  0
SOLID
  5
AE0
330
966
100
AcDbEntity
  8
BEM
 62
     0
100
AcDbTrace
 10
235.4089415826759
 20
423.9935814381759
 30
0.0
 11
237.1154335531207
 21
422.4022519313633
 31
0.0
 12
231.4881990474609
 22
418.0784407734354
 32
0.0
 13
231.4881990474609
 23
418.0784407734354
 33
0.0
  0
MTEXT
  5
AE1
330
966
100
AcDbEntity
  8
BEM
 62
     1
100
AcDbMText
 10
265.4553340609748
 20
463.1547807263856
 30
0.0
 40
7.0
 41
0.0
 71
     5
 72
     1
  1
\A1;112
 11
0.6819983600624968
 21
0.7313537016191721
 31
0.0
 73
     1
 44
1.0
  0
POINT
  5
AE2
330
966
100
AcDbEntity
  8
DEFPOINTS
 62
     0
100
AcDbPoint
 10
318.2848657836101
 20
490.6416511873666
 30
0.0
  0
POINT
  5
AE3
330
966
100
AcDbEntity
  8
DEFPOINTS
 62
     0
100
AcDbPoint
 10
263.5149623857275
 20
388.2130008003414
 30
0.0
  0
POINT
  5
AE4
330
966
100
AcDbEntity
  8
DEFPOINTS
 62
     0
100
AcDbPoint
 10
231.4881990474609
 20
418.0784407734354
 30
0.0
  0
ENDBLK
  5
971
330
966
100
AcDbEntity
  8
0
100
AcDbBlockEnd
  0
ENDSEC
  0
SECTION
  2
ENTITIES
  0
TEXT
  5
2C0
330
20
100
AcDbEntity
  8
TEXT
 62
     1
100
AcDbText
 10
234.9034826829412
 20
86.72199958526958
 30
0.0
 40
7.0
  1
Füllstutzen DN50
 41
0.8
  7
GREEKS
100
AcDbText
  0
LINE
  5
2C1
330
20
100
AcDbEntity
  8
STEMPEL
100
AcDbLine
 10
410.0
 20
110.0000000000001
 30
0.0
 11
50.0
 21
110.0000000000001
 31
0.0
  0
LINE
  5
2C2
330
20
100
AcDbEntity
  8
STEMPEL
100
AcDbLine
 10
50.00000000000108
 20
584.0
 30
0.0
 11
49.99999999999983
 21
10.0
 31
0.0
  0
LINE
  5
2C3
330
20
100
AcDbEntity
  8
STEMPEL
100
AcDbLine
 10
146.0
 20
109.9999999999999
 30
0.0
 11
145.9999999999998
 21
9.999999999999886
 31
0.0
  0
LINE
  5
2C4
330
20
100
AcDbEntity
  8
STEMPEL
100
AcDbLine
 10
229.9999999999998
 20
110.0000000000001
 30
0.0
 11
229.9999999999998
 21
10.0
 31
0.0
  0
LINE
  5
2C5
330
20
100
AcDbEntity
  8
STEMPEL
100
AcDbLine
 10
332.0
 20
109.9999999999996
 30
0.0
 11
332.0
 21
40.0
 31
0.0
  0
LINE
  5
2C6
330
20
100
AcDbEntity
  8
STEMPEL
100
AcDbLine
 10
145.9999999999998
 20
30.0
 30
0.0
 11
49.99999999999977
 21
30.0
 31
0.0
  0
LINE
  5
2C7
330
20
100
AcDbEntity
  8
STEMPEL
100
AcDbLine
 10
410.0
 20
40.0
 30
0.0
 11
145.9999999999998
 21
40.0
 31
0.0
  0
LINE
  5
2C8
330
20
100
AcDbEntity
  8
STEMPEL
100
AcDbLine
 10
410.0
 20
80.00000000000012
 30
0.0
 11
146.0
 21
80.00000000000012
 31
0.0
  0
LINE
  5
2C9
330
20
100
AcDbEntity
  8
VOLL
100
AcDbLine
 10
64.0
 20
109.9999999999999
 30
0.0
 11
63.99999999999977
 21
10.0
 31
0.0
  0
LINE
  5
2CA
330
20
100
AcDbEntity
  8
VOLL
100
AcDbLine
 10
104.0
 20
109.9999999999999
 30
0.0
 11
103.9999999999998
 21
9.999999999999886
 31
0.0
  0
LINE
  5
2CB
330
20
100
AcDbEntity
  8
VOLL
100
AcDbLine
 10
124.0
 20
109.9999999999999
 30
0.0
 11
123.9999999999997
 21
9.999999999999886
 31
0.0
  0
LINE
  5
2CC
330
20
100
AcDbEntity
  8
VOLL
100
AcDbLine
 10
164.0
 20
80.00000000000012
 30
0.0
 11
164.0
 21
40.0
 31
0.0
  0
LINE
  5
2CD
330
20
100
AcDbEntity
  8
VOLL
100
AcDbLine
 10
190.0
 20
109.9999999999999
 30
0.0
 11
189.9999999999997
 21
40.0
 31
0.0
  0
LINE
  5
2CE
330
20
100
AcDbEntity
  8
HILF
100
AcDbLine
 10
50.0
 20
100.0000000000001
 30
0.0
 11
146.0
 21
100.0000000000001
 31
0.0
  0
LINE
  5
2CF
330
20
100
AcDbEntity
  8
HILF
100
AcDbLine
 10
50.0
 20
90.00000000000012
 30
0.0
 11
146.0
 21
90.00000000000012
 31
0.0
  0
LINE
  5
2D0
330
20
100
AcDbEntity
  8
HILF
100
AcDbLine
 10
50.0
 20
80.00000000000012
 30
0.0
 11
146.0
 21
80.00000000000012
 31
0.0
  0
LINE
  5
2D1
330
20
100
AcDbEntity
  8
HILF
100
AcDbLine
 10
50.0
 20
70.00000000000011
 30
0.0
 11
146.0
 21
70.00000000000011
 31
0.0
  0
LINE
  5
2D2
330
20
100
AcDbEntity
  8
HILF
100
AcDbLine
 10
50.0
 20
60.0
 30
0.0
 11
146.0
 21
60.0
 31
0.0
  0
LINE
  5
2D3
330
20
100
AcDbEntity
  8
HILF
100
AcDbLine
 10
50.0
 20
50.0
 30
0.0
 11
146.0
 21
50.0
 31
0.0
  0
LINE
  5
2D4
330
20
100
AcDbEntity
  8
HILF
100
AcDbLine
 10
50.0
 20
40.0
 30
0.0
 11
146.0
 21
40.0
 31
0.0
  0
LINE
  5
2D5
330
20
100
AcDbEntity
  8
HILF
100
AcDbLine
 10
146.0
 20
70.00000000000011
 30
0.0
 11
229.9999999999998
 21
70.00000000000011
 31
0.0
  0
LINE
  5
2D6
330
20
100
AcDbEntity
  8
HILF
100
AcDbLine
 10
146.0
 20
60.0
 30
0.0
 11
229.9999999999998
 21
60.0
 31
0.0
  0
LINE
  5
2D7
330
20
100
AcDbEntity
  8
HILF
100
AcDbLine
 10
146.0
 20
50.0
 30
0.0
 11
229.9999999999998
 21
50.0
 31
0.0
  0
LINE
  5
2D8
330
20
100
AcDbEntity
  8
HILF
100
AcDbLine
 10
234.7736801096946
 20
84.03758247564145
 30
0.0
 11
326.629784251481
 21
84.03758247564145
 31
0.0
  0
LINE
  5
2D9
330
20
100
AcDbEntity
  8
HILF
100
AcDbLine
 10
234.7736801096946
 20
70.00000000000011
 30
0.0
 11
326.629784251481
 21
70.00000000000011
 31
0.0
  0
LINE
  5
2DA
330
20
100
AcDbEntity
  8
HILF
100
AcDbLine
 10
234.7736801096946
 20
60.0
 30
0.0
 11
326.629784251481
 21
60.0
 31
0.0
  0
LINE
  5
2DB
330
20
100
AcDbEntity
  8
HILF
100
AcDbLine
 10
234.7736801096946
 20
50.0
 30
0.0
 11
326.629784251481
 21
50.0
 31
0.0
  0
LINE
  5
2DC
330
20
100
AcDbEntity
  8
VOLL
100
AcDbLine
 10
332.0
 20
60.0
 30
0.0
 11
410.0
 21
60.0
 31
0.0
  0
LINE
  5
2DD
330
20
100
AcDbEntity
  8
HILF
100
AcDbLine
 10
336.7238616296993
 20
83.77983636955821
 30
0.0
 11
404.8588839326728
 21
83.77983636955821
 31
0.0
  0
LINE
  5
2DE
330
20
100
AcDbEntity
  8
HILF
100
AcDbLine
 10
234.7736801096946
 20
14.89398258028302
 30
0.0
 11
404.8588839326728
 21
14.89398258028302
 31
0.0
  0
TEXT
  5
2DF
330
20
100
AcDbEntity
  8
TEXT
100
AcDbText
 10
72.38806695827235
 20
18.4308491554824
 30
0.0
 40
4.0
  1
Änderung
 41
0.8
  7
GREEKS
 72
     1
 11
83.13092410112949
 21
18.4308491554824
 31
0.0
100
AcDbText
  0
TEXT
  5
2E0
330
20
100
AcDbEntity
  8
TEXT
100
AcDbText
 10
153.5163572150375
 20
102.4620895087088
 30
0.0
 40
5.0
  1
Maßstab
 41
0.8
  7
GREEKS
100
AcDbText
  0
TEXT
  5
2E1
330
20
100
AcDbEntity
  8
TEXT
100
AcDbText
 10
196.2938540966513
 20
102.4184168434818
 30
0.0
 40
5.0
  1
Zul.Abw.
 41
0.8
  7
GREEKS
100
AcDbText
  0
TEXT
  5
2E2
330
20
100
AcDbEntity
  8
TEXT
100
AcDbText
 10
234.8779403809008
 20
102.548932801178
 30
0.0
 40
5.0
  1
Benennung
 41
0.8
  7
GREEKS
100
AcDbText
  0
TEXT
  5
2E3
330
20
100
AcDbEntity
  8
TEXT
100
AcDbText
 10
336.178754957634
 20
102.3132034537135
 30
0.0
 40
5.0
  1
Zeichnungs Nr.
 41
0.8
  7
GREEKS
100
AcDbText
  0
TEXT
  5
2E4
330
20
100
AcDbEntity
  8
TEXT
100
AcDbText
 10
234.7422383911357
 20
30.8456057019306
 30
0.0
 40
5.0
  1
Bauvorhaben
 41
0.8
  7
GREEKS
100
AcDbText
  0
TEXT
  5
2E5
330
20
100
AcDbEntity
  8
TEXT
100
AcDbText
 10
336.7238616296993
 20
73.18118237099963
 30
0.0
 40
5.0
  1
Ersatz für:
 41
0.8
  7
GREEKS
100
AcDbText
  0
TEXT
  5
2E6
330
20
100
AcDbEntity
  8
TEXT
100
AcDbText
 10
58.26641107045748
 20
13.65465846027189
 30
0.0
 40
3.6
  1
Index
 50
90.0
  7
GREEKS
100
AcDbText
  0
TEXT
  5
2E7
330
20
100
AcDbEntity
  8
TEXT
100
AcDbText
 10
110.3582349400449
 20
18.67156269339807
 30
0.0
 40
4.0
  1
Tag
 41
0.8
  7
GREEKS
 72
     1
 11
114.0915682733782
 21
18.67156269339807
 31
0.0
100
AcDbText
  0
TEXT
  5
2E8
330
20
100
AcDbEntity
  8
TEXT
100
AcDbText
 10
128.9467207436519
 20
18.59324216966399
 30
0.0
 40
4.0
  1
Name
 41
0.8
  7
GREEKS
 72
     1
 11
135.2705302674614
 21
18.59324216966399
 31
0.0
100
AcDbText
  0
TEXT
  5
2E9
330
20
100
AcDbEntity
  8
TEXT
100
AcDbText
 10
172.3311673153648
 20
73.31880501229909
 30
0.0
 40
4.0
  1
Tag
 41
0.8
  7
GREEKS
100
AcDbText
  0
TEXT
  5
2EA
330
20
100
AcDbEntity
  8
TEXT
100
AcDbText
 10
202.4626584226294
 20
73.30961091915231
 30
0.0
 40
4.0
  1
Name
 41
0.8
  7
GREEKS
100
AcDbText
  0
TEXT
  5
2EB
330
20
100
AcDbEntity
  8
TEXT
100
AcDbText
 10
147.5836127167613
 20
63.62990369617967
 30
0.0
 40
4.0
  1
Gez.
 41
0.8
  7
GREEKS
100
AcDbText
  0
TEXT
  5
2EC
330
20
100
AcDbEntity
  8
TEXT
100
AcDbText
 10
147.551508657167
 20
53.68926291428374
 30
0.0
 40
4.0
  1
Gepr.
 41
0.8
  7
GREEKS
100
AcDbText
  0
TEXT
  5
2ED
330
20
100
AcDbEntity
  8
TEXT
100
AcDbText
 10
147.6006777387301
 20
43.52946389649798
 30
0.0
 40
4.0
  1
Norm.
 41
0.8
  7
GREEKS
100
AcDbText
  0
TEXT
  5
2EE
330
20
100
AcDbEntity
  8
TEXT
100
AcDbText
 10
202.116437877447
 20
63.50253258750888
 30
0.0
 40
4.0
  1
Koeh
 41
0.8
  7
GREEKS
100
AcDbText
  0
TEXT
  5
2EF
330
20
100
AcDbEntity
  8
TEXT
100
AcDbText
 10
337.2400861497006
 20
52.07416177878588
 30
0.0
 40
5.0
  1
ersetzt durch:
 41
0.8
  7
GREEKS
100
AcDbText
  0
LINE
  5
2F0
330
20
100
AcDbEntity
  8
HILF
100
AcDbLine
 10
0.0
 20
0.0
 30
0.0
 11
420.0
 21
0.0
 31
0.0
  0
LINE
  5
2F1
330
20
100
AcDbEntity
  8
HILF
100
AcDbLine
 10
420.0
 20
0.0
 30
0.0
 11
420.0
 21
594.0
 31
0.0
  0
LINE
  5
2F2
330
20
100
AcDbEntity
  8
HILF
100
AcDbLine
 10
420.0
 20
594.0
 30
0.0
 11
0.0
 21
594.0
 31
0.0
  0
LINE
  5
2F3
330
20
100
AcDbEntity
  8
STEMPEL
100
AcDbLine
 10
410.0
 20
584.0
 30
0.0
 11
50.00000000000108
 21
584.0
 31
0.0
  0
LINE
  5
2F4
330
20
100
AcDbEntity
  8
STEMPEL
100
AcDbLine
 10
49.99999999999983
 20
10.0
 30
0.0
 11
410.0
 21
10.0
 31
0.0
  0
LINE
  5
2F5
330
20
100
AcDbEntity
  8
STEMPEL
100
AcDbLine
 10
410.0
 20
10.0
 30
0.0
 11
410.0
 21
584.0
 31
0.0
  0
TEXT
  5
2F6
330
20
100
AcDbEntity
  8
TEXT
100
AcDbText
 10
150.9964098478522
 20
73.14583683904141
 30
0.0
 40
4.0
  1
2011
 41
0.8
  7
GREEKS
100
AcDbText
  0
TEXT
  5
2F7
330
20
100
AcDbEntity
  8
TEXT
100
AcDbText
 10
171.1988419719671
 20
63.40553235359505
 30
0.0
 40
4.0
  1
01.04.
 41
0.8
  7
GREEKS
100
AcDbText
  0
TEXT
  5
2F8
330
20
100
AcDbEntity
  8
TEXT
 62
     1
100
AcDbText
 10
158.8064310364448
 20
86.22410504373226
 30
0.0
 40
7.0
  1
1:2
  7
GREEKS
100
AcDbText
  0
TEXT
  5
2F9
330
20
100
AcDbEntity
  8
TEXT
100
AcDbText
 10
234.7852965544159
 20
73.05401048956594
 30
0.0
 40
5.0
  1
mit Maueranker und
 41
0.8
  7
GREEKS
100
AcDbText
  0
TEXT
  5
2FA
330
20
100
AcDbEntity
  8
TEXT
100
AcDbText
 10
416.413205537806
 20
10.5537806176784
 30
0.0
 40
4.0
  1
Diese Zeichnung ist urheberrechtlich geschützt und bleibt unser Eigentum. Sie darf weder ganz noch teilweise vervielfältigt und nicht an Dritte weitegegeben werden.
 50
90.0
 41
0.8
  7
GREEKS
100
AcDbText
  0
TEXT
  5
2FB
330
20
100
AcDbEntity
  8
TEXT
 62
     1
100
AcDbText
 10
344.7512342723046
 20
87.01863741763565
 30
0.0
 40
7.0
  1
00708050W
 41
0.8
  7
GREEKS
100
AcDbText
  0
TEXT
  5
2FC
330
20
100
AcDbEntity
  8
TEXT
100
AcDbText
 10
234.9713400534563
 20
42.19504573013534
 30
0.0
 40
3.6
  1
00708050W.DWG
 41
0.8
  7
GREEKS
100
AcDbText
  0
TEXT
  5
2FD
330
20
100
AcDbEntity
  8
TEXT
100
AcDbText
 10
52.19245317242576
 20
113.5954219225908
 30
0.0
 40
5.0
  1
Erstellt mit AUTOCAD 2004
 41
0.8
100
AcDbText
  0
INSERT
  5
2FE
330
20
100
AcDbEntity
  8
STEMPEL
100
AcDbBlockReference
  2
LOGO
 10
148.9705276546531
 20
44.32391971867139
 30
0.0
 41
2.0
 42
2.0
 43
2.0
  0
LINE
  5
2FF
102
{ACAD_REACTORS
330
589
102
}
330
20
100
AcDbEntity
  8
MITTEL
100
AcDbLine
 10
263.5149623857274
 20
240.6416511873666
 30
0.0
 11
263.5149623857274
 21
388.2130008003415
 31
0.0
  0
LINE
  5
300
102
{ACAD_REACTORS
330
6AA
102
}
330
20
100
AcDbEntity
  8
STEMPEL
100
AcDbLine
 10
289.4900304045718
 20
245.6416511873666
 30
0.0
 11
237.5398943668829
 21
245.6416511873666
 31
0.0
  0
ARC
  5
301
330
20
100
AcDbEntity
  8
MITTEL
100
AcDbCircle
 10
346.0149623857274
 20
355.6416511873667
 30
0.0
 40
82.5
100
AcDbArc
 50
139.0
 51
180.0
  0
LINE
  5
302
330
20
100
AcDbEntity
  8
STEMPEL
100
AcDbLine
 10
290.0149623857275
 20
251.6416511873661
 30
0.0
 11
290.0149623857274
 21
355.6416511873667
 31
0.0
  0
LINE
  5
303
330
20
100
AcDbEntity
  8
STEMPEL
100
AcDbLine
 10
237.0149623857274
 20
251.6416511873666
 30
0.0
 11
237.0149623857274
 21
360.6416511873665
 31
0.0
  0
ARC
  5
304
330
20
100
AcDbEntity
  8
STEMPEL
100
AcDbCircle
 10
346.0149623857274
 20
355.6416511873667
 30
0.0
 40
56.0
100
AcDbArc
 50
137.0000000000001
 51
180.0
  0
ARC
  5
305
330
20
100
AcDbEntity
  8
STEMPEL
100
AcDbCircle
 10
346.0149623857274
 20
355.6416511873667
 30
0.0
 40
109.0
100
AcDbArc
 50
137.0000000000001
 51
180.0
  0
LINE
  5
306
330
20
100
AcDbEntity
  8
STEMPEL
100
AcDbLine
 10
290.0149623857275
 20
251.6416511873661
 30
0.0
 11
289.4900304045718
 21
245.6416511873666
 31
0.0
  0
LINE
  5
307
330
20
100
AcDbEntity
  8
STEMPEL
100
AcDbLine
 10
237.0149623857274
 20
251.6416511873666
 30
0.0
 11
237.5398943668829
 21
245.6416511873666
 31
0.0
  0
LINE
  5
30B
330
20
100
AcDbEntity
  8
HILF
100
AcDbLine
 10
288.5149623857275
 20
251.8300551792338
 30
0.0
 11
238.5149623857274
 21
251.8300551792337
 31
0.0
  0
LINE
  5
30C
330
20
100
AcDbEntity
  8
STEMPEL
100
AcDbLine
 10
237.0149623857274
 20
330.6416511873666
 30
0.0
 11
196.0149623857274
 21
330.6416511873667
 31
0.0
  0
LINE
  5
30D
330
20
100
AcDbEntity
  8
VERDECKT
100
AcDbLine
 10
196.0149623857274
 20
330.6416511873667
 30
0.0
 11
196.0149623857274
 21
360.6416511873667
 31
0.0
  0
LINE
  5
30E
330
20
100
AcDbEntity
  8
STEMPEL
100
AcDbLine
 10
237.0149623857274
 20
360.6416511873665
 30
0.0
 11
196.0149623857274
 21
360.6416511873667
 31
0.0
  0
LINE
  5
30F
330
20
100
AcDbEntity
  8
MITTEL
100
AcDbLine
 10
211.0149623857274
 20
332.1416511873669
 30
0.0
 11
211.0149623857275
 21
359.1416511873664
 31
0.0
  0
LINE
  5
310
330
20
100
AcDbEntity
  8
MITTEL
100
AcDbLine
 10
224.5149623857272
 20
345.6416511873667
 30
0.0
 11
197.5149623857276
 21
345.6416511873667
 31
0.0
  0
POINT
  5
311
330
20
100
AcDbEntity
  8
DEFPOINTS
  6
ByBlock
 62
     0
100
AcDbPoint
 10
237.5398943668829
 20
245.6416511873666
 30
0.0
  0
ARC
  5
312
330
20
100
AcDbEntity
  8
SCHRAFF
100
AcDbCircle
 10
236.8313932046763
 20
331.385949795571
 30
0.0
 40
4.446698398319913
100
AcDbArc
 50
189.6356552176474
 51
272.3659641575383
  0
ARC
  5
313
330
20
100
AcDbEntity
  8
SCHRAFF
100
AcDbCircle
 10
236.9855510254732
 20
359.5745366969001
 30
0.0
 40
4.661897583266402
100
AcDbArc
 50
85.47684043304878
 51
166.7676037534325
  0
INSERT
  5
314
330
20
100
AcDbEntity
  8
SCHRAFF
100
AcDbBlockReference
  2
*X1
 10
105.5322334586239
 20
593.9151481598537
 30
0.0
 50
270.0
1001
ACAD
1000
HATCH
1002
{
1070
    16
1000
_U,I
1040
0.1
1040
2.356194490192344
1070
     0
1002
}
  0
ARC
  5
315
330
20
100
AcDbEntity
  8
SCHRAFF
100
AcDbCircle
 10
234.7304622148184
 20
337.2264093102905
 30
0.0
 40
2.990552061258513
100
AcDbArc
 50
217.4846016491008
 51
320.3113322141168
  0
ARC
  5
316
330
20
100
AcDbEntity
  8
SCHRAFF
100
AcDbCircle
 10
234.7157208100353
 20
334.106429206977
 30
0.0
 40
2.990552061258513
100
AcDbArc
 50
217.4846016491008
 51
320.3113322141168
  0
ARC
  5
317
330
20
100
AcDbEntity
  8
SCHRAFF
100
AcDbCircle
 10
234.7304622148184
 20
343.6801231877558
 30
0.0
 40
2.990552061258513
100
AcDbArc
 50
217.4846016491008
 51
320.3113322141168
  0
ARC
  5
318
330
20
100
AcDbEntity
  8
SCHRAFF
100
AcDbCircle
 10
234.7157208100353
 20
340.5601430844423
 30
0.0
 40
2.990552061258513
100
AcDbArc
 50
217.4846016491008
 51
320.3113322141168
  0
ARC
  5
319
330
20
100
AcDbEntity
  8
SCHRAFF
100
AcDbCircle
 10
234.7304622148184
 20
356.285293319751
 30
0.0
 40
2.990552061258513
100
AcDbArc
 50
217.4846016491008
 51
320.3113322141168
  0
ARC
  5
31A
330
20
100
AcDbEntity
  8
SCHRAFF
100
AcDbCircle
 10
234.7157208100353
 20
353.1653132164375
 30
0.0
 40
2.990552061258513
100
AcDbArc
 50
217.4846016491008
 51
320.3113322141168
  0
ARC
  5
31B
330
20
100
AcDbEntity
  8
SCHRAFF
100
AcDbCircle
 10
234.7304622148184
 20
349.8315794422859
 30
0.0
 40
2.990552061258513
100
AcDbArc
 50
217.4846016491008
 51
320.3113322141168
  0
ARC
  5
31C
330
20
100
AcDbEntity
  8
SCHRAFF
100
AcDbCircle
 10
234.7157208100353
 20
346.7115993389723
 30
0.0
 40
2.990552061258513
100
AcDbArc
 50
217.4846016491008
 51
320.3113322141168
  0
ARC
  5
31D
330
20
100
AcDbEntity
  8
SCHRAFF
100
AcDbCircle
 10
234.7304622148184
 20
362.1376945065187
 30
0.0
 40
2.990552061258513
100
AcDbArc
 50
217.4846016491008
 51
320.3113322141168
  0
ARC
  5
31E
330
20
100
AcDbEntity
  8
SCHRAFF
100
AcDbCircle
 10
234.7157208100353
 20
359.0177144032052
 30
0.0
 40
2.990552061258513
100
AcDbArc
 50
217.4846016491008
 51
320.3113322141168
  0
LINE
  5
31F
102
{ACAD_REACTORS
330
605
330
97C
102
}
330
20
100
AcDbEntity
  8
STEMPEL
100
AcDbLine
 10
361.8735464001126
 20
449.9945489276417
 30
0.0
 11
318.2848657836101
 21
490.6416511873666
 31
0.0
  0
LINE
  5
325
330
20
100
AcDbEntity
  8
STEMPEL
100
AcDbLine
 10
338.0036037979252
 20
424.3971693709707
 30
0.0
 11
361.8735464001126
 21
449.9945489276417
 31
0.0
  0
LINE
  5
326
330
20
100
AcDbEntity
  8
STEMPEL
100
AcDbLine
 10
294.4149231814226
 20
465.0442716306954
 30
0.0
 11
318.28486578361
 21
490.6416511873665
 31
0.0
  0
LINE
  5
328
330
20
100
AcDbEntity
  8
HILF
100
AcDbLine
 10
344.4085552061839
 20
433.4650576288753
 30
0.0
 11
360.7765158476839
 21
451.0175464677354
 31
0.0
  0
LINE
  5
329
330
20
100
AcDbEntity
  8
HILF
100
AcDbLine
 10
303.013935694539
 20
472.0661648084128
 30
0.0
 11
319.3818963360388
 21
489.6186536472728
 31
0.0
  0
POINT
  5
32A
330
20
100
AcDbEntity
  8
DEFPOINTS
  6
ByBlock
 62
     0
100
AcDbPoint
 10
289.4900304045719
 20
245.6416511873666
 30
0.0
  0
LINE
  5
32B
330
20
100
AcDbEntity
  8
STEMPEL
100
AcDbLine
 10
338.0036037979252
 20
424.3971693709707
 30
0.0
 11
294.4149231814226
 21
465.0442716306954
 31
0.0
  0
POINT
  5
32D
330
20
100
AcDbEntity
  8
DEFPOINTS
  6
ByBlock
 62
     0
100
AcDbPoint
 10
237.5398943668829
 20
245.6416511873666
 30
0.0
  0
POINT
  5
32E
330
20
100
AcDbEntity
  8
DEFPOINTS
  6
ByBlock
 62
     0
100
AcDbPoint
 10
318.2848657836101
 20
490.6416511873666
 30
0.0
  0
ARC
  5
332
330
20
100
AcDbEntity
  8
SCHRAFF
100
AcDbCircle
 10
296.0107195190709
 20
461.2750614118972
 30
0.0
 40
1.923278163642736
100
AcDbArc
 50
246.4516319206193
 51
17.16052130990793
  0
ARC
  5
333
330
20
100
AcDbEntity
  8
SCHRAFF
100
AcDbCircle
 10
297.9801783126768
 20
459.4385113753332
 30
0.0
 40
1.923278163642736
100
AcDbArc
 50
246.4516319206193
 51
17.16052130990793
  0
ARC
  5
334
330
20
100
AcDbEntity
  8
SCHRAFF
100
AcDbCircle
 10
300.1233972196542
 20
457.4399274116815
 30
0.0
 40
1.923278163642736
100
AcDbArc
 50
246.4516319206193
 51
17.16052130990793
  0
ARC
  5
335
330
20
100
AcDbEntity
  8
SCHRAFF
100
AcDbCircle
 10
302.0928560132601
 20
455.6033773751174
 30
0.0
 40
1.923278163642736
100
AcDbArc
 50
246.4516319206193
 51
17.16052130990793
  0
ARC
  5
336
330
20
100
AcDbEntity
  8
SCHRAFF
100
AcDbCircle
 10
303.8885148502358
 20
453.9288984200811
 30
0.0
 40
1.923278163642736
100
AcDbArc
 50
246.4516319206193
 51
17.16052130990793
  0
ARC
  5
337
330
20
100
AcDbEntity
  8
SCHRAFF
100
AcDbCircle
 10
305.8579736438418
 20
452.0923483835172
 30
0.0
 40
1.923278163642736
100
AcDbArc
 50
246.4516319206193
 51
17.16052130990793
  0
ARC
  5
338
330
20
100
AcDbEntity
  8
SCHRAFF
100
AcDbCircle
 10
308.001192550819
 20
450.0937644198653
 30
0.0
 40
1.923278163642736
100
AcDbArc
 50
246.4516319206193
 51
17.16052130990793
  0
ARC
  5
339
330
20
100
AcDbEntity
  8
SCHRAFF
100
AcDbCircle
 10
309.970651344425
 20
448.2572143833011
 30
0.0
 40
1.923278163642736
100
AcDbArc
 50
246.4516319206193
 51
17.16052130990793
  0
ARC
  5
33A
330
20
100
AcDbEntity
  8
SCHRAFF
100
AcDbCircle
 10
312.0559406206498
 20
446.3126506742604
 30
0.0
 40
1.923278163642736
100
AcDbArc
 50
246.4516319206193
 51
17.16052130990793
  0
POINT
  5
33B
330
20
100
AcDbEntity
  8
DEFPOINTS
  6
ByBlock
 62
     0
100
AcDbPoint
 10
318.2848657836101
 20
490.6416511873666
 30
0.0
  0
POINT
  5
33C
330
20
100
AcDbEntity
  8
DEFPOINTS
  6
ByBlock
 62
     0
100
AcDbPoint
 10
237.5398943668829
 20
245.6416511873666
 30
0.0
  0
TEXT
  5
33E
330
20
100
AcDbEntity
  8
TEXT
100
AcDbText
 10
234.8863039776645
 20
52.27618688204677
 30
0.0
 40
5.0
  1
EDV-Art.Nr. 00708.050X
 41
0.8
  7
GREEKS
100
AcDbText
  0
TEXT
  5
33F
330
20
100
AcDbEntity
  8
TEXT
 62
     1
100
AcDbText
 10
221.8494423482264
 20
119.7998937872572
 30
0.0
 40
7.0
  1
Werkstoff: E195 EN10305 feuerverzinkt
 41
0.8
  7
GREEKS
100
AcDbText
  0
POINT
  5
341
330
20
100
AcDbEntity
  8
DEFPOINTS
  6
ByBlock
 62
     0
100
AcDbPoint
 10
237.5398943668829
 20
245.6416511873666
 30
0.0
  0
POINT
  5
342
330
20
100
AcDbEntity
  8
DEFPOINTS
  6
ByBlock
 62
     0
100
AcDbPoint
 10
318.2848657836101
 20
490.6416511873666
 30
0.0
  0
LINE
  5
344
330
20
100
AcDbEntity
  8
STEMPEL
100
AcDbLine
 10
345.5055857586128
 20
432.4420600887819
 30
0.0
 11
301.9169051421101
 21
473.0891623485064
 31
0.0
  0
TEXT
  5
345
330
20
100
AcDbEntity
  8
VOLL
100
AcDbText
 10
590.3629527133906
 20
36.02521144238166
 30
0.0
 40
1.8
  1

  7
GREEKS
100
AcDbText
  0
LINE
  5
346
102
{ACAD_REACTORS
330
6AA
102
}
330
20
100
AcDbEntity
  8
STEMPEL
100
AcDbLine
 10
66.85660451014957
 20
330.6416511873667
 30
0.0
 11
227.0149623857274
 21
330.6416511873667
 31
0.0
  0
LINE
  5
347
330
20
100
AcDbEntity
  8
STEMPEL
100
AcDbLine
 10
227.0149623857274
 20
330.6416511873667
 30
0.0
 11
227.0149623857274
 21
360.6416511873667
 31
0.0
  0
LINE
  5
348
330
20
100
AcDbEntity
  8
STEMPEL
100
AcDbLine
 10
227.0149623857274
 20
360.6416511873667
 30
0.0
 11
66.85660451014957
 21
360.6416511873667
 31
0.0
  0
LINE
  5
349
330
20
100
AcDbEntity
  8
STEMPEL
100
AcDbLine
 10
117.0149623857274
 20
345.6416511873667
 30
0.0
 11
66.85660451014957
 21
345.6416511873667
 31
0.0
  0
LINE
  5
34A
330
20
100
AcDbEntity
  8
HILF
100
AcDbLine
 10
117.0149623857274
 20
331.1416511873667
 30
0.0
 11
117.0149623857274
 21
345.1416511873667
 31
0.0
  0
LINE
  5
34B
330
20
100
AcDbEntity
  8
STEMPEL
100
AcDbLine
 10
66.85660451014957
 20
360.6416511873667
 30
0.0
 11
66.85660451014957
 21
330.6416511873667
 31
0.0
  0
LINE
  5
34C
330
20
100
AcDbEntity
  8
STEMPEL
100
AcDbLine
 10
67.20522748114018
 20
360.6416511873667
 30
0.0
 11
67.20522748114018
 21
345.6416511873667
 31
0.0
  0
LINE
  5
34D
330
20
100
AcDbEntity
  8
VERDECKT
100
AcDbLine
 10
67.20522748114018
 20
345.6416511873667
 30
0.0
 11
67.20522748114018
 21
330.6416511873667
 31
0.0
  0
LINE
  5
34E
330
20
100
AcDbEntity
  8
HILF
100
AcDbLine
 10
117.0149623857274
 20
346.1416511873667
 30
0.0
 11
117.0149623857274
 21
360.1416511873667
 31
0.0
  0
CIRCLE
  5
34F
330
20
100
AcDbEntity
  8
STEMPEL
100
AcDbCircle
 10
211.0149623857274
 20
345.6416511873667
 30
0.0
 40
8.5
  0
LINE
  5
350
330
20
100
AcDbEntity
  8
STEMPEL
100
AcDbLine
 10
215.9224396738393
 20
354.1416511873667
 30
0.0
 11
206.1074850976155
 21
354.1416511873667
 31
0.0
  0
LINE
  5
351
330
20
100
AcDbEntity
  8
STEMPEL
100
AcDbLine
 10
220.829916961951
 20
345.6416511873667
 30
0.0
 11
215.9224396738393
 21
337.1416511873667
 31
0.0
  0
LINE
  5
352
330
20
100
AcDbEntity
  8
STEMPEL
100
AcDbLine
 10
206.1074850976155
 20
354.1416511873667
 30
0.0
 11
201.2000078095038
 21
345.6416511873668
 31
0.0
  0
LINE
  5
353
330
20
100
AcDbEntity
  8
STEMPEL
100
AcDbLine
 10
215.9224396738393
 20
337.1416511873667
 30
0.0
 11
206.1074850976155
 21
337.1416511873667
 31
0.0
  0
LINE
  5
354
330
20
100
AcDbEntity
  8
STEMPEL
100
AcDbLine
 10
201.2000078095038
 20
345.6416511873668
 30
0.0
 11
206.1074850976155
 21
337.1416511873667
 31
0.0
  0
LINE
  5
355
330
20
100
AcDbEntity
  8
STEMPEL
100
AcDbLine
 10
215.9224396738393
 20
354.1416511873667
 30
0.0
 11
220.829916961951
 21
345.6416511873667
 31
0.0
  0
LINE
  5
356
330
20
100
AcDbEntity
  8
HILF
100
AcDbLine
 10
0.0
 20
0.0
 30
0.0
 11
0.0
 21
594.0
 31
0.0
  0
DIMENSION
  5
358
330
20
100
AcDbEntity
  8
BEM
100
AcDbDimension
  2
*D3
 10
237.0149623857274
 20
295.2483406403227
 30
0.0
 11
151.9357834479385
 21
301.1483406403227
 31
0.0
 70
    32
  1
170
 71
     5
 42
170.1583578755778
  3
Standard
100
AcDbAlignedDimension
 13
66.85660451014957
 23
330.6416511873667
 33
0.0
 14
237.0149623857274
 24
295.2483406403227
 34
0.0
100
AcDbRotatedDimension
1001
ACAD
1000
DSTYLE
1002
{
1070
    40
1040
2.0
1070
    41
1040
3.5
1070
    42
1040
1.0
1070
    43
1040
7.0
1070
    44
1040
1.0
1070
    47
1040
2.0
1070
    48
1040
2.0
1070
    73
1070
     0
1070
    74
1070
     0
1070
    77
1070
     1
1070
    78
1070
     8
1070
    79
1070
     2
1070
   140
1040
3.5
1070
   141
1040
1.5
1070
   145
1040
0.2857142857142857
1070
   146
1040
0.5
1070
   147
1040
1.199999999999999
1070
   172
1070
     1
1070
   178
1070
     1
1070
   179
1070
     2
1070
   271
1070
     2
1070
   272
1070
     2
1070
   284
1070
     8
1070
   285
1070
     8
1070
   286
1070
     8
1002
}
  0
POINT
  5
364
330
20
100
AcDbEntity
  8
DEFPOINTS
  6
ByBlock
 62
     0
100
AcDbPoint
 10
318.2848657836101
 20
490.6416511873666
 30
0.0
  0
POINT
  5
365
330
20
100
AcDbEntity
  8
DEFPOINTS
  6
ByBlock
 62
     0
100
AcDbPoint
 10
289.4900304045719
 20
245.6416511873666
 30
0.0
  0
DIMENSION
  5
369
330
20
100
AcDbEntity
  8
BEM
100
AcDbDimension
  2
*D2
 10
290.0149623857274
 20
226.9802665369844
 30
0.0
 11
263.5149623857274
 21
232.8802665369844
 31
0.0
 70
    32
  1
%%C<>
 71
     5
 42
53.0
  3
Standard
100
AcDbAlignedDimension
 13
237.0149623857274
 23
251.6416511873666
 33
0.0
 14
290.0149623857274
 24
251.6416511873666
 34
0.0
100
AcDbRotatedDimension
1001
ACAD
1000
DSTYLE
1002
{
1070
    40
1040
2.0
1070
    41
1040
3.5
1070
    42
1040
1.0
1070
    43
1040
7.0
1070
    44
1040
1.0
1070
    47
1040
2.0
1070
    48
1040
2.0
1070
    73
1070
     0
1070
    74
1070
     0
1070
    77
1070
     1
1070
    78
1070
     8
1070
    79
1070
     2
1070
   140
1040
3.5
1070
   141
1040
1.5
1070
   145
1040
0.2857142857142857
1070
   146
1040
0.5
1070
   147
1040
1.199999999999999
1070
   172
1070
     1
1070
   178
1070
     1
1070
   179
1070
     2
1070
   271
1070
     2
1070
   272
1070
     2
1070
   284
1070
     8
1070
   285
1070
     8
1070
   286
1070
     8
1002
}
  0
TEXT
  5
36A
330
20
100
AcDbEntity
  8
TEXT
100
AcDbText
 10
234.7852965544159
 20
61.92008541490736
 30
0.0
 40
5.0
  1
Gewinde R2
 41
0.8
  7
GREEKS
100
AcDbText
  0
TEXT
  5
37C
330
20
100
AcDbEntity
  8
TEXT
100
AcDbText
 10
193.0226317519589
 20
88.76713879442547
 30
0.0
 40
4.0
  1
DIN EN1123-2
 41
0.8
  7
GREEKS
100
AcDbText
  0
LINE
  5
4C5
102
{ACAD_REACTORS
330
589
330
97C
102
}
330
20
100
AcDbEntity
  8
MITTEL
100
AcDbLine
 10
263.5149623857274
 20
388.2130008003415
 30
0.0
 11
343.489197892174
 21
473.9748685656
 31
0.0
  0
LINE
  5
4C8
330
20
100
AcDbEntity
  8
STEMPEL
100
AcDbLine
 10
266.2606310297001
 20
430.0137683616838
 30
0.0
 11
289.2901124965192
 21
454.709863694794
 31
0.0
  0
LINE
  5
4C9
330
20
100
AcDbEntity
  8
STEMPEL
100
AcDbLine
 10
305.0223772155161
 20
393.8678552783716
 30
0.0
 11
328.0518586823351
 21
418.5639506114817
 31
0.0
  0
DIMENSION
  5
503
330
20
100
AcDbEntity
  8
BEM
100
AcDbDimension
  2
*D4
 10
391.1620074719094
 20
245.6416511873666
 30
0.0
 11
385.2620074719094
 21
368.1416511873666
 31
0.0
 70
    32
 71
     5
 42
244.9999999999999
  3
Standard
100
AcDbAlignedDimension
 13
362.0309376528817
 23
490.6416511873665
 33
0.0
 14
289.4900304045718
 24
245.6416511873666
 34
0.0
 50
90.0
100
AcDbRotatedDimension
1001
ACAD
1000
DSTYLE
1002
{
1070
    40
1040
2.0
1070
    41
1040
3.5
1070
    42
1040
1.0
1070
    43
1040
7.0
1070
    44
1040
1.0
1070
    47
1040
2.0
1070
    48
1040
2.0
1070
    73
1070
     0
1070
    74
1070
     0
1070
    77
1070
     1
1070
    78
1070
     8
1070
    79
1070
     2
1070
   140
1040
3.5
1070
   141
1040
1.5
1070
   145
1040
0.2857142857142857
1070
   146
1040
0.5
1070
   147
1040
1.199999999999999
1070
   172
1070
     1
1070
   178
1070
     1
1070
   179
1070
     2
1070
   271
1070
     2
1070
   272
1070
     2
1070
   284
1070
     8
1070
   285
1070
     8
1070
   286
1070
     8
1002
}
  0
LINE
  5
546
330
20
100
AcDbEntity
  8
STEMPEL
100
AcDbLine
 10
329.6633341814228
 20
419.8923485002332
 30
0.0
 11
337.2089422161239
 21
424.6073677026386
 31
0.0
  0
ARC
  5
54A
330
20
100
AcDbEntity
  8
SCHRAFF
100
AcDbCircle
 10
336.4140633197739
 20
425.879439846873
 30
0.0
 40
3.380787871863307
100
AcDbArc
 50
238.3391440619456
 51
6.993500045226755
  0
DIMENSION
  5
570
102
{ACAD_XDICTIONARY
360
57E
102
}
102
{ACAD_REACTORS
330
589
102
}
330
20
100
AcDbEntity
  8
BEM
100
AcDbDimension
  2
*D5
 10
263.5149623857274
 20
388.2130008003415
 30
0.0
 11
275.2200206455564
 21
417.9280223202844
 31
0.0
 70
    34
 71
     5
 42
0.750491578357559
  3
Standard
100
AcDb2LineAngularDimension
 13
263.5149623857274
 23
388.2130008003415
 33
0.0
 14
343.489197892174
 24
473.9748685656
 34
0.0
 15
263.5149623857274
 25
240.6416511873666
 35
0.0
 16
276.0053948382175
 26
411.0587858383959
 36
0.0
1001
ACAD
1000
DSTYLE
1002
{
1070
    40
1040
2.0
1070
    41
1040
3.5
1070
    42
1040
1.0
1070
    43
1040
7.0
1070
    44
1040
1.0
1070
    47
1040
2.0
1070
    48
1040
2.0
1070
    73
1070
     0
1070
    74
1070
     0
1070
    77
1070
     1
1070
    78
1070
     8
1070
    79
1070
     2
1070
   140
1040
3.5
1070
   141
1040
1.5
1070
   145
1040
0.2857142857142857
1070
   146
1040
0.5
1070
   147
1040
1.199999999999999
1070
   172
1070
     1
1070
   178
1070
     1
1070
   179
1070
     2
1070
   271
1070
     2
1070
   272
1070
     2
1070
   284
1070
     8
1070
   285
1070
     8
1070
   286
1070
     8
1002
}
  0
DIMENSION
  5
5AA
330
20
100
AcDbEntity
  8
BEM
100
AcDbDimension
  2
*D6
 10
375.1157026825658
 20
245.6416511873666
 30
0.0
 11
369.2157026825658
 21
316.9273259938541
 31
0.0
 70
    32
  1
142
 71
     5
 42
142.5713496129748
  3
Standard
100
AcDbAlignedDimension
 13
263.5149623857274
 23
388.2130008003415
 33
0.0
 14
287.9843006482569
 24
245.6416511873666
 34
0.0
 50
90.0
100
AcDbRotatedDimension
1001
ACAD
1000
DSTYLE
1002
{
1070
    40
1040
2.0
1070
    41
1040
3.5
1070
    42
1040
1.0
1070
    43
1040
7.0
1070
    44
1040
1.0
1070
    47
1040
2.0
1070
    48
1040
2.0
1070
    73
1070
     0
1070
    74
1070
     0
1070
    77
1070
     1
1070
    78
1070
     8
1070
    79
1070
     2
1070
   140
1040
3.5
1070
   141
1040
1.5
1070
   145
1040
0.2857142857142857
1070
   146
1040
0.5
1070
   147
1040
1.199999999999999
1070
   172
1070
     1
1070
   178
1070
     1
1070
   179
1070
     2
1070
   271
1070
     2
1070
   272
1070
     2
1070
   284
1070
     8
1070
   285
1070
     8
1070
   286
1070
     8
1002
}
  0
DIMENSION
  5
5EE
102
{ACAD_XDICTIONARY
360
5FB
102
}
102
{ACAD_REACTORS
330
605
102
}
330
20
100
AcDbEntity
  8
BEM
100
AcDbDimension
  2
*D7
 10
331.0120825996718
 20
504.289920266611
 30
0.0
 11
356.8302132322918
 21
488.2813559763018
 31
0.0
 70
    33
  1
R2
 71
     5
 42
59.59999999999985
  3
Standard
100
AcDbAlignedDimension
 13
361.8735464001127
 23
449.9945489276419
 33
0.0
 14
318.2848657836101
 24
490.6416511873666
 34
0.0
1001
ACAD
1000
DSTYLE
1002
{
1070
    40
1040
2.0
1070
    41
1040
3.5
1070
    42
1040
1.0
1070
    43
1040
7.0
1070
    44
1040
1.0
1070
    47
1040
2.0
1070
    48
1040
2.0
1070
    73
1070
     0
1070
    74
1070
     0
1070
    77
1070
     1
1070
    78
1070
     8
1070
    79
1070
     2
1070
   140
1040
3.5
1070
   141
1040
1.5
1070
   145
1040
0.2857142857142857
1070
   146
1040
0.5
1070
   147
1040
1.199999999999999
1070
   172
1070
     1
1070
   178
1070
     1
1070
   179
1070
     2
1070
   271
1070
     2
1070
   272
1070
     2
1070
   284
1070
     8
1070
   285
1070
     8
1070
   286
1070
     8
1002
}
  0
LINE
  5
619
330
20
100
AcDbEntity
  8
BEM
100
AcDbLine
 10
343.3480541944136
 20
490.6416511873665
 30
0.0
 11
318.2848657836101
 21
490.6416511873666
 31
0.0
  0
DIMENSION
  5
693
102
{ACAD_XDICTIONARY
360
6A0
102
}
102
{ACAD_REACTORS
330
6AA
102
}
330
20
100
AcDbEntity
  8
BEM
100
AcDbDimension
  2
*D8
 10
358.0486008908287
 20
330.6416511873667
 30
0.0
 11
352.1486008908287
 21
288.1416511873667
 31
0.0
 70
    32
 71
     5
 42
85.00000000000012
  3
Standard
100
AcDbAlignedDimension
 13
289.4900304045718
 23
245.6416511873666
 33
0.0
 14
227.0149623857274
 24
330.6416511873667
 34
0.0
 50
270.0
100
AcDbRotatedDimension
1001
ACAD
1000
DSTYLE
1002
{
1070
    40
1040
2.0
1070
    41
1040
3.5
1070
    42
1040
1.0
1070
    43
1040
7.0
1070
    44
1040
1.0
1070
    47
1040
2.0
1070
    48
1040
2.0
1070
    73
1070
     0
1070
    74
1070
     0
1070
    77
1070
     1
1070
    78
1070
     8
1070
    79
1070
     2
1070
   140
1040
3.5
1070
   141
1040
1.5
1070
   145
1040
0.2857142857142857
1070
   146
1040
0.5
1070
   147
1040
1.199999999999999
1070
   172
1070
     1
1070
   178
1070
     1
1070
   179
1070
     2
1070
   271
1070
     2
1070
   272
1070
     2
1070
   284
1070
     8
1070
   285
1070
     8
1070
   286
1070
     8
1002
}
  0
TEXT
  5
839
330
20
100
AcDbEntity
  8
TEXT
 62
     1
100
AcDbText
 10
286.2995651297349
 20
207.1752656820184
 30
0.0
 40
7.0
  1
Rohrende leicht eingezogen
 41
0.8
  7
GREEKS
100
AcDbText
  0
LINE
  5
845
330
20
100
AcDbEntity
  8
BEM
100
AcDbLine
 10
320.8500926315271
 20
363.2014570621799
 30
0.0
 11
273.7072641167599
 21
377.363685416323
 31
0.0
  0
MTEXT
  5
846
330
20
100
AcDbEntity
  8
BEM
 62
     1
100
AcDbMText
 10
309.9150925379177
 20
372.3496687174156
 30
0.0
 40
7.0
 41
0.0
 71
     5
 72
     1
  1
\A1;R82.5
 11
0.957717857867119
 21
-0.287709062635185
 31
0.0
 73
     1
 44
1.0
  0
SOLID
  5
847
330
20
100
AcDbEntity
  8
BEM
100
AcDbTrace
 10
274.0429246898343
 20
378.4810229171681
 30
0.0
 11
273.3716035436855
 21
376.2463479154781
 31
0.0
 12
267.0032391116901
 22
379.3776488547694
 32
0.0
 13
267.0032391116901
 23
379.3776488547694
 33
0.0
  0
LINE
  5
906
330
20
100
AcDbEntity
  8
STEMPEL
100
AcDbLine
 10
336.414063319774
 20
425.8794398468731
 30
0.0
 11
337.2089422161239
 21
424.6073677026386
 31
0.0
  0
ARC
  5
907
330
20
100
AcDbEntity
  8
STEMPEL
100
AcDbCircle
 10
333.9026882952885
 20
413.1079637309817
 30
0.0
 40
8.0
100
AcDbArc
 50
122.0000000000001
 51
137.0
  0
ARC
  5
90C
330
20
100
AcDbEntity
  8
STEMPEL
100
AcDbCircle
 10
283.4392828835659
 20
460.1658505752939
 30
0.0
 40
8.0
100
AcDbArc
 50
317.0000000000002
 51
332.0000000000001
  0
LINE
  5
90D
330
20
100
AcDbEntity
  8
STEMPEL
100
AcDbLine
 10
296.0044636595738
 20
463.562001154793
 30
0.0
 11
294.6800422702855
 21
464.2662084989718
 31
0.0
  0
ARC
  5
90E
330
20
100
AcDbEntity
  8
SCHRAFF
100
AcDbCircle
 10
296.0044636595737
 20
463.5620011547929
 30
0.0
 40
3.380787871863307
100
AcDbArc
 50
87.00649995477352
 51
215.6608559380547
  0
LINE
  5
910
330
20
100
AcDbEntity
  8
STEMPEL
100
AcDbLine
 10
290.5028636264372
 20
456.4100780730067
 30
0.0
 11
294.6800422702855
 21
464.2662084989718
 31
0.0
  0
LINE
  5
911
330
20
100
AcDbEntity
  8
HILF
100
AcDbLine
 10
327.8599452026498
 20
420.4383972731652
 30
0.0
 11
291.1733803079509
 21
454.64917249604
 31
0.0
  0
HATCH
  5
94C
330
20
100
AcDbEntity
  8
SCHRAFF
100
AcDbHatch
 10
0.0
 20
0.0
 30
0.0
210
0.0
220
0.0
230
1.0
  2
_USER
 70
     0
 71
     0
 91
        2
 92
        7
 72
     1
 73
     1
 93
        5
 10
336.4140633197735
 20
425.8794398468737
 42
0.0
 10
337.208942216124
 20
424.6073677026386
 42
0.0
 10
334.639520693044
 20
423.0018149407298
 42
0.6288464581161361
 10
339.76969803114
 20
426.2910735656253
 42
0.0
 10
338.0036037979252
 20
424.3971693709708
 42
0.0
 97
        0
 92
        7
 72
     1
 73
     1
 93
        5
 10
294.4149231814226
 20
465.0442716306953
 42
0.0
 10
296.1810174146374
 20
466.9381758253499
 42
0.6288464581161236
 10
293.2576343392223
 20
461.5910482585026
 42
0.0
 10
294.6800422702855
 20
464.2662084989718
 42
0.0
 10
296.0044636595739
 20
463.5620011547931
 42
0.0
 97
        0
 75
     0
 76
     0
 52
0.0
 41
0.1
 77
     0
 78
     1
 53
0.0
 43
0.0
 44
-52.36130453997998
 45
0.0
 46
0.1
 79
     0
 47
0.0946759511069955
 98
        2
 10
337.4957332096274
 20
424.3192597040276
 10
294.2028233660062
 20
465.1245943402125
  0
DIMENSION
  5
965
102
{ACAD_XDICTIONARY
360
972
102
}
102
{ACAD_REACTORS
330
97C
102
}
330
20
100
AcDbEntity
  8
BEM
100
AcDbDimension
  2
*D9
 10
231.4881990474609
 20
418.0784407734354
 30
0.0
 11
265.4553340609747
 21
463.1547807263856
 31
0.0
 70
    32
  1
112
 71
     5
 42
112.2645569105442
 51
312.9999999999999
  3
Standard
100
AcDbAlignedDimension
 13
318.2848657836101
 23
490.6416511873666
 33
0.0
 14
263.5149623857275
 24
388.2130008003415
 34
0.0
 50
47.00000000000005
100
AcDbRotatedDimension
1001
ACAD
1000
DSTYLE
1002
{
1070
    40
1040
2.0
1070
    41
1040
3.5
1070
    42
1040
1.0
1070
    43
1040
7.0
1070
    44
1040
1.0
1070
    47
1040
2.0
1070
    48
1040
2.0
1070
    73
1070
     0
1070
    74
1070
     0
1070
    77
1070
     1
1070
    78
1070
     8
1070
    79
1070
     2
1070
   140
1040
3.5
1070
   141
1040
1.5
1070
   145
1040
0.2857142857142857
1070
   146
1040
0.5
1070
   147
1040
1.199999999999999
1070
   172
1070
     1
1070
   178
1070
     1
1070
   179
1070
     2
1070
   271
1070
     2
1070
   272
1070
     2
1070
   284
1070
     8
1070
   285
1070
     8
1070
   286
1070
     8
1002
}
  0
LINE
  5
ADA
330
20
100
AcDbEntity
  8
HILF
100
AcDbLine
 10
0.0
 20
297.0
 30
0.0
 11
40.00000000000045
 21
297.0
 31
0.0
  0
ARC
  5
AF3
330
20
100
AcDbEntity
  8
SCHRAFF
100
AcDbCircle
 10
326.1317029286228
 20
433.1867899731877
 30
0.0
 40
1.923278163642736
100
AcDbArc
 50
246.4516319206193
 51
17.16052130990793
  0
ARC
  5
AF4
330
20
100
AcDbEntity
  8
SCHRAFF
100
AcDbCircle
 10
324.046413652398
 20
435.1313536822284
 30
0.0
 40
1.923278163642736
100
AcDbArc
 50
246.4516319206193
 51
17.16052130990793
  0
ARC
  5
AF5
330
20
100
AcDbEntity
  8
SCHRAFF
100
AcDbCircle
 10
322.076954858792
 20
436.9679037187926
 30
0.0
 40
1.923278163642736
100
AcDbArc
 50
246.4516319206193
 51
17.16052130990793
  0
ARC
  5
AF6
330
20
100
AcDbEntity
  8
SCHRAFF
100
AcDbCircle
 10
319.9337359518148
 20
438.9664876824444
 30
0.0
 40
1.923278163642736
100
AcDbArc
 50
246.4516319206193
 51
17.16052130990793
  0
ARC
  5
AF7
330
20
100
AcDbEntity
  8
SCHRAFF
100
AcDbCircle
 10
317.9642771582088
 20
440.8030377190083
 30
0.0
 40
1.923278163642736
100
AcDbArc
 50
246.4516319206193
 51
17.16052130990793
  0
ARC
  5
AF8
330
20
100
AcDbEntity
  8
SCHRAFF
100
AcDbCircle
 10
316.1686183212331
 20
442.4775166740446
 30
0.0
 40
1.923278163642736
100
AcDbArc
 50
246.4516319206193
 51
17.16052130990793
  0
ARC
  5
AF9
330
20
100
AcDbEntity
  8
SCHRAFF
100
AcDbCircle
 10
314.1991595276272
 20
444.3140667106087
 30
0.0
 40
1.923278163642736
100
AcDbArc
 50
246.4516319206193
 51
17.16052130990793
  0
ARC
  5
AFA
330
20
100
AcDbEntity
  8
SCHRAFF
100
AcDbCircle
 10
330.244380629206
 20
429.3516559729718
 30
0.0
 40
1.923278163642736
100
AcDbArc
 50
246.4516319206193
 51
17.16052130990793
  0
ARC
  5
AFB
330
20
100
AcDbEntity
  8
SCHRAFF
100
AcDbCircle
 10
332.3296699054308
 20
427.4070922639311
 30
0.0
 40
1.923278163642736
100
AcDbArc
 50
246.4516319206193
 51
17.16052130990793
  0
ARC
  5
AFC
330
20
100
AcDbEntity
  8
SCHRAFF
100
AcDbCircle
 10
328.2749218356
 20
431.188206009536
 30
0.0
 40
1.923278163642736
100
AcDbArc
 50
246.4516319206193
 51
17.16052130990793
  0
ENDSEC
  0
SECTION
  2
OBJECTS
  0
DICTIONARY
  5
C
330
0
100
AcDbDictionary
281
     1
  3
ACAD_COLOR
350
1B
  3
ACAD_GROUP
350
D
  3
ACAD_LAYOUT
350
19
  3
ACAD_MATERIAL
350
1A
  3
ACAD_MLINESTYLE
350
16
  3
ACAD_PLOTSETTINGS
350
18
  3
ACAD_PLOTSTYLENAME
350
E
  3
AcDbVariableDictionary
350
855
  0
DICTIONARY
  5
57E
330
570
100
AcDbDictionary
280
     1
281
     1
  3
ACAD_DIMASSOC
360
589
  0
DICTIONARY
  5
5FB
330
5EE
100
AcDbDictionary
280
     1
281
     1
  3
ACAD_DIMASSOC
360
605
  0
DICTIONARY
  5
6A0
330
693
100
AcDbDictionary
280
     1
281
     1
  3
ACAD_DIMASSOC
360
6AA
  0
DICTIONARY
  5
972
330
965
100
AcDbDictionary
280
     1
281
     1
  3
ACAD_DIMASSOC
360
97C
  0
DICTIONARY
  5
1B
102
{ACAD_REACTORS
330
C
102
}
330
C
100
AcDbDictionary
281
     1
  0
DICTIONARY
  5
D
102
{ACAD_REACTORS
330
C
102
}
330
C
100
AcDbDictionary
281
     1
  0
DICTIONARY
  5
19
102
{ACAD_REACTORS
330
C
102
}
330
C
100
AcDbDictionary
281
     1
  3
Layout1
350
1F
  3
Model
350
23
  0
DICTIONARY
  5
1A
102
{ACAD_REACTORS
330
C
102
}
330
C
100
AcDbDictionary
281
     1
  0
DICTIONARY
  5
16
102
{ACAD_REACTORS
330
C
102
}
330
C
100
AcDbDictionary
281
     1
  3
Standard
350
17
  0
DICTIONARY
  5
18
102
{ACAD_REACTORS
330
C
102
}
330
C
100
AcDbDictionary
281
     1
  0
ACDBDICTIONARYWDFLT
  5
E
102
{ACAD_REACTORS
330
C
102
}
330
C
100
AcDbDictionary
281
     1
  3
Normal
350
F
100
AcDbDictionaryWithDefault
340
F
  0
DICTIONARY
  5
855
102
{ACAD_REACTORS
330
C
102
}
330
C
100
AcDbDictionary
281
     1
  3
DIMASSOC
350
857
  3
HIDETEXT
350
856
  3
PROJECTNAME
350
858
  0
DIMASSOC
  5
589
102
{ACAD_REACTORS
330
57E
102
}
330
57E
100
AcDbDimAssoc
330
570
 90
       15
 70
     0
 71
     0
  1
AcDbOsnapPointRef
 72
    13
331
4C5
 73
     2
 91
        0
 40
0.0
 10
0.0
 20
0.0
 30
2.000000000000000E+50
 75
     0
  1
AcDbOsnapPointRef
 72
     1
331
4C5
 73
     2
 91
        0
 40
0.9999999999999998
 10
0.0
 20
0.0
 30
2.000000000000000E+50
 75
     0
  1
AcDbOsnapPointRef
 72
    13
331
2FF
 73
     2
 91
        0
 40
0.0
 10
0.0
 20
0.0
 30
2.000000000000000E+50
 75
     0
  1
AcDbOsnapPointRef
 72
     1
331
2FF
 73
     2
 91
        0
 40
0.9999999999999998
 10
0.0
 20
0.0
 30
2.000000000000000E+50
 75
     0
  0
DIMASSOC
  5
605
102
{ACAD_REACTORS
330
5FB
102
}
330
5FB
100
AcDbDimAssoc
330
5EE
 90
        2
 70
     0
 71
     0
  1
AcDbOsnapPointRef
 72
     1
331
31F
 73
     2
 91
        0
 40
1.0
 10
0.0
 20
0.0
 30
2.000000000000000E+50
 75
     0
  0
DIMASSOC
  5
6AA
102
{ACAD_REACTORS
330
6A0
102
}
330
6A0
100
AcDbDimAssoc
330
693
 90
        3
 70
     0
 71
     0
  1
AcDbOsnapPointRef
 72
    13
331
300
 73
     2
 91
        0
 40
0.0
 10
0.0
 20
0.0
 30
2.000000000000000E+50
 75
     0
  1
AcDbOsnapPointRef
 72
     1
331
346
 73
     2
 91
        0
 40
1.0
 10
0.0
 20
0.0
 30
2.000000000000000E+50
 75
     0
  0
DIMASSOC
  5
97C
102
{ACAD_REACTORS
330
972
102
}
330
972
100
AcDbDimAssoc
330
965
 90
        3
 70
     0
 71
     0
  1
AcDbOsnapPointRef
 72
     1
331
31F
 73
     2
 91
        0
 40
1.0
 10
0.0
 20
0.0
 30
2.000000000000000E+50
 75
     0
  1
AcDbOsnapPointRef
 72
    13
331
4C5
 73
     2
 91
        0
 40
0.0
 10
0.0
 20
0.0
 30
2.000000000000000E+50
 75
     0
  0
LAYOUT
  5
1F
102
{ACAD_REACTORS
330
19
102
}
330
19
100
AcDbPlotSettings
  1

  2
RICOH Aficio 2027 PCL 6
  4

  6

 40
0.0
 41
0.0
 42
0.0
 43
0.0
 44
0.0
 45
0.0
 46
0.0
 47
0.0
 48
0.0
 49
0.0
140
0.0
141
0.0
142
1.0
143
1.0
 70
   688
 72
     0
 73
     0
 74
     5
  7
C:\Dokumente und Einstellungen\Ines Haase\Anwendungsdaten\Autodesk\Mechanical Desktop 2004 DX\R16.0\deu\Plot Styles\stift.ctb
 75
    16
147
1.0
 76
     0
 77
     2
 78
   300
148
0.0
149
0.0
100
AcDbLayout
  1
Layout1
 70
     0
 71
     1
 10
0.0
 20
0.0
 11
12.0
 21
9.0
 12
0.0
 22
0.0
 32
0.0
 14
1.000000000000000E+20
 24
1.000000000000000E+20
 34
1.000000000000000E+20
 15
-1.000000000000000E+20
 25
-1.000000000000000E+20
 35
-1.000000000000000E+20
146
0.0
 13
0.0
 23
0.0
 33
0.0
 16
1.0
 26
0.0
 36
0.0
 17
0.0
 27
1.0
 37
0.0
 76
     0
330
1C
  0
LAYOUT
  5
23
102
{ACAD_REACTORS
330
19
102
}
330
19
100
AcDbPlotSettings
  1

  2
RICOH Aficio 2027 PCL 6
  4
A4
  6

 40
5.027083396911621
 41
5.027085304260253
 42
5.027084350585937
 43
5.027069091796875
 44
209.9733276367187
 45
296.9259948730469
 46
0.0
 47
0.0
 48
0.0
 49
0.0
140
0.0
141
0.0
142
1.0
143
1.0
 70
 11952
 72
     0
 73
     1
 74
     0
  7
C:\Dokumente und Einstellungen\Ines Haase\Anwendungsdaten\Autodesk\Mechanical Desktop 2004 DX\R16.0\deu\Plot Styles\stift.ctb
 75
     0
147
1.0
 76
     0
 77
     2
 78
   300
148
-3736.923773429289
149
-541.7193139102251
100
AcDbLayout
  1
Model
 70
     1
 71
     0
 10
0.0
 20
0.0
 11
12.0
 21
9.0
 12
0.0
 22
0.0
 32
0.0
 14
0.0
 24
0.0
 34
0.0
 15
0.0
 25
0.0
 35
0.0
146
0.0
 13
0.0
 23
0.0
 33
0.0
 16
1.0
 26
0.0
 36
0.0
 17
0.0
 27
1.0
 37
0.0
 76
     0
330
20
  0
MLINESTYLE
  5
17
102
{ACAD_REACTORS
330
16
102
}
330
16
100
AcDbMlineStyle
  2
STANDARD
 70
     0
  3

 62
   256
 51
90.0
 52
90.0
 71
     2
 49
0.5
 62
   256
  6
BYLAYER
 49
-0.5
 62
   256
  6
BYLAYER
  0
ACDBPLACEHOLDER
  5
F
102
{ACAD_REACTORS
330
E
102
}
330
E
  0
DICTIONARYVAR
  5
857
102
{ACAD_REACTORS
330
855
102
}
330
855
100
DictionaryVariables
280
     0
  1
2
  0
DICTIONARYVAR
  5
856
102
{ACAD_REACTORS
330
855
102
}
330
855
100
DictionaryVariables
280
     0
  1
1
  0
DICTIONARYVAR
  5
858
102
{ACAD_REACTORS
330
855
102
}
330
855
100
DictionaryVariables
280
     0
  1

  0
ENDSEC
  0
EOF
