  0
SECTION
  2
HEADER
  9
$ACADVER
  1
AC1018
  9
$ACADMAINTVER
 70
     2
  9
$DWGCODEPAGE
  3
ANSI_1252
  9
$INSBASE
 10
0.0
 20
0.0
 30
0.0
  9
$EXTMIN
 10
-0.0320354863314378
 20
-0.0453073306696297
 30
-0.000000000000013
  9
$EXTMAX
 10
420.0256385794099
 20
594.0362602765937
 30
0.0000000000000023
  9
$LIMMIN
 10
0.0
 20
0.0
  9
$LIMMAX
 10
419.9999999999999
 20
594.0
  9
$ORTHOMODE
 70
     1
  9
$REGENMODE
 70
     1
  9
$FILLMODE
 70
     1
  9
$QTEXTMODE
 70
     0
  9
$MIRRTEXT
 70
     1
  9
$LTSCALE
 40
20.0
  9
$ATTMODE
 70
     1
  9
$TEXTSIZE
 40
3.5
  9
$TRACEWID
 40
0.5
  9
$TEXTSTYLE
  7
STANDARD
  9
$CLAYER
  8
SCHRAFF
  9
$CELTYPE
  6
ByLayer
  9
$CECOLOR
 62
   256
  9
$CELTSCALE
 40
1.0
  9
$DISPSILH
 70
     0
  9
$DIMSCALE
 40
2.0
  9
$DIMASZ
 40
3.5
  9
$DIMEXO
 40
1.0
  9
$DIMDLI
 40
7.0
  9
$DIMRND
 40
0.0
  9
$DIMDLE
 40
0.0
  9
$DIMEXE
 40
1.0
  9
$DIMTP
 40
0.0
  9
$DIMTM
 40
0.0
  9
$DIMTXT
 40
3.5
  9
$DIMCEN
 40
1.5
  9
$DIMTSZ
 40
0.0
  9
$DIMTOL
 70
     0
  9
$DIMLIM
 70
     0
  9
$DIMTIH
 70
     0
  9
$DIMTOH
 70
     0
  9
$DIMSE1
 70
     0
  9
$DIMSE2
 70
     0
  9
$DIMTAD
 70
     1
  9
$DIMZIN
 70
     8
  9
$DIMBLK
  1

  9
$DIMASO
 70
     1
  9
$DIMSHO
 70
     0
  9
$DIMPOST
  1

  9
$DIMAPOST
  1

  9
$DIMALT
 70
     0
  9
$DIMALTD
 70
     2
  9
$DIMALTF
 40
25.4
  9
$DIMLFAC
 40
1.0
  9
$DIMTOFL
 70
     1
  9
$DIMTVP
 40
0.0
  9
$DIMTIX
 70
     0
  9
$DIMSOXD
 70
     0
  9
$DIMSAH
 70
     0
  9
$DIMBLK1
  1

  9
$DIMBLK2
  1

  9
$DIMSTYLE
  2
Standard
  9
$DIMCLRD
 70
     0
  9
$DIMCLRE
 70
     0
  9
$DIMCLRT
 70
     1
  9
$DIMTFAC
 40
0.5142857142857144
  9
$DIMGAP
 40
1.5
  9
$DIMJUST
 70
     0
  9
$DIMSD1
 70
     0
  9
$DIMSD2
 70
     0
  9
$DIMTOLJ
 70
     1
  9
$DIMTZIN
 70
     8
  9
$DIMALTZ
 70
     8
  9
$DIMALTTZ
 70
     8
  9
$DIMUPT
 70
     0
  9
$DIMDEC
 70
     2
  9
$DIMTDEC
 70
     2
  9
$DIMALTU
 70
     2
  9
$DIMALTTD
 70
     2
  9
$DIMTXSTY
  7
STANDARD
  9
$DIMAUNIT
 70
     0
  9
$DIMADEC
 70
     2
  9
$DIMALTRND
 40
0.0
  9
$DIMAZIN
 70
     2
  9
$DIMDSEP
 70
    46
  9
$DIMATFIT
 70
     3
  9
$DIMFRAC
 70
     0
  9
$DIMLDRBLK
  1

  9
$DIMLUNIT
 70
     2
  9
$DIMLWD
 70
    -2
  9
$DIMLWE
 70
    -2
  9
$DIMTMOVE
 70
     0
  9
$LUNITS
 70
     2
  9
$LUPREC
 70
     2
  9
$SKETCHINC
 40
1.0
  9
$FILLETRAD
 40
20.0
  9
$AUNITS
 70
     0
  9
$AUPREC
 70
     0
  9
$MENU
  1
ACAD
  9
$ELEVATION
 40
0.0
  9
$PELEVATION
 40
0.0
  9
$THICKNESS
 40
0.0
  9
$LIMCHECK
 70
     0
  9
$CHAMFERA
 40
0.0
  9
$CHAMFERB
 40
0.0
  9
$CHAMFERC
 40
0.0
  9
$CHAMFERD
 40
0.0
  9
$SKPOLY
 70
     0
  9
$TDCREATE
 40
2455397.864709028
  9
$TDUCREATE
 40
2455397.781375695
  9
$TDUPDATE
 40
2455803.475309502
  9
$TDUUPDATE
 40
2455803.391976169
  9
$TDINDWG
 40
0.1400563542
  9
$TDUSRTIMER
 40
0.1400563542
  9
$USRTIMER
 70
     1
  9
$ANGBASE
 50
0.0
  9
$ANGDIR
 70
     0
  9
$PDMODE
 70
     0
  9
$PDSIZE
 40
0.0
  9
$PLINEWID
 40
0.0
  9
$SPLFRAME
 70
     0
  9
$SPLINETYPE
 70
     6
  9
$SPLINESEGS
 70
     8
  9
$HANDSEED
  5
506
  9
$SURFTAB1
 70
     6
  9
$SURFTAB2
 70
     6
  9
$SURFTYPE
 70
     6
  9
$SURFU
 70
     6
  9
$SURFV
 70
     6
  9
$UCSBASE
  2

  9
$UCSNAME
  2

  9
$UCSORG
 10
0.0
 20
0.0
 30
0.0
  9
$UCSXDIR
 10
1.0
 20
0.0
 30
0.0
  9
$UCSYDIR
 10
0.0
 20
1.0
 30
0.0
  9
$UCSORTHOREF
  2

  9
$UCSORTHOVIEW
 70
     0
  9
$UCSORGTOP
 10
0.0
 20
0.0
 30
0.0
  9
$UCSORGBOTTOM
 10
0.0
 20
0.0
 30
0.0
  9
$UCSORGLEFT
 10
0.0
 20
0.0
 30
0.0
  9
$UCSORGRIGHT
 10
0.0
 20
0.0
 30
0.0
  9
$UCSORGFRONT
 10
0.0
 20
0.0
 30
0.0
  9
$UCSORGBACK
 10
0.0
 20
0.0
 30
0.0
  9
$PUCSBASE
  2

  9
$PUCSNAME
  2

  9
$PUCSORG
 10
0.0
 20
0.0
 30
0.0
  9
$PUCSXDIR
 10
1.0
 20
0.0
 30
0.0
  9
$PUCSYDIR
 10
0.0
 20
1.0
 30
0.0
  9
$PUCSORTHOREF
  2

  9
$PUCSORTHOVIEW
 70
     0
  9
$PUCSORGTOP
 10
0.0
 20
0.0
 30
0.0
  9
$PUCSORGBOTTOM
 10
0.0
 20
0.0
 30
0.0
  9
$PUCSORGLEFT
 10
0.0
 20
0.0
 30
0.0
  9
$PUCSORGRIGHT
 10
0.0
 20
0.0
 30
0.0
  9
$PUCSORGFRONT
 10
0.0
 20
0.0
 30
0.0
  9
$PUCSORGBACK
 10
0.0
 20
0.0
 30
0.0
  9
$USERI1
 70
     0
  9
$USERI2
 70
     0
  9
$USERI3
 70
     0
  9
$USERI4
 70
     0
  9
$USERI5
 70
     0
  9
$USERR1
 40
0.0
  9
$USERR2
 40
0.0
  9
$USERR3
 40
0.0
  9
$USERR4
 40
0.0
  9
$USERR5
 40
0.0
  9
$WORLDVIEW
 70
     1
  9
$SHADEDGE
 70
     3
  9
$SHADEDIF
 70
    70
  9
$TILEMODE
 70
     1
  9
$MAXACTVP
 70
    16
  9
$PINSBASE
 10
0.0
 20
0.0
 30
0.0
  9
$PLIMCHECK
 70
     0
  9
$PEXTMIN
 10
1.000000000000000E+20
 20
1.000000000000000E+20
 30
1.000000000000000E+20
  9
$PEXTMAX
 10
-1.000000000000000E+20
 20
-1.000000000000000E+20
 30
-1.000000000000000E+20
  9
$PLIMMIN
 10
0.0
 20
0.0
  9
$PLIMMAX
 10
12.0
 20
9.0
  9
$UNITMODE
 70
     0
  9
$VISRETAIN
 70
     0
  9
$PLINEGEN
 70
     0
  9
$PSLTSCALE
 70
     0
  9
$TREEDEPTH
 70
  3020
  9
$CMLSTYLE
  2
Standard
  9
$CMLJUST
 70
     0
  9
$CMLSCALE
 40
1.0
  9
$PROXYGRAPHICS
 70
     1
  9
$MEASUREMENT
 70
     0
  9
$CELWEIGHT
370
    -1
  9
$ENDCAPS
280
     0
  9
$JOINSTYLE
280
     0
  9
$LWDISPLAY
290
     0
  9
$INSUNITS
 70
     0
  9
$HYPERLINKBASE
  1

  9
$STYLESHEET
  1
monochrome 1.ctb
  9
$XEDIT
290
     1
  9
$CEPSNTYPE
380
     0
  9
$PSTYLEMODE
290
     1
  9
$FINGERPRINTGUID
  2
{D68B0D02-A558-11D7-B632-000102183313}
  9
$VERSIONGUID
  2
{878631AF-A0FB-4F01-A518-CAB344BD0875}
  9
$EXTNAMES
290
     1
  9
$PSVPSCALE
 40
0.0
  9
$OLESTARTUP
290
     0
  9
$SORTENTS
280
   127
  9
$INDEXCTL
280
     0
  9
$HIDETEXT
280
     0
  9
$XCLIPFRAME
290
     0
  9
$HALOGAP
280
     0
  9
$OBSCOLOR
 70
   257
  9
$OBSLTYPE
280
     0
  9
$INTERSECTIONDISPLAY
280
     0
  9
$INTERSECTIONCOLOR
 70
   257
  9
$DIMASSOC
280
     1
  9
$PROJECTNAME
  1

  0
ENDSEC
  0
SECTION
  2
CLASSES
  0
CLASS
  1
ACDBDICTIONARYWDFLT
  2
AcDbDictionaryWithDefault
  3
ObjectDBX Classes
 90
        0
 91
        1
280
     0
281
     0
  0
CLASS
  1
DICTIONARYVAR
  2
AcDbDictionaryVar
  3
ObjectDBX Classes
 90
        0
 91
        2
280
     0
281
     0
  0
ENDSEC
  0
SECTION
  2
TABLES
  0
TABLE
  2
VPORT
  5
8
330
0
100
AcDbSymbolTable
 70
     3
  0
VPORT
  5
505
330
8
100
AcDbSymbolTableRecord
100
AcDbViewportTableRecord
  2
*Active
 70
     0
 10
0.0
 20
0.0
 11
1.0
 21
1.0
 12
210.0
 22
297.0000000000001
 13
0.0
 23
0.0
 14
1.0
 24
1.0
 15
10.0
 25
10.0
 16
0.0
 26
0.0
 36
1.0
 17
0.0
 27
0.0
 37
0.0
 40
594.0000000000002
 41
1.339622641509433
 42
50.0
 43
0.0
 44
0.0
 50
0.0
 51
0.0
 71
     0
 72
  1500
 73
     1
 74
     0
 75
     0
 76
     0
 77
     0
 78
     0
281
     0
 65
     1
110
0.0
120
0.0
130
0.0
111
1.0
121
0.0
131
0.0
112
0.0
122
1.0
132
0.0
 79
     0
146
0.0
  0
ENDTAB
  0
TABLE
  2
LTYPE
  5
5
330
0
100
AcDbSymbolTable
 70
     2
  0
LTYPE
  5
13
330
5
100
AcDbSymbolTableRecord
100
AcDbLinetypeTableRecord
  2
ByBlock
 70
     0
  3

 72
    65
 73
     0
 40
0.0
  0
LTYPE
  5
14
330
5
100
AcDbSymbolTableRecord
100
AcDbLinetypeTableRecord
  2
ByLayer
 70
     0
  3

 72
    65
 73
     0
 40
0.0
  0
LTYPE
  5
15
330
5
100
AcDbSymbolTableRecord
100
AcDbLinetypeTableRecord
  2
Continuous
 70
     0
  3
Solid line
 72
    65
 73
     0
 40
0.0
  0
LTYPE
  5
25
330
5
100
AcDbSymbolTableRecord
100
AcDbLinetypeTableRecord
  2
STRICHPUNKT
 70
     0
  3
__ . __ . __ . __ . __ . __ . __ . __ . __ . __
 72
    65
 73
     4
 40
1.0
 49
0.5
 74
     0
 49
-0.25
 74
     0
 49
0.0
 74
     0
 49
-0.25
 74
     0
  0
ENDTAB
  0
TABLE
  2
LAYER
  5
2
330
0
100
AcDbSymbolTable
 70
     9
  0
LAYER
  5
10
330
2
100
AcDbSymbolTableRecord
100
AcDbLayerTableRecord
  2
0
 70
     0
 62
     7
  6
Continuous
370
    -3
390
F
  0
LAYER
  5
2A
330
2
100
AcDbSymbolTableRecord
100
AcDbLayerTableRecord
  2
VOLL
 70
     0
 62
     1
  6
Continuous
370
    -3
390
F
  0
LAYER
  5
2B
330
2
100
AcDbSymbolTableRecord
100
AcDbLayerTableRecord
  2
HILF
 70
     0
 62
     2
  6
Continuous
370
    -3
390
F
  0
LAYER
  5
2C
330
2
100
AcDbSymbolTableRecord
100
AcDbLayerTableRecord
  2
MITTEL
 70
     0
 62
     2
  6
STRICHPUNKT
370
    -3
390
F
  0
LAYER
  5
2F
330
2
100
AcDbSymbolTableRecord
100
AcDbLayerTableRecord
  2
BEM
 70
     0
 62
     7
  6
Continuous
370
    -3
390
F
  0
LAYER
  5
30
330
2
100
AcDbSymbolTableRecord
100
AcDbLayerTableRecord
  2
STEMPEL
 70
     0
 62
     3
  6
Continuous
370
    -3
390
F
  0
LAYER
  5
31
330
2
100
AcDbSymbolTableRecord
100
AcDbLayerTableRecord
  2
TEXT
 70
     0
 62
     7
  6
Continuous
370
    -3
390
F
  0
LAYER
  5
1B6
330
2
100
AcDbSymbolTableRecord
100
AcDbLayerTableRecord
  2
Defpoints
 70
     0
 62
     7
  6
Continuous
290
     0
370
    -3
390
F
  0
LAYER
  5
32F
330
2
100
AcDbSymbolTableRecord
100
AcDbLayerTableRecord
  2
SCHRAFF
 70
     0
 62
     7
  6
Continuous
370
    -3
390
F
  0
ENDTAB
  0
TABLE
  2
STYLE
  5
3
330
0
100
AcDbSymbolTable
 70
     2
  0
STYLE
  5
11
330
3
100
AcDbSymbolTableRecord
100
AcDbTextStyleTableRecord
  2
STANDARD
 70
     0
 40
0.0
 41
0.8
 50
0.0
 71
     0
 42
3.5
  3
simplex.shx
  4

  0
STYLE
  5
24
330
3
100
AcDbSymbolTableRecord
100
AcDbTextStyleTableRecord
  2
GREEKS
 70
     0
 40
0.0
 41
0.8
 50
0.0
 71
     0
 42
2.5
  3
SIMPLEX.shx
  4

  0
ENDTAB
  0
TABLE
  2
VIEW
  5
6
330
0
100
AcDbSymbolTable
 70
     0
  0
ENDTAB
  0
TABLE
  2
UCS
  5
7
330
0
100
AcDbSymbolTable
 70
     0
  0
ENDTAB
  0
TABLE
  2
APPID
  5
9
330
0
100
AcDbSymbolTable
 70
     1
  0
APPID
  5
12
330
9
100
AcDbSymbolTableRecord
100
AcDbRegAppTableRecord
  2
ACAD
 70
     0
  0
ENDTAB
  0
TABLE
  2
DIMSTYLE
  5
A
330
0
100
AcDbSymbolTable
 70
     1
100
AcDbDimStyleTable
 71
     1
340
9D
  0
DIMSTYLE
105
9D
102
{ACAD_REACTORS
330
220
330
22D
330
31A
330
416
330
48C
102
}
330
A
100
AcDbSymbolTableRecord
100
AcDbDimStyleTableRecord
  2
Standard
 70
     0
340
11
  0
ENDTAB
  0
TABLE
  2
BLOCK_RECORD
  5
1
330
0
100
AcDbSymbolTable
 70
    11
  0
BLOCK_RECORD
  5
1E
102
{ACAD_XDICTIONARY
360
A0
102
}
330
1
100
AcDbSymbolTableRecord
100
AcDbBlockTableRecord
  2
*Model_Space
340
21
  0
BLOCK_RECORD
  5
1A
102
{ACAD_XDICTIONARY
360
A2
102
}
330
1
100
AcDbSymbolTableRecord
100
AcDbBlockTableRecord
  2
*Paper_Space
340
1D
  0
BLOCK_RECORD
  5
22
330
1
100
AcDbSymbolTableRecord
100
AcDbBlockTableRecord
  2
LOGO
340
0
102
{BLKREFS
331
9B
102
}
  0
BLOCK_RECORD
  5
221
330
1
100
AcDbSymbolTableRecord
100
AcDbBlockTableRecord
  2
*D3
340
0
  0
BLOCK_RECORD
  5
22E
330
1
100
AcDbSymbolTableRecord
100
AcDbBlockTableRecord
  2
*D4
340
0
  0
BLOCK_RECORD
  5
31B
330
1
100
AcDbSymbolTableRecord
100
AcDbBlockTableRecord
  2
*D7
340
0
  0
BLOCK_RECORD
  5
417
330
1
100
AcDbSymbolTableRecord
100
AcDbBlockTableRecord
  2
*D9
340
0
  0
BLOCK_RECORD
  5
48D
330
1
100
AcDbSymbolTableRecord
100
AcDbBlockTableRecord
  2
*D10
340
0
  0
ENDTAB
  0
ENDSEC
  0
SECTION
  2
BLOCKS
  0
BLOCK
  5
35
330
1E
100
AcDbEntity
  8
0
100
AcDbBlockBegin
  2
*Model_Space
 70
     0
 10
0.0
 20
0.0
 30
0.0
  3
*Model_Space
  1

  0
ENDBLK
  5
36
330
1E
100
AcDbEntity
  8
0
100
AcDbBlockEnd
  0
BLOCK
  5
33
330
1A
100
AcDbEntity
 67
     1
  8
0
100
AcDbBlockBegin
  2
*Paper_Space
 70
     0
 10
0.0
 20
0.0
 30
0.0
  3
*Paper_Space
  1

  0
ENDBLK
  5
34
330
1A
100
AcDbEntity
 67
     1
  8
0
100
AcDbBlockEnd
  0
BLOCK
  5
37
330
22
100
AcDbEntity
  8
0
100
AcDbBlockBegin
  2
LOGO
 70
     0
 10
0.0
 20
0.0
 30
0.0
  3
LOGO
  1

  0
ARC
  5
38
330
22
100
AcDbEntity
  8
0
100
AcDbCircle
 10
11.59973089678112
 20
-9.271599258481501
 30
0.0
 40
4.5
100
AcDbArc
 50
270.0
 51
231.0575587310159
  0
LINE
  5
39
330
22
100
AcDbEntity
  8
0
100
AcDbLine
 10
3.599730896781125
 20
-4.771599258481529
 30
0.0
 11
3.599730896781153
 21
-11.77159925848133
 31
0.0
  0
LINE
  5
3A
330
22
100
AcDbEntity
  8
0
100
AcDbLine
 10
2.599730896781125
 20
-4.771599258481529
 30
0.0
 11
2.599730896781153
 21
-11.77159925848133
 31
0.0
  0
CIRCLE
  5
3B
330
22
100
AcDbEntity
  8
0
100
AcDbCircle
 10
11.59973089678112
 20
-9.271599258481501
 30
0.0
 40
3.5
  0
ARC
  5
3C
330
22
100
AcDbEntity
  8
0
100
AcDbCircle
 10
31.59973089678115
 20
-9.271599258481472
 30
0.0
 40
4.5
100
AcDbArc
 50
270.0
 51
231.0575587310182
  0
LINE
  5
3D
330
22
100
AcDbEntity
  8
0
100
AcDbLine
 10
17.59973089678112
 20
-4.771599258481472
 30
0.0
 11
17.59973089678115
 21
-13.77159925848147
 31
0.0
  0
ARC
  5
3E
330
22
100
AcDbEntity
  8
0
100
AcDbCircle
 10
22.59973089678116
 20
-7.271599258481472
 30
0.0
 40
2.5
100
AcDbArc
 50
293.1161887722295
 51
90.0
  0
CIRCLE
  5
3F
330
22
100
AcDbEntity
  8
0
100
AcDbCircle
 10
31.59973089678115
 20
-9.271599258481472
 30
0.0
 40
3.5
  0
ARC
  5
40
330
22
100
AcDbEntity
  8
0
100
AcDbCircle
 10
4.599730896781153
 20
-11.77159925848133
 30
0.0
 40
1.0
100
AcDbArc
 50
180.0
 51
270.0
  0
ARC
  5
41
330
22
100
AcDbEntity
  8
0
100
AcDbCircle
 10
4.599730896781153
 20
-11.77159925848133
 30
0.0
 40
2.0
100
AcDbArc
 50
179.9999999999992
 51
270.0
  0
LINE
  5
42
330
22
100
AcDbEntity
  8
0
100
AcDbLine
 10
11.59973089678115
 20
-13.77159925848144
 30
0.0
 11
4.599730896781153
 21
-13.77159925848147
 31
0.0
  0
LINE
  5
43
330
22
100
AcDbEntity
  8
0
100
AcDbLine
 10
8.771303772034769
 20
-12.77159925848136
 30
0.0
 11
4.599730896781153
 21
-12.77159925848133
 31
0.0
  0
LINE
  5
44
330
22
100
AcDbEntity
  8
0
100
AcDbLine
 10
31.59973089678115
 20
-13.77159925848147
 30
0.0
 11
23.6715276665056
 21
-13.77159925848144
 31
0.0
  0
LINE
  5
45
330
22
100
AcDbEntity
  8
0
100
AcDbLine
 10
23.56565672307022
 20
-9.51278021337896
 30
0.0
 11
24.4388546544846
 21
-12.77159925848144
 31
0.0
  0
LINE
  5
46
330
22
100
AcDbEntity
  8
0
100
AcDbLine
 10
22.59973089678116
 20
-9.771599258481472
 30
0.0
 11
18.59973089678112
 21
-9.771599258481472
 31
0.0
  0
LINE
  5
47
330
22
100
AcDbEntity
  8
0
100
AcDbLine
 10
18.59973089678115
 20
-13.77159925848144
 30
0.0
 11
17.59973089678115
 21
-13.77159925848144
 31
0.0
  0
LINE
  5
48
330
22
100
AcDbEntity
  8
0
100
AcDbLine
 10
18.59973089678115
 20
-9.771599258481472
 30
0.0
 11
18.59973089678115
 21
-13.77159925848144
 31
0.0
  0
LINE
  5
49
330
22
100
AcDbEntity
  8
0
100
AcDbLine
 10
22.59973089678116
 20
-9.771599258481472
 30
0.0
 11
23.67152766650562
 21
-13.77159925848147
 31
0.0
  0
ARC
  5
4A
330
22
100
AcDbEntity
  8
0
100
AcDbCircle
 10
22.59973089678116
 20
-7.271599258481472
 30
0.0
 40
2.5
100
AcDbArc
 50
270.0
 51
270.0000000000007
  0
LINE
  5
4B
330
22
100
AcDbEntity
  8
0
100
AcDbLine
 10
28.77130377203494
 20
-12.77159925848147
 30
0.0
 11
24.43885465448463
 21
-12.77159925848144
 31
0.0
  0
LINE
  5
4C
330
22
100
AcDbEntity
  8
0
100
AcDbLine
 10
3.599730896781125
 20
-4.771599258481472
 30
0.0
 11
2.599730896781125
 21
-4.771599258481472
 31
0.0
  0
LINE
  5
4D
330
22
100
AcDbEntity
  8
0
100
AcDbLine
 10
22.59973089678116
 20
-8.771599258481472
 30
0.0
 11
18.59973089678115
 21
-8.771599258481472
 31
0.0
  0
LINE
  5
4E
330
22
100
AcDbEntity
  8
0
100
AcDbLine
 10
22.59973089678116
 20
-5.771599258481472
 30
0.0
 11
18.59973089678115
 21
-5.771599258481472
 31
0.0
  0
LINE
  5
4F
330
22
100
AcDbEntity
  8
0
100
AcDbLine
 10
22.59973089678116
 20
-4.771599258481472
 30
0.0
 11
17.59973089678115
 21
-4.771599258481472
 31
0.0
  0
LINE
  5
50
330
22
100
AcDbEntity
  8
0
100
AcDbLine
 10
18.59973089678115
 20
-5.771599258481472
 30
0.0
 11
18.59973089678115
 21
-8.771599258481472
 31
0.0
  0
ARC
  5
51
330
22
100
AcDbEntity
  8
0
100
AcDbCircle
 10
22.59973089678116
 20
-7.271599258481472
 30
0.0
 40
1.5
100
AcDbArc
 50
270.0
 51
90.0
  0
ENDBLK
  5
52
330
22
100
AcDbEntity
  8
0
100
AcDbBlockEnd
  0
BLOCK
  5
22B
330
221
100
AcDbEntity
  8
0
100
AcDbBlockBegin
  2
*D3
 70
     1
 10
0.0
 20
0.0
 30
0.0
  3
*D3
  1

  0
LINE
  5
2BE
330
221
100
AcDbEntity
  8
BEM
 62
     0
370
    -2
100
AcDbLine
 10
124.9999999999999
 20
231.1579243721323
 30
0.0
 11
124.9999999999999
 21
196.2076789489577
 31
0.0
  0
LINE
  5
2BF
330
221
100
AcDbEntity
  8
BEM
 62
     0
370
    -2
100
AcDbLine
 10
324.9999999999999
 20
231.1579243721322
 30
0.0
 11
324.9999999999999
 21
196.2076789489577
 31
0.0
  0
LINE
  5
2C0
330
221
100
AcDbEntity
  8
BEM
 62
     0
370
    -2
100
AcDbLine
 10
131.9999999999999
 20
198.2076789489576
 30
0.0
 11
317.9999999999999
 21
198.2076789489576
 31
0.0
  0
SOLID
  5
2C1
330
221
100
AcDbEntity
  8
BEM
 62
     0
100
AcDbTrace
 10
131.9999999999999
 20
199.3743456156243
 30
0.0
 11
131.9999999999999
 21
197.041012282291
 31
0.0
 12
124.9999999999999
 22
198.2076789489576
 32
0.0
 13
124.9999999999999
 23
198.2076789489576
 33
0.0
  0
SOLID
  5
2C2
330
221
100
AcDbEntity
  8
BEM
 62
     0
100
AcDbTrace
 10
317.9999999999999
 20
199.3743456156243
 30
0.0
 11
317.9999999999999
 21
197.041012282291
 31
0.0
 12
324.9999999999999
 22
198.2076789489576
 32
0.0
 13
324.9999999999999
 23
198.2076789489576
 33
0.0
  0
MTEXT
  5
2C3
330
221
100
AcDbEntity
  8
BEM
 62
     1
100
AcDbMText
 10
224.9999999999999
 20
204.7076789489576
 30
0.0
 40
7.0
 41
0.0
 71
     5
 72
     1
  1
\A1;%%c200
 73
     1
 44
1.0
  0
POINT
  5
2C4
330
221
100
AcDbEntity
  8
Defpoints
 62
     0
100
AcDbPoint
 10
124.9999999999999
 20
233.1579243721323
 30
0.0
  0
POINT
  5
2C5
330
221
100
AcDbEntity
  8
Defpoints
 62
     0
100
AcDbPoint
 10
324.9999999999999
 20
233.1579243721322
 30
0.0
  0
POINT
  5
2C6
330
221
100
AcDbEntity
  8
Defpoints
 62
     0
100
AcDbPoint
 10
324.9999999999999
 20
198.2076789489576
 30
0.0
  0
ENDBLK
  5
22C
330
221
100
AcDbEntity
  8
0
100
AcDbBlockEnd
  0
BLOCK
  5
238
330
22E
100
AcDbEntity
  8
0
100
AcDbBlockBegin
  2
*D4
 70
     1
 10
0.0
 20
0.0
 30
0.0
  3
*D4
  1

  0
LINE
  5
4F2
330
22E
100
AcDbEntity
  8
BEM
 62
     0
370
    -2
100
AcDbLine
 10
145.4999999999999
 20
423.4367634147577
 30
0.0
 11
145.4999999999999
 21
433.2959459871211
 31
0.0
  0
LINE
  5
4F3
330
22E
100
AcDbEntity
  8
BEM
 62
     0
370
    -2
100
AcDbLine
 10
304.4999999999999
 20
423.4367634147577
 30
0.0
 11
304.4999999999999
 21
433.2959459871211
 31
0.0
  0
LINE
  5
4F4
330
22E
100
AcDbEntity
  8
BEM
 62
     0
370
    -2
100
AcDbLine
 10
152.4999999999999
 20
431.295945987121
 30
0.0
 11
297.5
 21
431.295945987121
 31
0.0
  0
SOLID
  5
4F5
330
22E
100
AcDbEntity
  8
BEM
 62
     0
100
AcDbTrace
 10
152.4999999999999
 20
432.4626126537877
 30
0.0
 11
152.4999999999999
 21
430.1292793204543
 31
0.0
 12
145.4999999999999
 22
431.295945987121
 32
0.0
 13
145.4999999999999
 23
431.295945987121
 33
0.0
  0
SOLID
  5
4F6
330
22E
100
AcDbEntity
  8
BEM
 62
     0
100
AcDbTrace
 10
297.5
 20
432.4626126537877
 30
0.0
 11
297.5
 21
430.1292793204543
 31
0.0
 12
304.4999999999999
 22
431.295945987121
 32
0.0
 13
304.4999999999999
 23
431.295945987121
 33
0.0
  0
MTEXT
  5
4F7
330
22E
100
AcDbEntity
  8
BEM
 62
     1
100
AcDbMText
 10
225.0
 20
437.7959459871211
 30
0.0
 40
7.0
 41
0.0
 71
     5
 72
     1
  1
\A1;%%c159
 73
     1
 44
1.0
  0
POINT
  5
4F8
330
22E
100
AcDbEntity
  8
Defpoints
 62
     0
100
AcDbPoint
 10
145.4999999999999
 20
421.4367634147577
 30
0.0
  0
POINT
  5
4F9
330
22E
100
AcDbEntity
  8
Defpoints
 62
     0
100
AcDbPoint
 10
304.4999999999999
 20
421.4367634147577
 30
0.0
  0
POINT
  5
4FA
330
22E
100
AcDbEntity
  8
Defpoints
 62
     0
100
AcDbPoint
 10
304.4999999999999
 20
431.295945987121
 30
0.0
  0
ENDBLK
  5
239
330
22E
100
AcDbEntity
  8
0
100
AcDbBlockEnd
  0
BLOCK
  5
325
330
31B
100
AcDbEntity
  8
0
100
AcDbBlockBegin
  2
*D7
 70
     1
 10
0.0
 20
0.0
 30
0.0
  3
*D7
  1

  0
LINE
  5
4FB
330
31B
100
AcDbEntity
  8
BEM
 62
     0
370
    -2
100
AcDbLine
 10
124.301252424013
 20
218.2845411065669
 30
0.0
 11
91.70325961523319
 21
218.2845411065669
 31
0.0
  0
LINE
  5
4FC
330
31B
100
AcDbEntity
  8
BEM
 62
     0
370
    -2
100
AcDbLine
 10
136.2415552025937
 20
538.2845411065668
 30
0.0
 11
91.70325961523326
 21
538.2845411065668
 31
0.0
  0
LINE
  5
4FD
330
31B
100
AcDbEntity
  8
BEM
 62
     0
370
    -2
100
AcDbLine
 10
93.7032596152332
 20
225.2845411065669
 30
0.0
 11
93.70325961523326
 21
531.2845411065668
 31
0.0
  0
SOLID
  5
4FE
330
31B
100
AcDbEntity
  8
BEM
 62
     0
100
AcDbTrace
 10
92.53659294856653
 20
225.2845411065669
 30
0.0
 11
94.86992628189987
 21
225.2845411065669
 31
0.0
 12
93.70325961523318
 22
218.2845411065669
 32
0.0
 13
93.70325961523318
 23
218.2845411065669
 33
0.0
  0
SOLID
  5
4FF
330
31B
100
AcDbEntity
  8
BEM
 62
     0
100
AcDbTrace
 10
92.53659294856658
 20
531.2845411065668
 30
0.0
 11
94.86992628189993
 21
531.2845411065668
 31
0.0
 12
93.70325961523326
 22
538.2845411065668
 32
0.0
 13
93.70325961523326
 23
538.2845411065668
 33
0.0
  0
MTEXT
  5
500
330
31B
100
AcDbEntity
  8
BEM
 62
     1
100
AcDbMText
 10
87.20325961523318
 20
378.2845411065669
 30
0.0
 40
7.0
 41
0.0
 71
     5
 72
     1
  1
\A1;320
 11
0.0000000000000001
 21
1.0
 31
0.0
 73
     1
 44
1.0
  0
POINT
  5
501
330
31B
100
AcDbEntity
  8
Defpoints
 62
     0
100
AcDbPoint
 10
126.301252424013
 20
218.2845411065669
 30
0.0
  0
POINT
  5
502
330
31B
100
AcDbEntity
  8
Defpoints
 62
     0
100
AcDbPoint
 10
138.2415552025937
 20
538.2845411065668
 30
0.0
  0
POINT
  5
503
330
31B
100
AcDbEntity
  8
Defpoints
 62
     0
100
AcDbPoint
 10
93.70325961523326
 20
538.2845411065668
 30
0.0
  0
ENDBLK
  5
326
330
31B
100
AcDbEntity
  8
0
100
AcDbBlockEnd
  0
BLOCK
  5
421
330
417
100
AcDbEntity
  8
0
100
AcDbBlockBegin
  2
*D9
 70
     1
 10
0.0
 20
0.0
 30
0.0
  3
*D9
  1

  0
LINE
  5
4E5
330
417
100
AcDbEntity
  8
BEM
 62
     0
370
    -2
100
AcDbLine
 10
115.4999999999999
 20
373.6925935446786
 30
0.0
 11
115.4999999999999
 21
357.7335863408791
 31
0.0
  0
LINE
  5
4E6
330
417
100
AcDbEntity
  8
BEM
 62
     0
370
    -2
100
AcDbLine
 10
334.4999999999999
 20
373.6925935446786
 30
0.0
 11
334.4999999999999
 21
357.7335863408791
 31
0.0
  0
LINE
  5
4E7
330
417
100
AcDbEntity
  8
BEM
 62
     0
370
    -2
100
AcDbLine
 10
122.4999999999999
 20
359.7335863408791
 30
0.0
 11
327.4999999999999
 21
359.7335863408791
 31
0.0
  0
SOLID
  5
4E8
330
417
100
AcDbEntity
  8
BEM
 62
     0
100
AcDbTrace
 10
122.4999999999999
 20
360.9002530075458
 30
0.0
 11
122.4999999999999
 21
358.5669196742125
 31
0.0
 12
115.4999999999999
 22
359.7335863408791
 32
0.0
 13
115.4999999999999
 23
359.7335863408791
 33
0.0
  0
SOLID
  5
4E9
330
417
100
AcDbEntity
  8
BEM
 62
     0
100
AcDbTrace
 10
327.4999999999999
 20
360.9002530075458
 30
0.0
 11
327.4999999999999
 21
358.5669196742125
 31
0.0
 12
334.4999999999999
 22
359.7335863408791
 32
0.0
 13
334.4999999999999
 23
359.7335863408791
 33
0.0
  0
MTEXT
  5
4EA
330
417
100
AcDbEntity
  8
BEM
 62
     1
100
AcDbMText
 10
224.9999999999999
 20
366.2335863408791
 30
0.0
 40
7.0
 41
0.0
 71
     5
 72
     1
  1
\A1;%%c219
 73
     1
 44
1.0
  0
POINT
  5
4EB
330
417
100
AcDbEntity
  8
Defpoints
 62
     0
100
AcDbPoint
 10
115.4999999999999
 20
375.6925935446786
 30
0.0
  0
POINT
  5
4EC
330
417
100
AcDbEntity
  8
Defpoints
 62
     0
100
AcDbPoint
 10
334.4999999999999
 20
375.6925935446786
 30
0.0
  0
POINT
  5
4ED
330
417
100
AcDbEntity
  8
Defpoints
 62
     0
100
AcDbPoint
 10
334.4999999999999
 20
359.7335863408791
 30
0.0
  0
ENDBLK
  5
422
330
417
100
AcDbEntity
  8
0
100
AcDbBlockEnd
  0
BLOCK
  5
497
330
48D
100
AcDbEntity
  8
0
100
AcDbBlockBegin
  2
*D10
 70
     1
 10
0.0
 20
0.0
 30
0.0
  3
*D10
  1

  0
LINE
  5
4AB
330
48D
100
AcDbEntity
  8
BEM
 62
     0
370
    -2
100
AcDbLine
 10
124.3012524240132
 20
218.2845411065669
 30
0.0
 11
106.7676131071725
 21
218.2845411065669
 31
0.0
  0
LINE
  5
4AC
330
48D
100
AcDbEntity
  8
BEM
 62
     0
370
    -2
100
AcDbLine
 10
123.0528014544904
 20
348.2845411065668
 30
0.0
 11
106.7676131071725
 21
348.2845411065668
 31
0.0
  0
LINE
  5
4AD
330
48D
100
AcDbEntity
  8
BEM
 62
     0
370
    -2
100
AcDbLine
 10
108.7676131071725
 20
225.2845411065669
 30
0.0
 11
108.7676131071725
 21
341.2845411065668
 31
0.0
  0
SOLID
  5
4AE
330
48D
100
AcDbEntity
  8
BEM
 62
     0
100
AcDbTrace
 10
107.6009464405058
 20
225.2845411065669
 30
0.0
 11
109.9342797738391
 21
225.2845411065669
 31
0.0
 12
108.7676131071725
 22
218.2845411065669
 32
0.0
 13
108.7676131071725
 23
218.2845411065669
 33
0.0
  0
SOLID
  5
4AF
330
48D
100
AcDbEntity
  8
BEM
 62
     0
100
AcDbTrace
 10
107.6009464405058
 20
341.2845411065668
 30
0.0
 11
109.9342797738392
 21
341.2845411065668
 31
0.0
 12
108.7676131071725
 22
348.2845411065668
 32
0.0
 13
108.7676131071725
 23
348.2845411065668
 33
0.0
  0
MTEXT
  5
4B0
330
48D
100
AcDbEntity
  8
BEM
 62
     1
100
AcDbMText
 10
102.2676131071724
 20
283.2845411065669
 30
0.0
 40
7.0
 41
0.0
 71
     5
 72
     1
  1
\A1;130
 11
0.0000000000000001
 21
1.0
 31
0.0
 73
     1
 44
1.0
  0
POINT
  5
4B1
330
48D
100
AcDbEntity
  8
Defpoints
 62
     0
100
AcDbPoint
 10
126.3012524240132
 20
218.2845411065669
 30
0.0
  0
POINT
  5
4B2
330
48D
100
AcDbEntity
  8
Defpoints
 62
     0
100
AcDbPoint
 10
125.0528014544904
 20
348.2845411065668
 30
0.0
  0
POINT
  5
4B3
330
48D
100
AcDbEntity
  8
Defpoints
 62
     0
100
AcDbPoint
 10
108.7676131071725
 20
348.2845411065668
 30
0.0
  0
ENDBLK
  5
498
330
48D
100
AcDbEntity
  8
0
100
AcDbBlockEnd
  0
ENDSEC
  0
SECTION
  2
ENTITIES
  0
LINE
  5
57
330
1E
100
AcDbEntity
  8
STEMPEL
100
AcDbLine
 10
410.0
 20
110.0
 30
0.0
 11
39.99999999999997
 21
110.0
 31
0.0
  0
LINE
  5
58
330
1E
100
AcDbEntity
  8
STEMPEL
100
AcDbLine
 10
136.0000000000001
 20
109.9999999999999
 30
0.0
 11
136.0
 21
9.999999999999971
 31
0.0
  0
LINE
  5
59
330
1E
100
AcDbEntity
  8
STEMPEL
100
AcDbLine
 10
220.0
 20
110.0
 30
0.0
 11
220.0
 21
9.999999999999971
 31
0.0
  0
LINE
  5
5A
330
1E
100
AcDbEntity
  8
STEMPEL
100
AcDbLine
 10
332.0
 20
109.9999999999997
 30
0.0
 11
332.0
 21
40.0
 31
0.0
  0
LINE
  5
5B
330
1E
100
AcDbEntity
  8
STEMPEL
100
AcDbLine
 10
135.9999999999999
 20
29.99999999999997
 30
0.0
 11
39.99999999999997
 21
29.99999999999997
 31
0.0
  0
LINE
  5
5C
330
1E
100
AcDbEntity
  8
STEMPEL
100
AcDbLine
 10
410.0
 20
40.0
 30
0.0
 11
136.0000000000001
 21
39.99999999999997
 31
0.0
  0
LINE
  5
5D
330
1E
100
AcDbEntity
  8
STEMPEL
100
AcDbLine
 10
410.0
 20
80.0
 30
0.0
 11
136.0000000000001
 21
79.99999999999994
 31
0.0
  0
LINE
  5
5E
330
1E
100
AcDbEntity
  8
VOLL
100
AcDbLine
 10
54.00000000000009
 20
110.0
 30
0.0
 11
53.99999999999997
 21
9.999999999999971
 31
0.0
  0
LINE
  5
5F
330
1E
100
AcDbEntity
  8
VOLL
100
AcDbLine
 10
94.00000000000011
 20
109.9999999999999
 30
0.0
 11
94.0
 21
9.999999999999971
 31
0.0
  0
LINE
  5
60
330
1E
100
AcDbEntity
  8
VOLL
100
AcDbLine
 10
114.0000000000001
 20
109.9999999999999
 30
0.0
 11
114.0
 21
9.999999999999971
 31
0.0
  0
LINE
  5
61
330
1E
100
AcDbEntity
  8
VOLL
100
AcDbLine
 10
154.0000000000001
 20
79.99999999999994
 30
0.0
 11
154.0000000000001
 21
39.99999999999997
 31
0.0
  0
LINE
  5
62
330
1E
100
AcDbEntity
  8
VOLL
100
AcDbLine
 10
180.0000000000001
 20
109.9999999999998
 30
0.0
 11
180.0
 21
39.99999999999997
 31
0.0
  0
LINE
  5
63
330
1E
100
AcDbEntity
  8
HILF
100
AcDbLine
 10
40.00000000000008
 20
100.0
 30
0.0
 11
136.0000000000001
 21
100.0
 31
0.0
  0
LINE
  5
64
330
1E
100
AcDbEntity
  8
HILF
100
AcDbLine
 10
40.00000000000008
 20
90.00000000000005
 30
0.0
 11
136.0000000000001
 21
90.00000000000005
 31
0.0
  0
LINE
  5
65
330
1E
100
AcDbEntity
  8
HILF
100
AcDbLine
 10
40.00000000000008
 20
79.99999999999994
 30
0.0
 11
136.0000000000001
 21
79.99999999999994
 31
0.0
  0
LINE
  5
66
330
1E
100
AcDbEntity
  8
HILF
100
AcDbLine
 10
40.00000000000008
 20
69.99999999999994
 30
0.0
 11
136.0000000000001
 21
69.99999999999994
 31
0.0
  0
LINE
  5
67
330
1E
100
AcDbEntity
  8
HILF
100
AcDbLine
 10
40.00000000000008
 20
59.99999999999997
 30
0.0
 11
136.0000000000001
 21
59.99999999999997
 31
0.0
  0
LINE
  5
68
330
1E
100
AcDbEntity
  8
HILF
100
AcDbLine
 10
40.00000000000008
 20
49.99999999999997
 30
0.0
 11
136.0000000000001
 21
49.99999999999997
 31
0.0
  0
LINE
  5
69
330
1E
100
AcDbEntity
  8
HILF
100
AcDbLine
 10
40.00000000000008
 20
39.99999999999997
 30
0.0
 11
136.0000000000001
 21
39.99999999999997
 31
0.0
  0
LINE
  5
6A
330
1E
100
AcDbEntity
  8
HILF
100
AcDbLine
 10
136.0000000000001
 20
69.99999999999994
 30
0.0
 11
220.0
 21
69.99999999999994
 31
0.0
  0
LINE
  5
6B
330
1E
100
AcDbEntity
  8
HILF
100
AcDbLine
 10
136.0000000000001
 20
59.99999999999997
 30
0.0
 11
220.0
 21
59.99999999999997
 31
0.0
  0
LINE
  5
6C
330
1E
100
AcDbEntity
  8
HILF
100
AcDbLine
 10
136.0000000000001
 20
49.99999999999997
 30
0.0
 11
220.0
 21
49.99999999999997
 31
0.0
  0
LINE
  5
6D
330
1E
100
AcDbEntity
  8
HILF
100
AcDbLine
 10
224.7736801096948
 20
84.03758247564139
 30
0.0
 11
324.8353916556311
 21
84.03758247564139
 31
0.0
  0
LINE
  5
6E
330
1E
100
AcDbEntity
  8
HILF
100
AcDbLine
 10
224.7736801096948
 20
69.99999999999994
 30
0.0
 11
324.835391655631
 21
69.99999999999994
 31
0.0
  0
LINE
  5
6F
330
1E
100
AcDbEntity
  8
HILF
100
AcDbLine
 10
224.7736801096948
 20
59.99999999999997
 30
0.0
 11
324.835391655631
 21
59.99999999999997
 31
0.0
  0
LINE
  5
70
330
1E
100
AcDbEntity
  8
HILF
100
AcDbLine
 10
224.7736801096948
 20
49.99999999999997
 30
0.0
 11
324.835391655631
 21
49.99999999999997
 31
0.0
  0
LINE
  5
71
330
1E
100
AcDbEntity
  8
VOLL
100
AcDbLine
 10
332.0
 20
60.0
 30
0.0
 11
410.0
 21
60.0
 31
0.0
  0
LINE
  5
72
330
1E
100
AcDbEntity
  8
HILF
100
AcDbLine
 10
336.7238616296993
 20
83.77983636955827
 30
0.0
 11
404.8588839326728
 21
83.77983636955827
 31
0.0
  0
LINE
  5
73
330
1E
100
AcDbEntity
  8
HILF
100
AcDbLine
 10
223.4909699289885
 20
14.89398258028314
 30
0.0
 11
404.8588839326728
 21
14.89398258028314
 31
0.0
  0
TEXT
  5
74
330
1E
100
AcDbEntity
  8
TEXT
100
AcDbText
 10
63.86165979631819
 20
18.67381894984132
 30
0.0
 40
4.0
  1
Änderung
 41
0.8
  7
GREEKS
 72
     1
 11
74.60451693917534
 21
18.67381894984132
 31
0.0
100
AcDbText
  0
TEXT
  5
75
330
1E
100
AcDbEntity
  8
TEXT
100
AcDbText
 10
143.5163572150377
 20
102.4620895087088
 30
0.0
 40
5.0
  1
Maßstab
 41
0.8
  7
GREEKS
100
AcDbText
  0
TEXT
  5
76
330
1E
100
AcDbEntity
  8
TEXT
100
AcDbText
 10
184.2858954734051
 20
102.4184168434819
 30
0.0
 40
5.0
  1
Zul. Abw.
 41
0.8
  7
GREEKS
100
AcDbText
  0
TEXT
  5
77
330
1E
100
AcDbEntity
  8
TEXT
100
AcDbText
 10
224.877940380901
 20
102.5489328011779
 30
0.0
 40
5.0
  1
Benennung
 41
0.8
  7
GREEKS
100
AcDbText
  0
TEXT
  5
78
330
1E
100
AcDbEntity
  8
TEXT
100
AcDbText
 10
336.178754957634
 20
102.3132034537136
 30
0.0
 40
5.0
  1
Zeichnungs Nr.
 41
0.8
  7
GREEKS
100
AcDbText
  0
TEXT
  5
79
330
1E
100
AcDbEntity
  8
TEXT
100
AcDbText
 10
224.742238391136
 20
30.84560570193057
 30
0.0
 40
5.0
  1
Bauvorhaben
 41
0.8
  7
GREEKS
100
AcDbText
  0
TEXT
  5
7A
330
1E
100
AcDbEntity
  8
TEXT
100
AcDbText
 10
336.7238616296993
 20
73.1811823709997
 30
0.0
 40
5.0
  1
Ersatz für:
 41
0.8
  7
GREEKS
100
AcDbText
  0
TEXT
  5
7B
330
1E
100
AcDbEntity
  8
TEXT
100
AcDbText
 10
48.26641107045756
 20
13.65465846027192
 30
0.0
 40
4.0
  1
Index
 50
90.0
 41
0.8
  7
GREEKS
100
AcDbText
  0
TEXT
  5
7C
330
1E
100
AcDbEntity
  8
TEXT
100
AcDbText
 10
100.0934676075481
 20
18.6715626933981
 30
0.0
 40
4.0
  1
Tag
 41
0.8
  7
GREEKS
 72
     1
 11
103.8268009408814
 21
18.6715626933981
 31
0.0
100
AcDbText
  0
TEXT
  5
7D
330
1E
100
AcDbEntity
  8
TEXT
100
AcDbText
 10
119.0122744386592
 20
18.59324216966408
 30
0.0
 40
4.0
  1
Name
 41
0.8
  7
GREEKS
 72
     1
 11
125.3360839624688
 21
18.59324216966408
 31
0.0
100
AcDbText
  0
TEXT
  5
7E
330
1E
100
AcDbEntity
  8
TEXT
100
AcDbText
 10
162.3311673153651
 20
73.31880501229926
 30
0.0
 40
4.0
  1
Tag
 41
0.8
  7
GREEKS
100
AcDbText
  0
TEXT
  5
7F
330
1E
100
AcDbEntity
  8
TEXT
100
AcDbText
 10
192.4626584226295
 20
73.30961091915225
 30
0.0
 40
4.0
  1
Name
 41
0.8
  7
GREEKS
100
AcDbText
  0
TEXT
  5
80
330
1E
100
AcDbEntity
  8
TEXT
100
AcDbText
 10
137.5836127167615
 20
63.62990369617964
 30
0.0
 40
4.0
  1
Gez.
 41
0.8
  7
GREEKS
100
AcDbText
  0
TEXT
  5
81
330
1E
100
AcDbEntity
  8
TEXT
100
AcDbText
 10
137.5515086571672
 20
53.68926291428377
 30
0.0
 40
4.0
  1
Gepr.
 41
0.8
  7
GREEKS
100
AcDbText
  0
TEXT
  5
82
330
1E
100
AcDbEntity
  8
TEXT
100
AcDbText
 10
137.6006777387304
 20
43.52946389649807
 30
0.0
 40
4.0
  1
Norm.
 41
0.8
  7
GREEKS
100
AcDbText
  0
LINE
  5
83
330
1E
100
AcDbEntity
  8
STEMPEL
100
AcDbLine
 10
49.99999999999989
 20
10.0
 30
0.0
 11
410.0
 21
10.0
 31
0.0
  0
TEXT
  5
84
330
1E
100
AcDbEntity
  8
TEXT
100
AcDbText
 10
337.2400861497006
 20
52.07416177878602
 30
0.0
 40
5.0
  1
ersetzt durch:
 41
0.8
  7
GREEKS
100
AcDbText
  0
LINE
  5
85
330
1E
100
AcDbEntity
  8
STEMPEL
100
AcDbLine
 10
410.0
 20
10.0
 30
0.0
 11
39.99999999999989
 21
10.0
 31
0.0
  0
LINE
  5
86
330
1E
100
AcDbEntity
  8
STEMPEL
100
AcDbLine
 10
410.0
 20
10.0
 30
0.0
 11
410.0
 21
584.0
 31
0.0
  0
LINE
  5
87
330
1E
100
AcDbEntity
  8
STEMPEL
100
AcDbLine
 10
40.0
 20
10.0
 30
0.0
 11
39.99999999999989
 21
584.0
 31
0.0
  0
LINE
  5
88
330
1E
100
AcDbEntity
  8
STEMPEL
100
AcDbLine
 10
410.0
 20
584.0
 30
0.0
 11
39.99999999999989
 21
584.0
 31
0.0
  0
LINE
  5
89
330
1E
100
AcDbEntity
  8
HILF
100
AcDbLine
 10
0.0
 20
0.0
 30
0.0
 11
-0.0000000000001137
 21
594.0
 31
0.0
  0
LINE
  5
8A
330
1E
100
AcDbEntity
  8
HILF
100
AcDbLine
 10
419.9999999999999
 20
594.0000000000002
 30
0.0
 11
0.0
 21
594.0
 31
0.0
  0
LINE
  5
8B
330
1E
100
AcDbEntity
  8
HILF
100
AcDbLine
 10
420.0
 20
0.0
 30
0.0
 11
0.0
 21
0.0
 31
0.0
  0
LINE
  5
8C
330
1E
100
AcDbEntity
  8
HILF
100
AcDbLine
 10
31.08767135713856
 20
297.0
 30
0.0
 11
0.0000000000001137
 21
297.0
 31
0.0
  0
TEXT
  5
8D
330
1E
100
AcDbEntity
  8
TEXT
100
AcDbText
 10
138.622109822104
 20
73.14025471151666
 30
0.0
 40
4.0
  1
2011
 41
0.8
  7
GREEKS
100
AcDbText
  0
LINE
  5
8E
330
1E
100
AcDbEntity
  8
HILF
100
AcDbLine
 10
420.0
 20
-0.0000000000001137
 30
0.0
 11
419.9999999999999
 21
594.0
 31
0.0
  0
TEXT
  5
8F
330
1E
100
AcDbEntity
  8
VOLL
100
AcDbText
 10
78.07675471698113
 20
31.02594776470585
 30
0.0
 40
1.8
  1

  7
GREEKS
100
AcDbText
  0
TEXT
  5
90
330
1E
100
AcDbEntity
  8
TEXT
100
AcDbText
 10
41.85509950977674
 20
111.6719999999999
 30
0.0
 40
5.0
  1
Erstellt mit AUTOCAD 2004
 41
0.8
  7
GREEKS
100
AcDbText
  0
TEXT
  5
91
330
1E
100
AcDbEntity
  8
TEXT
100
AcDbText
 10
194.4216048581257
 20
63.0896391972351
 30
0.0
 40
4.0
  1
Koeh
 41
0.8
  7
GREEKS
 72
     1
 11
199.6787477152685
 21
63.0896391972351
 31
0.0
100
AcDbText
  0
TEXT
  5
92
330
1E
100
AcDbEntity
  8
TEXT
 62
     1
100
AcDbText
 10
345.859485237189
 20
88.14901428913959
 30
0.0
 40
7.0
  1
00672150W
 41
0.8
  7
GREEKS
 72
     1
 11
369.3261519038557
 21
88.14901428913959
 31
0.0
100
AcDbText
  0
TEXT
  5
93
330
1E
100
AcDbEntity
  8
TEXT
 62
     1
100
AcDbText
 10
150.5006306481887
 20
88.14901428913959
 30
0.0
 40
7.0
  1
1:2
 41
0.8
  7
GREEKS
100
AcDbText
  0
TEXT
  5
94
330
1E
100
AcDbEntity
  8
TEXT
100
AcDbText
 10
160.398997108236
 20
63.10765040825732
 30
0.0
 40
4.0
  1
29.08.
 41
0.8
  7
GREEKS
 72
     1
 11
167.4085209177598
 21
63.10765040825732
 31
0.0
100
AcDbText
  0
TEXT
  5
95
330
1E
100
AcDbEntity
  8
TEXT
 62
     1
100
AcDbText
 10
226.8935731057402
 20
87.41748789253779
 30
0.0
 40
7.0
  1
Anschlußstück DN150
 41
0.8
  7
GREEKS
100
AcDbText
  0
TEXT
  5
96
330
1E
100
AcDbEntity
  8
TEXT
100
AcDbText
 10
225.1296391125315
 20
71.50334417585288
 30
0.0
 40
5.0
  1
zum Anschluß an Kunststoff-
 41
0.8
  7
GREEKS
100
AcDbText
  0
TEXT
  5
97
330
1E
100
AcDbEntity
  8
TEXT
100
AcDbText
 10
225.1296391125315
 20
62.11580706774856
 30
0.0
 40
5.0
  1
rohrmuffe DN200
 41
0.8
  7
GREEKS
100
AcDbText
  0
TEXT
  5
98
330
1E
100
AcDbEntity
  8
TEXT
100
AcDbText
 10
225.1296391125315
 20
51.64011943042158
 30
0.0
 40
5.0
  1
EDV-Art.Nr. 00672.150X
 41
0.8
  7
GREEKS
100
AcDbText
  0
TEXT
  5
99
330
1E
100
AcDbEntity
  8
TEXT
100
AcDbText
 10
224.9837501577827
 20
42.62974153022632
 30
0.0
 40
4.0
  1
00672150W.DWG
 41
0.8
  7
GREEKS
100
AcDbText
  0
TEXT
  5
9A
330
1E
100
AcDbEntity
  8
TEXT
100
AcDbText
 10
182.626132208084
 20
90.76363841023022
 30
0.0
 40
4.0
  1
DIN EN1123-2
 41
0.8
  7
GREEKS
 72
     1
 11
199.6166083985602
 21
90.76363841023022
 31
0.0
100
AcDbText
  0
INSERT
  5
9B
330
1E
100
AcDbEntity
  8
STEMPEL
100
AcDbBlockReference
  2
LOGO
 10
140.9955485457794
 20
45.02105276448322
 30
0.0
 41
2.0
 42
2.0
 43
2.0
  0
TEXT
  5
118
330
1E
100
AcDbEntity
  8
BEM
100
AcDbText
 10
417.3022923857165
 20
10.16790107998849
 30
0.0
 40
4.0
  1
Diese Zeichnung ist urheberrechtlich geschützt und bleibt unser Eigentum. Sie darf weder ganz noch teilweise verfielfältigt und nicht an Dritte weitergegeben werden.
 50
90.0
 41
0.8
  7
GREEKS
100
AcDbText
  0
LINE
  5
135
330
1E
100
AcDbEntity
  8
MITTEL
100
AcDbLine
 10
225.0
 20
543.2845411065667
 30
0.0
 11
224.9999999999999
 21
443.3849048312006
 31
0.0
  0
LINE
  5
137
102
{ACAD_REACTORS
330
44D
102
}
330
1E
100
AcDbEntity
  8
STEMPEL
100
AcDbLine
 10
323.6987475759867
 20
218.2845411065669
 30
0.0
 11
126.301252424013
 21
218.2845411065669
 31
0.0
  0
LINE
  5
167
102
{ACAD_REACTORS
330
470
102
}
330
1E
100
AcDbEntity
  8
STEMPEL
  6
Continuous
100
AcDbLine
 10
306.9999999999999
 20
481.7845411065667
 30
0.0
 11
306.9999999999999
 21
466.7255126146338
 31
0.0
  0
LINE
  5
168
102
{ACAD_REACTORS
330
470
102
}
330
1E
100
AcDbEntity
  8
STEMPEL
  6
Continuous
100
AcDbLine
 10
309.4999999999999
 20
481.7845411065667
 30
0.0
 11
309.4999999999999
 21
466.7255126146338
 31
0.0
  0
LINE
  5
169
330
1E
100
AcDbEntity
  8
STEMPEL
  6
Continuous
100
AcDbLine
 10
140.4999999999999
 20
481.7845411065667
 30
0.0
 11
140.4999999999999
 21
466.7255126146338
 31
0.0
  0
LINE
  5
16D
330
1E
100
AcDbEntity
  8
HILF
  6
Continuous
100
AcDbLine
 10
147.4289189427565
 20
454.4918825961325
 30
0.0
 11
299.9724707144381
 21
454.4918825961325
 31
0.0
  0
LINE
  5
16E
330
1E
100
AcDbEntity
  8
HILF
  6
Continuous
100
AcDbLine
 10
143.7081405109817
 20
462.094001753463
 30
0.0
 11
303.6469793423242
 21
462.094001753463
 31
0.0
  0
ARC
  5
16F
330
1E
100
AcDbEntity
  8
STEMPEL
  6
Continuous
100
AcDbCircle
 10
135.4999999999999
 20
450.7567931919625
 30
0.0
 40
10.0
100
AcDbArc
 50
0.0
 51
34.77194403194856
  0
ARC
  5
171
330
1E
100
AcDbEntity
  8
STEMPEL
  6
Continuous
100
AcDbCircle
 10
158.4999999999999
 20
466.7255126146338
 30
0.0
 40
18.0
100
AcDbArc
 50
180.0
 51
214.7719440319486
  0
LINE
  5
172
330
1E
100
AcDbEntity
  8
STEMPEL
  6
Continuous
100
AcDbLine
 10
145.4999999999999
 20
450.7567931919625
 30
0.0
 11
145.4999999999999
 21
421.4367634147577
 31
0.0
  0
ARC
  5
176
102
{ACAD_REACTORS
330
470
102
}
330
1E
100
AcDbEntity
  8
STEMPEL
  6
Continuous
100
AcDbCircle
 10
314.4999999999999
 20
450.7567931919625
 30
0.0
 40
12.5
100
AcDbArc
 50
145.2280559680514
 51
180.0
  0
ARC
  5
177
102
{ACAD_REACTORS
330
470
102
}
330
1E
100
AcDbEntity
  8
STEMPEL
  6
Continuous
100
AcDbCircle
 10
314.4999999999999
 20
450.7567931919625
 30
0.0
 40
10.0
100
AcDbArc
 50
145.2280559680514
 51
180.0
  0
ARC
  5
178
102
{ACAD_REACTORS
330
470
102
}
330
1E
100
AcDbEntity
  8
STEMPEL
  6
Continuous
100
AcDbCircle
 10
291.4999999999999
 20
466.7255126146338
 30
0.0
 40
18.0
100
AcDbArc
 50
325.2280559680514
 51
0.0
  0
LINE
  5
179
102
{ACAD_REACTORS
330
470
102
}
330
1E
100
AcDbEntity
  8
STEMPEL
  6
Continuous
100
AcDbLine
 10
301.9999999999999
 20
450.7567931919625
 30
0.0
 11
302.0
 21
421.4367634147577
 31
0.0
  0
LINE
  5
17A
102
{ACAD_REACTORS
330
470
102
}
330
1E
100
AcDbEntity
  8
STEMPEL
  6
Continuous
100
AcDbLine
 10
304.4999999999999
 20
450.7567931919625
 30
0.0
 11
304.4999999999999
 21
421.4367634147577
 31
0.0
  0
ARC
  5
17B
102
{ACAD_REACTORS
330
470
102
}
330
1E
100
AcDbEntity
  8
STEMPEL
  6
Continuous
100
AcDbCircle
 10
291.4999999999999
 20
466.7255126146338
 30
0.0
 40
15.5
100
AcDbArc
 50
325.2280559680514
 51
0.0
  0
LINE
  5
17C
102
{ACAD_REACTORS
330
470
102
}
330
1E
100
AcDbEntity
  8
STEMPEL
  6
Continuous
100
AcDbLine
 10
311.758444797406
 20
538.2845411065668
 30
0.0
 11
138.2415552025937
 21
538.2845411065668
 31
0.0
  0
LINE
  5
17D
330
1E
100
AcDbEntity
  8
HILF
  6
Continuous
100
AcDbLine
 10
142.3960590299523
 20
486.7238563502671
 30
0.0
 11
305.0366261455821
 21
486.7238563502671
 31
0.0
  0
ARC
  5
17E
330
1E
100
AcDbEntity
  8
STEMPEL
  6
Continuous
100
AcDbCircle
 10
169.4999999999999
 20
522.5014368886329
 30
0.0
 40
35.0
100
AcDbArc
 50
155.0000000000072
 51
180.0
  0
ARC
  5
180
330
1E
100
AcDbEntity
  8
STEMPEL
  6
Continuous
100
AcDbCircle
 10
169.4999999999999
 20
506.2795411065668
 30
0.0
 40
35.00004740563918
100
AcDbArc
 50
179.9056985509081
 51
207.5271836205513
  0
LINE
  5
182
330
1E
100
AcDbEntity
  8
STEMPEL
  6
Continuous
100
AcDbLine
 10
134.4999999999999
 20
522.5014368886329
 30
0.0
 11
134.4999999999999
 21
506.3371466357438
 31
0.0
  0
ARC
  5
183
330
1E
100
AcDbEntity
  8
STEMPEL
  6
Continuous
100
AcDbCircle
 10
122.4999999999999
 20
481.7845411065667
 30
0.0
 40
18.0
100
AcDbArc
 50
0.0
 51
27.52718362055122
  0
LINE
  5
187
330
1E
100
AcDbEntity
  8
STEMPEL
  6
Continuous
100
AcDbLine
 10
138.2415552025937
 20
538.2845411065668
 30
0.0
 11
137.7792274537171
 21
537.2930760495571
 31
0.0
  0
ARC
  5
188
102
{ACAD_REACTORS
330
470
102
}
330
1E
100
AcDbEntity
  8
STEMPEL
  6
Continuous
100
AcDbCircle
 10
280.4999999999999
 20
522.5014368886329
 30
0.0
 40
32.5
100
AcDbArc
 50
0.0
 51
24.99999999998912
  0
ARC
  5
189
102
{ACAD_REACTORS
330
470
102
}
330
1E
100
AcDbEntity
  8
STEMPEL
  6
Continuous
100
AcDbCircle
 10
280.4999999999999
 20
522.5014368886329
 30
0.0
 40
35.0
100
AcDbArc
 50
0.0
 51
24.99999999998912
  0
ARC
  5
18A
102
{ACAD_REACTORS
330
470
102
}
330
1E
100
AcDbEntity
  8
STEMPEL
  6
Continuous
100
AcDbCircle
 10
280.4999999999999
 20
506.2795411065668
 30
0.0
 40
35.00004740563918
100
AcDbArc
 50
332.4728163794488
 51
0.0943014490918224
  0
ARC
  5
18B
102
{ACAD_REACTORS
330
470
102
}
330
1E
100
AcDbEntity
  8
STEMPEL
  6
Continuous
100
AcDbCircle
 10
280.5019723202418
 20
506.2818426258488
 30
0.0
 40
32.5
100
AcDbArc
 50
332.6928769931986
 51
0.6312288822648262
  0
ARC
  5
18C
102
{ACAD_REACTORS
330
470
102
}
330
1E
100
AcDbEntity
  8
STEMPEL
  6
Continuous
100
AcDbCircle
 10
327.4999999999999
 20
481.7845411065667
 30
0.0
 40
20.5
100
AcDbArc
 50
152.1156863126267
 51
180.0
  0
ARC
  5
18D
102
{ACAD_REACTORS
330
470
102
}
330
1E
100
AcDbEntity
  8
STEMPEL
  6
Continuous
100
AcDbCircle
 10
327.4999999999999
 20
481.7845411065667
 30
0.0
 40
18.0
100
AcDbArc
 50
152.4728163794488
 51
180.0
  0
LINE
  5
18E
102
{ACAD_REACTORS
330
470
102
}
330
1E
100
AcDbEntity
  8
STEMPEL
  6
Continuous
100
AcDbLine
 10
312.9999999999999
 20
522.5014368886329
 30
0.0
 11
312.9999999999999
 21
506.6398886084875
 31
0.0
  0
LINE
  5
18F
102
{ACAD_REACTORS
330
470
102
}
330
1E
100
AcDbEntity
  8
STEMPEL
  6
Continuous
100
AcDbLine
 10
315.4999999999999
 20
522.5014368886329
 30
0.0
 11
315.4999999999999
 21
506.3371466357438
 31
0.0
  0
LINE
  5
190
102
{ACAD_REACTORS
330
470
102
}
330
1E
100
AcDbEntity
  8
STEMPEL
  6
Continuous
100
AcDbLine
 10
308.9999999999999
 20
538.2845411065668
 30
0.0
 11
309.9550030786911
 21
536.2365303952056
 31
0.0
  0
LINE
  5
191
102
{ACAD_REACTORS
330
470
102
}
330
1E
100
AcDbEntity
  8
STEMPEL
  6
Continuous
100
AcDbLine
 10
311.7584447974061
 20
538.2845411065668
 30
0.0
 11
312.2207725462827
 21
537.2930760495571
 31
0.0
  0
LINE
  5
19A
102
{ACAD_REACTORS
330
44D
330
470
102
}
330
1E
100
AcDbEntity
  8
STEMPEL
  6
Continuous
100
AcDbLine
 10
313.4999999999999
 20
403.2845411065667
 30
0.0
 11
136.4999999999999
 21
403.2845411065668
 31
0.0
  0
LINE
  5
19F
330
1E
100
AcDbEntity
  8
HILF
  6
Continuous
100
AcDbLine
 10
299.834956716063
 20
418.2845411065667
 30
0.0
 11
147.5960115128806
 21
418.2845411065668
 31
0.0
  0
ARC
  5
1A7
102
{ACAD_REACTORS
330
470
102
}
330
1E
100
AcDbEntity
  8
STEMPEL
100
AcDbCircle
 10
314.4999999999999
 20
421.4367634147577
 30
0.0
 40
10.0
100
AcDbArc
 50
179.9999999999999
 51
210.2180948472808
  0
LINE
  5
1AC
102
{ACAD_REACTORS
330
44D
102
}
330
1E
100
AcDbEntity
  8
STEMPEL
100
AcDbLine
 10
324.9999999999998
 20
348.2845411065668
 30
0.0
 11
324.9999999999999
 21
233.1579243721322
 31
0.0
  0
LINE
  5
1C5
102
{ACAD_REACTORS
330
44D
102
}
330
1E
100
AcDbEntity
  8
STEMPEL
100
AcDbLine
 10
322.1
 20
348.2845411065668
 30
0.0
 11
322.1
 21
233.2845411065669
 31
0.0
  0
LINE
  5
1DB
330
1E
100
AcDbEntity
  8
HILF
100
AcDbLine
 10
319.1889224711242
 20
233.2845411065669
 30
0.0
 11
127.8999999999999
 21
233.284541106567
 31
0.0
  0
LINE
  5
1DD
330
1E
100
AcDbEntity
  8
STEMPEL
100
AcDbLine
 10
124.9999999999999
 20
233.1579243721323
 30
0.0
 11
126.301252424013
 21
218.2845411065669
 31
0.0
  0
LINE
  5
1E0
102
{ACAD_REACTORS
330
44D
102
}
330
1E
100
AcDbEntity
  8
STEMPEL
100
AcDbLine
 10
324.9999999999999
 20
233.1579243721322
 30
0.0
 11
323.6987475759867
 21
218.2845411065669
 31
0.0
  0
LINE
  5
1E1
102
{ACAD_REACTORS
330
44D
102
}
330
1E
100
AcDbEntity
  8
STEMPEL
100
AcDbLine
 10
322.0999999999999
 20
233.2845411065669
 30
0.0
 11
320.7876700471111
 21
218.2845411065669
 31
0.0
  0
DIMENSION
  5
220
330
1E
100
AcDbEntity
  8
BEM
100
AcDbDimension
  2
*D3
 10
324.9999999999999
 20
198.2076789489576
 30
0.0
 11
224.9999999999999
 21
204.7076789489576
 31
0.0
 70
    32
  1
%%c<>
 71
     5
 42
199.9999999999999
  3
Standard
100
AcDbAlignedDimension
 13
124.9999999999999
 23
233.1579243721323
 33
0.0
 14
324.9999999999999
 24
233.1579243721322
 34
0.0
100
AcDbRotatedDimension
1001
ACAD
1000
DSTYLE
1002
{
1070
    40
1040
2.0
1070
    41
1040
3.5
1070
    42
1040
1.0
1070
    43
1040
7.0
1070
    44
1040
1.0
1070
    73
1070
     0
1070
    74
1070
     0
1070
    77
1070
     1
1070
    78
1070
     8
1070
    79
1070
     2
1070
   140
1040
3.5
1070
   141
1040
1.5
1070
   146
1040
0.5142857142857144
1070
   147
1040
1.5
1070
   172
1070
     1
1070
   178
1070
     1
1070
   179
1070
     2
1070
   271
1070
     2
1070
   272
1070
     2
1070
   284
1070
     8
1070
   285
1070
     8
1070
   286
1070
     8
1002
}
  0
DIMENSION
  5
22D
330
1E
100
AcDbEntity
  8
BEM
100
AcDbDimension
  2
*D4
 10
304.4999999999999
 20
431.295945987121
 30
0.0
 11
225.0
 21
437.7959459871211
 31
0.0
 70
    32
  1
%%c<>
 71
     5
 42
159.0
  3
Standard
100
AcDbAlignedDimension
 13
145.4999999999999
 23
421.4367634147577
 33
0.0
 14
304.4999999999999
 24
421.4367634147577
 34
0.0
100
AcDbRotatedDimension
1001
ACAD
1000
DSTYLE
1002
{
1070
    40
1040
2.0
1070
    41
1040
3.5
1070
    42
1040
1.0
1070
    43
1040
7.0
1070
    44
1040
1.0
1070
    73
1070
     0
1070
    74
1070
     0
1070
    77
1070
     1
1070
    78
1070
     8
1070
    79
1070
     2
1070
   140
1040
3.5
1070
   141
1040
1.5
1070
   146
1040
0.5142857142857144
1070
   147
1040
1.5
1070
   172
1070
     1
1070
   178
1070
     1
1070
   179
1070
     2
1070
   271
1070
     2
1070
   272
1070
     2
1070
   284
1070
     8
1070
   285
1070
     8
1070
   286
1070
     8
1002
}
  0
LINE
  5
2A1
330
1E
100
AcDbEntity
  8
MITTEL
100
AcDbLine
 10
224.9999999999999
 20
425.9924205286556
 30
0.0
 11
224.9999999999999
 21
373.7476347941854
 31
0.0
  0
DIMENSION
  5
31A
330
1E
100
AcDbEntity
  8
BEM
100
AcDbDimension
  2
*D7
 10
93.70325961523326
 20
538.2845411065668
 30
0.0
 11
87.20325961523318
 21
378.2845411065669
 31
0.0
 70
    32
 71
     5
 42
319.9999999999999
  3
Standard
100
AcDbAlignedDimension
 13
126.301252424013
 23
218.2845411065669
 33
0.0
 14
138.2415552025937
 24
538.2845411065668
 34
0.0
 50
90.0
100
AcDbRotatedDimension
1001
ACAD
1000
DSTYLE
1002
{
1070
    40
1040
2.0
1070
    41
1040
3.5
1070
    42
1040
1.0
1070
    43
1040
7.0
1070
    44
1040
1.0
1070
    73
1070
     0
1070
    74
1070
     0
1070
    77
1070
     1
1070
    78
1070
     8
1070
    79
1070
     2
1070
   140
1040
3.5
1070
   141
1040
1.5
1070
   146
1040
0.5142857142857144
1070
   147
1040
1.5
1070
   172
1070
     1
1070
   178
1070
     1
1070
   179
1070
     2
1070
   271
1070
     2
1070
   272
1070
     2
1070
   284
1070
     8
1070
   285
1070
     8
1070
   286
1070
     8
1002
}
  0
ARC
  5
35C
102
{ACAD_REACTORS
330
3F6
102
}
330
1E
100
AcDbEntity
  8
SCHRAFF
100
AcDbCircle
 10
313.015976784388
 20
402.3036719834039
 30
0.0
 40
5.047264143547167
100
AcDbArc
 50
326.152569145812
 51
109.8089909889825
  0
ARC
  5
36E
330
1E
100
AcDbEntity
  8
SCHRAFF
100
AcDbCircle
 10
136.2012921237498
 20
403.2845411065667
 30
0.0
 40
5.0
100
AcDbArc
 50
306.8698976458459
 51
53.13010235415781
  0
ARC
  5
36F
330
1E
100
AcDbEntity
  8
SCHRAFF
100
AcDbCircle
 10
141.2012921237498
 20
403.2845411065667
 30
0.0
 40
5.0
100
AcDbArc
 50
306.8698976458459
 51
53.13010235415781
  0
ARC
  5
370
330
1E
100
AcDbEntity
  8
SCHRAFF
100
AcDbCircle
 10
146.2012921237499
 20
403.2845411065667
 30
0.0
 40
5.0
100
AcDbArc
 50
306.8698976458459
 51
53.13010235415781
  0
ARC
  5
371
330
1E
100
AcDbEntity
  8
SCHRAFF
100
AcDbCircle
 10
151.2012921237499
 20
403.2845411065667
 30
0.0
 40
5.0
100
AcDbArc
 50
306.8698976458459
 51
53.13010235415781
  0
ARC
  5
372
330
1E
100
AcDbEntity
  8
SCHRAFF
100
AcDbCircle
 10
156.2012921237499
 20
403.2845411065667
 30
0.0
 40
5.0
100
AcDbArc
 50
306.8698976458459
 51
53.13010235415781
  0
ARC
  5
373
330
1E
100
AcDbEntity
  8
SCHRAFF
100
AcDbCircle
 10
161.2012921237498
 20
403.2845411065667
 30
0.0
 40
5.0
100
AcDbArc
 50
306.869897645844
 51
53.13010235415781
  0
ARC
  5
374
330
1E
100
AcDbEntity
  8
SCHRAFF
100
AcDbCircle
 10
166.2012921237498
 20
403.2845411065667
 30
0.0
 40
5.0
100
AcDbArc
 50
306.869897645844
 51
53.13010235415781
  0
ARC
  5
375
330
1E
100
AcDbEntity
  8
SCHRAFF
100
AcDbCircle
 10
171.2012921237499
 20
403.2845411065667
 30
0.0
 40
5.0
100
AcDbArc
 50
306.869897645844
 51
53.13010235415781
  0
ARC
  5
376
330
1E
100
AcDbEntity
  8
SCHRAFF
100
AcDbCircle
 10
176.2012921237499
 20
403.2845411065667
 30
0.0
 40
5.0
100
AcDbArc
 50
306.869897645844
 51
53.13010235415781
  0
ARC
  5
377
330
1E
100
AcDbEntity
  8
SCHRAFF
100
AcDbCircle
 10
181.2012921237499
 20
403.2845411065667
 30
0.0
 40
5.0
100
AcDbArc
 50
306.869897645844
 51
53.13010235415781
  0
ARC
  5
378
330
1E
100
AcDbEntity
  8
SCHRAFF
100
AcDbCircle
 10
186.2012921237498
 20
403.2845411065667
 30
0.0
 40
5.0
100
AcDbArc
 50
306.869897645844
 51
53.13010235415781
  0
ARC
  5
379
330
1E
100
AcDbEntity
  8
SCHRAFF
100
AcDbCircle
 10
191.2012921237499
 20
403.2845411065667
 30
0.0
 40
5.0
100
AcDbArc
 50
306.869897645844
 51
53.13010235415781
  0
ARC
  5
37A
330
1E
100
AcDbEntity
  8
SCHRAFF
100
AcDbCircle
 10
196.2012921237499
 20
403.2845411065667
 30
0.0
 40
5.0
100
AcDbArc
 50
306.869897645844
 51
53.13010235415597
  0
ARC
  5
37B
330
1E
100
AcDbEntity
  8
SCHRAFF
100
AcDbCircle
 10
201.2012921237499
 20
403.2845411065667
 30
0.0
 40
5.0
100
AcDbArc
 50
306.869897645844
 51
53.13010235415597
  0
ARC
  5
37C
330
1E
100
AcDbEntity
  8
SCHRAFF
100
AcDbCircle
 10
206.2012921237499
 20
403.2845411065667
 30
0.0
 40
5.0
100
AcDbArc
 50
306.869897645844
 51
53.13010235415597
  0
ARC
  5
37D
330
1E
100
AcDbEntity
  8
SCHRAFF
100
AcDbCircle
 10
211.2012921237499
 20
403.2845411065667
 30
0.0
 40
5.0
100
AcDbArc
 50
306.869897645844
 51
53.13010235415597
  0
ARC
  5
37E
330
1E
100
AcDbEntity
  8
SCHRAFF
100
AcDbCircle
 10
216.2012921237499
 20
403.2845411065667
 30
0.0
 40
5.0
100
AcDbArc
 50
306.869897645844
 51
53.13010235415597
  0
TEXT
  5
37F
330
1E
100
AcDbEntity
  8
TEXT
 62
     1
100
AcDbText
 10
203.4664042838114
 20
500.1730686532511
 30
0.0
 40
7.0
  1
DN150
 50
90.0
 41
0.8
  7
GREEKS
100
AcDbText
  0
TEXT
  5
380
330
1E
100
AcDbEntity
  8
TEXT
 62
     1
100
AcDbText
 10
203.4664042838114
 20
276.2540665114628
 30
0.0
 40
7.0
  1
DN200
 50
90.0
 41
0.8
  7
GREEKS
100
AcDbText
  0
TEXT
  5
381
330
1E
100
AcDbEntity
  8
TEXT
 62
     1
100
AcDbText
 10
226.8935731057402
 20
170.0400083799347
 30
0.0
 40
7.0
  1
Rohrende leicht eingezogen
 41
0.8
  7
GREEKS
100
AcDbText
  0
TEXT
  5
391
330
1E
100
AcDbEntity
  8
TEXT
 62
     1
100
AcDbText
 10
196.4427278508053
 20
129.0783465745483
 30
0.0
 40
7.0
  1
feuerverzinkt und innen beschichtet
 41
0.8
  7
GREEKS
100
AcDbText
  0
TEXT
  5
392
330
1E
100
AcDbEntity
  8
TEXT
 62
     1
100
AcDbText
 10
148.4930104134075
 20
139.8004583895517
 30
0.0
 40
7.0
  1
Werkstoff: E195 EN10305, P235 TR1 EN10217-1
 41
0.8
  7
GREEKS
100
AcDbText
  0
ARC
  5
3C6
102
{ACAD_REACTORS
330
44D
102
}
330
1E
100
AcDbEntity
  8
STEMPEL
100
AcDbCircle
 10
319.4999999999999
 20
375.6925935446786
 30
0.0
 40
15.0
100
AcDbArc
 50
333.717788472913
 51
44.3563093095152
  0
ARC
  5
3C8
102
{ACAD_REACTORS
330
44D
102
}
330
1E
100
AcDbEntity
  8
STEMPEL
100
AcDbCircle
 10
344.9999999999998
 20
348.2845411065668
 30
0.0
 40
20.0
100
AcDbArc
 50
153.717788472913
 51
180.0
  0
LINE
  5
3CC
102
{ACAD_REACTORS
330
44D
102
}
330
1E
100
AcDbEntity
  8
STEMPEL
100
AcDbLine
 10
332.9493591951764
 20
369.0507009500094
 30
0.0
 11
327.0675210730979
 21
357.1403978994592
 31
0.0
  0
ARC
  5
3CD
102
{ACAD_REACTORS
330
44D
102
}
330
1E
100
AcDbEntity
  8
STEMPEL
100
AcDbCircle
 10
344.9999999999998
 20
348.2845411065668
 30
0.0
 40
22.9
100
AcDbArc
 50
153.717788472913
 51
180.0
  0
LINE
  5
3CE
102
{ACAD_REACTORS
330
44D
102
}
330
1E
100
AcDbEntity
  8
STEMPEL
100
AcDbLine
 10
330.3491497507756
 20
370.3348001849788
 30
0.0
 11
324.4673116286971
 21
358.4244971344286
 31
0.0
  0
LINE
  5
3D2
330
1E
100
AcDbEntity
  8
STEMPEL
100
AcDbLine
 10
125.0
 20
348.2845411065668
 30
0.0
 11
124.9999999999999
 21
233.1579243721322
 31
0.0
  0
ARC
  5
3D3
330
1E
100
AcDbEntity
  8
STEMPEL
100
AcDbCircle
 10
105.0
 20
348.2845411065668
 30
0.0
 40
20.0
100
AcDbArc
 50
0.000000000000007
 51
26.28221152708699
  0
LINE
  5
3D5
330
1E
100
AcDbEntity
  8
STEMPEL
100
AcDbLine
 10
117.0506408048234
 20
369.0507009500094
 30
0.0
 11
122.932478926902
 21
357.1403978994592
 31
0.0
  0
LINE
  5
3DA
102
{ACAD_REACTORS
330
3F6
330
44D
102
}
330
1E
100
AcDbEntity
  8
STEMPEL
100
AcDbLine
 10
313.4999999999999
 20
403.2845411065667
 30
0.0
 11
330.2250899642835
 21
386.1793683233236
 31
0.0
  0
ARC
  5
3DC
102
{ACAD_REACTORS
330
44D
102
}
330
1E
100
AcDbEntity
  8
STEMPEL
100
AcDbCircle
 10
319.4999999999999
 20
375.6925935446786
 30
0.0
 40
12.1
100
AcDbArc
 50
333.717788472913
 51
44.3563093095152
  0
LINE
  5
3DD
102
{ACAD_REACTORS
330
44D
102
}
330
1E
100
AcDbEntity
  8
STEMPEL
100
AcDbLine
 10
309.4440899661576
 20
403.2845411065667
 30
0.0
 11
328.1515725711886
 21
384.1519251994522
 31
0.0
  0
LINE
  5
3DE
102
{ACAD_REACTORS
330
3F6
102
}
330
1E
100
AcDbEntity
  8
STEMPEL
100
AcDbLine
 10
136.4999999999999
 20
403.2845411065667
 30
0.0
 11
119.7749100357163
 21
386.1793683233236
 31
0.0
  0
ARC
  5
3DF
330
1E
100
AcDbEntity
  8
STEMPEL
100
AcDbCircle
 10
130.4999999999999
 20
375.6925935446786
 30
0.0
 40
15.0
100
AcDbArc
 50
135.6436906904848
 51
206.282211527087
  0
LINE
  5
3E1
102
{ACAD_REACTORS
330
3F6
330
470
102
}
330
1E
100
AcDbEntity
  8
STEMPEL
100
AcDbLine
 10
313.4999999999999
 20
403.2845411065667
 30
0.0
 11
305.8588410221933
 21
416.4038346928035
 31
0.0
  0
LINE
  5
3E2
102
{ACAD_REACTORS
330
470
102
}
330
1E
100
AcDbEntity
  8
STEMPEL
100
AcDbLine
 10
310.6068695687455
 20
403.2845411065667
 30
0.0
 11
303.6985512777417
 21
415.1456025123149
 31
0.0
  0
ARC
  5
3E3
102
{ACAD_REACTORS
330
470
102
}
330
1E
100
AcDbEntity
  8
STEMPEL
100
AcDbCircle
 10
314.4999999999999
 20
421.4367634147577
 30
0.0
 40
12.5
100
AcDbArc
 50
179.9999999999999
 51
210.2180948472808
  0
LINE
  5
3E5
102
{ACAD_REACTORS
330
3F6
102
}
330
1E
100
AcDbEntity
  8
STEMPEL
100
AcDbLine
 10
136.4999999999999
 20
403.2845411065667
 30
0.0
 11
144.1411589778065
 21
416.4038346928035
 31
0.0
  0
ARC
  5
3E6
102
{ACAD_REACTORS
330
3F6
102
}
330
1E
100
AcDbEntity
  8
SCHRAFF
100
AcDbCircle
 10
136.9840232156118
 20
402.3036719834039
 30
0.0
 40
5.047264143547167
100
AcDbArc
 50
70.19100901101751
 51
213.847430854188
  0
ARC
  5
3E7
330
1E
100
AcDbEntity
  8
STEMPEL
100
AcDbCircle
 10
135.4999999999999
 20
421.4367634147577
 30
0.0
 40
10.0
100
AcDbArc
 50
329.7819051527192
 51
0.0000000000000579
  0
HATCH
  5
3F6
330
1E
100
AcDbEntity
  8
SCHRAFF
100
AcDbHatch
 10
0.0
 20
0.0
 30
0.0
210
0.0
220
0.0
230
1.0
  2
_USER
 70
     0
 71
     1
 91
        2
 92
        7
 72
     1
 73
     1
 93
        3
 10
313.4999999999997
 20
403.284541106567
 42
0.0
 10
317.2078491213818
 20
399.4924299722845
 42
0.7242545324024943
 10
311.305531842045
 20
407.0522774033088
 42
0.0
 97
        3
330
3E1
330
3DA
330
35C
 92
        7
 72
     1
 73
     1
 93
        3
 10
136.4999999999999
 20
403.2845411065667
 42
0.0
 10
138.6944681579548
 20
407.0522774033088
 42
0.7242545324025005
 10
132.792150878618
 20
399.4924299722844
 42
0.0
 97
        3
330
3E5
330
3E6
330
3DE
 75
     0
 76
     0
 52
0.0
 41
0.1
 77
     0
 78
     1
 53
0.0
 43
0.0
 44
0.0
 45
0.0
 46
0.1
 79
     0
 47
0.2419949062649441
 98
        2
 10
313.5515746672666
 20
404.0467219416147
 10
133.9300639038058
 20
403.0787415961415
  0
DIMENSION
  5
416
330
1E
100
AcDbEntity
  8
BEM
100
AcDbDimension
  2
*D9
 10
334.4999999999999
 20
359.7335863408791
 30
0.0
 11
224.9999999999999
 21
366.2335863408791
 31
0.0
 70
    32
  1
%%c<>
 71
     5
 42
218.9999999999999
  3
Standard
100
AcDbAlignedDimension
 13
115.4999999999999
 23
375.6925935446786
 33
0.0
 14
334.4999999999999
 24
375.6925935446786
 34
0.0
100
AcDbRotatedDimension
1001
ACAD
1000
DSTYLE
1002
{
1070
    40
1040
2.0
1070
    41
1040
3.5
1070
    42
1040
1.0
1070
    43
1040
7.0
1070
    44
1040
1.0
1070
    73
1070
     0
1070
    74
1070
     0
1070
    77
1070
     1
1070
    78
1070
     8
1070
    79
1070
     2
1070
   140
1040
3.5
1070
   141
1040
1.5
1070
   146
1040
0.5142857142857144
1070
   147
1040
1.5
1070
   172
1070
     1
1070
   178
1070
     1
1070
   179
1070
     2
1070
   271
1070
     2
1070
   272
1070
     2
1070
   284
1070
     8
1070
   285
1070
     8
1070
   286
1070
     8
1002
}
  0
HATCH
  5
44D
330
1E
100
AcDbEntity
  8
SCHRAFF
100
AcDbHatch
 10
0.0
 20
0.0
 30
0.0
210
0.0
220
0.0
230
1.0
  2
_USER
 70
     0
 71
     1
 91
        1
 92
        7
 72
     1
 73
     1
 93
       14
 10
324.9999999999998
 20
348.2845411065668
 42
-0.1151831489857945
 10
327.0675210730979
 20
357.1403978994592
 42
0.0
 10
332.9493591951764
 20
369.0507009500094
 42
0.3183645353952705
 10
330.2250899642835
 20
386.1793683233236
 42
0.0
 10
313.5
 20
403.2845411065667
 42
0.0
 10
309.4440899661576
 20
403.2845411065667
 42
0.0
 10
328.1515725711886
 20
384.1519251994522
 42
-0.3183645353952706
 10
330.3491497507756
 20
370.3348001849787
 42
0.0
 10
324.4673116286971
 20
358.4244971344286
 42
0.1151831489857938
 10
322.1
 20
348.2845411065669
 42
0.0
 10
322.0999999999999
 20
233.2845411065668
 42
0.0
 10
320.787670047111
 20
218.2845411065669
 42
0.0
 10
323.6987475759867
 20
218.284541106567
 42
0.0
 10
324.9999999999999
 20
233.1579243721326
 42
0.0
 97
       14
330
3C8
330
3CC
330
3C6
330
3DA
330
19A
330
3DD
330
3DC
330
3CE
330
3CD
330
1C5
330
1E1
330
137
330
1E0
330
1AC
 75
     0
 76
     0
 52
45.0
 41
3.0
 77
     0
 78
     1
 53
45.0
 43
0.0
 44
0.0
 45
-2.121320343559642
 46
2.121320343559642
 79
     0
 47
0.5648370818981123
 98
        1
 10
323.5744630066786
 20
316.6192184087338
  0
HATCH
  5
470
330
1E
100
AcDbEntity
  8
SCHRAFF
100
AcDbHatch
 10
0.0
 20
0.0
 30
0.0
210
0.0
220
0.0
230
1.0
  2
_USER
 70
     0
 71
     1
 91
        1
 92
        7
 72
     1
 73
     1
 93
       24
 10
306.9999999999999
 20
466.7255126146338
 42
-0.1528962216020397
 10
304.2321428571427
 20
457.8856857913693
 42
0.1528962216020385
 10
301.9999999999999
 20
450.7567931919626
 42
0.0
 10
302.0
 20
421.4367634147577
 42
0.1326207312844468
 10
303.6985512777417
 20
415.1456025123149
 42
0.0
 10
310.6068695687455
 20
403.2845411065667
 42
0.0
 10
313.4999999999998
 20
403.2845411065667
 42
0.0
 10
305.8588410221933
 20
416.4038346928035
 42
-0.1326207312844481
 10
304.4999999999999
 20
421.4367634147577
 42
0.0
 10
304.4999999999999
 20
450.7567931919625
 42
-0.1528962216020396
 10
306.2857142857142
 20
456.459907271488
 42
0.1528962216020388
 10
309.4999999999999
 20
466.7255126146338
 42
0.0
 10
309.4999999999999
 20
481.7845411065667
 42
-0.1206909349745652
 10
311.5377501264273
 20
490.1035902693997
 42
0.1211084169870792
 10
315.4999999999999
 20
506.3371466357438
 42
0.0
 10
315.4999999999999
 20
522.5014368886329
 42
0.1095178116832397
 10
312.2207725462827
 20
537.2930760495571
 42
0.0
 10
311.758444797406
 20
538.2845411065668
 42
0.0
 10
308.9999999999999
 20
538.2845411065668
 42
0.0
 10
309.9550030786911
 20
536.2365303952056
 42
-0.1095178116832403
 10
312.9999999999999
 20
522.5014368886329
 42
0.0
 10
312.9999999999999
 20
506.6398886084875
 42
-0.1225115239700729
 10
309.3801790318681
 20
491.3721418535135
 42
0.1222722058119057
 10
306.9999999999999
 20
481.7845411065667
 42
0.0
 97
       24
330
18D
330
18A
330
18F
330
189
330
191
330
17C
330
190
330
188
330
18E
330
18B
330
18C
330
167
330
17B
330
176
330
179
330
3E3
330
3E2
330
19A
330
3E1
330
1A7
330
17A
330
177
330
178
330
168
 75
     0
 76
     0
 52
135.0
 41
3.0
 77
     0
 78
     1
 53
135.0
 43
0.0
 44
0.0
 45
-2.121320343559642
 46
-2.121320343559642
 79
     0
 47
0.5648370818981123
 98
        1
 10
307.75362738536
 20
473.6439282858832
  0
DIMENSION
  5
48C
330
1E
100
AcDbEntity
  8
BEM
100
AcDbDimension
  2
*D10
 10
108.7676131071725
 20
348.2845411065668
 30
0.0
 11
102.2676131071724
 21
283.2845411065669
 31
0.0
 70
    32
 71
     5
 42
129.9999999999999
  3
Standard
100
AcDbAlignedDimension
 13
126.3012524240132
 23
218.2845411065669
 33
0.0
 14
125.0528014544904
 24
348.2845411065668
 34
0.0
 50
90.0
100
AcDbRotatedDimension
1001
ACAD
1000
DSTYLE
1002
{
1070
    40
1040
2.0
1070
    41
1040
3.5
1070
    42
1040
1.0
1070
    43
1040
7.0
1070
    44
1040
1.0
1070
    73
1070
     0
1070
    74
1070
     0
1070
    77
1070
     1
1070
    78
1070
     8
1070
    79
1070
     2
1070
   140
1040
3.5
1070
   141
1040
1.5
1070
   146
1040
0.5142857142857144
1070
   147
1040
1.5
1070
   172
1070
     1
1070
   178
1070
     1
1070
   179
1070
     2
1070
   271
1070
     2
1070
   272
1070
     2
1070
   284
1070
     8
1070
   285
1070
     8
1070
   286
1070
     8
1002
}
  0
LINE
  5
4DD
330
1E
100
AcDbEntity
  8
MITTEL
100
AcDbLine
 10
224.9999999999999
 20
357.9588794054178
 30
0.0
 11
224.9999999999999
 21
213.2845411065669
 31
0.0
  0
LINE
  5
4DE
330
1E
100
AcDbEntity
  8
HILF
100
AcDbLine
 10
118.3999999999999
 20
375.6925935446786
 30
0.0
 11
328.6999999999999
 21
375.6925935446786
 31
0.0
  0
LINE
  5
4E3
330
1E
100
AcDbEntity
  8
HILF
100
AcDbLine
 10
319.7307641221302
 20
353.4908563245098
 30
0.0
 11
127.3003202185846
 21
353.4908563245098
 31
0.0
  0
ENDSEC
  0
SECTION
  2
OBJECTS
  0
DICTIONARY
  5
C
330
0
100
AcDbDictionary
281
     1
  3
ACAD_COLOR
350
DF
  3
ACAD_GROUP
350
D
  3
ACAD_LAYOUT
350
19
  3
ACAD_MATERIAL
350
DE
  3
ACAD_MLINESTYLE
350
16
  3
ACAD_PLOTSETTINGS
350
18
  3
ACAD_PLOTSTYLENAME
350
E
  3
AcDbVariableDictionary
350
EA
  0
DICTIONARY
  5
A0
330
1E
100
AcDbDictionary
280
     1
281
     1
  3
ACAD_LAYOUTSELFREF
360
D4
  0
DICTIONARY
  5
A2
330
1A
100
AcDbDictionary
280
     1
281
     1
  3
ACAD_LAYOUTSELFREF
360
D3
  0
DICTIONARY
  5
DF
102
{ACAD_REACTORS
330
C
102
}
330
C
100
AcDbDictionary
281
     1
  0
DICTIONARY
  5
D
102
{ACAD_REACTORS
330
C
102
}
330
C
100
AcDbDictionary
281
     1
  0
DICTIONARY
  5
19
102
{ACAD_REACTORS
330
C
102
}
330
C
100
AcDbDictionary
281
     1
  3
Layout1
350
1D
  3
Model
350
21
  0
DICTIONARY
  5
DE
102
{ACAD_REACTORS
330
C
102
}
330
C
100
AcDbDictionary
281
     1
  0
DICTIONARY
  5
16
102
{ACAD_REACTORS
330
C
102
}
330
C
100
AcDbDictionary
281
     1
  3
Standard
350
17
  0
DICTIONARY
  5
18
102
{ACAD_REACTORS
330
C
102
}
330
C
100
AcDbDictionary
281
     1
  0
ACDBDICTIONARYWDFLT
  5
E
102
{ACAD_REACTORS
330
C
102
}
330
C
100
AcDbDictionary
281
     1
  3
Normal
350
F
100
AcDbDictionaryWithDefault
340
F
  0
DICTIONARY
  5
EA
102
{ACAD_REACTORS
330
C
102
}
330
C
100
AcDbDictionary
281
     1
  3
DIMASSOC
350
EB
  3
PROJECTNAME
350
EC
  0
XRECORD
  5
D4
102
{ACAD_REACTORS
330
A0
102
}
330
A0
100
AcDbXrecord
280
     1
340
1E
  0
XRECORD
  5
D3
102
{ACAD_REACTORS
330
A2
102
}
330
A2
100
AcDbXrecord
280
     1
340
1A
  0
LAYOUT
  5
1D
102
{ACAD_REACTORS
330
19
102
}
330
19
100
AcDbPlotSettings
  1

  2
\\NT_WORK01\HP LaserJet 5000 PCL 6
  4

  6

 40
0.0
 41
0.0
 42
0.0
 43
0.0
 44
0.0
 45
0.0
 46
0.0
 47
0.0
 48
0.0
 49
0.0
140
0.0
141
0.0
142
1.0
143
1.0
 70
   688
 72
     0
 73
     0
 74
     5
  7

 75
    16
147
1.0
 76
     0
 77
     2
 78
   300
148
0.0
149
0.0
100
AcDbLayout
  1
Layout1
 70
     0
 71
     1
 10
0.0
 20
0.0
 11
12.0
 21
9.0
 12
0.0
 22
0.0
 32
0.0
 14
1.000000000000000E+20
 24
1.000000000000000E+20
 34
1.000000000000000E+20
 15
-1.000000000000000E+20
 25
-1.000000000000000E+20
 35
-1.000000000000000E+20
146
0.0
 13
0.0
 23
0.0
 33
0.0
 16
1.0
 26
0.0
 36
0.0
 17
0.0
 27
1.0
 37
0.0
 76
     0
330
1A
  0
LAYOUT
  5
21
102
{ACAD_REACTORS
330
19
102
}
330
19
100
AcDbPlotSettings
  1

  2
none_device
  4
Letter_(8.50_x_11.00_Inches)
  6

 40
6.349999904632568
 41
6.349999904632568
 42
6.350006103515625
 43
6.350006103515625
 44
215.8999938964844
 45
279.3999938964844
 46
0.0
 47
0.0
 48
0.0
 49
0.0
140
0.0
141
0.0
142
1.0
143
1.0
 70
 11952
 72
     0
 73
     1
 74
     0
  7

 75
     0
147
1.0
 76
     0
 77
     2
 78
   300
148
2300.162597494988
149
90.3962749451545
100
AcDbLayout
  1
Model
 70
     1
 71
     0
 10
0.0
 20
0.0
 11
12.0
 21
9.0
 12
0.0
 22
0.0
 32
0.0
 14
0.0
 24
0.0
 34
0.0
 15
0.0
 25
0.0
 35
0.0
146
0.0
 13
0.0
 23
0.0
 33
0.0
 16
1.0
 26
0.0
 36
0.0
 17
0.0
 27
1.0
 37
0.0
 76
     0
330
1E
  0
MLINESTYLE
  5
17
102
{ACAD_REACTORS
330
16
102
}
330
16
100
AcDbMlineStyle
  2
STANDARD
 70
     0
  3

 62
   256
 51
90.0
 52
90.0
 71
     2
 49
0.5
 62
   256
  6
BYLAYER
 49
-0.5
 62
   256
  6
BYLAYER
  0
ACDBPLACEHOLDER
  5
F
102
{ACAD_REACTORS
330
E
102
}
330
E
  0
DICTIONARYVAR
  5
EB
102
{ACAD_REACTORS
330
EA
102
}
330
EA
100
DictionaryVariables
280
     0
  1
1
  0
DICTIONARYVAR
  5
EC
102
{ACAD_REACTORS
330
EA
102
}
330
EA
100
DictionaryVariables
280
     0
  1

  0
ENDSEC
  0
EOF
