  0
SECTION
  2
HEADER
  9
$ACADVER
  1
AC1018
  9
$ACADMAINTVER
 70
     2
  9
$DWGCODEPAGE
  3
ANSI_1252
  9
$INSBASE
 10
0.0
 20
0.0
 30
0.0
  9
$EXTMIN
 10
-0.0160030003463589
 20
-0.0226328147755339
 30
-0.0000000000000129
  9
$EXTMAX
 10
420.0224367764803
 20
594.0317320124504
 30
0.0000000000000023
  9
$LIMMIN
 10
0.0
 20
0.0
  9
$LIMMAX
 10
419.9999999999999
 20
594.0
  9
$ORTHOMODE
 70
     1
  9
$REGENMODE
 70
     1
  9
$FILLMODE
 70
     1
  9
$QTEXTMODE
 70
     0
  9
$MIRRTEXT
 70
     1
  9
$LTSCALE
 40
20.0
  9
$ATTMODE
 70
     1
  9
$TEXTSIZE
 40
3.5
  9
$TRACEWID
 40
0.5
  9
$TEXTSTYLE
  7
STANDARD
  9
$CLAYER
  8
SCHRAFF
  9
$CELTYPE
  6
ByLayer
  9
$CECOLOR
 62
   256
  9
$CELTSCALE
 40
1.0
  9
$DISPSILH
 70
     0
  9
$DIMSCALE
 40
2.0
  9
$DIMASZ
 40
3.5
  9
$DIMEXO
 40
1.0
  9
$DIMDLI
 40
7.0
  9
$DIMRND
 40
0.0
  9
$DIMDLE
 40
0.0
  9
$DIMEXE
 40
1.0
  9
$DIMTP
 40
0.0
  9
$DIMTM
 40
0.0
  9
$DIMTXT
 40
3.5
  9
$DIMCEN
 40
1.5
  9
$DIMTSZ
 40
0.0
  9
$DIMTOL
 70
     0
  9
$DIMLIM
 70
     0
  9
$DIMTIH
 70
     0
  9
$DIMTOH
 70
     0
  9
$DIMSE1
 70
     0
  9
$DIMSE2
 70
     0
  9
$DIMTAD
 70
     1
  9
$DIMZIN
 70
     8
  9
$DIMBLK
  1

  9
$DIMASO
 70
     1
  9
$DIMSHO
 70
     0
  9
$DIMPOST
  1

  9
$DIMAPOST
  1

  9
$DIMALT
 70
     0
  9
$DIMALTD
 70
     2
  9
$DIMALTF
 40
25.4
  9
$DIMLFAC
 40
1.0
  9
$DIMTOFL
 70
     1
  9
$DIMTVP
 40
0.0
  9
$DIMTIX
 70
     0
  9
$DIMSOXD
 70
     0
  9
$DIMSAH
 70
     0
  9
$DIMBLK1
  1

  9
$DIMBLK2
  1

  9
$DIMSTYLE
  2
Standard
  9
$DIMCLRD
 70
     0
  9
$DIMCLRE
 70
     0
  9
$DIMCLRT
 70
     1
  9
$DIMTFAC
 40
0.5142857142857144
  9
$DIMGAP
 40
1.5
  9
$DIMJUST
 70
     0
  9
$DIMSD1
 70
     0
  9
$DIMSD2
 70
     0
  9
$DIMTOLJ
 70
     1
  9
$DIMTZIN
 70
     8
  9
$DIMALTZ
 70
     8
  9
$DIMALTTZ
 70
     8
  9
$DIMUPT
 70
     0
  9
$DIMDEC
 70
     2
  9
$DIMTDEC
 70
     2
  9
$DIMALTU
 70
     2
  9
$DIMALTTD
 70
     2
  9
$DIMTXSTY
  7
STANDARD
  9
$DIMAUNIT
 70
     0
  9
$DIMADEC
 70
     2
  9
$DIMALTRND
 40
0.0
  9
$DIMAZIN
 70
     2
  9
$DIMDSEP
 70
    46
  9
$DIMATFIT
 70
     3
  9
$DIMFRAC
 70
     0
  9
$DIMLDRBLK
  1

  9
$DIMLUNIT
 70
     2
  9
$DIMLWD
 70
    -2
  9
$DIMLWE
 70
    -2
  9
$DIMTMOVE
 70
     0
  9
$LUNITS
 70
     2
  9
$LUPREC
 70
     2
  9
$SKETCHINC
 40
1.0
  9
$FILLETRAD
 40
15.0
  9
$AUNITS
 70
     0
  9
$AUPREC
 70
     0
  9
$MENU
  1
ACAD
  9
$ELEVATION
 40
0.0
  9
$PELEVATION
 40
0.0
  9
$THICKNESS
 40
0.0
  9
$LIMCHECK
 70
     0
  9
$CHAMFERA
 40
0.0
  9
$CHAMFERB
 40
0.0
  9
$CHAMFERC
 40
0.0
  9
$CHAMFERD
 40
0.0
  9
$SKPOLY
 70
     0
  9
$TDCREATE
 40
2455397.864709028
  9
$TDUCREATE
 40
2455397.781375695
  9
$TDUPDATE
 40
2455449.529430892
  9
$TDUUPDATE
 40
2455449.446097558
  9
$TDINDWG
 40
0.1901085648
  9
$TDUSRTIMER
 40
0.1901085648
  9
$USRTIMER
 70
     1
  9
$ANGBASE
 50
0.0
  9
$ANGDIR
 70
     0
  9
$PDMODE
 70
     0
  9
$PDSIZE
 40
0.0
  9
$PLINEWID
 40
0.0
  9
$SPLFRAME
 70
     0
  9
$SPLINETYPE
 70
     6
  9
$SPLINESEGS
 70
     8
  9
$HANDSEED
  5
1D15
  9
$SURFTAB1
 70
     6
  9
$SURFTAB2
 70
     6
  9
$SURFTYPE
 70
     6
  9
$SURFU
 70
     6
  9
$SURFV
 70
     6
  9
$UCSBASE
  2

  9
$UCSNAME
  2

  9
$UCSORG
 10
0.0
 20
0.0
 30
0.0
  9
$UCSXDIR
 10
1.0
 20
0.0
 30
0.0
  9
$UCSYDIR
 10
0.0
 20
1.0
 30
0.0
  9
$UCSORTHOREF
  2

  9
$UCSORTHOVIEW
 70
     0
  9
$UCSORGTOP
 10
0.0
 20
0.0
 30
0.0
  9
$UCSORGBOTTOM
 10
0.0
 20
0.0
 30
0.0
  9
$UCSORGLEFT
 10
0.0
 20
0.0
 30
0.0
  9
$UCSORGRIGHT
 10
0.0
 20
0.0
 30
0.0
  9
$UCSORGFRONT
 10
0.0
 20
0.0
 30
0.0
  9
$UCSORGBACK
 10
0.0
 20
0.0
 30
0.0
  9
$PUCSBASE
  2

  9
$PUCSNAME
  2

  9
$PUCSORG
 10
0.0
 20
0.0
 30
0.0
  9
$PUCSXDIR
 10
1.0
 20
0.0
 30
0.0
  9
$PUCSYDIR
 10
0.0
 20
1.0
 30
0.0
  9
$PUCSORTHOREF
  2

  9
$PUCSORTHOVIEW
 70
     0
  9
$PUCSORGTOP
 10
0.0
 20
0.0
 30
0.0
  9
$PUCSORGBOTTOM
 10
0.0
 20
0.0
 30
0.0
  9
$PUCSORGLEFT
 10
0.0
 20
0.0
 30
0.0
  9
$PUCSORGRIGHT
 10
0.0
 20
0.0
 30
0.0
  9
$PUCSORGFRONT
 10
0.0
 20
0.0
 30
0.0
  9
$PUCSORGBACK
 10
0.0
 20
0.0
 30
0.0
  9
$USERI1
 70
     0
  9
$USERI2
 70
     0
  9
$USERI3
 70
     0
  9
$USERI4
 70
     0
  9
$USERI5
 70
     0
  9
$USERR1
 40
0.0
  9
$USERR2
 40
0.0
  9
$USERR3
 40
0.0
  9
$USERR4
 40
0.0
  9
$USERR5
 40
0.0
  9
$WORLDVIEW
 70
     1
  9
$SHADEDGE
 70
     3
  9
$SHADEDIF
 70
    70
  9
$TILEMODE
 70
     1
  9
$MAXACTVP
 70
    16
  9
$PINSBASE
 10
0.0
 20
0.0
 30
0.0
  9
$PLIMCHECK
 70
     0
  9
$PEXTMIN
 10
1.000000000000000E+20
 20
1.000000000000000E+20
 30
1.000000000000000E+20
  9
$PEXTMAX
 10
-1.000000000000000E+20
 20
-1.000000000000000E+20
 30
-1.000000000000000E+20
  9
$PLIMMIN
 10
0.0
 20
0.0
  9
$PLIMMAX
 10
12.0
 20
9.0
  9
$UNITMODE
 70
     0
  9
$VISRETAIN
 70
     0
  9
$PLINEGEN
 70
     0
  9
$PSLTSCALE
 70
     0
  9
$TREEDEPTH
 70
  3020
  9
$CMLSTYLE
  2
Standard
  9
$CMLJUST
 70
     0
  9
$CMLSCALE
 40
1.0
  9
$PROXYGRAPHICS
 70
     1
  9
$MEASUREMENT
 70
     0
  9
$CELWEIGHT
370
    -1
  9
$ENDCAPS
280
     0
  9
$JOINSTYLE
280
     0
  9
$LWDISPLAY
290
     0
  9
$INSUNITS
 70
     0
  9
$HYPERLINKBASE
  1

  9
$STYLESHEET
  1
monochrome 1.ctb
  9
$XEDIT
290
     1
  9
$CEPSNTYPE
380
     0
  9
$PSTYLEMODE
290
     1
  9
$FINGERPRINTGUID
  2
{D68B0D02-A558-11D7-B632-000102183313}
  9
$VERSIONGUID
  2
{56ED6BE6-7E70-4BB5-A4CD-50EBE3AD0DEA}
  9
$EXTNAMES
290
     1
  9
$PSVPSCALE
 40
0.0
  9
$OLESTARTUP
290
     0
  9
$SORTENTS
280
   127
  9
$INDEXCTL
280
     0
  9
$HIDETEXT
280
     0
  9
$XCLIPFRAME
290
     0
  9
$HALOGAP
280
     0
  9
$OBSCOLOR
 70
   257
  9
$OBSLTYPE
280
     0
  9
$INTERSECTIONDISPLAY
280
     0
  9
$INTERSECTIONCOLOR
 70
   257
  9
$DIMASSOC
280
     1
  9
$PROJECTNAME
  1

  0
ENDSEC
  0
SECTION
  2
CLASSES
  0
CLASS
  1
ACDBDICTIONARYWDFLT
  2
AcDbDictionaryWithDefault
  3
ObjectDBX Classes
 90
        0
 91
        1
280
     0
281
     0
  0
CLASS
  1
DICTIONARYVAR
  2
AcDbDictionaryVar
  3
ObjectDBX Classes
 90
        0
 91
        2
280
     0
281
     0
  0
ENDSEC
  0
SECTION
  2
TABLES
  0
TABLE
  2
VPORT
  5
8
330
0
100
AcDbSymbolTable
 70
     2
  0
VPORT
  5
1D14
330
8
100
AcDbSymbolTableRecord
100
AcDbViewportTableRecord
  2
*Active
 70
     0
 10
0.0
 20
0.0
 11
1.0
 21
1.0
 12
210.0032168880669
 22
297.0045495988375
 13
0.0
 23
0.0
 14
1.0
 24
1.0
 15
10.0
 25
10.0
 16
0.0
 26
0.0
 36
1.0
 17
0.0
 27
0.0
 37
0.0
 40
598.851573695279
 41
1.336927223719676
 42
50.0
 43
0.0
 44
0.0
 50
0.0
 51
0.0
 71
     0
 72
  1500
 73
     1
 74
     0
 75
     0
 76
     0
 77
     0
 78
     0
281
     0
 65
     1
110
0.0
120
0.0
130
0.0
111
1.0
121
0.0
131
0.0
112
0.0
122
1.0
132
0.0
 79
     0
146
0.0
  0
ENDTAB
  0
TABLE
  2
LTYPE
  5
5
330
0
100
AcDbSymbolTable
 70
     3
  0
LTYPE
  5
13
330
5
100
AcDbSymbolTableRecord
100
AcDbLinetypeTableRecord
  2
ByBlock
 70
     0
  3

 72
    65
 73
     0
 40
0.0
  0
LTYPE
  5
14
330
5
100
AcDbSymbolTableRecord
100
AcDbLinetypeTableRecord
  2
ByLayer
 70
     0
  3

 72
    65
 73
     0
 40
0.0
  0
LTYPE
  5
15
330
5
100
AcDbSymbolTableRecord
100
AcDbLinetypeTableRecord
  2
Continuous
 70
     0
  3
Solid line
 72
    65
 73
     0
 40
0.0
  0
LTYPE
  5
25
330
5
100
AcDbSymbolTableRecord
100
AcDbLinetypeTableRecord
  2
STRICHPUNKT
 70
     0
  3
__ . __ . __ . __ . __ . __ . __ . __ . __ . __
 72
    65
 73
     4
 40
1.0
 49
0.5
 74
     0
 49
-0.25
 74
     0
 49
0.0
 74
     0
 49
-0.25
 74
     0
  0
LTYPE
  5
32
330
5
100
AcDbSymbolTableRecord
100
AcDbLinetypeTableRecord
  2
AUSGEZOGEN
 70
     0
  3
Ausgezogene Linie
 72
    65
 73
     0
 40
0.0
  0
ENDTAB
  0
TABLE
  2
LAYER
  5
2
330
0
100
AcDbSymbolTable
 70
     9
  0
LAYER
  5
10
330
2
100
AcDbSymbolTableRecord
100
AcDbLayerTableRecord
  2
0
 70
     0
 62
     7
  6
Continuous
370
    -3
390
F
  0
LAYER
  5
2A
330
2
100
AcDbSymbolTableRecord
100
AcDbLayerTableRecord
  2
VOLL
 70
     0
 62
     1
  6
Continuous
370
    -3
390
F
  0
LAYER
  5
2B
330
2
100
AcDbSymbolTableRecord
100
AcDbLayerTableRecord
  2
HILF
 70
     0
 62
     2
  6
Continuous
370
    -3
390
F
  0
LAYER
  5
2C
330
2
100
AcDbSymbolTableRecord
100
AcDbLayerTableRecord
  2
MITTEL
 70
     0
 62
     2
  6
STRICHPUNKT
370
    -3
390
F
  0
LAYER
  5
2F
330
2
100
AcDbSymbolTableRecord
100
AcDbLayerTableRecord
  2
BEM
 70
     0
 62
     7
  6
Continuous
370
    -3
390
F
  0
LAYER
  5
30
330
2
100
AcDbSymbolTableRecord
100
AcDbLayerTableRecord
  2
STEMPEL
 70
     0
 62
     3
  6
Continuous
370
    -3
390
F
  0
LAYER
  5
31
330
2
100
AcDbSymbolTableRecord
100
AcDbLayerTableRecord
  2
TEXT
 70
     0
 62
     7
  6
Continuous
370
    -3
390
F
  0
LAYER
  5
19E
330
2
100
AcDbSymbolTableRecord
100
AcDbLayerTableRecord
  2
DEFPOINTS
 70
     0
 62
     7
  6
AUSGEZOGEN
290
     0
370
    -3
390
F
  0
LAYER
  5
404
330
2
100
AcDbSymbolTableRecord
100
AcDbLayerTableRecord
  2
SCHRAFF
 70
     0
 62
     7
  6
Continuous
370
    -3
390
F
  0
ENDTAB
  0
TABLE
  2
STYLE
  5
3
330
0
100
AcDbSymbolTable
 70
     2
  0
STYLE
  5
11
330
3
100
AcDbSymbolTableRecord
100
AcDbTextStyleTableRecord
  2
STANDARD
 70
     0
 40
0.0
 41
0.8
 50
0.0
 71
     0
 42
3.5
  3
simplex.shx
  4

  0
STYLE
  5
24
330
3
100
AcDbSymbolTableRecord
100
AcDbTextStyleTableRecord
  2
GREEKS
 70
     0
 40
0.0
 41
0.8
 50
0.0
 71
     0
 42
2.5
  3
SIMPLEX.shx
  4

  0
ENDTAB
  0
TABLE
  2
VIEW
  5
6
330
0
100
AcDbSymbolTable
 70
     0
  0
ENDTAB
  0
TABLE
  2
UCS
  5
7
330
0
100
AcDbSymbolTable
 70
     0
  0
ENDTAB
  0
TABLE
  2
APPID
  5
9
330
0
100
AcDbSymbolTable
 70
     1
  0
APPID
  5
12
330
9
100
AcDbSymbolTableRecord
100
AcDbRegAppTableRecord
  2
ACAD
 70
     0
  0
ENDTAB
  0
TABLE
  2
DIMSTYLE
  5
A
330
0
100
AcDbSymbolTable
 70
     1
100
AcDbDimStyleTable
 71
     1
340
9D
  0
DIMSTYLE
105
9D
102
{ACAD_REACTORS
330
1877
330
18BE
330
18CF
330
1A5D
330
1A68
330
1BAE
102
}
330
A
100
AcDbSymbolTableRecord
100
AcDbDimStyleTableRecord
  2
Standard
 70
     0
340
11
  0
ENDTAB
  0
TABLE
  2
BLOCK_RECORD
  5
1
330
0
100
AcDbSymbolTable
 70
     7
  0
BLOCK_RECORD
  5
1E
102
{ACAD_XDICTIONARY
360
A0
102
}
330
1
100
AcDbSymbolTableRecord
100
AcDbBlockTableRecord
  2
*Model_Space
340
21
  0
BLOCK_RECORD
  5
1A
102
{ACAD_XDICTIONARY
360
A2
102
}
330
1
100
AcDbSymbolTableRecord
100
AcDbBlockTableRecord
  2
*Paper_Space
340
1D
  0
BLOCK_RECORD
  5
22
330
1
100
AcDbSymbolTableRecord
100
AcDbBlockTableRecord
  2
LOGO
340
0
102
{BLKREFS
331
9B
102
}
  0
BLOCK_RECORD
  5
18F3
330
1
100
AcDbSymbolTableRecord
100
AcDbBlockTableRecord
  2
*D1
340
0
  0
BLOCK_RECORD
  5
194E
330
1
100
AcDbSymbolTableRecord
100
AcDbBlockTableRecord
  2
*D2
340
0
  0
BLOCK_RECORD
  5
1968
330
1
100
AcDbSymbolTableRecord
100
AcDbBlockTableRecord
  2
*D3
340
0
  0
BLOCK_RECORD
  5
1A5E
330
1
100
AcDbSymbolTableRecord
100
AcDbBlockTableRecord
  2
*D4
340
0
  0
BLOCK_RECORD
  5
1A69
330
1
100
AcDbSymbolTableRecord
100
AcDbBlockTableRecord
  2
*D5
340
0
  0
BLOCK_RECORD
  5
1BAF
330
1
100
AcDbSymbolTableRecord
100
AcDbBlockTableRecord
  2
*D6
340
0
  0
ENDTAB
  0
ENDSEC
  0
SECTION
  2
BLOCKS
  0
BLOCK
  5
35
330
1E
100
AcDbEntity
  8
0
100
AcDbBlockBegin
  2
*Model_Space
 70
     0
 10
0.0
 20
0.0
 30
0.0
  3
*Model_Space
  1

  0
ENDBLK
  5
36
330
1E
100
AcDbEntity
  8
0
100
AcDbBlockEnd
  0
BLOCK
  5
33
330
1A
100
AcDbEntity
 67
     1
  8
0
100
AcDbBlockBegin
  2
*Paper_Space
 70
     0
 10
0.0
 20
0.0
 30
0.0
  3
*Paper_Space
  1

  0
ENDBLK
  5
34
330
1A
100
AcDbEntity
 67
     1
  8
0
100
AcDbBlockEnd
  0
BLOCK
  5
37
330
22
100
AcDbEntity
  8
0
100
AcDbBlockBegin
  2
LOGO
 70
     0
 10
0.0
 20
0.0
 30
0.0
  3
LOGO
  1

  0
ARC
  5
38
330
22
100
AcDbEntity
  8
0
100
AcDbCircle
 10
11.59973089678112
 20
-9.271599258481501
 30
0.0
 40
4.5
100
AcDbArc
 50
270.0
 51
231.0575587310159
  0
LINE
  5
39
330
22
100
AcDbEntity
  8
0
100
AcDbLine
 10
3.599730896781125
 20
-4.771599258481529
 30
0.0
 11
3.599730896781153
 21
-11.77159925848133
 31
0.0
  0
LINE
  5
3A
330
22
100
AcDbEntity
  8
0
100
AcDbLine
 10
2.599730896781125
 20
-4.771599258481529
 30
0.0
 11
2.599730896781153
 21
-11.77159925848133
 31
0.0
  0
CIRCLE
  5
3B
330
22
100
AcDbEntity
  8
0
100
AcDbCircle
 10
11.59973089678112
 20
-9.271599258481501
 30
0.0
 40
3.5
  0
ARC
  5
3C
330
22
100
AcDbEntity
  8
0
100
AcDbCircle
 10
31.59973089678115
 20
-9.271599258481472
 30
0.0
 40
4.5
100
AcDbArc
 50
270.0
 51
231.0575587310182
  0
LINE
  5
3D
330
22
100
AcDbEntity
  8
0
100
AcDbLine
 10
17.59973089678112
 20
-4.771599258481472
 30
0.0
 11
17.59973089678115
 21
-13.77159925848147
 31
0.0
  0
ARC
  5
3E
330
22
100
AcDbEntity
  8
0
100
AcDbCircle
 10
22.59973089678116
 20
-7.271599258481472
 30
0.0
 40
2.5
100
AcDbArc
 50
293.1161887722295
 51
90.0
  0
CIRCLE
  5
3F
330
22
100
AcDbEntity
  8
0
100
AcDbCircle
 10
31.59973089678115
 20
-9.271599258481472
 30
0.0
 40
3.5
  0
ARC
  5
40
330
22
100
AcDbEntity
  8
0
100
AcDbCircle
 10
4.599730896781153
 20
-11.77159925848133
 30
0.0
 40
1.0
100
AcDbArc
 50
180.0
 51
270.0
  0
ARC
  5
41
330
22
100
AcDbEntity
  8
0
100
AcDbCircle
 10
4.599730896781153
 20
-11.77159925848133
 30
0.0
 40
2.0
100
AcDbArc
 50
179.9999999999992
 51
270.0
  0
LINE
  5
42
330
22
100
AcDbEntity
  8
0
100
AcDbLine
 10
11.59973089678115
 20
-13.77159925848144
 30
0.0
 11
4.599730896781153
 21
-13.77159925848147
 31
0.0
  0
LINE
  5
43
330
22
100
AcDbEntity
  8
0
100
AcDbLine
 10
8.771303772034769
 20
-12.77159925848136
 30
0.0
 11
4.599730896781153
 21
-12.77159925848133
 31
0.0
  0
LINE
  5
44
330
22
100
AcDbEntity
  8
0
100
AcDbLine
 10
31.59973089678115
 20
-13.77159925848147
 30
0.0
 11
23.6715276665056
 21
-13.77159925848144
 31
0.0
  0
LINE
  5
45
330
22
100
AcDbEntity
  8
0
100
AcDbLine
 10
23.56565672307022
 20
-9.51278021337896
 30
0.0
 11
24.4388546544846
 21
-12.77159925848144
 31
0.0
  0
LINE
  5
46
330
22
100
AcDbEntity
  8
0
100
AcDbLine
 10
22.59973089678116
 20
-9.771599258481472
 30
0.0
 11
18.59973089678112
 21
-9.771599258481472
 31
0.0
  0
LINE
  5
47
330
22
100
AcDbEntity
  8
0
100
AcDbLine
 10
18.59973089678115
 20
-13.77159925848144
 30
0.0
 11
17.59973089678115
 21
-13.77159925848144
 31
0.0
  0
LINE
  5
48
330
22
100
AcDbEntity
  8
0
100
AcDbLine
 10
18.59973089678115
 20
-9.771599258481472
 30
0.0
 11
18.59973089678115
 21
-13.77159925848144
 31
0.0
  0
LINE
  5
49
330
22
100
AcDbEntity
  8
0
100
AcDbLine
 10
22.59973089678116
 20
-9.771599258481472
 30
0.0
 11
23.67152766650562
 21
-13.77159925848147
 31
0.0
  0
ARC
  5
4A
330
22
100
AcDbEntity
  8
0
100
AcDbCircle
 10
22.59973089678116
 20
-7.271599258481472
 30
0.0
 40
2.5
100
AcDbArc
 50
270.0
 51
270.0000000000007
  0
LINE
  5
4B
330
22
100
AcDbEntity
  8
0
100
AcDbLine
 10
28.77130377203494
 20
-12.77159925848147
 30
0.0
 11
24.43885465448463
 21
-12.77159925848144
 31
0.0
  0
LINE
  5
4C
330
22
100
AcDbEntity
  8
0
100
AcDbLine
 10
3.599730896781125
 20
-4.771599258481472
 30
0.0
 11
2.599730896781125
 21
-4.771599258481472
 31
0.0
  0
LINE
  5
4D
330
22
100
AcDbEntity
  8
0
100
AcDbLine
 10
22.59973089678116
 20
-8.771599258481472
 30
0.0
 11
18.59973089678115
 21
-8.771599258481472
 31
0.0
  0
LINE
  5
4E
330
22
100
AcDbEntity
  8
0
100
AcDbLine
 10
22.59973089678116
 20
-5.771599258481472
 30
0.0
 11
18.59973089678115
 21
-5.771599258481472
 31
0.0
  0
LINE
  5
4F
330
22
100
AcDbEntity
  8
0
100
AcDbLine
 10
22.59973089678116
 20
-4.771599258481472
 30
0.0
 11
17.59973089678115
 21
-4.771599258481472
 31
0.0
  0
LINE
  5
50
330
22
100
AcDbEntity
  8
0
100
AcDbLine
 10
18.59973089678115
 20
-5.771599258481472
 30
0.0
 11
18.59973089678115
 21
-8.771599258481472
 31
0.0
  0
ARC
  5
51
330
22
100
AcDbEntity
  8
0
100
AcDbCircle
 10
22.59973089678116
 20
-7.271599258481472
 30
0.0
 40
1.5
100
AcDbArc
 50
270.0
 51
90.0
  0
ENDBLK
  5
52
330
22
100
AcDbEntity
  8
0
100
AcDbBlockEnd
  0
BLOCK
  5
18FE
330
18F3
100
AcDbEntity
  8
0
100
AcDbBlockBegin
  2
*D1
 70
     1
 10
0.0
 20
0.0
 30
0.0
  3
*D1
  1

  0
LINE
  5
1CB5
330
18F3
100
AcDbEntity
  8
BEM
 62
     0
370
    -2
100
AcDbLine
 10
287.0
 20
450.7782336657141
 30
0.0
 11
280.0
 21
450.7782336657141
 31
0.0
  0
LINE
  5
1CB6
330
18F3
100
AcDbEntity
  8
BEM
 62
     0
370
    -2
100
AcDbLine
 10
303.5
 20
450.7782336657141
 30
0.0
 11
328.2333333333334
 21
450.7782336657141
 31
0.0
  0
LINE
  5
1CB7
330
18F3
100
AcDbEntity
  8
BEM
 62
     0
370
    -2
100
AcDbLine
 10
294.0
 20
450.7782336657141
 30
0.0
 11
296.5
 21
450.7782336657141
 31
0.0
  0
SOLID
  5
1CB8
330
18F3
100
AcDbEntity
  8
BEM
 62
     0
100
AcDbTrace
 10
287.0
 20
451.9449003323808
 30
0.0
 11
287.0
 21
449.6115669990474
 31
0.0
 12
294.0
 22
450.7782336657141
 32
0.0
 13
294.0
 23
450.7782336657141
 33
0.0
  0
SOLID
  5
1CB9
330
18F3
100
AcDbEntity
  8
BEM
 62
     0
100
AcDbTrace
 10
303.5
 20
451.9449003323808
 30
0.0
 11
303.5
 21
449.6115669990474
 31
0.0
 12
296.5
 22
450.7782336657141
 32
0.0
 13
296.5
 23
450.7782336657141
 33
0.0
  0
MTEXT
  5
1CBA
330
18F3
100
AcDbEntity
  8
BEM
 62
     1
100
AcDbMText
 10
319.3666666666667
 20
457.2782336657141
 30
0.0
 40
7.0
 41
0.0
 71
     5
 72
     1
  1
\A1;2.5
 73
     1
 44
1.0
  0
POINT
  5
1CBB
330
18F3
100
AcDbEntity
  8
DEFPOINTS
 62
     0
100
AcDbPoint
 10
294.0
 20
450.7782336657141
 30
0.0
  0
POINT
  5
1CBC
330
18F3
100
AcDbEntity
  8
DEFPOINTS
 62
     0
100
AcDbPoint
 10
296.5
 20
450.7782336657141
 30
0.0
  0
POINT
  5
1CBD
330
18F3
100
AcDbEntity
  8
DEFPOINTS
 62
     0
100
AcDbPoint
 10
296.5
 20
450.7782336657141
 30
0.0
  0
ENDBLK
  5
18FF
330
18F3
100
AcDbEntity
  8
0
100
AcDbBlockEnd
  0
BLOCK
  5
1959
330
194E
100
AcDbEntity
  8
0
100
AcDbBlockBegin
  2
*D2
 70
     1
 10
0.0
 20
0.0
 30
0.0
  3
*D2
  1

  0
LINE
  5
1B04
330
194E
100
AcDbEntity
  8
BEM
 62
     0
370
    -2
100
AcDbLine
 10
119.9999999999999
 20
220.7456353155978
 30
0.0
 11
119.9999999999999
 21
184.988121015659
 31
0.0
  0
LINE
  5
1B05
330
194E
100
AcDbEntity
  8
BEM
 62
     0
370
    -2
100
AcDbLine
 10
330.0
 20
220.7456353155978
 30
0.0
 11
330.0
 21
184.988121015659
 31
0.0
  0
LINE
  5
1B06
330
194E
100
AcDbEntity
  8
BEM
 62
     0
370
    -2
100
AcDbLine
 10
126.9999999999999
 20
186.988121015659
 30
0.0
 11
323.0
 21
186.988121015659
 31
0.0
  0
SOLID
  5
1B07
330
194E
100
AcDbEntity
  8
BEM
 62
     0
100
AcDbTrace
 10
126.9999999999999
 20
188.1547876823257
 30
0.0
 11
126.9999999999999
 21
185.8214543489923
 31
0.0
 12
119.9999999999999
 22
186.988121015659
 32
0.0
 13
119.9999999999999
 23
186.988121015659
 33
0.0
  0
SOLID
  5
1B08
330
194E
100
AcDbEntity
  8
BEM
 62
     0
100
AcDbTrace
 10
323.0
 20
188.1547876823257
 30
0.0
 11
323.0
 21
185.8214543489923
 31
0.0
 12
330.0
 22
186.988121015659
 32
0.0
 13
330.0
 23
186.988121015659
 33
0.0
  0
MTEXT
  5
1B09
330
194E
100
AcDbEntity
  8
BEM
 62
     1
100
AcDbMText
 10
225.0
 20
193.488121015659
 30
0.0
 40
7.0
 41
0.0
 71
     5
 72
     1
  1
\A1;%%C210
 73
     1
 44
1.0
  0
POINT
  5
1B0A
330
194E
100
AcDbEntity
  8
DEFPOINTS
 62
     0
100
AcDbPoint
 10
119.9999999999999
 20
222.7456353155978
 30
0.0
  0
POINT
  5
1B0B
330
194E
100
AcDbEntity
  8
DEFPOINTS
 62
     0
100
AcDbPoint
 10
330.0
 20
222.7456353155978
 30
0.0
  0
POINT
  5
1B0C
330
194E
100
AcDbEntity
  8
DEFPOINTS
 62
     0
100
AcDbPoint
 10
330.0
 20
186.988121015659
 30
0.0
  0
ENDBLK
  5
195A
330
194E
100
AcDbEntity
  8
0
100
AcDbBlockEnd
  0
BLOCK
  5
1973
330
1968
100
AcDbEntity
  8
0
100
AcDbBlockBegin
  2
*D3
 70
     1
 10
0.0
 20
0.0
 30
0.0
  3
*D3
  1

  0
LINE
  5
1C50
330
1968
100
AcDbEntity
  8
BEM
 62
     0
370
    -2
100
AcDbLine
 10
119.7497732705183
 20
210.5438739543785
 30
0.0
 11
96.826347372621
 21
210.5438739543785
 31
0.0
  0
LINE
  5
1C51
330
1968
100
AcDbEntity
  8
BEM
 62
     0
370
    -2
100
AcDbLine
 10
117.9730622130146
 20
330.5438739543785
 30
0.0
 11
96.82634737262103
 21
330.5438739543785
 31
0.0
  0
LINE
  5
1C52
330
1968
100
AcDbEntity
  8
BEM
 62
     0
370
    -2
100
AcDbLine
 10
98.82634737262101
 20
217.5438739543785
 30
0.0
 11
98.82634737262103
 21
323.5438739543785
 31
0.0
  0
SOLID
  5
1C53
330
1968
100
AcDbEntity
  8
BEM
 62
     0
100
AcDbTrace
 10
97.65968070595434
 20
217.5438739543785
 30
0.0
 11
99.99301403928768
 21
217.5438739543785
 31
0.0
 12
98.82634737262101
 22
210.5438739543785
 32
0.0
 13
98.82634737262101
 23
210.5438739543785
 33
0.0
  0
SOLID
  5
1C54
330
1968
100
AcDbEntity
  8
BEM
 62
     0
100
AcDbTrace
 10
97.65968070595436
 20
323.5438739543785
 30
0.0
 11
99.9930140392877
 21
323.5438739543785
 31
0.0
 12
98.82634737262103
 22
330.5438739543785
 32
0.0
 13
98.82634737262103
 23
330.5438739543785
 33
0.0
  0
MTEXT
  5
1C55
330
1968
100
AcDbEntity
  8
BEM
 62
     1
100
AcDbMText
 10
92.32634737262097
 20
270.5438739543785
 30
0.0
 40
7.0
 41
0.0
 71
     5
 72
     1
  1
\A1;120
 11
0.0000000000000001
 21
1.0
 31
0.0
 73
     1
 44
1.0
  0
POINT
  5
1C56
330
1968
100
AcDbEntity
  8
DEFPOINTS
 62
     0
100
AcDbPoint
 10
121.7497732705183
 20
210.5438739543785
 30
0.0
  0
POINT
  5
1C57
330
1968
100
AcDbEntity
  8
DEFPOINTS
 62
     0
100
AcDbPoint
 10
119.9730622130146
 20
330.5438739543785
 30
0.0
  0
POINT
  5
1C58
330
1968
100
AcDbEntity
  8
DEFPOINTS
 62
     0
100
AcDbPoint
 10
98.82634737262103
 20
330.5438739543785
 30
0.0
  0
ENDBLK
  5
1974
330
1968
100
AcDbEntity
  8
0
100
AcDbBlockEnd
  0
BLOCK
  5
1A66
330
1A5E
100
AcDbEntity
  8
0
100
AcDbBlockBegin
  2
*D4
 70
     1
 10
0.0
 20
0.0
 30
0.0
  3
*D4
  1

  0
LINE
  5
1C93
330
1A5E
100
AcDbEntity
  8
BEM
 62
     0
370
    -2
100
AcDbLine
 10
165.4999999999998
 20
409.0392042759299
 30
0.0
 11
284.5000000000001
 21
409.0392042759299
 31
0.0
  0
SOLID
  5
1C94
330
1A5E
100
AcDbEntity
  8
BEM
 62
     0
100
AcDbTrace
 10
165.4999999999998
 20
410.2058709425966
 30
0.0
 11
165.4999999999998
 21
407.8725376092632
 31
0.0
 12
158.4999999999998
 22
409.0392042759299
 32
0.0
 13
158.4999999999998
 23
409.0392042759299
 33
0.0
  0
SOLID
  5
1C95
330
1A5E
100
AcDbEntity
  8
BEM
 62
     0
100
AcDbTrace
 10
284.5000000000001
 20
410.2058709425966
 30
0.0
 11
284.5000000000001
 21
407.8725376092632
 31
0.0
 12
291.5000000000001
 22
409.0392042759299
 32
0.0
 13
291.5000000000001
 23
409.0392042759299
 33
0.0
  0
MTEXT
  5
1C96
330
1A5E
100
AcDbEntity
  8
BEM
 62
     1
100
AcDbMText
 10
225.0
 20
415.5392042759299
 30
0.0
 40
7.0
 41
0.0
 71
     5
 72
     1
  1
\A1;%%c133
 73
     1
 44
1.0
  0
POINT
  5
1C97
330
1A5E
100
AcDbEntity
  8
DEFPOINTS
 62
     0
100
AcDbPoint
 10
158.4999999999998
 20
409.0392042759297
 30
0.0
  0
POINT
  5
1C98
330
1A5E
100
AcDbEntity
  8
DEFPOINTS
 62
     0
100
AcDbPoint
 10
291.5000000000001
 20
409.0392042759299
 30
0.0
  0
POINT
  5
1C99
330
1A5E
100
AcDbEntity
  8
DEFPOINTS
 62
     0
100
AcDbPoint
 10
291.5000000000001
 20
409.0392042759299
 30
0.0
  0
ENDBLK
  5
1A67
330
1A5E
100
AcDbEntity
  8
0
100
AcDbBlockEnd
  0
BLOCK
  5
1A73
330
1A69
100
AcDbEntity
  8
0
100
AcDbBlockBegin
  2
*D5
 70
     1
 10
0.0
 20
0.0
 30
0.0
  3
*D5
  1

  0
LINE
  5
1C8A
330
1A69
100
AcDbEntity
  8
BEM
 62
     0
370
    -2
100
AcDbLine
 10
150.2415552025937
 20
510.5438739543785
 30
0.0
 11
78.00360729012019
 21
510.5438739543786
 31
0.0
  0
LINE
  5
1C8B
330
1A69
100
AcDbEntity
  8
BEM
 62
     0
370
    -2
100
AcDbLine
 10
119.7497732705183
 20
210.5438739543785
 30
0.0
 11
78.00360729012012
 21
210.5438739543785
 31
0.0
  0
LINE
  5
1C8C
330
1A69
100
AcDbEntity
  8
BEM
 62
     0
370
    -2
100
AcDbLine
 10
80.00360729012019
 20
503.5438739543786
 30
0.0
 11
80.00360729012012
 21
217.5438739543785
 31
0.0
  0
SOLID
  5
1C8D
330
1A69
100
AcDbEntity
  8
BEM
 62
     0
100
AcDbTrace
 10
78.83694062345352
 20
503.5438739543786
 30
0.0
 11
81.17027395678686
 21
503.5438739543786
 31
0.0
 12
80.00360729012019
 22
510.5438739543786
 32
0.0
 13
80.00360729012019
 23
510.5438739543786
 33
0.0
  0
SOLID
  5
1C8E
330
1A69
100
AcDbEntity
  8
BEM
 62
     0
100
AcDbTrace
 10
78.83694062345345
 20
217.5438739543785
 30
0.0
 11
81.17027395678679
 21
217.5438739543785
 31
0.0
 12
80.00360729012012
 22
210.5438739543785
 32
0.0
 13
80.00360729012012
 23
210.5438739543785
 33
0.0
  0
MTEXT
  5
1C8F
330
1A69
100
AcDbEntity
  8
BEM
 62
     1
100
AcDbMText
 10
73.5036072901201
 20
360.5438739543786
 30
0.0
 40
7.0
 41
0.0
 71
     5
 72
     1
  1
\A1;300
 11
0.0000000000000001
 21
1.0
 31
0.0
 73
     1
 44
1.0
  0
POINT
  5
1C90
330
1A69
100
AcDbEntity
  8
DEFPOINTS
 62
     0
100
AcDbPoint
 10
152.2415552025937
 20
510.5438739543785
 30
0.0
  0
POINT
  5
1C91
330
1A69
100
AcDbEntity
  8
DEFPOINTS
 62
     0
100
AcDbPoint
 10
121.7497732705183
 20
210.5438739543785
 30
0.0
  0
POINT
  5
1C92
330
1A69
100
AcDbEntity
  8
DEFPOINTS
 62
     0
100
AcDbPoint
 10
80.00360729012012
 20
210.5438739543785
 30
0.0
  0
ENDBLK
  5
1A74
330
1A69
100
AcDbEntity
  8
0
100
AcDbBlockEnd
  0
BLOCK
  5
1BB9
330
1BAF
100
AcDbEntity
  8
0
100
AcDbBlockBegin
  2
*D6
 70
     1
 10
0.0
 20
0.0
 30
0.0
  3
*D6
  1

  0
LINE
  5
1BBB
330
1BAF
100
AcDbEntity
  8
BEM
 62
     0
370
    -2
100
AcDbLine
 10
320.1
 20
252.4410142627858
 30
0.0
 11
313.1
 21
252.4410142627858
 31
0.0
  0
LINE
  5
1BBC
330
1BAF
100
AcDbEntity
  8
BEM
 62
     0
370
    -2
100
AcDbLine
 10
337.0
 20
252.4410142627858
 30
0.0
 11
361.4666666666666
 21
252.4410142627858
 31
0.0
  0
LINE
  5
1BBD
330
1BAF
100
AcDbEntity
  8
BEM
 62
     0
370
    -2
100
AcDbLine
 10
327.1
 20
252.4410142627858
 30
0.0
 11
329.9999999999999
 21
252.4410142627858
 31
0.0
  0
SOLID
  5
1BBE
330
1BAF
100
AcDbEntity
  8
BEM
 62
     0
100
AcDbTrace
 10
320.1
 20
253.6076809294525
 30
0.0
 11
320.1
 21
251.2743475961192
 31
0.0
 12
327.1
 22
252.4410142627858
 32
0.0
 13
327.1
 23
252.4410142627858
 33
0.0
  0
SOLID
  5
1BBF
330
1BAF
100
AcDbEntity
  8
BEM
 62
     0
100
AcDbTrace
 10
337.0
 20
253.6076809294525
 30
0.0
 11
337.0
 21
251.2743475961192
 31
0.0
 12
329.9999999999999
 22
252.4410142627858
 32
0.0
 13
329.9999999999999
 23
252.4410142627858
 33
0.0
  0
MTEXT
  5
1BC0
330
1BAF
100
AcDbEntity
  8
BEM
 62
     1
100
AcDbMText
 10
352.7333333333333
 20
258.9410142627858
 30
0.0
 40
7.0
 41
0.0
 71
     5
 72
     1
  1
\A1;2.9
 73
     1
 44
1.0
  0
POINT
  5
1BC1
330
1BAF
100
AcDbEntity
  8
DEFPOINTS
 62
     0
100
AcDbPoint
 10
327.1
 20
252.4410142627858
 30
0.0
  0
POINT
  5
1BC2
330
1BAF
100
AcDbEntity
  8
DEFPOINTS
 62
     0
100
AcDbPoint
 10
329.9999999999999
 20
252.4410142627858
 30
0.0
  0
POINT
  5
1BC3
330
1BAF
100
AcDbEntity
  8
DEFPOINTS
 62
     0
100
AcDbPoint
 10
329.9999999999999
 20
252.4410142627858
 30
0.0
  0
ENDBLK
  5
1BBA
330
1BAF
100
AcDbEntity
  8
0
100
AcDbBlockEnd
  0
ENDSEC
  0
SECTION
  2
ENTITIES
  0
LINE
  5
57
330
1E
100
AcDbEntity
  8
STEMPEL
100
AcDbLine
 10
410.0
 20
110.0
 30
0.0
 11
39.99999999999997
 21
110.0
 31
0.0
  0
LINE
  5
58
330
1E
100
AcDbEntity
  8
STEMPEL
100
AcDbLine
 10
136.0000000000001
 20
109.9999999999999
 30
0.0
 11
136.0
 21
9.999999999999971
 31
0.0
  0
LINE
  5
59
330
1E
100
AcDbEntity
  8
STEMPEL
100
AcDbLine
 10
220.0
 20
110.0
 30
0.0
 11
220.0
 21
9.999999999999971
 31
0.0
  0
LINE
  5
5A
330
1E
100
AcDbEntity
  8
STEMPEL
100
AcDbLine
 10
332.0
 20
109.9999999999997
 30
0.0
 11
332.0
 21
40.0
 31
0.0
  0
LINE
  5
5B
330
1E
100
AcDbEntity
  8
STEMPEL
100
AcDbLine
 10
135.9999999999999
 20
29.99999999999997
 30
0.0
 11
39.99999999999997
 21
29.99999999999997
 31
0.0
  0
LINE
  5
5C
330
1E
100
AcDbEntity
  8
STEMPEL
100
AcDbLine
 10
410.0
 20
40.0
 30
0.0
 11
136.0000000000001
 21
39.99999999999997
 31
0.0
  0
LINE
  5
5D
330
1E
100
AcDbEntity
  8
STEMPEL
100
AcDbLine
 10
410.0
 20
80.0
 30
0.0
 11
136.0000000000001
 21
79.99999999999994
 31
0.0
  0
LINE
  5
5E
330
1E
100
AcDbEntity
  8
VOLL
100
AcDbLine
 10
54.00000000000009
 20
110.0
 30
0.0
 11
53.99999999999997
 21
9.999999999999971
 31
0.0
  0
LINE
  5
5F
330
1E
100
AcDbEntity
  8
VOLL
100
AcDbLine
 10
94.00000000000011
 20
109.9999999999999
 30
0.0
 11
94.0
 21
9.999999999999971
 31
0.0
  0
LINE
  5
60
330
1E
100
AcDbEntity
  8
VOLL
100
AcDbLine
 10
114.0000000000001
 20
109.9999999999999
 30
0.0
 11
114.0
 21
9.999999999999971
 31
0.0
  0
LINE
  5
61
330
1E
100
AcDbEntity
  8
VOLL
100
AcDbLine
 10
154.0000000000001
 20
79.99999999999994
 30
0.0
 11
154.0000000000001
 21
39.99999999999997
 31
0.0
  0
LINE
  5
62
330
1E
100
AcDbEntity
  8
VOLL
100
AcDbLine
 10
180.0000000000001
 20
109.9999999999998
 30
0.0
 11
180.0
 21
39.99999999999997
 31
0.0
  0
LINE
  5
63
330
1E
100
AcDbEntity
  8
HILF
100
AcDbLine
 10
40.00000000000008
 20
100.0
 30
0.0
 11
136.0000000000001
 21
100.0
 31
0.0
  0
LINE
  5
64
330
1E
100
AcDbEntity
  8
HILF
100
AcDbLine
 10
40.00000000000008
 20
90.00000000000005
 30
0.0
 11
136.0000000000001
 21
90.00000000000005
 31
0.0
  0
LINE
  5
65
330
1E
100
AcDbEntity
  8
HILF
100
AcDbLine
 10
40.00000000000008
 20
79.99999999999994
 30
0.0
 11
136.0000000000001
 21
79.99999999999994
 31
0.0
  0
LINE
  5
66
330
1E
100
AcDbEntity
  8
HILF
100
AcDbLine
 10
40.00000000000008
 20
69.99999999999994
 30
0.0
 11
136.0000000000001
 21
69.99999999999994
 31
0.0
  0
LINE
  5
67
330
1E
100
AcDbEntity
  8
HILF
100
AcDbLine
 10
40.00000000000008
 20
59.99999999999997
 30
0.0
 11
136.0000000000001
 21
59.99999999999997
 31
0.0
  0
LINE
  5
68
330
1E
100
AcDbEntity
  8
HILF
100
AcDbLine
 10
40.00000000000008
 20
49.99999999999997
 30
0.0
 11
136.0000000000001
 21
49.99999999999997
 31
0.0
  0
LINE
  5
69
330
1E
100
AcDbEntity
  8
HILF
100
AcDbLine
 10
40.00000000000008
 20
39.99999999999997
 30
0.0
 11
136.0000000000001
 21
39.99999999999997
 31
0.0
  0
LINE
  5
6A
330
1E
100
AcDbEntity
  8
HILF
100
AcDbLine
 10
136.0000000000001
 20
69.99999999999994
 30
0.0
 11
220.0
 21
69.99999999999994
 31
0.0
  0
LINE
  5
6B
330
1E
100
AcDbEntity
  8
HILF
100
AcDbLine
 10
136.0000000000001
 20
59.99999999999997
 30
0.0
 11
220.0
 21
59.99999999999997
 31
0.0
  0
LINE
  5
6C
330
1E
100
AcDbEntity
  8
HILF
100
AcDbLine
 10
136.0000000000001
 20
49.99999999999997
 30
0.0
 11
220.0
 21
49.99999999999997
 31
0.0
  0
LINE
  5
6D
330
1E
100
AcDbEntity
  8
HILF
100
AcDbLine
 10
224.7736801096948
 20
84.03758247564139
 30
0.0
 11
324.8353916556311
 21
84.03758247564139
 31
0.0
  0
LINE
  5
6E
330
1E
100
AcDbEntity
  8
HILF
100
AcDbLine
 10
224.7736801096948
 20
69.99999999999994
 30
0.0
 11
324.835391655631
 21
69.99999999999994
 31
0.0
  0
LINE
  5
6F
330
1E
100
AcDbEntity
  8
HILF
100
AcDbLine
 10
224.7736801096948
 20
59.99999999999997
 30
0.0
 11
324.835391655631
 21
59.99999999999997
 31
0.0
  0
LINE
  5
70
330
1E
100
AcDbEntity
  8
HILF
100
AcDbLine
 10
224.7736801096948
 20
49.99999999999997
 30
0.0
 11
324.835391655631
 21
49.99999999999997
 31
0.0
  0
LINE
  5
71
330
1E
100
AcDbEntity
  8
VOLL
100
AcDbLine
 10
332.0
 20
60.0
 30
0.0
 11
410.0
 21
60.0
 31
0.0
  0
LINE
  5
72
330
1E
100
AcDbEntity
  8
HILF
100
AcDbLine
 10
336.7238616296993
 20
83.77983636955827
 30
0.0
 11
404.8588839326728
 21
83.77983636955827
 31
0.0
  0
LINE
  5
73
330
1E
100
AcDbEntity
  8
HILF
100
AcDbLine
 10
223.4909699289885
 20
14.89398258028314
 30
0.0
 11
404.8588839326728
 21
14.89398258028314
 31
0.0
  0
TEXT
  5
74
330
1E
100
AcDbEntity
  8
TEXT
100
AcDbText
 10
62.76382766213005
 20
18.67381894984132
 30
0.0
 40
4.0
  1
Änderung
 41
0.8
  7
GREEKS
 72
     1
 11
73.5066848049872
 21
18.67381894984132
 31
0.0
100
AcDbText
  0
TEXT
  5
75
330
1E
100
AcDbEntity
  8
TEXT
100
AcDbText
 10
143.5163572150377
 20
102.4620895087088
 30
0.0
 40
5.0
  1
Maßstab
 41
0.8
  7
GREEKS
100
AcDbText
  0
TEXT
  5
76
330
1E
100
AcDbEntity
  8
TEXT
100
AcDbText
 10
184.2858954734051
 20
102.4184168434819
 30
0.0
 40
5.0
  1
Zul. Abw.
 41
0.8
  7
GREEKS
100
AcDbText
  0
TEXT
  5
77
330
1E
100
AcDbEntity
  8
TEXT
100
AcDbText
 10
224.877940380901
 20
102.5489328011779
 30
0.0
 40
5.0
  1
Benennung
 41
0.8
  7
GREEKS
100
AcDbText
  0
TEXT
  5
78
330
1E
100
AcDbEntity
  8
TEXT
100
AcDbText
 10
336.178754957634
 20
102.3132034537136
 30
0.0
 40
5.0
  1
Zeichnungs Nr.
 41
0.8
  7
GREEKS
100
AcDbText
  0
TEXT
  5
79
330
1E
100
AcDbEntity
  8
TEXT
100
AcDbText
 10
224.742238391136
 20
30.84560570193057
 30
0.0
 40
5.0
  1
Bauvorhaben
 41
0.8
  7
GREEKS
100
AcDbText
  0
TEXT
  5
7A
330
1E
100
AcDbEntity
  8
TEXT
100
AcDbText
 10
336.7238616296993
 20
73.1811823709997
 30
0.0
 40
5.0
  1
Ersatz für:
 41
0.8
  7
GREEKS
100
AcDbText
  0
TEXT
  5
7B
330
1E
100
AcDbEntity
  8
TEXT
100
AcDbText
 10
48.26641107045756
 20
13.65465846027192
 30
0.0
 40
4.0
  1
Index
 50
90.0
 41
0.8
  7
GREEKS
100
AcDbText
  0
TEXT
  5
7C
330
1E
100
AcDbEntity
  8
TEXT
100
AcDbText
 10
99.58055193295063
 20
18.6715626933981
 30
0.0
 40
4.0
  1
Tag
 41
0.8
  7
GREEKS
 72
     1
 11
103.3138852662839
 21
18.6715626933981
 31
0.0
100
AcDbText
  0
TEXT
  5
7D
330
1E
100
AcDbEntity
  8
TEXT
100
AcDbText
 10
119.0122744386592
 20
18.59324216966408
 30
0.0
 40
4.0
  1
Name
 41
0.8
  7
GREEKS
 72
     1
 11
125.3360839624688
 21
18.59324216966408
 31
0.0
100
AcDbText
  0
TEXT
  5
7E
330
1E
100
AcDbEntity
  8
TEXT
100
AcDbText
 10
162.3311673153651
 20
73.31880501229926
 30
0.0
 40
4.0
  1
Tag
 41
0.8
  7
GREEKS
100
AcDbText
  0
TEXT
  5
7F
330
1E
100
AcDbEntity
  8
TEXT
100
AcDbText
 10
192.4626584226295
 20
73.30961091915225
 30
0.0
 40
4.0
  1
Name
 41
0.8
  7
GREEKS
100
AcDbText
  0
TEXT
  5
80
330
1E
100
AcDbEntity
  8
TEXT
100
AcDbText
 10
137.5836127167615
 20
63.62990369617964
 30
0.0
 40
4.0
  1
Gez.
 41
0.8
  7
GREEKS
100
AcDbText
  0
TEXT
  5
81
330
1E
100
AcDbEntity
  8
TEXT
100
AcDbText
 10
137.5515086571672
 20
53.68926291428377
 30
0.0
 40
4.0
  1
Gepr.
 41
0.8
  7
GREEKS
100
AcDbText
  0
TEXT
  5
82
330
1E
100
AcDbEntity
  8
TEXT
100
AcDbText
 10
137.6006777387304
 20
43.52946389649807
 30
0.0
 40
4.0
  1
Norm.
 41
0.8
  7
GREEKS
100
AcDbText
  0
LINE
  5
83
330
1E
100
AcDbEntity
  8
STEMPEL
100
AcDbLine
 10
49.99999999999989
 20
10.0
 30
0.0
 11
410.0
 21
10.0
 31
0.0
  0
TEXT
  5
84
330
1E
100
AcDbEntity
  8
TEXT
100
AcDbText
 10
337.2400861497006
 20
52.07416177878602
 30
0.0
 40
5.0
  1
ersetzt durch:
 41
0.8
  7
GREEKS
100
AcDbText
  0
LINE
  5
85
330
1E
100
AcDbEntity
  8
STEMPEL
100
AcDbLine
 10
410.0
 20
10.0
 30
0.0
 11
39.99999999999989
 21
10.0
 31
0.0
  0
LINE
  5
86
330
1E
100
AcDbEntity
  8
STEMPEL
100
AcDbLine
 10
410.0
 20
10.0
 30
0.0
 11
410.0
 21
584.0
 31
0.0
  0
LINE
  5
87
330
1E
100
AcDbEntity
  8
STEMPEL
100
AcDbLine
 10
40.0
 20
10.0
 30
0.0
 11
39.99999999999989
 21
584.0
 31
0.0
  0
LINE
  5
88
330
1E
100
AcDbEntity
  8
STEMPEL
100
AcDbLine
 10
410.0
 20
584.0
 30
0.0
 11
39.99999999999989
 21
584.0
 31
0.0
  0
LINE
  5
89
330
1E
100
AcDbEntity
  8
HILF
100
AcDbLine
 10
0.0
 20
0.0
 30
0.0
 11
-0.0000000000001137
 21
594.0
 31
0.0
  0
LINE
  5
8A
330
1E
100
AcDbEntity
  8
HILF
100
AcDbLine
 10
419.9999999999999
 20
594.0000000000002
 30
0.0
 11
0.0
 21
594.0
 31
0.0
  0
LINE
  5
8B
330
1E
100
AcDbEntity
  8
HILF
100
AcDbLine
 10
420.0
 20
0.0
 30
0.0
 11
0.0
 21
0.0
 31
0.0
  0
LINE
  5
8C
330
1E
100
AcDbEntity
  8
HILF
100
AcDbLine
 10
31.08767135713856
 20
297.0
 30
0.0
 11
0.0000000000001137
 21
297.0
 31
0.0
  0
TEXT
  5
8D
330
1E
100
AcDbEntity
  8
TEXT
100
AcDbText
 10
138.622109822104
 20
73.14025471151666
 30
0.0
 40
4.0
  1
2007
 41
0.8
  7
GREEKS
100
AcDbText
  0
LINE
  5
8E
330
1E
100
AcDbEntity
  8
HILF
100
AcDbLine
 10
420.0
 20
-0.0000000000001137
 30
0.0
 11
419.9999999999999
 21
594.0
 31
0.0
  0
TEXT
  5
8F
330
1E
100
AcDbEntity
  8
VOLL
100
AcDbText
 10
78.07675471698113
 20
31.02594776470585
 30
0.0
 40
1.8
  1

  7
GREEKS
100
AcDbText
  0
TEXT
  5
90
330
1E
100
AcDbEntity
  8
TEXT
100
AcDbText
 10
41.85509950977674
 20
111.6719999999999
 30
0.0
 40
5.0
  1
Erstellt mit AUTOCAD 2004
 41
0.8
  7
GREEKS
100
AcDbText
  0
TEXT
  5
91
330
1E
100
AcDbEntity
  8
TEXT
100
AcDbText
 10
194.4216048581257
 20
63.0896391972351
 30
0.0
 40
4.0
  1
Koeh
 41
0.8
  7
GREEKS
 72
     1
 11
199.6787477152685
 21
63.0896391972351
 31
0.0
100
AcDbText
  0
TEXT
  5
92
330
1E
100
AcDbEntity
  8
TEXT
 62
     1
100
AcDbText
 10
346.0171707687774
 20
88.14901428913959
 30
0.0
 40
7.0
  1
00670125W
 41
0.8
  7
GREEKS
 72
     1
 11
369.4838374354441
 21
88.14901428913959
 31
0.0
100
AcDbText
  0
TEXT
  5
93
330
1E
100
AcDbEntity
  8
TEXT
 62
     1
100
AcDbText
 10
150.5006306481887
 20
88.14901428913959
 30
0.0
 40
7.0
  1
1:2
 41
0.8
  7
GREEKS
100
AcDbText
  0
TEXT
  5
94
330
1E
100
AcDbEntity
  8
TEXT
100
AcDbText
 10
160.7037590129979
 20
63.10765040825732
 30
0.0
 40
4.0
  1
31.08.
 41
0.8
  7
GREEKS
 72
     1
 11
167.4085209177598
 21
63.10765040825732
 31
0.0
100
AcDbText
  0
TEXT
  5
95
330
1E
100
AcDbEntity
  8
TEXT
 62
     1
100
AcDbText
 10
224.9416463655109
 20
87.41748789253779
 30
0.0
 40
7.0
  1
Anschlußstück DN125
 41
0.8
  7
GREEKS
100
AcDbText
  0
TEXT
  5
96
330
1E
100
AcDbEntity
  8
TEXT
100
AcDbText
 10
225.1296391125315
 20
71.50334417585288
 30
0.0
 40
5.0
  1
zum Anschluß an gußeiserne
 41
0.8
  7
GREEKS
100
AcDbText
  0
TEXT
  5
97
330
1E
100
AcDbEntity
  8
TEXT
100
AcDbText
 10
225.1296391125315
 20
62.11580706774856
 30
0.0
 40
5.0
  1
Rohre DN200
 41
0.8
  7
GREEKS
100
AcDbText
  0
TEXT
  5
98
330
1E
100
AcDbEntity
  8
TEXT
100
AcDbText
 10
225.1296391125315
 20
51.64011943042158
 30
0.0
 40
5.0
  1
EDV-Art.Nr. 00670.125X
 41
0.8
  7
GREEKS
100
AcDbText
  0
TEXT
  5
99
330
1E
100
AcDbEntity
  8
TEXT
100
AcDbText
 10
224.9837501577827
 20
42.62974153022632
 30
0.0
 40
4.0
  1
00670125W.DWG
 41
0.8
  7
GREEKS
100
AcDbText
  0
TEXT
  5
9A
330
1E
100
AcDbEntity
  8
TEXT
100
AcDbText
 10
182.626132208084
 20
90.76363841023022
 30
0.0
 40
4.0
  1
DIN EN1123-2
 41
0.8
  7
GREEKS
 72
     1
 11
199.6166083985602
 21
90.76363841023022
 31
0.0
100
AcDbText
  0
INSERT
  5
9B
330
1E
100
AcDbEntity
  8
STEMPEL
100
AcDbBlockReference
  2
LOGO
 10
140.9955485457794
 20
45.02105276448322
 30
0.0
 41
2.0
 42
2.0
 43
2.0
  0
TEXT
  5
118
330
1E
100
AcDbEntity
  8
BEM
100
AcDbText
 10
417.3022923857165
 20
10.16790107998849
 30
0.0
 40
4.0
  1
Diese Zeichnung ist urheberrechtlich geschützt und bleibt unser Eigentum. Sie darf weder ganz noch teilweise verfielfältigt und nicht an Dritte weitergegeben werden.
 50
90.0
 41
0.8
  7
GREEKS
100
AcDbText
  0
TEXT
  5
206
330
1E
100
AcDbEntity
  8
VOLL
100
AcDbText
 10
215.4872279139253
 20
473.2571800056003
 30
0.0
 40
7.0
  1
DN125
 50
90.0
 41
0.8
  7
GREEKS
100
AcDbText
  0
TEXT
  5
3F9
330
1E
100
AcDbEntity
  8
TEXT
 62
     1
100
AcDbText
 10
57.44057521500986
 20
172.7130966849377
 30
0.0
 40
7.0
  1
Rohrende leicht eingezogen
 41
0.8
  7
GREEKS
100
AcDbText
  0
TEXT
  5
14E7
330
1E
100
AcDbEntity
  8
TEXT
 62
     1
100
AcDbText
 10
210.6120730229079
 20
129.0783465745483
 30
0.0
 40
7.0
  1
feuerverzinkt und innen beschichtet
 41
0.8
  7
GREEKS
100
AcDbText
  0
TEXT
  5
14E8
330
1E
100
AcDbEntity
  8
TEXT
 62
     1
100
AcDbText
 10
162.6623555855101
 20
139.8004583895517
 30
0.0
 40
7.0
  1
Werkstoff: E195 EN10305, P235 TR1 EN10217-1
 41
0.8
  7
GREEKS
100
AcDbText
  0
TEXT
  5
1505
330
1E
100
AcDbEntity
  8
VOLL
100
AcDbText
 10
215.4872279139253
 20
255.1886717209851
 30
0.0
 40
7.0
  1
DN200
 50
90.0
 41
0.8
  7
GREEKS
100
AcDbText
  0
ARC
  5
185D
330
1E
100
AcDbEntity
  8
STEMPEL
100
AcDbCircle
 10
301.5000000000001
 20
405.0345345974812
 30
0.0
 40
10.0
100
AcDbArc
 50
180.0
 51
228.3664606634325
  0
ARC
  5
185E
330
1E
100
AcDbEntity
  8
STEMPEL
100
AcDbCircle
 10
148.4999999999997
 20
405.034534597481
 30
0.0
 40
10.0
100
AcDbArc
 50
311.6335393365675
 51
0.0
  0
LINE
  5
185F
102
{ACAD_REACTORS
330
1BCB
102
}
330
1E
100
AcDbEntity
  8
STEMPEL
100
AcDbLine
 10
155.1436383882989
 20
397.5604414106445
 30
0.0
 11
135.9999999999999
 21
380.5438739543785
 31
0.0
  0
LINE
  5
1861
102
{ACAD_REACTORS
330
1B8E
102
}
330
1E
100
AcDbEntity
  8
STEMPEL
100
AcDbLine
 10
314.0
 20
380.5438739543786
 30
0.0
 11
294.8563616117009
 21
397.5604414106447
 31
0.0
  0
POLYLINE
  5
1864
102
{ACAD_REACTORS
330
1AC5
102
}
330
1E
100
AcDbEntity
  8
HILF
100
AcDb2dPolyline
 66
     1
 10
0.0
 20
0.0
 30
0.0
 70
     2
  0
VERTEX
  5
1865
330
1864
100
AcDbEntity
  8
HILF
100
AcDbVertex
100
AcDb2dVertex
 10
297.4433904494674
 20
463.2947061237852
 30
0.0
 42
0.0375392864106603
  0
VERTEX
  5
1866
330
1864
100
AcDbEntity
  8
HILF
100
AcDbVertex
100
AcDb2dVertex
 10
292.2685173655115
 20
462.6667525963874
 30
0.0
 42
0.058816374300134
 70
     1
  0
VERTEX
  5
1867
330
1864
100
AcDbEntity
  8
HILF
100
AcDbVertex
100
AcDb2dVertex
 10
289.09692261817
 20
461.6392617244538
 30
0.0
 42
0.0124336424350373
  0
VERTEX
  5
1868
330
1864
100
AcDbEntity
  8
HILF
100
AcDbVertex
100
AcDb2dVertex
 10
284.9596124788559
 20
459.6117503829857
 30
0.0
 42
0.0188784698803044
 70
     1
  0
VERTEX
  5
1869
330
1864
100
AcDbEntity
  8
HILF
100
AcDbVertex
100
AcDb2dVertex
 10
282.3230897042174
 20
458.1081977476026
 30
0.0
 42
0.0411777702120067
  0
VERTEX
  5
186A
330
1864
100
AcDbEntity
  8
HILF
100
AcDbVertex
100
AcDb2dVertex
 10
278.8133907259452
 20
455.5041159569449
 30
0.0
 42
0.0499159360303022
 70
     1
  0
VERTEX
  5
186B
330
1864
100
AcDbEntity
  8
HILF
100
AcDbVertex
100
AcDb2dVertex
 10
276.3529314005841
 20
452.8651007205537
 30
0.0
 42
0.1072722055497033
  0
VERTEX
  5
186C
330
1864
100
AcDbEntity
  8
HILF
100
AcDbVertex
100
AcDb2dVertex
 10
275.2092549540962
 20
450.4162479956888
 30
0.0
 42
0.0927325929982684
 70
     1
  0
VERTEX
  5
186D
330
1864
100
AcDbEntity
  8
HILF
100
AcDbVertex
100
AcDb2dVertex
 10
275.0900125335777
 20
447.3009977170759
 30
0.0
 42
0.099194675120976
  0
VERTEX
  5
186E
330
1864
100
AcDbEntity
  8
HILF
100
AcDbVertex
100
AcDb2dVertex
 10
276.1457201278127
 20
444.3579985038454
 30
0.0
 42
0.075318876928276
 70
     1
  0
VERTEX
  5
186F
330
1864
100
AcDbEntity
  8
HILF
100
AcDbVertex
100
AcDb2dVertex
 10
278.7639571241307
 20
441.2018841649281
 30
0.0
 42
0.0560769426130045
  0
VERTEX
  5
1870
330
1864
100
AcDbEntity
  8
HILF
100
AcDbVertex
100
AcDb2dVertex
 10
281.8650848761289
 20
439.0071506585242
 30
0.0
 42
0.0383280843432889
 70
     1
  0
VERTEX
  5
1871
330
1864
100
AcDbEntity
  8
HILF
100
AcDbVertex
100
AcDb2dVertex
 10
286.9155190229669
 20
436.7078022587905
 30
0.0
 42
0.063989847608821
  0
VERTEX
  5
1872
330
1864
100
AcDbEntity
  8
HILF
100
AcDbVertex
100
AcDb2dVertex
 10
290.1016630703452
 20
435.9859125057963
 30
0.0
 42
0.0463223011874283
 70
     1
  0
VERTEX
  5
1873
330
1864
100
AcDbEntity
  8
HILF
100
AcDbVertex
100
AcDb2dVertex
 10
294.6058021500611
 20
435.9749857041729
 30
0.0
  0
SEQEND
  5
1874
330
1864
100
AcDbEntity
  8
HILF
  0
ARC
  5
1875
102
{ACAD_REACTORS
330
1AC5
102
}
330
1E
100
AcDbEntity
  8
STEMPEL
100
AcDbCircle
 10
278.5
 20
444.0125933770497
 30
0.0
 40
15.5
100
AcDbArc
 50
328.3813116001122
 51
0.0
  0
ARC
  5
1876
102
{ACAD_REACTORS
330
1AC5
102
}
330
1E
100
AcDbEntity
  8
STEMPEL
100
AcDbCircle
 10
314.5
 20
457.5438739543785
 30
0.0
 40
20.5
100
AcDbArc
 50
164.3692974387898
 51
180.0
  0
DIMENSION
  5
1877
330
1E
100
AcDbEntity
  8
BEM
100
AcDbDimension
  2
*D1
 10
296.5
 20
450.7782336657141
 30
0.0
 11
319.3666666666667
 21
457.2782336657141
 31
0.0
 70
    32
 71
     5
 42
2.5
  3
Standard
100
AcDbAlignedDimension
 13
294.0
 23
450.7782336657141
 33
0.0
 14
296.5
 24
450.7782336657141
 34
0.0
100
AcDbRotatedDimension
1001
ACAD
1000
DSTYLE
1002
{
1070
    40
1040
2.0
1070
    41
1040
3.5
1070
    42
1040
1.0
1070
    43
1040
7.0
1070
    44
1040
1.0
1070
    73
1070
     0
1070
    74
1070
     0
1070
    77
1070
     1
1070
    78
1070
     8
1070
    79
1070
     2
1070
   140
1040
3.5
1070
   141
1040
1.5
1070
   146
1040
0.5142857142857144
1070
   147
1040
1.5
1070
   172
1070
     1
1070
   178
1070
     1
1070
   179
1070
     2
1070
   271
1070
     2
1070
   272
1070
     2
1070
   284
1070
     8
1070
   285
1070
     8
1070
   286
1070
     8
1002
}
  0
LINE
  5
1878
102
{ACAD_REACTORS
330
1AC5
102
}
330
1E
100
AcDbEntity
  8
STEMPEL
100
AcDbLine
 10
294.0
 20
457.5438739543785
 30
0.0
 11
294.0
 21
444.0125933770497
 31
0.0
  0
LINE
  5
1880
330
1E
100
AcDbEntity
  8
STEMPEL
100
AcDbLine
 10
297.7584447974063
 20
510.5438739543785
 30
0.0
 11
298.1892336110994
 21
509.6200443621353
 31
0.0
  0
ARC
  5
1881
330
1E
100
AcDbEntity
  8
STEMPEL
100
AcDbCircle
 10
271.0
 20
496.9414965099143
 30
0.0
 40
30.0
100
AcDbArc
 50
0.0
 51
24.99999999999207
  0
LINE
  5
1882
330
1E
100
AcDbEntity
  8
STEMPEL
100
AcDbLine
 10
301.0
 20
496.9414965099143
 30
0.0
 11
301.0
 21
477.8348739543785
 31
0.0
  0
ARC
  5
1883
330
1E
100
AcDbEntity
  8
STEMPEL
100
AcDbCircle
 10
271.0
 20
477.8348739543785
 30
0.0
 40
29.99973625969209
100
AcDbArc
 50
334.9928416634577
 51
0.0
  0
ARC
  5
1884
102
{ACAD_REACTORS
330
1AC5
102
}
330
1E
100
AcDbEntity
  8
STEMPEL
100
AcDbCircle
 10
314.5
 20
457.5438739543785
 30
0.0
 40
18.0
100
AcDbArc
 50
154.9928416634576
 51
180.0
  0
LINE
  5
1885
102
{ACAD_REACTORS
330
1AC5
102
}
330
1E
100
AcDbEntity
  8
STEMPEL
100
AcDbLine
 10
296.5
 20
457.5438739543785
 30
0.0
 11
296.5
 21
444.0125933770497
 31
0.0
  0
LINE
  5
1886
330
1E
100
AcDbEntity
  8
STEMPEL
100
AcDbLine
 10
291.5000000000001
 20
428.0438739543785
 30
0.0
 11
291.5000000000001
 21
405.0345345974812
 31
0.0
  0
ARC
  5
1887
330
1E
100
AcDbEntity
  8
STEMPEL
100
AcDbCircle
 10
301.5000000000001
 20
428.0438739543785
 30
0.0
 40
10.0
100
AcDbArc
 50
145.2280559680509
 51
180.0
  0
ARC
  5
1888
102
{ACAD_REACTORS
330
1AC5
102
}
330
1E
100
AcDbEntity
  8
STEMPEL
100
AcDbCircle
 10
278.5
 20
444.0125933770497
 30
0.0
 40
18.0
100
AcDbArc
 50
325.228055968051
 51
0.0
  0
LINE
  5
1889
330
1E
100
AcDbEntity
  8
STEMPEL
100
AcDbLine
 10
152.2415552025937
 20
510.5438739543785
 30
0.0
 11
151.8107663889005
 21
509.6200443621353
 31
0.0
  0
ARC
  5
188A
330
1E
100
AcDbEntity
  8
STEMPEL
100
AcDbCircle
 10
179.0
 20
496.9414965099143
 30
0.0
 40
30.0
100
AcDbArc
 50
155.0000000000006
 51
180.0
  0
LINE
  5
188B
330
1E
100
AcDbEntity
  8
STEMPEL
100
AcDbLine
 10
149.0002637403079
 20
477.8348739543785
 30
0.0
 11
149.0
 21
477.8348739543785
 31
0.0
  0
LINE
  5
188C
330
1E
100
AcDbEntity
  8
STEMPEL
100
AcDbLine
 10
149.0
 20
496.9414965099143
 30
0.0
 11
149.0
 21
477.8348739543785
 31
0.0
  0
ARC
  5
188D
330
1E
100
AcDbEntity
  8
STEMPEL
100
AcDbCircle
 10
135.4999999999999
 20
457.5438739543785
 30
0.0
 40
18.0
100
AcDbArc
 50
0.0
 51
25.00715833654961
  0
ARC
  5
188E
330
1E
100
AcDbEntity
  8
STEMPEL
100
AcDbCircle
 10
171.5
 20
444.0125933770497
 30
0.0
 40
18.0
100
AcDbArc
 50
180.0
 51
214.7719440319491
  0
LINE
  5
188F
330
1E
100
AcDbEntity
  8
STEMPEL
100
AcDbLine
 10
153.4999999999999
 20
457.5438739543785
 30
0.0
 11
153.4999999999999
 21
444.0125933770497
 31
0.0
  0
ARC
  5
1890
330
1E
100
AcDbEntity
  8
STEMPEL
100
AcDbCircle
 10
148.4999999999998
 20
428.0438739543785
 30
0.0
 40
10.0
100
AcDbArc
 50
0.0
 51
34.77194403194904
  0
ARC
  5
1891
330
1E
100
AcDbEntity
  8
STEMPEL
100
AcDbCircle
 10
179.0
 20
477.8348739543785
 30
0.0
 40
29.99973625969209
100
AcDbArc
 50
180.0
 51
205.0071583365496
  0
LINE
  5
1892
330
1E
100
AcDbEntity
  8
STEMPEL
100
AcDbLine
 10
297.7584447974063
 20
510.5438739543785
 30
0.0
 11
152.2415552025937
 21
510.5438739543785
 31
0.0
  0
LINE
  5
1893
330
1E
100
AcDbEntity
  8
STEMPEL
100
AcDbLine
 10
158.4999999999998
 20
428.0438739543785
 30
0.0
 11
158.4999999999997
 21
405.034534597481
 31
0.0
  0
ARC
  5
189E
330
1E
100
AcDbEntity
  8
SCHRAFF
100
AcDbCircle
 10
302.680847493163
 20
380.5438739543786
 30
0.0
 40
6.105960184964732
100
AcDbArc
 50
330.5724100625237
 51
29.42758993747633
  0
ARC
  5
189F
330
1E
100
AcDbEntity
  8
SCHRAFF
100
AcDbCircle
 10
296.5748873081983
 20
380.5438739543786
 30
0.0
 40
6.105960184964732
100
AcDbArc
 50
330.5724100625237
 51
29.42758993747633
  0
ARC
  5
18A0
330
1E
100
AcDbEntity
  8
SCHRAFF
100
AcDbCircle
 10
284.3629669382689
 20
380.5438739543786
 30
0.0
 40
6.105960184964732
100
AcDbArc
 50
330.5724100625237
 51
29.42758993747633
  0
ARC
  5
18A1
330
1E
100
AcDbEntity
  8
SCHRAFF
100
AcDbCircle
 10
278.257006753304
 20
380.5438739543786
 30
0.0
 40
6.105960184964732
100
AcDbArc
 50
330.5724100625237
 51
29.42758993747633
  0
ARC
  5
18A2
330
1E
100
AcDbEntity
  8
SCHRAFF
100
AcDbCircle
 10
290.4689271232336
 20
380.5438739543786
 30
0.0
 40
6.105960184964732
100
AcDbArc
 50
330.5724100625237
 51
29.42758993747633
  0
ARC
  5
18A3
330
1E
100
AcDbEntity
  8
SCHRAFF
100
AcDbCircle
 10
272.1510465683393
 20
380.5438739543786
 30
0.0
 40
6.105960184964732
100
AcDbArc
 50
330.5724100625237
 51
29.42758993747633
  0
ARC
  5
18A4
330
1E
100
AcDbEntity
  8
SCHRAFF
100
AcDbCircle
 10
266.0450863833746
 20
380.5438739543786
 30
0.0
 40
6.105960184964732
100
AcDbArc
 50
330.5724100625237
 51
29.42758993747633
  0
ARC
  5
18A5
330
1E
100
AcDbEntity
  8
SCHRAFF
100
AcDbCircle
 10
253.8331660134451
 20
380.5438739543786
 30
0.0
 40
6.105960184964732
100
AcDbArc
 50
330.5724100625235
 51
29.42758993747646
  0
ARC
  5
18A6
330
1E
100
AcDbEntity
  8
SCHRAFF
100
AcDbCircle
 10
247.7272058284804
 20
380.5438739543786
 30
0.0
 40
6.105960184964732
100
AcDbArc
 50
330.5724100625235
 51
29.42758993747646
  0
ARC
  5
18A7
330
1E
100
AcDbEntity
  8
SCHRAFF
100
AcDbCircle
 10
259.9391261984099
 20
380.5438739543786
 30
0.0
 40
6.105960184964732
100
AcDbArc
 50
330.5724100625235
 51
29.42758993747646
  0
ARC
  5
18A8
330
1E
100
AcDbEntity
  8
SCHRAFF
100
AcDbCircle
 10
241.6212456435157
 20
380.5438739543786
 30
0.0
 40
6.105960184964732
100
AcDbArc
 50
330.5724100625235
 51
29.42758993747646
  0
ARC
  5
18A9
330
1E
100
AcDbEntity
  8
SCHRAFF
100
AcDbCircle
 10
235.515285458551
 20
380.5438739543786
 30
0.0
 40
6.105960184964732
100
AcDbArc
 50
330.5724100625235
 51
29.42758993747646
  0
ARC
  5
18AB
330
1E
100
AcDbEntity
  8
SCHRAFF
100
AcDbCircle
 10
229.4093252735862
 20
380.5438739543786
 30
0.0
 40
6.105960184964732
100
AcDbArc
 50
330.5724100625235
 51
29.42758993747646
  0
ARC
  5
18AC
330
1E
100
AcDbEntity
  8
SCHRAFF
100
AcDbCircle
 10
223.3033650886215
 20
380.5438739543786
 30
0.0
 40
6.105960184964732
100
AcDbArc
 50
330.5724100625235
 51
29.42758993747646
  0
ARC
  5
18AD
330
1E
100
AcDbEntity
  8
SCHRAFF
100
AcDbCircle
 10
211.0914447186921
 20
380.5438739543786
 30
0.0
 40
6.105960184964732
100
AcDbArc
 50
330.5724100625235
 51
29.42758993747646
  0
ARC
  5
18AE
330
1E
100
AcDbEntity
  8
SCHRAFF
100
AcDbCircle
 10
204.9854845337273
 20
380.5438739543786
 30
0.0
 40
6.105960184964732
100
AcDbArc
 50
330.5724100625235
 51
29.42758993747646
  0
ARC
  5
18AF
330
1E
100
AcDbEntity
  8
SCHRAFF
100
AcDbCircle
 10
217.1974049036568
 20
380.5438739543786
 30
0.0
 40
6.105960184964732
100
AcDbArc
 50
330.5724100625235
 51
29.42758993747646
  0
ARC
  5
18B0
330
1E
100
AcDbEntity
  8
SCHRAFF
100
AcDbCircle
 10
198.8795243487626
 20
380.5438739543786
 30
0.0
 40
6.105960184964732
100
AcDbArc
 50
330.5724100625235
 51
29.42758993747646
  0
ARC
  5
18B1
330
1E
100
AcDbEntity
  8
SCHRAFF
100
AcDbCircle
 10
192.7735641637979
 20
380.5438739543786
 30
0.0
 40
6.105960184964732
100
AcDbArc
 50
330.5724100625235
 51
29.42758993747646
  0
ARC
  5
18B2
330
1E
100
AcDbEntity
  8
SCHRAFF
100
AcDbCircle
 10
186.6676039788331
 20
380.5438739543786
 30
0.0
 40
6.105960184964732
100
AcDbArc
 50
330.5724100625235
 51
29.42758993747646
  0
ARC
  5
18B3
330
1E
100
AcDbEntity
  8
SCHRAFF
100
AcDbCircle
 10
180.5616437938684
 20
380.5438739543786
 30
0.0
 40
6.105960184964732
100
AcDbArc
 50
330.5724100625235
 51
29.42758993747646
  0
ARC
  5
18B4
330
1E
100
AcDbEntity
  8
SCHRAFF
100
AcDbCircle
 10
174.4556836089037
 20
380.5438739543786
 30
0.0
 40
6.105960184964732
100
AcDbArc
 50
330.5724100625235
 51
29.42758993747646
  0
ARC
  5
18B5
330
1E
100
AcDbEntity
  8
SCHRAFF
100
AcDbCircle
 10
168.3497234239389
 20
380.5438739543786
 30
0.0
 40
6.105960184964732
100
AcDbArc
 50
330.5724100625235
 51
29.42758993747646
  0
ARC
  5
18B6
330
1E
100
AcDbEntity
  8
SCHRAFF
100
AcDbCircle
 10
162.2437632389742
 20
380.5438739543786
 30
0.0
 40
6.105960184964732
100
AcDbArc
 50
330.5724100625235
 51
29.42758993747646
  0
ARC
  5
18B7
330
1E
100
AcDbEntity
  8
SCHRAFF
100
AcDbCircle
 10
156.1378030540095
 20
380.5438739543786
 30
0.0
 40
6.105960184964732
100
AcDbArc
 50
330.5724100625235
 51
29.42758993747646
  0
ARC
  5
18B8
330
1E
100
AcDbEntity
  8
SCHRAFF
100
AcDbCircle
 10
150.0318428690447
 20
380.5438739543786
 30
0.0
 40
6.105960184964732
100
AcDbArc
 50
330.5724100625235
 51
29.42758993747646
  0
ARC
  5
18B9
330
1E
100
AcDbEntity
  8
SCHRAFF
100
AcDbCircle
 10
143.92588268408
 20
380.5438739543786
 30
0.0
 40
6.105960184964732
100
AcDbArc
 50
330.5724100625235
 51
29.42758993747646
  0
ARC
  5
18BA
330
1E
100
AcDbEntity
  8
SCHRAFF
100
AcDbCircle
 10
137.8199224991153
 20
380.5438739543786
 30
0.0
 40
6.105960184964732
100
AcDbArc
 50
330.5724100625247
 51
29.42758993747646
  0
DIMENSION
  5
18BE
330
1E
100
AcDbEntity
  8
BEM
100
AcDbDimension
  2
*D2
 10
330.0
 20
186.988121015659
 30
0.0
 11
225.0
 21
193.488121015659
 31
0.0
 70
    32
  1
%%C<>
 71
     5
 42
210.0000000000001
  3
Standard
100
AcDbAlignedDimension
 13
119.9999999999999
 23
222.7456353155978
 33
0.0
 14
330.0
 24
222.7456353155978
 34
0.0
100
AcDbRotatedDimension
1001
ACAD
1000
DSTYLE
1002
{
1070
    40
1040
2.0
1070
    41
1040
3.5
1070
    42
1040
1.0
1070
    43
1040
7.0
1070
    44
1040
1.0
1070
    73
1070
     0
1070
    74
1070
     0
1070
    77
1070
     1
1070
    78
1070
     8
1070
    79
1070
     2
1070
   140
1040
3.5
1070
   141
1040
1.5
1070
   146
1040
0.5142857142857144
1070
   147
1040
1.5
1070
   172
1070
     1
1070
   178
1070
     1
1070
   179
1070
     2
1070
   271
1070
     2
1070
   272
1070
     2
1070
   284
1070
     8
1070
   285
1070
     8
1070
   286
1070
     8
1002
}
  0
POLYLINE
  5
18C1
102
{ACAD_REACTORS
330
1BEA
102
}
330
1E
100
AcDbEntity
  8
HILF
100
AcDb2dPolyline
 66
     1
 10
0.0
 20
0.0
 30
0.0
 70
     2
  0
VERTEX
  5
18C2
330
18C1
100
AcDbEntity
  8
HILF
100
AcDbVertex
100
AcDb2dVertex
 10
330.0
 20
265.4822038290465
 30
0.0
 42
0.1255862644123895
  0
VERTEX
  5
18C3
330
18C1
100
AcDbEntity
  8
HILF
100
AcDbVertex
100
AcDb2dVertex
 10
319.2397596183512
 20
266.4559744874473
 30
0.0
 42
0.2171643735928247
 70
     1
  0
VERTEX
  5
18C4
330
18C1
100
AcDbEntity
  8
HILF
100
AcDbVertex
100
AcDb2dVertex
 10
314.5764513962011
 20
262.2748604184243
 30
0.0
 42
0.0412550359984324
  0
VERTEX
  5
18C5
330
18C1
100
AcDbEntity
  8
HILF
100
AcDbVertex
100
AcDb2dVertex
 10
310.2273212080685
 20
257.981092132532
 30
0.0
 42
0.1053369606035964
 70
     1
  0
VERTEX
  5
18C6
330
18C1
100
AcDbEntity
  8
HILF
100
AcDbVertex
100
AcDb2dVertex
 10
309.0701987956117
 20
255.8601735971799
 30
0.0
 42
0.1137717792574769
  0
VERTEX
  5
18C7
330
18C1
100
AcDbEntity
  8
HILF
100
AcDbVertex
100
AcDb2dVertex
 10
308.8287572385884
 20
252.0310831815502
 30
0.0
 42
0.0906765593008431
 70
     1
  0
VERTEX
  5
18C8
330
18C1
100
AcDbEntity
  8
HILF
100
AcDbVertex
100
AcDb2dVertex
 10
310.446761945759
 20
247.5210807295622
 30
0.0
 42
0.1015492392595481
  0
VERTEX
  5
18C9
330
18C1
100
AcDbEntity
  8
HILF
100
AcDbVertex
100
AcDb2dVertex
 10
313.6150673890587
 20
243.9644620865283
 30
0.0
 42
0.0581024541660469
 70
     1
  0
VERTEX
  5
18CA
330
18C1
100
AcDbEntity
  8
HILF
100
AcDbVertex
100
AcDb2dVertex
 10
320.7709855718643
 20
239.823456544069
 30
0.0
 42
0.257052312896121
  0
VERTEX
  5
18CB
330
18C1
100
AcDbEntity
  8
HILF
100
AcDbVertex
100
AcDb2dVertex
 10
322.5077878698586
 20
238.3788891086063
 30
0.0
 42
0.0768874907856573
 70
     1
  0
VERTEX
  5
18CC
330
18C1
100
AcDbEntity
  8
HILF
100
AcDbVertex
100
AcDb2dVertex
 10
330.0
 20
239.1819878619446
 30
0.0
  0
SEQEND
  5
18CD
330
18C1
100
AcDbEntity
  8
HILF
  0
DIMENSION
  5
18CF
330
1E
100
AcDbEntity
  8
BEM
100
AcDbDimension
  2
*D3
 10
98.82634737262103
 20
330.5438739543785
 30
0.0
 11
92.32634737262097
 21
270.5438739543785
 31
0.0
 70
    32
 71
     5
 42
119.9999999999999
  3
Standard
100
AcDbAlignedDimension
 13
121.7497732705183
 23
210.5438739543785
 33
0.0
 14
119.9730622130146
 24
330.5438739543785
 34
0.0
 50
90.0
100
AcDbRotatedDimension
1001
ACAD
1000
DSTYLE
1002
{
1070
    40
1040
2.0
1070
    41
1040
3.5
1070
    42
1040
1.0
1070
    43
1040
7.0
1070
    44
1040
1.0
1070
    73
1070
     0
1070
    74
1070
     0
1070
    77
1070
     1
1070
    78
1070
     8
1070
    79
1070
     2
1070
   140
1040
3.5
1070
   141
1040
1.5
1070
   146
1040
0.5142857142857144
1070
   147
1040
1.5
1070
   172
1070
     1
1070
   178
1070
     1
1070
   179
1070
     2
1070
   271
1070
     2
1070
   272
1070
     2
1070
   284
1070
     8
1070
   285
1070
     8
1070
   286
1070
     8
1002
}
  0
LINE
  5
18D0
330
1E
100
AcDbEntity
  8
STEMPEL
100
AcDbLine
 10
330.0
 20
222.7456353155978
 30
0.0
 11
328.2502267294815
 21
210.5438739543785
 31
0.0
  0
LINE
  5
18D1
330
1E
100
AcDbEntity
  8
STEMPEL
100
AcDbLine
 10
119.9999999999999
 20
222.7456353155978
 30
0.0
 11
121.7497732705183
 21
210.5438739543785
 31
0.0
  0
LINE
  5
18D2
330
1E
100
AcDbEntity
  8
HILF
100
AcDbLine
 10
327.5
 20
222.7456353155978
 30
0.0
 11
122.4999999999999
 21
222.7456353155978
 31
0.0
  0
LINE
  5
18D3
330
1E
100
AcDbEntity
  8
HILF
100
AcDbLine
 10
327.1225675211748
 20
330.5438739543786
 30
0.0
 11
122.877432478825
 21
330.5438739543784
 31
0.0
  0
LINE
  5
18D4
102
{ACAD_REACTORS
330
1B8E
330
1BCB
102
}
330
1E
100
AcDbEntity
  8
STEMPEL
100
AcDbLine
 10
315.0
 20
380.5438739543785
 30
0.0
 11
134.9999999999998
 21
380.5438739543786
 31
0.0
  0
LINE
  5
18D5
102
{ACAD_REACTORS
330
1BEA
102
}
330
1E
100
AcDbEntity
  8
STEMPEL
100
AcDbLine
 10
329.9999999999999
 20
329.6453151272095
 30
0.0
 11
330.0
 21
222.7456353155978
 31
0.0
  0
LINE
  5
18D7
330
1E
100
AcDbEntity
  8
STEMPEL
100
AcDbLine
 10
328.2502267294815
 20
210.5438739543785
 30
0.0
 11
121.7497732705183
 21
210.5438739543785
 31
0.0
  0
LINE
  5
18D8
330
1E
100
AcDbEntity
  8
MITTEL
100
AcDbLine
 10
225.0
 20
515.5438739543784
 30
0.0
 11
225.0
 21
421.4935941297908
 31
0.0
  0
DIMENSION
  5
1A5D
330
1E
100
AcDbEntity
  8
BEM
100
AcDbDimension
  2
*D4
 10
291.5000000000001
 20
409.0392042759299
 30
0.0
 11
225.0
 21
415.5392042759299
 31
0.0
 70
    32
  1
%%c<>
 71
     5
 42
133.0000000000003
  3
Standard
100
AcDbAlignedDimension
 13
158.4999999999998
 23
409.0392042759297
 33
0.0
 14
291.5000000000001
 24
409.0392042759299
 34
0.0
100
AcDbRotatedDimension
1001
ACAD
1000
DSTYLE
1002
{
1070
    40
1040
2.0
1070
    41
1040
3.5
1070
    42
1040
1.0
1070
    43
1040
7.0
1070
    44
1040
1.0
1070
    73
1070
     0
1070
    74
1070
     0
1070
    77
1070
     1
1070
    78
1070
     8
1070
    79
1070
     2
1070
   140
1040
3.5
1070
   141
1040
1.5
1070
   146
1040
0.5142857142857144
1070
   147
1040
1.5
1070
   172
1070
     1
1070
   178
1070
     1
1070
   179
1070
     2
1070
   271
1070
     2
1070
   272
1070
     2
1070
   284
1070
     8
1070
   285
1070
     8
1070
   286
1070
     8
1002
}
  0
DIMENSION
  5
1A68
330
1E
100
AcDbEntity
  8
BEM
100
AcDbDimension
  2
*D5
 10
80.00360729012012
 20
210.5438739543785
 30
0.0
 11
73.5036072901201
 21
360.5438739543786
 31
0.0
 70
    32
 71
     5
 42
300.0000000000001
  3
Standard
100
AcDbAlignedDimension
 13
152.2415552025937
 23
510.5438739543785
 33
0.0
 14
121.7497732705183
 24
210.5438739543785
 34
0.0
 50
90.0
100
AcDbRotatedDimension
1001
ACAD
1000
DSTYLE
1002
{
1070
    40
1040
2.0
1070
    41
1040
3.5
1070
    42
1040
1.0
1070
    43
1040
7.0
1070
    44
1040
1.0
1070
    73
1070
     0
1070
    74
1070
     0
1070
    77
1070
     1
1070
    78
1070
     8
1070
    79
1070
     2
1070
   140
1040
3.5
1070
   141
1040
1.5
1070
   146
1040
0.5142857142857144
1070
   147
1040
1.5
1070
   172
1070
     1
1070
   178
1070
     1
1070
   179
1070
     2
1070
   271
1070
     2
1070
   272
1070
     2
1070
   284
1070
     8
1070
   285
1070
     8
1070
   286
1070
     8
1002
}
  0
HATCH
  5
1AC5
330
1E
100
AcDbEntity
  8
SCHRAFF
100
AcDbHatch
 10
0.0
 20
0.0
 30
0.0
210
0.0
220
0.0
230
1.0
  2
_USER
 70
     0
 71
     1
 91
        1
 92
        7
 72
     1
 73
     1
 93
        8
 10
296.5
 20
457.5438739543785
 42
-0.0814775701388282
 10
297.4433904494675
 20
463.2947061237852
 42
0.0193866480532205
 10
294.758124338839
 20
463.0673099664329
 42
0.0683077497357353
 10
294.0
 20
457.5438739543785
 42
0.0
 10
294.0
 20
444.0125933770497
 42
-0.1388445814072176
 10
291.6991176621333
 20
435.8865061918687
 42
0.0298698112842209
 10
294.6058021500611
 20
435.9749857041729
 42
0.1162412663095433
 10
296.5
 20
444.0125933770497
 42
0.0
 97
        7
330
1884
330
1864
330
1876
330
1878
330
1875
330
1888
330
1885
 75
     0
 76
     0
 52
135.0
 41
2.0
 77
     0
 78
     1
 53
135.0
 43
14.14154368727881
 44
0.0
 45
-1.414213562373095
 46
-1.414213562373094
 79
     0
 47
0.0966429276140362
 98
        1
 10
294.2503578261807
 20
455.3469050834876
  0
ARC
  5
1AC8
102
{ACAD_REACTORS
330
1B8E
102
}
330
1E
100
AcDbEntity
  8
SCHRAFF
100
AcDbCircle
 10
312.928176391856
 20
378.4931243362398
 30
0.0
 40
5.551098377540364
100
AcDbArc
 50
350.1539021820718
 51
114.5133104232349
  0
ARC
  5
1AC9
102
{ACAD_REACTORS
330
1BCB
102
}
330
1E
100
AcDbEntity
  8
SCHRAFF
100
AcDbCircle
 10
137.2258822374451
 20
378.8908018583662
 30
0.0
 40
5.125406041282702
100
AcDbArc
 50
65.20916745796585
 51
189.4483849047191
  0
LINE
  5
1B39
330
1E
100
AcDbEntity
  8
HILF
100
AcDbLine
 10
155.6261846031207
 20
461.4408847730839
 30
0.0
 11
291.8325496211221
 21
461.440884773084
 31
0.0
  0
LINE
  5
1B3A
330
1E
100
AcDbEntity
  8
HILF
100
AcDbLine
 10
156.9631011363692
 20
438.6340646350448
 30
0.0
 11
290.3351775893489
 21
438.6340646350448
 31
0.0
  0
LINE
  5
1B3B
330
1E
100
AcDbEntity
  8
HILF
100
AcDbLine
 10
160.6376039056901
 20
431.0319454777146
 30
0.0
 11
289.3623960943098
 21
431.0319454777146
 31
0.0
  0
LINE
  5
1B3C
330
1E
100
AcDbEntity
  8
HILF
100
AcDbLine
 10
160.3096651917608
 20
400.937974081816
 30
0.0
 11
289.6903348082391
 21
400.937974081816
 31
0.0
  0
LINE
  5
1B45
330
1E
100
AcDbEntity
  8
MITTEL
100
AcDbLine
 10
224.9999999999999
 20
405.0595825758859
 30
0.0
 11
224.9999999999999
 21
205.5438739543785
 31
0.0
  0
SPLINE
  5
1B86
102
{ACAD_REACTORS
330
1B8E
102
}
330
1E
100
AcDbEntity
  8
STEMPEL
100
AcDbSpline
210
0.0
220
0.0
230
1.0
 70
     8
 71
     3
 72
    11
 73
     7
 74
     0
 42
0.0000000001
 43
0.0000000001
 40
0.0
 40
0.0
 40
0.0
 40
0.0
 40
33.71201566207508
 40
46.54195758265695
 40
59.37189950323883
 40
61.28698819978382
 40
61.28698819978382
 40
61.28698819978382
 40
61.28698819978382
 10
315.0
 20
380.5438739543786
 30
0.0
 10
324.6146448919639
 20
372.1028132445137
 30
0.0
 10
337.8883808566008
 20
365.4492979682641
 30
0.0
 10
332.1023788672754
 20
345.2906163574846
 30
0.0
 10
330.5031947852588
 20
336.374243047491
 30
0.0
 10
330.0982343586529
 20
331.4744213130071
 30
0.0
 10
330.0474518164445
 20
330.8374991811177
 30
0.0
  0
ARC
  5
1B87
330
1E
100
AcDbEntity
  8
STEMPEL
100
AcDbCircle
 10
344.9999999999753
 20
329.6453151271834
 30
0.0
 40
15.0
100
AcDbArc
 50
175.441384348274
 51
179.9999999999003
  0
HATCH
  5
1B8E
330
1E
100
AcDbEntity
  8
SCHRAFF
100
AcDbHatch
 10
0.0
 20
0.0
 30
0.0
210
0.0
220
0.0
230
1.0
  2
_USER
 70
     0
 71
     1
 91
        1
 92
        5
 93
        4
 72
     1
 10
310.6250000000001
 20
383.5438739543786
 11
314.0000000000002
 21
380.5438739543785
 72
     1
 10
314.0000000000002
 20
380.5438739543785
 11
315.0000000000001
 21
380.5438739543785
 72
     4
 94
        3
 73
     0
 74
     0
 95
        8
 96
        4
 40
0.0
 40
0.0
 40
0.0
 40
0.0
 40
4.013038591290264
 40
4.013038591290264
 40
4.013038591290264
 40
4.013038591290264
 10
315.0
 20
380.5438739543786
 10
316.1445159903746
 20
379.5390600411536
 10
317.2890319807492
 20
378.5855662062573
 10
318.4177865402388
 20
377.6691864648529
 72
     2
 10
312.928176391856
 20
378.4931243362398
 40
5.551098377540359
 50
351.4641679919179
 51
474.5133104232349
 73
     1
 97
        4
330
1861
330
18D4
330
1B86
330
1AC8
 75
     0
 76
     0
 52
0.0
 41
0.1
 77
     0
 78
     1
 53
0.0
 43
0.0
 44
15.0
 45
0.0
 46
0.1
 79
     0
 47
0.0581697966753598
 98
        1
 10
316.5626087070718
 20
381.3593839793229
  0
LINE
  5
1B94
330
1E
100
AcDbEntity
  8
STEMPEL
100
AcDbLine
 10
120.0
 20
329.6453151272096
 30
0.0
 11
119.9999999999998
 21
222.7456353155978
 31
0.0
  0
ARC
  5
1B96
330
1E
100
AcDbEntity
  8
STEMPEL
100
AcDbCircle
 10
105.0000000000246
 20
329.6453151271834
 30
0.0
 40
15.0
100
AcDbArc
 50
0.0000000000996458
 51
4.558615651725929
  0
SPLINE
  5
1B97
102
{ACAD_REACTORS
330
1BCB
102
}
330
1E
100
AcDbEntity
  8
STEMPEL
100
AcDbSpline
210
0.0
220
0.0
230
1.0
 70
     8
 71
     3
 72
    11
 73
     7
 74
     0
 42
0.0000000001
 43
0.0000000001
 40
0.0
 40
0.0
 40
0.0
 40
0.0
 40
33.71201566207508
 40
46.54195758265695
 40
59.37189950323883
 40
61.28698819978382
 40
61.28698819978382
 40
61.28698819978382
 40
61.28698819978382
 10
134.9999999999999
 20
380.5438739543786
 30
0.0
 10
125.385355108036
 20
372.1028132445138
 30
0.0
 10
112.1116191433991
 20
365.4492979682642
 30
0.0
 10
117.8976211327244
 20
345.2906163574846
 30
0.0
 10
119.4968052147411
 20
336.3742430474911
 30
0.0
 10
119.901765641347
 20
331.4744213130072
 30
0.0
 10
119.9525481835554
 20
330.8374991811177
 30
0.0
  0
LINE
  5
1BAC
102
{ACAD_REACTORS
330
1BEA
102
}
330
1E
100
AcDbEntity
  8
STEMPEL
100
AcDbLine
 10
327.1
 20
266.288463738571
 30
0.0
 11
327.1
 21
238.5935647870006
 31
0.0
  0
DIMENSION
  5
1BAE
330
1E
100
AcDbEntity
  8
BEM
100
AcDbDimension
  2
*D6
 10
329.9999999999999
 20
252.4410142627858
 30
0.0
 11
352.7333333333333
 21
258.9410142627858
 31
0.0
 70
    32
 71
     5
 42
2.89999999999992
  3
Standard
100
AcDbAlignedDimension
 13
327.1
 23
252.4410142627858
 33
0.0
 14
329.9999999999999
 24
252.4410142627858
 34
0.0
100
AcDbRotatedDimension
1001
ACAD
1000
DSTYLE
1002
{
1070
    40
1040
2.0
1070
    41
1040
3.5
1070
    42
1040
1.0
1070
    43
1040
7.0
1070
    44
1040
1.0
1070
    73
1070
     0
1070
    74
1070
     0
1070
    77
1070
     1
1070
    78
1070
     8
1070
    79
1070
     2
1070
   140
1040
3.5
1070
   141
1040
1.5
1070
   146
1040
0.5142857142857144
1070
   147
1040
1.5
1070
   172
1070
     1
1070
   178
1070
     1
1070
   179
1070
     2
1070
   271
1070
     2
1070
   272
1070
     2
1070
   284
1070
     8
1070
   285
1070
     8
1070
   286
1070
     8
1002
}
  0
HATCH
  5
1BCB
330
1E
100
AcDbEntity
  8
DEFPOINTS
100
AcDbHatch
 10
0.0
 20
0.0
 30
0.0
210
0.0
220
0.0
230
1.0
  2
_USER
 70
     0
 71
     1
 91
        1
 92
        5
 93
        4
 72
     4
 94
        3
 73
     0
 74
     0
 95
        8
 96
        4
 40
0.0
 40
0.0
 40
0.0
 40
0.0
 40
3.334374009207531
 40
3.334374009207531
 40
3.334374009207531
 40
3.334374009207531
 10
132.1561571618889
 20
378.1373599254379
 10
133.0980774121085
 20
378.9095339636351
 10
134.0490387060542
 20
379.7089890360977
 10
134.9999999999999
 20
380.5438739543786
 72
     1
 10
134.9999999999997
 20
380.5438739543785
 11
135.9999999999999
 21
380.5438739543784
 72
     1
 10
135.9999999999999
 20
380.5438739543784
 11
139.3749999999999
 21
383.5438739543785
 72
     2
 10
137.2258822374451
 20
378.8908018583662
 40
5.125406041282706
 50
65.20916745796359
 51
188.4531938425791
 73
     1
 97
        4
330
1AC9
330
1B97
330
18D4
330
185F
 75
     0
 76
     0
 52
0.0
 41
0.1
 77
     0
 78
     1
 53
0.0
 43
0.0
 44
15.0
 45
0.0
 46
0.1
 79
     0
 47
0.0612829531942973
 98
        1
 10
135.2580089920038
 20
383.0936791913491
  0
HATCH
  5
1BEA
330
1E
100
AcDbEntity
  8
SCHRAFF
100
AcDbHatch
 10
0.0
 20
0.0
 30
0.0
210
0.0
220
0.0
230
1.0
  2
_USER
 70
     0
 71
     1
 91
        1
 92
        7
 72
     1
 73
     1
 93
        4
 10
327.1
 20
238.5935647870006
 42
0.0300438571181866
 10
330.0
 20
239.1819878619446
 42
0.0
 10
329.9999999999999
 20
265.4822038290465
 42
0.0344853332505654
 10
327.1
 20
266.288463738571
 42
0.0
 97
        3
330
18C1
330
1BAC
330
18D5
 75
     0
 76
     0
 52
45.0
 41
2.0
 77
     0
 78
     1
 53
45.0
 43
0.0
 44
0.0
 45
-1.414213562373094
 46
1.414213562373095
 79
     0
 47
0.1037096143786296
 98
        1
 10
328.2362517242527
 20
256.3088582630435
  0
ENDSEC
  0
SECTION
  2
OBJECTS
  0
DICTIONARY
  5
C
330
0
100
AcDbDictionary
281
     1
  3
ACAD_COLOR
350
DF
  3
ACAD_GROUP
350
D
  3
ACAD_LAYOUT
350
19
  3
ACAD_MATERIAL
350
DE
  3
ACAD_MLINESTYLE
350
16
  3
ACAD_PLOTSETTINGS
350
18
  3
ACAD_PLOTSTYLENAME
350
E
  3
AcDbVariableDictionary
350
EA
  0
DICTIONARY
  5
A0
330
1E
100
AcDbDictionary
280
     1
281
     1
  3
ACAD_LAYOUTSELFREF
360
D4
  0
DICTIONARY
  5
A2
330
1A
100
AcDbDictionary
280
     1
281
     1
  3
ACAD_LAYOUTSELFREF
360
D3
  0
DICTIONARY
  5
DF
102
{ACAD_REACTORS
330
C
102
}
330
C
100
AcDbDictionary
281
     1
  0
DICTIONARY
  5
D
102
{ACAD_REACTORS
330
C
102
}
330
C
100
AcDbDictionary
281
     1
  0
DICTIONARY
  5
19
102
{ACAD_REACTORS
330
C
102
}
330
C
100
AcDbDictionary
281
     1
  3
Layout1
350
1D
  3
Model
350
21
  0
DICTIONARY
  5
DE
102
{ACAD_REACTORS
330
C
102
}
330
C
100
AcDbDictionary
281
     1
  0
DICTIONARY
  5
16
102
{ACAD_REACTORS
330
C
102
}
330
C
100
AcDbDictionary
281
     1
  3
Standard
350
17
  0
DICTIONARY
  5
18
102
{ACAD_REACTORS
330
C
102
}
330
C
100
AcDbDictionary
281
     1
  0
ACDBDICTIONARYWDFLT
  5
E
102
{ACAD_REACTORS
330
C
102
}
330
C
100
AcDbDictionary
281
     1
  3
Normal
350
F
100
AcDbDictionaryWithDefault
340
F
  0
DICTIONARY
  5
EA
102
{ACAD_REACTORS
330
C
102
}
330
C
100
AcDbDictionary
281
     1
  3
DIMASSOC
350
EB
  3
PROJECTNAME
350
EC
  0
XRECORD
  5
D4
102
{ACAD_REACTORS
330
A0
102
}
330
A0
100
AcDbXrecord
280
     1
340
1E
  0
XRECORD
  5
D3
102
{ACAD_REACTORS
330
A2
102
}
330
A2
100
AcDbXrecord
280
     1
340
1A
  0
LAYOUT
  5
1D
102
{ACAD_REACTORS
330
19
102
}
330
19
100
AcDbPlotSettings
  1

  2
\\NT_WORK01\HP LaserJet 5000 PCL 6
  4

  6

 40
0.0
 41
0.0
 42
0.0
 43
0.0
 44
0.0
 45
0.0
 46
0.0
 47
0.0
 48
0.0
 49
0.0
140
0.0
141
0.0
142
1.0
143
1.0
 70
   688
 72
     0
 73
     0
 74
     5
  7

 75
    16
147
1.0
 76
     0
 77
     2
 78
   300
148
0.0
149
0.0
100
AcDbLayout
  1
Layout1
 70
     0
 71
     1
 10
0.0
 20
0.0
 11
12.0
 21
9.0
 12
0.0
 22
0.0
 32
0.0
 14
1.000000000000000E+20
 24
1.000000000000000E+20
 34
1.000000000000000E+20
 15
-1.000000000000000E+20
 25
-1.000000000000000E+20
 35
-1.000000000000000E+20
146
0.0
 13
0.0
 23
0.0
 33
0.0
 16
1.0
 26
0.0
 36
0.0
 17
0.0
 27
1.0
 37
0.0
 76
     0
330
1A
  0
LAYOUT
  5
21
102
{ACAD_REACTORS
330
19
102
}
330
19
100
AcDbPlotSettings
  1

  2
none_device
  4
Letter_(8.50_x_11.00_Inches)
  6

 40
6.349999904632568
 41
6.349999904632568
 42
6.350006103515625
 43
6.350006103515625
 44
215.8999938964844
 45
279.3999938964844
 46
0.0
 47
0.0
 48
0.0
 49
0.0
140
0.0
141
0.0
142
1.0
143
1.0
 70
 11952
 72
     0
 73
     1
 74
     0
  7

 75
     0
147
1.0
 76
     0
 77
     2
 78
   300
148
2300.337071619986
149
90.67191803301307
100
AcDbLayout
  1
Model
 70
     1
 71
     0
 10
0.0
 20
0.0
 11
12.0
 21
9.0
 12
0.0
 22
0.0
 32
0.0
 14
0.0
 24
0.0
 34
0.0
 15
0.0
 25
0.0
 35
0.0
146
0.0
 13
0.0
 23
0.0
 33
0.0
 16
1.0
 26
0.0
 36
0.0
 17
0.0
 27
1.0
 37
0.0
 76
     0
330
1E
  0
MLINESTYLE
  5
17
102
{ACAD_REACTORS
330
16
102
}
330
16
100
AcDbMlineStyle
  2
STANDARD
 70
     0
  3

 62
   256
 51
90.0
 52
90.0
 71
     2
 49
0.5
 62
   256
  6
BYLAYER
 49
-0.5
 62
   256
  6
BYLAYER
  0
ACDBPLACEHOLDER
  5
F
102
{ACAD_REACTORS
330
E
102
}
330
E
  0
DICTIONARYVAR
  5
EB
102
{ACAD_REACTORS
330
EA
102
}
330
EA
100
DictionaryVariables
280
     0
  1
1
  0
DICTIONARYVAR
  5
EC
102
{ACAD_REACTORS
330
EA
102
}
330
EA
100
DictionaryVariables
280
     0
  1

  0
ENDSEC
  0
EOF
