  0
SECTION
  2
HEADER
  9
$ACADVER
  1
AC1018
  9
$ACADMAINTVER
 70
     2
  9
$DWGCODEPAGE
  3
ANSI_1252
  9
$INSBASE
 10
0.0
 20
0.0
 30
0.0
  9
$EXTMIN
 10
-0.0031957397357587
 20
-0.0045196890552006
 30
-0.0000000000000129
  9
$EXTMAX
 10
210.003207964225
 20
297.004536977975
 30
0.0000000000000023
  9
$LIMMIN
 10
0.0
 20
0.0
  9
$LIMMAX
 10
210.0
 20
297.0
  9
$ORTHOMODE
 70
     1
  9
$REGENMODE
 70
     1
  9
$FILLMODE
 70
     1
  9
$QTEXTMODE
 70
     0
  9
$MIRRTEXT
 70
     1
  9
$LTSCALE
 40
10.0
  9
$ATTMODE
 70
     1
  9
$TEXTSIZE
 40
3.5
  9
$TRACEWID
 40
0.5
  9
$TEXTSTYLE
  7
STANDARD
  9
$CLAYER
  8
VOLL
  9
$CELTYPE
  6
ByLayer
  9
$CECOLOR
 62
   256
  9
$CELTSCALE
 40
1.0
  9
$DISPSILH
 70
     0
  9
$DIMSCALE
 40
1.0
  9
$DIMASZ
 40
3.5
  9
$DIMEXO
 40
1.0
  9
$DIMDLI
 40
7.0
  9
$DIMRND
 40
0.0
  9
$DIMDLE
 40
0.0
  9
$DIMEXE
 40
1.0
  9
$DIMTP
 40
0.0
  9
$DIMTM
 40
0.0
  9
$DIMTXT
 40
3.5
  9
$DIMCEN
 40
1.5
  9
$DIMTSZ
 40
0.0
  9
$DIMTOL
 70
     0
  9
$DIMLIM
 70
     0
  9
$DIMTIH
 70
     0
  9
$DIMTOH
 70
     0
  9
$DIMSE1
 70
     0
  9
$DIMSE2
 70
     0
  9
$DIMTAD
 70
     1
  9
$DIMZIN
 70
     8
  9
$DIMBLK
  1

  9
$DIMASO
 70
     1
  9
$DIMSHO
 70
     0
  9
$DIMPOST
  1

  9
$DIMAPOST
  1

  9
$DIMALT
 70
     0
  9
$DIMALTD
 70
     2
  9
$DIMALTF
 40
25.4
  9
$DIMLFAC
 40
1.0
  9
$DIMTOFL
 70
     1
  9
$DIMTVP
 40
0.0
  9
$DIMTIX
 70
     0
  9
$DIMSOXD
 70
     0
  9
$DIMSAH
 70
     0
  9
$DIMBLK1
  1

  9
$DIMBLK2
  1

  9
$DIMSTYLE
  2
Standard
  9
$DIMCLRD
 70
     0
  9
$DIMCLRE
 70
     0
  9
$DIMCLRT
 70
     1
  9
$DIMTFAC
 40
0.5142857142857144
  9
$DIMGAP
 40
1.5
  9
$DIMJUST
 70
     0
  9
$DIMSD1
 70
     0
  9
$DIMSD2
 70
     0
  9
$DIMTOLJ
 70
     1
  9
$DIMTZIN
 70
     8
  9
$DIMALTZ
 70
     8
  9
$DIMALTTZ
 70
     8
  9
$DIMUPT
 70
     0
  9
$DIMDEC
 70
     2
  9
$DIMTDEC
 70
     2
  9
$DIMALTU
 70
     2
  9
$DIMALTTD
 70
     2
  9
$DIMTXSTY
  7
STANDARD
  9
$DIMAUNIT
 70
     0
  9
$DIMADEC
 70
     2
  9
$DIMALTRND
 40
0.0
  9
$DIMAZIN
 70
     2
  9
$DIMDSEP
 70
    46
  9
$DIMATFIT
 70
     3
  9
$DIMFRAC
 70
     0
  9
$DIMLDRBLK
  1

  9
$DIMLUNIT
 70
     2
  9
$DIMLWD
 70
    -2
  9
$DIMLWE
 70
    -2
  9
$DIMTMOVE
 70
     0
  9
$LUNITS
 70
     2
  9
$LUPREC
 70
     2
  9
$SKETCHINC
 40
1.0
  9
$FILLETRAD
 40
0.0
  9
$AUNITS
 70
     0
  9
$AUPREC
 70
     0
  9
$MENU
  1
ACAD
  9
$ELEVATION
 40
0.0
  9
$PELEVATION
 40
0.0
  9
$THICKNESS
 40
0.0
  9
$LIMCHECK
 70
     0
  9
$CHAMFERA
 40
0.0
  9
$CHAMFERB
 40
0.0
  9
$CHAMFERC
 40
0.0
  9
$CHAMFERD
 40
0.0
  9
$SKPOLY
 70
     0
  9
$TDCREATE
 40
2455397.864709028
  9
$TDUCREATE
 40
2455397.781375695
  9
$TDUPDATE
 40
2455656.414082998
  9
$TDUUPDATE
 40
2455656.330749665
  9
$TDINDWG
 40
0.0506740741
  9
$TDUSRTIMER
 40
0.0506740741
  9
$USRTIMER
 70
     1
  9
$ANGBASE
 50
0.0
  9
$ANGDIR
 70
     0
  9
$PDMODE
 70
     0
  9
$PDSIZE
 40
0.0
  9
$PLINEWID
 40
0.0
  9
$SPLFRAME
 70
     0
  9
$SPLINETYPE
 70
     6
  9
$SPLINESEGS
 70
     8
  9
$HANDSEED
  5
7D0
  9
$SURFTAB1
 70
     6
  9
$SURFTAB2
 70
     6
  9
$SURFTYPE
 70
     6
  9
$SURFU
 70
     6
  9
$SURFV
 70
     6
  9
$UCSBASE
  2

  9
$UCSNAME
  2

  9
$UCSORG
 10
0.0
 20
0.0
 30
0.0
  9
$UCSXDIR
 10
1.0
 20
0.0
 30
0.0
  9
$UCSYDIR
 10
0.0
 20
1.0
 30
0.0
  9
$UCSORTHOREF
  2

  9
$UCSORTHOVIEW
 70
     0
  9
$UCSORGTOP
 10
0.0
 20
0.0
 30
0.0
  9
$UCSORGBOTTOM
 10
0.0
 20
0.0
 30
0.0
  9
$UCSORGLEFT
 10
0.0
 20
0.0
 30
0.0
  9
$UCSORGRIGHT
 10
0.0
 20
0.0
 30
0.0
  9
$UCSORGFRONT
 10
0.0
 20
0.0
 30
0.0
  9
$UCSORGBACK
 10
0.0
 20
0.0
 30
0.0
  9
$PUCSBASE
  2

  9
$PUCSNAME
  2

  9
$PUCSORG
 10
0.0
 20
0.0
 30
0.0
  9
$PUCSXDIR
 10
1.0
 20
0.0
 30
0.0
  9
$PUCSYDIR
 10
0.0
 20
1.0
 30
0.0
  9
$PUCSORTHOREF
  2

  9
$PUCSORTHOVIEW
 70
     0
  9
$PUCSORGTOP
 10
0.0
 20
0.0
 30
0.0
  9
$PUCSORGBOTTOM
 10
0.0
 20
0.0
 30
0.0
  9
$PUCSORGLEFT
 10
0.0
 20
0.0
 30
0.0
  9
$PUCSORGRIGHT
 10
0.0
 20
0.0
 30
0.0
  9
$PUCSORGFRONT
 10
0.0
 20
0.0
 30
0.0
  9
$PUCSORGBACK
 10
0.0
 20
0.0
 30
0.0
  9
$USERI1
 70
     0
  9
$USERI2
 70
     0
  9
$USERI3
 70
     0
  9
$USERI4
 70
     0
  9
$USERI5
 70
     0
  9
$USERR1
 40
0.0
  9
$USERR2
 40
0.0
  9
$USERR3
 40
0.0
  9
$USERR4
 40
0.0
  9
$USERR5
 40
0.0
  9
$WORLDVIEW
 70
     1
  9
$SHADEDGE
 70
     3
  9
$SHADEDIF
 70
    70
  9
$TILEMODE
 70
     1
  9
$MAXACTVP
 70
    16
  9
$PINSBASE
 10
0.0
 20
0.0
 30
0.0
  9
$PLIMCHECK
 70
     0
  9
$PEXTMIN
 10
1.000000000000000E+20
 20
1.000000000000000E+20
 30
1.000000000000000E+20
  9
$PEXTMAX
 10
-1.000000000000000E+20
 20
-1.000000000000000E+20
 30
-1.000000000000000E+20
  9
$PLIMMIN
 10
0.0
 20
0.0
  9
$PLIMMAX
 10
12.0
 20
9.0
  9
$UNITMODE
 70
     0
  9
$VISRETAIN
 70
     0
  9
$PLINEGEN
 70
     0
  9
$PSLTSCALE
 70
     0
  9
$TREEDEPTH
 70
  3020
  9
$CMLSTYLE
  2
Standard
  9
$CMLJUST
 70
     0
  9
$CMLSCALE
 40
1.0
  9
$PROXYGRAPHICS
 70
     1
  9
$MEASUREMENT
 70
     0
  9
$CELWEIGHT
370
    -1
  9
$ENDCAPS
280
     0
  9
$JOINSTYLE
280
     0
  9
$LWDISPLAY
290
     0
  9
$INSUNITS
 70
     0
  9
$HYPERLINKBASE
  1

  9
$STYLESHEET
  1
monochrome 1.ctb
  9
$XEDIT
290
     1
  9
$CEPSNTYPE
380
     0
  9
$PSTYLEMODE
290
     1
  9
$FINGERPRINTGUID
  2
{D68B0D02-A558-11D7-B632-000102183313}
  9
$VERSIONGUID
  2
{ED2C6731-5A5D-4DC7-A593-A58CBA6D7970}
  9
$EXTNAMES
290
     1
  9
$PSVPSCALE
 40
0.0
  9
$OLESTARTUP
290
     0
  9
$SORTENTS
280
   127
  9
$INDEXCTL
280
     0
  9
$HIDETEXT
280
     0
  9
$XCLIPFRAME
290
     0
  9
$HALOGAP
280
     0
  9
$OBSCOLOR
 70
   257
  9
$OBSLTYPE
280
     0
  9
$INTERSECTIONDISPLAY
280
     0
  9
$INTERSECTIONCOLOR
 70
   257
  9
$DIMASSOC
280
     1
  9
$PROJECTNAME
  1

  0
ENDSEC
  0
SECTION
  2
CLASSES
  0
CLASS
  1
ACDBDICTIONARYWDFLT
  2
AcDbDictionaryWithDefault
  3
ObjectDBX Classes
 90
        0
 91
        1
280
     0
281
     0
  0
CLASS
  1
DICTIONARYVAR
  2
AcDbDictionaryVar
  3
ObjectDBX Classes
 90
        0
 91
        2
280
     0
281
     0
  0
ENDSEC
  0
SECTION
  2
TABLES
  0
TABLE
  2
VPORT
  5
8
330
0
100
AcDbSymbolTable
 70
     3
  0
VPORT
  5
7CF
330
8
100
AcDbSymbolTableRecord
100
AcDbViewportTableRecord
  2
*Active
 70
     0
 10
0.0
 20
0.0
 11
1.0
 21
1.0
 12
105.0
 22
148.5
 13
0.0
 23
0.0
 14
1.0
 24
1.0
 15
10.0
 25
10.0
 16
0.0
 26
0.0
 36
1.0
 17
0.0
 27
0.0
 37
0.0
 40
297.0
 41
1.334231805929919
 42
50.0
 43
0.0
 44
0.0
 50
0.0
 51
0.0
 71
     0
 72
  1500
 73
     1
 74
     0
 75
     0
 76
     0
 77
     0
 78
     0
281
     0
 65
     1
110
0.0
120
0.0
130
0.0
111
1.0
121
0.0
131
0.0
112
0.0
122
1.0
132
0.0
 79
     0
146
0.0
  0
ENDTAB
  0
TABLE
  2
LTYPE
  5
5
330
0
100
AcDbSymbolTable
 70
     3
  0
LTYPE
  5
13
330
5
100
AcDbSymbolTableRecord
100
AcDbLinetypeTableRecord
  2
ByBlock
 70
     0
  3

 72
    65
 73
     0
 40
0.0
  0
LTYPE
  5
14
330
5
100
AcDbSymbolTableRecord
100
AcDbLinetypeTableRecord
  2
ByLayer
 70
     0
  3

 72
    65
 73
     0
 40
0.0
  0
LTYPE
  5
15
330
5
100
AcDbSymbolTableRecord
100
AcDbLinetypeTableRecord
  2
Continuous
 70
     0
  3
Solid line
 72
    65
 73
     0
 40
0.0
  0
LTYPE
  5
25
330
5
100
AcDbSymbolTableRecord
100
AcDbLinetypeTableRecord
  2
STRICHPUNKT
 70
     0
  3
__ . __ . __ . __ . __ . __ . __ . __ . __ . __
 72
    65
 73
     4
 40
1.0
 49
0.5
 74
     0
 49
-0.25
 74
     0
 49
0.0
 74
     0
 49
-0.25
 74
     0
  0
LTYPE
  5
32
330
5
100
AcDbSymbolTableRecord
100
AcDbLinetypeTableRecord
  2
AUSGEZOGEN
 70
     0
  3
Ausgezogene Linie
 72
    65
 73
     0
 40
0.0
  0
ENDTAB
  0
TABLE
  2
LAYER
  5
2
330
0
100
AcDbSymbolTable
 70
     9
  0
LAYER
  5
10
330
2
100
AcDbSymbolTableRecord
100
AcDbLayerTableRecord
  2
0
 70
     0
 62
     7
  6
Continuous
370
    -3
390
F
  0
LAYER
  5
2A
330
2
100
AcDbSymbolTableRecord
100
AcDbLayerTableRecord
  2
VOLL
 70
     0
 62
     1
  6
Continuous
370
    -3
390
F
  0
LAYER
  5
2B
330
2
100
AcDbSymbolTableRecord
100
AcDbLayerTableRecord
  2
HILF
 70
     0
 62
     2
  6
Continuous
370
    -3
390
F
  0
LAYER
  5
2C
330
2
100
AcDbSymbolTableRecord
100
AcDbLayerTableRecord
  2
MITTEL
 70
     0
 62
     2
  6
STRICHPUNKT
370
    -3
390
F
  0
LAYER
  5
2F
330
2
100
AcDbSymbolTableRecord
100
AcDbLayerTableRecord
  2
BEM
 70
     0
 62
     7
  6
Continuous
370
    -3
390
F
  0
LAYER
  5
30
330
2
100
AcDbSymbolTableRecord
100
AcDbLayerTableRecord
  2
STEMPEL
 70
     0
 62
     3
  6
Continuous
370
    -3
390
F
  0
LAYER
  5
31
330
2
100
AcDbSymbolTableRecord
100
AcDbLayerTableRecord
  2
TEXT
 70
     0
 62
     7
  6
Continuous
370
    -3
390
F
  0
LAYER
  5
195
330
2
100
AcDbSymbolTableRecord
100
AcDbLayerTableRecord
  2
DEFPOINTS
 70
     0
 62
     7
  6
AUSGEZOGEN
290
     0
370
    -3
390
F
  0
LAYER
  5
372
330
2
100
AcDbSymbolTableRecord
100
AcDbLayerTableRecord
  2
SCHRAFF
 70
     0
 62
     7
  6
Continuous
370
    -3
390
F
  0
ENDTAB
  0
TABLE
  2
STYLE
  5
3
330
0
100
AcDbSymbolTable
 70
     2
  0
STYLE
  5
11
330
3
100
AcDbSymbolTableRecord
100
AcDbTextStyleTableRecord
  2
STANDARD
 70
     0
 40
0.0
 41
0.8
 50
0.0
 71
     0
 42
3.5
  3
simplex.shx
  4

  0
STYLE
  5
24
330
3
100
AcDbSymbolTableRecord
100
AcDbTextStyleTableRecord
  2
GREEKS
 70
     0
 40
0.0
 41
0.8
 50
0.0
 71
     0
 42
2.5
  3
SIMPLEX.shx
  4

  0
ENDTAB
  0
TABLE
  2
VIEW
  5
6
330
0
100
AcDbSymbolTable
 70
     0
  0
ENDTAB
  0
TABLE
  2
UCS
  5
7
330
0
100
AcDbSymbolTable
 70
     0
  0
ENDTAB
  0
TABLE
  2
APPID
  5
9
330
0
100
AcDbSymbolTable
 70
     1
  0
APPID
  5
12
330
9
100
AcDbSymbolTableRecord
100
AcDbRegAppTableRecord
  2
ACAD
 70
     0
  0
ENDTAB
  0
TABLE
  2
DIMSTYLE
  5
A
330
0
100
AcDbSymbolTable
 70
     1
100
AcDbDimStyleTable
 71
     1
340
9D
  0
DIMSTYLE
105
9D
102
{ACAD_REACTORS
330
578
330
576
330
575
330
746
102
}
330
A
100
AcDbSymbolTableRecord
100
AcDbDimStyleTableRecord
  2
Standard
 70
     0
340
11
  0
ENDTAB
  0
TABLE
  2
BLOCK_RECORD
  5
1
330
0
100
AcDbSymbolTable
 70
    14
  0
BLOCK_RECORD
  5
1E
102
{ACAD_XDICTIONARY
360
A0
102
}
330
1
100
AcDbSymbolTableRecord
100
AcDbBlockTableRecord
  2
*Model_Space
340
21
  0
BLOCK_RECORD
  5
1A
102
{ACAD_XDICTIONARY
360
A2
102
}
330
1
100
AcDbSymbolTableRecord
100
AcDbBlockTableRecord
  2
*Paper_Space
340
1D
  0
BLOCK_RECORD
  5
22
330
1
100
AcDbSymbolTableRecord
100
AcDbBlockTableRecord
  2
LOGO
340
0
102
{BLKREFS
331
9B
102
}
  0
BLOCK_RECORD
  5
436
330
1
100
AcDbSymbolTableRecord
100
AcDbBlockTableRecord
  2
*X3
340
0
102
{BLKREFS
331
52E
102
}
  0
BLOCK_RECORD
  5
5E8
330
1
100
AcDbSymbolTableRecord
100
AcDbBlockTableRecord
  2
*D10
340
0
  0
BLOCK_RECORD
  5
5F5
330
1
100
AcDbSymbolTableRecord
100
AcDbBlockTableRecord
  2
*D11
340
0
  0
BLOCK_RECORD
  5
60F
330
1
100
AcDbSymbolTableRecord
100
AcDbBlockTableRecord
  2
*D12
340
0
  0
BLOCK_RECORD
  5
747
330
1
100
AcDbSymbolTableRecord
100
AcDbBlockTableRecord
  2
*D13
340
0
  0
ENDTAB
  0
ENDSEC
  0
SECTION
  2
BLOCKS
  0
BLOCK
  5
35
330
1E
100
AcDbEntity
  8
0
100
AcDbBlockBegin
  2
*Model_Space
 70
     0
 10
0.0
 20
0.0
 30
0.0
  3
*Model_Space
  1

  0
ENDBLK
  5
36
330
1E
100
AcDbEntity
  8
0
100
AcDbBlockEnd
  0
BLOCK
  5
33
330
1A
100
AcDbEntity
 67
     1
  8
0
100
AcDbBlockBegin
  2
*Paper_Space
 70
     0
 10
0.0
 20
0.0
 30
0.0
  3
*Paper_Space
  1

  0
ENDBLK
  5
34
330
1A
100
AcDbEntity
 67
     1
  8
0
100
AcDbBlockEnd
  0
BLOCK
  5
37
330
22
100
AcDbEntity
  8
0
100
AcDbBlockBegin
  2
LOGO
 70
     0
 10
0.0
 20
0.0
 30
0.0
  3
LOGO
  1

  0
ARC
  5
38
330
22
100
AcDbEntity
  8
0
100
AcDbCircle
 10
11.59973089678112
 20
-9.271599258481501
 30
0.0
 40
4.5
100
AcDbArc
 50
270.0
 51
231.0575587310159
  0
LINE
  5
39
330
22
100
AcDbEntity
  8
0
100
AcDbLine
 10
3.599730896781125
 20
-4.771599258481529
 30
0.0
 11
3.599730896781153
 21
-11.77159925848133
 31
0.0
  0
LINE
  5
3A
330
22
100
AcDbEntity
  8
0
100
AcDbLine
 10
2.599730896781125
 20
-4.771599258481529
 30
0.0
 11
2.599730896781153
 21
-11.77159925848133
 31
0.0
  0
CIRCLE
  5
3B
330
22
100
AcDbEntity
  8
0
100
AcDbCircle
 10
11.59973089678112
 20
-9.271599258481501
 30
0.0
 40
3.5
  0
ARC
  5
3C
330
22
100
AcDbEntity
  8
0
100
AcDbCircle
 10
31.59973089678115
 20
-9.271599258481472
 30
0.0
 40
4.5
100
AcDbArc
 50
270.0
 51
231.0575587310182
  0
LINE
  5
3D
330
22
100
AcDbEntity
  8
0
100
AcDbLine
 10
17.59973089678112
 20
-4.771599258481472
 30
0.0
 11
17.59973089678115
 21
-13.77159925848147
 31
0.0
  0
ARC
  5
3E
330
22
100
AcDbEntity
  8
0
100
AcDbCircle
 10
22.59973089678116
 20
-7.271599258481472
 30
0.0
 40
2.5
100
AcDbArc
 50
293.1161887722295
 51
90.0
  0
CIRCLE
  5
3F
330
22
100
AcDbEntity
  8
0
100
AcDbCircle
 10
31.59973089678115
 20
-9.271599258481472
 30
0.0
 40
3.5
  0
ARC
  5
40
330
22
100
AcDbEntity
  8
0
100
AcDbCircle
 10
4.599730896781153
 20
-11.77159925848133
 30
0.0
 40
1.0
100
AcDbArc
 50
180.0
 51
270.0
  0
ARC
  5
41
330
22
100
AcDbEntity
  8
0
100
AcDbCircle
 10
4.599730896781153
 20
-11.77159925848133
 30
0.0
 40
2.0
100
AcDbArc
 50
179.9999999999992
 51
270.0
  0
LINE
  5
42
330
22
100
AcDbEntity
  8
0
100
AcDbLine
 10
11.59973089678115
 20
-13.77159925848144
 30
0.0
 11
4.599730896781153
 21
-13.77159925848147
 31
0.0
  0
LINE
  5
43
330
22
100
AcDbEntity
  8
0
100
AcDbLine
 10
8.771303772034769
 20
-12.77159925848136
 30
0.0
 11
4.599730896781153
 21
-12.77159925848133
 31
0.0
  0
LINE
  5
44
330
22
100
AcDbEntity
  8
0
100
AcDbLine
 10
31.59973089678115
 20
-13.77159925848147
 30
0.0
 11
23.6715276665056
 21
-13.77159925848144
 31
0.0
  0
LINE
  5
45
330
22
100
AcDbEntity
  8
0
100
AcDbLine
 10
23.56565672307022
 20
-9.51278021337896
 30
0.0
 11
24.4388546544846
 21
-12.77159925848144
 31
0.0
  0
LINE
  5
46
330
22
100
AcDbEntity
  8
0
100
AcDbLine
 10
22.59973089678116
 20
-9.771599258481472
 30
0.0
 11
18.59973089678112
 21
-9.771599258481472
 31
0.0
  0
LINE
  5
47
330
22
100
AcDbEntity
  8
0
100
AcDbLine
 10
18.59973089678115
 20
-13.77159925848144
 30
0.0
 11
17.59973089678115
 21
-13.77159925848144
 31
0.0
  0
LINE
  5
48
330
22
100
AcDbEntity
  8
0
100
AcDbLine
 10
18.59973089678115
 20
-9.771599258481472
 30
0.0
 11
18.59973089678115
 21
-13.77159925848144
 31
0.0
  0
LINE
  5
49
330
22
100
AcDbEntity
  8
0
100
AcDbLine
 10
22.59973089678116
 20
-9.771599258481472
 30
0.0
 11
23.67152766650562
 21
-13.77159925848147
 31
0.0
  0
ARC
  5
4A
330
22
100
AcDbEntity
  8
0
100
AcDbCircle
 10
22.59973089678116
 20
-7.271599258481472
 30
0.0
 40
2.5
100
AcDbArc
 50
270.0
 51
270.0000000000007
  0
LINE
  5
4B
330
22
100
AcDbEntity
  8
0
100
AcDbLine
 10
28.77130377203494
 20
-12.77159925848147
 30
0.0
 11
24.43885465448463
 21
-12.77159925848144
 31
0.0
  0
LINE
  5
4C
330
22
100
AcDbEntity
  8
0
100
AcDbLine
 10
3.599730896781125
 20
-4.771599258481472
 30
0.0
 11
2.599730896781125
 21
-4.771599258481472
 31
0.0
  0
LINE
  5
4D
330
22
100
AcDbEntity
  8
0
100
AcDbLine
 10
22.59973089678116
 20
-8.771599258481472
 30
0.0
 11
18.59973089678115
 21
-8.771599258481472
 31
0.0
  0
LINE
  5
4E
330
22
100
AcDbEntity
  8
0
100
AcDbLine
 10
22.59973089678116
 20
-5.771599258481472
 30
0.0
 11
18.59973089678115
 21
-5.771599258481472
 31
0.0
  0
LINE
  5
4F
330
22
100
AcDbEntity
  8
0
100
AcDbLine
 10
22.59973089678116
 20
-4.771599258481472
 30
0.0
 11
17.59973089678115
 21
-4.771599258481472
 31
0.0
  0
LINE
  5
50
330
22
100
AcDbEntity
  8
0
100
AcDbLine
 10
18.59973089678115
 20
-5.771599258481472
 30
0.0
 11
18.59973089678115
 21
-8.771599258481472
 31
0.0
  0
ARC
  5
51
330
22
100
AcDbEntity
  8
0
100
AcDbCircle
 10
22.59973089678116
 20
-7.271599258481472
 30
0.0
 40
1.5
100
AcDbArc
 50
270.0
 51
90.0
  0
ENDBLK
  5
52
330
22
100
AcDbEntity
  8
0
100
AcDbBlockEnd
  0
BLOCK
  5
437
330
436
100
AcDbEntity
  8
0
100
AcDbBlockBegin
  2
*X3
 70
     1
 10
0.0
 20
0.0
 30
0.0
  3
*X3
  1

  0
LINE
  5
438
330
436
100
AcDbEntity
  8
0
 62
     0
100
AcDbLine
 10
101.7641098965073
 20
194.0893673519442
 30
0.0
 11
101.6846036565148
 21
194.1688735919367
 31
0.0
  0
LINE
  5
439
330
436
100
AcDbEntity
  8
0
 62
     0
100
AcDbLine
 10
101.7169694444282
 20
193.9950864477859
 30
0.0
 11
101.5465806753073
 21
194.1654752169068
 31
0.0
  0
LINE
  5
43A
330
436
100
AcDbEntity
  8
0
 62
     0
100
AcDbLine
 10
101.6698289923491
 20
193.9008055436277
 30
0.0
 11
101.4136340349867
 21
194.1570005009901
 31
0.0
  0
LINE
  5
43B
330
436
100
AcDbEntity
  8
0
 62
     0
100
AcDbLine
 10
101.6226885402699
 20
193.8065246394696
 30
0.0
 11
101.2852732584279
 21
194.1439399213115
 31
0.0
  0
LINE
  5
43C
330
436
100
AcDbEntity
  8
0
 62
     0
100
AcDbLine
 10
101.5755480881909
 20
193.7122437353114
 30
0.0
 11
101.1610989665086
 21
194.1266928569936
 31
0.0
  0
LINE
  5
43D
330
436
100
AcDbEntity
  8
0
 62
     0
100
AcDbLine
 10
101.5284076361117
 20
193.6179628311531
 30
0.0
 11
101.0407812842896
 21
194.1055891829753
 31
0.0
  0
LINE
  5
43E
330
436
100
AcDbEntity
  8
0
 62
     0
100
AcDbLine
 10
101.4812671840326
 20
193.5236819269949
 30
0.0
 11
100.9240444881436
 21
194.080904622884
 31
0.0
  0
LINE
  5
43F
330
436
100
AcDbEntity
  8
0
 62
     0
100
AcDbLine
 10
101.4341267319535
 20
193.4294010228367
 30
0.0
 11
100.8106558216571
 21
194.0528719331331
 31
0.0
  0
LINE
  5
440
330
436
100
AcDbEntity
  8
0
 62
     0
100
AcDbLine
 10
101.3869862798744
 20
193.3351201186785
 30
0.0
 11
100.7004171765484
 21
194.0216892220046
 31
0.0
  0
LINE
  5
441
330
436
100
AcDbEntity
  8
0
 62
     0
100
AcDbLine
 10
101.3398458277953
 20
193.2408392145203
 30
0.0
 11
100.59315879197
 21
193.9875262503456
 31
0.0
  0
LINE
  5
442
330
436
100
AcDbEntity
  8
0
 62
     0
100
AcDbLine
 10
101.2927053757162
 20
193.1465583103621
 30
0.0
 11
100.4887344071054
 21
193.950529278973
 31
0.0
  0
LINE
  5
443
330
436
100
AcDbEntity
  8
0
 62
     0
100
AcDbLine
 10
101.2455649236371
 20
193.0522774062039
 30
0.0
 11
100.3870174806956
 21
193.9108248491454
 31
0.0
  0
LINE
  5
444
330
436
100
AcDbEntity
  8
0
 62
     0
100
AcDbLine
 10
101.198424471558
 20
192.9579965020457
 30
0.0
 11
100.287898207672
 21
193.8685227659317
 31
0.0
  0
LINE
  5
445
330
436
100
AcDbEntity
  8
0
 62
     0
100
AcDbLine
 10
101.1512840194789
 20
192.8637155978875
 30
0.0
 11
100.1912811408774
 21
193.823718476489
 31
0.0
  0
LINE
  5
446
330
436
100
AcDbEntity
  8
0
 62
     0
100
AcDbLine
 10
101.1041435673998
 20
192.7694346937293
 30
0.0
 11
100.0970832789384
 21
193.7764949821907
 31
0.0
  0
LINE
  5
447
330
436
100
AcDbEntity
  8
0
 62
     0
100
AcDbLine
 10
101.0570031153207
 20
192.6751537895711
 30
0.0
 11
100.0052325182601
 21
193.7269243866317
 31
0.0
  0
LINE
  5
448
330
436
100
AcDbEntity
  8
0
 62
     0
100
AcDbLine
 10
101.0098626632416
 20
192.5808728854129
 30
0.0
 11
99.91566639324632
 21
193.6750691554081
 31
0.0
  0
LINE
  5
449
330
436
100
AcDbEntity
  8
0
 62
     0
100
AcDbLine
 10
100.9627222111625
 20
192.4865919812546
 30
0.0
 11
99.82833104765123
 21
193.6209831447659
 31
0.0
  0
LINE
  5
44A
330
436
100
AcDbEntity
  8
0
 62
     0
100
AcDbLine
 10
100.9155817590834
 20
192.3923110770965
 30
0.0
 11
99.74318039371619
 21
193.5647124424637
 31
0.0
  0
LINE
  5
44B
330
436
100
AcDbEntity
  8
0
 62
     0
100
AcDbLine
 10
100.8684413070043
 20
192.2980301729382
 30
0.0
 11
99.66017542594522
 21
193.5062960539974
 31
0.0
  0
LINE
  5
44C
330
436
100
AcDbEntity
  8
0
 62
     0
100
AcDbLine
 10
100.8213008549252
 20
192.2037492687801
 30
0.0
 11
99.57928366406065
 21
193.4457664596446
 31
0.0
  0
LINE
  5
44D
330
436
100
AcDbEntity
  8
0
 62
     0
100
AcDbLine
 10
100.7741604028461
 20
192.1094683646218
 30
0.0
 11
99.50047870556467
 21
193.3831500619032
 31
0.0
  0
LINE
  5
44E
330
436
100
AcDbEntity
  8
0
 62
     0
100
AcDbLine
 10
100.727019950767
 20
192.0151874604636
 30
0.0
 11
99.42373987291771
 21
193.3184675383129
 31
0.0
  0
LINE
  5
44F
330
436
100
AcDbEntity
  8
0
 62
     0
100
AcDbLine
 10
100.6798794986879
 20
191.9209065563054
 30
0.0
 11
99.34905194398753
 21
193.2517341110058
 31
0.0
  0
LINE
  5
450
330
436
100
AcDbEntity
  8
0
 62
     0
100
AcDbLine
 10
100.6327390466088
 20
191.8266256521472
 30
0.0
 11
99.2764049573903
 21
193.1829597413657
 31
0.0
  0
LINE
  5
451
330
436
100
AcDbEntity
  8
0
 62
     0
100
AcDbLine
 10
100.5855985945297
 20
191.732344747989
 30
0.0
 11
99.20579408683066
 21
193.1121492556881
 31
0.0
  0
LINE
  5
452
330
436
100
AcDbEntity
  8
0
 62
     0
100
AcDbLine
 10
100.5384581424506
 20
191.6380638438308
 30
0.0
 11
99.13721958070876
 21
193.0393024055726
 31
0.0
  0
LINE
  5
453
330
436
100
AcDbEntity
  8
0
 62
     0
100
AcDbLine
 10
100.4913176903715
 20
191.5437829396726
 30
0.0
 11
99.07068676522101
 21
192.9644138648231
 31
0.0
  0
LINE
  5
454
330
436
100
AcDbEntity
  8
0
 62
     0
100
AcDbLine
 10
100.4441772382924
 20
191.4495020355144
 30
0.0
 11
99.00620611104439
 21
192.8874731627624
 31
0.0
  0
LINE
  5
455
330
436
100
AcDbEntity
  8
0
 62
     0
100
AcDbLine
 10
100.3970367862133
 20
191.3552211313562
 30
0.0
 11
98.9437933655655
 21
192.808464552004
 31
0.0
  0
LINE
  5
456
330
436
100
AcDbEntity
  8
0
 62
     0
100
AcDbLine
 10
100.3498963341342
 20
191.260940227198
 30
0.0
 11
98.88346975458615
 21
192.727366806746
 31
0.0
  0
LINE
  5
457
330
436
100
AcDbEntity
  8
0
 62
     0
100
AcDbLine
 10
100.3027558820551
 20
191.1666593230398
 30
0.0
 11
98.82526225962651
 21
192.6441529454683
 31
0.0
  0
LINE
  5
458
330
436
100
AcDbEntity
  8
0
 62
     0
100
AcDbLine
 10
100.1605797645313
 20
191.1674140843262
 30
0.0
 11
98.76920397947131
 21
192.5587898693862
 31
0.0
  0
LINE
  5
459
330
436
100
AcDbEntity
  8
0
 62
     0
100
AcDbLine
 10
100.019158408294
 20
191.1674140843262
 30
0.0
 11
98.7153345876284
 21
192.4712379049918
 31
0.0
  0
LINE
  5
45A
330
436
100
AcDbEntity
  8
0
 62
     0
100
AcDbLine
 10
99.87773705205672
 20
191.1674140843262
 30
0.0
 11
98.66370090109256
 21
192.3814502352904
 31
0.0
  0
LINE
  5
45B
330
436
100
AcDbEntity
  8
0
 62
     0
100
AcDbLine
 10
99.79478106683844
 20
191.1089487133072
 30
0.0
 11
98.61435758050122
 21
192.2893721996444
 31
0.0
  0
LINE
  5
45C
330
436
100
AcDbEntity
  8
0
 62
     0
100
AcDbLine
 10
99.77710339730878
 20
190.9852050265995
 30
0.0
 11
98.56736798780511
 21
192.1949404361032
 31
0.0
  0
LINE
  5
45D
330
436
100
AcDbEntity
  8
0
 62
     0
100
AcDbLine
 10
99.75942572777912
 20
190.8614613398919
 30
0.0
 11
98.52280523547571
 21
192.0980818321953
 31
0.0
  0
LINE
  5
45E
330
436
100
AcDbEntity
  8
0
 62
     0
100
AcDbLine
 10
99.74174805824944
 20
190.7377176531842
 30
0.0
 11
98.48075347176736
 21
191.9987122396663
 31
0.0
  0
LINE
  5
45F
330
436
100
AcDbEntity
  8
0
 62
     0
100
AcDbLine
 10
99.72407038871978
 20
190.6139739664766
 30
0.0
 11
98.44130946071818
 21
191.8967348944782
 31
0.0
  0
LINE
  5
460
330
436
100
AcDbEntity
  8
0
 62
     0
100
AcDbLine
 10
99.70639271919012
 20
190.490230279769
 30
0.0
 11
98.40458453498136
 21
191.7920384639777
 31
0.0
  0
LINE
  5
461
330
436
100
AcDbEntity
  8
0
 62
     0
100
AcDbLine
 10
99.68871504966045
 20
190.3664865930613
 30
0.0
 11
98.37070702658774
 21
191.684494616134
 31
0.0
  0
LINE
  5
462
330
436
100
AcDbEntity
  8
0
 62
     0
100
AcDbLine
 10
99.67103738013079
 20
190.2427429063537
 30
0.0
 11
98.33982531896069
 21
191.5739549675238
 31
0.0
  0
LINE
  5
463
330
436
100
AcDbEntity
  8
0
 62
     0
100
AcDbLine
 10
99.65335971060113
 20
190.118999219646
 30
0.0
 11
98.31211171856004
 21
191.4602472116871
 31
0.0
  0
LINE
  5
464
330
436
100
AcDbEntity
  8
0
 62
     0
100
AcDbLine
 10
99.63568204107147
 20
189.9952555329384
 30
0.0
 11
98.28776742540885
 21
191.343170148601
 31
0.0
  0
LINE
  5
465
330
436
100
AcDbEntity
  8
0
 62
     0
100
AcDbLine
 10
99.61800437154181
 20
189.8715118462307
 30
0.0
 11
98.26702900314961
 21
191.2224872146229
 31
0.0
  0
LINE
  5
466
330
436
100
AcDbEntity
  8
0
 62
     0
100
AcDbLine
 10
99.60032670201215
 20
189.7477681595231
 30
0.0
 11
98.25017693592258
 21
191.0979179256126
 31
0.0
  0
LINE
  5
467
330
436
100
AcDbEntity
  8
0
 62
     0
100
AcDbLine
 10
99.58264903248249
 20
189.6240244728154
 30
0.0
 11
98.23754715418893
 21
190.969126351109
 31
0.0
  0
LINE
  5
468
330
436
100
AcDbEntity
  8
0
 62
     0
100
AcDbLine
 10
99.56497136295281
 20
189.5002807861078
 30
0.0
 11
98.22954689185936
 21
190.8357052572012
 31
0.0
  0
LINE
  5
469
330
436
100
AcDbEntity
  8
0
 62
     0
100
AcDbLine
 10
99.54729369342315
 20
189.3765370994001
 30
0.0
 11
98.22667704733106
 21
190.6971537454922
 31
0.0
  0
LINE
  5
46A
330
436
100
AcDbEntity
  8
0
 62
     0
100
AcDbLine
 10
99.52961602389349
 20
189.2527934126925
 30
0.0
 11
98.22956464494788
 21
190.5528447916381
 31
0.0
  0
LINE
  5
46B
330
436
100
AcDbEntity
  8
0
 62
     0
100
AcDbLine
 10
99.51193835436383
 20
189.1290497259848
 30
0.0
 11
98.23901161858763
 21
190.401976461761
 31
0.0
  0
LINE
  5
46C
330
436
100
AcDbEntity
  8
0
 62
     0
100
AcDbLine
 10
99.49426068483417
 20
189.0053060392772
 30
0.0
 11
98.25607126385882
 21
190.2434954602525
 31
0.0
  0
LINE
  5
46D
330
436
100
AcDbEntity
  8
0
 62
     0
100
AcDbLine
 10
99.4765830153045
 20
188.8815623525696
 30
0.0
 11
98.28217443112411
 21
190.0759709367499
 31
0.0
  0
LINE
  5
46E
330
436
100
AcDbEntity
  8
0
 62
     0
100
AcDbLine
 10
99.45890534577483
 20
188.7578186658619
 30
0.0
 11
98.31935201790759
 21
189.8973719937291
 31
0.0
  0
LINE
  5
46F
330
436
100
AcDbEntity
  8
0
 62
     0
100
AcDbLine
 10
99.44122767624516
 20
188.6340749791543
 30
0.0
 11
98.37066285720016
 21
189.7046397981993
 31
0.0
  0
LINE
  5
470
330
436
100
AcDbEntity
  8
0
 62
     0
100
AcDbLine
 10
99.4235500067155
 20
188.5103312924466
 30
0.0
 11
98.44112201698685
 21
189.4927592821753
 31
0.0
  0
LINE
  5
471
330
436
100
AcDbEntity
  8
0
 62
     0
100
AcDbLine
 10
99.40587233718584
 20
188.386587605739
 30
0.0
 11
98.54011429798411
 21
189.2523456449407
 31
0.0
  0
LINE
  5
472
330
436
100
AcDbEntity
  8
0
 62
     0
100
AcDbLine
 10
99.38819466765618
 20
188.2628439190313
 30
0.0
 11
98.68998786827427
 21
188.9610507184132
 31
0.0
  0
LINE
  5
473
330
436
100
AcDbEntity
  8
0
 62
     0
100
AcDbLine
 10
99.3705169981265
 20
188.1391002323237
 30
0.0
 11
98.99807718285401
 21
188.5115400475962
 31
0.0
  0
LINE
  5
474
330
436
100
AcDbEntity
  8
0
 62
     0
100
AcDbLine
 10
151.2659454118145
 20
188.1453095577283
 30
0.0
 11
151.2296819922786
 21
188.1815729772642
 31
0.0
  0
LINE
  5
475
330
436
100
AcDbEntity
  8
0
 62
     0
100
AcDbLine
 10
151.338350529923
 20
188.214325795857
 30
0.0
 11
151.206111766239
 21
188.3465645595411
 31
0.0
  0
LINE
  5
476
330
436
100
AcDbEntity
  8
0
 62
     0
100
AcDbLine
 10
151.4087197674461
 20
188.2853779145713
 30
0.0
 11
151.1825415401994
 21
188.511556141818
 31
0.0
  0
LINE
  5
477
330
436
100
AcDbEntity
  8
0
 62
     0
100
AcDbLine
 10
151.4770522745731
 20
188.3584667636817
 30
0.0
 11
151.1589713141599
 21
188.6765477240948
 31
0.0
  0
LINE
  5
478
330
436
100
AcDbEntity
  8
0
 62
     0
100
AcDbLine
 10
151.5433421191274
 20
188.4335982753645
 30
0.0
 11
151.1354010881204
 21
188.8415393063717
 31
0.0
  0
LINE
  5
479
330
436
100
AcDbEntity
  8
0
 62
     0
100
AcDbLine
 10
151.6075782122415
 20
188.5107835384878
 30
0.0
 11
151.1118308620808
 21
189.0065308886485
 31
0.0
  0
LINE
  5
47A
330
436
100
AcDbEntity
  8
0
 62
     0
100
AcDbLine
 10
151.6697441681253
 20
188.5900389388412
 30
0.0
 11
151.0882606360413
 21
189.1715224709254
 31
0.0
  0
LINE
  5
47B
330
436
100
AcDbEntity
  8
0
 62
     0
100
AcDbLine
 10
151.7298180937524
 20
188.6713863694516
 30
0.0
 11
151.0646904100017
 21
189.3365140532023
 31
0.0
  0
LINE
  5
47C
330
436
100
AcDbEntity
  8
0
 62
     0
100
AcDbLine
 10
151.7877723020614
 20
188.7548535173799
 30
0.0
 11
151.0411201839621
 21
189.5015056354791
 31
0.0
  0
LINE
  5
47D
330
436
100
AcDbEntity
  8
0
 62
     0
100
AcDbLine
 10
151.8435729397004
 20
188.8404742359782
 30
0.0
 11
151.0175499579226
 21
189.666497217756
 31
0.0
  0
LINE
  5
47E
330
436
100
AcDbEntity
  8
0
 62
     0
100
AcDbLine
 10
151.8971795172405
 20
188.9282890146753
 30
0.0
 11
150.993979731883
 21
189.8314888000328
 31
0.0
  0
LINE
  5
47F
330
436
100
AcDbEntity
  8
0
 62
     0
100
AcDbLine
 10
151.9485443259692
 20
189.018345562184
 30
0.0
 11
150.9704095058435
 21
189.9964803823097
 31
0.0
  0
LINE
  5
480
330
436
100
AcDbEntity
  8
0
 62
     0
100
AcDbLine
 10
151.9976117205359
 20
189.1106995238546
 30
0.0
 11
150.9468392798039
 21
190.1614719645866
 31
0.0
  0
LINE
  5
481
330
436
100
AcDbEntity
  8
0
 62
     0
100
AcDbLine
 10
152.044317240501
 20
189.2054153601268
 30
0.0
 11
150.9232690537644
 21
190.3264635468634
 31
0.0
  0
LINE
  5
482
330
436
100
AcDbEntity
  8
0
 62
     0
100
AcDbLine
 10
152.0885865356717
 20
189.3025674211934
 30
0.0
 11
150.8996988277248
 21
190.4914551291403
 31
0.0
  0
LINE
  5
483
330
436
100
AcDbEntity
  8
0
 62
     0
100
AcDbLine
 10
152.1303340492428
 20
189.4022412638596
 30
0.0
 11
150.8761286016853
 21
190.6564467114171
 31
0.0
  0
LINE
  5
484
330
436
100
AcDbEntity
  8
0
 62
     0
100
AcDbLine
 10
150.3651612287763
 20
191.1674140843262
 30
0.0
 11
150.2411052966203
 21
191.2914700164821
 31
0.0
  0
LINE
  5
485
330
436
100
AcDbEntity
  8
0
 62
     0
100
AcDbLine
 10
152.1694613980669
 20
189.5045352712728
 30
0.0
 11
150.8525583756457
 21
190.821438293694
 31
0.0
  0
LINE
  5
486
330
436
100
AcDbEntity
  8
0
 62
     0
100
AcDbLine
 10
150.5065825850135
 20
191.1674140843262
 30
0.0
 11
150.099683940383
 21
191.5743127289567
 31
0.0
  0
LINE
  5
487
330
436
100
AcDbEntity
  8
0
 62
     0
100
AcDbLine
 10
152.2058553692094
 20
189.6095626563677
 30
0.0
 11
150.8289881496062
 21
190.9864298759709
 31
0.0
  0
LINE
  5
488
330
436
100
AcDbEntity
  8
0
 62
     0
100
AcDbLine
 10
150.6480039412509
 20
191.1674140843262
 30
0.0
 11
149.9582625841457
 21
191.8571554414313
 31
0.0
  0
LINE
  5
489
330
436
100
AcDbEntity
  8
0
 62
     0
100
AcDbLine
 10
152.2393854238238
 20
189.7174539579906
 30
0.0
 11
150.8054179235666
 21
191.1514214582478
 31
0.0
  0
LINE
  5
48A
330
436
100
AcDbEntity
  8
0
 62
     0
100
AcDbLine
 10
150.7894252974882
 20
191.1674140843262
 30
0.0
 11
149.8168412279084
 21
192.139998153906
 31
0.0
  0
LINE
  5
48B
330
436
100
AcDbEntity
  8
0
 62
     0
100
AcDbLine
 10
152.2699005595096
 20
189.828360178542
 30
0.0
 11
149.6754198716711
 21
192.4228408663806
 31
0.0
  0
LINE
  5
48C
330
436
100
AcDbEntity
  8
0
 62
     0
100
AcDbLine
 10
152.2972253247472
 20
189.9424567695418
 30
0.0
 11
149.5339985154338
 21
192.7056835788551
 31
0.0
  0
LINE
  5
48D
330
436
100
AcDbEntity
  8
0
 62
     0
100
AcDbLine
 10
152.3211546942326
 20
190.0599487562937
 30
0.0
 11
149.3925771591965
 21
192.9885262913298
 31
0.0
  0
LINE
  5
48E
330
436
100
AcDbEntity
  8
0
 62
     0
100
AcDbLine
 10
152.3414473863484
 20
190.1810774204152
 30
0.0
 11
149.2511558029592
 21
193.2713690038044
 31
0.0
  0
LINE
  5
48F
330
436
100
AcDbEntity
  8
0
 62
     0
100
AcDbLine
 10
152.3578170072436
 20
190.3061291557573
 30
0.0
 11
149.1097344467219
 21
193.554211716279
 31
0.0
  0
LINE
  5
490
330
436
100
AcDbEntity
  8
0
 62
     0
100
AcDbLine
 10
152.3699200941092
 20
190.435447425129
 30
0.0
 11
148.9683130904846
 21
193.8370544287536
 31
0.0
  0
LINE
  5
491
330
436
100
AcDbEntity
  8
0
 62
     0
100
AcDbLine
 10
152.3773396202219
 20
190.5694492552536
 30
0.0
 11
148.8268917342473
 21
194.1198971412282
 31
0.0
  0
LINE
  5
492
330
436
100
AcDbEntity
  8
0
 62
     0
100
AcDbLine
 10
152.3795616599536
 20
190.7086485717591
 30
0.0
 11
148.9193263343884
 21
194.1688838973244
 31
0.0
  0
LINE
  5
493
330
436
100
AcDbEntity
  8
0
 62
     0
100
AcDbLine
 10
152.3759413848444
 20
190.8536902031057
 30
0.0
 11
149.064367965735
 21
194.1652636222151
 31
0.0
  0
LINE
  5
494
330
436
100
AcDbEntity
  8
0
 62
     0
100
AcDbLine
 10
152.3656517287633
 20
191.0054012154241
 30
0.0
 11
149.2160789780534
 21
194.154973966134
 31
0.0
  0
LINE
  5
495
330
436
100
AcDbEntity
  8
0
 62
     0
100
AcDbLine
 10
152.3476024877078
 20
191.1648718127169
 30
0.0
 11
149.3755495753462
 21
194.1369247250785
 31
0.0
  0
LINE
  5
496
330
436
100
AcDbEntity
  8
0
 62
     0
100
AcDbLine
 10
152.320305848179
 20
191.333589808483
 30
0.0
 11
149.5442675711123
 21
194.1096280855497
 31
0.0
  0
LINE
  5
497
330
436
100
AcDbEntity
  8
0
 62
     0
100
AcDbLine
 10
152.2816371452412
 20
191.5136798676581
 30
0.0
 11
149.7243576302874
 21
194.0709593826119
 31
0.0
  0
LINE
  5
498
330
436
100
AcDbEntity
  8
0
 62
     0
100
AcDbLine
 10
152.2283691113271
 20
191.7083692578096
 30
0.0
 11
149.9190470204388
 21
194.0176913486978
 31
0.0
  0
LINE
  5
499
330
436
100
AcDbEntity
  8
0
 62
     0
100
AcDbLine
 10
152.1551435484523
 20
191.9230161769217
 30
0.0
 11
150.133693939551
 21
193.944465785823
 31
0.0
  0
LINE
  5
49A
330
436
100
AcDbEntity
  8
0
 62
     0
100
AcDbLine
 10
152.0517219936851
 20
192.1678590879262
 30
0.0
 11
150.3785368505555
 21
193.8410442310558
 31
0.0
  0
LINE
  5
49B
330
436
100
AcDbEntity
  8
0
 62
     0
100
AcDbLine
 10
151.8926428946154
 20
192.4683595432332
 30
0.0
 11
150.6790373058625
 21
193.6819651319861
 31
0.0
  0
LINE
  5
49C
330
436
100
AcDbEntity
  8
0
 62
     0
100
AcDbLine
 10
151.5194376462407
 20
192.9829861478452
 30
0.0
 11
151.1936639104745
 21
193.3087598836114
 31
0.0
  0
ENDBLK
  5
49D
330
436
100
AcDbEntity
  8
0
100
AcDbBlockEnd
  0
BLOCK
  5
5F3
330
5E8
100
AcDbEntity
  8
0
100
AcDbBlockBegin
  2
*D10
 70
     1
 10
0.0
 20
0.0
 30
0.0
  3
*D10
  1

  0
LINE
  5
7C5
330
5E8
100
AcDbEntity
  8
BEM
 62
     0
370
    -2
100
AcDbLine
 10
86.0
 20
123.5724815981599
 30
0.0
 11
86.0
 21
105.9718441440647
 31
0.0
  0
LINE
  5
7C6
330
5E8
100
AcDbEntity
  8
BEM
 62
     0
370
    -2
100
AcDbLine
 10
138.9999999999999
 20
123.5724815981597
 30
0.0
 11
138.9999999999999
 21
105.9718441440647
 31
0.0
  0
LINE
  5
7C7
330
5E8
100
AcDbEntity
  8
BEM
 62
     0
370
    -2
100
AcDbLine
 10
89.50000000000001
 20
106.9718441440647
 30
0.0
 11
135.4999999999999
 21
106.9718441440647
 31
0.0
  0
SOLID
  5
7C8
330
5E8
100
AcDbEntity
  8
BEM
 62
     0
100
AcDbTrace
 10
89.50000000000001
 20
107.555177477398
 30
0.0
 11
89.50000000000001
 21
106.3885108107314
 31
0.0
 12
86.0
 22
106.9718441440647
 32
0.0
 13
86.0
 23
106.9718441440647
 33
0.0
  0
SOLID
  5
7C9
330
5E8
100
AcDbEntity
  8
BEM
 62
     0
100
AcDbTrace
 10
135.4999999999999
 20
107.555177477398
 30
0.0
 11
135.4999999999999
 21
106.3885108107314
 31
0.0
 12
138.9999999999999
 22
106.9718441440647
 32
0.0
 13
138.9999999999999
 23
106.9718441440647
 33
0.0
  0
MTEXT
  5
7CA
330
5E8
100
AcDbEntity
  8
BEM
 62
     1
100
AcDbMText
 10
112.5
 20
110.2218441440647
 30
0.0
 40
3.5
 41
0.0
 71
     5
 72
     1
  1
\A1;%%C53
 73
     1
 44
1.0
  0
POINT
  5
7CB
330
5E8
100
AcDbEntity
  8
DEFPOINTS
 62
     0
100
AcDbPoint
 10
86.0
 20
124.5724815981599
 30
0.0
  0
POINT
  5
7CC
330
5E8
100
AcDbEntity
  8
DEFPOINTS
 62
     0
100
AcDbPoint
 10
138.9999999999999
 20
124.5724815981597
 30
0.0
  0
POINT
  5
7CD
330
5E8
100
AcDbEntity
  8
DEFPOINTS
 62
     0
100
AcDbPoint
 10
138.9999999999999
 20
106.9718441440647
 30
0.0
  0
ENDBLK
  5
5F4
330
5E8
100
AcDbEntity
  8
0
100
AcDbBlockEnd
  0
BLOCK
  5
600
330
5F5
100
AcDbEntity
  8
0
100
AcDbBlockBegin
  2
*D11
 70
     1
 10
0.0
 20
0.0
 30
0.0
  3
*D11
  1

  0
LINE
  5
7BC
330
5F5
100
AcDbEntity
  8
BEM
 62
     0
370
    -2
100
AcDbLine
 10
91.49999999999996
 20
233.5942876934316
 30
0.0
 11
91.49999999999996
 21
224.5703038378015
 31
0.0
  0
LINE
  5
7BD
330
5F5
100
AcDbEntity
  8
BEM
 62
     0
370
    -2
100
AcDbLine
 10
133.5
 20
233.5942876934316
 30
0.0
 11
133.5
 21
224.5703038378015
 31
0.0
  0
LINE
  5
7BE
330
5F5
100
AcDbEntity
  8
BEM
 62
     0
370
    -2
100
AcDbLine
 10
94.99999999999998
 20
225.5703038378015
 30
0.0
 11
130.0
 21
225.5703038378015
 31
0.0
  0
SOLID
  5
7BF
330
5F5
100
AcDbEntity
  8
BEM
 62
     0
100
AcDbTrace
 10
94.99999999999998
 20
226.1536371711348
 30
0.0
 11
94.99999999999998
 21
224.9869705044681
 31
0.0
 12
91.49999999999996
 22
225.5703038378015
 32
0.0
 13
91.49999999999996
 23
225.5703038378015
 33
0.0
  0
SOLID
  5
7C0
330
5F5
100
AcDbEntity
  8
BEM
 62
     0
100
AcDbTrace
 10
130.0
 20
226.1536371711348
 30
0.0
 11
130.0
 21
224.9869705044681
 31
0.0
 12
133.5
 22
225.5703038378015
 32
0.0
 13
133.5
 23
225.5703038378015
 33
0.0
  0
MTEXT
  5
7C1
330
5F5
100
AcDbEntity
  8
BEM
 62
     1
100
AcDbMText
 10
112.5
 20
228.8203038378015
 30
0.0
 40
3.5
 41
0.0
 71
     5
 72
     1
  1
\A1;%%C42
 73
     1
 44
1.0
  0
POINT
  5
7C2
330
5F5
100
AcDbEntity
  8
DEFPOINTS
 62
     0
100
AcDbPoint
 10
91.49999999999996
 20
234.5942876934316
 30
0.0
  0
POINT
  5
7C3
330
5F5
100
AcDbEntity
  8
DEFPOINTS
 62
     0
100
AcDbPoint
 10
133.5
 20
234.5942876934316
 30
0.0
  0
POINT
  5
7C4
330
5F5
100
AcDbEntity
  8
DEFPOINTS
 62
     0
100
AcDbPoint
 10
133.5
 20
225.5703038378015
 30
0.0
  0
ENDBLK
  5
601
330
5F5
100
AcDbEntity
  8
0
100
AcDbBlockEnd
  0
BLOCK
  5
61A
330
60F
100
AcDbEntity
  8
0
100
AcDbBlockBegin
  2
*D12
 70
     1
 10
0.0
 20
0.0
 30
0.0
  3
*D12
  1

  0
LINE
  5
7B3
330
60F
100
AcDbEntity
  8
BEM
 62
     0
370
    -2
100
AcDbLine
 10
85.61242064468148
 20
119.0998413660239
 30
0.0
 11
74.89134978310264
 21
119.0998413660239
 31
0.0
  0
LINE
  5
7B4
330
60F
100
AcDbEntity
  8
BEM
 62
     0
370
    -2
100
AcDbLine
 10
85.33550517620133
 20
204.0998413660239
 30
0.0
 11
74.89134978310265
 21
204.0998413660239
 31
0.0
  0
LINE
  5
7B5
330
60F
100
AcDbEntity
  8
BEM
 62
     0
370
    -2
100
AcDbLine
 10
75.89134978310264
 20
122.5998413660239
 30
0.0
 11
75.89134978310266
 21
200.5998413660239
 31
0.0
  0
SOLID
  5
7B6
330
60F
100
AcDbEntity
  8
BEM
 62
     0
100
AcDbTrace
 10
75.30801644976931
 20
122.5998413660239
 30
0.0
 11
76.47468311643597
 21
122.5998413660239
 31
0.0
 12
75.89134978310264
 22
119.0998413660239
 32
0.0
 13
75.89134978310264
 23
119.0998413660239
 33
0.0
  0
SOLID
  5
7B7
330
60F
100
AcDbEntity
  8
BEM
 62
     0
100
AcDbTrace
 10
75.30801644976932
 20
200.5998413660239
 30
0.0
 11
76.47468311643598
 21
200.5998413660239
 31
0.0
 12
75.89134978310266
 22
204.0998413660239
 32
0.0
 13
75.89134978310266
 23
204.0998413660239
 33
0.0
  0
MTEXT
  5
7B8
330
60F
100
AcDbEntity
  8
BEM
 62
     1
100
AcDbMText
 10
72.64134978310263
 20
161.599841366024
 30
0.0
 40
3.5
 41
0.0
 71
     5
 72
     1
  1
\A1;85
 11
0.0000000000000001
 21
1.0
 31
0.0
 73
     1
 44
1.0
  0
POINT
  5
7B9
330
60F
100
AcDbEntity
  8
DEFPOINTS
 62
     0
100
AcDbPoint
 10
86.61242064468147
 20
119.0998413660239
 30
0.0
  0
POINT
  5
7BA
330
60F
100
AcDbEntity
  8
DEFPOINTS
 62
     0
100
AcDbPoint
 10
86.33550517620133
 20
204.0998413660239
 30
0.0
  0
POINT
  5
7BB
330
60F
100
AcDbEntity
  8
DEFPOINTS
 62
     0
100
AcDbPoint
 10
75.89134978310266
 20
204.0998413660239
 30
0.0
  0
ENDBLK
  5
61B
330
60F
100
AcDbEntity
  8
0
100
AcDbBlockEnd
  0
BLOCK
  5
751
330
747
100
AcDbEntity
  8
0
100
AcDbBlockBegin
  2
*D13
 70
     1
 10
0.0
 20
0.0
 30
0.0
  3
*D13
  1

  0
LINE
  5
7AA
330
747
100
AcDbEntity
  8
BEM
 62
     0
370
    -2
100
AcDbLine
 10
87.3523969996815
 20
269.0998413660239
 30
0.0
 11
67.20961241400349
 21
269.0998413660239
 31
0.0
  0
LINE
  5
7AB
330
747
100
AcDbEntity
  8
BEM
 62
     0
370
    -2
100
AcDbLine
 10
85.61242064468148
 20
119.0998413660239
 30
0.0
 11
67.20961241400345
 21
119.0998413660239
 31
0.0
  0
LINE
  5
7AC
330
747
100
AcDbEntity
  8
BEM
 62
     0
370
    -2
100
AcDbLine
 10
68.20961241400349
 20
265.599841366024
 30
0.0
 11
68.20961241400346
 21
122.5998413660239
 31
0.0
  0
SOLID
  5
7AD
330
747
100
AcDbEntity
  8
BEM
 62
     0
100
AcDbTrace
 10
67.62627908067016
 20
265.599841366024
 30
0.0
 11
68.79294574733681
 21
265.599841366024
 31
0.0
 12
68.20961241400349
 22
269.0998413660239
 32
0.0
 13
68.20961241400349
 23
269.0998413660239
 33
0.0
  0
SOLID
  5
7AE
330
747
100
AcDbEntity
  8
BEM
 62
     0
100
AcDbTrace
 10
67.62627908067013
 20
122.5998413660239
 30
0.0
 11
68.79294574733679
 21
122.5998413660239
 31
0.0
 12
68.20961241400346
 22
119.0998413660239
 32
0.0
 13
68.20961241400346
 23
119.0998413660239
 33
0.0
  0
MTEXT
  5
7AF
330
747
100
AcDbEntity
  8
BEM
 62
     1
100
AcDbMText
 10
64.95961241400344
 20
194.0998413660239
 30
0.0
 40
3.5
 41
0.0
 71
     5
 72
     1
  1
\A1;150
 11
0.0000000000000001
 21
1.0
 31
0.0
 73
     1
 44
1.0
  0
POINT
  5
7B0
330
747
100
AcDbEntity
  8
DEFPOINTS
 62
     0
100
AcDbPoint
 10
88.3523969996815
 20
269.0998413660239
 30
0.0
  0
POINT
  5
7B1
330
747
100
AcDbEntity
  8
DEFPOINTS
 62
     0
100
AcDbPoint
 10
86.61242064468147
 20
119.0998413660239
 30
0.0
  0
POINT
  5
7B2
330
747
100
AcDbEntity
  8
DEFPOINTS
 62
     0
100
AcDbPoint
 10
68.20961241400346
 20
119.0998413660239
 30
0.0
  0
ENDBLK
  5
752
330
747
100
AcDbEntity
  8
0
100
AcDbBlockEnd
  0
ENDSEC
  0
SECTION
  2
ENTITIES
  0
LINE
  5
57
330
1E
100
AcDbEntity
  8
STEMPEL
100
AcDbLine
 10
205.0
 20
55.00000000000003
 30
0.0
 11
19.99999999999998
 21
55.0
 31
0.0
  0
LINE
  5
58
330
1E
100
AcDbEntity
  8
STEMPEL
100
AcDbLine
 10
68.00000000000006
 20
54.99999999999997
 30
0.0
 11
68.0
 21
4.999999999999985
 31
0.0
  0
LINE
  5
59
330
1E
100
AcDbEntity
  8
STEMPEL
100
AcDbLine
 10
110.0
 20
55.00000000000003
 30
0.0
 11
110.0
 21
4.999999999999985
 31
0.0
  0
LINE
  5
5A
330
1E
100
AcDbEntity
  8
STEMPEL
100
AcDbLine
 10
166.0
 20
54.99999999999989
 30
0.0
 11
166.0
 21
20.0
 31
0.0
  0
LINE
  5
5B
330
1E
100
AcDbEntity
  8
STEMPEL
100
AcDbLine
 10
67.99999999999994
 20
14.99999999999998
 30
0.0
 11
19.99999999999998
 21
14.99999999999998
 31
0.0
  0
LINE
  5
5C
330
1E
100
AcDbEntity
  8
STEMPEL
100
AcDbLine
 10
205.0
 20
20.0
 30
0.0
 11
68.00000000000006
 21
19.99999999999998
 31
0.0
  0
LINE
  5
5D
330
1E
100
AcDbEntity
  8
STEMPEL
100
AcDbLine
 10
205.0
 20
40.0
 30
0.0
 11
68.00000000000006
 21
39.99999999999997
 31
0.0
  0
LINE
  5
5E
330
1E
100
AcDbEntity
  8
VOLL
100
AcDbLine
 10
27.00000000000005
 20
55.00000000000003
 30
0.0
 11
26.99999999999999
 21
4.999999999999985
 31
0.0
  0
LINE
  5
5F
330
1E
100
AcDbEntity
  8
VOLL
100
AcDbLine
 10
47.00000000000005
 20
54.99999999999997
 30
0.0
 11
47.0
 21
4.999999999999985
 31
0.0
  0
LINE
  5
60
330
1E
100
AcDbEntity
  8
VOLL
100
AcDbLine
 10
57.00000000000006
 20
54.99999999999997
 30
0.0
 11
57.0
 21
4.999999999999985
 31
0.0
  0
LINE
  5
61
330
1E
100
AcDbEntity
  8
VOLL
100
AcDbLine
 10
77.00000000000006
 20
39.99999999999997
 30
0.0
 11
77.00000000000006
 21
19.99999999999998
 31
0.0
  0
LINE
  5
62
330
1E
100
AcDbEntity
  8
VOLL
100
AcDbLine
 10
90.00000000000005
 20
54.99999999999992
 30
0.0
 11
90.0
 21
19.99999999999998
 31
0.0
  0
LINE
  5
63
330
1E
100
AcDbEntity
  8
HILF
100
AcDbLine
 10
20.00000000000004
 20
50.00000000000003
 30
0.0
 11
68.00000000000006
 21
50.00000000000003
 31
0.0
  0
LINE
  5
64
330
1E
100
AcDbEntity
  8
HILF
100
AcDbLine
 10
20.00000000000004
 20
45.00000000000002
 30
0.0
 11
68.00000000000006
 21
45.00000000000002
 31
0.0
  0
LINE
  5
65
330
1E
100
AcDbEntity
  8
HILF
100
AcDbLine
 10
20.00000000000004
 20
39.99999999999997
 30
0.0
 11
68.00000000000006
 21
39.99999999999997
 31
0.0
  0
LINE
  5
66
330
1E
100
AcDbEntity
  8
HILF
100
AcDbLine
 10
20.00000000000004
 20
34.99999999999997
 30
0.0
 11
68.00000000000006
 21
34.99999999999997
 31
0.0
  0
LINE
  5
67
330
1E
100
AcDbEntity
  8
HILF
100
AcDbLine
 10
20.00000000000004
 20
29.99999999999999
 30
0.0
 11
68.00000000000006
 21
29.99999999999999
 31
0.0
  0
LINE
  5
68
330
1E
100
AcDbEntity
  8
HILF
100
AcDbLine
 10
20.00000000000004
 20
24.99999999999999
 30
0.0
 11
68.00000000000006
 21
24.99999999999999
 31
0.0
  0
LINE
  5
69
330
1E
100
AcDbEntity
  8
HILF
100
AcDbLine
 10
20.00000000000004
 20
19.99999999999998
 30
0.0
 11
68.00000000000006
 21
19.99999999999998
 31
0.0
  0
LINE
  5
6A
330
1E
100
AcDbEntity
  8
HILF
100
AcDbLine
 10
68.00000000000006
 20
34.99999999999997
 30
0.0
 11
110.0
 21
34.99999999999997
 31
0.0
  0
LINE
  5
6B
330
1E
100
AcDbEntity
  8
HILF
100
AcDbLine
 10
68.00000000000006
 20
29.99999999999999
 30
0.0
 11
110.0
 21
29.99999999999999
 31
0.0
  0
LINE
  5
6C
330
1E
100
AcDbEntity
  8
HILF
100
AcDbLine
 10
68.00000000000006
 20
24.99999999999999
 30
0.0
 11
110.0
 21
24.99999999999999
 31
0.0
  0
LINE
  5
6D
330
1E
100
AcDbEntity
  8
HILF
100
AcDbLine
 10
112.3868400548474
 20
42.01879123782069
 30
0.0
 11
162.4176958278155
 21
42.01879123782069
 31
0.0
  0
LINE
  5
6E
330
1E
100
AcDbEntity
  8
HILF
100
AcDbLine
 10
112.3868400548474
 20
34.99999999999997
 30
0.0
 11
162.4176958278155
 21
34.99999999999997
 31
0.0
  0
LINE
  5
6F
330
1E
100
AcDbEntity
  8
HILF
100
AcDbLine
 10
112.3868400548474
 20
29.99999999999999
 30
0.0
 11
162.4176958278155
 21
29.99999999999999
 31
0.0
  0
LINE
  5
70
330
1E
100
AcDbEntity
  8
HILF
100
AcDbLine
 10
112.3868400548474
 20
24.99999999999999
 30
0.0
 11
162.4176958278155
 21
24.99999999999999
 31
0.0
  0
LINE
  5
71
330
1E
100
AcDbEntity
  8
VOLL
100
AcDbLine
 10
166.0
 20
30.0
 30
0.0
 11
205.0
 21
30.0
 31
0.0
  0
LINE
  5
72
330
1E
100
AcDbEntity
  8
HILF
100
AcDbLine
 10
168.3619308148496
 20
41.88991818477913
 30
0.0
 11
202.4294419663364
 21
41.88991818477913
 31
0.0
  0
LINE
  5
73
330
1E
100
AcDbEntity
  8
HILF
100
AcDbLine
 10
111.7454849644942
 20
7.446991290141568
 30
0.0
 11
202.4294419663364
 21
7.446991290141568
 31
0.0
  0
TEXT
  5
74
330
1E
100
AcDbEntity
  8
TEXT
100
AcDbText
 10
31.9308298981591
 20
9.336909474920659
 30
0.0
 40
2.0
  1
Änderung
 41
0.8
  7
GREEKS
 72
     1
 11
37.30225846958767
 21
9.336909474920659
 31
0.0
100
AcDbText
  0
TEXT
  5
75
330
1E
100
AcDbEntity
  8
TEXT
100
AcDbText
 10
71.75817860751886
 20
51.23104475435443
 30
0.0
 40
2.5
  1
Maßstab
 41
0.8
  7
GREEKS
100
AcDbText
  0
TEXT
  5
76
330
1E
100
AcDbEntity
  8
TEXT
100
AcDbText
 10
92.14294773670257
 20
51.20920842174095
 30
0.0
 40
2.5
  1
Zul. Abw.
 41
0.8
  7
GREEKS
100
AcDbText
  0
TEXT
  5
77
330
1E
100
AcDbEntity
  8
TEXT
100
AcDbText
 10
112.4389701904505
 20
51.27446640058898
 30
0.0
 40
2.5
  1
Benennung
 41
0.8
  7
GREEKS
100
AcDbText
  0
TEXT
  5
78
330
1E
100
AcDbEntity
  8
TEXT
100
AcDbText
 10
168.089377478817
 20
51.15660172685682
 30
0.0
 40
2.5
  1
Zeichnungs Nr.
 41
0.8
  7
GREEKS
100
AcDbText
  0
TEXT
  5
79
330
1E
100
AcDbEntity
  8
TEXT
100
AcDbText
 10
112.371119195568
 20
15.42280285096528
 30
0.0
 40
2.5
  1
Bauvorhaben
 41
0.8
  7
GREEKS
100
AcDbText
  0
TEXT
  5
7A
330
1E
100
AcDbEntity
  8
TEXT
100
AcDbText
 10
168.3619308148496
 20
36.59059118549985
 30
0.0
 40
2.5
  1
Ersatz für:
 41
0.8
  7
GREEKS
100
AcDbText
  0
TEXT
  5
7B
330
1E
100
AcDbEntity
  8
TEXT
100
AcDbText
 10
24.13320553522878
 20
6.827329230135958
 30
0.0
 40
2.0
  1
Index
 50
90.0
 41
0.8
  7
GREEKS
100
AcDbText
  0
TEXT
  5
7C
330
1E
100
AcDbEntity
  8
TEXT
100
AcDbText
 10
50.04673380377405
 20
9.33578134669905
 30
0.0
 40
2.0
  1
Tag
 41
0.8
  7
GREEKS
 72
     1
 11
51.91340047044072
 21
9.33578134669905
 31
0.0
100
AcDbText
  0
TEXT
  5
7D
330
1E
100
AcDbEntity
  8
TEXT
100
AcDbText
 10
59.50613721932963
 20
9.29662108483204
 30
0.0
 40
2.0
  1
Name
 41
0.8
  7
GREEKS
 72
     1
 11
62.66804198123439
 21
9.29662108483204
 31
0.0
100
AcDbText
  0
TEXT
  5
7E
330
1E
100
AcDbEntity
  8
TEXT
100
AcDbText
 10
81.16558365768254
 20
36.65940250614963
 30
0.0
 40
2.0
  1
Tag
 41
0.8
  7
GREEKS
100
AcDbText
  0
TEXT
  5
7F
330
1E
100
AcDbEntity
  8
TEXT
100
AcDbText
 10
96.23132921131475
 20
36.65480545957612
 30
0.0
 40
2.0
  1
Name
 41
0.8
  7
GREEKS
100
AcDbText
  0
TEXT
  5
80
330
1E
100
AcDbEntity
  8
TEXT
100
AcDbText
 10
68.79180635838077
 20
31.81495184808982
 30
0.0
 40
2.0
  1
Gez.
 41
0.8
  7
GREEKS
100
AcDbText
  0
TEXT
  5
81
330
1E
100
AcDbEntity
  8
TEXT
100
AcDbText
 10
68.77575432858361
 20
26.84463145714189
 30
0.0
 40
2.0
  1
Gepr.
 41
0.8
  7
GREEKS
100
AcDbText
  0
TEXT
  5
82
330
1E
100
AcDbEntity
  8
TEXT
100
AcDbText
 10
68.80033886936519
 20
21.76473194824904
 30
0.0
 40
2.0
  1
Norm.
 41
0.8
  7
GREEKS
100
AcDbText
  0
LINE
  5
83
330
1E
100
AcDbEntity
  8
STEMPEL
100
AcDbLine
 10
24.99999999999995
 20
5.0
 30
0.0
 11
205.0
 21
5.0
 31
0.0
  0
TEXT
  5
84
330
1E
100
AcDbEntity
  8
TEXT
100
AcDbText
 10
168.6200430748503
 20
26.03708088939301
 30
0.0
 40
2.5
  1
ersetzt durch:
 41
0.8
  7
GREEKS
100
AcDbText
  0
LINE
  5
85
330
1E
100
AcDbEntity
  8
STEMPEL
100
AcDbLine
 10
205.0
 20
5.0
 30
0.0
 11
19.99999999999994
 21
5.0
 31
0.0
  0
LINE
  5
86
330
1E
100
AcDbEntity
  8
STEMPEL
100
AcDbLine
 10
205.0
 20
5.0
 30
0.0
 11
205.0
 21
292.0
 31
0.0
  0
LINE
  5
87
330
1E
100
AcDbEntity
  8
STEMPEL
100
AcDbLine
 10
20.0
 20
5.0
 30
0.0
 11
19.99999999999994
 21
292.0
 31
0.0
  0
LINE
  5
88
330
1E
100
AcDbEntity
  8
STEMPEL
100
AcDbLine
 10
205.0
 20
292.0
 30
0.0
 11
19.99999999999994
 21
292.0
 31
0.0
  0
LINE
  5
89
330
1E
100
AcDbEntity
  8
HILF
100
AcDbLine
 10
0.0
 20
0.0
 30
0.0
 11
-0.0000000000000568
 21
297.0
 31
0.0
  0
LINE
  5
8A
330
1E
100
AcDbEntity
  8
HILF
100
AcDbLine
 10
210.0
 20
297.0000000000001
 30
0.0
 11
0.0
 21
297.0
 31
0.0
  0
LINE
  5
8B
330
1E
100
AcDbEntity
  8
HILF
100
AcDbLine
 10
210.0
 20
0.0
 30
0.0
 11
0.0
 21
0.0
 31
0.0
  0
LINE
  5
8C
330
1E
100
AcDbEntity
  8
HILF
100
AcDbLine
 10
15.54383567856928
 20
148.5
 30
0.0
 11
0.0000000000000568
 21
148.5
 31
0.0
  0
TEXT
  5
8D
330
1E
100
AcDbEntity
  8
TEXT
100
AcDbText
 10
69.31105491105199
 20
36.57012735575833
 30
0.0
 40
2.0
  1
2011
 41
0.8
  7
GREEKS
100
AcDbText
  0
LINE
  5
8E
330
1E
100
AcDbEntity
  8
HILF
100
AcDbLine
 10
210.0
 20
-0.0000000000000568
 30
0.0
 11
210.0
 21
297.0
 31
0.0
  0
TEXT
  5
8F
330
1E
100
AcDbEntity
  8
VOLL
100
AcDbText
 10
78.07675471698113
 20
31.02594776470585
 30
0.0
 40
1.8
  1

  7
GREEKS
100
AcDbText
  0
TEXT
  5
90
330
1E
100
AcDbEntity
  8
TEXT
100
AcDbText
 10
20.92754975488837
 20
55.83599999999997
 30
0.0
 40
2.5
  1
Erstellt mit AUTOCAD 2004
 41
0.8
  7
GREEKS
100
AcDbText
  0
TEXT
  5
91
330
1E
100
AcDbEntity
  8
TEXT
100
AcDbText
 10
97.21080242906285
 20
31.54481959861755
 30
0.0
 40
2.0
  1
Koeh
 41
0.8
  7
GREEKS
 72
     1
 11
99.83937385763429
 21
31.54481959861755
 31
0.0
100
AcDbText
  0
TEXT
  5
92
330
1E
100
AcDbEntity
  8
TEXT
 62
     1
100
AcDbText
 10
172.6759513272837
 20
44.07450714456979
 30
0.0
 40
3.5
  1
00603AB0W
 41
0.8
  7
GREEKS
 72
     1
 11
184.8759513272837
 21
44.07450714456979
 31
0.0
100
AcDbText
  0
TEXT
  5
93
330
1E
100
AcDbEntity
  8
TEXT
 62
     1
100
AcDbText
 10
75.25031532409435
 20
44.07450714456979
 30
0.0
 40
3.5
  1
1:1
 41
0.8
  7
GREEKS
100
AcDbText
  0
TEXT
  5
94
330
1E
100
AcDbEntity
  8
TEXT
100
AcDbText
 10
80.19949855411802
 20
31.55382520412866
 30
0.0
 40
2.0
  1
04.04.
 41
0.8
  7
GREEKS
 72
     1
 11
83.70426045887993
 21
31.55382520412866
 31
0.0
100
AcDbText
  0
TEXT
  5
95
330
1E
100
AcDbEntity
  8
TEXT
 62
     1
100
AcDbText
 10
112.9459488379947
 20
43.70874394626889
 30
0.0
 40
3.5
  1
Übergangsrohr DN40/50
 41
0.75
  7
GREEKS
100
AcDbText
  0
TEXT
  5
96
330
1E
100
AcDbEntity
  8
TEXT
100
AcDbText
 10
112.5648195562657
 20
35.75167208792644
 30
0.0
 40
2.5
  1
konzentrische Red.-Stück
 41
0.8
  7
GREEKS
100
AcDbText
  0
TEXT
  5
98
330
1E
100
AcDbEntity
  8
TEXT
100
AcDbText
 10
112.5648195562657
 20
25.82005971521079
 30
0.0
 40
2.5
  1
EDV-Art.Nr. 00603.AB0X
 41
0.8
  7
GREEKS
100
AcDbText
  0
TEXT
  5
99
330
1E
100
AcDbEntity
  8
TEXT
100
AcDbText
 10
112.4918750788913
 20
21.31487076511316
 30
0.0
 40
2.0
  1
00603AB0W.DWG
 41
0.8
  7
GREEKS
100
AcDbText
  0
TEXT
  5
9A
330
1E
100
AcDbEntity
  8
TEXT
100
AcDbText
 10
91.31306610404202
 20
45.38181920511511
 30
0.0
 40
2.0
  1
DIN EN1123-2
 41
0.8
  7
GREEKS
 72
     1
 11
99.80830419928011
 21
45.38181920511511
 31
0.0
100
AcDbText
  0
INSERT
  5
9B
330
1E
100
AcDbEntity
  8
STEMPEL
100
AcDbBlockReference
  2
LOGO
 10
70.4977742728897
 20
22.51052638224161
 30
0.0
  0
TEXT
  5
118
330
1E
100
AcDbEntity
  8
BEM
100
AcDbText
 10
208.6511461928583
 20
5.083950539994247
 30
0.0
 40
2.0
  1
Diese Zeichnung ist urheberrechtlich geschützt und bleibt unser Eigentum. Sie darf weder ganz noch teilweise verfielfältigt und nicht an Dritte weitergegeben werden.
 50
90.0
 41
0.8
  7
GREEKS
100
AcDbText
  0
TEXT
  5
1C9
330
1E
100
AcDbEntity
  8
TEXT
 62
     1
100
AcDbText
 10
108.4946067364495
 20
152.5518274128656
 30
0.0
 40
3.5
  1
DN50
 50
90.0
 41
0.8
  7
GREEKS
100
AcDbText
  0
TEXT
  5
2B5
330
1E
100
AcDbEntity
  8
VOLL
100
AcDbText
 10
38.6752682041619
 20
95.5518624670231
 30
0.0
 40
3.5
  1
Rohrende leicht eingezogen
 41
0.8
  7
GREEKS
100
AcDbText
  0
TEXT
  5
33D
330
1E
100
AcDbEntity
  8
TEXT
 62
     1
100
AcDbText
 10
108.4946067364495
 20
254.3466418064901
 30
0.0
 40
3.5
  1
DN40
 50
90.0
 41
0.8
  7
GREEKS
100
AcDbText
  0
TEXT
  5
385
330
1E
100
AcDbEntity
  8
TEXT
 62
     1
100
AcDbText
 10
137.3028829473233
 20
64.53917328727413
 30
0.0
 40
3.5
  1
und innen beschichtet
 41
0.8
  7
GREEKS
100
AcDbText
  0
TEXT
  5
386
330
1E
100
AcDbEntity
  8
TEXT
 62
     1
100
AcDbText
 10
113.3280242286244
 20
69.90022919477588
 30
0.0
 40
3.5
  1
Werkstoff: E195 EN10305 feuerverzinkt
 41
0.8
  7
GREEKS
100
AcDbText
  0
LINE
  5
52B
330
1E
100
AcDbEntity
  8
MITTEL
100
AcDbLine
 10
112.5
 20
224.4047846398069
 30
0.0
 11
112.5
 21
114.0998413660239
 31
0.0
  0
INSERT
  5
52E
330
1E
100
AcDbEntity
  8
SCHRAFF
100
AcDbBlockReference
  2
*X3
 10
-12.80313326269834
 20
19.93242728169775
 30
0.0
1001
ACAD
1000
HATCH
1002
{
1070
    16
1000
_U,I
1040
0.1
1040
2.356194490192344
1070
     0
1002
}
  0
ARC
  5
52F
330
1E
100
AcDbEntity
  8
SCHRAFF
100
AcDbCircle
 10
136.1020374076038
 20
210.6269201893706
 30
0.0
 40
3.474419826646869
100
AcDbArc
 50
312.187754394262
 51
91.68291508346626
  0
ARC
  5
530
330
1E
100
AcDbEntity
  8
SCHRAFF
100
AcDbCircle
 10
88.89796259239616
 20
210.6269201893708
 30
0.0
 40
3.474419826646869
100
AcDbArc
 50
88.31708491653373
 51
227.8122456057377
  0
ARC
  5
532
330
1E
100
AcDbEntity
  8
SCHRAFF
100
AcDbCircle
 10
122.5479078624773
 20
211.0998413660239
 30
0.0
 40
9.791346849169833
100
AcDbArc
 50
342.1580110672776
 51
17.84198893272158
  0
ARC
  5
535
330
1E
100
AcDbEntity
  8
SCHRAFF
100
AcDbCircle
 10
109.3400767220956
 20
211.0998413660239
 30
0.0
 40
9.791346849169833
100
AcDbArc
 50
342.1580110672776
 51
17.84198893272158
  0
ARC
  5
536
330
1E
100
AcDbEntity
  8
SCHRAFF
100
AcDbCircle
 10
115.9439922922865
 20
211.0998413660239
 30
0.0
 40
9.791346849169833
100
AcDbArc
 50
342.1580110672776
 51
17.84198893272158
  0
ARC
  5
539
330
1E
100
AcDbEntity
  8
SCHRAFF
100
AcDbCircle
 10
96.13224558171397
 20
211.099841366024
 30
0.0
 40
9.791346849169833
100
AcDbArc
 50
342.1580110672776
 51
17.84198893272158
  0
ARC
  5
53A
330
1E
100
AcDbEntity
  8
SCHRAFF
100
AcDbCircle
 10
102.7361611519048
 20
211.0998413660239
 30
0.0
 40
9.791346849169833
100
AcDbArc
 50
342.1580110672776
 51
17.84198893272158
  0
ARC
  5
53C
330
1E
100
AcDbEntity
  8
SCHRAFF
100
AcDbCircle
 10
89.52833001152312
 20
211.099841366024
 30
0.0
 40
9.791346849169833
100
AcDbArc
 50
342.1580110672776
 51
17.84198893272158
  0
ARC
  5
53E
330
1E
100
AcDbEntity
  8
SCHRAFF
100
AcDbCircle
 10
82.92441444133228
 20
211.099841366024
 30
0.0
 40
9.791346849169833
100
AcDbArc
 50
342.1580110672776
 51
17.84198893272158
  0
ARC
  5
56A
330
1E
100
AcDbEntity
  8
STEMPEL
100
AcDbCircle
 10
85.50000000000002
 20
220.5162492310228
 30
0.0
 40
6.0
100
AcDbArc
 50
333.434948822922
 51
0.0
  0
ARC
  5
56B
330
1E
100
AcDbEntity
  8
STEMPEL
100
AcDbCircle
 10
139.5
 20
220.5162492310226
 30
0.0
 40
6.0
100
AcDbArc
 50
180.0
 51
206.5650511770773
  0
LINE
  5
56C
330
1E
100
AcDbEntity
  8
STEMPEL
100
AcDbLine
 10
90.86656314599949
 20
217.832967658023
 30
0.0
 11
87.49999999999998
 21
211.099841366024
 31
0.0
  0
LINE
  5
56D
330
1E
100
AcDbEntity
  8
STEMPEL
100
AcDbLine
 10
134.1334368540005
 20
217.8329676580229
 30
0.0
 11
137.5
 21
211.0998413660239
 31
0.0
  0
LINE
  5
56E
330
1E
100
AcDbEntity
  8
HILF
100
AcDbLine
 10
132.1349617271891
 20
219.0998413660239
 30
0.0
 11
92.86503827281093
 21
219.099841366024
 31
0.0
  0
ARC
  5
56F
330
1E
100
AcDbEntity
  8
STEMPEL
100
AcDbCircle
 10
106.0
 20
202.6784851287145
 30
0.0
 40
20.0
100
AcDbArc
 50
171.8698976458444
 51
180.0
  0
ARC
  5
570
330
1E
100
AcDbEntity
  8
STEMPEL
100
AcDbCircle
 10
118.9999999999999
 20
202.6784851287146
 30
0.0
 40
20.0
100
AcDbArc
 50
0.0
 51
8.130102354156324
  0
LINE
  5
571
330
1E
100
AcDbEntity
  8
STEMPEL
100
AcDbLine
 10
86.20101012677663
 20
205.5069122534606
 30
0.0
 11
86.99999999999997
 21
211.099841366024
 31
0.0
  0
LINE
  5
572
330
1E
100
AcDbEntity
  8
STEMPEL
100
AcDbLine
 10
138.7989898732233
 20
205.5069122534607
 30
0.0
 11
137.9999999999999
 21
211.0998413660239
 31
0.0
  0
DIMENSION
  5
575
330
1E
100
AcDbEntity
  8
BEM
100
AcDbDimension
  2
*D10
 10
138.9999999999999
 20
106.9718441440647
 30
0.0
 11
112.5
 21
110.2218441440647
 31
0.0
 70
    32
  1
%%C<>
 71
     5
 42
52.99999999999997
  3
Standard
100
AcDbAlignedDimension
 13
86.0
 23
124.5724815981599
 33
0.0
 14
138.9999999999999
 24
124.5724815981597
 34
0.0
100
AcDbRotatedDimension
1001
ACAD
1000
DSTYLE
1002
{
1070
    41
1040
3.5
1070
    42
1040
1.0
1070
    43
1040
7.0
1070
    44
1040
1.0
1070
    73
1070
     0
1070
    74
1070
     0
1070
    77
1070
     1
1070
    78
1070
     8
1070
    79
1070
     2
1070
   140
1040
3.5
1070
   141
1040
1.5
1070
   146
1040
0.5142857142857144
1070
   147
1040
1.5
1070
   172
1070
     1
1070
   178
1070
     1
1070
   179
1070
     2
1070
   271
1070
     2
1070
   272
1070
     2
1070
   284
1070
     8
1070
   285
1070
     8
1070
   286
1070
     8
1002
}
  0
DIMENSION
  5
576
330
1E
100
AcDbEntity
  8
BEM
100
AcDbDimension
  2
*D11
 10
133.5
 20
225.5703038378015
 30
0.0
 11
112.5
 21
228.8203038378015
 31
0.0
 70
    32
  1
%%C<>
 71
     5
 42
42.00000000000005
  3
Standard
100
AcDbAlignedDimension
 13
91.49999999999996
 23
234.5942876934316
 33
0.0
 14
133.5
 24
234.5942876934316
 34
0.0
100
AcDbRotatedDimension
1001
ACAD
1000
DSTYLE
1002
{
1070
    41
1040
3.5
1070
    42
1040
1.0
1070
    43
1040
7.0
1070
    44
1040
1.0
1070
    73
1070
     0
1070
    74
1070
     0
1070
    77
1070
     1
1070
    78
1070
     8
1070
    79
1070
     2
1070
   140
1040
3.5
1070
   141
1040
1.5
1070
   146
1040
0.5142857142857144
1070
   147
1040
1.5
1070
   172
1070
     1
1070
   178
1070
     1
1070
   179
1070
     2
1070
   271
1070
     2
1070
   272
1070
     2
1070
   284
1070
     8
1070
   285
1070
     8
1070
   286
1070
     8
1002
}
  0
DIMENSION
  5
578
330
1E
100
AcDbEntity
  8
BEM
100
AcDbDimension
  2
*D12
 10
75.89134978310266
 20
204.0998413660239
 30
0.0
 11
72.64134978310263
 21
161.599841366024
 31
0.0
 70
    32
 71
     5
 42
85.00000000000001
  3
Standard
100
AcDbAlignedDimension
 13
86.61242064468147
 23
119.0998413660239
 33
0.0
 14
86.33550517620133
 24
204.0998413660239
 34
0.0
 50
90.0
100
AcDbRotatedDimension
1001
ACAD
1000
DSTYLE
1002
{
1070
    41
1040
3.5
1070
    42
1040
1.0
1070
    43
1040
7.0
1070
    44
1040
1.0
1070
    73
1070
     0
1070
    74
1070
     0
1070
    77
1070
     1
1070
    78
1070
     8
1070
    79
1070
     2
1070
   140
1040
3.5
1070
   141
1040
1.5
1070
   146
1040
0.5142857142857144
1070
   147
1040
1.5
1070
   172
1070
     1
1070
   178
1070
     1
1070
   179
1070
     2
1070
   271
1070
     2
1070
   272
1070
     2
1070
   284
1070
     8
1070
   285
1070
     8
1070
   286
1070
     8
1002
}
  0
LINE
  5
57B
330
1E
100
AcDbEntity
  8
STEMPEL
100
AcDbLine
 10
138.9999999999999
 20
124.5724815981597
 30
0.0
 11
138.3875793553185
 21
119.0998413660239
 31
0.0
  0
LINE
  5
57C
330
1E
100
AcDbEntity
  8
STEMPEL
100
AcDbLine
 10
86.0
 20
124.5724815981599
 30
0.0
 11
86.61242064468147
 21
119.0998413660239
 31
0.0
  0
LINE
  5
57D
330
1E
100
AcDbEntity
  8
HILF
100
AcDbLine
 10
137.5
 20
124.5724815981599
 30
0.0
 11
87.5
 21
124.5724815981599
 31
0.0
  0
LINE
  5
57E
330
1E
100
AcDbEntity
  8
STEMPEL
100
AcDbLine
 10
137.9999999999999
 20
211.0998413660239
 30
0.0
 11
86.99999999999997
 21
211.099841366024
 31
0.0
  0
LINE
  5
57F
330
1E
100
AcDbEntity
  8
HILF
100
AcDbLine
 10
137.4453177377529
 20
204.0998413660239
 30
0.0
 11
87.55468226224706
 21
204.0998413660239
 31
0.0
  0
LINE
  5
580
330
1E
100
AcDbEntity
  8
STEMPEL
100
AcDbLine
 10
138.9999999999999
 20
202.6784851287146
 30
0.0
 11
138.9999999999999
 21
124.5724815981597
 31
0.0
  0
LINE
  5
581
330
1E
100
AcDbEntity
  8
STEMPEL
100
AcDbLine
 10
85.99999999999997
 20
202.6784851287145
 30
0.0
 11
86.0
 21
124.5724815981599
 31
0.0
  0
LINE
  5
582
330
1E
100
AcDbEntity
  8
STEMPEL
100
AcDbLine
 10
138.3875793553185
 20
119.0998413660239
 30
0.0
 11
86.61242064468147
 21
119.0998413660239
 31
0.0
  0
ARC
  5
586
330
1E
100
AcDbEntity
  8
STEMPEL
100
AcDbCircle
 10
121.5
 20
262.5576610456154
 30
0.0
 40
16.5
100
AcDbArc
 50
0.0
 51
23.35929454464026
  0
LINE
  5
587
330
1E
100
AcDbEntity
  8
STEMPEL
100
AcDbLine
 10
137.9998448162653
 20
257.4668413660239
 30
0.0
 11
138.0
 21
257.4668413660239
 31
0.0
  0
ARC
  5
588
330
1E
100
AcDbEntity
  8
STEMPEL
100
AcDbCircle
 10
117.9999999999999
 20
257.4668413660239
 30
0.0
 40
19.99984481626531
100
AcDbArc
 50
341.8060294016151
 51
0.0
  0
LINE
  5
589
330
1E
100
AcDbEntity
  8
STEMPEL
100
AcDbLine
 10
138.0
 20
262.5576610456154
 30
0.0
 11
137.9999999999999
 21
257.4668413660239
 31
0.0
  0
LINE
  5
58A
330
1E
100
AcDbEntity
  8
STEMPEL
100
AcDbLine
 10
136.5
 20
248.0998413660239
 30
0.0
 11
136.5
 21
243.9216667465203
 31
0.0
  0
ARC
  5
58B
330
1E
100
AcDbEntity
  8
STEMPEL
100
AcDbCircle
 10
126.5
 20
243.9216667465203
 30
0.0
 40
10.0
100
AcDbArc
 50
324.3409123038619
 51
0.0
  0
ARC
  5
58C
330
1E
100
AcDbEntity
  8
STEMPEL
100
AcDbCircle
 10
139.5
 20
234.5942876934316
 30
0.0
 40
6.0
100
AcDbArc
 50
144.3409123038611
 51
180.0
  0
ARC
  5
58D
330
1E
100
AcDbEntity
  8
STEMPEL
100
AcDbCircle
 10
146.5
 20
248.0998413660239
 30
0.0
 40
10.0
100
AcDbArc
 50
161.8060294016151
 51
180.0
  0
LINE
  5
58E
330
1E
100
AcDbEntity
  8
STEMPEL
100
AcDbLine
 10
133.5
 20
234.5942876934316
 30
0.0
 11
133.5
 21
220.5162492310226
 31
0.0
  0
ARC
  5
58F
330
1E
100
AcDbEntity
  8
STEMPEL
100
AcDbCircle
 10
103.4999999999999
 20
262.5576610456154
 30
0.0
 40
16.5
100
AcDbArc
 50
156.6407054553596
 51
180.0
  0
LINE
  5
590
330
1E
100
AcDbEntity
  8
STEMPEL
100
AcDbLine
 10
87.00015518373467
 20
257.4668413660239
 30
0.0
 11
86.99999999999997
 21
257.4668413660239
 31
0.0
  0
ARC
  5
591
330
1E
100
AcDbEntity
  8
STEMPEL
100
AcDbCircle
 10
107.0
 20
257.4668413660239
 30
0.0
 40
19.99984481626531
100
AcDbArc
 50
180.0
 51
198.1939705983848
  0
LINE
  5
592
330
1E
100
AcDbEntity
  8
STEMPEL
100
AcDbLine
 10
86.99999999999997
 20
262.5576610456154
 30
0.0
 11
87.0
 21
257.4668413660239
 31
0.0
  0
LINE
  5
593
330
1E
100
AcDbEntity
  8
STEMPEL
100
AcDbLine
 10
88.49999999999997
 20
248.0998413660239
 30
0.0
 11
88.49999999999994
 21
243.9216667465203
 31
0.0
  0
ARC
  5
594
330
1E
100
AcDbEntity
  8
STEMPEL
100
AcDbCircle
 10
98.49999999999997
 20
243.9216667465203
 30
0.0
 40
10.0
100
AcDbArc
 50
180.0
 51
215.659087696138
  0
ARC
  5
595
330
1E
100
AcDbEntity
  8
STEMPEL
100
AcDbCircle
 10
85.49999999999991
 20
234.5942876934316
 30
0.0
 40
6.0
100
AcDbArc
 50
0.0
 51
35.6590876961389
  0
ARC
  5
596
330
1E
100
AcDbEntity
  8
STEMPEL
100
AcDbCircle
 10
78.49999999999997
 20
248.0998413660239
 30
0.0
 40
10.0
100
AcDbArc
 50
0.0
 51
18.19397059838486
  0
LINE
  5
597
330
1E
100
AcDbEntity
  8
STEMPEL
100
AcDbLine
 10
136.6476030003185
 20
269.0998413660239
 30
0.0
 11
88.3523969996815
 21
269.0998413660239
 31
0.0
  0
LINE
  5
598
330
1E
100
AcDbEntity
  8
STEMPEL
100
AcDbLine
 10
91.49999999999996
 20
234.5942876934316
 30
0.0
 11
91.50000000000002
 21
220.5162492310228
 31
0.0
  0
LINE
  5
599
330
1E
100
AcDbEntity
  8
MITTEL
100
AcDbLine
 10
112.5
 20
274.099841366024
 30
0.0
 11
112.5
 21
231.9896730631459
 31
0.0
  0
DIMENSION
  5
746
330
1E
100
AcDbEntity
  8
BEM
100
AcDbDimension
  2
*D13
 10
68.20961241400346
 20
119.0998413660239
 30
0.0
 11
64.95961241400344
 21
194.0998413660239
 31
0.0
 70
    32
 71
     5
 42
150.0
  3
Standard
100
AcDbAlignedDimension
 13
88.3523969996815
 23
269.0998413660239
 33
0.0
 14
86.61242064468147
 24
119.0998413660239
 34
0.0
 50
90.0
100
AcDbRotatedDimension
1001
ACAD
1000
DSTYLE
1002
{
1070
    41
1040
3.5
1070
    42
1040
1.0
1070
    43
1040
7.0
1070
    44
1040
1.0
1070
    73
1070
     0
1070
    74
1070
     0
1070
    77
1070
     1
1070
    78
1070
     8
1070
    79
1070
     2
1070
   140
1040
3.5
1070
   141
1040
1.5
1070
   146
1040
0.5142857142857144
1070
   147
1040
1.5
1070
   172
1070
     1
1070
   178
1070
     1
1070
   179
1070
     2
1070
   271
1070
     2
1070
   272
1070
     2
1070
   284
1070
     8
1070
   285
1070
     8
1070
   286
1070
     8
1002
}
  0
TEXT
  5
76D
330
1E
100
AcDbEntity
  8
TEXT
100
AcDbText
 10
112.5648195562657
 20
30.75167208792646
 30
0.0
 40
2.5
  1
mit verlängertem Spitzende
 41
0.8
  7
GREEKS
100
AcDbText
  0
LINE
  5
76E
330
1E
100
AcDbEntity
  8
HILF
100
AcDbLine
 10
89.89079653531087
 20
249.6809024942379
 30
0.0
 11
135.1092034646891
 21
249.6809024942379
 31
0.0
  0
LINE
  5
76F
330
1E
100
AcDbEntity
  8
HILF
100
AcDbLine
 10
90.5706242364231
 20
240.8598045680414
 30
0.0
 11
134.4293757635769
 21
240.8598045680414
 31
0.0
  0
LINE
  5
770
330
1E
100
AcDbEntity
  8
HILF
100
AcDbLine
 10
92.7715197861244
 20
236.431405000519
 30
0.0
 11
132.2284802138755
 21
236.431405000519
 31
0.0
  0
ENDSEC
  0
SECTION
  2
OBJECTS
  0
DICTIONARY
  5
C
330
0
100
AcDbDictionary
281
     1
  3
ACAD_COLOR
350
DF
  3
ACAD_GROUP
350
D
  3
ACAD_LAYOUT
350
19
  3
ACAD_MATERIAL
350
DE
  3
ACAD_MLINESTYLE
350
16
  3
ACAD_PLOTSETTINGS
350
18
  3
ACAD_PLOTSTYLENAME
350
E
  3
AcDbVariableDictionary
350
EA
  0
DICTIONARY
  5
A0
330
1E
100
AcDbDictionary
280
     1
281
     1
  3
ACAD_LAYOUTSELFREF
360
D4
  0
DICTIONARY
  5
A2
330
1A
100
AcDbDictionary
280
     1
281
     1
  3
ACAD_LAYOUTSELFREF
360
D3
  0
DICTIONARY
  5
DF
102
{ACAD_REACTORS
330
C
102
}
330
C
100
AcDbDictionary
281
     1
  0
DICTIONARY
  5
D
102
{ACAD_REACTORS
330
C
102
}
330
C
100
AcDbDictionary
281
     1
  0
DICTIONARY
  5
19
102
{ACAD_REACTORS
330
C
102
}
330
C
100
AcDbDictionary
281
     1
  3
Layout1
350
1D
  3
Model
350
21
  0
DICTIONARY
  5
DE
102
{ACAD_REACTORS
330
C
102
}
330
C
100
AcDbDictionary
281
     1
  0
DICTIONARY
  5
16
102
{ACAD_REACTORS
330
C
102
}
330
C
100
AcDbDictionary
281
     1
  3
Standard
350
17
  0
DICTIONARY
  5
18
102
{ACAD_REACTORS
330
C
102
}
330
C
100
AcDbDictionary
281
     1
  0
ACDBDICTIONARYWDFLT
  5
E
102
{ACAD_REACTORS
330
C
102
}
330
C
100
AcDbDictionary
281
     1
  3
Normal
350
F
100
AcDbDictionaryWithDefault
340
F
  0
DICTIONARY
  5
EA
102
{ACAD_REACTORS
330
C
102
}
330
C
100
AcDbDictionary
281
     1
  3
DIMASSOC
350
EB
  3
PROJECTNAME
350
EC
  0
XRECORD
  5
D4
102
{ACAD_REACTORS
330
A0
102
}
330
A0
100
AcDbXrecord
280
     1
340
1E
  0
XRECORD
  5
D3
102
{ACAD_REACTORS
330
A2
102
}
330
A2
100
AcDbXrecord
280
     1
340
1A
  0
LAYOUT
  5
1D
102
{ACAD_REACTORS
330
19
102
}
330
19
100
AcDbPlotSettings
  1

  2
\\NT_WORK01\HP LaserJet 5000 PCL 6
  4

  6

 40
0.0
 41
0.0
 42
0.0
 43
0.0
 44
0.0
 45
0.0
 46
0.0
 47
0.0
 48
0.0
 49
0.0
140
0.0
141
0.0
142
1.0
143
1.0
 70
   688
 72
     0
 73
     0
 74
     5
  7

 75
    16
147
1.0
 76
     0
 77
     2
 78
   300
148
0.0
149
0.0
100
AcDbLayout
  1
Layout1
 70
     0
 71
     1
 10
0.0
 20
0.0
 11
12.0
 21
9.0
 12
0.0
 22
0.0
 32
0.0
 14
1.000000000000000E+20
 24
1.000000000000000E+20
 34
1.000000000000000E+20
 15
-1.000000000000000E+20
 25
-1.000000000000000E+20
 35
-1.000000000000000E+20
146
0.0
 13
0.0
 23
0.0
 33
0.0
 16
1.0
 26
0.0
 36
0.0
 17
0.0
 27
1.0
 37
0.0
 76
     0
330
1A
  0
LAYOUT
  5
21
102
{ACAD_REACTORS
330
19
102
}
330
19
100
AcDbPlotSettings
  1

  2
none_device
  4
Letter_(8.50_x_11.00_Inches)
  6

 40
6.349999904632568
 41
6.349999904632568
 42
6.350006103515625
 43
6.350006103515625
 44
215.8999938964844
 45
279.3999938964844
 46
0.0
 47
0.0
 48
0.0
 49
0.0
140
0.0
141
0.0
142
1.0
143
1.0
 70
 11952
 72
     0
 73
     1
 74
     0
  7

 75
     0
147
1.0
 76
     0
 77
     2
 78
   300
148
-105.0762303518693
149
47.15459833166066
100
AcDbLayout
  1
Model
 70
     1
 71
     0
 10
0.0
 20
0.0
 11
12.0
 21
9.0
 12
0.0
 22
0.0
 32
0.0
 14
0.0
 24
0.0
 34
0.0
 15
0.0
 25
0.0
 35
0.0
146
0.0
 13
0.0
 23
0.0
 33
0.0
 16
1.0
 26
0.0
 36
0.0
 17
0.0
 27
1.0
 37
0.0
 76
     0
330
1E
  0
MLINESTYLE
  5
17
102
{ACAD_REACTORS
330
16
102
}
330
16
100
AcDbMlineStyle
  2
STANDARD
 70
     0
  3

 62
   256
 51
90.0
 52
90.0
 71
     2
 49
0.5
 62
   256
  6
BYLAYER
 49
-0.5
 62
   256
  6
BYLAYER
  0
ACDBPLACEHOLDER
  5
F
102
{ACAD_REACTORS
330
E
102
}
330
E
  0
DICTIONARYVAR
  5
EB
102
{ACAD_REACTORS
330
EA
102
}
330
EA
100
DictionaryVariables
280
     0
  1
1
  0
DICTIONARYVAR
  5
EC
102
{ACAD_REACTORS
330
EA
102
}
330
EA
100
DictionaryVariables
280
     0
  1

  0
ENDSEC
  0
EOF
