  0
SECTION
  2
HEADER
  9
$ACADVER
  1
AC1018
  9
$ACADMAINTVER
 70
     2
  9
$DWGCODEPAGE
  3
ANSI_1252
  9
$INSBASE
 10
0.0
 20
0.0
 30
0.0
  9
$EXTMIN
 10
-0.0031925613848216
 20
-0.0045151939584684
 30
-0.0000000000000129
  9
$EXTMAX
 10
420.0096150910382
 20
594.0135984858973
 30
0.0000000000000023
  9
$LIMMIN
 10
0.0
 20
0.0
  9
$LIMMAX
 10
419.9999999999999
 20
594.0
  9
$ORTHOMODE
 70
     1
  9
$REGENMODE
 70
     1
  9
$FILLMODE
 70
     1
  9
$QTEXTMODE
 70
     0
  9
$MIRRTEXT
 70
     1
  9
$LTSCALE
 40
20.0
  9
$ATTMODE
 70
     1
  9
$TEXTSIZE
 40
3.5
  9
$TRACEWID
 40
0.5
  9
$TEXTSTYLE
  7
STANDARD
  9
$CLAYER
  8
VOLL
  9
$CELTYPE
  6
ByLayer
  9
$CECOLOR
 62
   256
  9
$CELTSCALE
 40
1.0
  9
$DISPSILH
 70
     0
  9
$DIMSCALE
 40
2.0
  9
$DIMASZ
 40
3.5
  9
$DIMEXO
 40
1.0
  9
$DIMDLI
 40
7.0
  9
$DIMRND
 40
0.0
  9
$DIMDLE
 40
0.0
  9
$DIMEXE
 40
1.0
  9
$DIMTP
 40
0.0
  9
$DIMTM
 40
0.0
  9
$DIMTXT
 40
3.5
  9
$DIMCEN
 40
1.5
  9
$DIMTSZ
 40
0.0
  9
$DIMTOL
 70
     0
  9
$DIMLIM
 70
     0
  9
$DIMTIH
 70
     0
  9
$DIMTOH
 70
     0
  9
$DIMSE1
 70
     0
  9
$DIMSE2
 70
     0
  9
$DIMTAD
 70
     1
  9
$DIMZIN
 70
     8
  9
$DIMBLK
  1

  9
$DIMASO
 70
     1
  9
$DIMSHO
 70
     0
  9
$DIMPOST
  1

  9
$DIMAPOST
  1

  9
$DIMALT
 70
     0
  9
$DIMALTD
 70
     2
  9
$DIMALTF
 40
25.4
  9
$DIMLFAC
 40
1.0
  9
$DIMTOFL
 70
     1
  9
$DIMTVP
 40
0.0
  9
$DIMTIX
 70
     0
  9
$DIMSOXD
 70
     0
  9
$DIMSAH
 70
     0
  9
$DIMBLK1
  1

  9
$DIMBLK2
  1

  9
$DIMSTYLE
  2
Standard
  9
$DIMCLRD
 70
     0
  9
$DIMCLRE
 70
     0
  9
$DIMCLRT
 70
     1
  9
$DIMTFAC
 40
0.5142857142857144
  9
$DIMGAP
 40
1.5
  9
$DIMJUST
 70
     0
  9
$DIMSD1
 70
     0
  9
$DIMSD2
 70
     0
  9
$DIMTOLJ
 70
     1
  9
$DIMTZIN
 70
     8
  9
$DIMALTZ
 70
     8
  9
$DIMALTTZ
 70
     8
  9
$DIMUPT
 70
     0
  9
$DIMDEC
 70
     2
  9
$DIMTDEC
 70
     2
  9
$DIMALTU
 70
     2
  9
$DIMALTTD
 70
     2
  9
$DIMTXSTY
  7
STANDARD
  9
$DIMAUNIT
 70
     0
  9
$DIMADEC
 70
     2
  9
$DIMALTRND
 40
0.0
  9
$DIMAZIN
 70
     2
  9
$DIMDSEP
 70
    46
  9
$DIMATFIT
 70
     3
  9
$DIMFRAC
 70
     0
  9
$DIMLDRBLK
  1

  9
$DIMLUNIT
 70
     2
  9
$DIMLWD
 70
    -2
  9
$DIMLWE
 70
    -2
  9
$DIMTMOVE
 70
     0
  9
$LUNITS
 70
     2
  9
$LUPREC
 70
     2
  9
$SKETCHINC
 40
1.0
  9
$FILLETRAD
 40
0.0
  9
$AUNITS
 70
     0
  9
$AUPREC
 70
     0
  9
$MENU
  1
ACAD
  9
$ELEVATION
 40
0.0
  9
$PELEVATION
 40
0.0
  9
$THICKNESS
 40
0.0
  9
$LIMCHECK
 70
     0
  9
$CHAMFERA
 40
0.0
  9
$CHAMFERB
 40
0.0
  9
$CHAMFERC
 40
0.0
  9
$CHAMFERD
 40
0.0
  9
$SKPOLY
 70
     0
  9
$TDCREATE
 40
2455397.864709028
  9
$TDUCREATE
 40
2455397.781375695
  9
$TDUPDATE
 40
2455656.356854294
  9
$TDUUPDATE
 40
2455656.273520961
  9
$TDINDWG
 40
0.0816928935
  9
$TDUSRTIMER
 40
0.0816928935
  9
$USRTIMER
 70
     1
  9
$ANGBASE
 50
0.0
  9
$ANGDIR
 70
     0
  9
$PDMODE
 70
     0
  9
$PDSIZE
 40
0.0
  9
$PLINEWID
 40
0.0
  9
$SPLFRAME
 70
     0
  9
$SPLINETYPE
 70
     6
  9
$SPLINESEGS
 70
     8
  9
$HANDSEED
  5
2334
  9
$SURFTAB1
 70
     6
  9
$SURFTAB2
 70
     6
  9
$SURFTYPE
 70
     6
  9
$SURFU
 70
     6
  9
$SURFV
 70
     6
  9
$UCSBASE
  2

  9
$UCSNAME
  2

  9
$UCSORG
 10
0.0
 20
0.0
 30
0.0
  9
$UCSXDIR
 10
1.0
 20
0.0
 30
0.0
  9
$UCSYDIR
 10
0.0
 20
1.0
 30
0.0
  9
$UCSORTHOREF
  2

  9
$UCSORTHOVIEW
 70
     0
  9
$UCSORGTOP
 10
0.0
 20
0.0
 30
0.0
  9
$UCSORGBOTTOM
 10
0.0
 20
0.0
 30
0.0
  9
$UCSORGLEFT
 10
0.0
 20
0.0
 30
0.0
  9
$UCSORGRIGHT
 10
0.0
 20
0.0
 30
0.0
  9
$UCSORGFRONT
 10
0.0
 20
0.0
 30
0.0
  9
$UCSORGBACK
 10
0.0
 20
0.0
 30
0.0
  9
$PUCSBASE
  2

  9
$PUCSNAME
  2

  9
$PUCSORG
 10
0.0
 20
0.0
 30
0.0
  9
$PUCSXDIR
 10
1.0
 20
0.0
 30
0.0
  9
$PUCSYDIR
 10
0.0
 20
1.0
 30
0.0
  9
$PUCSORTHOREF
  2

  9
$PUCSORTHOVIEW
 70
     0
  9
$PUCSORGTOP
 10
0.0
 20
0.0
 30
0.0
  9
$PUCSORGBOTTOM
 10
0.0
 20
0.0
 30
0.0
  9
$PUCSORGLEFT
 10
0.0
 20
0.0
 30
0.0
  9
$PUCSORGRIGHT
 10
0.0
 20
0.0
 30
0.0
  9
$PUCSORGFRONT
 10
0.0
 20
0.0
 30
0.0
  9
$PUCSORGBACK
 10
0.0
 20
0.0
 30
0.0
  9
$USERI1
 70
     0
  9
$USERI2
 70
     0
  9
$USERI3
 70
     0
  9
$USERI4
 70
     0
  9
$USERI5
 70
     0
  9
$USERR1
 40
0.0
  9
$USERR2
 40
0.0
  9
$USERR3
 40
0.0
  9
$USERR4
 40
0.0
  9
$USERR5
 40
0.0
  9
$WORLDVIEW
 70
     1
  9
$SHADEDGE
 70
     3
  9
$SHADEDIF
 70
    70
  9
$TILEMODE
 70
     1
  9
$MAXACTVP
 70
    16
  9
$PINSBASE
 10
0.0
 20
0.0
 30
0.0
  9
$PLIMCHECK
 70
     0
  9
$PEXTMIN
 10
1.000000000000000E+20
 20
1.000000000000000E+20
 30
1.000000000000000E+20
  9
$PEXTMAX
 10
-1.000000000000000E+20
 20
-1.000000000000000E+20
 30
-1.000000000000000E+20
  9
$PLIMMIN
 10
0.0
 20
0.0
  9
$PLIMMAX
 10
12.0
 20
9.0
  9
$UNITMODE
 70
     0
  9
$VISRETAIN
 70
     0
  9
$PLINEGEN
 70
     0
  9
$PSLTSCALE
 70
     0
  9
$TREEDEPTH
 70
  3020
  9
$CMLSTYLE
  2
Standard
  9
$CMLJUST
 70
     0
  9
$CMLSCALE
 40
1.0
  9
$PROXYGRAPHICS
 70
     1
  9
$MEASUREMENT
 70
     0
  9
$CELWEIGHT
370
    -1
  9
$ENDCAPS
280
     0
  9
$JOINSTYLE
280
     0
  9
$LWDISPLAY
290
     0
  9
$INSUNITS
 70
     0
  9
$HYPERLINKBASE
  1

  9
$STYLESHEET
  1
monochrome 1.ctb
  9
$XEDIT
290
     1
  9
$CEPSNTYPE
380
     0
  9
$PSTYLEMODE
290
     1
  9
$FINGERPRINTGUID
  2
{D68B0D02-A558-11D7-B632-000102183313}
  9
$VERSIONGUID
  2
{03C5FD17-2EAF-4797-AB70-77E788CB25F7}
  9
$EXTNAMES
290
     1
  9
$PSVPSCALE
 40
0.0
  9
$OLESTARTUP
290
     0
  9
$SORTENTS
280
   127
  9
$INDEXCTL
280
     0
  9
$HIDETEXT
280
     0
  9
$XCLIPFRAME
290
     0
  9
$HALOGAP
280
     0
  9
$OBSCOLOR
 70
   257
  9
$OBSLTYPE
280
     0
  9
$INTERSECTIONDISPLAY
280
     0
  9
$INTERSECTIONCOLOR
 70
   257
  9
$DIMASSOC
280
     1
  9
$PROJECTNAME
  1

  0
ENDSEC
  0
SECTION
  2
CLASSES
  0
CLASS
  1
ACDBDICTIONARYWDFLT
  2
AcDbDictionaryWithDefault
  3
ObjectDBX Classes
 90
        0
 91
        1
280
     0
281
     0
  0
CLASS
  1
DICTIONARYVAR
  2
AcDbDictionaryVar
  3
ObjectDBX Classes
 90
        0
 91
        2
280
     0
281
     0
  0
ENDSEC
  0
SECTION
  2
TABLES
  0
TABLE
  2
VPORT
  5
8
330
0
100
AcDbSymbolTable
 70
     3
  0
VPORT
  5
2333
330
8
100
AcDbSymbolTableRecord
100
AcDbViewportTableRecord
  2
*Active
 70
     0
 10
0.0
 20
0.0
 11
1.0
 21
1.0
 12
210.0
 22
297.0
 13
0.0
 23
0.0
 14
1.0
 24
1.0
 15
10.0
 25
10.0
 16
0.0
 26
0.0
 36
1.0
 17
0.0
 27
0.0
 37
0.0
 40
594.0
 41
1.334231805929919
 42
50.0
 43
0.0
 44
0.0
 50
0.0
 51
0.0
 71
     0
 72
  1500
 73
     1
 74
     0
 75
     0
 76
     0
 77
     0
 78
     0
281
     0
 65
     1
110
0.0
120
0.0
130
0.0
111
1.0
121
0.0
131
0.0
112
0.0
122
1.0
132
0.0
 79
     0
146
0.0
  0
ENDTAB
  0
TABLE
  2
LTYPE
  5
5
330
0
100
AcDbSymbolTable
 70
     3
  0
LTYPE
  5
13
330
5
100
AcDbSymbolTableRecord
100
AcDbLinetypeTableRecord
  2
ByBlock
 70
     0
  3

 72
    65
 73
     0
 40
0.0
  0
LTYPE
  5
14
330
5
100
AcDbSymbolTableRecord
100
AcDbLinetypeTableRecord
  2
ByLayer
 70
     0
  3

 72
    65
 73
     0
 40
0.0
  0
LTYPE
  5
15
330
5
100
AcDbSymbolTableRecord
100
AcDbLinetypeTableRecord
  2
Continuous
 70
     0
  3
Solid line
 72
    65
 73
     0
 40
0.0
  0
LTYPE
  5
25
330
5
100
AcDbSymbolTableRecord
100
AcDbLinetypeTableRecord
  2
STRICHPUNKT
 70
     0
  3
__ . __ . __ . __ . __ . __ . __ . __ . __ . __
 72
    65
 73
     4
 40
1.0
 49
0.5
 74
     0
 49
-0.25
 74
     0
 49
0.0
 74
     0
 49
-0.25
 74
     0
  0
LTYPE
  5
32
330
5
100
AcDbSymbolTableRecord
100
AcDbLinetypeTableRecord
  2
AUSGEZOGEN
 70
     0
  3
Ausgezogene Linie
 72
    65
 73
     0
 40
0.0
  0
ENDTAB
  0
TABLE
  2
LAYER
  5
2
330
0
100
AcDbSymbolTable
 70
     9
  0
LAYER
  5
10
330
2
100
AcDbSymbolTableRecord
100
AcDbLayerTableRecord
  2
0
 70
     0
 62
     7
  6
Continuous
370
    -3
390
F
  0
LAYER
  5
2A
330
2
100
AcDbSymbolTableRecord
100
AcDbLayerTableRecord
  2
VOLL
 70
     0
 62
     1
  6
Continuous
370
    -3
390
F
  0
LAYER
  5
2B
330
2
100
AcDbSymbolTableRecord
100
AcDbLayerTableRecord
  2
HILF
 70
     0
 62
     2
  6
Continuous
370
    -3
390
F
  0
LAYER
  5
2C
330
2
100
AcDbSymbolTableRecord
100
AcDbLayerTableRecord
  2
MITTEL
 70
     0
 62
     2
  6
STRICHPUNKT
370
    -3
390
F
  0
LAYER
  5
2F
330
2
100
AcDbSymbolTableRecord
100
AcDbLayerTableRecord
  2
BEM
 70
     0
 62
     7
  6
Continuous
370
    -3
390
F
  0
LAYER
  5
30
330
2
100
AcDbSymbolTableRecord
100
AcDbLayerTableRecord
  2
STEMPEL
 70
     0
 62
     3
  6
Continuous
370
    -3
390
F
  0
LAYER
  5
31
330
2
100
AcDbSymbolTableRecord
100
AcDbLayerTableRecord
  2
TEXT
 70
     0
 62
     7
  6
Continuous
370
    -3
390
F
  0
LAYER
  5
195
330
2
100
AcDbSymbolTableRecord
100
AcDbLayerTableRecord
  2
DEFPOINTS
 70
     0
 62
     7
  6
AUSGEZOGEN
290
     0
370
    -3
390
F
  0
ENDTAB
  0
TABLE
  2
STYLE
  5
3
330
0
100
AcDbSymbolTable
 70
     2
  0
STYLE
  5
11
330
3
100
AcDbSymbolTableRecord
100
AcDbTextStyleTableRecord
  2
STANDARD
 70
     0
 40
0.0
 41
0.8
 50
0.0
 71
     0
 42
3.5
  3
simplex.shx
  4

  0
STYLE
  5
24
330
3
100
AcDbSymbolTableRecord
100
AcDbTextStyleTableRecord
  2
GREEKS
 70
     0
 40
0.0
 41
0.8
 50
0.0
 71
     0
 42
2.5
  3
SIMPLEX.shx
  4

  0
ENDTAB
  0
TABLE
  2
VIEW
  5
6
330
0
100
AcDbSymbolTable
 70
     0
  0
ENDTAB
  0
TABLE
  2
UCS
  5
7
330
0
100
AcDbSymbolTable
 70
     0
  0
ENDTAB
  0
TABLE
  2
APPID
  5
9
330
0
100
AcDbSymbolTable
 70
     1
  0
APPID
  5
12
330
9
100
AcDbSymbolTableRecord
100
AcDbRegAppTableRecord
  2
ACAD
 70
     0
  0
ENDTAB
  0
TABLE
  2
DIMSTYLE
  5
A
330
0
100
AcDbSymbolTable
 70
     1
100
AcDbDimStyleTable
 71
     1
340
9D
  0
DIMSTYLE
105
9D
102
{ACAD_REACTORS
330
2193
330
2191
330
218E
330
22DB
102
}
330
A
100
AcDbSymbolTableRecord
100
AcDbDimStyleTableRecord
  2
Standard
 70
     0
340
11
  0
ENDTAB
  0
TABLE
  2
BLOCK_RECORD
  5
1
330
0
100
AcDbSymbolTable
 70
     7
  0
BLOCK_RECORD
  5
1E
102
{ACAD_XDICTIONARY
360
A0
102
}
330
1
100
AcDbSymbolTableRecord
100
AcDbBlockTableRecord
  2
*Model_Space
340
21
  0
BLOCK_RECORD
  5
1A
102
{ACAD_XDICTIONARY
360
A2
102
}
330
1
100
AcDbSymbolTableRecord
100
AcDbBlockTableRecord
  2
*Paper_Space
340
1D
  0
BLOCK_RECORD
  5
22
330
1
100
AcDbSymbolTableRecord
100
AcDbBlockTableRecord
  2
LOGO
340
0
102
{BLKREFS
331
9B
102
}
  0
BLOCK_RECORD
  5
21C8
330
1
100
AcDbSymbolTableRecord
100
AcDbBlockTableRecord
  2
*D3
340
0
  0
BLOCK_RECORD
  5
21EF
330
1
100
AcDbSymbolTableRecord
100
AcDbBlockTableRecord
  2
*D4
340
0
  0
BLOCK_RECORD
  5
2209
330
1
100
AcDbSymbolTableRecord
100
AcDbBlockTableRecord
  2
*D5
340
0
  0
BLOCK_RECORD
  5
22DC
330
1
100
AcDbSymbolTableRecord
100
AcDbBlockTableRecord
  2
*D6
340
0
  0
ENDTAB
  0
ENDSEC
  0
SECTION
  2
BLOCKS
  0
BLOCK
  5
35
330
1E
100
AcDbEntity
  8
0
100
AcDbBlockBegin
  2
*Model_Space
 70
     0
 10
0.0
 20
0.0
 30
0.0
  3
*Model_Space
  1

  0
ENDBLK
  5
36
330
1E
100
AcDbEntity
  8
0
100
AcDbBlockEnd
  0
BLOCK
  5
33
330
1A
100
AcDbEntity
 67
     1
  8
0
100
AcDbBlockBegin
  2
*Paper_Space
 70
     0
 10
0.0
 20
0.0
 30
0.0
  3
*Paper_Space
  1

  0
ENDBLK
  5
34
330
1A
100
AcDbEntity
 67
     1
  8
0
100
AcDbBlockEnd
  0
BLOCK
  5
37
330
22
100
AcDbEntity
  8
0
100
AcDbBlockBegin
  2
LOGO
 70
     0
 10
0.0
 20
0.0
 30
0.0
  3
LOGO
  1

  0
ARC
  5
38
330
22
100
AcDbEntity
  8
0
100
AcDbCircle
 10
11.59973089678112
 20
-9.271599258481501
 30
0.0
 40
4.5
100
AcDbArc
 50
270.0
 51
231.0575587310159
  0
LINE
  5
39
330
22
100
AcDbEntity
  8
0
100
AcDbLine
 10
3.599730896781125
 20
-4.771599258481529
 30
0.0
 11
3.599730896781153
 21
-11.77159925848133
 31
0.0
  0
LINE
  5
3A
330
22
100
AcDbEntity
  8
0
100
AcDbLine
 10
2.599730896781125
 20
-4.771599258481529
 30
0.0
 11
2.599730896781153
 21
-11.77159925848133
 31
0.0
  0
CIRCLE
  5
3B
330
22
100
AcDbEntity
  8
0
100
AcDbCircle
 10
11.59973089678112
 20
-9.271599258481501
 30
0.0
 40
3.5
  0
ARC
  5
3C
330
22
100
AcDbEntity
  8
0
100
AcDbCircle
 10
31.59973089678115
 20
-9.271599258481472
 30
0.0
 40
4.5
100
AcDbArc
 50
270.0
 51
231.0575587310182
  0
LINE
  5
3D
330
22
100
AcDbEntity
  8
0
100
AcDbLine
 10
17.59973089678112
 20
-4.771599258481472
 30
0.0
 11
17.59973089678115
 21
-13.77159925848147
 31
0.0
  0
ARC
  5
3E
330
22
100
AcDbEntity
  8
0
100
AcDbCircle
 10
22.59973089678116
 20
-7.271599258481472
 30
0.0
 40
2.5
100
AcDbArc
 50
293.1161887722295
 51
90.0
  0
CIRCLE
  5
3F
330
22
100
AcDbEntity
  8
0
100
AcDbCircle
 10
31.59973089678115
 20
-9.271599258481472
 30
0.0
 40
3.5
  0
ARC
  5
40
330
22
100
AcDbEntity
  8
0
100
AcDbCircle
 10
4.599730896781153
 20
-11.77159925848133
 30
0.0
 40
1.0
100
AcDbArc
 50
180.0
 51
270.0
  0
ARC
  5
41
330
22
100
AcDbEntity
  8
0
100
AcDbCircle
 10
4.599730896781153
 20
-11.77159925848133
 30
0.0
 40
2.0
100
AcDbArc
 50
179.9999999999992
 51
270.0
  0
LINE
  5
42
330
22
100
AcDbEntity
  8
0
100
AcDbLine
 10
11.59973089678115
 20
-13.77159925848144
 30
0.0
 11
4.599730896781153
 21
-13.77159925848147
 31
0.0
  0
LINE
  5
43
330
22
100
AcDbEntity
  8
0
100
AcDbLine
 10
8.771303772034769
 20
-12.77159925848136
 30
0.0
 11
4.599730896781153
 21
-12.77159925848133
 31
0.0
  0
LINE
  5
44
330
22
100
AcDbEntity
  8
0
100
AcDbLine
 10
31.59973089678115
 20
-13.77159925848147
 30
0.0
 11
23.6715276665056
 21
-13.77159925848144
 31
0.0
  0
LINE
  5
45
330
22
100
AcDbEntity
  8
0
100
AcDbLine
 10
23.56565672307022
 20
-9.51278021337896
 30
0.0
 11
24.4388546544846
 21
-12.77159925848144
 31
0.0
  0
LINE
  5
46
330
22
100
AcDbEntity
  8
0
100
AcDbLine
 10
22.59973089678116
 20
-9.771599258481472
 30
0.0
 11
18.59973089678112
 21
-9.771599258481472
 31
0.0
  0
LINE
  5
47
330
22
100
AcDbEntity
  8
0
100
AcDbLine
 10
18.59973089678115
 20
-13.77159925848144
 30
0.0
 11
17.59973089678115
 21
-13.77159925848144
 31
0.0
  0
LINE
  5
48
330
22
100
AcDbEntity
  8
0
100
AcDbLine
 10
18.59973089678115
 20
-9.771599258481472
 30
0.0
 11
18.59973089678115
 21
-13.77159925848144
 31
0.0
  0
LINE
  5
49
330
22
100
AcDbEntity
  8
0
100
AcDbLine
 10
22.59973089678116
 20
-9.771599258481472
 30
0.0
 11
23.67152766650562
 21
-13.77159925848147
 31
0.0
  0
ARC
  5
4A
330
22
100
AcDbEntity
  8
0
100
AcDbCircle
 10
22.59973089678116
 20
-7.271599258481472
 30
0.0
 40
2.5
100
AcDbArc
 50
270.0
 51
270.0000000000007
  0
LINE
  5
4B
330
22
100
AcDbEntity
  8
0
100
AcDbLine
 10
28.77130377203494
 20
-12.77159925848147
 30
0.0
 11
24.43885465448463
 21
-12.77159925848144
 31
0.0
  0
LINE
  5
4C
330
22
100
AcDbEntity
  8
0
100
AcDbLine
 10
3.599730896781125
 20
-4.771599258481472
 30
0.0
 11
2.599730896781125
 21
-4.771599258481472
 31
0.0
  0
LINE
  5
4D
330
22
100
AcDbEntity
  8
0
100
AcDbLine
 10
22.59973089678116
 20
-8.771599258481472
 30
0.0
 11
18.59973089678115
 21
-8.771599258481472
 31
0.0
  0
LINE
  5
4E
330
22
100
AcDbEntity
  8
0
100
AcDbLine
 10
22.59973089678116
 20
-5.771599258481472
 30
0.0
 11
18.59973089678115
 21
-5.771599258481472
 31
0.0
  0
LINE
  5
4F
330
22
100
AcDbEntity
  8
0
100
AcDbLine
 10
22.59973089678116
 20
-4.771599258481472
 30
0.0
 11
17.59973089678115
 21
-4.771599258481472
 31
0.0
  0
LINE
  5
50
330
22
100
AcDbEntity
  8
0
100
AcDbLine
 10
18.59973089678115
 20
-5.771599258481472
 30
0.0
 11
18.59973089678115
 21
-8.771599258481472
 31
0.0
  0
ARC
  5
51
330
22
100
AcDbEntity
  8
0
100
AcDbCircle
 10
22.59973089678116
 20
-7.271599258481472
 30
0.0
 40
1.5
100
AcDbArc
 50
270.0
 51
90.0
  0
ENDBLK
  5
52
330
22
100
AcDbEntity
  8
0
100
AcDbBlockEnd
  0
BLOCK
  5
21D3
330
21C8
100
AcDbEntity
  8
0
100
AcDbBlockBegin
  2
*D3
 70
     1
 10
0.0
 20
0.0
 30
0.0
  3
*D3
  1

  0
LINE
  5
22C9
330
21C8
100
AcDbEntity
  8
BEM
 62
     0
370
    -2
100
AcDbLine
 10
174.0
 20
288.0407206153689
 30
0.0
 11
174.0
 21
258.266797787938
 31
0.0
  0
LINE
  5
22CA
330
21C8
100
AcDbEntity
  8
BEM
 62
     0
370
    -2
100
AcDbLine
 10
275.9999999999999
 20
288.0407206153692
 30
0.0
 11
275.9999999999999
 21
258.266797787938
 31
0.0
  0
LINE
  5
22CB
330
21C8
100
AcDbEntity
  8
BEM
 62
     0
370
    -2
100
AcDbLine
 10
181.0
 20
260.266797787938
 30
0.0
 11
268.9999999999999
 21
260.266797787938
 31
0.0
  0
SOLID
  5
22CC
330
21C8
100
AcDbEntity
  8
BEM
 62
     0
100
AcDbTrace
 10
181.0
 20
261.4334644546047
 30
0.0
 11
181.0
 21
259.1001311212713
 31
0.0
 12
174.0
 22
260.266797787938
 32
0.0
 13
174.0
 23
260.266797787938
 33
0.0
  0
SOLID
  5
22CD
330
21C8
100
AcDbEntity
  8
BEM
 62
     0
100
AcDbTrace
 10
268.9999999999999
 20
261.4334644546047
 30
0.0
 11
268.9999999999999
 21
259.1001311212713
 31
0.0
 12
275.9999999999999
 22
260.266797787938
 32
0.0
 13
275.9999999999999
 23
260.266797787938
 33
0.0
  0
MTEXT
  5
22CE
330
21C8
100
AcDbEntity
  8
BEM
 62
     1
100
AcDbMText
 10
225.0
 20
266.766797787938
 30
0.0
 40
7.0
 41
0.0
 71
     5
 72
     1
  1
\A1;%%c102
 73
     1
 44
1.0
  0
POINT
  5
22CF
330
21C8
100
AcDbEntity
  8
DEFPOINTS
 62
     0
100
AcDbPoint
 10
174.0
 20
290.0407206153689
 30
0.0
  0
POINT
  5
22D0
330
21C8
100
AcDbEntity
  8
DEFPOINTS
 62
     0
100
AcDbPoint
 10
275.9999999999999
 20
290.0407206153692
 30
0.0
  0
POINT
  5
22D1
330
21C8
100
AcDbEntity
  8
DEFPOINTS
 62
     0
100
AcDbPoint
 10
275.9999999999999
 20
260.266797787938
 30
0.0
  0
ENDBLK
  5
21D4
330
21C8
100
AcDbEntity
  8
0
100
AcDbBlockEnd
  0
BLOCK
  5
21FA
330
21EF
100
AcDbEntity
  8
0
100
AcDbBlockBegin
  2
*D4
 70
     1
 10
0.0
 20
0.0
 30
0.0
  3
*D4
  1

  0
LINE
  5
22AE
330
21EF
100
AcDbEntity
  8
BEM
 62
     0
370
    -2
100
AcDbLine
 10
180.5
 20
390.4122411592171
 30
0.0
 11
180.5
 21
359.6410160678342
 31
0.0
  0
LINE
  5
22AF
330
21EF
100
AcDbEntity
  8
BEM
 62
     0
370
    -2
100
AcDbLine
 10
269.5
 20
390.4122411592169
 30
0.0
 11
269.5
 21
359.6410160678342
 31
0.0
  0
LINE
  5
22B0
330
21EF
100
AcDbEntity
  8
BEM
 62
     0
370
    -2
100
AcDbLine
 10
187.5
 20
361.6410160678342
 30
0.0
 11
262.5
 21
361.6410160678342
 31
0.0
  0
SOLID
  5
22B1
330
21EF
100
AcDbEntity
  8
BEM
 62
     0
100
AcDbTrace
 10
187.5
 20
362.8076827345009
 30
0.0
 11
187.5
 21
360.4743494011675
 31
0.0
 12
180.5
 22
361.6410160678342
 32
0.0
 13
180.5
 23
361.6410160678342
 33
0.0
  0
SOLID
  5
22B2
330
21EF
100
AcDbEntity
  8
BEM
 62
     0
100
AcDbTrace
 10
262.5
 20
362.8076827345009
 30
0.0
 11
262.5
 21
360.4743494011675
 31
0.0
 12
269.5
 22
361.6410160678342
 32
0.0
 13
269.5
 23
361.6410160678342
 33
0.0
  0
MTEXT
  5
22B3
330
21EF
100
AcDbEntity
  8
BEM
 62
     1
100
AcDbMText
 10
225.0
 20
368.1410160678342
 30
0.0
 40
7.0
 41
0.0
 71
     5
 72
     1
  1
\A1;%%C89
 73
     1
 44
1.0
  0
POINT
  5
22B4
330
21EF
100
AcDbEntity
  8
DEFPOINTS
 62
     0
100
AcDbPoint
 10
180.5
 20
392.4122411592171
 30
0.0
  0
POINT
  5
22B5
330
21EF
100
AcDbEntity
  8
DEFPOINTS
 62
     0
100
AcDbPoint
 10
269.5
 20
392.4122411592169
 30
0.0
  0
POINT
  5
22B6
330
21EF
100
AcDbEntity
  8
DEFPOINTS
 62
     0
100
AcDbPoint
 10
269.5
 20
361.6410160678342
 30
0.0
  0
ENDBLK
  5
21FB
330
21EF
100
AcDbEntity
  8
0
100
AcDbBlockEnd
  0
BLOCK
  5
2214
330
2209
100
AcDbEntity
  8
0
100
AcDbBlockBegin
  2
*D5
 70
     1
 10
0.0
 20
0.0
 30
0.0
  3
*D5
  1

  0
LINE
  5
229C
330
2209
100
AcDbEntity
  8
BEM
 62
     0
370
    -2
100
AcDbLine
 10
172.8748866352592
 20
280.040720615369
 30
0.0
 11
153.1336990383371
 21
280.040720615369
 31
0.0
  0
LINE
  5
229D
330
2209
100
AcDbEntity
  8
BEM
 62
     0
370
    -2
100
AcDbLine
 10
172.5393825123713
 20
380.040720615369
 30
0.0
 11
153.1336990383372
 21
380.040720615369
 31
0.0
  0
LINE
  5
229E
330
2209
100
AcDbEntity
  8
BEM
 62
     0
370
    -2
100
AcDbLine
 10
155.1336990383371
 20
287.040720615369
 30
0.0
 11
155.1336990383371
 21
373.040720615369
 31
0.0
  0
SOLID
  5
229F
330
2209
100
AcDbEntity
  8
BEM
 62
     0
100
AcDbTrace
 10
153.9670323716705
 20
287.040720615369
 30
0.0
 11
156.3003657050038
 21
287.040720615369
 31
0.0
 12
155.1336990383371
 22
280.040720615369
 32
0.0
 13
155.1336990383371
 23
280.040720615369
 33
0.0
  0
SOLID
  5
22A0
330
2209
100
AcDbEntity
  8
BEM
 62
     0
100
AcDbTrace
 10
153.9670323716705
 20
373.040720615369
 30
0.0
 11
156.3003657050038
 21
373.040720615369
 31
0.0
 12
155.1336990383371
 22
380.040720615369
 32
0.0
 13
155.1336990383371
 23
380.040720615369
 33
0.0
  0
MTEXT
  5
22A1
330
2209
100
AcDbEntity
  8
BEM
 62
     1
100
AcDbMText
 10
148.6336990383371
 20
330.0407206153691
 30
0.0
 40
7.0
 41
0.0
 71
     5
 72
     1
  1
\A1;100
 11
0.0000000000000001
 21
1.0
 31
0.0
 73
     1
 44
1.0
  0
POINT
  5
22A2
330
2209
100
AcDbEntity
  8
DEFPOINTS
 62
     0
100
AcDbPoint
 10
174.8748866352592
 20
280.040720615369
 30
0.0
  0
POINT
  5
22A3
330
2209
100
AcDbEntity
  8
DEFPOINTS
 62
     0
100
AcDbPoint
 10
174.5393825123713
 20
380.040720615369
 30
0.0
  0
POINT
  5
22A4
330
2209
100
AcDbEntity
  8
DEFPOINTS
 62
     0
100
AcDbPoint
 10
155.1336990383371
 20
380.040720615369
 30
0.0
  0
ENDBLK
  5
2215
330
2209
100
AcDbEntity
  8
0
100
AcDbBlockEnd
  0
BLOCK
  5
22E6
330
22DC
100
AcDbEntity
  8
0
100
AcDbBlockBegin
  2
*D6
 70
     1
 10
0.0
 20
0.0
 30
0.0
  3
*D6
  1

  0
LINE
  5
22E8
330
22DC
100
AcDbEntity
  8
BEM
 62
     0
370
    -2
100
AcDbLine
 10
172.8748866352592
 20
280.040720615369
 30
0.0
 11
136.5508906798104
 21
280.040720615369
 31
0.0
  0
LINE
  5
22E9
330
22DC
100
AcDbEntity
  8
BEM
 62
     0
370
    -2
100
AcDbLine
 10
175.23459532966
 20
480.0407206153691
 30
0.0
 11
136.5508906798104
 21
480.0407206153691
 31
0.0
  0
LINE
  5
22EA
330
22DC
100
AcDbEntity
  8
BEM
 62
     0
370
    -2
100
AcDbLine
 10
138.5508906798104
 20
287.040720615369
 30
0.0
 11
138.5508906798104
 21
473.0407206153691
 31
0.0
  0
SOLID
  5
22EB
330
22DC
100
AcDbEntity
  8
BEM
 62
     0
100
AcDbTrace
 10
137.3842240131437
 20
287.040720615369
 30
0.0
 11
139.717557346477
 21
287.040720615369
 31
0.0
 12
138.5508906798104
 22
280.040720615369
 32
0.0
 13
138.5508906798104
 23
280.040720615369
 33
0.0
  0
SOLID
  5
22EC
330
22DC
100
AcDbEntity
  8
BEM
 62
     0
100
AcDbTrace
 10
137.3842240131438
 20
473.0407206153691
 30
0.0
 11
139.7175573464771
 21
473.0407206153691
 31
0.0
 12
138.5508906798104
 22
480.0407206153691
 32
0.0
 13
138.5508906798104
 23
480.0407206153691
 33
0.0
  0
MTEXT
  5
22ED
330
22DC
100
AcDbEntity
  8
BEM
 62
     1
100
AcDbMText
 10
132.0508906798103
 20
380.0407206153691
 30
0.0
 40
7.0
 41
0.0
 71
     5
 72
     1
  1
\A1;200
 11
0.0000000000000001
 21
1.0
 31
0.0
 73
     1
 44
1.0
  0
POINT
  5
22EE
330
22DC
100
AcDbEntity
  8
DEFPOINTS
 62
     0
100
AcDbPoint
 10
174.8748866352592
 20
280.040720615369
 30
0.0
  0
POINT
  5
22EF
330
22DC
100
AcDbEntity
  8
DEFPOINTS
 62
     0
100
AcDbPoint
 10
177.23459532966
 20
480.0407206153691
 30
0.0
  0
POINT
  5
22F0
330
22DC
100
AcDbEntity
  8
DEFPOINTS
 62
     0
100
AcDbPoint
 10
138.5508906798104
 20
480.0407206153691
 30
0.0
  0
ENDBLK
  5
22E7
330
22DC
100
AcDbEntity
  8
0
100
AcDbBlockEnd
  0
ENDSEC
  0
SECTION
  2
ENTITIES
  0
LINE
  5
57
330
1E
100
AcDbEntity
  8
STEMPEL
100
AcDbLine
 10
410.0
 20
110.0
 30
0.0
 11
39.99999999999997
 21
110.0
 31
0.0
  0
LINE
  5
58
330
1E
100
AcDbEntity
  8
STEMPEL
100
AcDbLine
 10
136.0000000000001
 20
109.9999999999999
 30
0.0
 11
136.0
 21
9.999999999999971
 31
0.0
  0
LINE
  5
59
330
1E
100
AcDbEntity
  8
STEMPEL
100
AcDbLine
 10
220.0
 20
110.0
 30
0.0
 11
220.0
 21
9.999999999999971
 31
0.0
  0
LINE
  5
5A
330
1E
100
AcDbEntity
  8
STEMPEL
100
AcDbLine
 10
332.0
 20
109.9999999999997
 30
0.0
 11
332.0
 21
40.0
 31
0.0
  0
LINE
  5
5B
330
1E
100
AcDbEntity
  8
STEMPEL
100
AcDbLine
 10
135.9999999999999
 20
29.99999999999997
 30
0.0
 11
39.99999999999997
 21
29.99999999999997
 31
0.0
  0
LINE
  5
5C
330
1E
100
AcDbEntity
  8
STEMPEL
100
AcDbLine
 10
410.0
 20
40.0
 30
0.0
 11
136.0000000000001
 21
39.99999999999997
 31
0.0
  0
LINE
  5
5D
330
1E
100
AcDbEntity
  8
STEMPEL
100
AcDbLine
 10
410.0
 20
80.0
 30
0.0
 11
136.0000000000001
 21
79.99999999999994
 31
0.0
  0
LINE
  5
5E
330
1E
100
AcDbEntity
  8
VOLL
100
AcDbLine
 10
54.00000000000009
 20
110.0
 30
0.0
 11
53.99999999999997
 21
9.999999999999971
 31
0.0
  0
LINE
  5
5F
330
1E
100
AcDbEntity
  8
VOLL
100
AcDbLine
 10
94.00000000000011
 20
109.9999999999999
 30
0.0
 11
94.0
 21
9.999999999999971
 31
0.0
  0
LINE
  5
60
330
1E
100
AcDbEntity
  8
VOLL
100
AcDbLine
 10
114.0000000000001
 20
109.9999999999999
 30
0.0
 11
114.0
 21
9.999999999999971
 31
0.0
  0
LINE
  5
61
330
1E
100
AcDbEntity
  8
VOLL
100
AcDbLine
 10
154.0000000000001
 20
79.99999999999994
 30
0.0
 11
154.0000000000001
 21
39.99999999999997
 31
0.0
  0
LINE
  5
62
330
1E
100
AcDbEntity
  8
VOLL
100
AcDbLine
 10
180.0000000000001
 20
109.9999999999998
 30
0.0
 11
180.0
 21
39.99999999999997
 31
0.0
  0
LINE
  5
63
330
1E
100
AcDbEntity
  8
HILF
100
AcDbLine
 10
40.00000000000008
 20
100.0
 30
0.0
 11
136.0000000000001
 21
100.0
 31
0.0
  0
LINE
  5
64
330
1E
100
AcDbEntity
  8
HILF
100
AcDbLine
 10
40.00000000000008
 20
90.00000000000005
 30
0.0
 11
136.0000000000001
 21
90.00000000000005
 31
0.0
  0
LINE
  5
65
330
1E
100
AcDbEntity
  8
HILF
100
AcDbLine
 10
40.00000000000008
 20
79.99999999999994
 30
0.0
 11
136.0000000000001
 21
79.99999999999994
 31
0.0
  0
LINE
  5
66
330
1E
100
AcDbEntity
  8
HILF
100
AcDbLine
 10
40.00000000000008
 20
69.99999999999994
 30
0.0
 11
136.0000000000001
 21
69.99999999999994
 31
0.0
  0
LINE
  5
67
330
1E
100
AcDbEntity
  8
HILF
100
AcDbLine
 10
40.00000000000008
 20
59.99999999999997
 30
0.0
 11
136.0000000000001
 21
59.99999999999997
 31
0.0
  0
LINE
  5
68
330
1E
100
AcDbEntity
  8
HILF
100
AcDbLine
 10
40.00000000000008
 20
49.99999999999997
 30
0.0
 11
136.0000000000001
 21
49.99999999999997
 31
0.0
  0
LINE
  5
69
330
1E
100
AcDbEntity
  8
HILF
100
AcDbLine
 10
40.00000000000008
 20
39.99999999999997
 30
0.0
 11
136.0000000000001
 21
39.99999999999997
 31
0.0
  0
LINE
  5
6A
330
1E
100
AcDbEntity
  8
HILF
100
AcDbLine
 10
136.0000000000001
 20
69.99999999999994
 30
0.0
 11
220.0
 21
69.99999999999994
 31
0.0
  0
LINE
  5
6B
330
1E
100
AcDbEntity
  8
HILF
100
AcDbLine
 10
136.0000000000001
 20
59.99999999999997
 30
0.0
 11
220.0
 21
59.99999999999997
 31
0.0
  0
LINE
  5
6C
330
1E
100
AcDbEntity
  8
HILF
100
AcDbLine
 10
136.0000000000001
 20
49.99999999999997
 30
0.0
 11
220.0
 21
49.99999999999997
 31
0.0
  0
LINE
  5
6D
330
1E
100
AcDbEntity
  8
HILF
100
AcDbLine
 10
224.7736801096948
 20
84.03758247564139
 30
0.0
 11
324.8353916556311
 21
84.03758247564139
 31
0.0
  0
LINE
  5
6E
330
1E
100
AcDbEntity
  8
HILF
100
AcDbLine
 10
224.7736801096948
 20
69.99999999999994
 30
0.0
 11
324.835391655631
 21
69.99999999999994
 31
0.0
  0
LINE
  5
6F
330
1E
100
AcDbEntity
  8
HILF
100
AcDbLine
 10
224.7736801096948
 20
59.99999999999997
 30
0.0
 11
324.835391655631
 21
59.99999999999997
 31
0.0
  0
LINE
  5
70
330
1E
100
AcDbEntity
  8
HILF
100
AcDbLine
 10
224.7736801096948
 20
49.99999999999997
 30
0.0
 11
324.835391655631
 21
49.99999999999997
 31
0.0
  0
LINE
  5
71
330
1E
100
AcDbEntity
  8
VOLL
100
AcDbLine
 10
332.0
 20
60.0
 30
0.0
 11
410.0
 21
60.0
 31
0.0
  0
LINE
  5
72
330
1E
100
AcDbEntity
  8
HILF
100
AcDbLine
 10
336.7238616296993
 20
83.77983636955827
 30
0.0
 11
404.8588839326728
 21
83.77983636955827
 31
0.0
  0
LINE
  5
73
330
1E
100
AcDbEntity
  8
HILF
100
AcDbLine
 10
223.4909699289885
 20
14.89398258028314
 30
0.0
 11
404.8588839326728
 21
14.89398258028314
 31
0.0
  0
TEXT
  5
74
330
1E
100
AcDbEntity
  8
TEXT
100
AcDbText
 10
63.86165979631819
 20
18.67381894984132
 30
0.0
 40
4.0
  1
Änderung
 41
0.8
  7
GREEKS
 72
     1
 11
74.60451693917534
 21
18.67381894984132
 31
0.0
100
AcDbText
  0
TEXT
  5
75
330
1E
100
AcDbEntity
  8
TEXT
100
AcDbText
 10
143.5163572150377
 20
102.4620895087088
 30
0.0
 40
5.0
  1
Maßstab
 41
0.8
  7
GREEKS
100
AcDbText
  0
TEXT
  5
76
330
1E
100
AcDbEntity
  8
TEXT
100
AcDbText
 10
184.2858954734051
 20
102.4184168434819
 30
0.0
 40
5.0
  1
Zul. Abw.
 41
0.8
  7
GREEKS
100
AcDbText
  0
TEXT
  5
77
330
1E
100
AcDbEntity
  8
TEXT
100
AcDbText
 10
224.877940380901
 20
102.5489328011779
 30
0.0
 40
5.0
  1
Benennung
 41
0.8
  7
GREEKS
100
AcDbText
  0
TEXT
  5
78
330
1E
100
AcDbEntity
  8
TEXT
100
AcDbText
 10
336.178754957634
 20
102.3132034537136
 30
0.0
 40
5.0
  1
Zeichnungs Nr.
 41
0.8
  7
GREEKS
100
AcDbText
  0
TEXT
  5
79
330
1E
100
AcDbEntity
  8
TEXT
100
AcDbText
 10
224.742238391136
 20
30.84560570193057
 30
0.0
 40
5.0
  1
Bauvorhaben
 41
0.8
  7
GREEKS
100
AcDbText
  0
TEXT
  5
7A
330
1E
100
AcDbEntity
  8
TEXT
100
AcDbText
 10
336.7238616296993
 20
73.1811823709997
 30
0.0
 40
5.0
  1
Ersatz für:
 41
0.8
  7
GREEKS
100
AcDbText
  0
TEXT
  5
7B
330
1E
100
AcDbEntity
  8
TEXT
100
AcDbText
 10
48.26641107045756
 20
13.65465846027192
 30
0.0
 40
4.0
  1
Index
 50
90.0
 41
0.8
  7
GREEKS
100
AcDbText
  0
TEXT
  5
7C
330
1E
100
AcDbEntity
  8
TEXT
100
AcDbText
 10
100.0934676075481
 20
18.6715626933981
 30
0.0
 40
4.0
  1
Tag
 41
0.8
  7
GREEKS
 72
     1
 11
103.8268009408814
 21
18.6715626933981
 31
0.0
100
AcDbText
  0
TEXT
  5
7D
330
1E
100
AcDbEntity
  8
TEXT
100
AcDbText
 10
119.0122744386592
 20
18.59324216966408
 30
0.0
 40
4.0
  1
Name
 41
0.8
  7
GREEKS
 72
     1
 11
125.3360839624688
 21
18.59324216966408
 31
0.0
100
AcDbText
  0
TEXT
  5
7E
330
1E
100
AcDbEntity
  8
TEXT
100
AcDbText
 10
162.3311673153651
 20
73.31880501229926
 30
0.0
 40
4.0
  1
Tag
 41
0.8
  7
GREEKS
100
AcDbText
  0
TEXT
  5
7F
330
1E
100
AcDbEntity
  8
TEXT
100
AcDbText
 10
192.4626584226295
 20
73.30961091915225
 30
0.0
 40
4.0
  1
Name
 41
0.8
  7
GREEKS
100
AcDbText
  0
TEXT
  5
80
330
1E
100
AcDbEntity
  8
TEXT
100
AcDbText
 10
137.5836127167615
 20
63.62990369617964
 30
0.0
 40
4.0
  1
Gez.
 41
0.8
  7
GREEKS
100
AcDbText
  0
TEXT
  5
81
330
1E
100
AcDbEntity
  8
TEXT
100
AcDbText
 10
137.5515086571672
 20
53.68926291428377
 30
0.0
 40
4.0
  1
Gepr.
 41
0.8
  7
GREEKS
100
AcDbText
  0
TEXT
  5
82
330
1E
100
AcDbEntity
  8
TEXT
100
AcDbText
 10
137.6006777387304
 20
43.52946389649807
 30
0.0
 40
4.0
  1
Norm.
 41
0.8
  7
GREEKS
100
AcDbText
  0
LINE
  5
83
330
1E
100
AcDbEntity
  8
STEMPEL
100
AcDbLine
 10
49.99999999999989
 20
10.0
 30
0.0
 11
410.0
 21
10.0
 31
0.0
  0
TEXT
  5
84
330
1E
100
AcDbEntity
  8
TEXT
100
AcDbText
 10
337.2400861497006
 20
52.07416177878602
 30
0.0
 40
5.0
  1
ersetzt durch:
 41
0.8
  7
GREEKS
100
AcDbText
  0
LINE
  5
85
330
1E
100
AcDbEntity
  8
STEMPEL
100
AcDbLine
 10
410.0
 20
10.0
 30
0.0
 11
39.99999999999989
 21
10.0
 31
0.0
  0
LINE
  5
86
330
1E
100
AcDbEntity
  8
STEMPEL
100
AcDbLine
 10
410.0
 20
10.0
 30
0.0
 11
410.0
 21
584.0
 31
0.0
  0
LINE
  5
87
330
1E
100
AcDbEntity
  8
STEMPEL
100
AcDbLine
 10
40.0
 20
10.0
 30
0.0
 11
39.99999999999989
 21
584.0
 31
0.0
  0
LINE
  5
88
330
1E
100
AcDbEntity
  8
STEMPEL
100
AcDbLine
 10
410.0
 20
584.0
 30
0.0
 11
39.99999999999989
 21
584.0
 31
0.0
  0
LINE
  5
89
330
1E
100
AcDbEntity
  8
HILF
100
AcDbLine
 10
0.0
 20
0.0
 30
0.0
 11
-0.0000000000001137
 21
594.0
 31
0.0
  0
LINE
  5
8A
330
1E
100
AcDbEntity
  8
HILF
100
AcDbLine
 10
419.9999999999999
 20
594.0000000000002
 30
0.0
 11
0.0
 21
594.0
 31
0.0
  0
LINE
  5
8B
330
1E
100
AcDbEntity
  8
HILF
100
AcDbLine
 10
420.0
 20
0.0
 30
0.0
 11
0.0
 21
0.0
 31
0.0
  0
LINE
  5
8C
330
1E
100
AcDbEntity
  8
HILF
100
AcDbLine
 10
31.08767135713856
 20
297.0
 30
0.0
 11
0.0000000000001137
 21
297.0
 31
0.0
  0
TEXT
  5
8D
330
1E
100
AcDbEntity
  8
TEXT
100
AcDbText
 10
138.622109822104
 20
73.14025471151666
 30
0.0
 40
4.0
  1
2011
 41
0.8
  7
GREEKS
100
AcDbText
  0
LINE
  5
8E
330
1E
100
AcDbEntity
  8
HILF
100
AcDbLine
 10
420.0
 20
-0.0000000000001137
 30
0.0
 11
419.9999999999999
 21
594.0
 31
0.0
  0
TEXT
  5
8F
330
1E
100
AcDbEntity
  8
VOLL
100
AcDbText
 10
78.07675471698113
 20
31.02594776470585
 30
0.0
 40
1.8
  1

  7
GREEKS
100
AcDbText
  0
TEXT
  5
90
330
1E
100
AcDbEntity
  8
TEXT
100
AcDbText
 10
41.85509950977674
 20
111.6719999999999
 30
0.0
 40
5.0
  1
Erstellt mit AUTOCAD 2004
 41
0.8
  7
GREEKS
100
AcDbText
  0
TEXT
  5
91
330
1E
100
AcDbEntity
  8
TEXT
100
AcDbText
 10
194.4216048581257
 20
63.0896391972351
 30
0.0
 40
4.0
  1
Koeh
 41
0.8
  7
GREEKS
 72
     1
 11
199.6787477152685
 21
63.0896391972351
 31
0.0
100
AcDbText
  0
TEXT
  5
92
330
1E
100
AcDbEntity
  8
TEXT
 62
     1
100
AcDbText
 10
346.4850229399057
 20
88.14901428913959
 30
0.0
 40
7.0
  1
00600MD0W
 41
0.8
  7
GREEKS
 72
     1
 11
371.1516896065724
 21
88.14901428913959
 31
0.0
100
AcDbText
  0
TEXT
  5
93
330
1E
100
AcDbEntity
  8
TEXT
 62
     1
100
AcDbText
 10
150.5006306481887
 20
88.14901428913959
 30
0.0
 40
7.0
  1
1:2
 41
0.8
  7
GREEKS
100
AcDbText
  0
TEXT
  5
94
330
1E
100
AcDbEntity
  8
TEXT
100
AcDbText
 10
160.398997108236
 20
63.10765040825732
 30
0.0
 40
4.0
  1
04.04.
 41
0.8
  7
GREEKS
 72
     1
 11
167.4085209177598
 21
63.10765040825732
 31
0.0
100
AcDbText
  0
TEXT
  5
95
330
1E
100
AcDbEntity
  8
TEXT
 62
     1
100
AcDbText
 10
224.2909241008022
 20
87.41748789253779
 30
0.0
 40
7.0
  1
Übergangsrohr DN80/100
 41
0.75
  7
GREEKS
100
AcDbText
  0
TEXT
  5
96
330
1E
100
AcDbEntity
  8
TEXT
100
AcDbText
 10
225.1296391125315
 20
71.50334417585288
 30
0.0
 40
5.0
  1
konzentrisches Red.-Stück
 41
0.8
  7
GREEKS
100
AcDbText
  0
TEXT
  5
98
330
1E
100
AcDbEntity
  8
TEXT
100
AcDbText
 10
225.1296391125315
 20
51.64011943042158
 30
0.0
 40
5.0
  1
EDV-Art.Nr. 00600.MD0X
 41
0.8
  7
GREEKS
100
AcDbText
  0
TEXT
  5
99
330
1E
100
AcDbEntity
  8
TEXT
100
AcDbText
 10
224.9837501577827
 20
42.62974153022632
 30
0.0
 40
4.0
  1
00600MD0W.DWG
 41
0.8
  7
GREEKS
100
AcDbText
  0
TEXT
  5
9A
330
1E
100
AcDbEntity
  8
TEXT
100
AcDbText
 10
182.626132208084
 20
90.76363841023022
 30
0.0
 40
4.0
  1
DIN EN1123-2
 41
0.8
  7
GREEKS
 72
     1
 11
199.6166083985602
 21
90.76363841023022
 31
0.0
100
AcDbText
  0
INSERT
  5
9B
330
1E
100
AcDbEntity
  8
STEMPEL
100
AcDbBlockReference
  2
LOGO
 10
140.9955485457794
 20
45.02105276448322
 30
0.0
 41
2.0
 42
2.0
 43
2.0
  0
TEXT
  5
118
330
1E
100
AcDbEntity
  8
BEM
100
AcDbText
 10
417.3022923857165
 20
10.16790107998849
 30
0.0
 40
4.0
  1
Diese Zeichnung ist urheberrechtlich geschützt und bleibt unser Eigentum. Sie darf weder ganz noch teilweise verfielfältigt und nicht an Dritte weitergegeben werden.
 50
90.0
 41
0.8
  7
GREEKS
100
AcDbText
  0
TEXT
  5
1CA
330
1E
100
AcDbEntity
  8
TEXT
 62
     1
100
AcDbText
 10
218.2935868756358
 20
451.3038212362056
 30
0.0
 40
7.0
  1
DN80
 50
90.0
 41
0.8
  7
GREEKS
100
AcDbText
  0
TEXT
  5
2B5
330
1E
100
AcDbEntity
  8
TEXT
 62
     1
100
AcDbText
 10
55.87395933336921
 20
155.3929853351618
 30
0.0
 40
7.0
  1
Rohrende leicht eingezogen
 41
0.8
  7
GREEKS
100
AcDbText
  0
TEXT
  5
31C
330
1E
100
AcDbEntity
  8
TEXT
 62
     1
100
AcDbText
 10
218.2935868756358
 20
305.7948093633434
 30
0.0
 40
7.0
  1
DN100
 50
90.0
 41
0.8
  7
GREEKS
100
AcDbText
  0
TEXT
  5
3CA
330
1E
100
AcDbEntity
  8
TEXT
 62
     1
100
AcDbText
 10
274.6057658946467
 20
129.0783465745483
 30
0.0
 40
7.0
  1
und innen beschichtet
 41
0.8
  7
GREEKS
100
AcDbText
  0
TEXT
  5
3CB
330
1E
100
AcDbEntity
  8
TEXT
 62
     1
100
AcDbText
 10
226.6560484572488
 20
139.8004583895517
 30
0.0
 40
7.0
  1
Werkstoff: E195 EN10305 feuerverzinkt
 41
0.8
  7
GREEKS
100
AcDbText
  0
LINE
  5
217A
330
1E
100
AcDbEntity
  8
MITTEL
  6
STRICHPUNKT
100
AcDbLine
 10
225.0
 20
358.4755327255268
 30
0.0
 11
225.0
 21
275.040720615369
 31
0.0
  0
DIMENSION
  5
218E
330
1E
100
AcDbEntity
  8
BEM
100
AcDbDimension
  2
*D3
 10
275.9999999999999
 20
260.266797787938
 30
0.0
 11
225.0
 21
266.766797787938
 31
0.0
 70
    32
  1
%%c<>
 71
     5
 42
102.0
  3
Standard
100
AcDbAlignedDimension
 13
174.0
 23
290.0407206153689
 33
0.0
 14
275.9999999999999
 24
290.0407206153692
 34
0.0
100
AcDbRotatedDimension
1001
ACAD
1000
DSTYLE
1002
{
1070
    40
1040
2.0
1070
    41
1040
3.5
1070
    42
1040
1.0
1070
    43
1040
7.0
1070
    44
1040
1.0
1070
    73
1070
     0
1070
    74
1070
     0
1070
    77
1070
     1
1070
    78
1070
     8
1070
    79
1070
     2
1070
   140
1040
3.5
1070
   141
1040
1.5
1070
   146
1040
0.5142857142857144
1070
   147
1040
1.5
1070
   172
1070
     1
1070
   178
1070
     1
1070
   179
1070
     2
1070
   271
1070
     2
1070
   272
1070
     2
1070
   284
1070
     8
1070
   285
1070
     8
1070
   286
1070
     8
1002
}
  0
DIMENSION
  5
2191
330
1E
100
AcDbEntity
  8
BEM
100
AcDbDimension
  2
*D4
 10
269.5
 20
361.6410160678342
 30
0.0
 11
225.0
 21
368.1410160678342
 31
0.0
 70
    32
  1
%%C<>
 71
     5
 42
89.0
  3
Standard
100
AcDbAlignedDimension
 13
180.5
 23
392.4122411592171
 33
0.0
 14
269.5
 24
392.4122411592169
 34
0.0
100
AcDbRotatedDimension
1001
ACAD
1000
DSTYLE
1002
{
1070
    40
1040
2.0
1070
    41
1040
3.5
1070
    42
1040
1.0
1070
    43
1040
7.0
1070
    44
1040
1.0
1070
    73
1070
     0
1070
    74
1070
     0
1070
    77
1070
     1
1070
    78
1070
     8
1070
    79
1070
     2
1070
   140
1040
3.5
1070
   141
1040
1.5
1070
   146
1040
0.5142857142857144
1070
   147
1040
1.5
1070
   172
1070
     1
1070
   178
1070
     1
1070
   179
1070
     2
1070
   271
1070
     2
1070
   272
1070
     2
1070
   284
1070
     8
1070
   285
1070
     8
1070
   286
1070
     8
1002
}
  0
DIMENSION
  5
2193
330
1E
100
AcDbEntity
  8
BEM
100
AcDbDimension
  2
*D5
 10
155.1336990383371
 20
380.040720615369
 30
0.0
 11
148.6336990383371
 21
330.0407206153691
 31
0.0
 70
    32
 71
     5
 42
100.0
  3
Standard
100
AcDbAlignedDimension
 13
174.8748866352592
 23
280.040720615369
 33
0.0
 14
174.5393825123713
 24
380.040720615369
 34
0.0
 50
90.0
100
AcDbRotatedDimension
1001
ACAD
1000
DSTYLE
1002
{
1070
    40
1040
2.0
1070
    41
1040
3.5
1070
    42
1040
1.0
1070
    43
1040
7.0
1070
    44
1040
1.0
1070
    73
1070
     0
1070
    74
1070
     0
1070
    77
1070
     1
1070
    78
1070
     8
1070
    79
1070
     2
1070
   140
1040
3.5
1070
   141
1040
1.5
1070
   146
1040
0.5142857142857144
1070
   147
1040
1.5
1070
   172
1070
     1
1070
   178
1070
     1
1070
   179
1070
     2
1070
   271
1070
     2
1070
   272
1070
     2
1070
   284
1070
     8
1070
   285
1070
     8
1070
   286
1070
     8
1002
}
  0
LINE
  5
2194
330
1E
100
AcDbEntity
  8
STEMPEL
100
AcDbLine
 10
275.9999999999999
 20
290.0407206153692
 30
0.0
 11
275.1251133647407
 21
280.0407206153689
 31
0.0
  0
LINE
  5
2195
330
1E
100
AcDbEntity
  8
STEMPEL
100
AcDbLine
 10
174.0
 20
290.0407206153689
 30
0.0
 11
174.8748866352592
 21
280.040720615369
 31
0.0
  0
LINE
  5
2196
330
1E
100
AcDbEntity
  8
HILF
100
AcDbLine
 10
274.3999999999999
 20
290.040720615369
 30
0.0
 11
175.6
 21
290.040720615369
 31
0.0
  0
ARC
  5
2199
330
1E
100
AcDbEntity
  8
STEMPEL
100
AcDbCircle
 10
185.9999999999999
 20
376.4834397995969
 30
0.0
 40
12.0
100
AcDbArc
 50
146.9761324442027
 51
180.0
  0
ARC
  5
219A
330
1E
100
AcDbEntity
  8
STEMPEL
100
AcDbCircle
 10
264.0
 20
376.4834397995969
 30
0.0
 40
12.0
100
AcDbArc
 50
0.0
 51
33.02386755579638
  0
ARC
  5
219B
330
1E
100
AcDbEntity
  8
STEMPEL
100
AcDbCircle
 10
172.5
 20
392.4122411592171
 30
0.0
 40
8.0
100
AcDbArc
 50
326.9761324442027
 51
0.0
  0
ARC
  5
219C
330
1E
100
AcDbEntity
  8
STEMPEL
100
AcDbCircle
 10
277.5
 20
392.4122411592169
 30
0.0
 40
8.0
100
AcDbArc
 50
180.0
 51
213.0238675557964
  0
LINE
  5
219D
330
1E
100
AcDbEntity
  8
STEMPEL
100
AcDbLine
 10
179.207548930405
 20
388.0523343544538
 30
0.0
 11
175.9386766043923
 21
383.0233000067419
 31
0.0
  0
LINE
  5
219E
330
1E
100
AcDbEntity
  8
HILF
100
AcDbLine
 10
268.1975331062074
 20
390.040720615369
 30
0.0
 11
181.8024668937925
 21
390.040720615369
 31
0.0
  0
LINE
  5
219F
330
1E
100
AcDbEntity
  8
STEMPEL
100
AcDbLine
 10
274.0613233956076
 20
383.0233000067418
 30
0.0
 11
270.7924510695948
 21
388.0523343544536
 31
0.0
  0
LINE
  5
21A0
330
1E
100
AcDbEntity
  8
HILF
100
AcDbLine
 10
273.7727044976168
 20
380.0407206153689
 30
0.0
 11
176.2272955023831
 21
380.040720615369
 31
0.0
  0
LINE
  5
21A1
330
1E
100
AcDbEntity
  8
STEMPEL
100
AcDbLine
 10
275.9999999999999
 20
376.4834397995969
 30
0.0
 11
275.9999999999999
 21
290.0407206153692
 31
0.0
  0
LINE
  5
21A2
330
1E
100
AcDbEntity
  8
STEMPEL
100
AcDbLine
 10
173.9999999999999
 20
376.4834397995969
 30
0.0
 11
174.0
 21
290.0407206153689
 31
0.0
  0
LINE
  5
21A3
330
1E
100
AcDbEntity
  8
STEMPEL
100
AcDbLine
 10
275.1251133647407
 20
280.0407206153689
 30
0.0
 11
174.8748866352592
 21
280.040720615369
 31
0.0
  0
LINE
  5
21A7
330
1E
100
AcDbEntity
  8
STEMPEL
  6
Continuous
100
AcDbLine
 10
272.76540467034
 20
480.0407206153691
 30
0.0
 11
273.7951715611015
 21
477.8323783916192
 31
0.0
  0
LINE
  5
21A8
330
1E
100
AcDbEntity
  8
STEMPEL
100
AcDbLine
 10
276.0999999999999
 20
467.435969152798
 30
0.0
 11
276.0999999999999
 21
460.3405855763882
 31
0.0
  0
ARC
  5
21A9
330
1E
100
AcDbEntity
  8
STEMPEL
100
AcDbCircle
 10
251.0999999999999
 20
460.4088656245787
 30
0.0
 40
25.00009324312574
100
AcDbArc
 50
334.7888220683156
 51
0.1564859543310882
  0
LINE
  5
21AA
330
1E
100
AcDbEntity
  8
STEMPEL
100
AcDbLine
 10
272.6
 20
444.7005875521739
 30
0.0
 11
272.6
 21
425.429447032786
 31
0.0
  0
ARC
  5
21AB
330
1E
100
AcDbEntity
  8
STEMPEL
100
AcDbCircle
 10
284.6
 20
444.7005875521739
 30
0.0
 40
12.0
100
AcDbArc
 50
154.8779398133632
 51
180.0
  0
ARC
  5
21AC
330
1E
100
AcDbEntity
  8
STEMPEL
  6
Continuous
100
AcDbCircle
 10
251.5
 20
467.435969152798
 30
0.0
 40
24.6
100
AcDbArc
 50
0.0
 51
24.99999999999276
  0
LINE
  5
21AD
330
1E
100
AcDbEntity
  8
STEMPEL
  6
Continuous
100
AcDbLine
 10
177.23459532966
 20
480.0407206153691
 30
0.0
 11
176.2048284388983
 21
477.8323783916192
 31
0.0
  0
LINE
  5
21AE
330
1E
100
AcDbEntity
  8
STEMPEL
100
AcDbLine
 10
173.8999999999999
 20
467.435969152798
 30
0.0
 11
173.8999999999999
 21
460.3405855763882
 31
0.0
  0
ARC
  5
21AF
330
1E
100
AcDbEntity
  8
STEMPEL
100
AcDbCircle
 10
198.8999999999999
 20
460.4088656245787
 30
0.0
 40
25.00009324312574
100
AcDbArc
 50
179.8435140456689
 51
205.2111779316807
  0
LINE
  5
21B0
330
1E
100
AcDbEntity
  8
STEMPEL
100
AcDbLine
 10
177.3999999999999
 20
444.7005875521739
 30
0.0
 11
177.3999999999999
 21
425.429447032786
 31
0.0
  0
ARC
  5
21B1
330
1E
100
AcDbEntity
  8
STEMPEL
100
AcDbCircle
 10
165.3999999999999
 20
444.7005875521739
 30
0.0
 40
12.0
100
AcDbArc
 50
0.0
 51
25.12206018663311
  0
ARC
  5
21B2
330
1E
100
AcDbEntity
  8
STEMPEL
  6
Continuous
100
AcDbCircle
 10
198.4999999999999
 20
467.435969152798
 30
0.0
 40
24.6
100
AcDbArc
 50
155.0000000000036
 51
180.0
  0
LINE
  5
21B3
330
1E
100
AcDbEntity
  8
STEMPEL
100
AcDbLine
 10
272.76540467034
 20
480.0407206153689
 30
0.0
 11
177.23459532966
 21
480.0407206153691
 31
0.0
  0
ARC
  5
21B4
330
1E
100
AcDbEntity
  8
STEMPEL
100
AcDbCircle
 10
277.5
 20
414.7341209508004
 30
0.0
 40
8.0
100
AcDbArc
 50
147.6719358778383
 51
180.0
  0
LINE
  5
21B5
330
1E
100
AcDbEntity
  8
STEMPEL
100
AcDbLine
 10
269.5
 20
414.7341209508004
 30
0.0
 11
269.5
 21
392.4122411592169
 31
0.0
  0
ARC
  5
21B6
330
1E
100
AcDbEntity
  8
STEMPEL
100
AcDbCircle
 10
172.4999999999999
 20
414.7341209508004
 30
0.0
 40
8.0
100
AcDbArc
 50
0.0
 51
32.32806412216171
  0
LINE
  5
21B7
330
1E
100
AcDbEntity
  8
STEMPEL
100
AcDbLine
 10
180.4999999999999
 20
414.7341209508004
 30
0.0
 11
180.5
 21
392.4122411592171
 31
0.0
  0
ARC
  5
21B8
330
1E
100
AcDbEntity
  8
STEMPEL
100
AcDbCircle
 10
260.6
 20
425.429447032786
 30
0.0
 40
12.0
100
AcDbArc
 50
327.6719358778383
 51
0.0
  0
ARC
  5
21B9
330
1E
100
AcDbEntity
  8
STEMPEL
100
AcDbCircle
 10
189.3999999999999
 20
425.429447032786
 30
0.0
 40
12.0
100
AcDbArc
 50
180.0
 51
212.3280641221617
  0
LINE
  5
21BA
330
1E
100
AcDbEntity
  8
MITTEL
  6
STRICHPUNKT
100
AcDbLine
 10
225.0
 20
485.040720615369
 30
0.0
 11
225.0
 21
375.181963247292
 31
0.0
  0
DIMENSION
  5
22DB
330
1E
100
AcDbEntity
  8
BEM
100
AcDbDimension
  2
*D6
 10
138.5508906798104
 20
480.0407206153691
 30
0.0
 11
132.0508906798103
 21
380.0407206153691
 31
0.0
 70
    32
 71
     5
 42
200.0
  3
Standard
100
AcDbAlignedDimension
 13
174.8748866352592
 23
280.040720615369
 33
0.0
 14
177.23459532966
 24
480.0407206153691
 34
0.0
 50
90.0
100
AcDbRotatedDimension
1001
ACAD
1000
DSTYLE
1002
{
1070
    40
1040
2.0
1070
    41
1040
3.5
1070
    42
1040
1.0
1070
    43
1040
7.0
1070
    44
1040
1.0
1070
    73
1070
     0
1070
    74
1070
     0
1070
    77
1070
     1
1070
    78
1070
     8
1070
    79
1070
     2
1070
   140
1040
3.5
1070
   141
1040
1.5
1070
   146
1040
0.5142857142857144
1070
   147
1040
1.5
1070
   172
1070
     1
1070
   178
1070
     1
1070
   179
1070
     2
1070
   271
1070
     2
1070
   272
1070
     2
1070
   284
1070
     8
1070
   285
1070
     8
1070
   286
1070
     8
1002
}
  0
LINE
  5
2313
330
1E
100
AcDbEntity
  8
HILF
100
AcDbLine
 10
178.7472539943311
 20
447.310340569379
 30
0.0
 11
271.2527460056689
 21
447.310340569379
 31
0.0
  0
LINE
  5
2314
330
1E
100
AcDbEntity
  8
HILF
100
AcDbLine
 10
179.5511421982038
 20
422.088788415088
 30
0.0
 11
270.4488578017962
 21
422.0887884150881
 31
0.0
  0
LINE
  5
2315
330
1E
100
AcDbEntity
  8
HILF
100
AcDbLine
 10
181.838094023943
 20
416.9612266959324
 30
0.0
 11
268.161905976057
 21
416.9612266959324
 31
0.0
  0
ENDSEC
  0
SECTION
  2
OBJECTS
  0
DICTIONARY
  5
C
330
0
100
AcDbDictionary
281
     1
  3
ACAD_COLOR
350
DF
  3
ACAD_GROUP
350
D
  3
ACAD_LAYOUT
350
19
  3
ACAD_MATERIAL
350
DE
  3
ACAD_MLINESTYLE
350
16
  3
ACAD_PLOTSETTINGS
350
18
  3
ACAD_PLOTSTYLENAME
350
E
  3
AcDbVariableDictionary
350
EA
  0
DICTIONARY
  5
A0
330
1E
100
AcDbDictionary
280
     1
281
     1
  3
ACAD_LAYOUTSELFREF
360
D4
  0
DICTIONARY
  5
A2
330
1A
100
AcDbDictionary
280
     1
281
     1
  3
ACAD_LAYOUTSELFREF
360
D3
  0
DICTIONARY
  5
DF
102
{ACAD_REACTORS
330
C
102
}
330
C
100
AcDbDictionary
281
     1
  0
DICTIONARY
  5
D
102
{ACAD_REACTORS
330
C
102
}
330
C
100
AcDbDictionary
281
     1
  0
DICTIONARY
  5
19
102
{ACAD_REACTORS
330
C
102
}
330
C
100
AcDbDictionary
281
     1
  3
Layout1
350
1D
  3
Model
350
21
  0
DICTIONARY
  5
DE
102
{ACAD_REACTORS
330
C
102
}
330
C
100
AcDbDictionary
281
     1
  0
DICTIONARY
  5
16
102
{ACAD_REACTORS
330
C
102
}
330
C
100
AcDbDictionary
281
     1
  3
Standard
350
17
  0
DICTIONARY
  5
18
102
{ACAD_REACTORS
330
C
102
}
330
C
100
AcDbDictionary
281
     1
  0
ACDBDICTIONARYWDFLT
  5
E
102
{ACAD_REACTORS
330
C
102
}
330
C
100
AcDbDictionary
281
     1
  3
Normal
350
F
100
AcDbDictionaryWithDefault
340
F
  0
DICTIONARY
  5
EA
102
{ACAD_REACTORS
330
C
102
}
330
C
100
AcDbDictionary
281
     1
  3
DIMASSOC
350
EB
  3
PROJECTNAME
350
EC
  0
XRECORD
  5
D4
102
{ACAD_REACTORS
330
A0
102
}
330
A0
100
AcDbXrecord
280
     1
340
1E
  0
XRECORD
  5
D3
102
{ACAD_REACTORS
330
A2
102
}
330
A2
100
AcDbXrecord
280
     1
340
1A
  0
LAYOUT
  5
1D
102
{ACAD_REACTORS
330
19
102
}
330
19
100
AcDbPlotSettings
  1

  2
\\NT_WORK01\HP LaserJet 5000 PCL 6
  4

  6

 40
0.0
 41
0.0
 42
0.0
 43
0.0
 44
0.0
 45
0.0
 46
0.0
 47
0.0
 48
0.0
 49
0.0
140
0.0
141
0.0
142
1.0
143
1.0
 70
   688
 72
     0
 73
     0
 74
     5
  7

 75
    16
147
1.0
 76
     0
 77
     2
 78
   300
148
0.0
149
0.0
100
AcDbLayout
  1
Layout1
 70
     0
 71
     1
 10
0.0
 20
0.0
 11
12.0
 21
9.0
 12
0.0
 22
0.0
 32
0.0
 14
1.000000000000000E+20
 24
1.000000000000000E+20
 34
1.000000000000000E+20
 15
-1.000000000000000E+20
 25
-1.000000000000000E+20
 35
-1.000000000000000E+20
146
0.0
 13
0.0
 23
0.0
 33
0.0
 16
1.0
 26
0.0
 36
0.0
 17
0.0
 27
1.0
 37
0.0
 76
     0
330
1A
  0
LAYOUT
  5
21
102
{ACAD_REACTORS
330
19
102
}
330
19
100
AcDbPlotSettings
  1

  2
none_device
  4
Letter_(8.50_x_11.00_Inches)
  6

 40
6.349999904632568
 41
6.349999904632568
 42
6.350006103515625
 43
6.350006103515625
 44
215.8999938964844
 45
279.3999938964844
 46
0.0
 47
0.0
 48
0.0
 49
0.0
140
0.0
141
0.0
142
1.0
143
1.0
 70
 11952
 72
     0
 73
     1
 74
     0
  7

 75
     0
147
1.0
 76
     0
 77
     2
 78
   300
148
2299.813578060367
149
89.97980696159883
100
AcDbLayout
  1
Model
 70
     1
 71
     0
 10
0.0
 20
0.0
 11
12.0
 21
9.0
 12
0.0
 22
0.0
 32
0.0
 14
0.0
 24
0.0
 34
0.0
 15
0.0
 25
0.0
 35
0.0
146
0.0
 13
0.0
 23
0.0
 33
0.0
 16
1.0
 26
0.0
 36
0.0
 17
0.0
 27
1.0
 37
0.0
 76
     0
330
1E
  0
MLINESTYLE
  5
17
102
{ACAD_REACTORS
330
16
102
}
330
16
100
AcDbMlineStyle
  2
STANDARD
 70
     0
  3

 62
   256
 51
90.0
 52
90.0
 71
     2
 49
0.5
 62
   256
  6
BYLAYER
 49
-0.5
 62
   256
  6
BYLAYER
  0
ACDBPLACEHOLDER
  5
F
102
{ACAD_REACTORS
330
E
102
}
330
E
  0
DICTIONARYVAR
  5
EB
102
{ACAD_REACTORS
330
EA
102
}
330
EA
100
DictionaryVariables
280
     0
  1
1
  0
DICTIONARYVAR
  5
EC
102
{ACAD_REACTORS
330
EA
102
}
330
EA
100
DictionaryVariables
280
     0
  1

  0
ENDSEC
  0
EOF
