  0
SECTION
  2
HEADER
  9
$ACADVER
  1
AC1018
  9
$ACADMAINTVER
 70
     2
  9
$DWGCODEPAGE
  3
ANSI_1252
  9
$INSBASE
 10
0.0
 20
0.0
 30
0.0
  9
$EXTMIN
 10
-0.0288269351949566
 20
-0.0407695226328997
 30
-0.0000000000000129
  9
$EXTMAX
 10
420.0032069865897
 20
594.00453559532
 30
0.0000000000000023
  9
$LIMMIN
 10
0.0
 20
0.0
  9
$LIMMAX
 10
419.9999999999999
 20
594.0
  9
$ORTHOMODE
 70
     1
  9
$REGENMODE
 70
     1
  9
$FILLMODE
 70
     1
  9
$QTEXTMODE
 70
     0
  9
$MIRRTEXT
 70
     1
  9
$LTSCALE
 40
20.0
  9
$ATTMODE
 70
     1
  9
$TEXTSIZE
 40
3.5
  9
$TRACEWID
 40
0.5
  9
$TEXTSTYLE
  7
STANDARD
  9
$CLAYER
  8
VOLL
  9
$CELTYPE
  6
ByLayer
  9
$CECOLOR
 62
   256
  9
$CELTSCALE
 40
1.0
  9
$DISPSILH
 70
     0
  9
$DIMSCALE
 40
2.0
  9
$DIMASZ
 40
3.5
  9
$DIMEXO
 40
1.0
  9
$DIMDLI
 40
7.0
  9
$DIMRND
 40
0.0
  9
$DIMDLE
 40
0.0
  9
$DIMEXE
 40
1.0
  9
$DIMTP
 40
0.0
  9
$DIMTM
 40
0.0
  9
$DIMTXT
 40
3.5
  9
$DIMCEN
 40
1.5
  9
$DIMTSZ
 40
0.0
  9
$DIMTOL
 70
     0
  9
$DIMLIM
 70
     0
  9
$DIMTIH
 70
     0
  9
$DIMTOH
 70
     0
  9
$DIMSE1
 70
     0
  9
$DIMSE2
 70
     0
  9
$DIMTAD
 70
     1
  9
$DIMZIN
 70
     8
  9
$DIMBLK
  1

  9
$DIMASO
 70
     1
  9
$DIMSHO
 70
     0
  9
$DIMPOST
  1

  9
$DIMAPOST
  1

  9
$DIMALT
 70
     0
  9
$DIMALTD
 70
     2
  9
$DIMALTF
 40
25.4
  9
$DIMLFAC
 40
1.0
  9
$DIMTOFL
 70
     1
  9
$DIMTVP
 40
0.0
  9
$DIMTIX
 70
     0
  9
$DIMSOXD
 70
     0
  9
$DIMSAH
 70
     0
  9
$DIMBLK1
  1

  9
$DIMBLK2
  1

  9
$DIMSTYLE
  2
Standard
  9
$DIMCLRD
 70
     0
  9
$DIMCLRE
 70
     0
  9
$DIMCLRT
 70
     1
  9
$DIMTFAC
 40
0.5142857142857144
  9
$DIMGAP
 40
1.5
  9
$DIMJUST
 70
     0
  9
$DIMSD1
 70
     0
  9
$DIMSD2
 70
     0
  9
$DIMTOLJ
 70
     1
  9
$DIMTZIN
 70
     8
  9
$DIMALTZ
 70
     8
  9
$DIMALTTZ
 70
     8
  9
$DIMUPT
 70
     0
  9
$DIMDEC
 70
     2
  9
$DIMTDEC
 70
     2
  9
$DIMALTU
 70
     2
  9
$DIMALTTD
 70
     2
  9
$DIMTXSTY
  7
STANDARD
  9
$DIMAUNIT
 70
     0
  9
$DIMADEC
 70
     2
  9
$DIMALTRND
 40
0.0
  9
$DIMAZIN
 70
     2
  9
$DIMDSEP
 70
    46
  9
$DIMATFIT
 70
     3
  9
$DIMFRAC
 70
     0
  9
$DIMLDRBLK
  1

  9
$DIMLUNIT
 70
     2
  9
$DIMLWD
 70
    -2
  9
$DIMLWE
 70
    -2
  9
$DIMTMOVE
 70
     0
  9
$LUNITS
 70
     2
  9
$LUPREC
 70
     2
  9
$SKETCHINC
 40
1.0
  9
$FILLETRAD
 40
0.0
  9
$AUNITS
 70
     0
  9
$AUPREC
 70
     0
  9
$MENU
  1
ACAD
  9
$ELEVATION
 40
0.0
  9
$PELEVATION
 40
0.0
  9
$THICKNESS
 40
0.0
  9
$LIMCHECK
 70
     0
  9
$CHAMFERA
 40
0.0
  9
$CHAMFERB
 40
0.0
  9
$CHAMFERC
 40
0.0
  9
$CHAMFERD
 40
0.0
  9
$SKPOLY
 70
     0
  9
$TDCREATE
 40
2455397.864709028
  9
$TDUCREATE
 40
2455397.781375695
  9
$TDUPDATE
 40
2455449.355130405
  9
$TDUUPDATE
 40
2455449.271797072
  9
$TDINDWG
 40
0.1637357176
  9
$TDUSRTIMER
 40
0.1637357176
  9
$USRTIMER
 70
     1
  9
$ANGBASE
 50
0.0
  9
$ANGDIR
 70
     0
  9
$PDMODE
 70
     0
  9
$PDSIZE
 40
0.0
  9
$PLINEWID
 40
0.0
  9
$SPLFRAME
 70
     0
  9
$SPLINETYPE
 70
     6
  9
$SPLINESEGS
 70
     8
  9
$HANDSEED
  5
3484
  9
$SURFTAB1
 70
     6
  9
$SURFTAB2
 70
     6
  9
$SURFTYPE
 70
     6
  9
$SURFU
 70
     6
  9
$SURFV
 70
     6
  9
$UCSBASE
  2

  9
$UCSNAME
  2

  9
$UCSORG
 10
0.0
 20
0.0
 30
0.0
  9
$UCSXDIR
 10
1.0
 20
0.0
 30
0.0
  9
$UCSYDIR
 10
0.0
 20
1.0
 30
0.0
  9
$UCSORTHOREF
  2

  9
$UCSORTHOVIEW
 70
     0
  9
$UCSORGTOP
 10
0.0
 20
0.0
 30
0.0
  9
$UCSORGBOTTOM
 10
0.0
 20
0.0
 30
0.0
  9
$UCSORGLEFT
 10
0.0
 20
0.0
 30
0.0
  9
$UCSORGRIGHT
 10
0.0
 20
0.0
 30
0.0
  9
$UCSORGFRONT
 10
0.0
 20
0.0
 30
0.0
  9
$UCSORGBACK
 10
0.0
 20
0.0
 30
0.0
  9
$PUCSBASE
  2

  9
$PUCSNAME
  2

  9
$PUCSORG
 10
0.0
 20
0.0
 30
0.0
  9
$PUCSXDIR
 10
1.0
 20
0.0
 30
0.0
  9
$PUCSYDIR
 10
0.0
 20
1.0
 30
0.0
  9
$PUCSORTHOREF
  2

  9
$PUCSORTHOVIEW
 70
     0
  9
$PUCSORGTOP
 10
0.0
 20
0.0
 30
0.0
  9
$PUCSORGBOTTOM
 10
0.0
 20
0.0
 30
0.0
  9
$PUCSORGLEFT
 10
0.0
 20
0.0
 30
0.0
  9
$PUCSORGRIGHT
 10
0.0
 20
0.0
 30
0.0
  9
$PUCSORGFRONT
 10
0.0
 20
0.0
 30
0.0
  9
$PUCSORGBACK
 10
0.0
 20
0.0
 30
0.0
  9
$USERI1
 70
     0
  9
$USERI2
 70
     0
  9
$USERI3
 70
     0
  9
$USERI4
 70
     0
  9
$USERI5
 70
     0
  9
$USERR1
 40
0.0
  9
$USERR2
 40
0.0
  9
$USERR3
 40
0.0
  9
$USERR4
 40
0.0
  9
$USERR5
 40
0.0
  9
$WORLDVIEW
 70
     1
  9
$SHADEDGE
 70
     3
  9
$SHADEDIF
 70
    70
  9
$TILEMODE
 70
     1
  9
$MAXACTVP
 70
    16
  9
$PINSBASE
 10
0.0
 20
0.0
 30
0.0
  9
$PLIMCHECK
 70
     0
  9
$PEXTMIN
 10
1.000000000000000E+20
 20
1.000000000000000E+20
 30
1.000000000000000E+20
  9
$PEXTMAX
 10
-1.000000000000000E+20
 20
-1.000000000000000E+20
 30
-1.000000000000000E+20
  9
$PLIMMIN
 10
0.0
 20
0.0
  9
$PLIMMAX
 10
12.0
 20
9.0
  9
$UNITMODE
 70
     0
  9
$VISRETAIN
 70
     0
  9
$PLINEGEN
 70
     0
  9
$PSLTSCALE
 70
     0
  9
$TREEDEPTH
 70
  3020
  9
$CMLSTYLE
  2
Standard
  9
$CMLJUST
 70
     0
  9
$CMLSCALE
 40
1.0
  9
$PROXYGRAPHICS
 70
     1
  9
$MEASUREMENT
 70
     0
  9
$CELWEIGHT
370
    -1
  9
$ENDCAPS
280
     0
  9
$JOINSTYLE
280
     0
  9
$LWDISPLAY
290
     0
  9
$INSUNITS
 70
     0
  9
$HYPERLINKBASE
  1

  9
$STYLESHEET
  1
monochrome 1.ctb
  9
$XEDIT
290
     1
  9
$CEPSNTYPE
380
     0
  9
$PSTYLEMODE
290
     1
  9
$FINGERPRINTGUID
  2
{D68B0D02-A558-11D7-B632-000102183313}
  9
$VERSIONGUID
  2
{46FF031A-A017-4203-AC2F-094308E0642C}
  9
$EXTNAMES
290
     1
  9
$PSVPSCALE
 40
0.0
  9
$OLESTARTUP
290
     0
  9
$SORTENTS
280
   127
  9
$INDEXCTL
280
     0
  9
$HIDETEXT
280
     0
  9
$XCLIPFRAME
290
     0
  9
$HALOGAP
280
     0
  9
$OBSCOLOR
 70
   257
  9
$OBSLTYPE
280
     0
  9
$INTERSECTIONDISPLAY
280
     0
  9
$INTERSECTIONCOLOR
 70
   257
  9
$DIMASSOC
280
     1
  9
$PROJECTNAME
  1

  0
ENDSEC
  0
SECTION
  2
CLASSES
  0
CLASS
  1
ACDBDICTIONARYWDFLT
  2
AcDbDictionaryWithDefault
  3
ObjectDBX Classes
 90
        0
 91
        1
280
     0
281
     0
  0
CLASS
  1
DICTIONARYVAR
  2
AcDbDictionaryVar
  3
ObjectDBX Classes
 90
        0
 91
        2
280
     0
281
     0
  0
CLASS
  1
DIMASSOC
  2
AcDbDimAssoc
  3
"AcDbDimAssoc|Product Desc:     AcDim ARX App For Dimension|Company:          Autodesk, Inc.|WEB Address:      www.autodesk.com"
 90
        0
 91
        0
280
     0
281
     0
  0
ENDSEC
  0
SECTION
  2
TABLES
  0
TABLE
  2
VPORT
  5
8
330
0
100
AcDbSymbolTable
 70
     2
  0
VPORT
  5
3483
330
8
100
AcDbSymbolTableRecord
100
AcDbViewportTableRecord
  2
*Active
 70
     0
 10
0.0
 20
0.0
 11
1.0
 21
1.0
 12
209.9871900256974
 22
296.9818830363435
 13
0.0
 23
0.0
 14
1.0
 24
1.0
 15
10.0
 25
10.0
 16
0.0
 26
0.0
 36
1.0
 17
0.0
 27
0.0
 37
0.0
 40
598.8424408255002
 41
1.336927223719676
 42
50.0
 43
0.0
 44
0.0
 50
0.0
 51
0.0
 71
     0
 72
  1500
 73
     1
 74
     0
 75
     0
 76
     0
 77
     0
 78
     0
281
     0
 65
     1
110
0.0
120
0.0
130
0.0
111
1.0
121
0.0
131
0.0
112
0.0
122
1.0
132
0.0
 79
     0
146
0.0
  0
ENDTAB
  0
TABLE
  2
LTYPE
  5
5
330
0
100
AcDbSymbolTable
 70
     3
  0
LTYPE
  5
13
330
5
100
AcDbSymbolTableRecord
100
AcDbLinetypeTableRecord
  2
ByBlock
 70
     0
  3

 72
    65
 73
     0
 40
0.0
  0
LTYPE
  5
14
330
5
100
AcDbSymbolTableRecord
100
AcDbLinetypeTableRecord
  2
ByLayer
 70
     0
  3

 72
    65
 73
     0
 40
0.0
  0
LTYPE
  5
15
330
5
100
AcDbSymbolTableRecord
100
AcDbLinetypeTableRecord
  2
Continuous
 70
     0
  3
Solid line
 72
    65
 73
     0
 40
0.0
  0
LTYPE
  5
25
330
5
100
AcDbSymbolTableRecord
100
AcDbLinetypeTableRecord
  2
STRICHPUNKT
 70
     0
  3
__ . __ . __ . __ . __ . __ . __ . __ . __ . __
 72
    65
 73
     4
 40
1.0
 49
0.5
 74
     0
 49
-0.25
 74
     0
 49
0.0
 74
     0
 49
-0.25
 74
     0
  0
LTYPE
  5
32
330
5
100
AcDbSymbolTableRecord
100
AcDbLinetypeTableRecord
  2
AUSGEZOGEN
 70
     0
  3
Ausgezogene Linie
 72
    65
 73
     0
 40
0.0
  0
ENDTAB
  0
TABLE
  2
LAYER
  5
2
330
0
100
AcDbSymbolTable
 70
     9
  0
LAYER
  5
10
330
2
100
AcDbSymbolTableRecord
100
AcDbLayerTableRecord
  2
0
 70
     0
 62
     7
  6
Continuous
370
    -3
390
F
  0
LAYER
  5
2A
330
2
100
AcDbSymbolTableRecord
100
AcDbLayerTableRecord
  2
VOLL
 70
     0
 62
     1
  6
Continuous
370
    -3
390
F
  0
LAYER
  5
2B
330
2
100
AcDbSymbolTableRecord
100
AcDbLayerTableRecord
  2
HILF
 70
     0
 62
     2
  6
Continuous
370
    -3
390
F
  0
LAYER
  5
2C
330
2
100
AcDbSymbolTableRecord
100
AcDbLayerTableRecord
  2
MITTEL
 70
     0
 62
     2
  6
STRICHPUNKT
370
    -3
390
F
  0
LAYER
  5
2F
330
2
100
AcDbSymbolTableRecord
100
AcDbLayerTableRecord
  2
BEM
 70
     0
 62
     7
  6
Continuous
370
    -3
390
F
  0
LAYER
  5
30
330
2
100
AcDbSymbolTableRecord
100
AcDbLayerTableRecord
  2
STEMPEL
 70
     0
 62
     3
  6
Continuous
370
    -3
390
F
  0
LAYER
  5
31
330
2
100
AcDbSymbolTableRecord
100
AcDbLayerTableRecord
  2
TEXT
 70
     0
 62
     7
  6
Continuous
370
    -3
390
F
  0
LAYER
  5
195
330
2
100
AcDbSymbolTableRecord
100
AcDbLayerTableRecord
  2
DEFPOINTS
 70
     0
 62
     7
  6
AUSGEZOGEN
290
     0
370
    -3
390
F
  0
LAYER
  5
3B7
330
2
100
AcDbSymbolTableRecord
100
AcDbLayerTableRecord
  2
SCHRAFF
 70
     0
 62
     7
  6
Continuous
370
    -3
390
F
  0
ENDTAB
  0
TABLE
  2
STYLE
  5
3
330
0
100
AcDbSymbolTable
 70
     2
  0
STYLE
  5
11
330
3
100
AcDbSymbolTableRecord
100
AcDbTextStyleTableRecord
  2
STANDARD
 70
     0
 40
0.0
 41
0.8
 50
0.0
 71
     0
 42
3.5
  3
simplex.shx
  4

  0
STYLE
  5
24
330
3
100
AcDbSymbolTableRecord
100
AcDbTextStyleTableRecord
  2
GREEKS
 70
     0
 40
0.0
 41
0.8
 50
0.0
 71
     0
 42
2.5
  3
SIMPLEX.shx
  4

  0
ENDTAB
  0
TABLE
  2
VIEW
  5
6
330
0
100
AcDbSymbolTable
 70
     0
  0
ENDTAB
  0
TABLE
  2
UCS
  5
7
330
0
100
AcDbSymbolTable
 70
     0
  0
ENDTAB
  0
TABLE
  2
APPID
  5
9
330
0
100
AcDbSymbolTable
 70
     1
  0
APPID
  5
12
330
9
100
AcDbSymbolTableRecord
100
AcDbRegAppTableRecord
  2
ACAD
 70
     0
  0
ENDTAB
  0
TABLE
  2
DIMSTYLE
  5
A
330
0
100
AcDbSymbolTable
 70
     1
100
AcDbDimStyleTable
 71
     1
340
9D
  0
DIMSTYLE
105
9D
102
{ACAD_REACTORS
330
31C9
330
3181
330
3172
330
3170
330
33C3
330
345A
102
}
330
A
100
AcDbSymbolTableRecord
100
AcDbDimStyleTableRecord
  2
Standard
 70
     0
340
11
  0
ENDTAB
  0
TABLE
  2
BLOCK_RECORD
  5
1
330
0
100
AcDbSymbolTable
 70
     9
  0
BLOCK_RECORD
  5
1E
102
{ACAD_XDICTIONARY
360
A0
102
}
330
1
100
AcDbSymbolTableRecord
100
AcDbBlockTableRecord
  2
*Model_Space
340
21
  0
BLOCK_RECORD
  5
1A
102
{ACAD_XDICTIONARY
360
A2
102
}
330
1
100
AcDbSymbolTableRecord
100
AcDbBlockTableRecord
  2
*Paper_Space
340
1D
  0
BLOCK_RECORD
  5
22
330
1
100
AcDbSymbolTableRecord
100
AcDbBlockTableRecord
  2
LOGO
340
0
102
{BLKREFS
331
9B
102
}
  0
BLOCK_RECORD
  5
2F59
330
1
100
AcDbSymbolTableRecord
100
AcDbBlockTableRecord
  2
*X1
340
0
102
{BLKREFS
331
31B5
102
}
  0
BLOCK_RECORD
  5
2FEB
330
1
100
AcDbSymbolTableRecord
100
AcDbBlockTableRecord
  2
*X2
340
0
102
{BLKREFS
331
3154
102
}
  0
BLOCK_RECORD
  5
31E8
330
1
100
AcDbSymbolTableRecord
100
AcDbBlockTableRecord
  2
*D3
340
0
  0
BLOCK_RECORD
  5
3236
330
1
100
AcDbSymbolTableRecord
100
AcDbBlockTableRecord
  2
*D4
340
0
  0
BLOCK_RECORD
  5
3243
330
1
100
AcDbSymbolTableRecord
100
AcDbBlockTableRecord
  2
*D5
340
0
  0
BLOCK_RECORD
  5
3291
330
1
100
AcDbSymbolTableRecord
100
AcDbBlockTableRecord
  2
*D6
340
0
  0
BLOCK_RECORD
  5
33C4
330
1
100
AcDbSymbolTableRecord
100
AcDbBlockTableRecord
  2
*D7
340
0
  0
BLOCK_RECORD
  5
345B
330
1
100
AcDbSymbolTableRecord
100
AcDbBlockTableRecord
  2
*D8
340
0
  0
ENDTAB
  0
ENDSEC
  0
SECTION
  2
BLOCKS
  0
BLOCK
  5
35
330
1E
100
AcDbEntity
  8
0
100
AcDbBlockBegin
  2
*Model_Space
 70
     0
 10
0.0
 20
0.0
 30
0.0
  3
*Model_Space
  1

  0
ENDBLK
  5
36
330
1E
100
AcDbEntity
  8
0
100
AcDbBlockEnd
  0
BLOCK
  5
33
330
1A
100
AcDbEntity
 67
     1
  8
0
100
AcDbBlockBegin
  2
*Paper_Space
 70
     0
 10
0.0
 20
0.0
 30
0.0
  3
*Paper_Space
  1

  0
ENDBLK
  5
34
330
1A
100
AcDbEntity
 67
     1
  8
0
100
AcDbBlockEnd
  0
BLOCK
  5
37
330
22
100
AcDbEntity
  8
0
100
AcDbBlockBegin
  2
LOGO
 70
     0
 10
0.0
 20
0.0
 30
0.0
  3
LOGO
  1

  0
ARC
  5
38
330
22
100
AcDbEntity
  8
0
100
AcDbCircle
 10
11.59973089678112
 20
-9.271599258481501
 30
0.0
 40
4.5
100
AcDbArc
 50
270.0
 51
231.0575587310159
  0
LINE
  5
39
330
22
100
AcDbEntity
  8
0
100
AcDbLine
 10
3.599730896781125
 20
-4.771599258481529
 30
0.0
 11
3.599730896781153
 21
-11.77159925848133
 31
0.0
  0
LINE
  5
3A
330
22
100
AcDbEntity
  8
0
100
AcDbLine
 10
2.599730896781125
 20
-4.771599258481529
 30
0.0
 11
2.599730896781153
 21
-11.77159925848133
 31
0.0
  0
CIRCLE
  5
3B
330
22
100
AcDbEntity
  8
0
100
AcDbCircle
 10
11.59973089678112
 20
-9.271599258481501
 30
0.0
 40
3.5
  0
ARC
  5
3C
330
22
100
AcDbEntity
  8
0
100
AcDbCircle
 10
31.59973089678115
 20
-9.271599258481472
 30
0.0
 40
4.5
100
AcDbArc
 50
270.0
 51
231.0575587310182
  0
LINE
  5
3D
330
22
100
AcDbEntity
  8
0
100
AcDbLine
 10
17.59973089678112
 20
-4.771599258481472
 30
0.0
 11
17.59973089678115
 21
-13.77159925848147
 31
0.0
  0
ARC
  5
3E
330
22
100
AcDbEntity
  8
0
100
AcDbCircle
 10
22.59973089678116
 20
-7.271599258481472
 30
0.0
 40
2.5
100
AcDbArc
 50
293.1161887722295
 51
90.0
  0
CIRCLE
  5
3F
330
22
100
AcDbEntity
  8
0
100
AcDbCircle
 10
31.59973089678115
 20
-9.271599258481472
 30
0.0
 40
3.5
  0
ARC
  5
40
330
22
100
AcDbEntity
  8
0
100
AcDbCircle
 10
4.599730896781153
 20
-11.77159925848133
 30
0.0
 40
1.0
100
AcDbArc
 50
180.0
 51
270.0
  0
ARC
  5
41
330
22
100
AcDbEntity
  8
0
100
AcDbCircle
 10
4.599730896781153
 20
-11.77159925848133
 30
0.0
 40
2.0
100
AcDbArc
 50
179.9999999999992
 51
270.0
  0
LINE
  5
42
330
22
100
AcDbEntity
  8
0
100
AcDbLine
 10
11.59973089678115
 20
-13.77159925848144
 30
0.0
 11
4.599730896781153
 21
-13.77159925848147
 31
0.0
  0
LINE
  5
43
330
22
100
AcDbEntity
  8
0
100
AcDbLine
 10
8.771303772034769
 20
-12.77159925848136
 30
0.0
 11
4.599730896781153
 21
-12.77159925848133
 31
0.0
  0
LINE
  5
44
330
22
100
AcDbEntity
  8
0
100
AcDbLine
 10
31.59973089678115
 20
-13.77159925848147
 30
0.0
 11
23.6715276665056
 21
-13.77159925848144
 31
0.0
  0
LINE
  5
45
330
22
100
AcDbEntity
  8
0
100
AcDbLine
 10
23.56565672307022
 20
-9.51278021337896
 30
0.0
 11
24.4388546544846
 21
-12.77159925848144
 31
0.0
  0
LINE
  5
46
330
22
100
AcDbEntity
  8
0
100
AcDbLine
 10
22.59973089678116
 20
-9.771599258481472
 30
0.0
 11
18.59973089678112
 21
-9.771599258481472
 31
0.0
  0
LINE
  5
47
330
22
100
AcDbEntity
  8
0
100
AcDbLine
 10
18.59973089678115
 20
-13.77159925848144
 30
0.0
 11
17.59973089678115
 21
-13.77159925848144
 31
0.0
  0
LINE
  5
48
330
22
100
AcDbEntity
  8
0
100
AcDbLine
 10
18.59973089678115
 20
-9.771599258481472
 30
0.0
 11
18.59973089678115
 21
-13.77159925848144
 31
0.0
  0
LINE
  5
49
330
22
100
AcDbEntity
  8
0
100
AcDbLine
 10
22.59973089678116
 20
-9.771599258481472
 30
0.0
 11
23.67152766650562
 21
-13.77159925848147
 31
0.0
  0
ARC
  5
4A
330
22
100
AcDbEntity
  8
0
100
AcDbCircle
 10
22.59973089678116
 20
-7.271599258481472
 30
0.0
 40
2.5
100
AcDbArc
 50
270.0
 51
270.0000000000007
  0
LINE
  5
4B
330
22
100
AcDbEntity
  8
0
100
AcDbLine
 10
28.77130377203494
 20
-12.77159925848147
 30
0.0
 11
24.43885465448463
 21
-12.77159925848144
 31
0.0
  0
LINE
  5
4C
330
22
100
AcDbEntity
  8
0
100
AcDbLine
 10
3.599730896781125
 20
-4.771599258481472
 30
0.0
 11
2.599730896781125
 21
-4.771599258481472
 31
0.0
  0
LINE
  5
4D
330
22
100
AcDbEntity
  8
0
100
AcDbLine
 10
22.59973089678116
 20
-8.771599258481472
 30
0.0
 11
18.59973089678115
 21
-8.771599258481472
 31
0.0
  0
LINE
  5
4E
330
22
100
AcDbEntity
  8
0
100
AcDbLine
 10
22.59973089678116
 20
-5.771599258481472
 30
0.0
 11
18.59973089678115
 21
-5.771599258481472
 31
0.0
  0
LINE
  5
4F
330
22
100
AcDbEntity
  8
0
100
AcDbLine
 10
22.59973089678116
 20
-4.771599258481472
 30
0.0
 11
17.59973089678115
 21
-4.771599258481472
 31
0.0
  0
LINE
  5
50
330
22
100
AcDbEntity
  8
0
100
AcDbLine
 10
18.59973089678115
 20
-5.771599258481472
 30
0.0
 11
18.59973089678115
 21
-8.771599258481472
 31
0.0
  0
ARC
  5
51
330
22
100
AcDbEntity
  8
0
100
AcDbCircle
 10
22.59973089678116
 20
-7.271599258481472
 30
0.0
 40
1.5
100
AcDbArc
 50
270.0
 51
90.0
  0
ENDBLK
  5
52
330
22
100
AcDbEntity
  8
0
100
AcDbBlockEnd
  0
BLOCK
  5
2F5A
330
2F59
100
AcDbEntity
  8
0
100
AcDbBlockBegin
  2
*X1
 70
     1
 10
0.0
 20
0.0
 30
0.0
  3
*X1
  1

  0
LINE
  5
2F5B
330
2F59
100
AcDbEntity
  8
0
 62
     0
100
AcDbLine
 10
297.6323605454177
 20
386.8470036431602
 30
0.0
 11
295.1323605454177
 21
389.3470036431602
 31
0.0
  0
LINE
  5
2F5C
330
2F59
100
AcDbEntity
  8
0
 62
     0
100
AcDbLine
 10
297.6323605454177
 20
384.0185765184141
 30
0.0
 11
295.1323605454177
 21
386.5185765184141
 31
0.0
  0
LINE
  5
2F5D
330
2F59
100
AcDbEntity
  8
0
 62
     0
100
AcDbLine
 10
297.476134789769
 20
381.3463751493166
 30
0.0
 11
295.1323440952111
 21
383.6901658438744
 31
0.0
  0
LINE
  5
2F5E
330
2F59
100
AcDbEntity
  8
0
 62
     0
100
AcDbLine
 10
297.002247728699
 20
378.9918350856404
 30
0.0
 11
294.9081527438509
 21
381.0859300704885
 31
0.0
  0
LINE
  5
2F5F
330
2F59
100
AcDbEntity
  8
0
 62
     0
100
AcDbLine
 10
296.2852578911337
 20
376.8803977984595
 30
0.0
 11
294.3413183756557
 21
378.8243373139376
 31
0.0
  0
LINE
  5
2F60
330
2F59
100
AcDbEntity
  8
0
 62
     0
100
AcDbLine
 10
294.7320750307808
 20
375.6051535340662
 30
0.0
 11
293.5160364532629
 21
376.8211921115841
 31
0.0
  0
LINE
  5
2F61
330
2F59
100
AcDbEntity
  8
0
 62
     0
100
AcDbLine
 10
297.6323605454177
 20
389.6754307679064
 30
0.0
 11
295.1323605454177
 21
392.1754307679064
 31
0.0
  0
LINE
  5
2F62
330
2F59
100
AcDbEntity
  8
0
 62
     0
100
AcDbLine
 10
297.6323605454177
 20
392.5038578926526
 30
0.0
 11
295.1323605454177
 21
395.0038578926526
 31
0.0
  0
LINE
  5
2F63
330
2F59
100
AcDbEntity
  8
0
 62
     0
100
AcDbLine
 10
297.6323605454177
 20
395.3322850173988
 30
0.0
 11
295.1405684387172
 21
397.8240771240993
 31
0.0
  0
LINE
  5
2F64
330
2F59
100
AcDbEntity
  8
0
 62
     0
100
AcDbLine
 10
297.6545974671988
 20
398.1384752203639
 30
0.0
 11
295.3789528829271
 21
400.4141198046355
 31
0.0
  0
LINE
  5
2F65
330
2F59
100
AcDbEntity
  8
0
 62
     0
100
AcDbLine
 10
297.9597969783036
 20
400.6617028340052
 30
0.0
 11
295.882533667538
 21
402.7389661447708
 31
0.0
  0
LINE
  5
2F66
330
2F59
100
AcDbEntity
  8
0
 62
     0
100
AcDbLine
 10
298.5455200528887
 20
402.9044068841663
 30
0.0
 11
298.4605285369102
 21
402.9893984001448
 31
0.0
  0
ENDBLK
  5
2F67
330
2F59
100
AcDbEntity
  8
0
100
AcDbBlockEnd
  0
BLOCK
  5
2FEC
330
2FEB
100
AcDbEntity
  8
0
100
AcDbBlockBegin
  2
*X2
 70
     1
 10
0.0
 20
0.0
 30
0.0
  3
*X2
  1

  0
LINE
  5
2FED
330
2FEB
100
AcDbEntity
  8
0
 62
     0
100
AcDbLine
 10
133.6584131724862
 20
355.9727851775368
 30
0.0
 11
133.7218553845309
 21
356.0362273895814
 31
0.0
  0
LINE
  5
2FEE
330
2FEB
100
AcDbEntity
  8
0
 62
     0
100
AcDbLine
 10
139.7646015457753
 20
362.0789735508259
 30
0.0
 11
139.9871858555611
 21
362.3015578606116
 31
0.0
  0
LINE
  5
2FEF
330
2FEB
100
AcDbEntity
  8
0
 62
     0
100
AcDbLine
 10
133.5985398164737
 20
356.0543331777616
 30
0.0
 11
133.8997725746359
 21
356.3555659359237
 31
0.0
  0
LINE
  5
2FF0
330
2FEB
100
AcDbEntity
  8
0
 62
     0
100
AcDbLine
 10
138.4918093396395
 20
360.9476027009274
 30
0.0
 11
139.9056378553363
 21
362.3614312166241
 31
0.0
  0
LINE
  5
2FF1
330
2FEB
100
AcDbEntity
  8
0
 62
     0
100
AcDbLine
 10
133.5402952366582
 20
356.1375099541833
 30
0.0
 11
134.0776897647409
 21
356.674904482266
 31
0.0
  0
LINE
  5
2FF2
330
2FEB
100
AcDbEntity
  8
0
 62
     0
100
AcDbLine
 10
137.2190171335038
 20
359.816231851029
 30
0.0
 11
139.8224610789145
 21
362.4196757964396
 31
0.0
  0
LINE
  5
2FF3
330
2FEB
100
AcDbEntity
  8
0
 62
     0
100
AcDbLine
 10
133.4836989130124
 20
356.2223349867748
 30
0.0
 11
134.2556069548459
 21
356.9942430286084
 31
0.0
  0
LINE
  5
2FF4
330
2FEB
100
AcDbEntity
  8
0
 62
     0
100
AcDbLine
 10
136.3887618544577
 20
359.1273979282202
 30
0.0
 11
139.737636046323
 21
362.4762721200855
 31
0.0
  0
LINE
  5
2FF5
330
2FEB
100
AcDbEntity
  8
0
 62
     0
100
AcDbLine
 10
133.4287732781455
 20
356.3088307081453
 30
0.0
 11
134.4335241449509
 21
357.3135815749507
 31
0.0
  0
LINE
  5
2FF6
330
2FEB
100
AcDbEntity
  8
0
 62
     0
100
AcDbLine
 10
136.2473404982204
 20
359.1273979282202
 30
0.0
 11
139.6511403249525
 21
362.5311977549523
 31
0.0
  0
LINE
  5
2FF7
330
2FEB
100
AcDbEntity
  8
0
 62
     0
100
AcDbLine
 10
133.3755439050931
 20
356.3970226913303
 30
0.0
 11
134.6114413350559
 21
357.632920121293
 31
0.0
  0
LINE
  5
2FF8
330
2FEB
100
AcDbEntity
  8
0
 62
     0
100
AcDbLine
 10
136.1059191419831
 20
359.1273979282202
 30
0.0
 11
139.5629483417676
 21
362.5844271280048
 31
0.0
  0
LINE
  5
2FF9
330
2FEB
100
AcDbEntity
  8
0
 62
     0
100
AcDbLine
 10
133.3240397280937
 20
356.4869398705681
 30
0.0
 11
134.7893585251609
 21
357.9522586676353
 31
0.0
  0
LINE
  5
2FFA
330
2FEB
100
AcDbEntity
  8
0
 62
     0
100
AcDbLine
 10
135.9644977857458
 20
359.1273979282202
 30
0.0
 11
139.4730311625297
 21
362.6359313050041
 31
0.0
  0
LINE
  5
2FFB
330
2FEB
100
AcDbEntity
  8
0
 62
     0
100
AcDbLine
 10
133.2742933010642
 20
356.5786147997759
 30
0.0
 11
134.9672757152659
 21
358.2715972139776
 31
0.0
  0
LINE
  5
2FFC
330
2FEB
100
AcDbEntity
  8
0
 62
     0
100
AcDbLine
 10
135.8230764295085
 20
359.1273979282202
 30
0.0
 11
139.3813562333219
 21
362.6856777320337
 31
0.0
  0
LINE
  5
2FFD
330
2FEB
100
AcDbEntity
  8
0
 62
     0
100
AcDbLine
 10
133.2263410995408
 20
356.6720839544899
 30
0.0
 11
135.1451929053709
 21
358.5909357603199
 31
0.0
  0
LINE
  5
2FFE
330
2FEB
100
AcDbEntity
  8
0
 62
     0
100
AcDbLine
 10
135.6816550732712
 20
359.1273979282202
 30
0.0
 11
139.287887078608
 21
362.7336299335571
 31
0.0
  0
LINE
  5
2FFF
330
2FEB
100
AcDbEntity
  8
0
 62
     0
100
AcDbLine
 10
133.1802238731481
 20
356.7673880843345
 30
0.0
 11
135.323110095476
 21
358.9102743066623
 31
0.0
  0
LINE
  5
3000
330
2FEB
100
AcDbEntity
  8
0
 62
     0
100
AcDbLine
 10
135.5402337170338
 20
359.1273979282202
 30
0.0
 11
139.1925829487634
 21
362.7797471599497
 31
0.0
  0
LINE
  5
3001
330
2FEB
100
AcDbEntity
  8
0
 62
     0
100
AcDbLine
 10
133.1359870572744
 20
356.864572624698
 30
0.0
 11
139.0953984083998
 21
362.8239839758235
 31
0.0
  0
LINE
  5
3002
330
2FEB
100
AcDbEntity
  8
0
 62
     0
100
AcDbLine
 10
133.0936812546596
 20
356.9636881783206
 30
0.0
 11
138.9962828547773
 21
362.8662897784382
 31
0.0
  0
LINE
  5
3003
330
2FEB
100
AcDbEntity
  8
0
 62
     0
100
AcDbLine
 10
133.0533628001676
 20
357.0647910800659
 30
0.0
 11
138.895179953032
 21
362.9066082329302
 31
0.0
  0
LINE
  5
3004
330
2FEB
100
AcDbEntity
  8
0
 62
     0
100
AcDbLine
 10
133.015094425297
 20
357.1679440614325
 30
0.0
 11
138.7920269716653
 21
362.9448766078009
 31
0.0
  0
LINE
  5
3005
330
2FEB
100
AcDbEntity
  8
0
 62
     0
100
AcDbLine
 10
132.9789460432165
 20
357.2732170355894
 30
0.0
 11
138.6867539975084
 21
362.9810249898814
 31
0.0
  0
LINE
  5
3006
330
2FEB
100
AcDbEntity
  8
0
 62
     0
100
AcDbLine
 10
132.9449956806219
 20
357.3806880292321
 30
0.0
 11
138.5792830038658
 21
363.014975352476
 31
0.0
  0
LINE
  5
3007
330
2FEB
100
AcDbEntity
  8
0
 62
     0
100
AcDbLine
 10
132.9133305899629
 20
357.4904442948104
 30
0.0
 11
138.4695267382874
 21
363.0466404431349
 31
0.0
  0
LINE
  5
3008
330
2FEB
100
AcDbEntity
  8
0
 62
     0
100
AcDbLine
 10
132.8840485852365
 20
357.6025836463213
 30
0.0
 11
138.3573873867766
 21
363.0759224478614
 31
0.0
  0
LINE
  5
3009
330
2FEB
100
AcDbEntity
  8
0
 62
     0
100
AcDbLine
 10
132.8572596575206
 20
357.7172160748427
 30
0.0
 11
138.2427549582551
 21
363.1027113755772
 31
0.0
  0
LINE
  5
300A
330
2FEB
100
AcDbEntity
  8
0
 62
     0
100
AcDbLine
 10
132.83308794412
 20
357.8344657176795
 30
0.0
 11
138.1255053154184
 21
363.1268830889779
 31
0.0
  0
LINE
  5
300B
330
2FEB
100
AcDbEntity
  8
0
 62
     0
100
AcDbLine
 10
132.811674149634
 20
357.9544732794308
 30
0.0
 11
138.0054977536671
 21
363.1482968834638
 31
0.0
  0
LINE
  5
300C
330
2FEB
100
AcDbEntity
  8
0
 62
     0
100
AcDbLine
 10
132.7931785515432
 20
358.0773990375773
 30
0.0
 11
137.8825719955206
 21
363.1667924815547
 31
0.0
  0
LINE
  5
300D
330
2FEB
100
AcDbEntity
  8
0
 62
     0
100
AcDbLine
 10
132.777784771773
 20
358.2034266140444
 30
0.0
 11
137.7565444190535
 21
363.1821862613248
 31
0.0
  0
LINE
  5
300E
330
2FEB
100
AcDbEntity
  8
0
 62
     0
100
AcDbLine
 10
132.7657045666222
 20
358.3327677651309
 30
0.0
 11
137.627203267967
 21
363.1942664664757
 31
0.0
  0
LINE
  5
300F
330
2FEB
100
AcDbEntity
  8
0
 62
     0
100
AcDbLine
 10
132.757183992452
 20
358.465668547198
 30
0.0
 11
137.4943024858999
 21
363.2027870406458
 31
0.0
  0
LINE
  5
3010
330
2FEB
100
AcDbEntity
  8
0
 62
     0
100
AcDbLine
 10
132.7525114635017
 20
358.602417374485
 30
0.0
 11
137.3575536586129
 21
363.2074595695962
 31
0.0
  0
LINE
  5
3011
330
2FEB
100
AcDbEntity
  8
0
 62
     0
100
AcDbLine
 10
132.7520284649185
 20
358.7433557321392
 30
0.0
 11
137.2166153009587
 21
363.2079425681793
 31
0.0
  0
LINE
  5
3012
330
2FEB
100
AcDbEntity
  8
0
 62
     0
100
AcDbLine
 10
132.7561440779364
 20
358.8888927013944
 30
0.0
 11
137.0710783317035
 21
363.2038269551614
 31
0.0
  0
LINE
  5
3013
330
2FEB
100
AcDbEntity
  8
0
 62
     0
100
AcDbLine
 10
132.7653551233394
 20
359.0395251030346
 30
0.0
 11
136.9204459300632
 21
363.1946159097585
 31
0.0
  0
LINE
  5
3014
330
2FEB
100
AcDbEntity
  8
0
 62
     0
100
AcDbLine
 10
132.7802748397338
 20
359.1958661756664
 30
0.0
 11
136.7641048574315
 21
363.1796961933641
 31
0.0
  0
LINE
  5
3015
330
2FEB
100
AcDbEntity
  8
0
 62
     0
100
AcDbLine
 10
132.8016749958385
 20
359.3586876880083
 30
0.0
 11
136.6012833450895
 21
363.1582960372594
 31
0.0
  0
LINE
  5
3016
330
2FEB
100
AcDbEntity
  8
0
 62
     0
100
AcDbLine
 10
132.8305500607733
 20
359.5289841091804
 30
0.0
 11
136.4309869239174
 21
363.1294209723246
 31
0.0
  0
LINE
  5
3017
330
2FEB
100
AcDbEntity
  8
0
 62
     0
100
AcDbLine
 10
132.8682194942862
 20
359.7080748989307
 30
0.0
 11
136.2518961341672
 21
363.0917515388116
 31
0.0
  0
LINE
  5
3018
330
2FEB
100
AcDbEntity
  8
0
 62
     0
100
AcDbLine
 10
132.9165002267535
 20
359.8977769876352
 30
0.0
 11
136.0621940454626
 21
363.0434708063444
 31
0.0
  0
LINE
  5
3019
330
2FEB
100
AcDbEntity
  8
0
 62
     0
100
AcDbLine
 10
132.9780192639669
 20
360.1007173810859
 30
0.0
 11
135.8592536520119
 21
362.981951769131
 31
0.0
  0
LINE
  5
301A
330
2FEB
100
AcDbEntity
  8
0
 62
     0
100
AcDbLine
 10
133.0568377119371
 20
360.3209571852935
 30
0.0
 11
135.6390138478043
 21
362.9031333211607
 31
0.0
  0
LINE
  5
301B
330
2FEB
100
AcDbEntity
  8
0
 62
     0
100
AcDbLine
 10
133.1598794768802
 20
360.5654203064739
 30
0.0
 11
135.3945507266239
 21
362.8000915562176
 31
0.0
  0
LINE
  5
301C
330
2FEB
100
AcDbEntity
  8
0
 62
     0
100
AcDbLine
 10
133.3009828070748
 20
360.8479449929058
 30
0.0
 11
135.1120260401921
 21
362.6589882260231
 31
0.0
  0
LINE
  5
301D
330
2FEB
100
AcDbEntity
  8
0
 62
     0
100
AcDbLine
 10
133.5181369658206
 20
361.2065205078888
 30
0.0
 11
134.753450525209
 21
362.4418340672773
 31
0.0
  0
LINE
  5
301E
330
2FEB
100
AcDbEntity
  8
0
 62
     0
100
AcDbLine
 10
310.9220966052614
 20
362.2580489194048
 30
0.0
 11
311.1208090047826
 21
362.456761318926
 31
0.0
  0
LINE
  5
301F
330
2FEB
100
AcDbEntity
  8
0
 62
     0
100
AcDbLine
 10
310.9969667350342
 20
362.1914976929402
 30
0.0
 11
311.4732662264306
 21
362.6677971843366
 31
0.0
  0
LINE
  5
3020
330
2FEB
100
AcDbEntity
  8
0
 62
     0
100
AcDbLine
 10
311.0718368648068
 20
362.1249464664755
 30
0.0
 11
311.7532030591409
 21
362.8063126608096
 31
0.0
  0
LINE
  5
3021
330
2FEB
100
AcDbEntity
  8
0
 62
     0
100
AcDbLine
 10
311.1467069945795
 20
362.058395240011
 30
0.0
 11
311.9961329777567
 21
362.9078212231881
 31
0.0
  0
LINE
  5
3022
330
2FEB
100
AcDbEntity
  8
0
 62
     0
100
AcDbLine
 10
311.2215771243522
 20
361.9918440135463
 30
0.0
 11
312.2153212211108
 21
362.9855881103049
 31
0.0
  0
LINE
  5
3023
330
2FEB
100
AcDbEntity
  8
0
 62
     0
100
AcDbLine
 10
311.2964472541249
 20
361.9252927870817
 30
0.0
 11
312.4174776859232
 21
363.04632321888
 31
0.0
  0
LINE
  5
3024
330
2FEB
100
AcDbEntity
  8
0
 62
     0
100
AcDbLine
 10
311.3713173838976
 20
361.8587415606171
 30
0.0
 11
312.6065628393452
 21
363.0939870160648
 31
0.0
  0
LINE
  5
3025
330
2FEB
100
AcDbEntity
  8
0
 62
     0
100
AcDbLine
 10
311.4461875136703
 20
361.7921903341525
 30
0.0
 11
312.7851492472008
 21
363.1311520676829
 31
0.0
  0
LINE
  5
3026
330
2FEB
100
AcDbEntity
  8
0
 62
     0
100
AcDbLine
 10
311.521057643443
 20
361.7256391076879
 30
0.0
 11
312.9550214499471
 21
363.159602914192
 31
0.0
  0
LINE
  5
3027
330
2FEB
100
AcDbEntity
  8
0
 62
     0
100
AcDbLine
 10
311.5959277732157
 20
361.6590878812232
 30
0.0
 11
313.1174782542608
 21
363.1806383622683
 31
0.0
  0
LINE
  5
3028
330
2FEB
100
AcDbEntity
  8
0
 62
     0
100
AcDbLine
 10
311.6707979029884
 20
361.5925366547586
 30
0.0
 11
313.2735002457891
 21
363.1952389975593
 31
0.0
  0
LINE
  5
3029
330
2FEB
100
AcDbEntity
  8
0
 62
     0
100
AcDbLine
 10
311.745668032761
 20
361.525985428294
 30
0.0
 11
313.4238494632129
 21
363.2041668587458
 31
0.0
  0
LINE
  5
302A
330
2FEB
100
AcDbEntity
  8
0
 62
     0
100
AcDbLine
 10
311.8205381625338
 20
361.4594342018293
 30
0.0
 11
313.5691320916832
 21
363.2080281309789
 31
0.0
  0
LINE
  5
302B
330
2FEB
100
AcDbEntity
  8
0
 62
     0
100
AcDbLine
 10
311.8954082923064
 20
361.3928829753648
 30
0.0
 11
313.7098396938175
 21
363.2073143768758
 31
0.0
  0
LINE
  5
302C
330
2FEB
100
AcDbEntity
  8
0
 62
     0
100
AcDbLine
 10
311.9702784220792
 20
361.3263317489002
 30
0.0
 11
313.8463773375784
 21
363.2024306643994
 31
0.0
  0
LINE
  5
302D
330
2FEB
100
AcDbEntity
  8
0
 62
     0
100
AcDbLine
 10
312.0451485518518
 20
361.2597805224356
 30
0.0
 11
313.9790833826736
 21
363.1937153532573
 31
0.0
  0
LINE
  5
302E
330
2FEB
100
AcDbEntity
  8
0
 62
     0
100
AcDbLine
 10
312.1200186816245
 20
361.1932292959709
 30
0.0
 11
314.1082437664886
 21
363.181454380835
 31
0.0
  0
LINE
  5
302F
330
2FEB
100
AcDbEntity
  8
0
 62
     0
100
AcDbLine
 10
312.1948888113972
 20
361.1266780695063
 30
0.0
 11
314.2341025522989
 21
363.1658918104081
 31
0.0
  0
LINE
  5
3030
330
2FEB
100
AcDbEntity
  8
0
 62
     0
100
AcDbLine
 10
312.2697589411699
 20
361.0601268430417
 30
0.0
 11
314.3568698707666
 21
363.1472377726383
 31
0.0
  0
LINE
  5
3031
330
2FEB
100
AcDbEntity
  8
0
 62
     0
100
AcDbLine
 10
312.3446290709426
 20
360.9935756165771
 30
0.0
 11
314.4767280017749
 21
363.1256745474094
 31
0.0
  0
LINE
  5
3032
330
2FEB
100
AcDbEntity
  8
0
 62
     0
100
AcDbLine
 10
312.4194992007153
 20
360.9270243901125
 30
0.0
 11
314.5938361027628
 21
363.10136129216
 31
0.0
  0
LINE
  5
3033
330
2FEB
100
AcDbEntity
  8
0
 62
     0
100
AcDbLine
 10
312.494369330488
 20
360.8604731636479
 30
0.0
 11
314.7083339342785
 21
363.0744377674384
 31
0.0
  0
LINE
  5
3034
330
2FEB
100
AcDbEntity
  8
0
 62
     0
100
AcDbLine
 10
312.5692394602607
 20
360.7939219371832
 30
0.0
 11
314.8203448306741
 21
363.0450273075966
 31
0.0
  0
LINE
  5
3035
330
2FEB
100
AcDbEntity
  8
0
 62
     0
100
AcDbLine
 10
312.6441095900334
 20
360.7273707107186
 30
0.0
 11
314.9299780943514
 21
363.0132392150366
 31
0.0
  0
LINE
  5
3036
330
2FEB
100
AcDbEntity
  8
0
 62
     0
100
AcDbLine
 10
312.718979719806
 20
360.660819484254
 30
0.0
 11
315.0373309440293
 21
362.9791707084773
 31
0.0
  0
LINE
  5
3037
330
2FEB
100
AcDbEntity
  8
0
 62
     0
100
AcDbLine
 10
312.7938498495788
 20
360.5942682577894
 30
0.0
 11
315.1424901138418
 21
362.9429085220524
 31
0.0
  0
LINE
  5
3038
330
2FEB
100
AcDbEntity
  8
0
 62
     0
100
AcDbLine
 10
312.8687199793514
 20
360.5277170313248
 30
0.0
 11
315.2455331760527
 21
362.904530228026
 31
0.0
  0
LINE
  5
3039
330
2FEB
100
AcDbEntity
  8
0
 62
     0
100
AcDbLine
 10
312.9435901091242
 20
360.4611658048601
 30
0.0
 11
315.346529642778
 21
362.864105338514
 31
0.0
  0
LINE
  5
303A
330
2FEB
100
AcDbEntity
  8
0
 62
     0
100
AcDbLine
 10
313.0184602388969
 20
360.3946145783955
 30
0.0
 11
315.4455418893235
 21
362.8216962288222
 31
0.0
  0
LINE
  5
303B
330
2FEB
100
AcDbEntity
  8
0
 62
     0
100
AcDbLine
 10
313.0933303686695
 20
360.3280633519309
 30
0.0
 11
315.5426259322548
 21
362.7773589155162
 31
0.0
  0
LINE
  5
303C
330
2FEB
100
AcDbEntity
  8
0
 62
     0
100
AcDbLine
 10
313.1682004984422
 20
360.2615121254663
 30
0.0
 11
315.6378320881642
 21
362.7311437151883
 31
0.0
  0
LINE
  5
303D
330
2FEB
100
AcDbEntity
  8
0
 62
     0
100
AcDbLine
 10
313.2430706282149
 20
360.1949608990017
 30
0.0
 11
315.7312055336699
 21
362.6830958044566
 31
0.0
  0
LINE
  5
303E
330
2FEB
100
AcDbEntity
  8
0
 62
     0
100
AcDbLine
 10
313.3179407579876
 20
360.128409672537
 30
0.0
 11
315.8227867830054
 21
362.6332556975549
 31
0.0
  0
LINE
  5
303F
330
2FEB
100
AcDbEntity
  8
0
 62
     0
100
AcDbLine
 10
313.3928108877603
 20
360.0618584460725
 30
0.0
 11
315.9126120963219
 21
362.5816596546341
 31
0.0
  0
LINE
  5
3040
330
2FEB
100
AcDbEntity
  8
0
 62
     0
100
AcDbLine
 10
313.467681017533
 20
359.9953072196078
 30
0.0
 11
316.0007138292879
 21
362.5283400313627
 31
0.0
  0
LINE
  5
3041
330
2FEB
100
AcDbEntity
  8
0
 62
     0
100
AcDbLine
 10
313.5425511473057
 20
359.9287559931432
 30
0.0
 11
316.0871207325712
 21
362.4733255784087
 31
0.0
  0
LINE
  5
3042
330
2FEB
100
AcDbEntity
  8
0
 62
     0
100
AcDbLine
 10
313.6174212770784
 20
359.8622047666786
 30
0.0
 11
316.1718582081904
 21
362.4166416977906
 31
0.0
  0
LINE
  5
3043
330
2FEB
100
AcDbEntity
  8
0
 62
     0
100
AcDbLine
 10
313.6922914068511
 20
359.7956535402139
 30
0.0
 11
316.2549485284398
 21
362.3583106618027
 31
0.0
  0
LINE
  5
3044
330
2FEB
100
AcDbEntity
  8
0
 62
     0
100
AcDbLine
 10
313.7671615366238
 20
359.7291023137494
 30
0.0
 11
316.3364110220522
 21
362.2983517991778
 31
0.0
  0
LINE
  5
3045
330
2FEB
100
AcDbEntity
  8
0
 62
     0
100
AcDbLine
 10
313.8420316663964
 20
359.6625510872847
 30
0.0
 11
316.4162622314085
 21
362.2367816522968
 31
0.0
  0
LINE
  5
3046
330
2FEB
100
AcDbEntity
  8
0
 62
     0
100
AcDbLine
 10
313.9169017961692
 20
359.5959998608202
 30
0.0
 11
316.4945160438976
 21
362.1736141085485
 31
0.0
  0
LINE
  5
3047
330
2FEB
100
AcDbEntity
  8
0
 62
     0
100
AcDbLine
 10
313.9917719259419
 20
359.5294486343555
 30
0.0
 11
316.5711837999386
 21
362.1088605083523
 31
0.0
  0
LINE
  5
3048
330
2FEB
100
AcDbEntity
  8
0
 62
     0
100
AcDbLine
 10
314.0666420557146
 20
359.4628974078909
 30
0.0
 11
316.6462743796722
 21
362.0425297318486
 31
0.0
  0
LINE
  5
3049
330
2FEB
100
AcDbEntity
  8
0
 62
     0
100
AcDbLine
 10
314.1415121854872
 20
359.3963461814263
 30
0.0
 11
316.7197942698956
 21
361.9746282658346
 31
0.0
  0
LINE
  5
304A
330
2FEB
100
AcDbEntity
  8
0
 62
     0
100
AcDbLine
 10
314.2163823152599
 20
359.3297949549616
 30
0.0
 11
316.7917476124314
 21
361.9051602521332
 31
0.0
  0
LINE
  5
304B
330
2FEB
100
AcDbEntity
  8
0
 62
     0
100
AcDbLine
 10
314.2912524450326
 20
359.263243728497
 30
0.0
 11
316.8621362347814
 21
361.8341275182458
 31
0.0
  0
LINE
  5
304C
330
2FEB
100
AcDbEntity
  8
0
 62
     0
100
AcDbLine
 10
314.3661225748053
 20
359.1966925020324
 30
0.0
 11
316.9309596635932
 21
361.7615295908203
 31
0.0
  0
LINE
  5
304D
330
2FEB
100
AcDbEntity
  8
0
 62
     0
100
AcDbLine
 10
314.440992704578
 20
359.1301412755678
 30
0.0
 11
316.9982151211759
 21
361.6873636921657
 31
0.0
  0
LINE
  5
304E
330
2FEB
100
AcDbEntity
  8
0
 62
     0
100
AcDbLine
 10
314.5796707134678
 20
359.1273979282203
 30
0.0
 11
317.0638975050021
 21
361.6116247197547
 31
0.0
  0
LINE
  5
304F
330
2FEB
100
AcDbEntity
  8
0
 62
     0
100
AcDbLine
 10
314.7210920697052
 20
359.1273979282203
 30
0.0
 11
317.1279993498436
 21
361.5343052083587
 31
0.0
  0
LINE
  5
3050
330
2FEB
100
AcDbEntity
  8
0
 62
     0
100
AcDbLine
 10
314.8625134259424
 20
359.1273979282203
 30
0.0
 11
317.1905107718793
 21
361.4553952741572
 31
0.0
  0
LINE
  5
3051
330
2FEB
100
AcDbEntity
  8
0
 62
     0
100
AcDbLine
 10
315.0039347821798
 20
359.1273979282203
 30
0.0
 11
317.2514193937932
 21
361.3748825398337
 31
0.0
  0
LINE
  5
3052
330
2FEB
100
AcDbEntity
  8
0
 62
     0
100
AcDbLine
 10
315.1453561384171
 20
359.1273979282203
 30
0.0
 11
317.3107102495141
 21
361.2927520393173
 31
0.0
  0
LINE
  5
3053
330
2FEB
100
AcDbEntity
  8
0
 62
     0
100
AcDbLine
 10
315.2867774946543
 20
359.1273979282203
 30
0.0
 11
317.3683656668561
 21
361.2089861004221
 31
0.0
  0
LINE
  5
3054
330
2FEB
100
AcDbEntity
  8
0
 62
     0
100
AcDbLine
 10
315.4281988508917
 20
359.1273979282203
 30
0.0
 11
317.4243651258519
 21
361.1235642031806
 31
0.0
  0
LINE
  5
3055
330
2FEB
100
AcDbEntity
  8
0
 62
     0
100
AcDbLine
 10
315.4889973945147
 20
359.0467751156061
 30
0.0
 11
317.4786850900367
 21
361.036462811128
 31
0.0
  0
LINE
  5
3056
330
2FEB
100
AcDbEntity
  8
0
 62
     0
100
AcDbLine
 10
315.5395976962877
 20
358.9559540611418
 30
0.0
 11
317.5312988073033
 21
360.9476551721574
 31
0.0
  0
LINE
  5
3057
330
2FEB
100
AcDbEntity
  8
0
 62
     0
100
AcDbLine
 10
315.5901979980607
 20
358.8651330066774
 30
0.0
 11
317.5821760761889
 21
360.8571110848056
 31
0.0
  0
LINE
  5
3058
330
2FEB
100
AcDbEntity
  8
0
 62
     0
100
AcDbLine
 10
315.6407982998337
 20
358.7743119522131
 30
0.0
 11
317.6312829725243
 21
360.7647966249037
 31
0.0
  0
LINE
  5
3059
330
2FEB
100
AcDbEntity
  8
0
 62
     0
100
AcDbLine
 10
315.6913986016067
 20
358.6834908977488
 30
0.0
 11
317.6785815302482
 21
360.6706738263903
 31
0.0
  0
LINE
  5
305A
330
2FEB
100
AcDbEntity
  8
0
 62
     0
100
AcDbLine
 10
315.7419989033797
 20
358.5926698432845
 30
0.0
 11
317.724029368783
 21
360.5747003086878
 31
0.0
  0
LINE
  5
305B
330
2FEB
100
AcDbEntity
  8
0
 62
     0
100
AcDbLine
 10
315.7925992051527
 20
358.5018487888201
 30
0.0
 11
317.7675792576208
 21
360.4768288412882
 31
0.0
  0
LINE
  5
305C
330
2FEB
100
AcDbEntity
  8
0
 62
     0
100
AcDbLine
 10
315.8431995069256
 20
358.4110277343558
 30
0.0
 11
317.8091786065609
 21
360.377006833991
 31
0.0
  0
LINE
  5
305D
330
2FEB
100
AcDbEntity
  8
0
 62
     0
100
AcDbLine
 10
315.8937998086986
 20
358.3202066798914
 30
0.0
 11
317.8487688672442
 21
360.275175738437
 31
0.0
  0
LINE
  5
305E
330
2FEB
100
AcDbEntity
  8
0
 62
     0
100
AcDbLine
 10
315.9444001104716
 20
358.2293856254271
 30
0.0
 11
317.886284828033
 21
360.1712703429885
 31
0.0
  0
LINE
  5
305F
330
2FEB
100
AcDbEntity
  8
0
 62
     0
100
AcDbLine
 10
315.9950004122446
 20
358.1385645709628
 30
0.0
 11
317.9216537796428
 21
360.0652179383611
 31
0.0
  0
LINE
  5
3060
330
2FEB
100
AcDbEntity
  8
0
 62
     0
100
AcDbLine
 10
316.0456007140175
 20
358.0477435164985
 30
0.0
 11
317.9547945228543
 21
359.9569373253352
 31
0.0
  0
LINE
  5
3061
330
2FEB
100
AcDbEntity
  8
0
 62
     0
100
AcDbLine
 10
316.0962010157906
 20
357.9569224620341
 30
0.0
 11
317.9856161816117
 21
359.8463376278553
 31
0.0
  0
LINE
  5
3062
330
2FEB
100
AcDbEntity
  8
0
 62
     0
100
AcDbLine
 10
316.1468013175635
 20
357.8661014075698
 30
0.0
 11
318.0140167740994
 21
359.7333168641057
 31
0.0
  0
LINE
  5
3063
330
2FEB
100
AcDbEntity
  8
0
 62
     0
100
AcDbLine
 10
316.1974016193365
 20
357.7752803531055
 30
0.0
 11
318.0398814798995
 21
359.6177602136684
 31
0.0
  0
LINE
  5
3064
330
2FEB
100
AcDbEntity
  8
0
 62
     0
100
AcDbLine
 10
316.2480019211095
 20
357.6844592986412
 30
0.0
 11
318.0630805215007
 21
359.4995378990324
 31
0.0
  0
LINE
  5
3065
330
2FEB
100
AcDbEntity
  8
0
 62
     0
100
AcDbLine
 10
316.2986022228825
 20
357.5936382441768
 30
0.0
 11
318.0834665508774
 21
359.3785025721718
 31
0.0
  0
LINE
  5
3066
330
2FEB
100
AcDbEntity
  8
0
 62
     0
100
AcDbLine
 10
316.3492025246554
 20
357.5028171897125
 30
0.0
 11
318.1008713930008
 21
359.2544860580578
 31
0.0
  0
LINE
  5
3067
330
2FEB
100
AcDbEntity
  8
0
 62
     0
100
AcDbLine
 10
316.3998028264284
 20
357.4119961352482
 30
0.0
 11
318.1151019424104
 21
359.1272952512301
 31
0.0
  0
LINE
  5
3068
330
2FEB
100
AcDbEntity
  8
0
 62
     0
100
AcDbLine
 10
316.4504031282014
 20
357.3211750807839
 30
0.0
 11
318.1259349275152
 21
358.9967068800976
 31
0.0
  0
LINE
  5
3069
330
2FEB
100
AcDbEntity
  8
0
 62
     0
100
AcDbLine
 10
316.5010034299744
 20
357.2303540263196
 30
0.0
 11
318.1331101357618
 21
358.862460732107
 31
0.0
  0
LINE
  5
306A
330
2FEB
100
AcDbEntity
  8
0
 62
     0
100
AcDbLine
 10
316.5516037317474
 20
357.1395329718552
 30
0.0
 11
318.1363215072338
 21
358.7242507473416
 31
0.0
  0
LINE
  5
306B
330
2FEB
100
AcDbEntity
  8
0
 62
     0
100
AcDbLine
 10
316.6022040335203
 20
357.0487119173909
 30
0.0
 11
318.1352052134305
 21
358.581713097301
 31
0.0
  0
LINE
  5
306C
330
2FEB
100
AcDbEntity
  8
0
 62
     0
100
AcDbLine
 10
316.6528043352934
 20
356.9578908629265
 30
0.0
 11
318.1293233685956
 21
358.4344098962288
 31
0.0
  0
LINE
  5
306D
330
2FEB
100
AcDbEntity
  8
0
 62
     0
100
AcDbLine
 10
316.7034046370663
 20
356.8670698084623
 30
0.0
 11
318.1181412374154
 21
358.2818064088113
 31
0.0
  0
LINE
  5
306E
330
2FEB
100
AcDbEntity
  8
0
 62
     0
100
AcDbLine
 10
316.7540049388393
 20
356.7762487539979
 30
0.0
 11
318.100994442934
 21
358.1232382580926
 31
0.0
  0
LINE
  5
306F
330
2FEB
100
AcDbEntity
  8
0
 62
     0
100
AcDbLine
 10
316.8046052406123
 20
356.6854276995336
 30
0.0
 11
318.0770402079897
 21
357.957862666911
 31
0.0
  0
LINE
  5
3070
330
2FEB
100
AcDbEntity
  8
0
 62
     0
100
AcDbLine
 10
316.8552055423853
 20
356.5946066450692
 30
0.0
 11
318.0451819257146
 21
357.7845830283986
 31
0.0
  0
LINE
  5
3071
330
2FEB
100
AcDbEntity
  8
0
 62
     0
100
AcDbLine
 10
316.9058058441582
 20
356.5037855906049
 30
0.0
 11
318.0039466539205
 21
357.6019264003671
 31
0.0
  0
LINE
  5
3072
330
2FEB
100
AcDbEntity
  8
0
 62
     0
100
AcDbLine
 10
316.9564061459312
 20
356.4129645361406
 30
0.0
 11
317.9512735874545
 21
357.4078319776639
 31
0.0
  0
LINE
  5
3073
330
2FEB
100
AcDbEntity
  8
0
 62
     0
100
AcDbLine
 10
317.0070064477042
 20
356.3221434816763
 30
0.0
 11
317.8841185125646
 21
357.1992555465367
 31
0.0
  0
LINE
  5
3074
330
2FEB
100
AcDbEntity
  8
0
 62
     0
100
AcDbLine
 10
317.0576067494772
 20
356.2313224272119
 30
0.0
 11
317.7976292752549
 21
356.9713449529896
 31
0.0
  0
LINE
  5
3075
330
2FEB
100
AcDbEntity
  8
0
 62
     0
100
AcDbLine
 10
317.1082070512502
 20
356.1405013727476
 30
0.0
 11
317.6831315635734
 21
356.7154258850709
 31
0.0
  0
LINE
  5
3076
330
2FEB
100
AcDbEntity
  8
0
 62
     0
100
AcDbLine
 10
317.1588073530232
 20
356.0496803182833
 30
0.0
 11
317.5217426953021
 21
356.4126156605623
 31
0.0
  0
LINE
  5
3077
330
2FEB
100
AcDbEntity
  8
0
 62
     0
100
AcDbLine
 10
317.2094076547962
 20
355.958859263819
 30
0.0
 11
317.2485881917904
 21
355.9980398008132
 31
0.0
  0
ENDBLK
  5
3078
330
2FEB
100
AcDbEntity
  8
0
100
AcDbBlockEnd
  0
BLOCK
  5
31F3
330
31E8
100
AcDbEntity
  8
0
100
AcDbBlockBegin
  2
*D3
 70
     1
 10
0.0
 20
0.0
 30
0.0
  3
*D3
  1

  0
LINE
  5
3357
330
31E8
100
AcDbEntity
  8
BEM
 62
     0
370
    -2
100
AcDbLine
 10
281.8122585588119
 20
462.4852131468172
 30
0.0
 11
274.8122585588119
 21
462.4852131468172
 31
0.0
  0
LINE
  5
3358
330
31E8
100
AcDbEntity
  8
BEM
 62
     0
370
    -2
100
AcDbLine
 10
298.3122585588119
 20
462.4852131468172
 30
0.0
 11
323.0455918921452
 21
462.4852131468172
 31
0.0
  0
LINE
  5
3359
330
31E8
100
AcDbEntity
  8
BEM
 62
     0
370
    -2
100
AcDbLine
 10
288.8122585588119
 20
462.4852131468172
 30
0.0
 11
291.3122585588119
 21
462.4852131468172
 31
0.0
  0
SOLID
  5
335A
330
31E8
100
AcDbEntity
  8
BEM
 62
     0
100
AcDbTrace
 10
281.8122585588119
 20
463.651879813484
 30
0.0
 11
281.8122585588119
 21
461.3185464801506
 31
0.0
 12
288.8122585588119
 22
462.4852131468172
 32
0.0
 13
288.8122585588119
 23
462.4852131468172
 33
0.0
  0
SOLID
  5
335B
330
31E8
100
AcDbEntity
  8
BEM
 62
     0
100
AcDbTrace
 10
298.3122585588119
 20
463.651879813484
 30
0.0
 11
298.3122585588119
 21
461.3185464801506
 31
0.0
 12
291.3122585588119
 22
462.4852131468172
 32
0.0
 13
291.3122585588119
 23
462.4852131468172
 33
0.0
  0
MTEXT
  5
335C
330
31E8
100
AcDbEntity
  8
BEM
 62
     1
100
AcDbMText
 10
314.1789252254786
 20
468.9852131468173
 30
0.0
 40
7.0
 41
0.0
 71
     5
 72
     1
  1
\A1;2.5
 73
     1
 44
1.0
  0
POINT
  5
335D
330
31E8
100
AcDbEntity
  8
DEFPOINTS
 62
     0
100
AcDbPoint
 10
288.8122585588119
 20
462.4852131468172
 30
0.0
  0
POINT
  5
335E
330
31E8
100
AcDbEntity
  8
DEFPOINTS
 62
     0
100
AcDbPoint
 10
291.3122585588119
 20
462.4852131468172
 30
0.0
  0
POINT
  5
335F
330
31E8
100
AcDbEntity
  8
DEFPOINTS
 62
     0
100
AcDbPoint
 10
291.3122585588119
 20
462.4852131468172
 30
0.0
  0
ENDBLK
  5
31F4
330
31E8
100
AcDbEntity
  8
0
100
AcDbBlockEnd
  0
BLOCK
  5
3241
330
3236
100
AcDbEntity
  8
0
100
AcDbBlockBegin
  2
*D4
 70
     1
 10
0.0
 20
0.0
 30
0.0
  3
*D4
  1

  0
LINE
  5
33BA
330
3236
100
AcDbEntity
  8
BEM
 62
     0
370
    -2
100
AcDbLine
 10
336.3122585588119
 20
289.0036923745002
 30
0.0
 11
343.3122585588119
 21
289.0036923745002
 31
0.0
  0
LINE
  5
33BB
330
3236
100
AcDbEntity
  8
BEM
 62
     0
370
    -2
100
AcDbLine
 10
319.3122585588119
 20
289.0036923745002
 30
0.0
 11
294.8455918921453
 21
289.0036923745002
 31
0.0
  0
LINE
  5
33BC
330
3236
100
AcDbEntity
  8
BEM
 62
     0
370
    -2
100
AcDbLine
 10
329.3122585588119
 20
289.0036923745002
 30
0.0
 11
326.3122585588119
 21
289.0036923745002
 31
0.0
  0
SOLID
  5
33BD
330
3236
100
AcDbEntity
  8
BEM
 62
     0
100
AcDbTrace
 10
336.3122585588119
 20
290.1703590411669
 30
0.0
 11
336.3122585588119
 21
287.8370257078336
 31
0.0
 12
329.3122585588119
 22
289.0036923745002
 32
0.0
 13
329.3122585588119
 23
289.0036923745002
 33
0.0
  0
SOLID
  5
33BE
330
3236
100
AcDbEntity
  8
BEM
 62
     0
100
AcDbTrace
 10
319.3122585588119
 20
290.1703590411669
 30
0.0
 11
319.3122585588119
 21
287.8370257078336
 31
0.0
 12
326.3122585588119
 22
289.0036923745002
 32
0.0
 13
326.3122585588119
 23
289.0036923745002
 33
0.0
  0
MTEXT
  5
33BF
330
3236
100
AcDbEntity
  8
BEM
 62
     1
100
AcDbMText
 10
303.5789252254785
 20
295.5036923745002
 30
0.0
 40
7.0
 41
0.0
 71
     5
 72
     1
  1
\A1;2.9
 73
     1
 44
1.0
  0
POINT
  5
33C0
330
3236
100
AcDbEntity
  8
DEFPOINTS
 62
     0
100
AcDbPoint
 10
329.3122585588119
 20
289.0036923745002
 30
0.0
  0
POINT
  5
33C1
330
3236
100
AcDbEntity
  8
DEFPOINTS
 62
     0
100
AcDbPoint
 10
326.3122585588119
 20
289.0036923745002
 30
0.0
  0
POINT
  5
33C2
330
3236
100
AcDbEntity
  8
DEFPOINTS
 62
     0
100
AcDbPoint
 10
326.3122585588119
 20
289.0036923745002
 30
0.0
  0
ENDBLK
  5
3242
330
3236
100
AcDbEntity
  8
0
100
AcDbBlockEnd
  0
BLOCK
  5
324E
330
3243
100
AcDbEntity
  8
0
100
AcDbBlockBegin
  2
*D5
 70
     1
 10
0.0
 20
0.0
 30
0.0
  3
*D5
  1

  0
LINE
  5
3415
330
3243
100
AcDbEntity
  8
BEM
 62
     0
370
    -2
100
AcDbLine
 10
110.3122585588118
 20
233.0210204573225
 30
0.0
 11
110.3122585588118
 21
193.0953822077051
 31
0.0
  0
LINE
  5
3416
330
3243
100
AcDbEntity
  8
BEM
 62
     0
370
    -2
100
AcDbLine
 10
329.3122585588119
 20
233.0210204573225
 30
0.0
 11
329.3122585588119
 21
193.0953822077051
 31
0.0
  0
LINE
  5
3417
330
3243
100
AcDbEntity
  8
BEM
 62
     0
370
    -2
100
AcDbLine
 10
117.3122585588118
 20
195.0953822077051
 30
0.0
 11
322.3122585588119
 21
195.0953822077051
 31
0.0
  0
SOLID
  5
3418
330
3243
100
AcDbEntity
  8
BEM
 62
     0
100
AcDbTrace
 10
117.3122585588118
 20
196.2620488743718
 30
0.0
 11
117.3122585588118
 21
193.9287155410385
 31
0.0
 12
110.3122585588118
 22
195.0953822077051
 32
0.0
 13
110.3122585588118
 23
195.0953822077051
 33
0.0
  0
SOLID
  5
3419
330
3243
100
AcDbEntity
  8
BEM
 62
     0
100
AcDbTrace
 10
322.3122585588119
 20
196.2620488743718
 30
0.0
 11
322.3122585588119
 21
193.9287155410385
 31
0.0
 12
329.3122585588119
 22
195.0953822077051
 32
0.0
 13
329.3122585588119
 23
195.0953822077051
 33
0.0
  0
MTEXT
  5
341A
330
3243
100
AcDbEntity
  8
BEM
 62
     1
100
AcDbMText
 10
219.8122585588119
 20
201.5953822077052
 30
0.0
 40
7.0
 41
0.0
 71
     5
 72
     1
  1
\A1;%%C219
 73
     1
 44
1.0
  0
POINT
  5
341B
330
3243
100
AcDbEntity
  8
DEFPOINTS
 62
     0
100
AcDbPoint
 10
110.3122585588118
 20
235.0210204573225
 30
0.0
  0
POINT
  5
341C
330
3243
100
AcDbEntity
  8
DEFPOINTS
 62
     0
100
AcDbPoint
 10
329.3122585588119
 20
235.0210204573225
 30
0.0
  0
POINT
  5
341D
330
3243
100
AcDbEntity
  8
DEFPOINTS
 62
     0
100
AcDbPoint
 10
329.3122585588119
 20
195.0953822077051
 30
0.0
  0
ENDBLK
  5
324F
330
3243
100
AcDbEntity
  8
0
100
AcDbBlockEnd
  0
BLOCK
  5
329C
330
3291
100
AcDbEntity
  8
0
100
AcDbBlockBegin
  2
*D6
 70
     1
 10
0.0
 20
0.0
 30
0.0
  3
*D6
  1

  0
LINE
  5
3360
330
3291
100
AcDbEntity
  8
BEM
 62
     0
370
    -2
100
AcDbLine
 10
110.0620318293303
 20
222.2508534354817
 30
0.0
 11
86.31861477528387
 21
222.2508534354817
 31
0.0
  0
LINE
  5
3361
330
3291
100
AcDbEntity
  8
BEM
 62
     0
370
    -2
100
AcDbLine
 10
109.1705150390041
 20
342.2508534354818
 30
0.0
 11
86.3186147752839
 21
342.2508534354818
 31
0.0
  0
LINE
  5
3362
330
3291
100
AcDbEntity
  8
BEM
 62
     0
370
    -2
100
AcDbLine
 10
88.3186147752839
 20
229.2508534354817
 30
0.0
 11
88.3186147752839
 21
335.2508534354817
 31
0.0
  0
SOLID
  5
3363
330
3291
100
AcDbEntity
  8
BEM
 62
     0
100
AcDbTrace
 10
87.15194810861722
 20
229.2508534354817
 30
0.0
 11
89.48528144195057
 21
229.2508534354817
 31
0.0
 12
88.31861477528388
 22
222.2508534354817
 32
0.0
 13
88.31861477528388
 23
222.2508534354817
 33
0.0
  0
SOLID
  5
3364
330
3291
100
AcDbEntity
  8
BEM
 62
     0
100
AcDbTrace
 10
87.15194810861722
 20
335.2508534354817
 30
0.0
 11
89.48528144195057
 21
335.2508534354817
 31
0.0
 12
88.3186147752839
 22
342.2508534354818
 32
0.0
 13
88.3186147752839
 23
342.2508534354818
 33
0.0
  0
MTEXT
  5
3365
330
3291
100
AcDbEntity
  8
BEM
 62
     1
100
AcDbMText
 10
81.81861477528384
 20
282.2508534354818
 30
0.0
 40
7.0
 41
0.0
 71
     5
 72
     1
  1
\A1;120
 11
0.0000000000000001
 21
1.0
 31
0.0
 73
     1
 44
1.0
  0
POINT
  5
3366
330
3291
100
AcDbEntity
  8
DEFPOINTS
 62
     0
100
AcDbPoint
 10
112.0620318293303
 20
222.2508534354817
 30
0.0
  0
POINT
  5
3367
330
3291
100
AcDbEntity
  8
DEFPOINTS
 62
     0
100
AcDbPoint
 10
111.1705150390041
 20
342.2508534354818
 30
0.0
  0
POINT
  5
3368
330
3291
100
AcDbEntity
  8
DEFPOINTS
 62
     0
100
AcDbPoint
 10
88.3186147752839
 20
342.2508534354818
 30
0.0
  0
ENDBLK
  5
329D
330
3291
100
AcDbEntity
  8
0
100
AcDbBlockEnd
  0
BLOCK
  5
33CE
330
33C4
100
AcDbEntity
  8
0
100
AcDbBlockBegin
  2
*D7
 70
     1
 10
0.0
 20
0.0
 30
0.0
  3
*D7
  1

  0
LINE
  5
33D0
330
33C4
100
AcDbEntity
  8
BEM
 62
     0
370
    -2
100
AcDbLine
 10
145.0538137614056
 20
522.2508534354817
 30
0.0
 11
71.00955708330508
 21
522.2508534354817
 31
0.0
  0
LINE
  5
33D1
330
33C4
100
AcDbEntity
  8
BEM
 62
     0
370
    -2
100
AcDbLine
 10
110.0620318293303
 20
222.2508534354817
 30
0.0
 11
71.00955708330501
 21
222.2508534354817
 31
0.0
  0
LINE
  5
33D2
330
33C4
100
AcDbEntity
  8
BEM
 62
     0
370
    -2
100
AcDbLine
 10
73.00955708330508
 20
515.2508534354817
 30
0.0
 11
73.00955708330502
 21
229.2508534354817
 31
0.0
  0
SOLID
  5
33D3
330
33C4
100
AcDbEntity
  8
BEM
 62
     0
100
AcDbTrace
 10
71.84289041663841
 20
515.2508534354817
 30
0.0
 11
74.17622374997176
 21
515.2508534354817
 31
0.0
 12
73.00955708330508
 22
522.2508534354817
 32
0.0
 13
73.00955708330508
 23
522.2508534354817
 33
0.0
  0
SOLID
  5
33D4
330
33C4
100
AcDbEntity
  8
BEM
 62
     0
100
AcDbTrace
 10
71.84289041663835
 20
229.2508534354817
 30
0.0
 11
74.17622374997169
 21
229.2508534354817
 31
0.0
 12
73.00955708330501
 22
222.2508534354817
 32
0.0
 13
73.00955708330501
 23
222.2508534354817
 33
0.0
  0
MTEXT
  5
33D5
330
33C4
100
AcDbEntity
  8
BEM
 62
     1
100
AcDbMText
 10
66.50955708330499
 20
372.2508534354818
 30
0.0
 40
7.0
 41
0.0
 71
     5
 72
     1
  1
\A1;300
 11
0.0000000000000001
 21
1.0
 31
0.0
 73
     1
 44
1.0
  0
POINT
  5
33D6
330
33C4
100
AcDbEntity
  8
DEFPOINTS
 62
     0
100
AcDbPoint
 10
147.0538137614056
 20
522.2508534354817
 30
0.0
  0
POINT
  5
33D7
330
33C4
100
AcDbEntity
  8
DEFPOINTS
 62
     0
100
AcDbPoint
 10
112.0620318293303
 20
222.2508534354817
 30
0.0
  0
POINT
  5
33D8
330
33C4
100
AcDbEntity
  8
DEFPOINTS
 62
     0
100
AcDbPoint
 10
73.00955708330501
 20
222.2508534354817
 30
0.0
  0
ENDBLK
  5
33CF
330
33C4
100
AcDbEntity
  8
0
100
AcDbBlockEnd
  0
BLOCK
  5
3465
330
345B
100
AcDbEntity
  8
0
100
AcDbBlockBegin
  2
*D8
 70
     1
 10
0.0
 20
0.0
 30
0.0
  3
*D8
  1

  0
LINE
  5
3470
330
345B
100
AcDbEntity
  8
BEM
 62
     0
370
    -2
100
AcDbLine
 10
153.3122585588117
 20
399.7415140785843
 30
0.0
 11
153.3122585588117
 21
353.0934323789702
 31
0.0
  0
LINE
  5
3471
330
345B
100
AcDbEntity
  8
BEM
 62
     0
370
    -2
100
AcDbLine
 10
286.312258558812
 20
399.7415140785845
 30
0.0
 11
286.312258558812
 21
353.0934323789702
 31
0.0
  0
LINE
  5
3472
330
345B
100
AcDbEntity
  8
BEM
 62
     0
370
    -2
100
AcDbLine
 10
160.3122585588117
 20
355.0934323789702
 30
0.0
 11
279.312258558812
 21
355.0934323789702
 31
0.0
  0
SOLID
  5
3473
330
345B
100
AcDbEntity
  8
BEM
 62
     0
100
AcDbTrace
 10
160.3122585588117
 20
356.2600990456369
 30
0.0
 11
160.3122585588117
 21
353.9267657123035
 31
0.0
 12
153.3122585588117
 22
355.0934323789702
 32
0.0
 13
153.3122585588117
 23
355.0934323789702
 33
0.0
  0
SOLID
  5
3474
330
345B
100
AcDbEntity
  8
BEM
 62
     0
100
AcDbTrace
 10
279.312258558812
 20
356.2600990456369
 30
0.0
 11
279.312258558812
 21
353.9267657123035
 31
0.0
 12
286.312258558812
 22
355.0934323789702
 32
0.0
 13
286.312258558812
 23
355.0934323789702
 33
0.0
  0
MTEXT
  5
3475
330
345B
100
AcDbEntity
  8
BEM
 62
     1
100
AcDbMText
 10
219.8122585588119
 20
361.5934323789702
 30
0.0
 40
7.0
 41
0.0
 71
     5
 72
     1
  1
\A1;%%c133
 73
     1
 44
1.0
  0
POINT
  5
3476
330
345B
100
AcDbEntity
  8
DEFPOINTS
 62
     0
100
AcDbPoint
 10
153.3122585588117
 20
401.7415140785842
 30
0.0
  0
POINT
  5
3477
330
345B
100
AcDbEntity
  8
DEFPOINTS
 62
     0
100
AcDbPoint
 10
286.312258558812
 20
401.7415140785844
 30
0.0
  0
POINT
  5
3478
330
345B
100
AcDbEntity
  8
DEFPOINTS
 62
     0
100
AcDbPoint
 10
286.312258558812
 20
355.0934323789702
 30
0.0
  0
ENDBLK
  5
3466
330
345B
100
AcDbEntity
  8
0
100
AcDbBlockEnd
  0
ENDSEC
  0
SECTION
  2
ENTITIES
  0
LINE
  5
57
330
1E
100
AcDbEntity
  8
STEMPEL
100
AcDbLine
 10
410.0
 20
110.0
 30
0.0
 11
39.99999999999997
 21
110.0
 31
0.0
  0
LINE
  5
58
330
1E
100
AcDbEntity
  8
STEMPEL
100
AcDbLine
 10
136.0000000000001
 20
109.9999999999999
 30
0.0
 11
136.0
 21
9.999999999999971
 31
0.0
  0
LINE
  5
59
330
1E
100
AcDbEntity
  8
STEMPEL
100
AcDbLine
 10
220.0
 20
110.0
 30
0.0
 11
220.0
 21
9.999999999999971
 31
0.0
  0
LINE
  5
5A
330
1E
100
AcDbEntity
  8
STEMPEL
100
AcDbLine
 10
332.0
 20
109.9999999999997
 30
0.0
 11
332.0
 21
40.0
 31
0.0
  0
LINE
  5
5B
330
1E
100
AcDbEntity
  8
STEMPEL
100
AcDbLine
 10
135.9999999999999
 20
29.99999999999997
 30
0.0
 11
39.99999999999997
 21
29.99999999999997
 31
0.0
  0
LINE
  5
5C
330
1E
100
AcDbEntity
  8
STEMPEL
100
AcDbLine
 10
410.0
 20
40.0
 30
0.0
 11
136.0000000000001
 21
39.99999999999997
 31
0.0
  0
LINE
  5
5D
330
1E
100
AcDbEntity
  8
STEMPEL
100
AcDbLine
 10
410.0
 20
80.0
 30
0.0
 11
136.0000000000001
 21
79.99999999999994
 31
0.0
  0
LINE
  5
5E
330
1E
100
AcDbEntity
  8
VOLL
100
AcDbLine
 10
54.00000000000009
 20
110.0
 30
0.0
 11
53.99999999999997
 21
9.999999999999971
 31
0.0
  0
LINE
  5
5F
330
1E
100
AcDbEntity
  8
VOLL
100
AcDbLine
 10
94.00000000000011
 20
109.9999999999999
 30
0.0
 11
94.0
 21
9.999999999999971
 31
0.0
  0
LINE
  5
60
330
1E
100
AcDbEntity
  8
VOLL
100
AcDbLine
 10
114.0000000000001
 20
109.9999999999999
 30
0.0
 11
114.0
 21
9.999999999999971
 31
0.0
  0
LINE
  5
61
330
1E
100
AcDbEntity
  8
VOLL
100
AcDbLine
 10
154.0000000000001
 20
79.99999999999994
 30
0.0
 11
154.0000000000001
 21
39.99999999999997
 31
0.0
  0
LINE
  5
62
330
1E
100
AcDbEntity
  8
VOLL
100
AcDbLine
 10
180.0000000000001
 20
109.9999999999998
 30
0.0
 11
180.0
 21
39.99999999999997
 31
0.0
  0
LINE
  5
63
330
1E
100
AcDbEntity
  8
HILF
100
AcDbLine
 10
40.00000000000008
 20
100.0
 30
0.0
 11
136.0000000000001
 21
100.0
 31
0.0
  0
LINE
  5
64
330
1E
100
AcDbEntity
  8
HILF
100
AcDbLine
 10
40.00000000000008
 20
90.00000000000005
 30
0.0
 11
136.0000000000001
 21
90.00000000000005
 31
0.0
  0
LINE
  5
65
330
1E
100
AcDbEntity
  8
HILF
100
AcDbLine
 10
40.00000000000008
 20
79.99999999999994
 30
0.0
 11
136.0000000000001
 21
79.99999999999994
 31
0.0
  0
LINE
  5
66
330
1E
100
AcDbEntity
  8
HILF
100
AcDbLine
 10
40.00000000000008
 20
69.99999999999994
 30
0.0
 11
136.0000000000001
 21
69.99999999999994
 31
0.0
  0
LINE
  5
67
330
1E
100
AcDbEntity
  8
HILF
100
AcDbLine
 10
40.00000000000008
 20
59.99999999999997
 30
0.0
 11
136.0000000000001
 21
59.99999999999997
 31
0.0
  0
LINE
  5
68
330
1E
100
AcDbEntity
  8
HILF
100
AcDbLine
 10
40.00000000000008
 20
49.99999999999997
 30
0.0
 11
136.0000000000001
 21
49.99999999999997
 31
0.0
  0
LINE
  5
69
330
1E
100
AcDbEntity
  8
HILF
100
AcDbLine
 10
40.00000000000008
 20
39.99999999999997
 30
0.0
 11
136.0000000000001
 21
39.99999999999997
 31
0.0
  0
LINE
  5
6A
330
1E
100
AcDbEntity
  8
HILF
100
AcDbLine
 10
136.0000000000001
 20
69.99999999999994
 30
0.0
 11
220.0
 21
69.99999999999994
 31
0.0
  0
LINE
  5
6B
330
1E
100
AcDbEntity
  8
HILF
100
AcDbLine
 10
136.0000000000001
 20
59.99999999999997
 30
0.0
 11
220.0
 21
59.99999999999997
 31
0.0
  0
LINE
  5
6C
330
1E
100
AcDbEntity
  8
HILF
100
AcDbLine
 10
136.0000000000001
 20
49.99999999999997
 30
0.0
 11
220.0
 21
49.99999999999997
 31
0.0
  0
LINE
  5
6D
330
1E
100
AcDbEntity
  8
HILF
100
AcDbLine
 10
224.7736801096948
 20
84.03758247564139
 30
0.0
 11
324.8353916556311
 21
84.03758247564139
 31
0.0
  0
LINE
  5
6E
330
1E
100
AcDbEntity
  8
HILF
100
AcDbLine
 10
224.7736801096948
 20
69.99999999999994
 30
0.0
 11
324.835391655631
 21
69.99999999999994
 31
0.0
  0
LINE
  5
6F
330
1E
100
AcDbEntity
  8
HILF
100
AcDbLine
 10
224.7736801096948
 20
59.99999999999997
 30
0.0
 11
324.835391655631
 21
59.99999999999997
 31
0.0
  0
LINE
  5
70
330
1E
100
AcDbEntity
  8
HILF
100
AcDbLine
 10
224.7736801096948
 20
49.99999999999997
 30
0.0
 11
324.835391655631
 21
49.99999999999997
 31
0.0
  0
LINE
  5
71
330
1E
100
AcDbEntity
  8
VOLL
100
AcDbLine
 10
332.0
 20
60.0
 30
0.0
 11
410.0
 21
60.0
 31
0.0
  0
LINE
  5
72
330
1E
100
AcDbEntity
  8
HILF
100
AcDbLine
 10
336.7238616296993
 20
83.77983636955827
 30
0.0
 11
404.8588839326728
 21
83.77983636955827
 31
0.0
  0
LINE
  5
73
330
1E
100
AcDbEntity
  8
HILF
100
AcDbLine
 10
223.4909699289885
 20
14.89398258028314
 30
0.0
 11
404.8588839326728
 21
14.89398258028314
 31
0.0
  0
TEXT
  5
74
330
1E
100
AcDbEntity
  8
TEXT
100
AcDbText
 10
63.86165979631819
 20
18.67381894984132
 30
0.0
 40
4.0
  1
Änderung
 41
0.8
  7
GREEKS
 72
     1
 11
74.60451693917534
 21
18.67381894984132
 31
0.0
100
AcDbText
  0
TEXT
  5
75
330
1E
100
AcDbEntity
  8
TEXT
100
AcDbText
 10
143.5163572150377
 20
102.4620895087088
 30
0.0
 40
5.0
  1
Maßstab
 41
0.8
  7
GREEKS
100
AcDbText
  0
TEXT
  5
76
330
1E
100
AcDbEntity
  8
TEXT
100
AcDbText
 10
184.2858954734051
 20
102.4184168434819
 30
0.0
 40
5.0
  1
Zul. Abw.
 41
0.8
  7
GREEKS
100
AcDbText
  0
TEXT
  5
77
330
1E
100
AcDbEntity
  8
TEXT
100
AcDbText
 10
224.877940380901
 20
102.5489328011779
 30
0.0
 40
5.0
  1
Benennung
 41
0.8
  7
GREEKS
100
AcDbText
  0
TEXT
  5
78
330
1E
100
AcDbEntity
  8
TEXT
100
AcDbText
 10
336.178754957634
 20
102.3132034537136
 30
0.0
 40
5.0
  1
Zeichnungs Nr.
 41
0.8
  7
GREEKS
100
AcDbText
  0
TEXT
  5
79
330
1E
100
AcDbEntity
  8
TEXT
100
AcDbText
 10
224.742238391136
 20
30.84560570193057
 30
0.0
 40
5.0
  1
Bauvorhaben
 41
0.8
  7
GREEKS
100
AcDbText
  0
TEXT
  5
7A
330
1E
100
AcDbEntity
  8
TEXT
100
AcDbText
 10
336.7238616296993
 20
73.1811823709997
 30
0.0
 40
5.0
  1
Ersatz für:
 41
0.8
  7
GREEKS
100
AcDbText
  0
TEXT
  5
7B
330
1E
100
AcDbEntity
  8
TEXT
100
AcDbText
 10
48.26641107045756
 20
13.65465846027192
 30
0.0
 40
4.0
  1
Index
 50
90.0
 41
0.8
  7
GREEKS
100
AcDbText
  0
TEXT
  5
7C
330
1E
100
AcDbEntity
  8
TEXT
100
AcDbText
 10
100.0934676075481
 20
18.6715626933981
 30
0.0
 40
4.0
  1
Tag
 41
0.8
  7
GREEKS
 72
     1
 11
103.8268009408814
 21
18.6715626933981
 31
0.0
100
AcDbText
  0
TEXT
  5
7D
330
1E
100
AcDbEntity
  8
TEXT
100
AcDbText
 10
119.0122744386592
 20
18.59324216966408
 30
0.0
 40
4.0
  1
Name
 41
0.8
  7
GREEKS
 72
     1
 11
125.3360839624688
 21
18.59324216966408
 31
0.0
100
AcDbText
  0
TEXT
  5
7E
330
1E
100
AcDbEntity
  8
TEXT
100
AcDbText
 10
162.3311673153651
 20
73.31880501229926
 30
0.0
 40
4.0
  1
Tag
 41
0.8
  7
GREEKS
100
AcDbText
  0
TEXT
  5
7F
330
1E
100
AcDbEntity
  8
TEXT
100
AcDbText
 10
192.4626584226295
 20
73.30961091915225
 30
0.0
 40
4.0
  1
Name
 41
0.8
  7
GREEKS
100
AcDbText
  0
TEXT
  5
80
330
1E
100
AcDbEntity
  8
TEXT
100
AcDbText
 10
137.5836127167615
 20
63.62990369617964
 30
0.0
 40
4.0
  1
Gez.
 41
0.8
  7
GREEKS
100
AcDbText
  0
TEXT
  5
81
330
1E
100
AcDbEntity
  8
TEXT
100
AcDbText
 10
137.5515086571672
 20
53.68926291428377
 30
0.0
 40
4.0
  1
Gepr.
 41
0.8
  7
GREEKS
100
AcDbText
  0
TEXT
  5
82
330
1E
100
AcDbEntity
  8
TEXT
100
AcDbText
 10
137.6006777387304
 20
43.52946389649807
 30
0.0
 40
4.0
  1
Norm.
 41
0.8
  7
GREEKS
100
AcDbText
  0
LINE
  5
83
330
1E
100
AcDbEntity
  8
STEMPEL
100
AcDbLine
 10
49.99999999999989
 20
10.0
 30
0.0
 11
410.0
 21
10.0
 31
0.0
  0
TEXT
  5
84
330
1E
100
AcDbEntity
  8
TEXT
100
AcDbText
 10
337.2400861497006
 20
52.07416177878602
 30
0.0
 40
5.0
  1
ersetzt durch:
 41
0.8
  7
GREEKS
100
AcDbText
  0
LINE
  5
85
330
1E
100
AcDbEntity
  8
STEMPEL
100
AcDbLine
 10
410.0
 20
10.0
 30
0.0
 11
39.99999999999989
 21
10.0
 31
0.0
  0
LINE
  5
86
330
1E
100
AcDbEntity
  8
STEMPEL
100
AcDbLine
 10
410.0
 20
10.0
 30
0.0
 11
410.0
 21
584.0
 31
0.0
  0
LINE
  5
87
330
1E
100
AcDbEntity
  8
STEMPEL
100
AcDbLine
 10
40.0
 20
10.0
 30
0.0
 11
39.99999999999989
 21
584.0
 31
0.0
  0
LINE
  5
88
330
1E
100
AcDbEntity
  8
STEMPEL
100
AcDbLine
 10
410.0
 20
584.0
 30
0.0
 11
39.99999999999989
 21
584.0
 31
0.0
  0
LINE
  5
89
330
1E
100
AcDbEntity
  8
HILF
100
AcDbLine
 10
0.0
 20
0.0
 30
0.0
 11
-0.0000000000001137
 21
594.0
 31
0.0
  0
LINE
  5
8A
330
1E
100
AcDbEntity
  8
HILF
100
AcDbLine
 10
419.9999999999999
 20
594.0000000000002
 30
0.0
 11
0.0
 21
594.0
 31
0.0
  0
LINE
  5
8B
330
1E
100
AcDbEntity
  8
HILF
100
AcDbLine
 10
420.0
 20
0.0
 30
0.0
 11
0.0
 21
0.0
 31
0.0
  0
LINE
  5
8C
330
1E
100
AcDbEntity
  8
HILF
100
AcDbLine
 10
31.08767135713856
 20
297.0
 30
0.0
 11
0.0000000000001137
 21
297.0
 31
0.0
  0
TEXT
  5
8D
330
1E
100
AcDbEntity
  8
TEXT
100
AcDbText
 10
138.622109822104
 20
73.14025471151666
 30
0.0
 40
4.0
  1
2007
 41
0.8
  7
GREEKS
100
AcDbText
  0
LINE
  5
8E
330
1E
100
AcDbEntity
  8
HILF
100
AcDbLine
 10
420.0
 20
-0.0000000000001137
 30
0.0
 11
419.9999999999999
 21
594.0
 31
0.0
  0
TEXT
  5
8F
330
1E
100
AcDbEntity
  8
VOLL
100
AcDbText
 10
78.07675471698113
 20
31.02594776470585
 30
0.0
 40
1.8
  1

  7
GREEKS
100
AcDbText
  0
TEXT
  5
90
330
1E
100
AcDbEntity
  8
TEXT
100
AcDbText
 10
41.85509950977674
 20
111.6719999999999
 30
0.0
 40
5.0
  1
Erstellt mit AUTOCAD 2004
 41
0.8
  7
GREEKS
100
AcDbText
  0
TEXT
  5
91
330
1E
100
AcDbEntity
  8
TEXT
100
AcDbText
 10
194.4216048581257
 20
63.0896391972351
 30
0.0
 40
4.0
  1
Koeh
 41
0.8
  7
GREEKS
 72
     1
 11
199.6787477152685
 21
63.0896391972351
 31
0.0
100
AcDbText
  0
TEXT
  5
92
330
1E
100
AcDbEntity
  8
TEXT
 62
     1
100
AcDbText
 10
347.1516896065724
 20
88.14901428913959
 30
0.0
 40
7.0
  1
00600EG0W
 41
0.8
  7
GREEKS
 72
     1
 11
371.1516896065724
 21
88.14901428913959
 31
0.0
100
AcDbText
  0
TEXT
  5
93
330
1E
100
AcDbEntity
  8
TEXT
 62
     1
100
AcDbText
 10
150.5006306481887
 20
88.14901428913959
 30
0.0
 40
7.0
  1
1:2
 41
0.8
  7
GREEKS
100
AcDbText
  0
TEXT
  5
94
330
1E
100
AcDbEntity
  8
TEXT
100
AcDbText
 10
160.398997108236
 20
63.10765040825732
 30
0.0
 40
4.0
  1
03.09.
 41
0.8
  7
GREEKS
 72
     1
 11
167.4085209177598
 21
63.10765040825732
 31
0.0
100
AcDbText
  0
TEXT
  5
95
330
1E
100
AcDbEntity
  8
TEXT
 62
     1
100
AcDbText
 10
224.2909241008022
 20
87.41748789253779
 30
0.0
 40
7.0
  1
Übergangsrohr DN125/200
 41
0.72
  7
GREEKS
100
AcDbText
  0
TEXT
  5
96
330
1E
100
AcDbEntity
  8
TEXT
100
AcDbText
 10
225.1296391125315
 20
71.50334417585288
 30
0.0
 40
5.0
  1
konzentrisches Red.-Stück
 41
0.8
  7
GREEKS
100
AcDbText
  0
TEXT
  5
98
330
1E
100
AcDbEntity
  8
TEXT
100
AcDbText
 10
225.1296391125315
 20
51.64011943042158
 30
0.0
 40
5.0
  1
EDV-Art.Nr. 00600.EG0X
 41
0.8
  7
GREEKS
100
AcDbText
  0
TEXT
  5
99
330
1E
100
AcDbEntity
  8
TEXT
100
AcDbText
 10
224.9837501577827
 20
42.62974153022632
 30
0.0
 40
4.0
  1
00600EG0W.DWG
 41
0.8
  7
GREEKS
100
AcDbText
  0
TEXT
  5
9A
330
1E
100
AcDbEntity
  8
TEXT
100
AcDbText
 10
182.626132208084
 20
90.76363841023022
 30
0.0
 40
4.0
  1
DIN EN1123-2
 41
0.8
  7
GREEKS
 72
     1
 11
199.6166083985602
 21
90.76363841023022
 31
0.0
100
AcDbText
  0
INSERT
  5
9B
330
1E
100
AcDbEntity
  8
STEMPEL
100
AcDbBlockReference
  2
LOGO
 10
140.9955485457794
 20
45.02105276448322
 30
0.0
 41
2.0
 42
2.0
 43
2.0
  0
TEXT
  5
118
330
1E
100
AcDbEntity
  8
BEM
100
AcDbText
 10
417.3022923857165
 20
10.16790107998849
 30
0.0
 40
4.0
  1
Diese Zeichnung ist urheberrechtlich geschützt und bleibt unser Eigentum. Sie darf weder ganz noch teilweise verfielfältigt und nicht an Dritte weitergegeben werden.
 50
90.0
 41
0.8
  7
GREEKS
100
AcDbText
  0
TEXT
  5
2B5
330
1E
100
AcDbEntity
  8
TEXT
 62
     1
100
AcDbText
 10
55.87395933336921
 20
155.3929853351618
 30
0.0
 40
7.0
  1
Rohrende leicht eingezogen
 41
0.8
  7
GREEKS
100
AcDbText
  0
TEXT
  5
3CA
330
1E
100
AcDbEntity
  8
TEXT
 62
     1
100
AcDbText
 10
230.7848671941443
 20
131.6541182112294
 30
0.0
 40
7.0
  1
feuerverzinkt und innen beschichtet
 41
0.8
  7
GREEKS
100
AcDbText
  0
TEXT
  5
3CB
330
1E
100
AcDbEntity
  8
TEXT
 62
     1
100
AcDbText
 10
182.8351497567465
 20
142.3762300262328
 30
0.0
 40
7.0
  1
Werkstoff: E195 EN10305, P235 TR1 EN10217-1
 41
0.8
  7
GREEKS
100
AcDbText
  0
TEXT
  5
27CD
330
1E
100
AcDbEntity
  8
TEXT
 62
     1
100
AcDbText
 10
210.7696550977172
 20
258.208069715677
 30
0.0
 40
7.0
  1
DN200
 50
90.0
 41
0.8
  7
GREEKS
100
AcDbText
  0
TEXT
  5
2817
330
1E
100
AcDbEntity
  8
TEXT
 62
     1
100
AcDbText
 10
210.7696550977172
 20
483.4906702161429
 30
0.0
 40
7.0
  1
DN125
 50
90.0
 41
0.8
  7
GREEKS
100
AcDbText
  0
LINE
  5
3151
330
1E
100
AcDbEntity
  8
MITTEL
100
AcDbLine
 10
219.8122585588119
 20
350.1350988195039
 30
0.0
 11
219.8122585588119
 21
217.2508534354818
 31
0.0
  0
INSERT
  5
3154
330
1E
100
AcDbEntity
  8
SCHRAFF
100
AcDbBlockReference
  2
*X2
 10
-5.631820411532089
 20
18.12345550726149
 30
0.0
1001
ACAD
1000
HATCH
1002
{
1070
    16
1000
_U,I
1040
0.1
1040
0.7853981633974483
1070
     0
1002
}
  0
POLYLINE
  5
3156
102
{ACAD_REACTORS
330
3414
102
}
330
1E
100
AcDbEntity
  8
HILF
100
AcDb2dPolyline
 66
     1
 10
0.0
 20
0.0
 30
0.0
 70
     2
  0
VERTEX
  5
3157
330
3156
100
AcDbEntity
  8
HILF
100
AcDbVertex
100
AcDb2dVertex
 10
329.3122585588119
 20
319.1087855381238
 30
0.0
 42
0.0538630998159096
  0
VERTEX
  5
3158
330
3156
100
AcDbEntity
  8
HILF
100
AcDbVertex
100
AcDb2dVertex
 10
310.8762011676926
 20
318.8686261017612
 30
0.0
 42
0.0651162644459868
 70
     1
  0
VERTEX
  5
3159
330
3156
100
AcDbEntity
  8
HILF
100
AcDbVertex
100
AcDb2dVertex
 10
296.08193986999
 20
315.0800450007178
 30
0.0
 42
0.010824721571537
  0
VERTEX
  5
315A
330
3156
100
AcDbEntity
  8
HILF
100
AcDbVertex
100
AcDb2dVertex
 10
285.1993190156609
 20
310.4481985881051
 30
0.0
 42
0.0646206732670632
 70
     1
  0
VERTEX
  5
315B
330
3156
100
AcDbEntity
  8
HILF
100
AcDbVertex
100
AcDb2dVertex
 10
283.5066672713056
 20
309.403179806641
 30
0.0
 42
0.0406458507763476
  0
VERTEX
  5
315C
330
3156
100
AcDbEntity
  8
HILF
100
AcDbVertex
100
AcDb2dVertex
 10
280.4129465007022
 20
306.4425802015351
 30
0.0
 42
0.061080243839384
 70
     1
  0
VERTEX
  5
315D
330
3156
100
AcDbEntity
  8
HILF
100
AcDbVertex
100
AcDb2dVertex
 10
278.7909395736517
 20
304.0925672800605
 30
0.0
 42
0.0331785776947138
  0
VERTEX
  5
315E
330
3156
100
AcDbEntity
  8
HILF
100
AcDbVertex
100
AcDb2dVertex
 10
277.2582755647409
 20
300.6212805447399
 30
0.0
 42
0.0192114758592246
 70
     1
  0
VERTEX
  5
315F
330
3156
100
AcDbEntity
  8
HILF
100
AcDbVertex
100
AcDb2dVertex
 10
275.2541433272641
 20
294.3869615485777
 30
0.0
 42
0.0193716745044478
  0
VERTEX
  5
3160
330
3156
100
AcDbEntity
  8
HILF
100
AcDbVertex
100
AcDb2dVertex
 10
274.2892128073261
 20
290.3366593248879
 30
0.0
 42
0.0274703788008718
 70
     1
  0
VERTEX
  5
3161
330
3156
100
AcDbEntity
  8
HILF
100
AcDbVertex
100
AcDb2dVertex
 10
273.8787233007867
 20
287.4282261291923
 30
0.0
 42
0.1156976805315361
  0
VERTEX
  5
3162
330
3156
100
AcDbEntity
  8
HILF
100
AcDbVertex
100
AcDb2dVertex
 10
274.442732408226
 20
283.5681412171427
 30
0.0
 42
0.0757364507623077
 70
     1
  0
VERTEX
  5
3163
330
3156
100
AcDbEntity
  8
HILF
100
AcDbVertex
100
AcDb2dVertex
 10
277.4155195471744
 20
278.4551186772379
 30
0.0
 42
0.043491401577016
  0
VERTEX
  5
3164
330
3156
100
AcDbEntity
  8
HILF
100
AcDbVertex
100
AcDb2dVertex
 10
280.8537506386628
 20
274.8719162998289
 30
0.0
 42
0.0585236692123936
 70
     1
  0
VERTEX
  5
3165
330
3156
100
AcDbEntity
  8
HILF
100
AcDbVertex
100
AcDb2dVertex
 10
283.8996444217277
 20
272.7782552470271
 30
0.0
 42
0.031253448039078
  0
VERTEX
  5
3166
330
3156
100
AcDbEntity
  8
HILF
100
AcDbVertex
100
AcDb2dVertex
 10
289.2407283030085
 20
270.375116084866
 30
0.0
 42
0.0453586464912665
 70
     1
  0
VERTEX
  5
3167
330
3156
100
AcDbEntity
  8
HILF
100
AcDbVertex
100
AcDb2dVertex
 10
293.1346093492355
 20
269.2988866554014
 30
0.0
 42
0.0089389513541688
  0
VERTEX
  5
3168
330
3156
100
AcDbEntity
  8
HILF
100
AcDbVertex
100
AcDb2dVertex
 10
295.6113773886571
 20
268.8963268073201
 30
0.0
 42
0.0015831456743522
 70
     1
  0
VERTEX
  5
3169
330
3156
100
AcDbEntity
  8
HILF
100
AcDbVertex
100
AcDb2dVertex
 10
309.6396553447297
 20
266.9182672469343
 30
0.0
 42
0.0087192905680146
  0
VERTEX
  5
316A
330
3156
100
AcDbEntity
  8
HILF
100
AcDbVertex
100
AcDb2dVertex
 10
317.3102998647813
 20
265.9974141720745
 30
0.0
 42
0.0055892482613369
 70
     1
  0
VERTEX
  5
316B
330
3156
100
AcDbEntity
  8
HILF
100
AcDbVertex
100
AcDb2dVertex
 10
329.3122585588119
 20
264.9038969782313
 30
0.0
  0
SEQEND
  5
316C
330
3156
100
AcDbEntity
  8
HILF
  0
ARC
  5
316D
330
1E
100
AcDbEntity
  8
SCHRAFF
100
AcDbCircle
 10
307.984740872738
 20
376.8118298839416
 30
0.0
 40
4.519902608137911
100
AcDbArc
 50
322.7322984110061
 51
127.1666833234715
  0
ARC
  5
316E
330
1E
100
AcDbEntity
  8
SCHRAFF
100
AcDbCircle
 10
131.6397762448857
 20
376.8118298839416
 30
0.0
 40
4.519902608137911
100
AcDbArc
 50
52.83331667652845
 51
217.2677015889939
  0
DIMENSION
  5
3170
330
1E
100
AcDbEntity
  8
BEM
100
AcDbDimension
  2
*D4
 10
326.3122585588119
 20
289.0036923745002
 30
0.0
 11
303.5789252254785
 21
295.5036923745002
 31
0.0
 70
    32
  1
2.9
 71
     5
 42
3.0
  3
Standard
100
AcDbAlignedDimension
 13
329.3122585588119
 23
289.0036923745002
 33
0.0
 14
326.3122585588119
 24
289.0036923745002
 34
0.0
100
AcDbRotatedDimension
1001
ACAD
1000
DSTYLE
1002
{
1070
    40
1040
2.0
1070
    41
1040
3.5
1070
    42
1040
1.0
1070
    43
1040
7.0
1070
    44
1040
1.0
1070
    73
1070
     0
1070
    74
1070
     0
1070
    77
1070
     1
1070
    78
1070
     8
1070
    79
1070
     2
1070
   140
1040
3.5
1070
   141
1040
1.5
1070
   146
1040
0.5142857142857144
1070
   147
1040
1.5
1070
   172
1070
     1
1070
   178
1070
     1
1070
   179
1070
     2
1070
   271
1070
     2
1070
   272
1070
     2
1070
   284
1070
     8
1070
   285
1070
     8
1070
   286
1070
     8
1002
}
  0
LINE
  5
3171
102
{ACAD_REACTORS
330
3414
102
}
330
1E
100
AcDbEntity
  8
STEMPEL
100
AcDbLine
 10
326.3122585588119
 20
319.3404419909817
 30
0.0
 11
326.3122585588119
 21
265.1518825910617
 31
0.0
  0
DIMENSION
  5
3172
330
1E
100
AcDbEntity
  8
BEM
100
AcDbDimension
  2
*D5
 10
329.3122585588119
 20
195.0953822077051
 30
0.0
 11
219.8122585588119
 21
201.5953822077052
 31
0.0
 70
    32
  1
%%C<>
 71
     5
 42
219.0
  3
Standard
100
AcDbAlignedDimension
 13
110.3122585588118
 23
235.0210204573225
 33
0.0
 14
329.3122585588119
 24
235.0210204573225
 34
0.0
100
AcDbRotatedDimension
1001
ACAD
1000
DSTYLE
1002
{
1070
    40
1040
2.0
1070
    41
1040
3.5
1070
    42
1040
1.0
1070
    43
1040
7.0
1070
    44
1040
1.0
1070
    73
1070
     0
1070
    74
1070
     0
1070
    77
1070
     1
1070
    78
1070
     8
1070
    79
1070
     2
1070
   140
1040
3.5
1070
   141
1040
1.5
1070
   146
1040
0.5142857142857144
1070
   147
1040
1.5
1070
   172
1070
     1
1070
   178
1070
     1
1070
   179
1070
     2
1070
   271
1070
     2
1070
   272
1070
     2
1070
   284
1070
     8
1070
   285
1070
     8
1070
   286
1070
     8
1002
}
  0
ARC
  5
3175
330
1E
100
AcDbEntity
  8
SCHRAFF
100
AcDbCircle
 10
272.0996611115398
 20
377.2508534354817
 30
0.0
 40
4.039292500642456
100
AcDbArc
 50
312.0377052613632
 51
47.96229473863737
  0
ARC
  5
3179
330
1E
100
AcDbEntity
  8
SCHRAFF
100
AcDbCircle
 10
280.1782461128247
 20
377.2508534354817
 30
0.0
 40
4.039292500642456
100
AcDbArc
 50
312.0377052613632
 51
47.96229473863737
  0
ARC
  5
317A
330
1E
100
AcDbEntity
  8
SCHRAFF
100
AcDbCircle
 10
288.2568311141096
 20
377.2508534354817
 30
0.0
 40
4.039292500642456
100
AcDbArc
 50
312.0377052613632
 51
47.96229473863737
  0
ARC
  5
317B
330
1E
100
AcDbEntity
  8
SCHRAFF
100
AcDbCircle
 10
296.3354161153946
 20
377.2508534354817
 30
0.0
 40
4.039292500642456
100
AcDbArc
 50
312.0377052613632
 51
47.96229473863737
  0
DIMENSION
  5
3181
330
1E
100
AcDbEntity
  8
BEM
100
AcDbDimension
  2
*D6
 10
88.3186147752839
 20
342.2508534354818
 30
0.0
 11
81.81861477528384
 21
282.2508534354818
 31
0.0
 70
    32
 71
     5
 42
120.0
  3
Standard
100
AcDbAlignedDimension
 13
112.0620318293303
 23
222.2508534354817
 33
0.0
 14
111.1705150390041
 24
342.2508534354818
 34
0.0
 50
90.0
100
AcDbRotatedDimension
1001
ACAD
1000
DSTYLE
1002
{
1070
    40
1040
2.0
1070
    41
1040
3.5
1070
    42
1040
1.0
1070
    43
1040
7.0
1070
    44
1040
1.0
1070
    73
1070
     0
1070
    74
1070
     0
1070
    77
1070
     1
1070
    78
1070
     8
1070
    79
1070
     2
1070
   140
1040
3.5
1070
   141
1040
1.5
1070
   146
1040
0.5142857142857144
1070
   147
1040
1.5
1070
   172
1070
     1
1070
   178
1070
     1
1070
   179
1070
     2
1070
   271
1070
     2
1070
   272
1070
     2
1070
   284
1070
     8
1070
   285
1070
     8
1070
   286
1070
     8
1002
}
  0
ARC
  5
3182
330
1E
100
AcDbEntity
  8
STEMPEL
100
AcDbCircle
 10
296.312258558812
 20
401.7415140785844
 30
0.0
 40
10.0
100
AcDbArc
 50
180.0
 51
228.3664606634291
  0
ARC
  5
3183
330
1E
100
AcDbEntity
  8
STEMPEL
100
AcDbCircle
 10
143.3122585588117
 20
401.7415140785842
 30
0.0
 40
10.0
100
AcDbArc
 50
311.6335393365708
 51
0.0
  0
ARC
  5
3184
330
1E
100
AcDbEntity
  8
STEMPEL
100
AcDbCircle
 10
135.3122585588118
 20
335.7565313135186
 30
0.0
 40
25.0
100
AcDbArc
 50
150.8759465052218
 51
180.0
  0
ARC
  5
3185
330
1E
100
AcDbEntity
  8
STEMPEL
100
AcDbCircle
 10
304.3122585588119
 20
335.7565313135187
 30
0.0
 40
25.0
100
AcDbArc
 50
0.0
 51
29.12405349477819
  0
LINE
  5
3186
330
1E
100
AcDbEntity
  8
STEMPEL
100
AcDbLine
 10
149.9558969471109
 20
394.2674208917477
 30
0.0
 11
130.8122585588118
 21
377.2508534354817
 31
0.0
  0
LINE
  5
3188
330
1E
100
AcDbEntity
  8
STEMPEL
100
AcDbLine
 10
308.8122585588119
 20
377.2508534354818
 30
0.0
 11
289.6686201705128
 21
394.2674208917479
 31
0.0
  0
LINE
  5
3189
330
1E
100
AcDbEntity
  8
STEMPEL
100
AcDbLine
 10
113.4730591517165
 20
347.9240852689003
 30
0.0
 11
129.8122585588118
 21
377.2508534354817
 31
0.0
  0
LINE
  5
318A
330
1E
100
AcDbEntity
  8
STEMPEL
100
AcDbLine
 10
326.1514579659072
 20
347.9240852689005
 30
0.0
 11
309.8122585588119
 21
377.2508534354818
 31
0.0
  0
LINE
  5
318B
330
1E
100
AcDbEntity
  8
HILF
100
AcDbLine
 10
325.3318632215115
 20
342.2508534354818
 30
0.0
 11
114.2926538961123
 21
342.2508534354818
 31
0.0
  0
LINE
  5
318C
330
1E
100
AcDbEntity
  8
STEMPEL
100
AcDbLine
 10
329.3122585588119
 20
235.0210204573225
 30
0.0
 11
327.5624852882935
 21
222.2508534354818
 31
0.0
  0
LINE
  5
318D
330
1E
100
AcDbEntity
  8
STEMPEL
100
AcDbLine
 10
110.3122585588118
 20
235.0210204573225
 30
0.0
 11
112.0620318293303
 21
222.2508534354817
 31
0.0
  0
LINE
  5
318E
330
1E
100
AcDbEntity
  8
HILF
100
AcDbLine
 10
326.3122585588119
 20
235.0210204573225
 30
0.0
 11
113.3122585588118
 21
235.0210204573225
 31
0.0
  0
LINE
  5
318F
102
{ACAD_REACTORS
330
3414
102
}
330
1E
100
AcDbEntity
  8
STEMPEL
100
AcDbLine
 10
329.3122585588119
 20
335.7565313135187
 30
0.0
 11
329.3122585588119
 21
235.0210204573225
 31
0.0
  0
LINE
  5
3190
330
1E
100
AcDbEntity
  8
STEMPEL
100
AcDbLine
 10
110.3122585588118
 20
335.7565313135186
 30
0.0
 11
110.3122585588118
 21
235.0210204573225
 31
0.0
  0
LINE
  5
3191
330
1E
100
AcDbEntity
  8
STEMPEL
100
AcDbLine
 10
327.5624852882935
 20
222.2508534354818
 30
0.0
 11
112.0620318293303
 21
222.2508534354817
 31
0.0
  0
LINE
  5
3192
330
1E
100
AcDbEntity
  8
STEMPEL
100
AcDbLine
 10
309.8122585588119
 20
377.2508534354818
 30
0.0
 11
129.8122585588118
 21
377.2508534354817
 31
0.0
  0
ARC
  5
3193
330
1E
100
AcDbEntity
  8
SCHRAFF
100
AcDbCircle
 10
264.0210761102549
 20
377.2508534354817
 30
0.0
 40
4.039292500642456
100
AcDbArc
 50
312.0377052613632
 51
47.96229473863737
  0
ARC
  5
3195
330
1E
100
AcDbEntity
  8
SCHRAFF
100
AcDbCircle
 10
255.94249110897
 20
377.2508534354817
 30
0.0
 40
4.039292500642456
100
AcDbArc
 50
312.0377052613632
 51
47.96229473863737
  0
ARC
  5
3196
330
1E
100
AcDbEntity
  8
SCHRAFF
100
AcDbCircle
 10
247.863906107685
 20
377.2508534354817
 30
0.0
 40
4.039292500642456
100
AcDbArc
 50
312.0377052613632
 51
47.96229473863737
  0
ARC
  5
3198
330
1E
100
AcDbEntity
  8
SCHRAFF
100
AcDbCircle
 10
239.7853211064001
 20
377.2508534354817
 30
0.0
 40
4.039292500642456
100
AcDbArc
 50
312.0377052613632
 51
47.96229473863737
  0
ARC
  5
319A
330
1E
100
AcDbEntity
  8
SCHRAFF
100
AcDbCircle
 10
231.7067361051153
 20
377.2508534354817
 30
0.0
 40
4.039292500642456
100
AcDbArc
 50
312.0377052613632
 51
47.96229473863737
  0
ARC
  5
319D
330
1E
100
AcDbEntity
  8
SCHRAFF
100
AcDbCircle
 10
223.6281511038303
 20
377.2508534354817
 30
0.0
 40
4.039292500642456
100
AcDbArc
 50
312.0377052613632
 51
47.96229473863737
  0
ARC
  5
319F
330
1E
100
AcDbEntity
  8
SCHRAFF
100
AcDbCircle
 10
215.5495661025453
 20
377.2508534354817
 30
0.0
 40
4.039292500642456
100
AcDbArc
 50
312.0377052613632
 51
47.96229473863737
  0
ARC
  5
31A3
330
1E
100
AcDbEntity
  8
SCHRAFF
100
AcDbCircle
 10
199.3923960999756
 20
377.2508534354817
 30
0.0
 40
4.039292500642456
100
AcDbArc
 50
312.0377052613632
 51
47.96229473863737
  0
ARC
  5
31A4
330
1E
100
AcDbEntity
  8
SCHRAFF
100
AcDbCircle
 10
207.4709811012604
 20
377.2508534354817
 30
0.0
 40
4.039292500642456
100
AcDbArc
 50
312.0377052613632
 51
47.96229473863737
  0
ARC
  5
31A5
330
1E
100
AcDbEntity
  8
SCHRAFF
100
AcDbCircle
 10
191.3138110986906
 20
377.2508534354817
 30
0.0
 40
4.039292500642456
100
AcDbArc
 50
312.0377052613632
 51
47.96229473863737
  0
ARC
  5
31A7
330
1E
100
AcDbEntity
  8
SCHRAFF
100
AcDbCircle
 10
183.2352260974056
 20
377.2508534354817
 30
0.0
 40
4.039292500642456
100
AcDbArc
 50
312.0377052613632
 51
47.96229473863737
  0
ARC
  5
31AB
330
1E
100
AcDbEntity
  8
SCHRAFF
100
AcDbCircle
 10
167.0780560948359
 20
377.2508534354817
 30
0.0
 40
4.039292500642456
100
AcDbArc
 50
312.0377052613632
 51
47.96229473863737
  0
ARC
  5
31AC
330
1E
100
AcDbEntity
  8
SCHRAFF
100
AcDbCircle
 10
175.1566410961208
 20
377.2508534354817
 30
0.0
 40
4.039292500642456
100
AcDbArc
 50
312.0377052613632
 51
47.96229473863737
  0
ARC
  5
31AF
330
1E
100
AcDbEntity
  8
SCHRAFF
100
AcDbCircle
 10
150.9208860922659
 20
377.2508534354817
 30
0.0
 40
4.039292500642456
100
AcDbArc
 50
312.0377052613632
 51
47.96229473863737
  0
ARC
  5
31B0
330
1E
100
AcDbEntity
  8
SCHRAFF
100
AcDbCircle
 10
158.9994710935509
 20
377.2508534354817
 30
0.0
 40
4.039292500642456
100
AcDbArc
 50
312.0377052613632
 51
47.96229473863737
  0
ARC
  5
31B2
330
1E
100
AcDbEntity
  8
SCHRAFF
100
AcDbCircle
 10
142.8423010909811
 20
377.2508534354817
 30
0.0
 40
4.039292500642456
100
AcDbArc
 50
312.0377052613632
 51
47.96229473863737
  0
ARC
  5
31B3
330
1E
100
AcDbEntity
  8
SCHRAFF
100
AcDbCircle
 10
134.7637160896962
 20
377.2508534354817
 30
0.0
 40
4.039292500642456
100
AcDbArc
 50
312.0377052613632
 51
47.96229473863737
  0
INSERT
  5
31B5
330
1E
100
AcDbEntity
  8
SCHRAFF
100
AcDbBlockReference
  2
*X1
 10
-6.320101986605777
 20
72.0068248057143
 30
0.0
1001
ACAD
1000
HATCH
1002
{
1070
    16
1000
_U,I
1040
2.0
1040
2.356194490192344
1070
     0
1002
}
  0
POLYLINE
  5
31B6
330
1E
100
AcDbEntity
  8
HILF
100
AcDb2dPolyline
 66
     1
 10
0.0
 20
0.0
 30
0.0
 70
     2
  0
VERTEX
  5
31B7
330
31B6
100
AcDbEntity
  8
HILF
100
AcDbVertex
100
AcDb2dVertex
 10
292.2556490082794
 20
475.0016856048884
 30
0.0
 42
0.0375392864106603
  0
VERTEX
  5
31B8
330
31B6
100
AcDbEntity
  8
HILF
100
AcDbVertex
100
AcDb2dVertex
 10
287.0807759243234
 20
474.3737320774906
 30
0.0
 42
0.058816374300134
 70
     1
  0
VERTEX
  5
31B9
330
31B6
100
AcDbEntity
  8
HILF
100
AcDbVertex
100
AcDb2dVertex
 10
283.9091811769819
 20
473.346241205557
 30
0.0
 42
0.0124336424350373
  0
VERTEX
  5
31BA
330
31B6
100
AcDbEntity
  8
HILF
100
AcDbVertex
100
AcDb2dVertex
 10
279.7718710376677
 20
471.3187298640889
 30
0.0
 42
0.0188784698803044
 70
     1
  0
VERTEX
  5
31BB
330
31B6
100
AcDbEntity
  8
HILF
100
AcDbVertex
100
AcDb2dVertex
 10
277.1353482630293
 20
469.8151772287058
 30
0.0
 42
0.0411777702120067
  0
VERTEX
  5
31BC
330
31B6
100
AcDbEntity
  8
HILF
100
AcDbVertex
100
AcDb2dVertex
 10
273.6256492847571
 20
467.2110954380481
 30
0.0
 42
0.0499159360303022
 70
     1
  0
VERTEX
  5
31BD
330
31B6
100
AcDbEntity
  8
HILF
100
AcDbVertex
100
AcDb2dVertex
 10
271.165189959396
 20
464.5720802016569
 30
0.0
 42
0.1072722055497033
  0
VERTEX
  5
31BE
330
31B6
100
AcDbEntity
  8
HILF
100
AcDbVertex
100
AcDb2dVertex
 10
270.0215135129081
 20
462.123227476792
 30
0.0
 42
0.0927325929982684
 70
     1
  0
VERTEX
  5
31BF
330
31B6
100
AcDbEntity
  8
HILF
100
AcDbVertex
100
AcDb2dVertex
 10
269.9022710923896
 20
459.0079771981791
 30
0.0
 42
0.099194675120976
  0
VERTEX
  5
31C0
330
31B6
100
AcDbEntity
  8
HILF
100
AcDbVertex
100
AcDb2dVertex
 10
270.9579786866247
 20
456.0649779849486
 30
0.0
 42
0.075318876928276
 70
     1
  0
VERTEX
  5
31C1
330
31B6
100
AcDbEntity
  8
HILF
100
AcDbVertex
100
AcDb2dVertex
 10
273.5762156829427
 20
452.9088636460313
 30
0.0
 42
0.0560769426130045
  0
VERTEX
  5
31C2
330
31B6
100
AcDbEntity
  8
HILF
100
AcDbVertex
100
AcDb2dVertex
 10
276.6773434349408
 20
450.7141301396274
 30
0.0
 42
0.0383280843432889
 70
     1
  0
VERTEX
  5
31C3
330
31B6
100
AcDbEntity
  8
HILF
100
AcDbVertex
100
AcDb2dVertex
 10
281.7277775817789
 20
448.4147817398937
 30
0.0
 42
0.063989847608821
  0
VERTEX
  5
31C4
330
31B6
100
AcDbEntity
  8
HILF
100
AcDbVertex
100
AcDb2dVertex
 10
284.9139216291571
 20
447.6928919868995
 30
0.0
 42
0.0463223011874283
 70
     1
  0
VERTEX
  5
31C5
330
31B6
100
AcDbEntity
  8
HILF
100
AcDbVertex
100
AcDb2dVertex
 10
289.418060708873
 20
447.6819651852761
 30
0.0
  0
SEQEND
  5
31C6
330
31B6
100
AcDbEntity
  8
HILF
  0
ARC
  5
31C7
330
1E
100
AcDbEntity
  8
STEMPEL
100
AcDbCircle
 10
273.3122585588119
 20
455.7195728581529
 30
0.0
 40
15.5
100
AcDbArc
 50
328.3813116001133
 51
0.0
  0
ARC
  5
31C8
330
1E
100
AcDbEntity
  8
STEMPEL
100
AcDbCircle
 10
309.3122585588119
 20
469.2508534354817
 30
0.0
 40
20.5
100
AcDbArc
 50
164.3692974387865
 51
180.0
  0
DIMENSION
  5
31C9
330
1E
100
AcDbEntity
  8
BEM
100
AcDbDimension
  2
*D3
 10
291.3122585588119
 20
462.4852131468172
 30
0.0
 11
314.1789252254786
 21
468.9852131468173
 31
0.0
 70
    32
 71
     5
 42
2.5
  3
Standard
100
AcDbAlignedDimension
 13
288.8122585588119
 23
462.4852131468172
 33
0.0
 14
291.3122585588119
 24
462.4852131468172
 34
0.0
100
AcDbRotatedDimension
1001
ACAD
1000
DSTYLE
1002
{
1070
    40
1040
2.0
1070
    41
1040
3.5
1070
    42
1040
1.0
1070
    43
1040
7.0
1070
    44
1040
1.0
1070
    73
1070
     0
1070
    74
1070
     0
1070
    77
1070
     1
1070
    78
1070
     8
1070
    79
1070
     2
1070
   140
1040
3.5
1070
   141
1040
1.5
1070
   146
1040
0.5142857142857144
1070
   147
1040
1.5
1070
   172
1070
     1
1070
   178
1070
     1
1070
   179
1070
     2
1070
   271
1070
     2
1070
   272
1070
     2
1070
   284
1070
     8
1070
   285
1070
     8
1070
   286
1070
     8
1002
}
  0
LINE
  5
31CA
330
1E
100
AcDbEntity
  8
STEMPEL
100
AcDbLine
 10
288.8122585588119
 20
469.2508534354817
 30
0.0
 11
288.8122585588119
 21
455.7195728581529
 31
0.0
  0
LINE
  5
31D3
330
1E
100
AcDbEntity
  8
STEMPEL
100
AcDbLine
 10
292.5707033562181
 20
522.2508534354817
 30
0.0
 11
293.0014921699113
 21
521.3270238432385
 31
0.0
  0
ARC
  5
31D4
330
1E
100
AcDbEntity
  8
STEMPEL
100
AcDbCircle
 10
265.8122585588119
 20
508.6484759910175
 30
0.0
 40
30.0
100
AcDbArc
 50
0.0
 51
24.99999999999424
  0
LINE
  5
31D5
330
1E
100
AcDbEntity
  8
STEMPEL
100
AcDbLine
 10
295.8122585588119
 20
508.6484759910175
 30
0.0
 11
295.8122585588119
 21
489.5418534354817
 31
0.0
  0
ARC
  5
31D6
330
1E
100
AcDbEntity
  8
STEMPEL
100
AcDbCircle
 10
265.8122585588119
 20
489.5418534354817
 30
0.0
 40
29.99973625969209
100
AcDbArc
 50
334.9928416634536
 51
0.0
  0
ARC
  5
31D7
330
1E
100
AcDbEntity
  8
STEMPEL
100
AcDbCircle
 10
309.3122585588119
 20
469.2508534354817
 30
0.0
 40
18.0
100
AcDbArc
 50
154.9928416634537
 51
180.0
  0
LINE
  5
31D8
330
1E
100
AcDbEntity
  8
STEMPEL
100
AcDbLine
 10
291.3122585588119
 20
469.2508534354817
 30
0.0
 11
291.3122585588119
 21
455.7195728581529
 31
0.0
  0
LINE
  5
31D9
330
1E
100
AcDbEntity
  8
STEMPEL
100
AcDbLine
 10
286.312258558812
 20
439.7508534354817
 30
0.0
 11
286.312258558812
 21
401.7415140785844
 31
0.0
  0
ARC
  5
31DA
330
1E
100
AcDbEntity
  8
STEMPEL
100
AcDbCircle
 10
296.312258558812
 20
439.7508534354817
 30
0.0
 40
10.0
100
AcDbArc
 50
145.2280559680514
 51
180.0
  0
ARC
  5
31DB
330
1E
100
AcDbEntity
  8
STEMPEL
100
AcDbCircle
 10
273.3122585588119
 20
455.7195728581529
 30
0.0
 40
18.0
100
AcDbArc
 50
325.2280559680514
 51
0.0
  0
LINE
  5
31DC
330
1E
100
AcDbEntity
  8
STEMPEL
100
AcDbLine
 10
147.0538137614056
 20
522.2508534354817
 30
0.0
 11
146.6230249477124
 21
521.3270238432385
 31
0.0
  0
ARC
  5
31DD
330
1E
100
AcDbEntity
  8
STEMPEL
100
AcDbCircle
 10
173.8122585588118
 20
508.6484759910175
 30
0.0
 40
30.0
100
AcDbArc
 50
155.0000000000038
 51
180.0
  0
LINE
  5
31DE
330
1E
100
AcDbEntity
  8
STEMPEL
100
AcDbLine
 10
143.8125222991197
 20
489.5418534354817
 30
0.0
 11
143.8122585588118
 21
489.5418534354817
 31
0.0
  0
LINE
  5
31DF
330
1E
100
AcDbEntity
  8
STEMPEL
100
AcDbLine
 10
143.8122585588118
 20
508.6484759910175
 30
0.0
 11
143.8122585588118
 21
489.5418534354817
 31
0.0
  0
ARC
  5
31E0
330
1E
100
AcDbEntity
  8
STEMPEL
100
AcDbCircle
 10
130.3122585588118
 20
469.2508534354817
 30
0.0
 40
18.0
100
AcDbArc
 50
0.0
 51
25.00715833654995
  0
ARC
  5
31E1
330
1E
100
AcDbEntity
  8
STEMPEL
100
AcDbCircle
 10
166.3122585588118
 20
455.7195728581529
 30
0.0
 40
18.0
100
AcDbArc
 50
180.0
 51
214.7719440319486
  0
LINE
  5
31E2
330
1E
100
AcDbEntity
  8
STEMPEL
100
AcDbLine
 10
148.3122585588118
 20
469.2508534354817
 30
0.0
 11
148.3122585588118
 21
455.7195728581529
 31
0.0
  0
ARC
  5
31E3
330
1E
100
AcDbEntity
  8
STEMPEL
100
AcDbCircle
 10
143.3122585588117
 20
439.7508534354817
 30
0.0
 40
10.0
100
AcDbArc
 50
0.0
 51
34.77194403194856
  0
ARC
  5
31E4
330
1E
100
AcDbEntity
  8
STEMPEL
100
AcDbCircle
 10
173.8122585588118
 20
489.5418534354817
 30
0.0
 40
29.99973625969209
100
AcDbArc
 50
180.0
 51
205.0071583365499
  0
LINE
  5
31E5
330
1E
100
AcDbEntity
  8
STEMPEL
100
AcDbLine
 10
292.5707033562181
 20
522.2508534354817
 30
0.0
 11
147.0538137614056
 21
522.2508534354817
 31
0.0
  0
LINE
  5
31E6
330
1E
100
AcDbEntity
  8
MITTEL
100
AcDbLine
 10
219.8122585588119
 20
527.2508534354817
 30
0.0
 11
219.8122585588119
 21
369.0440285861138
 31
0.0
  0
LINE
  5
31E7
330
1E
100
AcDbEntity
  8
STEMPEL
100
AcDbLine
 10
153.3122585588117
 20
439.7508534354817
 30
0.0
 11
153.3122585588117
 21
401.7415140785842
 31
0.0
  0
DIMENSION
  5
33C3
330
1E
100
AcDbEntity
  8
BEM
100
AcDbDimension
  2
*D7
 10
73.00955708330501
 20
222.2508534354817
 30
0.0
 11
66.50955708330499
 21
372.2508534354818
 31
0.0
 70
    32
 71
     5
 42
300.0
  3
Standard
100
AcDbAlignedDimension
 13
147.0538137614056
 23
522.2508534354817
 33
0.0
 14
112.0620318293303
 24
222.2508534354817
 34
0.0
 50
90.0
100
AcDbRotatedDimension
1001
ACAD
1000
DSTYLE
1002
{
1070
    40
1040
2.0
1070
    41
1040
3.5
1070
    42
1040
1.0
1070
    43
1040
7.0
1070
    44
1040
1.0
1070
    73
1070
     0
1070
    74
1070
     0
1070
    77
1070
     1
1070
    78
1070
     8
1070
    79
1070
     2
1070
   140
1040
3.5
1070
   141
1040
1.5
1070
   146
1040
0.5142857142857144
1070
   147
1040
1.5
1070
   172
1070
     1
1070
   178
1070
     1
1070
   179
1070
     2
1070
   271
1070
     2
1070
   272
1070
     2
1070
   284
1070
     8
1070
   285
1070
     8
1070
   286
1070
     8
1002
}
  0
LINE
  5
3401
330
1E
100
AcDbEntity
  8
HILF
100
AcDbLine
 10
150.4384431619326
 20
473.1478642541871
 30
0.0
 11
286.644808179934
 21
473.1478642541871
 31
0.0
  0
LINE
  5
3402
330
1E
100
AcDbEntity
  8
HILF
100
AcDbLine
 10
151.7753596951811
 20
450.3410441161481
 30
0.0
 11
285.1474361481609
 21
450.3410441161481
 31
0.0
  0
LINE
  5
3403
330
1E
100
AcDbEntity
  8
HILF
100
AcDbLine
 10
155.449862464502
 20
442.7389249588178
 30
0.0
 11
284.1746546531217
 21
442.7389249588178
 31
0.0
  0
LINE
  5
3404
330
1E
100
AcDbEntity
  8
HILF
100
AcDbLine
 10
155.1219237505729
 20
397.6449535629194
 30
0.0
 11
284.5025933670509
 21
397.6449535629194
 31
0.0
  0
HATCH
  5
3414
330
1E
100
AcDbEntity
  8
SCHRAFF
100
AcDbHatch
 10
0.0
 20
0.0
 30
0.0
210
0.0
220
0.0
230
1.0
  2
_USER
 70
     0
 71
     1
 91
        1
 92
        7
 72
     1
 73
     1
 93
        4
 10
329.3122585588119
 20
319.1087855381238
 42
0.008765442632123
 10
326.3122585588119
 20
319.3404419909817
 42
0.0
 10
326.3122585588119
 20
265.1518825910616
 42
0.0013960255188674
 10
329.3122585588119
 20
264.9038969782315
 42
0.0
 97
        3
330
3156
330
3171
330
318F
 75
     0
 76
     0
 52
45.0
 41
2.0
 77
     0
 78
     1
 53
45.0
 43
0.0
 44
0.0
 45
-1.414213562373094
 46
1.414213562373095
 79
     0
 47
0.1881269939305455
 98
        1
 10
328.7430524246734
 20
295.6806039930918
  0
DIMENSION
  5
345A
330
1E
100
AcDbEntity
  8
BEM
100
AcDbDimension
  2
*D8
 10
286.312258558812
 20
355.0934323789702
 30
0.0
 11
219.8122585588119
 21
361.5934323789702
 31
0.0
 70
    32
  1
%%c<>
 71
     5
 42
133.0000000000003
  3
Standard
100
AcDbAlignedDimension
 13
153.3122585588117
 23
401.7415140785842
 33
0.0
 14
286.312258558812
 24
401.7415140785844
 34
0.0
100
AcDbRotatedDimension
1001
ACAD
1000
DSTYLE
1002
{
1070
    40
1040
2.0
1070
    41
1040
3.5
1070
    42
1040
1.0
1070
    43
1040
7.0
1070
    44
1040
1.0
1070
    73
1070
     0
1070
    74
1070
     0
1070
    77
1070
     1
1070
    78
1070
     8
1070
    79
1070
     2
1070
   140
1040
3.5
1070
   141
1040
1.5
1070
   146
1040
0.5142857142857144
1070
   147
1040
1.5
1070
   172
1070
     1
1070
   178
1070
     1
1070
   179
1070
     2
1070
   271
1070
     2
1070
   272
1070
     2
1070
   284
1070
     8
1070
   285
1070
     8
1070
   286
1070
     8
1002
}
  0
ENDSEC
  0
SECTION
  2
OBJECTS
  0
DICTIONARY
  5
C
330
0
100
AcDbDictionary
281
     1
  3
ACAD_COLOR
350
DF
  3
ACAD_GROUP
350
D
  3
ACAD_LAYOUT
350
19
  3
ACAD_MATERIAL
350
DE
  3
ACAD_MLINESTYLE
350
16
  3
ACAD_PLOTSETTINGS
350
18
  3
ACAD_PLOTSTYLENAME
350
E
  3
AcDbVariableDictionary
350
EA
  0
DICTIONARY
  5
A0
330
1E
100
AcDbDictionary
280
     1
281
     1
  3
ACAD_LAYOUTSELFREF
360
D4
  0
DICTIONARY
  5
A2
330
1A
100
AcDbDictionary
280
     1
281
     1
  3
ACAD_LAYOUTSELFREF
360
D3
  0
DICTIONARY
  5
DF
102
{ACAD_REACTORS
330
C
102
}
330
C
100
AcDbDictionary
281
     1
  0
DICTIONARY
  5
D
102
{ACAD_REACTORS
330
C
102
}
330
C
100
AcDbDictionary
281
     1
  0
DICTIONARY
  5
19
102
{ACAD_REACTORS
330
C
102
}
330
C
100
AcDbDictionary
281
     1
  3
Layout1
350
1D
  3
Model
350
21
  0
DICTIONARY
  5
DE
102
{ACAD_REACTORS
330
C
102
}
330
C
100
AcDbDictionary
281
     1
  0
DICTIONARY
  5
16
102
{ACAD_REACTORS
330
C
102
}
330
C
100
AcDbDictionary
281
     1
  3
Standard
350
17
  0
DICTIONARY
  5
18
102
{ACAD_REACTORS
330
C
102
}
330
C
100
AcDbDictionary
281
     1
  0
ACDBDICTIONARYWDFLT
  5
E
102
{ACAD_REACTORS
330
C
102
}
330
C
100
AcDbDictionary
281
     1
  3
Normal
350
F
100
AcDbDictionaryWithDefault
340
F
  0
DICTIONARY
  5
EA
102
{ACAD_REACTORS
330
C
102
}
330
C
100
AcDbDictionary
281
     1
  3
DIMASSOC
350
EB
  3
PROJECTNAME
350
EC
  0
XRECORD
  5
D4
102
{ACAD_REACTORS
330
A0
102
}
330
A0
100
AcDbXrecord
280
     1
340
1E
  0
XRECORD
  5
D3
102
{ACAD_REACTORS
330
A2
102
}
330
A2
100
AcDbXrecord
280
     1
340
1A
  0
LAYOUT
  5
1D
102
{ACAD_REACTORS
330
19
102
}
330
19
100
AcDbPlotSettings
  1

  2
\\NT_WORK01\HP LaserJet 5000 PCL 6
  4

  6

 40
0.0
 41
0.0
 42
0.0
 43
0.0
 44
0.0
 45
0.0
 46
0.0
 47
0.0
 48
0.0
 49
0.0
140
0.0
141
0.0
142
1.0
143
1.0
 70
   688
 72
     0
 73
     0
 74
     5
  7

 75
    16
147
1.0
 76
     0
 77
     2
 78
   300
148
0.0
149
0.0
100
AcDbLayout
  1
Layout1
 70
     0
 71
     1
 10
0.0
 20
0.0
 11
12.0
 21
9.0
 12
0.0
 22
0.0
 32
0.0
 14
1.000000000000000E+20
 24
1.000000000000000E+20
 34
1.000000000000000E+20
 15
-1.000000000000000E+20
 25
-1.000000000000000E+20
 35
-1.000000000000000E+20
146
0.0
 13
0.0
 23
0.0
 33
0.0
 16
1.0
 26
0.0
 36
0.0
 17
0.0
 27
1.0
 37
0.0
 76
     0
330
1A
  0
LAYOUT
  5
21
102
{ACAD_REACTORS
330
19
102
}
330
19
100
AcDbPlotSettings
  1

  2
none_device
  4
Letter_(8.50_x_11.00_Inches)
  6

 40
6.349999904632568
 41
6.349999904632568
 42
6.350006103515625
 43
6.350006103515625
 44
215.8999938964844
 45
279.3999938964844
 46
0.0
 47
0.0
 48
0.0
 49
0.0
140
0.0
141
0.0
142
1.0
143
1.0
 70
 11952
 72
     0
 73
     1
 74
     0
  7

 75
     0
147
1.0
 76
     0
 77
     2
 78
   300
148
2307.343575563032
149
97.50979417344687
100
AcDbLayout
  1
Model
 70
     1
 71
     0
 10
0.0
 20
0.0
 11
12.0
 21
9.0
 12
0.0
 22
0.0
 32
0.0
 14
0.0
 24
0.0
 34
0.0
 15
0.0
 25
0.0
 35
0.0
146
0.0
 13
0.0
 23
0.0
 33
0.0
 16
1.0
 26
0.0
 36
0.0
 17
0.0
 27
1.0
 37
0.0
 76
     0
330
1E
  0
MLINESTYLE
  5
17
102
{ACAD_REACTORS
330
16
102
}
330
16
100
AcDbMlineStyle
  2
STANDARD
 70
     0
  3

 62
   256
 51
90.0
 52
90.0
 71
     2
 49
0.5
 62
   256
  6
BYLAYER
 49
-0.5
 62
   256
  6
BYLAYER
  0
ACDBPLACEHOLDER
  5
F
102
{ACAD_REACTORS
330
E
102
}
330
E
  0
DICTIONARYVAR
  5
EB
102
{ACAD_REACTORS
330
EA
102
}
330
EA
100
DictionaryVariables
280
     0
  1
1
  0
DICTIONARYVAR
  5
EC
102
{ACAD_REACTORS
330
EA
102
}
330
EA
100
DictionaryVariables
280
     0
  1

  0
ENDSEC
  0
EOF
